<?xml version="1.0" standalone="no"?>
<!DOCTYPE svg PUBLIC "-//W3C//DTD SVG 1.1//EN" "http://www.w3.org/Graphics/SVG/1.1/DTD/svg11.dtd" >
<svg>
<metadata>
Created by FontForge 20090622 at Tue Sep 22 08:05:19 2020
 By deploy user
Copyright (C) 1996 Emigre Graphics, Designed by Zuzana Licko
</metadata>
<defs>
<font id="MrsEavesSmallCaps" horiz-adv-x="336" >
  <font-face 
    font-family="MrsEavesSmallCaps"
    font-weight="400"
    font-variant="small-caps"
    font-stretch="normal"
    units-per-em="1000"
    panose-1="2 11 5 0 0 0 0 0 0 0"
    ascent="800"
    descent="-200"
    x-height="433"
    cap-height="600"
    bbox="-119 -267 888 816"
    underline-thickness="25"
    underline-position="-62"
    unicode-range="U+0020-U+E000"
  />
<missing-glyph horiz-adv-x="502" 
d="M499 0h-500v500h500v-500zM9 490v-480h480v480h-480z" />
    <glyph glyph-name=".notdef" horiz-adv-x="502" 
d="M499 0h-500v500h500v-500zM9 490v-480h480v480h-480z" />
    <glyph glyph-name=".null" horiz-adv-x="0" 
 />
    <glyph glyph-name="nonmarkingreturn" horiz-adv-x="333" 
 />
    <glyph glyph-name="space" unicode=" " horiz-adv-x="233" 
 />
    <glyph glyph-name="exclam" unicode="!" horiz-adv-x="313" 
d="M194 40q0 -20 -14 -34t-34 -14q-19 0 -33 14.5t-14 33.5q0 20 14 34t33 14q20 0 34 -14t14 -34zM99 568q0 20 14 34.5t33 14.5t33.5 -14.5t14.5 -34.5q0 -24 -7 -72l-15 -142q-6 -73 -9 -194h-34q-3 122 -9 194t-15 141q-6 53 -6 73z" />
    <glyph glyph-name="quotedbl" unicode="&#x22;" horiz-adv-x="412" 
d="M75 568q0 20 14 34.5t33 14.5t33.5 -14.5t14.5 -34.5q0 -10 -10 -36q-25 -69 -30 -139h-17q-5 69 -29 139q-9 27 -9 36zM242 568q0 20 13.5 34.5t32.5 14.5t34 -15t15 -34q0 -10 -10 -36q-25 -69 -30 -139h-17q-5 69 -29 139q-9 27 -9 36z" />
    <glyph glyph-name="numbersign" unicode="#" horiz-adv-x="435" 
d="M320 425l-19 -111h78l-9 -52h-78l-20 -123h-40l21 123h-107l-20 -123h-40l21 123h-79l10 52h77l19 111h-77l9 53h77l21 122h40l-21 -122h106l21 122h40l-21 -122h79l-10 -53h-78zM174 425l-19 -111h106l19 111h-106z" />
    <glyph glyph-name="dollar" unicode="$" horiz-adv-x="498" 
d="M252 683v-101q56 -6 93 -30.5t37 -50.5q0 -18 -18 -24q-2 0 -4 -1h-4q-9 0 -29 20q-37 41 -75 46v-197l71 -36q44 -23 68.5 -58t24.5 -72q0 -69 -48 -116q-47 -46 -116 -47v-99h-36v101q-69 6 -115 37q-45 32 -45 61q0 12 11 20q8 5 14 5q10 0 31 -24q48 -53 104 -61v227
l-48 25q-45 23 -72.5 59.5t-27.5 80.5q0 55 42 94t106 41v100h36zM252 264v-210q45 2 73.5 30t28.5 73q0 58 -102 107zM216 364v179q-36 -3 -61 -24.5t-25 -51.5q0 -31 19.5 -54t66.5 -49z" />
    <glyph glyph-name="percent" unicode="%" horiz-adv-x="763" 
d="M704 128q0 -59 -44 -101.5t-105 -42.5t-105 42.5t-44 101.5t44 101t105 42t105 -42t44 -101zM555 618l36 -18l-383 -618l-36 18zM357 473q0 -58 -44 -100.5t-105 -42.5t-105.5 42.5t-44.5 100.5q0 59 44.5 101.5t105.5 42.5t105 -42.5t44 -101.5zM638 128q0 50 -21.5 80
t-61.5 30t-61 -30t-21 -80t21 -80t61 -30t61.5 30t21.5 80zM290 473q0 49 -21.5 79.5t-60.5 30.5q-40 0 -61.5 -30t-21.5 -80t21.5 -80t61.5 -30q39 0 60.5 30.5t21.5 79.5z" />
    <glyph glyph-name="ampersand" unicode="&#x26;" horiz-adv-x="657" 
d="M233 357q75 43 105 73t30 72q0 33 -22.5 54.5t-56.5 21.5q-42 0 -68.5 -27t-26.5 -62q0 -61 39 -132zM385 75q-135 143 -183 212q-67 -58 -67 -137q0 -50 38 -90q38 -38 95 -38q72 0 117 53zM409 50q-54 -67 -149 -67q-80 0 -138.5 46t-58.5 129q0 52 28.5 90.5
t85.5 74.5q-55 85 -55 150q0 63 49 103q49 41 118 41q59 0 101 -33q42 -31 42 -82q0 -43 -27 -72t-95 -68q-36 -21 -58 -36q43 -64 163 -196q11 32 14 60q2 26 2 32q0 34 -19 46t-71 12v21h226v-21q-62 -2 -78.5 -17.5t-25.5 -72.5q-8 -55 -23 -87q72 -80 121 -80
q30 0 65 35l17 -17q-43 -58 -101 -58q-64 0 -133 67z" />
    <glyph glyph-name="quotesingle" unicode="'" horiz-adv-x="245" 
d="M75 568q0 20 14 34.5t33 14.5t33.5 -14.5t14.5 -34.5q0 -10 -10 -36q-25 -69 -30 -139h-17q-5 69 -29 139q-9 27 -9 36z" />
    <glyph glyph-name="parenleft" unicode="(" horiz-adv-x="358" 
d="M329 -89l1 -1l-22 -21q-225 183 -225 406q0 221 224 406l23 -21l-1 -1q-70 -76 -113 -151q-63 -110 -63 -233q0 -122 63 -234q44 -74 113 -150z" />
    <glyph glyph-name="parenright" unicode=")" horiz-adv-x="358" 
d="M275 295q0 -224 -224 -406l-23 21l2 2q74 83 112 150q64 111 64 233t-64 233q-38 67 -112 150l-2 2l24 21q223 -184 223 -406z" />
    <glyph glyph-name="asterisk" unicode="*" horiz-adv-x="407" 
d="M194 414q-40 -26 -67 -71q-10 -19 -19 -24q-10 -7 -24 -7q-29 0 -42 25q-7 10 -7 22q0 29 25 42q7 4 31 6q50 2 94 23q-44 22 -95 24q-24 2 -30 5q-25 16 -25 42q0 12 7 22q13 25 42 25q14 0 24 -7q9 -5 19 -24q25 -44 67 -71q-4 51 -26 93q-11 20 -11 29q0 20 13.5 34.5
t32.5 14.5t34 -15t15 -34q0 -9 -11 -29q-25 -46 -28 -94q42 28 67 70q12 19 20 24q11 7 25 7q26 0 40 -23q6 -10 6 -23q0 -28 -23 -42q-7 -4 -32 -6q-51 0 -94 -22q45 -22 95 -22q25 -2 31 -5q23 -15 23 -43q0 -12 -6 -23q-14 -23 -40 -23q-14 0 -25 7q-8 5 -20 24
q-25 43 -68 70q5 -50 29 -93q11 -22 11 -30q0 -19 -15 -34t-34 -15t-32.5 14.5t-13.5 34.5q0 9 11 29q22 41 26 93z" />
    <glyph glyph-name="plus" unicode="+" horiz-adv-x="458" 
d="M251 400v-157h157v-44h-157v-157h-44v157h-157v44h157v157h44z" />
    <glyph glyph-name="comma" unicode="," horiz-adv-x="313" 
d="M154 -2q-1 -1 -8 -1q-19 0 -33 14.5t-14 34.5t14 34t33 14q23 0 38.5 -16.5t15.5 -46.5q0 -38 -25 -81.5t-67 -69.5l-11 12q47 51 57 106z" />
    <glyph glyph-name="hyphen" unicode="-" horiz-adv-x="458" 
d="M375 243v-44h-292v44h292z" />
    <glyph glyph-name="period" unicode="." horiz-adv-x="313" 
d="M211 44q0 -21 -17 -36.5t-40 -15.5t-39 15.5t-16 36.5q0 22 16 37.5t39 15.5t40 -15.5t17 -37.5z" />
    <glyph glyph-name="slash" unicode="/" horiz-adv-x="181" 
d="M264 618l36 -18l-383 -618l-36 18z" />
    <glyph glyph-name="zero" unicode="0" horiz-adv-x="467" 
d="M404 217q0 -96 -50.5 -165t-120.5 -69q-69 0 -119.5 69t-50.5 165t50 164.5t120 68.5t120.5 -69t50.5 -164zM332 217q0 89 -25.5 142.5t-73.5 53.5q-47 0 -72.5 -53.5t-25.5 -142.5t25.5 -142.5t72.5 -53.5q48 0 73.5 53.5t25.5 142.5z" />
    <glyph glyph-name="one" unicode="1" horiz-adv-x="467" 
d="M348 21v-21h-230v21q51 0 65.5 21t14.5 96v153q0 69 -19 88q-20 20 -77 20v21l166 33v-315q0 -75 14.5 -96t65.5 -21z" />
    <glyph glyph-name="two" unicode="2" horiz-adv-x="467" 
d="M385 0h-315v24l183 164q61 55 61 113q0 52 -28 79.5t-76 27.5q-34 0 -61 -26t-27 -62q0 -30 21 -62l-30 -31q-54 37 -54 95q0 53 43 90q44 38 115 38q67 0 116 -37q50 -38 50 -97q0 -34 -20 -69t-34 -48.5t-26 -22.5l-135 -118h228z" />
    <glyph glyph-name="three" unicode="3" horiz-adv-x="467" 
d="M240 235q-11 -12 -23 -34q-14 -20 -28 -20q-8 0 -14.5 5.5t-6.5 13.5q0 12 9 23l135 152h-121q-77 0 -92 -56l-5 -20h-22l23 134h293v-27l-115 -133q54 -15 89 -55.5t35 -87.5q0 -60 -49.5 -103.5t-122.5 -43.5q-66 0 -111 33q-40 28 -40 56q0 23 27 23q12 0 30 -22
q17 -25 37 -36.5t57 -11.5q49 0 75 29t26 76q0 40 -24 70t-62 35z" />
    <glyph glyph-name="four" unicode="4" horiz-adv-x="467" 
d="M90 165h138v183zM398 128h-100q0 -68 15 -87q15 -20 65 -20v-21h-230v21q50 0 65 20q15 19 15 87h-194v20l238 315h26v-298q37 0 54.5 15.5t28.5 60.5l5 20h21z" />
    <glyph glyph-name="five" unicode="5" horiz-adv-x="467" 
d="M395 138q0 -64 -53 -109.5t-127 -45.5q-63 0 -104 29q-40 30 -40 59q0 24 28 24q15 0 27 -22q16 -26 34 -37t55 -11q50 0 79.5 32t29.5 81q0 52 -26 83.5t-75 31.5q-34 0 -61 -20t-35 -53h-39l25 253h260l-10 -58h-215l-12 -115q37 34 96 34q70 0 116 -46q47 -45 47 -110
z" />
    <glyph glyph-name="six" unicode="6" horiz-adv-x="467" 
d="M394 124q0 -58 -44.5 -99.5t-106.5 -41.5q-27 0 -54 10t-53.5 31.5t-43.5 65t-17 101.5q0 101 50 180t129 79q46 0 79 -21q34 -21 34 -43q0 -11 -11 -19q-6 -3 -11 -3q-9 0 -26 17q-30 32 -64 32q-49 0 -76.5 -53t-31.5 -129q12 14 37.5 23.5t51.5 9.5q62 0 110 -41.5
t48 -98.5zM324 124q0 41 -25 71t-63 30q-32 0 -58.5 -13.5t-33.5 -33.5q2 -73 30 -115.5t69 -42.5q38 0 59.5 30.5t21.5 73.5z" />
    <glyph glyph-name="seven" unicode="7" horiz-adv-x="467" 
d="M82 433h330v-27l-193 -383l-1 -2q-13 -26 -21 -35t-22 -9q-4 0 -12 2q-22 5 -22 31q0 16 12 34l210 331h-185q-77 0 -92 -56l-5 -20h-23z" />
    <glyph glyph-name="eight" unicode="8" horiz-adv-x="467" 
d="M398 116q0 -56 -49 -95q-49 -38 -116 -38q-65 0 -115 38t-50 87q0 45 28.5 74.5t81.5 51.5q-87 54 -87 105q0 48 42 79q44 32 100 32q57 0 100 -30t43 -72q0 -58 -98 -101q63 -30 91.5 -58.5t28.5 -72.5zM309 351q0 26 -21.5 44t-54.5 18q-32 0 -53.5 -18t-21.5 -44
q0 -25 21.5 -45t65.5 -43q64 33 64 88zM332 104q0 32 -25.5 54.5t-83.5 51.5q-7 4 -12 6q-38 -22 -56.5 -46.5t-18.5 -61.5q0 -39 26.5 -63t70.5 -24t71.5 23.5t27.5 59.5z" />
    <glyph glyph-name="nine" unicode="9" horiz-adv-x="467" 
d="M393 243q0 -102 -49.5 -181t-130.5 -79q-46 0 -79 21q-33 22 -33 44q0 11 11 19q5 4 11 4q8 0 25 -17q31 -33 65 -33q48 0 74.5 52t33.5 130q-13 -14 -38 -24t-51 -10q-62 0 -110.5 42t-48.5 98q0 58 45 99.5t107 41.5q27 0 54 -9.5t54 -31.5t43.5 -65t16.5 -101z
M323 255q-1 73 -29 115.5t-69 42.5q-38 0 -60 -30t-22 -74q0 -41 24.5 -71t64.5 -30q31 0 58 13.5t33 33.5z" />
    <glyph glyph-name="colon" unicode=":" horiz-adv-x="335" 
d="M215 40q0 -20 -14 -34t-34 -14q-19 0 -33 14.5t-14 33.5q0 20 14 34t33 14q20 0 34 -14t14 -34zM215 230q0 -20 -14 -34t-34 -14q-19 0 -33 14.5t-14 33.5q0 20 14 34t33 14q20 0 34 -14t14 -34z" />
    <glyph glyph-name="semicolon" unicode=";" horiz-adv-x="335" 
d="M215 230q0 -20 -14 -34t-34 -14q-19 0 -33 14.5t-14 33.5q0 20 14 34t33 14q20 0 34 -14t14 -34zM175 -8h-8q-19 0 -33 14.5t-14 33.5q0 20 14 34t33 14q23 0 38.5 -16.5t15.5 -46.5q0 -38 -25 -81.5t-67 -69.5l-11 12q47 51 57 106z" />
    <glyph glyph-name="less" unicode="&#x3c;" horiz-adv-x="500" 
d="M195 268l233 -200l-15 -18l-330 218l330 217l15 -17z" />
    <glyph glyph-name="equal" unicode="=" horiz-adv-x="458" 
d="M375 303v-45h-292v45h292zM375 178v-45h-292v45h292z" />
    <glyph glyph-name="greater" unicode="&#x3e;" horiz-adv-x="500" 
d="M88 485l329 -217l-329 -218l-15 18l232 200l-232 200z" />
    <glyph glyph-name="question" unicode="?" horiz-adv-x="504" 
d="M273 40q0 -20 -14 -34t-34 -14q-19 0 -33 14.5t-14 33.5q0 20 14 34t33 14q20 0 34 -14t14 -34zM388 459q0 58 -46 92q-44 34 -109 34q-51 0 -84 -20.5t-33 -46.5t43 -26q16 0 28 -11.5t12 -27.5q0 -21 -15.5 -33t-35.5 -12q-29 0 -52 26.5t-23 66.5q0 47 48 82
q49 34 120 34q86 0 149.5 -47t63.5 -122q0 -56 -27 -97t-70 -63q-60 -31 -110 -34v-94h-44v164q75 0 130 34t55 101z" />
    <glyph glyph-name="at" unicode="@" horiz-adv-x="708" 
d="M426 246l31 177q-23 25 -62 25q-42 0 -74 -44q-31 -43 -42 -107q-4 -25 -4 -51q0 -93 62 -93q30 0 56 27t33 66zM508 153q41 0 85.5 65.5t44.5 142.5q0 103 -67.5 164.5t-164.5 61.5q-124 0 -212.5 -93t-88.5 -216q0 -124 74 -199.5t191 -75.5q109 0 212 65l11 -19
q-112 -80 -231 -80q-134 0 -228.5 89t-94.5 217q0 144 104 247.5t248 103.5q120 0 199.5 -73.5t79.5 -189.5q0 -94 -60.5 -170t-125.5 -76q-26 0 -44 14.5t-22 36.5q-16 -22 -45.5 -38.5t-53.5 -16.5q-50 0 -79 37.5t-29 99.5q0 26 4 47q14 76 68 129.5t117 53.5
q34 0 64 -17h56l-44 -250q-2 -18 -2 -24q0 -36 34 -36z" />
    <glyph glyph-name="A" unicode="A" horiz-adv-x="617" 
d="M408 208h-242l-48 -111q-10 -21 -10 -36q0 -40 88 -40v-21h-234v21q61 2 76.5 13.5t40.5 67.5l3 6l220 509h13l221 -509l3 -6q25 -56 40.5 -67.5t75.5 -13.5v-21h-277v21q88 0 88 40q0 15 -10 36zM182 245h209l-105 241z" />
    <glyph glyph-name="B" unicode="B" horiz-adv-x="598" 
d="M308 37h26q61 0 94.5 36t33.5 95t-33.5 96t-94.5 37h-121v-148q0 -76 16 -96t79 -20zM302 563h-89v-225h89q53 0 81.5 31t28.5 81t-29 81.5t-81 31.5zM422 326q58 -18 93 -61t35 -97q0 -73 -57 -121q-58 -47 -158 -47h-297v21q63 0 79 20t16 97v325q0 77 -16 96.5
t-79 19.5v21h269q90 0 141.5 -41.5t51.5 -108.5q0 -37 -21 -70t-57 -54z" />
    <glyph glyph-name="C" unicode="C" horiz-adv-x="692" 
d="M618 231v-220h-20q-9 39 -34 57q-80 -85 -186 -85q-125 0 -216 93.5t-91 223.5t91 223.5t216 93.5q106 0 186 -85q28 20 34 57h20v-220h-20q-21 99 -78 154t-138 55q-74 0 -125 -43.5t-72 -104t-21 -130.5q0 -69 21 -129.5t72.5 -104t124.5 -43.5q81 0 138 55.5t78 152.5
h20z" />
    <glyph glyph-name="D" unicode="D" horiz-adv-x="713" 
d="M309 0h-271v21q63 0 79 20t16 97v325q0 77 -16 96.5t-79 19.5v21h271q164 0 249 -83.5t85 -216.5t-85 -216.5t-249 -83.5zM310 563h-97v-410q2 -79 15.5 -96.5t77.5 -19.5h4q68 0 116.5 23t73.5 62.5t36 83t11 94.5q0 52 -11 95t-36 83t-73.5 62.5t-116.5 22.5z" />
    <glyph glyph-name="E" unicode="E" horiz-adv-x="583" 
d="M528 0h-490v21q63 0 79 20t16 97v325q0 77 -16 96.5t-79 19.5v21h456l9 -132h-21l-5 20q-12 44 -32 59q-19 16 -84 16h-148v-227h50q77 0 96.5 16t19.5 80h21v-229h-21q0 64 -19.5 80t-96.5 16h-50v-146q0 -76 16 -96t79 -20h86q65 0 84 16q22 17 32 60l5 20h21z" />
    <glyph glyph-name="F" unicode="F" horiz-adv-x="536" 
d="M378 563h-165v-227h50q77 0 96.5 16t19.5 80h21v-229h-21q0 64 -19.5 80t-96.5 16h-50v-161q0 -77 16 -97t79 -20v-21h-270v21q63 0 79 20t16 97v325q0 77 -16 96.5t-79 19.5v21h473l8 -132h-21l-5 20q-10 43 -31 59q-19 16 -84 16z" />
    <glyph glyph-name="G" unicode="G" horiz-adv-x="725" 
d="M565 163q0 34 -22 49.5t-72 15.5v20h262v-20q-63 0 -79 -20t-16 -97v-76q-53 0 -134 -27q-76 -25 -126 -25q-125 0 -216 93.5t-91 223.5t91 223.5t216 93.5q106 0 186 -85q28 20 34 57h20v-220h-20q-20 99 -77 154t-140 55q-74 0 -125 -43.5t-72 -104t-21 -130.5
q0 -53 12.5 -99t38.5 -87t74 -64.5t112 -23.5q69 0 117 36q48 37 48 101z" />
    <glyph glyph-name="H" unicode="H" horiz-adv-x="765" 
d="M553 300h-340v-162q0 -77 16 -97t79 -20v-21h-270v21q63 0 79 20t16 97v325q0 77 -16 96.5t-79 19.5v21h270v-21q-63 0 -79 -19.5t-16 -96.5v-126h340v126q0 76 -16.5 96t-79.5 20v21h271v-21q-64 0 -80 -19.5t-16 -96.5v-325q0 -77 16.5 -97t79.5 -20v-21h-271v21
q63 0 79.5 20.5t16.5 96.5v162z" />
    <glyph glyph-name="I" unicode="I" horiz-adv-x="346" 
d="M308 21v-21h-270v21q63 0 79 20t16 97v325q0 77 -16 96.5t-79 19.5v21h270v-21q-63 0 -79 -19.5t-16 -96.5v-325q0 -77 16 -97t79 -20z" />
    <glyph glyph-name="J" unicode="J" horiz-adv-x="346" 
d="M38 -193q95 0 95 138v518q0 77 -16 96.5t-79 19.5v21h270v-21q-63 0 -79 -19.5t-16 -96.5v-507q0 -95 -51 -137t-124 -42q-52 0 -99.5 26.5t-47.5 68.5q0 14 10 24t25 10q14 0 24 -10t10 -24q0 -26 21.5 -45.5t56.5 -19.5z" />
    <glyph glyph-name="K" unicode="K" horiz-adv-x="730" 
d="M471 498l-175 -150l310 -269q29 -24 67 -41q42 -17 62 -17v-21h-281v21q61 0 61 24q0 14 -23 34l-253 219l-26 -21v-139q0 -77 16 -97t79 -20v-21h-270v21q63 0 79 20t16 97v325q0 77 -16 96.5t-79 19.5v21h270v-21q-63 0 -79 -19.5t-16 -96.5v-140l205 175q49 42 49 62
q0 19 -45 19v21h232v-21q-55 0 -92 -17q-32 -15 -91 -64z" />
    <glyph glyph-name="L" unicode="L" horiz-adv-x="575" 
d="M561 0h-523v21q63 0 79 20t16 97v325q0 77 -16 96.5t-79 19.5v21h270v-21q-63 0 -79 -19.5t-16 -96.5v-310q0 -76 16 -96t79 -20h120q65 0 84 16q21 18 31 60l5 20h21z" />
    <glyph glyph-name="M" unicode="M" horiz-adv-x="825" 
d="M392 -17l-222 511v-356q0 -76 16.5 -96.5t79.5 -20.5v-21h-228v21q63 0 79 20t16 97v325q0 77 -16 96.5t-79 19.5v21h170l212 -487l211 487h157v-21q-64 0 -80 -19.5t-16 -96.5v-325q0 -77 16.5 -97t79.5 -20v-21h-270v21q63 0 79 20t16 97v326l-208 -481h-13z" />
    <glyph glyph-name="N" unicode="N" horiz-adv-x="725" 
d="M179 600l384 -476v339q0 77 -16 96.5t-79 19.5v21h228v-21q-63 0 -79.5 -20t-16.5 -96v-480h-23l-407 503v-348q0 -76 16.5 -96.5t79.5 -20.5v-21h-228v21q63 0 79 20t16 97v325q0 77 -16 96.5t-79 19.5v21h141z" />
    <glyph glyph-name="O" unicode="O" horiz-adv-x="808" 
d="M738 300q0 -130 -98.5 -223.5t-235.5 -93.5q-136 0 -234.5 93.5t-98.5 223.5t98.5 223.5t234.5 93.5q137 0 235.5 -93.5t98.5 -223.5zM404 578q-79 0 -135 -43.5t-79.5 -104.5t-23.5 -130t23.5 -129.5t79.5 -104t135 -43.5q60 0 107.5 25t75.5 65.5t42 88.5t14 98
q0 51 -14 98.5t-42 88.5t-75.5 66t-107.5 25z" />
    <glyph glyph-name="P" unicode="P" horiz-adv-x="540" 
d="M38 600h264q101 0 158 -48t57 -121t-57 -121q-58 -47 -158 -47h-89v-125q0 -77 16 -97t79 -20v-21h-270v21q63 0 79 20t16 97v325q0 77 -16 96.5t-79 19.5v21zM213 299h88q61 0 94 36.5t33 95.5t-33 95.5t-94 36.5h-88v-264z" />
    <glyph glyph-name="Q" unicode="Q" horiz-adv-x="808" 
d="M350 -13q-121 20 -200 109.5t-79 203.5q0 130 98.5 223.5t234.5 93.5q137 0 235.5 -93.5t98.5 -223.5q0 -123 -87 -211.5t-213 -103.5q-78 -7 -133 -57q31 7 65 7q48 0 85.5 -13.5t93.5 -46.5q48 -28 78.5 -39.5t65.5 -11.5q66 0 107 23t66 74l16 -8q-24 -67 -77 -116.5
t-131 -49.5q-41 0 -80.5 19.5t-103.5 66.5q-53 39 -83.5 55t-58.5 16q-37 0 -56.5 -11t-36.5 -34q-15 -21 -27 -22q-34 0 -34 32q0 25 46.5 62t109.5 56zM404 578q-116 0 -178.5 -84.5t-62.5 -193.5q0 -50 14.5 -98t43 -88.5t76 -65.5t107.5 -25q80 0 136.5 43t81 104
t24.5 130t-24.5 130t-81 104.5t-136.5 43.5z" />
    <glyph glyph-name="R" unicode="R" horiz-adv-x="620" 
d="M213 299h88q61 0 94 36.5t33 95.5t-33 95.5t-94 36.5h-88v-264zM339 263l98 -115q99 -117 186 -127v-21h-165l-198 263h-47v-125q0 -77 16 -97t79 -20v-21h-270v21q63 0 79 20t16 97v325q0 77 -16 96.5t-79 19.5v21h264q101 0 158 -48t57 -121q0 -67 -48 -113t-130 -55z
" />
    <glyph glyph-name="S" unicode="S" horiz-adv-x="498" 
d="M107 30q-23 -20 -29 -47h-20v220h20q0 -45 26 -96q46 -84 159 -84q54 0 89.5 31t35.5 79q0 60 -115 121l-96 49q-49 26 -80 69.5t-31 95.5q0 62 47 106q46 43 119 43q67 0 122 -41q23 20 29 46h20v-220h-21q-16 175 -153 175q-42 0 -69.5 -25.5t-27.5 -63.5q0 -37 26 -63
q25 -24 95 -61l96 -49q104 -52 104 -152q0 -79 -55 -129.5t-135 -50.5q-51 0 -120 32q-25 13 -36 15z" />
    <glyph glyph-name="T" unicode="T" horiz-adv-x="641" 
d="M17 600h607l9 -135h-21l-5 20q-12 45 -32 60q-19 16 -84 16h-131v-423q0 -76 16.5 -96.5t79.5 -20.5v-21h-271v21q63 0 79.5 20.5t16.5 96.5v423h-131q-65 0 -84 -16q-20 -15 -32 -60l-5 -20h-21z" />
    <glyph glyph-name="U" unicode="U" horiz-adv-x="716" 
d="M557 218v245q0 76 -16.5 96t-79.5 20v21h234v-21q-63 0 -79.5 -20t-16.5 -96v-240q0 -112 -68 -177q-67 -63 -173 -63q-104 0 -172 63q-68 65 -68 177v240q0 77 -16 96.5t-79 19.5v21h270v-21q-63 0 -79 -19.5t-16 -96.5v-245q0 -92 47 -141t128 -49q85 0 134.5 49
t49.5 141z" />
    <glyph glyph-name="V" unicode="V" horiz-adv-x="617" 
d="M654 600v-21q-58 0 -78 -16q-17 -14 -39 -66q0 -1 -0.5 -2.5t-1.5 -2.5l-220 -509h-13l-221 509q-1 1 -1 2q-1 2 -1 3q-23 53 -40 66q-17 16 -77 16v21h277v-21q-88 0 -88 -39q0 -16 10 -37l170 -389l168 389q10 21 10 36q0 40 -88 40v21h233z" />
    <glyph glyph-name="W" unicode="W" horiz-adv-x="793" 
d="M533 -17l-140 443l-141 -443h-14l-161 509q-12 34 -18 47t-19.5 24t-30.5 13t-52 3v21h281v-21q-48 0 -67 -9t-19 -32q0 -14 7 -35l109 -345l140 442h15l140 -441l109 344q6 19 6 33q0 23 -17.5 33t-58.5 10v21h225v-21q-61 0 -81 -16t-38 -71l-162 -509h-13z" />
    <glyph glyph-name="X" unicode="X" horiz-adv-x="614" 
d="M405 97l-112 166l-130 -166q-18 -24 -18 -41q0 -35 72 -35v-21h-238v21q45 0 76.5 20.5t67.5 66.5l147 190l-131 194q-32 45 -64.5 66t-79.5 21v21h284v-21q-72 0 -72 -33q0 -17 19 -43l95 -140l109 140q21 27 21 44q0 32 -74 32v21h237v-21q-52 0 -78 -17
q-24 -15 -57 -58q-7 -9 -9 -12l-127 -164l150 -220q34 -47 65.5 -67t78.5 -20v-21h-285v21q73 0 73 32q0 15 -20 44z" />
    <glyph glyph-name="Y" unicode="Y" horiz-adv-x="625" 
d="M518 492l-165 -250v-104q0 -77 16 -97t79 -20v-21h-270v21q63 0 79 20t16 97v97l-166 257q-34 50 -63 68q-29 19 -82 19v21h285v-21q-72 0 -72 -32q0 -15 18 -44l144 -220l146 220q20 32 20 47q0 29 -74 29v21h234v-21q-58 0 -85 -18q-26 -18 -60 -69z" />
    <glyph glyph-name="Z" unicode="Z" horiz-adv-x="575" 
d="M43 23l337 540h-184q-65 0 -85 -16q-21 -16 -31 -59l-5 -20h-21l9 132h426v-12l-345 -551h225q65 0 84 16q22 17 32 60l5 20h21l-8 -133h-460v23z" />
    <glyph glyph-name="bracketleft" unicode="[" horiz-adv-x="358" 
d="M319 -56v-32h-202v766h202v-32h-137v-702h137z" />
    <glyph glyph-name="backslash" unicode="\" horiz-adv-x="348" 
d="M-1 618l384 -618l-36 -18l-384 618z" />
    <glyph glyph-name="bracketright" unicode="]" horiz-adv-x="358" 
d="M242 678v-766h-203v32h138v702h-138v32h203z" />
    <glyph glyph-name="asciicircum" unicode="^" horiz-adv-x="485" 
d="M42 338l201 279l200 -279l-18 -15l-182 182l-184 -182z" />
    <glyph glyph-name="underscore" unicode="_" horiz-adv-x="358" 
d="M359 0v-44h-360v44h360z" />
    <glyph glyph-name="grave" unicode="`" horiz-adv-x="404" 
d="M93 577l93 -88l-5 -6l-138 58q-23 10 -23 30q0 11 8 20t20 9q18 0 45 -23z" />
    <glyph glyph-name="a" unicode="a" horiz-adv-x="514" 
d="M322 143h-164l-20 -46q-15 -35 -15 -49q0 -15 15.5 -21t53.5 -6v-21h-189v21q46 0 62 14t41 73l147 342h14l147 -342q26 -58 42 -72.5t56 -14.5v-21h-224v21q37 0 52 6.5t15 23.5q0 16 -13 46zM174 180h132l-66 153z" />
    <glyph glyph-name="b" unicode="b" horiz-adv-x="490" 
d="M359 122q0 39 -21.5 62.5t-61.5 23.5h-80v-95q0 -50 10 -63t51 -13h19q40 0 61.5 23.5t21.5 61.5zM323 321q0 33 -18.5 54.5t-51.5 21.5h-57v-149h57q33 0 51.5 20.5t18.5 52.5zM158 0h-112v20q52 0 65.5 20t13.5 97v160q0 76 -13.5 96t-65.5 20v20h112h99
q67 0 105.5 -30.5t38.5 -79.5q0 -52 -43 -86q78 -32 78 -114q0 -55 -42.5 -89t-116.5 -34h-119z" />
    <glyph glyph-name="c" unicode="c" horiz-adv-x="517" 
d="M452 174v-174h-19q-7 38 -18 49q-24 -29 -60.5 -47.5t-71.5 -18.5q-94 0 -160 69t-66 165q0 95 67 164t159 69q36 0 73 -18.5t59 -47.5q8 8 18 49h19v-173h-20q-14 72 -53 112t-96 40q-51 0 -85.5 -31.5t-47 -73t-12.5 -90.5q0 -78 35.5 -136.5t109.5 -58.5q57 0 96 40
t53 112h20z" />
    <glyph glyph-name="d" unicode="d" horiz-adv-x="558" 
d="M419 217q0 35 -7 64.5t-23.5 57t-49 43t-78.5 15.5h-65v-284q0 -50 10 -63t47 -13h8q87 0 122.5 51.5t35.5 128.5zM258 0h-212v20q52 0 65.5 20t13.5 97v160q0 76 -13.5 96t-65.5 20v20h212q120 0 182 -60t62 -156q0 -95 -58 -153q-64 -64 -186 -64z" />
    <glyph glyph-name="e" unicode="e" horiz-adv-x="475" 
d="M275 37h12q66 0 85 13q20 13 31 51l5 20h20l-8 -121h-374v20q52 0 65.5 20t13.5 97v160q0 76 -13.5 96t-65.5 20v20h221h129l8 -120h-21l-5 20q-9 36 -30 50q-22 14 -85 14h-67v-149h6q75 0 91.5 12.5t16.5 66.5h20v-195h-20q0 52 -17 65.5t-91 13.5h-6v-58
q0 -76 13.5 -96t65.5 -20z" />
    <glyph glyph-name="f" unicode="f" horiz-adv-x="435" 
d="M196 211v-74q0 -76 14 -96.5t65 -20.5v-20h-229v20q52 0 65.5 20t13.5 97v160q0 76 -13.5 96t-65.5 20v20h232h130l8 -120h-21l-5 20q-11 38 -31 51q-19 13 -85 13h-78v-149h6q75 0 91.5 12.5t16.5 66.5h20v-195h-20q0 52 -17 65.5t-91 13.5h-6z" />
    <glyph glyph-name="g" unicode="g" horiz-adv-x="558" 
d="M466 51v-30q-30 0 -95 -20q-60 -18 -88 -18q-94 0 -160 69t-66 165q0 95 67 164t159 69q36 0 73 -18.5t59 -47.5q8 8 18 49h19v-173h-20q-14 72 -53 112t-96 40q-51 0 -86 -31t-48 -73t-13 -91t13 -91t48 -73t86 -31q44 0 85.5 24.5t41.5 60.5q0 29 -23.5 45t-62.5 16v20
h221v-20q-51 0 -65 -20.5t-14 -96.5z" />
    <glyph glyph-name="h" unicode="h" horiz-adv-x="620" 
d="M196 297v-49h227v49q0 76 -13.5 96t-65.5 20v20h229v-20q-51 0 -65 -20.5t-14 -95.5v-160q0 -75 14 -96t65 -21v-20h-229v20q52 0 65.5 20t13.5 97v74h-227v-74q0 -76 14 -96.5t65 -20.5v-20h-229v20q52 0 65.5 20t13.5 97v160q0 76 -13.5 96t-65.5 20v20h229v-20
q-51 0 -65 -20t-14 -96z" />
    <glyph glyph-name="i" unicode="i" horiz-adv-x="322" 
d="M275 20v-20h-229v20q52 0 65.5 20t13.5 97v160q0 76 -13.5 96t-65.5 20v20h229v-20q-51 0 -65 -20t-14 -96v-160q0 -76 14 -96.5t65 -20.5z" />
    <glyph glyph-name="j" unicode="j" horiz-adv-x="322" 
d="M125 26v271q0 76 -13.5 96t-65.5 20v20h229v-20q-51 0 -65 -20t-14 -96v-271q0 -91 -41 -140t-106 -49q-54 0 -85 27q-32 27 -32 56q0 26 27 28q16 0 24.5 -8t15.5 -27q10 -23 21 -33t34 -10q71 0 71 156z" />
    <glyph glyph-name="k" unicode="k" horiz-adv-x="571" 
d="M343 97l-121 113l-26 -22v-51q0 -76 14 -96.5t65 -20.5v-20h-229v20q52 0 65.5 20t13.5 97v160q0 76 -13.5 96t-65.5 20v20h229v-20q-51 0 -65 -20t-14 -96v-64l122 104q54 47 54 62q0 14 -42 14v20h188v-20q-38 0 -69.5 -17t-93.5 -71l-86 -74l163 -143q64 -55 90 -71
t54 -16v-21h-235v21q45 0 45 17q0 19 -43 59z" />
    <glyph glyph-name="l" unicode="l" horiz-adv-x="443" 
d="M125 137v160q0 76 -13.5 96t-65.5 20v20h229v-20q-51 0 -65 -20t-14 -96v-144q0 -76 13.5 -96t65.5 -20h35q66 0 85 13q20 13 31 51l5 20h21l-7 -121h-399v20q52 0 65.5 20t13.5 97z" />
    <glyph glyph-name="m" unicode="m" horiz-adv-x="678" 
d="M318 -17l-156 354v-200q0 -76 14 -96.5t65 -20.5v-20h-195v20q52 0 65.5 20t13.5 97v160q0 76 -13.5 96t-65.5 20v20h150l149 -334l148 334h140v-20q-51 0 -65.5 -20.5t-14.5 -95.5v-160q0 -75 14.5 -96t65.5 -21v-20h-229v20q52 0 65.5 20t13.5 97v187l-151 -341h-14z
" />
    <glyph glyph-name="n" unicode="n" horiz-adv-x="597" 
d="M125 137v160q0 76 -13.5 96t-65.5 20v20h123l266 -316v180q0 76 -13.5 96t-65.5 20v20h195v-20q-51 0 -65 -20t-14 -96v-313h-19l-291 349v-196q0 -76 14 -96.5t65 -20.5v-20h-195v20q52 0 65.5 20t13.5 97z" />
    <glyph glyph-name="o" unicode="o" horiz-adv-x="602" 
d="M545 217q0 -96 -72.5 -165t-171.5 -69t-171.5 69t-72.5 165q0 95 72.5 164t171.5 69t171.5 -69t72.5 -164zM463 217q0 77 -41 136t-121 59t-121 -59t-41 -136t41 -136t121 -59t121 59t41 136z" />
    <glyph glyph-name="p" unicode="p" horiz-adv-x="433" 
d="M335 309q0 39 -21.5 63.5t-60.5 24.5h-57v-174h57q39 0 60.5 24t21.5 62zM196 186v-49q0 -76 14 -96.5t65 -20.5v-20h-229v20q52 0 65.5 20t13.5 97v160q0 76 -13.5 96t-65.5 20v20h207q74 0 117 -34t43 -90q0 -55 -43 -89t-117 -34h-57z" />
    <glyph glyph-name="q" unicode="q" horiz-adv-x="602" 
d="M621 -60l16 -8q-19 -56 -60 -91.5t-98 -35.5q-29 0 -57 15t-73 50q-39 30 -60 41.5t-41 11.5q-26 0 -39 -8.5t-26 -28.5q-10 -17 -20 -19q-31 0 -31 30q0 17 38.5 47t82.5 44q-85 19 -142 82q-54 63 -54 147q0 94 72.5 163t171.5 69t171.5 -69t72.5 -163
q0 -91 -63.5 -156.5t-155.5 -75.5q-11 -1 -47 -13q-30 -10 -46 -23h9q4 1 9 1q52 0 134 -45q68 -38 107 -38q92 0 129 73zM465 217q0 76 -42.5 135.5t-121.5 59.5q-80 0 -121.5 -59.5t-41.5 -135.5q0 -77 41.5 -136t121.5 -59q79 0 121.5 59.5t42.5 135.5z" />
    <glyph glyph-name="r" unicode="r" horiz-adv-x="485" 
d="M335 309q0 39 -21.5 63.5t-60.5 24.5h-57v-174h57q39 0 60.5 24t21.5 62zM292 188l62 -75q70 -83 134 -93v-20h-128l-136 186h-28v-49q0 -76 14 -96.5t65 -20.5v-20h-229v20q52 0 65.5 20t13.5 97v160q0 76 -13.5 96t-65.5 20v20h207q74 0 117 -34t43 -90
q0 -46 -33.5 -80t-87.5 -41z" />
    <glyph glyph-name="s" unicode="s" horiz-adv-x="398" 
d="M353 120q0 -60 -42 -99q-41 -38 -100 -38q-57 0 -112 37q-15 -17 -19 -37h-18v172h20q6 -63 43 -98t94 -35q34 0 55.5 18.5t21.5 48.5q0 49 -82 89l-68 35q-83 44 -83 122q0 48 36 81t89 33t95 -30l1 1q13 16 14 30h20v-169h-20q-4 54 -30.5 92.5t-74.5 38.5
q-31 0 -51.5 -16t-20.5 -42q0 -24 18 -41.5t69 -44.5l67 -35q78 -40 78 -113z" />
    <glyph glyph-name="t" unicode="t" horiz-adv-x="464" 
d="M198 137v257h-58q-47 -2 -67.5 -7.5t-28.5 -16.5t-16 -40l-5 -20h-20l6 123h446l7 -123h-21l-5 20q-11 38 -31 51q-19 13 -85 13h-52v-257q0 -75 14.5 -96t65.5 -21v-20h-230v20q51 0 65.5 21t14.5 96z" />
    <glyph glyph-name="u" unicode="u" horiz-adv-x="573" 
d="M179 297v-142q0 -62 31.5 -94.5t86.5 -32.5q56 0 89 32.5t33 94.5v142q0 76 -13.5 96t-65.5 20v20h204v-20q-51 0 -65 -20.5t-14 -95.5v-135q0 -84 -51 -131q-52 -47 -128 -47t-128 47q-50 47 -50 131v135q0 76 -13.5 96t-65.5 20v20h229v-20q-51 0 -65 -20.5t-14 -95.5z
" />
    <glyph glyph-name="v" unicode="v" horiz-adv-x="514" 
d="M514 433v-20q-47 -1 -60.5 -13.5t-41.5 -74.5l-148 -342h-13l-148 342q-26 59 -41.5 73.5t-55.5 14.5v20h224v-20q-67 0 -67 -30q0 -16 13 -46l102 -236l101 236q16 33 16 49q0 15 -15.5 21t-53.5 6v20h188z" />
    <glyph glyph-name="w" unicode="w" horiz-adv-x="664" 
d="M339 433h19l99 -300l69 204q10 27 10 43q0 18 -14.5 25.5t-48.5 7.5v20h188v-20q-47 0 -65 -15.5t-38 -72.5l-114 -342h-13l-102 313l-104 -313h-13l-111 342q-18 54 -36 71q-19 17 -62 17v20h222v-20q-34 0 -48.5 -7.5t-14.5 -27.5q0 -16 9 -41l67 -204z" />
    <glyph glyph-name="x" unicode="x" horiz-adv-x="513" 
d="M303 97l-58 83l-67 -83q-27 -35 -27 -52q0 -24 53 -24v-21h-188v21q34 0 59 18q25 19 66 69l82 104l-80 113q-39 55 -60 70q-23 18 -60 18v20h224v-20q-52 0 -52 -22q0 -16 26 -54l47 -69l55 69q29 38 29 54q0 22 -55 22v20h188v-20q-36 0 -61 -19q-23 -17 -64 -69
l-70 -87l91 -130q36 -51 60.5 -69t60.5 -18v-21h-224v21q52 0 52 21q0 16 -27 55z" />
    <glyph glyph-name="y" unicode="y" horiz-adv-x="483" 
d="M382 325l-99 -146v-42q0 -75 14.5 -96t65.5 -21v-20h-230v20q51 0 65.5 21t14.5 96v41l-100 147q-37 56 -58 71q-22 17 -59 17v20h222v-20q-54 0 -54 -23q0 -18 25 -53l78 -115l77 115q28 40 28 56q0 20 -56 20v20h188v-20q-41 0 -64 -19q-25 -20 -58 -69z" />
    <glyph glyph-name="z" unicode="z" horiz-adv-x="445" 
d="M53 23l235 374h-86q-66 0 -86 -13q-20 -14 -30 -51l-5 -20h-21l7 120h318v-13l-240 -383h115q66 0 85 13q20 13 31 51l5 20h21l-7 -121h-342v23z" />
    <glyph glyph-name="braceleft" unicode="{" horiz-adv-x="358" 
d="M42 288v16l3 1q38 13 53.5 24t27 46t12.5 103q0 83 44 134q30 34 108 77q6 4 12.5 7.5t9.5 5.5l3 1l17 -21q-70 -50 -92 -79q-32 -45 -32 -123q0 -70 -11.5 -107.5t-31.5 -52t-61 -24.5q41 -10 61 -24t31.5 -51.5t11.5 -108.5q0 -77 32 -123q20 -28 92 -79l-17 -21
q-9 6 -26 15q-76 42 -107 76q-44 51 -44 134q0 95 -25 131q-17 25 -68 42z" />
    <glyph glyph-name="bar" unicode="|" horiz-adv-x="467" 
d="M268 617v-479q0 -75 14.5 -96t65.5 -21v-21h-230v21q51 0 65.5 21t14.5 96v316q0 70 -19 89q-20 20 -77 20v20z" />
    <glyph glyph-name="braceright" unicode="}" horiz-adv-x="358" 
d="M317 304v-16l-2 -1q-39 -14 -54.5 -24.5t-26.5 -44.5t-13 -104q0 -85 -45 -135q-28 -32 -107 -76q-12 -6 -26 -14l-16 21q69 47 91 79q32 45 32 123q1 102 22.5 136t81.5 48q-41 10 -61 24.5t-31.5 52t-11.5 107.5q0 78 -32 123q-22 32 -91 79l16 21l25 -14
q79 -44 108 -76q45 -50 45 -135q1 -53 6 -83t18.5 -48t26.5 -24.5t43 -17.5z" />
    <glyph glyph-name="asciitilde" unicode="~" horiz-adv-x="423" 
d="M298 258q41 0 58 63h21q0 -61 -25 -96.5t-67 -35.5q-25 0 -89 40q-58 34 -75 34t-33.5 -18.5t-22.5 -43.5h-21q0 56 25 92.5t61 36.5q26 0 88 -37q56 -35 80 -35z" />
    <glyph glyph-name="exclamdown" unicode="&#xa1;" 
d="M253 22v-22h-171v22q36 0 47 14q10 14 10 67v110q0 50 -14 62q-13 13 -55 13v20l127 26v-231q0 -53 10 -67q11 -14 46 -14z" />
    <glyph glyph-name="cent" unicode="&#xa2;" 
d="M275 194h21l-6 -101h-72q0 -45 10.5 -58t46.5 -13v-22h-172v22q37 0 47.5 13t10.5 58h-139v17l172 229h24v-213q22 1 33.5 11.5t19.5 40.5zM72 126h89v118z" />
    <glyph glyph-name="sterling" unicode="&#xa3;" 
d="M289 92q0 -45 -36.5 -77t-90.5 -32q-48 0 -79 23q-30 22 -30 46q0 18 20 18q9 0 21 -18q14 -20 28 -29.5t40 -9.5q33 0 51.5 22.5t18.5 56.5q0 27 -16 47.5t-42 24.5q-4 -4 -16 -22q-9 -17 -24 -17q-18 0 -18 18q0 9 9 18l99 104h-86q-54 0 -63 -37l-5 -18h-22l18 103
h216v-23l-79 -94q38 -13 62 -42t24 -62z" />
    <glyph glyph-name="currency" unicode="&#xa4;" 
d="M130 335h159l-9 -48h-233v22l132 119q25 22 34.5 40.5t9.5 46.5q0 29 -18.5 46.5t-50.5 17.5q-25 0 -43.5 -17t-18.5 -42q0 -23 16 -46l-26 -25q-42 29 -42 74q0 39 32.5 66.5t83.5 27.5t87 -28t36 -71q0 -52 -60 -104z" />
    <glyph glyph-name="yen" unicode="&#xa5;" horiz-adv-x="625" 
d="M475 234h-122v-46h122v-44h-122v-6q0 -77 16 -97t79 -20v-21h-270v21q63 0 79 20t16 97v6h-150v44h150v46h-150v44h122l-138 214q-34 50 -63 68q-29 19 -82 19v21h285v-21q-72 0 -72 -32q0 -15 18 -44l144 -220l146 220q20 32 20 47q0 29 -74 29v21h234v-21
q-58 0 -85 -18q-26 -18 -60 -69l-141 -214h98v-44z" />
    <glyph glyph-name="brokenbar" unicode="&#xa6;" horiz-adv-x="211" 
d="M83 708h45v-300h-45v300zM83 300h45v-300h-45v300z" />
    <glyph glyph-name="section" unicode="&#xa7;" 
d="M291 88q0 -43 -34 -74t-82 -31t-87.5 35.5t-39.5 117.5q0 76 37 135t98 59q35 0 62 -16.5t27 -35.5q0 -6 -6 -11t-13 -5t-20 12q-23 24 -49 24q-32 0 -52.5 -35t-26.5 -91q28 20 64 20q50 0 85 -31q37 -31 37 -73zM233 88q0 29 -18 52t-46 23q-22 0 -40.5 -10.5
t-25.5 -26.5q1 -51 21.5 -82t50.5 -31q27 0 42.5 22t15.5 53z" />
    <glyph glyph-name="dieresis" unicode="&#xa8;" horiz-adv-x="310" 
d="M71 662q16 0 27.5 -11.5t11.5 -27.5q0 -17 -11.5 -28.5t-27.5 -11.5t-27.5 11.5t-11.5 28.5q0 16 11.5 27.5t27.5 11.5zM237 662q16 0 27.5 -11.5t11.5 -27.5t-11.5 -28t-27.5 -12t-27.5 11.5t-11.5 28.5q0 16 11.5 27.5t27.5 11.5z" />
    <glyph glyph-name="copyright" unicode="&#xa9;" horiz-adv-x="683" 
d="M342 617q131 0 223.5 -93t92.5 -224t-93 -224t-223 -93t-223.5 93.5t-93.5 223.5t93.5 223.5t223.5 93.5zM342 585q-118 0 -201.5 -83.5t-83.5 -201.5q0 -117 84 -201t201 -84t201 84t84 201t-84 201t-201 84zM506 262v-157h-17q-5 33 -16 44q-21 -26 -54 -42.5
t-65 -16.5q-83 0 -143 61.5t-60 148.5q0 85 60 147.5t143 62.5q32 0 65 -16.5t54 -42.5q11 15 16 44h17v-156h-18q-13 64 -48 100.5t-86 36.5q-46 0 -78 -28.5t-45 -66.5t-13 -81q0 -69 34 -122.5t102 -53.5q51 0 86 37t48 101h18z" />
    <glyph glyph-name="ordfeminine" unicode="&#xaa;" 
d="M288 178q0 -75 -37 -135t-98 -60q-35 0 -62 17t-27 35q0 7 6 12t13 5t20 -13q24 -24 49 -24q32 0 52.5 35t26.5 92q-28 -20 -64 -20q-49 0 -86 30q-36 32 -36 74q0 43 34 73q34 31 82 31t87.5 -35.5t39.5 -116.5zM233 188q-1 51 -21.5 82t-50.5 31q-26 0 -42 -22.5
t-16 -52.5q0 -29 18 -52t46 -23q22 0 40.5 10.5t25.5 26.5z" />
    <glyph glyph-name="guillemotleft" unicode="&#xab;" horiz-adv-x="667" 
d="M195 268l233 -200l-15 -18l-330 218l330 217l15 -17zM405 268l174 -146l-11 -20l-275 166l275 165l11 -19z" />
    <glyph glyph-name="logicalnot" unicode="&#xac;" horiz-adv-x="570" 
d="M83 295h376v-172h-44v128h-332v44z" />
    <glyph glyph-name="registered" unicode="&#xae;" horiz-adv-x="683" 
d="M342 617q131 0 223.5 -93t92.5 -224t-93 -224t-223 -93t-223.5 93.5t-93.5 223.5t93.5 223.5t223.5 93.5zM428 383q0 35 -20 57t-55 22h-59v-157h59q35 0 55 21.5t20 56.5zM550 105h-100l-125 168h-31v-45q0 -67 13 -86t58 -19v-18h-202v18q45 0 58 19q14 20 14 86v144
q0 66 -14 86q-13 19 -58 19v18h195q60 0 97.5 -31.5t37.5 -80.5q0 -42 -29.5 -72t-79.5 -37l57 -66q71 -85 124 -85q62 79 62 177q0 117 -84 201t-201 84q-118 0 -201.5 -83.5t-83.5 -201.5q0 -117 84 -201t201 -84q123 0 208 90z" />
    <glyph glyph-name="macron" unicode="&#xaf;" horiz-adv-x="258" 
d="M203 644v-23h-181v23h181z" />
    <glyph glyph-name="degree" unicode="&#xb0;" 
d="M294 370q0 -42 -36.5 -71t-89.5 -29q-52 0 -88.5 27t-36.5 68q0 59 75 91q-58 35 -58 75q0 35 32 60.5t76 25.5q46 0 77.5 -22t31.5 -57q0 -45 -67 -74q43 -20 63.5 -41t20.5 -53zM222 539q0 19 -15.5 34t-38.5 15t-38.5 -13.5t-15.5 -35.5q0 -28 63 -59q45 23 45 59z
M239 362q0 22 -16.5 36t-58.5 34q-10 5 -13 6q-54 -29 -54 -76q0 -25 20.5 -44.5t50.5 -19.5q31 0 51 19t20 45z" />
    <glyph glyph-name="plusminus" unicode="&#xb1;" horiz-adv-x="458" 
d="M50 43h358v-44h-358v44zM251 408v-140h157v-44h-157v-141h-44v141h-157v44h157v140h44z" />
    <glyph glyph-name="twosuperior" unicode="&#xb2;" 
d="M130 335h159l-9 -48h-233v22l132 119q25 22 34.5 40.5t9.5 46.5q0 29 -18.5 46.5t-50.5 17.5q-25 0 -43.5 -17t-18.5 -42q0 -23 16 -46l-26 -25q-42 29 -42 74q0 39 32.5 66.5t83.5 27.5t87 -28t36 -71q0 -52 -60 -104z" />
    <glyph glyph-name="threesuperior" unicode="&#xb3;" 
d="M289 378q0 -45 -37 -76q-37 -32 -90 -32q-46 0 -77.5 22t-31.5 46q0 19 20 19q9 0 21 -18q14 -20 28 -29.5t40 -9.5q33 0 51.5 22t18.5 56q0 27 -16 47.5t-42 25.5q-6 -6 -16 -23q-9 -16 -24 -16q-18 0 -18 18q0 9 9 18l99 104h-86q-54 0 -63 -38l-5 -17h-22l18 103h216
v-23l-79 -94q38 -13 62 -42t24 -63z" />
    <glyph glyph-name="acute" unicode="&#xb4;" horiz-adv-x="227" 
d="M173 643q0 -20 -23 -30l-137 -59l-5 7l93 87l1 1q27 23 43 23q12 0 20 -9t8 -20z" />
    <glyph glyph-name="mu" unicode="&#xb5;" horiz-adv-x="522" 
d="M169 -8v-41q0 -75 14 -96t65 -21v-21h-229v21q52 0 65.5 20t13.5 97v245q0 77 -13.5 97t-65.5 20v20h150v-195q0 -107 84 -107q30 0 65 29t35 70v66q0 75 -14.5 96t-65.5 21v20h150v-187q0 -75 14.5 -96t65.5 -21v-21l-134 -25q-7 15 -16 64q-62 -64 -131 -64
q-26 0 -53 9z" />
    <glyph glyph-name="paragraph" unicode="&#xb6;" 
d="M300 313v-23l-139 -277q-17 -34 -35 -34h-4q-3 1 -5 1q-18 6 -18 25q0 12 9 27l148 233h-128q-52 0 -63 -37l-4 -18h-23l19 103h243z" />
    <glyph glyph-name="periodcentered" unicode="&#xb7;" 
d="M288 464q0 -75 -37 -134.5t-98 -59.5q-35 0 -62 17t-27 35q0 7 6 11.5t13 4.5t20 -12q24 -24 49 -24q32 0 52.5 35t26.5 91q-31 -20 -64 -20q-48 0 -85 31t-37 74t34 73q34 31 82 31t87.5 -35.5t39.5 -117.5zM233 474q-1 51 -21.5 82.5t-50.5 31.5q-26 0 -42 -22.5
t-16 -52.5q0 -29 18 -52t46 -23q22 0 40.5 10t25.5 26z" />
    <glyph glyph-name="cedilla" unicode="&#xb8;" horiz-adv-x="218" 
d="M199 -126q0 -32 -30 -56t-59.5 -33.5t-56.5 -12.5v27q39 14 54 24q31 20 31 51q0 18 -18 28.5t-45 10.5q-18 0 -38 -6v14l108 107h45l-75 -76q33 -1 58.5 -22t25.5 -56z" />
    <glyph glyph-name="onesuperior" unicode="&#xb9;" 
d="M253 308v-21h-171v21q36 0 47 14q10 14 10 67v110q0 47 -13 61t-56 14v21l127 26v-232q0 -53 10 -67q11 -14 46 -14z" />
    <glyph glyph-name="ordmasculine" unicode="&#xba;" 
d="M294 157q0 -71 -37 -122.5t-89 -51.5t-89 51.5t-37 122.5t37 122t89 51t89 -51t37 -122zM236 157q0 63 -17.5 102.5t-50.5 39.5q-32 0 -49.5 -39t-17.5 -103t17.5 -103.5t49.5 -39.5t50 40t18 103z" />
    <glyph glyph-name="guillemotright" unicode="&#xbb;" horiz-adv-x="667" 
d="M254 485l329 -217l-329 -218l-15 18l233 200l-233 200zM99 433l274 -165l-274 -166l-11 20l174 146l-174 146z" />
    <glyph glyph-name="onequarter" unicode="&#xbc;" horiz-adv-x="853" 
d="M600 618l36 -18l-383 -618l-36 18zM758 194h21l-6 -101h-71q0 -45 10.5 -58t45.5 -13v-22h-171v22q36 0 46.5 13t10.5 58h-139v17l173 229h24v-213q21 1 32.5 12t19.5 40zM555 126h89v118zM270 308v-21h-172v21q37 0 48 14q10 14 10 67v110q0 47 -13 61t-56 14v21l126 26
v-232q0 -53 10 -67q11 -14 47 -14z" />
    <glyph glyph-name="onehalf" unicode="&#xbd;" horiz-adv-x="853" 
d="M600 618l36 -18l-383 -618l-36 18zM622 48h159l-9 -48h-234v23l133 118q43 33 43 82q0 70 -71 70q-24 0 -41.5 -17t-17.5 -41t16 -47l-27 -25q-42 28 -42 73q0 39 32.5 66.5t84.5 27.5t87.5 -27.5t35.5 -71.5q0 -50 -60 -103zM270 308v-21h-172v21q37 0 48 14
q10 14 10 67v110q0 47 -13 61t-56 14v21l126 26v-232q0 -53 10 -67q11 -14 47 -14z" />
    <glyph glyph-name="threequarters" unicode="&#xbe;" horiz-adv-x="853" 
d="M600 618l36 -18l-383 -618l-36 18zM750 194h21l-6 -101h-72q0 -45 10.5 -58t46.5 -13v-22h-172v22q37 0 47.5 13t10.5 58h-139v17l172 229h24v-213q22 1 33.5 11.5t19.5 40.5zM547 126h89v118zM306 378q0 -45 -37 -76q-37 -32 -91 -32q-47 0 -79 23q-30 23 -30 45
q0 19 20 19q9 0 21 -18q14 -20 28 -29.5t40 -9.5q33 0 51.5 22t18.5 56q0 27 -15.5 47.5t-41.5 25.5q-6 -6 -16 -23q-9 -16 -24 -16q-18 0 -18 18q0 9 9 18l99 104h-87q-55 0 -62 -38l-5 -17h-23l19 103h215v-23l-79 -94q38 -13 62.5 -42t24.5 -63z" />
    <glyph glyph-name="questiondown" unicode="&#xbf;" horiz-adv-x="504" 
d="M352 390q0 -19 -13.5 -33.5t-33.5 -14.5t-34 14t-14 34t14 34t34 14t33.5 -14t13.5 -34zM457 -71q0 -48 -49 -82q-47 -34 -119 -34q-86 0 -149.5 47t-63.5 122q0 110 97 160q60 31 110 34v94h45v-164q-75 0 -130 -34t-55 -101q0 -57 45 -92q46 -34 110 -34q50 0 83 20.5
t33 46.5t-43 26q-16 0 -28 11.5t-12 27.5q0 20 15.5 32.5t35.5 12.5q29 0 52 -26.5t23 -66.5z" />
    <glyph glyph-name="Agrave" unicode="&#xc0;" horiz-adv-x="617" 
d="M249 769l93 -88l-5 -6l-138 58q-23 10 -23 30q0 11 8 20t20 9q18 0 45 -23zM408 208h-242l-48 -111q-10 -21 -10 -36q0 -40 88 -40v-21h-234v21q61 2 76.5 13.5t40.5 67.5l3 6l220 509h13l221 -509l3 -6q25 -56 40.5 -67.5t75.5 -13.5v-21h-277v21q88 0 88 40
q0 15 -10 36zM182 245h209l-105 241z" />
    <glyph glyph-name="Aacute" unicode="&#xc1;" 
d="M288 385q0 -47 -39 -81q-38 -34 -94 -34q-45 0 -75 21t-30 46q0 20 21 20q10 0 20 -19q11 -20 24.5 -29.5t39.5 -9.5q33 0 54 25.5t21 60.5q0 36 -18.5 59.5t-50.5 23.5q-22 0 -41.5 -16t-26.5 -40h-33l18 188h195l-10 -48h-154l-7 -79q27 27 66 27q51 0 85.5 -33.5
t34.5 -81.5z" />
    <glyph glyph-name="Acircumflex" unicode="&#xc2;" horiz-adv-x="287" 
d="M273 368q0 -12 -8.5 -21.5t-23.5 -9.5q-12 0 -20.5 8.5t-8.5 20.5q0 21 -19 21q-18 0 -35.5 -23.5t-17.5 -58.5v-39q0 -53 10 -67q11 -14 47 -14v-22h-172v22q36 0 47 14q11 16 11 67v36q0 50 -11 66q-10 15 -47 15v20l103 20q9 -26 10 -46q32 45 75 45q30 0 45 -15.5
t15 -38.5z" />
    <glyph glyph-name="Atilde" unicode="&#xc3;" horiz-adv-x="617" 
d="M366 726q32 0 43 47h16q0 -46 -18.5 -72.5t-50.5 -26.5q-17 0 -66 29q-40 26 -57 26q-13 0 -25 -13.5t-17 -32.5h-15q0 42 18.5 70t45.5 28q21 0 66 -29q43 -26 60 -26zM408 208h-242l-48 -111q-10 -21 -10 -36q0 -40 88 -40v-21h-234v21q61 2 76.5 13.5t40.5 67.5l3 6
l220 509h13l221 -509l3 -6q25 -56 40.5 -67.5t75.5 -13.5v-21h-277v21q88 0 88 40q0 15 -10 36zM182 245h209l-105 241z" />
    <glyph glyph-name="Adieresis" unicode="&#xc4;" horiz-adv-x="307" 
d="M267 223l17 -21q-48 -50 -114 -50q-60 0 -98.5 39t-38.5 96q0 56 42 95.5t95 39.5q43 0 73.5 -27.5t30.5 -66.5q0 -14 -4 -26h-173q0 -5 -1 -11v-10q0 -43 23.5 -68t68.5 -25q39 0 79 35zM103 335h112q2 6 2 11q0 17 -13 29t-34 12q-50 0 -67 -52z" />
    <glyph glyph-name="Aring" unicode="&#xc5;" horiz-adv-x="293" 
d="M179 226v67q-49 -11 -70 -27t-21 -43q0 -14 8.5 -22t20.5 -8q25 0 62 33zM179 323q0 40 -9 54.5t-36 14.5q-15 0 -26.5 -8.5t-11.5 -22.5q0 -12 -8.5 -20t-19.5 -8t-19.5 8t-8.5 20q0 26 28 43.5t67 17.5q54 0 78 -24t24 -77v-109q0 -24 13 -24q10 0 20 13l14 -20
q-22 -25 -51 -25q-43 0 -52 37q-46 -39 -87 -39q-30 0 -49.5 17.5t-19.5 46.5q0 77 154 105z" />
    <glyph glyph-name="AE" unicode="&#xc6;" horiz-adv-x="758" 
d="M358 286v261l-135 -261h135zM358 249h-154l-78 -152q-14 -30 -14 -43q0 -33 76 -33v-21h-234v21q56 0 82 17q25 15 54 70l254 492h325l9 -132h-21l-5 20q-12 44 -32 59q-19 16 -84 16h-98v-277h12q22 1 34 1t25 3t18.5 4t12 8t8 11t3.5 17.5t2.5 21.5t0.5 30h21v-229h-21
q0 65 -15 79q-16 17 -89 17h-12v-96q0 -76 16 -96t79 -20h36q65 0 84 16q22 17 32 60l5 20h21l-8 -133h-440v21q63 0 79 20t16 97v111z" />
    <glyph glyph-name="Ccedilla" unicode="&#xc7;" horiz-adv-x="525" 
d="M303 -16v-167h-36v167q-87 8 -146.5 75.5t-59.5 157.5t59.5 156.5t146.5 74.5v169h36v-168q34 -4 66 -21.5t50 -43.5q8 8 18 49h19v-173h-20q-14 67 -48 106t-85 45v-388q50 5 84.5 44.5t48.5 106.5h20v-174h-19q-7 38 -18 49q-47 -57 -116 -65zM267 23v387
q-64 -8 -94.5 -64.5t-30.5 -128.5t30.5 -129t94.5 -65z" />
    <glyph glyph-name="Egrave" unicode="&#xc8;" horiz-adv-x="209" 
d="M146 522q0 -14 -10.5 -25t-24.5 -11t-24 11t-10 25t10 24.5t24 10.5t24.5 -10.5t10.5 -24.5zM197 185v-22h-172v22q36 0 47 14q11 16 11 67v36q0 50 -11 66q-10 15 -47 15v21l115 19v-157q0 -53 10 -67q11 -14 47 -14z" />
    <glyph glyph-name="Eacute" unicode="&#xc9;" 
d="M275 481h21l-6 -102h-72q0 -45 10.5 -58t46.5 -13v-21h-172v21q37 0 47.5 13t10.5 58h-139v18l172 229h24v-213q22 0 33.5 10.5t19.5 40.5zM72 413h89v118z" />
    <glyph glyph-name="Ecircumflex" unicode="&#xca;" horiz-adv-x="216" 
d="M189 213l18 -16q-37 -45 -78 -45q-73 0 -73 84v142h-38v23q32 7 46.5 27.5t18.5 59.5h30v-78h63v-32h-63v-142q0 -49 30 -49q20 0 46 26z" />
    <glyph glyph-name="Edieresis" unicode="&#xcb;" 
d="M291 374q0 -43 -34 -74q-35 -30 -82 -30q-48 0 -87.5 35.5t-39.5 117.5q0 75 37.5 134.5t97.5 59.5q35 0 62 -16.5t27 -35.5q0 -7 -6 -12t-13 -5t-20 13q-24 24 -49 24q-32 0 -52.5 -35t-26.5 -92q28 20 64 20q50 0 85 -31q37 -30 37 -73zM233 374q0 29 -18 52t-46 23
q-22 0 -40.5 -10t-25.5 -26q1 -51 21.5 -82.5t50.5 -31.5q26 0 42 22.5t16 52.5z" />
    <glyph glyph-name="Igrave" unicode="&#xcc;" horiz-adv-x="346" 
d="M130 769l93 -88l-5 -6l-138 58q-23 10 -23 30q0 11 8 20t20 9q18 0 45 -23zM308 21v-21h-270v21q63 0 79 20t16 97v325q0 77 -16 96.5t-79 19.5v21h270v-21q-63 0 -79 -19.5t-16 -96.5v-325q0 -77 16 -97t79 -20z" />
    <glyph glyph-name="Iacute" unicode="&#xcd;" horiz-adv-x="236" 
d="M213 233q0 -36 -25 -58.5t-64 -22.5q-21 0 -47 16q-13 7 -17 7q-9 0 -9 -23h-22v111h22q0 -31 21.5 -56t53.5 -25q37 0 37 37q0 11 -8.5 19t-29.5 19l-40 21q-50 27 -50 75q0 29 23 49t54 20q24 0 48 -13q5 -4 9 -4t4 17h22v-90h-22q0 25 -15.5 43t-39.5 18
q-33 0 -33 -31q0 -10 6.5 -16t29.5 -19l6 -3l35 -19q51 -27 51 -72z" />
    <glyph glyph-name="Icircumflex" unicode="&#xce;" horiz-adv-x="373" 
d="M361 191v-21l-100 -19q-7 10 -13 40v1q-33 -40 -86 -40q-54 0 -91 40q-38 41 -38 95q0 55 38 95q37 40 91 40q50 0 84 -37v108q0 54 -10 67q-11 14 -47 14v21l115 20v-343q0 -53 10 -67q11 -14 47 -14zM246 241v91q-9 25 -27.5 40t-41.5 15q-38 0 -58.5 -27t-20.5 -73
t20.5 -73t58.5 -27q23 0 41.5 15t27.5 39z" />
    <glyph glyph-name="Idieresis" unicode="&#xcf;" horiz-adv-x="361" 
d="M328 287q0 -54 -38 -95q-37 -40 -90 -40q-60 0 -92 46l-31 -45l-19 -1v341q0 52 -11 66q-10 15 -47 15v21l115 20v-230q34 37 85 37q53 0 90 -40q38 -41 38 -95zM263 287q0 46 -20 73t-58 27q-49 0 -70 -54v-91q22 -55 70 -55q38 0 58 27t20 73z" />
    <glyph glyph-name="Eth" unicode="&#xd0;" horiz-adv-x="713" 
d="M208 563v-239h100v-45h-100v-126q0 -76 16.5 -96t79.5 -20h5q69 0 118.5 22.5t75.5 62.5t37 83.5t11 94.5q0 52 -11 95.5t-37 83t-75.5 62t-118.5 22.5h-101zM133 138v141h-116v45h116v139q0 77 -16 96.5t-79 19.5v21h271q164 0 249 -83.5t85 -216.5t-85 -216.5
t-249 -83.5h-271v21q63 0 79 20t16 97z" />
    <glyph glyph-name="Ntilde" unicode="&#xd1;" 
d="M300 600v-23l-139 -277q-17 -34 -35 -34h-4q-3 1 -5 1q-18 6 -18 24q0 12 9 27l148 234h-128q-52 0 -63 -38l-4 -17h-23l19 103h243z" />
    <glyph glyph-name="Ograve" unicode="&#xd2;" horiz-adv-x="196" 
d="M184 185v-22h-171v22q35 0 46 14q10 14 10 67v227q0 53 -10 66q-11 15 -46 15v21l114 20v-349q0 -53 10 -67q11 -14 47 -14z" />
    <glyph glyph-name="Oacute" unicode="&#xd3;" horiz-adv-x="403" 
d="M391 185v-22h-172v22q35 0 46 14q11 16 11 67v42q0 37 -14 55t-48 18q-23 0 -49 -20q-25 -19 -25 -48v-47q0 -54 8 -68q9 -13 43 -13v-22h-166v22q36 0 47 14q11 16 11 67v36q0 50 -11 66q-10 15 -47 15v20l103 20q9 -21 11 -49q41 48 98 48q47 0 72 -30t25 -80v-46
q0 -53 10 -67q11 -14 47 -14z" />
    <glyph glyph-name="Ocircumflex" unicode="&#xd4;" horiz-adv-x="563" 
d="M551 185v-22h-159v22q31 0 38 13t7 68v42q0 73 -52 73q-18 0 -44 -20q-24 -19 -24 -48v-47q0 -55 7 -68t38 -13v-22h-148v22q31 0 38 13t7 68v42q0 38 -11.5 55.5t-39.5 17.5q-18 0 -44 -20q-24 -19 -24 -48v-47q0 -55 7 -68t38 -13v-22h-160v22q36 0 47 14q11 16 11 67
v36q0 50 -11 66q-10 15 -47 15v20l103 20q10 -29 11 -49q41 48 92 48q58 0 77 -50q17 20 45.5 35t54.5 15q86 0 86 -110v-46q0 -53 10 -67q11 -14 47 -14z" />
    <glyph glyph-name="Otilde" unicode="&#xd5;" horiz-adv-x="808" 
d="M452 726q32 0 43 47h16q0 -45 -19 -72t-50 -27q-18 0 -67 29q-41 26 -56 26q-13 0 -25 -13.5t-17 -32.5h-15q0 42 18.5 70t45.5 28q21 0 66 -29q43 -26 60 -26zM738 300q0 -130 -98.5 -223.5t-235.5 -93.5q-136 0 -234.5 93.5t-98.5 223.5t98.5 223.5t234.5 93.5
q137 0 235.5 -93.5t98.5 -223.5zM404 578q-79 0 -135 -43.5t-79.5 -104.5t-23.5 -130t23.5 -129.5t79.5 -104t135 -43.5q60 0 107.5 25t75.5 65.5t42 88.5t14 98q0 51 -14 98.5t-42 88.5t-75.5 66t-107.5 25z" />
    <glyph glyph-name="Odieresis" unicode="&#xd6;" 
d="M288 464q0 -75 -37 -134.5t-98 -59.5q-35 0 -62 17t-27 35q0 7 6 11.5t13 4.5t20 -12q24 -24 49 -24q32 0 52.5 35t26.5 91q-31 -20 -64 -20q-48 0 -85 31t-37 74t34 73q34 31 82 31t87.5 -35.5t39.5 -117.5zM233 474q-1 51 -21.5 82.5t-50.5 31.5q-26 0 -42 -22.5
t-16 -52.5q0 -29 18 -52t46 -23q22 0 40.5 10t25.5 26z" />
    <glyph glyph-name="multiply" unicode="&#xd7;" horiz-adv-x="0" 
 />
    <glyph glyph-name="Oslash" unicode="&#xd8;" horiz-adv-x="371" 
d="M330 287q0 -54 -44 -95q-43 -40 -104 -40q-62 0 -105 40q-44 41 -44 95q0 56 44 95q43 40 105 40q61 0 104 -40q44 -39 44 -95zM265 287q0 46 -21.5 73.5t-61.5 27.5q-41 0 -62.5 -27.5t-21.5 -73.5t21.5 -73.5t62.5 -27.5q40 0 61.5 27.5t21.5 73.5z" />
    <glyph glyph-name="Ugrave" unicode="&#xd9;" horiz-adv-x="716" 
d="M309 769l93 -88l-5 -6l-138 58q-23 10 -23 30q0 11 8 20t20 9q18 0 45 -23zM557 218v245q0 76 -16.5 96t-79.5 20v21h234v-21q-63 0 -79.5 -20t-16.5 -96v-240q0 -112 -68 -177q-67 -63 -173 -63q-104 0 -172 63q-68 65 -68 177v240q0 77 -16 96.5t-79 19.5v21h270v-21
q-63 0 -79 -19.5t-16 -96.5v-245q0 -92 47 -141t128 -49q85 0 134.5 49t49.5 141z" />
    <glyph glyph-name="Uacute" unicode="&#xda;" horiz-adv-x="716" 
d="M495 763q0 -20 -23 -30l-137 -59l-5 7l93 87l1 1q27 23 43 23q12 0 20 -9t8 -20zM557 218v245q0 76 -16.5 96t-79.5 20v21h234v-21q-63 0 -79.5 -20t-16.5 -96v-240q0 -112 -68 -177q-67 -63 -173 -63q-104 0 -172 63q-68 65 -68 177v240q0 77 -16 96.5t-79 19.5v21h270
v-21q-63 0 -79 -19.5t-16 -96.5v-245q0 -92 47 -141t128 -49q85 0 134.5 49t49.5 141z" />
    <glyph glyph-name="Ucircumflex" unicode="&#xdb;" horiz-adv-x="749" 
d="M380 816l119 -129l-12 -12l-107 76l-107 -76l-12 12zM557 218v245q0 76 -16.5 96t-79.5 20v21h234v-21q-63 0 -79.5 -20t-16.5 -96v-240q0 -112 -68 -177q-67 -63 -173 -63q-104 0 -172 63q-68 65 -68 177v240q0 77 -16 96.5t-79 19.5v21h270v-21q-63 0 -79 -19.5
t-16 -96.5v-245q0 -92 47 -141t128 -49q85 0 134.5 49t49.5 141z" />
    <glyph glyph-name="Udieresis" unicode="&#xdc;" 
d="M294 443q0 -71 -37 -122t-89 -51t-89 51t-37 122q0 72 37 123t89 51t89 -51t37 -123zM236 443q0 64 -17.5 103.5t-50.5 39.5q-32 0 -49.5 -39.5t-17.5 -103.5q0 -63 17.5 -102.5t49.5 -39.5t50 40t18 102z" />
    <glyph glyph-name="Yacute" unicode="&#xdd;" horiz-adv-x="625" 
d="M464 764q0 -20 -23 -30l-137 -59l-5 7l93 87l1 1q27 23 43 23q12 0 20 -9t8 -20zM518 492l-165 -250v-104q0 -77 16 -97t79 -20v-21h-270v21q63 0 79 20t16 97v97l-166 257q-34 50 -63 68q-29 19 -82 19v21h285v-21q-72 0 -72 -32q0 -15 18 -44l144 -220l146 220
q20 32 20 47q0 29 -74 29v21h234v-21q-58 0 -85 -18q-26 -18 -60 -69z" />
    <glyph glyph-name="Thorn" unicode="&#xde;" horiz-adv-x="433" 
d="M335 223q0 70 -82 70h-57v-140h57q82 0 82 70zM253 116h-57q1 -60 17 -79q15 -17 62 -17v-20h-229v20q52 0 65.5 20t13.5 97v160q0 76 -13.5 96t-65.5 20v20h229v-20q-45 0 -60.5 -16t-17.5 -67h56q160 0 160 -106q0 -52 -41.5 -80t-118.5 -28z" />
    <glyph glyph-name="germandbls" unicode="&#xdf;" horiz-adv-x="598" 
d="M117 427v2q0 94 47.5 141t116.5 47q44 0 72 -23.5t28 -52.5q0 -34 -33 -34q-14 0 -21.5 8t-14.5 27q-9 23 -19 32.5t-30 9.5q-39 0 -57 -36t-18 -119v-429h-150v21q51 0 65 21t14 96v160h-79v20q49 0 64 20t15 89zM564 92q0 -48 -34 -78.5t-85 -30.5q-28 0 -70 22
q-17 10 -25 10q-12 0 -12 -32h-20v146h20q0 -39 30 -76q30 -36 80 -36q24 0 40 15t16 36q0 32 -56 61l-55 30q-32 17 -49.5 44.5t-17.5 55.5q0 38 30 64.5t72 26.5q37 0 70 -18q12 -5 13 -5q7 0 7 23h21v-116h-21q0 35 -22.5 59.5t-58.5 24.5q-51 0 -51 -43
q0 -17 12.5 -29.5t48.5 -31.5l48 -26q69 -39 69 -96z" />
    <glyph glyph-name="agrave" unicode="&#xe0;" horiz-adv-x="514" 
d="M208 603l93 -88l-5 -6l-138 58q-23 10 -23 30q0 11 8 20t20 9q18 0 45 -23zM322 143h-164l-20 -46q-15 -35 -15 -49q0 -15 15.5 -21t53.5 -6v-21h-189v21q46 0 62 14t41 73l147 342h14l147 -342q26 -58 42 -72.5t56 -14.5v-21h-224v21q37 0 52 6.5t15 23.5q0 16 -13 46z
M174 180h132l-66 153z" />
    <glyph glyph-name="aacute" unicode="&#xe1;" horiz-adv-x="514" 
d="M402 597q0 -20 -23 -30l-137 -59l-5 7l93 87l1 1q27 23 43 23q12 0 20 -9t8 -20zM322 143h-164l-20 -46q-15 -35 -15 -49q0 -15 15.5 -21t53.5 -6v-21h-189v21q46 0 62 14t41 73l147 342h14l147 -342q26 -58 42 -72.5t56 -14.5v-21h-224v21q37 0 52 6.5t15 23.5
q0 16 -13 46zM174 180h132l-66 153z" />
    <glyph glyph-name="acircumflex" unicode="&#xe2;" horiz-adv-x="514" 
d="M256 649l119 -129l-12 -12l-107 76l-107 -76l-12 12zM322 143h-164l-20 -46q-15 -35 -15 -49q0 -15 15.5 -21t53.5 -6v-21h-189v21q46 0 62 14t41 73l147 342h14l147 -342q26 -58 42 -72.5t56 -14.5v-21h-224v21q37 0 52 6.5t15 23.5q0 16 -13 46zM174 180h132l-66 153z
" />
    <glyph glyph-name="atilde" unicode="&#xe3;" horiz-adv-x="514" 
d="M366 608h16q0 -47 -19 -73.5t-50 -26.5q-18 0 -67 29q-41 26 -56 26q-13 0 -25 -13t-17 -32h-15q0 42 18.5 69.5t45.5 27.5q21 0 66 -29q43 -26 60 -26q29 0 43 48zM322 143h-164l-20 -46q-15 -35 -15 -49q0 -15 15.5 -21t53.5 -6v-21h-189v21q46 0 62 14t41 73l147 342
h14l147 -342q26 -58 42 -72.5t56 -14.5v-21h-224v21q37 0 52 6.5t15 23.5q0 16 -13 46zM174 180h132l-66 153z" />
    <glyph glyph-name="adieresis" unicode="&#xe4;" horiz-adv-x="514" 
d="M180 587q16 0 27.5 -11.5t11.5 -27.5q0 -17 -11.5 -28.5t-27.5 -11.5t-27.5 11.5t-11.5 28.5q0 16 11.5 27.5t27.5 11.5zM346 587q16 0 27.5 -11.5t11.5 -27.5t-11.5 -28t-27.5 -12t-27.5 11.5t-11.5 28.5q0 16 11.5 27.5t27.5 11.5zM322 143h-164l-20 -46
q-15 -35 -15 -49q0 -15 15.5 -21t53.5 -6v-21h-189v21q46 0 62 14t41 73l147 342h14l147 -342q26 -58 42 -72.5t56 -14.5v-21h-224v21q37 0 52 6.5t15 23.5q0 16 -13 46zM174 180h132l-66 153z" />
    <glyph glyph-name="aring" unicode="&#xe5;" horiz-adv-x="514" 
d="M260 672q35 0 59 -24t24 -58q0 -35 -24 -59t-59 -24q-34 0 -58 24t-24 59q0 34 24 58t58 24zM260 636q-19 0 -32.5 -13.5t-13.5 -32.5t13.5 -32.5t32.5 -13.5t32.5 13.5t13.5 32.5t-13.5 32.5t-32.5 13.5zM322 143h-164l-20 -46q-15 -35 -15 -49q0 -15 15.5 -21t53.5 -6
v-21h-189v21q46 0 62 14t41 73l147 342h14l147 -342q26 -58 42 -72.5t56 -14.5v-21h-224v21q37 0 52 6.5t15 23.5q0 16 -13 46zM174 180h132l-66 153z" />
    <glyph glyph-name="ae" unicode="&#xe6;" horiz-adv-x="657" 
d="M316 182h-118l-50 -85q-20 -35 -20 -51q0 -25 59 -25v-21h-184v21q41 0 63 16q25 18 55 71l187 325h150h129l8 -120h-21l-5 20q-9 36 -30 50q-22 14 -86 14h-66v-179h6q42 1 60.5 3t30.5 12t14 22.5t3 42.5h20v-195h-20q0 52 -17 65.5t-91 13.5h-6v-29q0 -76 13.5 -96
t65.5 -20h12q66 0 85 13q21 14 30 51l5 20h21l-8 -121h-374v20q51 0 65 21t14 96v45zM316 218v167l-97 -167h97z" />
    <glyph glyph-name="ccedilla" unicode="&#xe7;" horiz-adv-x="517" 
d="M164 -90l78 77q-80 16 -132.5 80.5t-52.5 149.5q0 95 67 164t159 69q36 0 73 -18.5t59 -47.5q8 8 18 49h19v-173h-20q-14 72 -53 112t-96 40q-51 0 -85.5 -31.5t-47 -73t-12.5 -90.5q0 -78 35.5 -136.5t109.5 -58.5q57 0 96 40t53 112h20v-174h-19q-7 38 -18 49
q-24 -29 -60.5 -47.5t-71.5 -18.5l-40 -41q35 -2 59.5 -23t24.5 -56q0 -32 -30 -56t-60 -33.5t-57 -12.5v27h1q41 16 53 24q32 20 32 51q0 18 -17.5 28.5t-44.5 10.5q-20 0 -40 -6v14z" />
    <glyph glyph-name="egrave" unicode="&#xe8;" horiz-adv-x="475" 
d="M220 603l93 -88l-5 -6l-138 58q-23 10 -23 30q0 11 8 20t20 9q18 0 45 -23zM275 37h12q66 0 85 13q20 13 31 51l5 20h20l-8 -121h-374v20q52 0 65.5 20t13.5 97v160q0 76 -13.5 96t-65.5 20v20h221h129l8 -120h-21l-5 20q-9 36 -30 50q-22 14 -85 14h-67v-149h6
q75 0 91.5 12.5t16.5 66.5h20v-195h-20q0 52 -17 65.5t-91 13.5h-6v-58q0 -76 13.5 -96t65.5 -20z" />
    <glyph glyph-name="eacute" unicode="&#xe9;" horiz-adv-x="475" 
d="M358 597q0 -20 -23 -30l-137 -59l-5 7l93 87l1 1q27 23 43 23q12 0 20 -9t8 -20zM275 37h12q66 0 85 13q20 13 31 51l5 20h20l-8 -121h-374v20q52 0 65.5 20t13.5 97v160q0 76 -13.5 96t-65.5 20v20h221h129l8 -120h-21l-5 20q-9 36 -30 50q-22 14 -85 14h-67v-149h6
q75 0 91.5 12.5t16.5 66.5h20v-195h-20q0 52 -17 65.5t-91 13.5h-6v-58q0 -76 13.5 -96t65.5 -20z" />
    <glyph glyph-name="ecircumflex" unicode="&#xea;" horiz-adv-x="475" 
d="M237 649l119 -129l-13 -12l-106 76l-107 -76l-12 12zM275 37h12q66 0 85 13q20 13 31 51l5 20h20l-8 -121h-374v20q52 0 65.5 20t13.5 97v160q0 76 -13.5 96t-65.5 20v20h221h129l8 -120h-21l-5 20q-9 36 -30 50q-22 14 -85 14h-67v-149h6q75 0 91.5 12.5t16.5 66.5h20
v-195h-20q0 52 -17 65.5t-91 13.5h-6v-58q0 -76 13.5 -96t65.5 -20z" />
    <glyph glyph-name="edieresis" unicode="&#xeb;" horiz-adv-x="475" 
d="M155 587q16 0 27.5 -11.5t11.5 -27.5q0 -17 -11.5 -28.5t-27.5 -11.5t-27.5 11.5t-11.5 28.5q0 16 11.5 27.5t27.5 11.5zM321 587q16 0 27.5 -11.5t11.5 -27.5t-11.5 -28t-27.5 -12t-27.5 11.5t-11.5 28.5q0 16 11.5 27.5t27.5 11.5zM275 37h12q66 0 85 13q20 13 31 51
l5 20h20l-8 -121h-374v20q52 0 65.5 20t13.5 97v160q0 76 -13.5 96t-65.5 20v20h221h129l8 -120h-21l-5 20q-9 36 -30 50q-22 14 -85 14h-67v-149h6q75 0 91.5 12.5t16.5 66.5h20v-195h-20q0 52 -17 65.5t-91 13.5h-6v-58q0 -76 13.5 -96t65.5 -20z" />
    <glyph glyph-name="igrave" unicode="&#xec;" horiz-adv-x="322" 
d="M117 603l93 -88l-5 -7l-137 59q-24 10 -24 30q0 12 7.5 20.5t21.5 8.5q18 0 44 -23zM275 20v-20h-229v20q52 0 65.5 20t13.5 97v160q0 76 -13.5 96t-65.5 20v20h229v-20q-51 0 -65 -20t-14 -96v-160q0 -76 14 -96.5t65 -20.5z" />
    <glyph glyph-name="iacute" unicode="&#xed;" horiz-adv-x="322" 
d="M270 597q0 -20 -23 -30l-138 -59l-5 7l94 88q26 23 44 23q12 0 20 -9t8 -20zM275 20v-20h-229v20q52 0 65.5 20t13.5 97v160q0 76 -13.5 96t-65.5 20v20h229v-20q-51 0 -65 -20t-14 -96v-160q0 -76 14 -96.5t65 -20.5z" />
    <glyph glyph-name="icircumflex" unicode="&#xee;" horiz-adv-x="322" 
d="M160 648l119 -129l-12 -11l-107 75l-107 -75l-12 11zM275 20v-20h-229v20q52 0 65.5 20t13.5 97v160q0 76 -13.5 96t-65.5 20v20h229v-20q-51 0 -65 -20t-14 -96v-160q0 -76 14 -96.5t65 -20.5z" />
    <glyph glyph-name="idieresis" unicode="&#xef;" horiz-adv-x="322" 
d="M76 587q16 0 27.5 -11.5t11.5 -27.5q0 -17 -11.5 -28.5t-27.5 -11.5t-27.5 11.5t-11.5 28.5q0 16 11.5 27.5t27.5 11.5zM242 587q16 0 27.5 -11.5t11.5 -27.5t-11.5 -28t-27.5 -12t-27.5 11.5t-11.5 28.5q0 16 11.5 27.5t27.5 11.5zM275 20v-20h-229v20q52 0 65.5 20
t13.5 97v160q0 76 -13.5 96t-65.5 20v20h229v-20q-51 0 -65 -20t-14 -96v-160q0 -76 14 -96.5t65 -20.5z" />
    <glyph glyph-name="eth" unicode="&#xf0;" horiz-adv-x="558" 
d="M196 397v-154h95v-44h-95v-86q0 -50 10 -63t47 -13h8q87 0 122.5 51.5t35.5 128.5q0 35 -7 64.5t-23.5 57t-49 43t-78.5 15.5h-65zM125 137v62h-83v44h83v54q0 76 -13.5 96t-65.5 20v20h212q120 0 182 -60t62 -156q0 -95 -58 -153q-64 -64 -186 -64h-212v20q52 0 65.5 20
t13.5 97z" />
    <glyph glyph-name="ntilde" unicode="&#xf1;" horiz-adv-x="597" 
d="M398 608h16q0 -47 -18.5 -73.5t-50.5 -26.5q-19 0 -66 29q-41 26 -56 26q-14 0 -26 -13t-17 -32h-15q0 42 18.5 69.5t45.5 27.5q21 0 66 -29q43 -26 60 -26q33 0 43 48zM125 137v160q0 76 -13.5 96t-65.5 20v20h123l266 -316v180q0 76 -13.5 96t-65.5 20v20h195v-20
q-51 0 -65 -20t-14 -96v-313h-19l-291 349v-196q0 -76 14 -96.5t65 -20.5v-20h-195v20q52 0 65.5 20t13.5 97z" />
    <glyph glyph-name="ograve" unicode="&#xf2;" horiz-adv-x="602" 
d="M270 603l93 -88l-5 -6l-138 58q-23 10 -23 30q0 11 8 20t20 9q18 0 45 -23zM545 217q0 -96 -72.5 -165t-171.5 -69t-171.5 69t-72.5 165q0 95 72.5 164t171.5 69t171.5 -69t72.5 -164zM463 217q0 77 -41 136t-121 59t-121 -59t-41 -136t41 -136t121 -59t121 59t41 136z
" />
    <glyph glyph-name="oacute" unicode="&#xf3;" horiz-adv-x="602" 
d="M409 597q0 -20 -23 -30l-137 -59l-5 7l93 87l1 1q27 23 43 23q12 0 20 -9t8 -20zM545 217q0 -96 -72.5 -165t-171.5 -69t-171.5 69t-72.5 165q0 95 72.5 164t171.5 69t171.5 -69t72.5 -164zM463 217q0 77 -41 136t-121 59t-121 -59t-41 -136t41 -136t121 -59t121 59
t41 136z" />
    <glyph glyph-name="ocircumflex" unicode="&#xf4;" horiz-adv-x="602" 
d="M298 649l119 -129l-13 -12l-106 76l-107 -76l-13 12zM545 217q0 -96 -72.5 -165t-171.5 -69t-171.5 69t-72.5 165q0 95 72.5 164t171.5 69t171.5 -69t72.5 -164zM463 217q0 77 -41 136t-121 59t-121 -59t-41 -136t41 -136t121 -59t121 59t41 136z" />
    <glyph glyph-name="otilde" unicode="&#xf5;" horiz-adv-x="602" 
d="M425 608h16q0 -47 -19 -73.5t-50 -26.5q-18 0 -67 29q-41 26 -56 26q-13 0 -25 -13t-17 -32h-15q0 42 18.5 69.5t45.5 27.5q21 0 66 -29q43 -26 60 -26q32 0 43 48zM545 217q0 -96 -72.5 -165t-171.5 -69t-171.5 69t-72.5 165q0 95 72.5 164t171.5 69t171.5 -69
t72.5 -164zM463 217q0 77 -41 136t-121 59t-121 -59t-41 -136t41 -136t121 -59t121 59t41 136z" />
    <glyph glyph-name="odieresis" unicode="&#xf6;" horiz-adv-x="602" 
d="M227 587q16 0 27.5 -11.5t11.5 -27.5q0 -17 -11.5 -28.5t-27.5 -11.5t-27.5 11.5t-11.5 28.5q0 16 11.5 27.5t27.5 11.5zM393 587q16 0 27.5 -11.5t11.5 -27.5t-11.5 -28t-27.5 -12t-27.5 11.5t-11.5 28.5q0 16 11.5 27.5t27.5 11.5zM545 217q0 -96 -72.5 -165
t-171.5 -69t-171.5 69t-72.5 165q0 95 72.5 164t171.5 69t171.5 -69t72.5 -164zM463 217q0 77 -41 136t-121 59t-121 -59t-41 -136t41 -136t121 -59t121 59t41 136z" />
    <glyph glyph-name="divide" unicode="&#xf7;" horiz-adv-x="458" 
d="M375 243v-44h-292v44h292zM277 84q0 -19 -14.5 -33.5t-34.5 -14.5q-19 0 -32.5 14t-13.5 34t13.5 34.5t32.5 14.5t34 -15t15 -34zM277 358q0 -19 -15 -33.5t-34 -14.5t-32.5 14.5t-13.5 33.5q0 20 13.5 34.5t32.5 14.5t34 -15t15 -34z" />
    <glyph glyph-name="oslash" unicode="&#xf8;" horiz-adv-x="602" 
d="M421 354l-212 -303q40 -29 92 -29q80 0 121 59t41 136q0 83 -42 137zM182 79l211 304q-40 29 -92 29q-80 0 -121 -59t-41 -136q0 -83 43 -138zM109 -25l41 58q-93 71 -93 184q0 95 72.5 164t171.5 69q63 0 118 -30l40 58l34 -20l-40 -59q43 -34 67.5 -82t24.5 -100
q0 -96 -72.5 -165t-171.5 -69q-63 0 -118 30l-40 -57z" />
    <glyph glyph-name="ugrave" unicode="&#xf9;" horiz-adv-x="573" 
d="M240 602l93 -88l-5 -6l-138 58q-23 10 -23 30q0 11 8 20t20 9q18 0 45 -23zM179 297v-142q0 -62 31.5 -94.5t86.5 -32.5q56 0 89 32.5t33 94.5v142q0 76 -13.5 96t-65.5 20v20h204v-20q-51 0 -65 -20.5t-14 -95.5v-135q0 -84 -51 -131q-52 -47 -128 -47t-128 47
q-50 47 -50 131v135q0 76 -13.5 96t-65.5 20v20h229v-20q-51 0 -65 -20.5t-14 -95.5z" />
    <glyph glyph-name="uacute" unicode="&#xfa;" horiz-adv-x="573" 
d="M415 596q0 -20 -23 -30l-137 -59l-5 7l93 87l1 1q27 23 43 23q12 0 20 -9t8 -20zM179 297v-142q0 -62 31.5 -94.5t86.5 -32.5q56 0 89 32.5t33 94.5v142q0 76 -13.5 96t-65.5 20v20h204v-20q-51 0 -65 -20.5t-14 -95.5v-135q0 -84 -51 -131q-52 -47 -128 -47t-128 47
q-50 47 -50 131v135q0 76 -13.5 96t-65.5 20v20h229v-20q-51 0 -65 -20.5t-14 -95.5z" />
    <glyph glyph-name="ucircumflex" unicode="&#xfb;" horiz-adv-x="573" 
d="M288 649l120 -129l-13 -12l-107 76l-106 -76l-13 12zM179 297v-142q0 -62 31.5 -94.5t86.5 -32.5q56 0 89 32.5t33 94.5v142q0 76 -13.5 96t-65.5 20v20h204v-20q-51 0 -65 -20.5t-14 -95.5v-135q0 -84 -51 -131q-52 -47 -128 -47t-128 47q-50 47 -50 131v135
q0 76 -13.5 96t-65.5 20v20h229v-20q-51 0 -65 -20.5t-14 -95.5z" />
    <glyph glyph-name="udieresis" unicode="&#xfc;" horiz-adv-x="573" 
d="M217 587q16 0 27.5 -11.5t11.5 -27.5q0 -17 -11.5 -28.5t-27.5 -11.5t-27.5 11.5t-11.5 28.5q0 16 11.5 27.5t27.5 11.5zM383 587q16 0 27.5 -11.5t11.5 -27.5t-11.5 -28t-27.5 -12t-27.5 11.5t-11.5 28.5q0 16 11.5 27.5t27.5 11.5zM179 297v-142q0 -62 31.5 -94.5
t86.5 -32.5q56 0 89 32.5t33 94.5v142q0 76 -13.5 96t-65.5 20v20h204v-20q-51 0 -65 -20.5t-14 -95.5v-135q0 -84 -51 -131q-52 -47 -128 -47t-128 47q-50 47 -50 131v135q0 76 -13.5 96t-65.5 20v20h229v-20q-51 0 -65 -20.5t-14 -95.5z" />
    <glyph glyph-name="yacute" unicode="&#xfd;" horiz-adv-x="483" 
d="M375 597q0 -20 -23 -30l-137 -59l-5 7l93 87l1 1q27 23 43 23q12 0 20 -9t8 -20zM382 325l-99 -146v-42q0 -75 14.5 -96t65.5 -21v-20h-230v20q51 0 65.5 21t14.5 96v41l-100 147q-37 56 -58 71q-22 17 -59 17v20h222v-20q-54 0 -54 -23q0 -18 25 -53l78 -115l77 115
q28 40 28 56q0 20 -56 20v20h188v-20q-41 0 -64 -19q-25 -20 -58 -69z" />
    <glyph glyph-name="thorn" unicode="&#xfe;" horiz-adv-x="540" 
d="M213 174h88q61 0 94 36.5t33 95.5t-33 95.5t-94 36.5h-88v-264zM133 138v337q0 68 -16.5 86t-78.5 18v21h270v-21q-62 0 -78.5 -18t-16.5 -86h89q99 0 157 -49q58 -48 58 -120t-58 -120q-59 -48 -157 -48h-89q0 -77 16 -97t79 -20v-21h-270v21q63 0 79 20t16 97z" />
    <glyph glyph-name="ydieresis" unicode="&#xff;" horiz-adv-x="483" 
d="M161 587q16 0 27.5 -11.5t11.5 -27.5q0 -17 -11.5 -28.5t-27.5 -11.5t-27.5 11.5t-11.5 28.5q0 16 11.5 27.5t27.5 11.5zM327 587q16 0 27.5 -11.5t11.5 -27.5t-11.5 -28t-27.5 -12t-27.5 11.5t-11.5 28.5q0 16 11.5 27.5t27.5 11.5zM382 325l-99 -146v-42
q0 -75 14.5 -96t65.5 -21v-20h-230v20q51 0 65.5 21t14.5 96v41l-100 147q-37 56 -58 71q-22 17 -59 17v20h222v-20q-54 0 -54 -23q0 -18 25 -53l78 -115l77 115q28 40 28 56q0 20 -56 20v20h188v-20q-41 0 -64 -19q-25 -20 -58 -69z" />
    <glyph glyph-name="OE" unicode="&#x152;" horiz-adv-x="934" 
d="M512 600h334l8 -132h-21l-5 20q-10 43 -31 59q-19 16 -84 16h-149v-227h50q77 0 97 16.5t20 79.5h21v-229h-21q0 64 -20 80t-97 16h-50v-146q0 -76 16.5 -96t79.5 -20h86q65 0 84 16q20 17 32 60l5 20h21l-9 -133h-368q-53 -17 -107 -17q-136 0 -234.5 93.5t-98.5 223.5
t98.5 223.5t234.5 93.5q54 0 108 -17zM404 578q-79 0 -135 -43.5t-79.5 -104.5t-23.5 -130t23.5 -129.5t79.5 -104t135 -43.5q43 0 81 13v528q-39 14 -81 14z" />
    <glyph glyph-name="oe" unicode="&#x153;" horiz-adv-x="758" 
d="M413 70v293q-40 49 -112 49q-80 0 -121 -59t-41 -136t41 -136t121 -59q71 0 112 48zM708 0h-317q-45 -17 -90 -17q-99 0 -171.5 69t-72.5 165q0 95 72.5 164t171.5 69q45 0 90 -17h164h129l9 -120h-21l-5 20q-11 38 -31 51q-19 13 -85 13h-67v-149h6q75 0 91.5 12.5
t16.5 66.5h20v-195h-20q0 52 -17 65.5t-91 13.5h-6v-58q0 -75 14 -95.5t65 -20.5h12q66 0 85 13q20 13 31 51l5 20h21z" />
    <glyph glyph-name="Scaron" unicode="&#x160;" horiz-adv-x="498" 
d="M352 815l12 -12l-119 -129l-119 129l12 12l107 -76zM107 30q-23 -20 -29 -47h-20v220h20q0 -45 26 -96q46 -84 159 -84q54 0 89.5 31t35.5 79q0 60 -115 121l-96 49q-49 26 -80 69.5t-31 95.5q0 62 47 106q46 43 119 43q67 0 122 -41q23 20 29 46h20v-220h-21
q-16 175 -153 175q-42 0 -69.5 -25.5t-27.5 -63.5q0 -37 26 -63q25 -24 95 -61l96 -49q104 -52 104 -152q0 -79 -55 -129.5t-135 -50.5q-51 0 -120 32q-25 13 -36 15z" />
    <glyph glyph-name="scaron" unicode="&#x161;" horiz-adv-x="398" 
d="M302 649l12 -12l-119 -129l-119 129l12 12l107 -76zM353 120q0 -60 -42 -99q-41 -38 -100 -38q-57 0 -112 37q-15 -17 -19 -37h-18v172h20q6 -63 43 -98t94 -35q34 0 55.5 18.5t21.5 48.5q0 49 -82 89l-68 35q-83 44 -83 122q0 48 36 81t89 33t95 -30l1 1q13 16 14 30h20
v-169h-20q-4 54 -30.5 92.5t-74.5 38.5q-31 0 -51.5 -16t-20.5 -42q0 -24 18 -41.5t69 -44.5l67 -35q78 -40 78 -113z" />
    <glyph glyph-name="Ydieresis" unicode="&#x178;" horiz-adv-x="625" 
d="M245 753q16 0 27.5 -11.5t11.5 -27.5q0 -17 -11.5 -28.5t-27.5 -11.5t-27.5 11.5t-11.5 28.5q0 16 11.5 27.5t27.5 11.5zM411 753q16 0 27.5 -11.5t11.5 -27.5t-11.5 -28t-27.5 -12t-27.5 11.5t-11.5 28.5q0 16 11.5 27.5t27.5 11.5zM518 492l-165 -250v-104
q0 -77 16 -97t79 -20v-21h-270v21q63 0 79 20t16 97v97l-166 257q-34 50 -63 68q-29 19 -82 19v21h285v-21q-72 0 -72 -32q0 -15 18 -44l144 -220l146 220q20 32 20 47q0 29 -74 29v21h234v-21q-58 0 -85 -18q-26 -18 -60 -69z" />
    <glyph glyph-name="florin" unicode="&#x192;" horiz-adv-x="316" 
d="M189 298v-376q0 -91 -40.5 -140t-105.5 -49q-53 0 -85 27t-32 56q0 26 26 28q16 0 24 -8t17 -28q10 -23 21 -32.5t34 -9.5q35 0 52.5 36t17.5 120v376h-81v35h81v96q0 94 47.5 141t117.5 47q44 0 71.5 -23t27.5 -53q0 -34 -33 -34q-14 0 -20.5 7.5t-14.5 26.5
q-9 24 -18.5 33.5t-31.5 9.5q-39 0 -57 -36t-18 -119v-96h101v-35h-101z" />
    <glyph glyph-name="circumflex" unicode="&#x2c6;" horiz-adv-x="403" 
d="M391 185v-22h-172v22q35 0 46 14q11 16 11 67v42q0 37 -14 55t-48 18q-23 0 -49 -20q-25 -19 -25 -48v-47q0 -54 8 -68q9 -13 43 -13v-22h-166v22q36 0 47 14q11 16 11 67v36q0 50 -11 66q-10 15 -47 15v20l103 20q9 -21 11 -49q41 48 98 48q47 0 72 -30t25 -80v-46
q0 -53 10 -67q11 -14 47 -14z" />
    <glyph glyph-name="tilde" unicode="&#x2dc;" horiz-adv-x="563" 
d="M551 185v-22h-159v22q31 0 38 13t7 68v42q0 73 -52 73q-18 0 -44 -20q-24 -19 -24 -48v-47q0 -55 7 -68t38 -13v-22h-148v22q31 0 38 13t7 68v42q0 38 -11.5 55.5t-39.5 17.5q-18 0 -44 -20q-24 -19 -24 -48v-47q0 -55 7 -68t38 -13v-22h-160v22q36 0 47 14q11 16 11 67
v36q0 50 -11 66q-10 15 -47 15v20l103 20q10 -29 11 -49q41 48 92 48q58 0 77 -50q17 20 45.5 35t54.5 15q86 0 86 -110v-46q0 -53 10 -67q11 -14 47 -14z" />
    <glyph glyph-name="endash" unicode="&#x2013;" horiz-adv-x="525" 
d="M525 243v-44h-526v44h526z" />
    <glyph glyph-name="emdash" unicode="&#x2014;" horiz-adv-x="667" 
d="M667 243v-44h-668v44h668z" />
    <glyph glyph-name="quoteleft" unicode="&#x2018;" horiz-adv-x="251" 
d="M178 414l-11 -11q-42 26 -67 69t-25 81q0 30 15.5 47t38.5 17q19 0 33 -14.5t14 -34.5q0 -19 -14 -33.5t-33 -14.5q-7 0 -8 1q10 -59 57 -107z" />
    <glyph glyph-name="quoteright" unicode="&#x2019;" horiz-adv-x="251" 
d="M130 521q-1 -1 -8 -1q-19 0 -33 14.5t-14 33.5q0 20 14 34.5t33 14.5q23 0 38.5 -17t15.5 -47q0 -38 -25 -81t-67 -69l-11 11q47 48 57 107z" />
    <glyph glyph-name="quotesinglbase" unicode="&#x201a;" 
d="M294 443q0 -71 -37 -122t-89 -51t-89 51t-37 122q0 72 37 123t89 51t89 -51t37 -123zM236 443q0 64 -17.5 103.5t-50.5 39.5q-32 0 -49.5 -39.5t-17.5 -103.5q0 -63 17.5 -102.5t49.5 -39.5t50 40t18 102z" />
    <glyph glyph-name="quotedblleft" unicode="&#x201c;" horiz-adv-x="418" 
d="M345 414l-12 -11q-41 27 -66 69.5t-25 80.5q0 30 15.5 47t38.5 17q19 0 33 -14.5t14 -34.5q0 -19 -14 -33.5t-33 -14.5q-7 0 -8 1q7 -54 57 -107zM178 414l-11 -11q-42 26 -67 69t-25 81q0 30 15.5 47t38.5 17q19 0 33 -14.5t14 -34.5q0 -19 -14 -33.5t-33 -14.5
q-7 0 -8 1q10 -59 57 -107z" />
    <glyph glyph-name="quotedblright" unicode="&#x201d;" horiz-adv-x="418" 
d="M130 521q-1 -1 -8 -1q-19 0 -33 14.5t-14 33.5q0 20 14 34.5t33 14.5q23 0 38.5 -17t15.5 -47q0 -38 -25 -81t-67 -69l-11 11q47 48 57 107zM297 521q-2 -1 -9 -1q-19 0 -32.5 14.5t-13.5 33.5q0 20 13.5 34.5t32.5 14.5q23 0 39 -17t16 -47q0 -38 -25 -81t-67 -69
l-12 11q48 51 58 107z" />
    <glyph glyph-name="quotedblbase" unicode="&#x201e;" horiz-adv-x="418" 
d="M130 -8h-8q-19 0 -33 14.5t-14 33.5q0 20 14 34t33 14q23 0 38.5 -16.5t15.5 -46.5q0 -38 -25 -81.5t-67 -69.5l-11 12q47 51 57 106zM297 -8h-9q-19 0 -32.5 14t-13.5 34t13.5 34t32.5 14q23 0 39 -17t16 -46q0 -38 -25 -81.5t-67 -69.5l-12 12q48 51 58 106z" />
    <glyph glyph-name="dagger" unicode="&#x2020;" horiz-adv-x="448" 
d="M328 397l-90 29l27 -203l-37 -410h-8l-37 410l28 204l-92 -30q-8 -2 -11 -2q-18 0 -32 14.5t-14 33.5t14 33t32 14q3 0 11 -2l94 -30l-35 101q0 3 -1 6v5q0 19 14 33t33 14t33.5 -14t14.5 -33q0 -3 -1 -5q-1 -3 -1 -6l-34 -101l92 30q8 2 12 2q18 0 32 -14t14 -33
t-14 -33.5t-32 -14.5q-4 0 -12 2z" />
    <glyph glyph-name="daggerdbl" unicode="&#x2021;" 
d="M300 600v-23l-139 -277q-17 -34 -35 -34h-4q-3 1 -5 1q-18 6 -18 24q0 12 9 27l148 234h-128q-52 0 -63 -38l-4 -17h-23l19 103h243z" />
    <glyph glyph-name="bullet" unicode="&#x2022;" 
d="M294 83q0 -41 -37 -71q-38 -29 -89 -29q-52 0 -88.5 27t-36.5 68q0 59 75 91q-58 38 -58 75q0 36 32 61t76 25q46 0 77.5 -22.5t31.5 -55.5q0 -45 -67 -74q43 -19 63.5 -41t20.5 -54zM222 253q0 18 -16.5 33t-37.5 15q-23 0 -38.5 -13.5t-15.5 -34.5q0 -17 15 -30.5
t48 -29.5q45 22 45 60zM239 75q0 22 -18.5 37.5t-61.5 34.5l-8 4q-54 -27 -54 -76q0 -26 20 -44.5t51 -18.5t51 18.5t20 44.5z" />
    <glyph glyph-name="ellipsis" unicode="&#x2026;" horiz-adv-x="896" 
d="M194 40q0 -20 -14 -34t-34 -14q-19 0 -33 14.5t-14 33.5q0 20 14 34t33 14q20 0 34 -14t14 -34zM486 40q0 -19 -14.5 -33.5t-33.5 -14.5t-33 14.5t-14 33.5q0 20 14 34t33 14t33.5 -14.5t14.5 -33.5zM778 40q0 -19 -14.5 -33.5t-34.5 -14.5t-33 14t-13 34t13 34t33 14
t34.5 -14.5t14.5 -33.5z" />
    <glyph glyph-name="perthousand" unicode="&#x2030;" horiz-adv-x="307" 
d="M267 223l17 -21q-48 -50 -114 -50q-60 0 -98.5 39t-38.5 96q0 56 42 95.5t95 39.5q43 0 73.5 -27.5t30.5 -66.5q0 -14 -4 -26h-173q0 -5 -1 -11v-10q0 -43 23.5 -68t68.5 -25q39 0 79 35zM103 335h112q2 6 2 11q0 17 -13 29t-34 12q-50 0 -67 -52z" />
    <glyph glyph-name="guilsinglleft" unicode="&#x2039;" 
d="M289 378q0 -45 -37 -76q-37 -32 -90 -32q-46 0 -77.5 22t-31.5 46q0 19 20 19q9 0 21 -18q14 -20 28 -29.5t40 -9.5q33 0 51.5 22t18.5 56q0 27 -16 47.5t-42 25.5q-6 -6 -16 -23q-9 -16 -24 -16q-18 0 -18 18q0 9 9 18l99 104h-86q-54 0 -63 -38l-5 -17h-22l18 103h216
v-23l-79 -94q38 -13 62 -42t24 -63z" />
    <glyph glyph-name="guilsinglright" unicode="&#x203a;" 
d="M275 481h21l-6 -102h-72q0 -45 10.5 -58t46.5 -13v-21h-172v21q37 0 47.5 13t10.5 58h-139v18l172 229h24v-213q22 0 33.5 10.5t19.5 40.5zM72 413h89v118z" />
    <glyph glyph-name="trademark" unicode="&#x2122;" 
d="M130 48h159l-9 -48h-233v23l132 118q25 22 34.5 41t9.5 46q0 30 -18.5 47.5t-50.5 17.5q-25 0 -43.5 -17t-18.5 -42q0 -23 16 -46l-26 -25q-42 28 -42 73q0 39 32 66.5t84 27.5t87.5 -27.5t35.5 -71.5q0 -51 -60 -103z" />
    <glyph glyph-name="minus" unicode="&#x2212;" horiz-adv-x="458" 
d="M375 252v-44h-292v44h292z" />
    <glyph glyph-name="nbspace" unicode="&#xe000;" horiz-adv-x="233" 
 />
    </font>
</defs>
</svg>
