<?xml version="1.0" standalone="no"?>
<!DOCTYPE svg PUBLIC "-//W3C//DTD SVG 1.1//EN" "http://www.w3.org/Graphics/SVG/1.1/DTD/svg11.dtd" >
<svg>
<metadata>
Created by FontForge 20110222 at Thu May 29 13:20:52 2014
 By deploy user
Copyright (c) 1990 Adobe Systems Incorporated.  All Rights Reserved.Helvetica is a trademark of Linotype AG and/or its subsidiaries.
</metadata>
<defs>
<font id="HelveticaNeue-MediumCondObl" horiz-adv-x="222" >
  <font-face 
    font-family="HelveticaNeue MediumCond"
    font-weight="400"
    font-style="italic"
    font-stretch="normal"
    units-per-em="1000"
    panose-1="0 0 4 0 0 0 0 0 0 0"
    ascent="800"
    descent="-200"
    x-height="538"
    cap-height="714"
    bbox="-171 -216 1079 951"
    underline-thickness="50"
    underline-position="-75"
    slope="-11"
    unicode-range="U+0020-2122"
  />
<missing-glyph horiz-adv-x="500" 
d="M63 0v809h375v-809h-375zM125 63h250v684h-250v-684z" />
    <glyph glyph-name=".notdef" horiz-adv-x="500" 
d="M63 0v809h375v-809h-375zM125 63h250v684h-250v-684z" />
    <glyph glyph-name=".null" horiz-adv-x="0" 
 />
    <glyph glyph-name="nonmarkingreturn" horiz-adv-x="240" 
 />
    <glyph glyph-name="space" unicode=" " horiz-adv-x="240" 
 />
    <glyph glyph-name="exclam" unicode="!" horiz-adv-x="278" 
d="M140 192l46 296l48 226h114l-48 -226l-80 -296h-80zM82 0l24 114h114l-24 -114h-114z" />
    <glyph glyph-name="quotedbl" unicode="&#x22;" horiz-adv-x="426" 
d="M355 428l61 286h86l-61 -286h-86zM167 428l61 286h86l-61 -286h-86z" />
    <glyph glyph-name="numbersign" unicode="#" horiz-adv-x="480" 
d="M235 274h106l51 146h-106zM40 200l15 74h97l51 146h-88l16 74h98l71 200h83l-71 -200h106l71 200h83l-71 -200h87l-16 -74h-97l-51 -146h88l-15 -74h-98l-71 -200h-83l71 200h-106l-71 -200h-83l71 200h-87z" />
    <glyph glyph-name="dollar" unicode="$" horiz-adv-x="480" 
d="M321 287l-46 -215q44 6 76 37q28 27 36 63q4 19 4 35q0 58 -70 80zM305 418l43 204q-77 -7 -97 -100q-3 -14 -3 -26q0 -50 57 -78zM195 -100l18 86q-163 9 -163 145q0 30 8 67l3 16h114l-3 -16q-6 -28 -6 -49q0 -65 65 -77l50 232l-38 15q-114 45 -114 139q0 24 6 54
q18 85 84 140.5t147 55.5l15 70h44l-15 -70q85 0 124 -45q32 -36 32 -95q0 -22 -5 -44l-3 -14h-114l3 14q5 19 5 35q0 57 -60 63l-47 -221l59 -22q107 -41 107 -134q0 -23 -6 -50q-42 -197 -248 -209l-18 -86h-44z" />
    <glyph glyph-name="percent" unicode="%" horiz-adv-x="759" 
d="M310 646q-30 0 -46.5 -29t-31.5 -101q-12 -57 -12 -85q0 -45 35 -45q30 0 46.5 29t32.5 101q12 57 12 85q0 45 -36 45zM647 708h77l-472 -722h-75zM651 308q-29 0 -46 -29t-32 -101q-12 -57 -12 -85q0 -45 35 -45q30 0 46.5 29t32.5 101q12 57 12 85q0 45 -36 45z
M323 708q106 0 106 -111q0 -35 -9 -81q-41 -192 -178 -192q-106 0 -106 111q0 35 10 81q40 192 177 192zM665 370q106 0 106 -111q0 -35 -10 -81q-41 -192 -178 -192q-106 0 -106 111q0 35 10 81q41 192 178 192z" />
    <glyph glyph-name="ampersand" unicode="&#x26;" horiz-adv-x="574" 
d="M379 392l88 -176q38 46 51 109l3 14h90l-2 -9q-23 -108 -102 -194l68 -136h-121l-30 61q-98 -75 -196 -75q-93 0 -137 50q-36 40 -36 104q0 136 145 230l52 34l-19 40q-23 51 -23 91q0 14 2 26q16 74 74 115q54 38 129 38q47 0 83 -21q47 -29 47 -88q0 -17 -4 -36
q-18 -87 -119 -150zM344 458l30 23q62 48 72 92q2 10 2 18q0 49 -56 49q-67 0 -80 -62q-2 -10 -2 -21q0 -36 23 -78zM287 336l-24 -18q-78 -57 -93 -127q-3 -12 -3 -23q0 -39 28 -65t71 -26q60 0 123 55z" />
    <glyph glyph-name="quotesingle" unicode="'" horiz-adv-x="240" 
d="M168 428l61 286h86l-61 -286h-86z" />
    <glyph glyph-name="parenleft" unicode="(" horiz-adv-x="259" 
d="M336 714h75q-155 -191 -210 -449q-23 -108 -23 -212q0 -140 42 -237h-77q-67 122 -67 288q0 80 17 161q28 129 98 254q62 110 145 195z" />
    <glyph glyph-name="parenright" unicode=")" horiz-adv-x="259" 
d="M36 -184h-75q154 191 209 449q23 108 23 212q0 140 -41 237h77q67 -122 67 -288q0 -80 -18 -161q-27 -129 -98 -254q-62 -110 -144 -195z" />
    <glyph glyph-name="asterisk" unicode="*" horiz-adv-x="370" 
d="M304 714h68l-27 -124l121 43l9 -66l-121 -33l56 -103l-66 -43l-53 105l-97 -105l-46 43l98 103l-109 33l37 66l103 -44z" />
    <glyph glyph-name="plus" unicode="+" horiz-adv-x="600" 
d="M320 296l45 210h86l-45 -210h210l-18 -86h-210l-45 -210h-86l45 210h-210l18 86h210z" />
    <glyph glyph-name="comma" unicode="," horiz-adv-x="240" 
d="M63 0l28 132h114l-28 -132q-28 -132 -147 -154l13 58q52 13 67 81l3 15h-50z" />
    <glyph glyph-name="hyphenminus" unicode="-" horiz-adv-x="352" 
d="M96 238l21 102h262l-21 -102h-262z" />
    <glyph glyph-name="period" unicode="." horiz-adv-x="240" 
d="M63 0l28 132h114l-28 -132h-114z" />
    <glyph glyph-name="slash" unicode="/" horiz-adv-x="296" 
d="M-13 -14l385 742h89l-385 -742h-89z" />
    <glyph glyph-name="zero" unicode="0" horiz-adv-x="480" 
d="M216 347q-28 -131 -28 -192q0 -89 66 -89q57 0 92 63q32 60 66 218q28 131 28 192q0 89 -67 89q-57 0 -90.5 -61.5t-66.5 -219.5zM102 347q42 198 115 284q66 77 173 77q79 0 117 -40q41 -44 41 -141q0 -73 -22 -180q-42 -198 -116 -284q-66 -77 -173 -77q-79 0 -117 40
q-41 44 -41 141q0 73 23 180z" />
    <glyph glyph-name="one" unicode="1" horiz-adv-x="480" 
d="M321 0h-114l109 514h-147l16 74h11q143 0 190 106l2 14h83z" />
    <glyph glyph-name="two" unicode="2" horiz-adv-x="480" 
d="M467 96l-20 -96h-414q28 131 124 223l172 134q93 75 112 164q4 19 4 35q0 72 -70 72q-99 0 -130 -148h-108q48 228 257 228q166 0 166 -137q0 -25 -6 -52q-21 -101 -99 -176q-17 -16 -148 -113q-91 -66 -127 -134h287z" />
    <glyph glyph-name="three" unicode="3" horiz-adv-x="480" 
d="M73 197h108q-6 -26 -6 -48q0 -83 75 -83q99 0 126 127q6 30 6 52q0 80 -93 80h-44l17 80h41q102 0 128 121q3 17 3 32q0 70 -64 70q-90 0 -116 -124h-108q43 204 247 204q66 0 107 -28q51 -34 51 -103q0 -23 -6 -50q-12 -57 -52.5 -102t-93.5 -53l-1 -3q46 -4 73 -34.5
t27 -82.5q0 -22 -5 -47q-47 -219 -263 -219q-165 0 -165 141q0 31 8 70z" />
    <glyph glyph-name="four" unicode="4" horiz-adv-x="480" 
d="M55 159l21 98l340 451h116l-97 -458h77l-19 -91h-77l-34 -159h-108l34 159h-253zM327 250l62 292h-2l-221 -292h161z" />
    <glyph glyph-name="five" unicode="5" horiz-adv-x="480" 
d="M69 176l4 15h108l-4 -19q-3 -14 -3 -28q0 -72 74 -72q101 0 136 161q7 37 7 66q0 85 -70 85q-77 0 -107 -65l-100 4l114 371h341l-20 -91h-256l-62 -186l1 -2q60 55 131 55q145 0 145 -152q0 -38 -10 -82q-24 -113 -89 -178q-72 -72 -182 -72q-164 0 -164 135q0 25 6 55z
" />
    <glyph glyph-name="six" unicode="6" horiz-adv-x="480" 
d="M556 536h-114q3 14 3 27q0 65 -60 65q-70 0 -114 -83q-27 -53 -50 -161l2 -2q57 75 154 75q63 0 99 -36q39 -39 39 -109q0 -31 -8 -66q-55 -260 -272 -260q-163 0 -163 169q0 64 22 170q39 181 101 271q77 112 206 112q161 0 161 -122q0 -23 -6 -50zM194 213
q-6 -30 -6 -55q0 -92 73 -92q94 0 126 152q9 39 9 68q0 85 -70 85q-98 0 -132 -158z" />
    <glyph glyph-name="seven" unicode="7" horiz-adv-x="480" 
d="M156 592l22 102h420l-20 -90q-108 -111 -206 -276q-100 -171 -145 -328h-120q44 152 148 321q98 157 211 271h-310z" />
    <glyph glyph-name="eight" unicode="8" horiz-adv-x="480" 
d="M262 522q-5 -22 -5 -40q0 -68 71 -68q89 0 112 108q5 22 5 39q0 67 -72 67q-89 0 -111 -106zM183 200q-7 -32 -7 -55q0 -79 78 -79q100 0 129 134q6 32 6 56q0 78 -78 78q-100 0 -128 -134zM237 -14q-177 0 -177 145q0 30 8 67q33 153 159 177v2q-71 26 -71 105
q0 22 6 48q17 82 78.5 130t149.5 48q76 0 117.5 -35t41.5 -98q0 -21 -5 -45q-26 -119 -131 -153v-2q89 -19 89 -121q0 -26 -6 -56q-45 -212 -259 -212z" />
    <glyph glyph-name="nine" unicode="9" horiz-adv-x="480" 
d="M72 158h114q-3 -14 -3 -27q0 -65 59 -65q71 0 114 83q28 53 51 161l-3 2q-57 -75 -154 -75q-62 0 -99.5 37.5t-37.5 107.5q0 31 7 66q55 260 272 260q164 0 164 -169q0 -64 -23 -170q-38 -181 -100 -271q-77 -112 -207 -112q-160 0 -160 122q0 23 6 50zM433 481
q7 30 7 55q0 92 -74 92q-94 0 -126 -152q-8 -39 -8 -68q0 -85 70 -85q98 0 131 158z" />
    <glyph glyph-name="colon" unicode=":" horiz-adv-x="240" 
d="M144 380l28 132h114l-28 -132h-114zM63 0l28 132h114l-28 -132h-114z" />
    <glyph glyph-name="semicolon" unicode=";" horiz-adv-x="240" 
d="M63 0l28 132h114l-28 -132q-28 -132 -147 -154l13 58q52 13 67 81l3 15h-50zM144 380l28 132h114l-28 -132h-114z" />
    <glyph glyph-name="less" unicode="&#x3c;" horiz-adv-x="600" 
d="M93 216l16 74l554 226l-19 -86l-441 -177l366 -177l-18 -86z" />
    <glyph glyph-name="equal" unicode="=" horiz-adv-x="600" 
d="M114 314l18 86h506l-18 -86h-506zM70 106l18 86h506l-18 -86h-506z" />
    <glyph glyph-name="greater" unicode="&#x3e;" horiz-adv-x="600" 
d="M615 290l-16 -74l-554 -226l18 86l442 177l-367 177l19 86z" />
    <glyph glyph-name="question" unicode="?" horiz-adv-x="463" 
d="M210 192l13 60l205 284q5 22 5 39q0 67 -64 67q-90 0 -120 -141h-108q22 102 79 161q65 66 167 66q161 0 161 -137q0 -26 -6 -55q-16 -73 -69 -131q-2 -2 -93 -84q-50 -46 -59 -87l-9 -42h-102zM162 0l24 114h114l-24 -114h-114z" />
    <glyph glyph-name="at" unicode="@" horiz-adv-x="800" 
d="M574 397q4 19 4 34q0 62 -64 62q-67 0 -126 -74q-57 -70 -57 -139t75 -69q49 0 104 66q52 61 64 120zM656 549h71l-133 -270q-9 -17 -21 -49q-5 -22 28 -22q44 0 95 59q54 63 71 143q5 25 5 48q0 85 -62 137.5t-156 52.5q-128 0 -230.5 -87t-128.5 -207q-7 -34 -7 -66
q0 -101 66 -161.5t168 -60.5q157 0 266 88h84q-58 -76 -150 -120q-99 -48 -217 -48q-140 0 -225 74.5t-85 205.5q0 44 10 92q34 158 162 263q132 107 304 107q133 0 215 -66.5t82 -175.5q0 -31 -7 -63q-29 -136 -137 -218q-90 -68 -178 -68q-59 0 -59 43q0 7 2 16h-2
q-66 -59 -137 -59q-49 0 -79 32t-30 86q0 21 5 44q22 106 107 187t173 81q77 0 98 -77z" />
    <glyph glyph-name="A" unicode="A" horiz-adv-x="519" 
d="M234 266h169l-8 352h-2zM-9 0l355 714h146l36 -714h-119l-7 175h-209l-83 -175h-119z" />
    <glyph glyph-name="B" unicode="B" horiz-adv-x="537" 
d="M261 413h90q50 0 84 30.5t45 82.5q4 18 4 33q0 69 -98 69h-80zM191 86h113q105 0 132 126q4 18 4 34q0 87 -90 87h-106zM59 0l152 714h231q160 0 160 -126q0 -22 -5 -47q-28 -129 -139 -162l-1 -2q97 -18 97 -116q0 -29 -8 -66q-19 -89 -89.5 -142t-171.5 -53h-226z" />
    <glyph glyph-name="C" unicode="C" horiz-adv-x="519" 
d="M438 256h114l-3 -15q-23 -110 -84 -176q-73 -79 -190 -79q-95 0 -138 45t-43 141q0 72 24 185q42 197 110 281q73 90 206 90q176 0 176 -148q0 -33 -9 -76l-3 -13h-114l3 12q6 29 6 54q0 86 -79 85q-66 -1 -104 -55q-42 -62 -77 -227q-25 -116 -25 -180q0 -60 21 -84
t64 -24q106 0 143 172z" />
    <glyph glyph-name="D" unicode="D" horiz-adv-x="556" 
d="M306 628l-115 -542h94q73 0 114 57q44 61 77 214q21 101 21 158q0 60 -23 86.5t-74 26.5h-94zM59 0l152 714h203q109 0 157 -48q43 -43 43 -131q0 -64 -24 -178q-39 -182 -97 -258q-76 -99 -231 -99h-203z" />
    <glyph glyph-name="E" unicode="E" horiz-adv-x="481" 
d="M59 0l152 714h386l-21 -96h-272l-42 -198h256l-20 -96h-256l-49 -228h280l-20 -96h-394z" />
    <glyph glyph-name="F" unicode="F" horiz-adv-x="463" 
d="M59 0l152 714h381l-21 -96h-267l-42 -198h251l-20 -96h-251l-69 -324h-114z" />
    <glyph glyph-name="G" unicode="G" horiz-adv-x="537" 
d="M412 0l18 83h-2q-35 -51 -74 -73q-42 -24 -103 -24q-158 0 -158 180q0 75 25 191q41 192 116.5 281.5t199.5 89.5q170 0 170 -155q0 -26 -5 -51l-3 -13h-108l4 17q4 19 4 36q0 80 -80 80q-64 0 -104 -56q-45 -63 -79 -226q-25 -117 -25 -182q0 -106 78 -106q65 0 103 50
t63 168h-120l18 86h228l-80 -376h-86z" />
    <glyph glyph-name="H" unicode="H" horiz-adv-x="556" 
d="M59 0l152 714h114l-61 -286h210l61 286h114l-152 -714h-114l71 332h-210l-71 -332h-114z" />
    <glyph glyph-name="I" unicode="I" 
d="M54 0l152 714h114l-152 -714h-114z" />
    <glyph glyph-name="J" unicode="J" horiz-adv-x="444" 
d="M62 215h108l-8 -35q-6 -29 -6 -48q0 -60 59 -60q51 0 76 44q15 26 30 98l107 500h114l-110 -517q-45 -212 -237 -211q-150 1 -150 125q0 26 7 58z" />
    <glyph glyph-name="K" unicode="K" horiz-adv-x="519" 
d="M59 0l152 714h114l-66 -311h2l282 311h125l-270 -301l140 -413h-129l-105 321l-82 -90l-49 -231h-114z" />
    <glyph glyph-name="L" unicode="L" horiz-adv-x="444" 
d="M46 0l152 714h114l-132 -618h276l-20 -96h-390z" />
    <glyph glyph-name="M" unicode="M" horiz-adv-x="722" 
d="M59 0l152 714h178l13 -529h2l237 529h174l-152 -714h-108l126 594h-2l-270 -594h-96l-18 594h-2l-126 -594h-108z" />
    <glyph glyph-name="N" unicode="N" horiz-adv-x="574" 
d="M59 0l152 714h139l94 -532h2l113 532h108l-152 -714h-139l-91 546h-2l-116 -546h-108z" />
    <glyph glyph-name="O" unicode="O" horiz-adv-x="556" 
d="M275 -14q-179 0 -179 199q0 71 22 172q41 192 116.5 281.5t198.5 89.5q178 0 178 -199q0 -71 -21 -172q-41 -192 -116.5 -281.5t-198.5 -89.5zM293 72q59 0 98 52q49 66 86 236q21 103 21 167q0 115 -84 115q-58 0 -97 -51q-49 -65 -84 -231q-23 -107 -23 -172
q0 -116 83 -116z" />
    <glyph glyph-name="P" unicode="P" horiz-adv-x="500" 
d="M306 628l-52 -247h81q114 0 140 123q5 24 5 43q0 81 -101 81h-73zM59 0l152 714h226q160 0 160 -144q0 -30 -7 -64q-21 -97 -88 -154t-166 -57h-100l-63 -295h-114z" />
    <glyph glyph-name="Q" unicode="Q" horiz-adv-x="556" 
d="M449 -64l-57 74q-46 -24 -117 -24q-179 0 -179 199q0 71 22 172q41 192 116.5 281.5t198.5 89.5q178 0 178 -199q0 -71 -21 -172q-41 -192 -116 -283l56 -77zM293 132l79 65l37 -47q36 62 68 210q21 103 21 167q0 115 -84 115q-58 0 -97 -51q-49 -65 -84 -231
q-23 -107 -23 -172q0 -116 83 -116q23 0 43 7z" />
    <glyph glyph-name="R" unicode="R" horiz-adv-x="537" 
d="M59 0l152 714h252q148 0 148 -129q0 -25 -6 -55q-15 -71 -56.5 -118.5t-100.5 -56.5v-2q86 -9 86 -95q0 -36 -16.5 -106.5t-16.5 -104.5q0 -30 22 -47h-129q-11 17 -6 63q2 12 24 135q5 25 5 43q0 69 -85 69h-93l-66 -310h-114zM257 396h91q114 0 139 116q5 22 5 40
q0 76 -89 76h-97z" />
    <glyph glyph-name="S" unicode="S" horiz-adv-x="519" 
d="M80 221h114l-4 -18q-5 -25 -5 -46q0 -85 94 -85q51 0 88 32q33 29 42 72q4 19 4 35q0 62 -79 92l-72 27q-114 43 -114 141q0 25 7 55q20 96 91.5 149t173.5 53q169 0 169 -129q0 -26 -7 -59l-4 -16h-114l4 15q4 19 4 34q0 69 -83 69q-96 0 -117 -103q-4 -16 -4 -29
q0 -59 85 -92l71 -28q111 -44 111 -137q0 -24 -6 -52q-46 -215 -282 -215q-178 0 -178 153q0 30 7 65z" />
    <glyph glyph-name="T" unicode="T" horiz-adv-x="463" 
d="M176 0l131 618h-170l21 96h451l-21 -96h-167l-131 -618h-114z" />
    <glyph glyph-name="U" unicode="U" horiz-adv-x="537" 
d="M202 714h114l-109 -512q-6 -28 -6 -50q0 -80 83 -80q104 0 132 130l109 512h114l-107 -503q-48 -225 -266 -225q-180 0 -180 148q0 35 9 77z" />
    <glyph glyph-name="V" unicode="V" horiz-adv-x="481" 
d="M162 0l-16 714h121v-570h2l249 570h121l-332 -714h-145z" />
    <glyph glyph-name="W" unicode="W" horiz-adv-x="741" 
d="M144 0l14 714h115l-24 -555h2l212 555h120l-23 -558h2l212 558h113l-294 -714h-132l22 538h-2l-205 -538h-132z" />
    <glyph glyph-name="X" unicode="X" horiz-adv-x="500" 
d="M0 0l265 363l-97 351h126l63 -237l163 237h123l-248 -351l105 -363h-126l-69 258l-182 -258h-123z" />
    <glyph glyph-name="Y" unicode="Y" horiz-adv-x="481" 
d="M180 0l59 279l-91 435h127l54 -308l189 308h119l-284 -435l-59 -279h-114z" />
    <glyph glyph-name="Z" unicode="Z" horiz-adv-x="463" 
d="M18 0l19 90l411 528h-281l21 96h406l-21 -96l-410 -522h302l-20 -96h-427z" />
    <glyph glyph-name="bracketleft" unicode="[" horiz-adv-x="278" 
d="M38 -184l191 898h203l-17 -80h-101l-157 -738h101l-17 -80h-203z" />
    <glyph glyph-name="backslash" unicode="\" horiz-adv-x="296" 
d="M214 -14l-69 742h89l69 -742h-89z" />
    <glyph glyph-name="bracketright" unicode="]" horiz-adv-x="278" 
d="M-41 -184l17 80h101l157 738h-101l17 80h203l-191 -898h-203z" />
    <glyph glyph-name="asciicircum" unicode="^" horiz-adv-x="600" 
d="M517 280l-88 328l-226 -328h-86l292 414h76l118 -414h-86z" />
    <glyph glyph-name="underscore" unicode="_" horiz-adv-x="500" 
d="M-27 -125l11 50h500l-11 -50h-500z" />
    <glyph glyph-name="grave" unicode="`" 
d="M221 608l-75 144h120l29 -144h-74z" />
    <glyph glyph-name="a" unicode="a" horiz-adv-x="463" 
d="M494 420l-65 -308q-1 -5 -1 -10q0 -28 21 -28q12 0 18 3l-15 -70q-30 -13 -55 -13q-77 0 -77 57q0 7 1 14h-2q-60 -79 -151 -79q-113 0 -113 103q0 22 5 48q18 83 60 122q33 29 101 47l89 23q35 9 51 21q20 15 27 48q3 17 3 30q0 50 -60 50q-82 0 -104 -103h-102
q19 89 69 131q55 46 157 46q147 0 147 -100q0 -15 -4 -32zM344 194l19 90q-19 -13 -64 -28q-58 -18 -66 -22q-49 -21 -63 -87q-3 -13 -3 -25q0 -56 53 -56q97 0 124 128z" />
    <glyph glyph-name="b" unicode="b" horiz-adv-x="481" 
d="M52 0l152 714h108l-51 -239h2q48 77 138 77q124 0 124 -144q0 -55 -16 -132q-62 -290 -238 -290q-86 0 -101 80h-2l-14 -66h-102zM210 263q-14 -67 -14 -107q0 -84 64 -84q53 0 85 54q27 45 49 145q16 78 16 120q0 75 -59 75q-58 0 -91 -53q-28 -44 -50 -150z" />
    <glyph glyph-name="c" unicode="c" horiz-adv-x="444" 
d="M355 196h102q-28 -103 -78 -153q-56 -57 -151 -57q-155 0 -155 160q0 52 15 123q29 136 85 204q65 78 175 79q151 1 151 -137q0 -27 -7 -56h-108q6 25 6 45q0 69 -59 68q-54 -1 -87 -57q-26 -46 -48 -146q-16 -76 -16 -118q0 -85 65 -85q82 -1 110 130z" />
    <glyph glyph-name="d" unicode="d" horiz-adv-x="481" 
d="M327 0l14 66h-2q-49 -80 -135 -80q-131 0 -131 156q0 56 17 134q34 162 100 228q49 48 124 48q90 0 106 -77h2l51 239h108l-152 -714h-102zM383 263q16 78 16 119q0 84 -71 84q-47 0 -74.5 -43t-50.5 -152q-16 -74 -16 -116q0 -83 64 -83q52 0 85 52q27 44 47 139z" />
    <glyph glyph-name="e" unicode="e" horiz-adv-x="463" 
d="M480 255h-281l-6 -31q-11 -50 -11 -82q0 -82 66 -82q50 0 82 48q21 31 29 72h102q-19 -89 -80.5 -141.5t-149.5 -52.5q-68 0 -103 26q-50 37 -50 131q0 50 14 118q62 291 261 291q152 0 152 -137q0 -43 -13 -103zM215 329h173l6 29q6 27 6 48q0 72 -63 72
q-90 0 -120 -138z" />
    <glyph glyph-name="f" unicode="f" horiz-adv-x="278" 
d="M85 0l97 458h-75l17 80h75l11 50q16 74 58 105q38 29 107 29q35 0 59 -3l-18 -83h-30q-58 0 -69 -51l-10 -47h88l-17 -80h-88l-97 -458h-108z" />
    <glyph glyph-name="g" unicode="g" horiz-adv-x="481" 
d="M48 -46h102q-1 -6 -1 -11q0 -23 17.5 -38t48.5 -15q42 0 72 27t40 74l19 87h-2q-48 -74 -138 -74q-119 0 -119 147q0 52 15 124q59 277 230 277q45 0 74 -25q26 -23 27 -55h2l14 66h102l-108 -512q-45 -210 -246 -210q-152 0 -152 106q0 16 3 32zM213 286
q-17 -79 -17 -117q0 -79 59 -79q93 0 134 191q13 62 13 101q0 84 -60 84q-54 0 -86 -53q-25 -40 -43 -127z" />
    <glyph glyph-name="h" unicode="h" horiz-adv-x="481" 
d="M52 0l152 714h108l-50 -234l3 -2q64 74 147 74q109 0 109 -94q0 -23 -6 -52l-86 -406h-108l78 369q6 25 6 43q0 54 -60 54q-35 0 -65 -26q-33 -29 -43 -79l-77 -361h-108z" />
    <glyph glyph-name="i" unicode="i" 
d="M57 0l114 538h108l-114 -538h-108zM188 614l22 108h108l-22 -108h-108z" />
    <glyph glyph-name="j" unicode="j" 
d="M171 538h108l-121 -573q-18 -82 -59.5 -115.5t-114.5 -33.5q-23 0 -46 3l17 83h25q31 0 47 15.5t25 57.5zM210 722h108l-22 -108h-108z" />
    <glyph glyph-name="k" unicode="k" horiz-adv-x="463" 
d="M52 0l152 714h108l-85 -401h2l210 225l126 1l-207 -208l113 -331h-118l-80 245l-77 -74l-36 -171h-108z" />
    <glyph glyph-name="l" unicode="l" 
d="M57 0l152 714h108l-152 -714h-108z" />
    <glyph glyph-name="m" unicode="m" horiz-adv-x="740" 
d="M57 0l114 538h102l-13 -63h3q60 77 145 77q96 0 108 -82q66 82 153 82q106 0 106 -96q0 -21 -5 -47l-87 -409h-108l78 369q6 26 6 44q0 53 -50 53q-35 0 -65 -26q-33 -29 -43 -79l-77 -361h-108l78 369q6 26 6 44q0 53 -51 53q-35 0 -64 -26q-33 -29 -43 -79l-77 -361
h-108z" />
    <glyph glyph-name="n" unicode="n" horiz-adv-x="481" 
d="M52 0l114 538h102l-13 -63h3q60 77 154 77q109 0 109 -94q0 -23 -6 -52l-86 -406h-108l78 369q6 25 6 43q0 54 -60 54q-35 0 -65 -26q-33 -29 -43 -79l-77 -361h-108z" />
    <glyph glyph-name="o" unicode="o" horiz-adv-x="463" 
d="M88 269q29 136 85 204q65 79 175 79q156 0 156 -161q0 -51 -15 -122q-60 -283 -261 -283q-154 0 -154 166q0 51 14 117zM196 269q-18 -84 -18 -126q0 -77 67 -77q56 0 87 50q26 43 49 153q16 76 16 118q0 85 -66 85q-54 0 -87 -57q-26 -45 -48 -146z" />
    <glyph glyph-name="p" unicode="p" horiz-adv-x="481" 
d="M15 -176l151 714h102l-14 -66h2q54 80 138 80q128 0 128 -155q0 -57 -16 -135q-33 -153 -103 -223q-53 -53 -122 -53q-90 0 -106 77h-2l-50 -239h-108zM212 275q-16 -78 -16 -121q0 -82 65 -82q48 0 78.5 43t53.5 152q16 74 16 116q0 83 -65 83q-52 0 -84 -52
q-27 -44 -48 -139z" />
    <glyph glyph-name="q" unicode="q" horiz-adv-x="481" 
d="M284 -176l50 239h-2q-48 -77 -139 -77q-121 0 -121 153q0 53 15 123q61 290 237 290q86 0 101 -80h2l14 66h102l-151 -714h-108zM385 275q15 67 15 107q0 84 -65 84q-53 0 -85 -54q-27 -45 -48 -145q-15 -70 -15 -113q0 -82 57 -82q59 0 92 53q27 44 49 150z" />
    <glyph glyph-name="r" unicode="r" horiz-adv-x="315" 
d="M52 0l114 538h108l-17 -84h2q60 98 145 98q12 0 25 -4l-23 -110q-23 6 -44 6q-108 0 -134 -122l-68 -322h-108z" />
    <glyph glyph-name="s" unicode="s" horiz-adv-x="426" 
d="M467 381h-102l3 14q3 16 3 29q0 54 -56 54q-77 0 -92 -70q-3 -11 -3 -20q0 -36 62 -59l64 -24q89 -34 89 -110q0 -20 -5 -45q-18 -82 -82 -125q-59 -39 -146 -39q-148 0 -148 110q0 25 7 57l4 20h96l-4 -17q-4 -21 -4 -37q0 -59 68 -59q88 0 105 79q2 11 2 20
q0 42 -45 59l-81 31q-88 33 -88 107q0 21 6 48q31 148 215 148q141 0 141 -108q0 -18 -4 -39z" />
    <glyph glyph-name="t" unicode="t" horiz-adv-x="278" 
d="M101 458l17 80h74l33 153h108l-33 -153h88l-17 -80h-88l-68 -321q-3 -15 -3 -25q0 -32 40 -32q24 0 40 3l-17 -80q-37 -9 -89 -9q-47 0 -66 13q-23 16 -23 57q0 24 7 60l71 334h-74z" />
    <glyph glyph-name="u" unicode="u" horiz-adv-x="481" 
d="M327 0l13 63h-3q-59 -77 -154 -77q-106 0 -106 102q0 32 9 74l80 376h108l-82 -386q-3 -17 -3 -29q0 -51 59 -51q37 0 67.5 23.5t39.5 66.5l80 376h108l-114 -538h-102z" />
    <glyph glyph-name="v" unicode="v" horiz-adv-x="426" 
d="M151 0l-30 538h116l4 -424h2l175 424h115l-256 -538h-126z" />
    <glyph glyph-name="w" unicode="w" horiz-adv-x="685" 
d="M137 0l-8 538h112l-15 -424h2l170 424h122l-10 -424h2l164 424h108l-237 -538h-121l5 418h-2l-166 -418h-126z" />
    <glyph glyph-name="x" unicode="x" horiz-adv-x="426" 
d="M3 0l206 279l-84 259h118l47 -178l125 178h116l-195 -259l87 -279h-117l-52 199l-136 -199h-115z" />
    <glyph glyph-name="y" unicode="y" horiz-adv-x="426" 
d="M122 538h116l7 -404h2l172 404h113l-266 -558q-51 -107 -97 -138q-39 -27 -126 -26q-17 0 -42 4l18 86q23 -4 34 -4q60 0 82 42l23 44z" />
    <glyph glyph-name="z" unicode="z" horiz-adv-x="407" 
d="M25 0l18 84l312 363h-221l19 91h343l-19 -89l-302 -358h226l-19 -91h-357z" />
    <glyph glyph-name="braceleft" unicode="{" horiz-adv-x="278" 
d="M56 232l14 66q33 2 63.5 32t39.5 70l39 183q13 61 55 97q38 34 84 34h72l-13 -62h-33q-48 0 -63 -69l-39 -183q-13 -61 -58 -100q-31 -27 -62 -34l-1 -2q23 -6 42 -26q26 -28 26 -72q0 -17 -4 -36l-39 -183q-4 -19 -4 -32q0 -37 37 -37h33l-13 -62h-72q-38 0 -62.5 25
t-24.5 69q0 18 4 37l39 183q2 12 2 24q0 32 -17.5 54.5t-44.5 23.5z" />
    <glyph glyph-name="bar" unicode="|" 
d="M65 -14l158 742h86l-158 -742h-86z" />
    <glyph glyph-name="braceright" unicode="}" horiz-adv-x="278" 
d="M334 298l-14 -66q-33 -2 -63.5 -32t-38.5 -70l-39 -183q-13 -61 -53.5 -96t-85.5 -35h-72l13 62h33q48 0 63 69l39 183q13 61 58 100q31 27 62 34l1 2q-23 6 -42 26q-26 28 -26 72q0 17 4 36l39 183q4 19 4 32q0 37 -37 37h-33l13 62h72q38 0 62.5 -25t24.5 -69
q0 -18 -4 -37l-39 -183q-3 -12 -3 -24q0 -32 17.5 -54.5t44.5 -23.5z" />
    <glyph glyph-name="asciitilde" unicode="~" horiz-adv-x="600" 
d="M141 169v0l-20 76q63 87 144 87q38 0 108 -37q65 -35 89 -35q45 0 105 77l19 -76q-69 -87 -143 -87q-39 0 -106.5 36t-91.5 36q-45 0 -104 -77z" />
    <glyph glyph-name="Euro" horiz-adv-x="480" 
d="M562 547q-4 14 -12.5 29.5t-26.5 29.5t-36.5 18t-39.5 4q-24 0 -45 -6.5t-43 -26.5q-16 -14 -28 -33t-21 -39t-15 -38.5t-10 -31.5h224l-38 -68h-204q-5 -17 -8.5 -34.5t-6.5 -35.5h185l-38 -68h-157q-2 -11 -4.5 -29t-2.5 -39q0 -20 4 -41t15 -37q13 -19 31.5 -27
t44.5 -8q20 0 42.5 5t46.5 16q22 10 40.5 23.5t35.5 33.5l-24 -110q-24 -18 -52 -28q-34 -14 -65.5 -17t-42.5 -3q-58 0 -91 13.5t-50 29.5q-23 22 -33.5 52.5t-13.5 61.5t-0.5 59t5.5 45h-75l38 68h47q3 18 6.5 35.5t8.5 34.5h-71l38 68h51q24 88 61.5 138t72.5 74
q45 29 86.5 36t69.5 7q24 0 49.5 -3.5t50.5 -15.5q19 -9 31.5 -21t23.5 -29z" />
    <glyph glyph-name="Euro" unicode="&#x20ac;" horiz-adv-x="480" 
d="M562 547q-4 14 -12.5 29.5t-26.5 29.5t-36.5 18t-39.5 4q-24 0 -45 -6.5t-43 -26.5q-16 -14 -28 -33t-21 -39t-15 -38.5t-10 -31.5h224l-38 -68h-204q-5 -17 -8.5 -34.5t-6.5 -35.5h185l-38 -68h-157q-2 -11 -4.5 -29t-2.5 -39q0 -20 4 -41t15 -37q13 -19 31.5 -27
t44.5 -8q20 0 42.5 5t46.5 16q22 10 40.5 23.5t35.5 33.5l-24 -110q-24 -18 -52 -28q-34 -14 -65.5 -17t-42.5 -3q-58 0 -91 13.5t-50 29.5q-23 22 -33.5 52.5t-13.5 61.5t-0.5 59t5.5 45h-75l38 68h47q3 18 6.5 35.5t8.5 34.5h-71l38 68h51q24 88 61.5 138t72.5 74
q45 29 86.5 36t69.5 7q24 0 49.5 -3.5t50.5 -15.5q19 -9 31.5 -21t23.5 -29z" />
    <glyph glyph-name="quotesinglbase" unicode="&#x201a;" horiz-adv-x="240" 
d="M63 0l28 132h114l-28 -132q-28 -132 -147 -154l13 58q52 13 67 81l3 15h-50z" />
    <glyph glyph-name="florin" unicode="&#x192;" horiz-adv-x="480" 
d="M187 434h106l56 129q32 75 71 109q47 42 123 42q47 0 75 -8l-31 -76q-39 4 -37 4q-67 0 -108 -93l-47 -107h112l-25 -68h-114l-155 -371q-37 -89 -81 -128q-49 -43 -129 -43q-45 0 -65 6l33 78q17 -4 42 -4q37 0 58 20q18 17 37 63l158 379h-104z" />
    <glyph glyph-name="quotedblbase" unicode="&#x201e;" horiz-adv-x="426" 
d="M245 0l28 132h114l-28 -132q-28 -132 -147 -154l13 58q52 13 67 81l3 15h-50zM67 0l28 132h114l-28 -132q-28 -132 -147 -154l13 58q52 13 67 81l3 15h-50z" />
    <glyph glyph-name="ellipsis" unicode="&#x2026;" horiz-adv-x="1000" 
d="M110 0l28 132h114l-28 -132h-114zM443 0l28 132h114l-28 -132h-114zM776 0l28 132h114l-28 -132h-114z" />
    <glyph glyph-name="dagger" unicode="&#x2020;" horiz-adv-x="482" 
d="M296 512l43 202h108l-43 -202h171l-20 -91h-171l-119 -563h-108l119 563h-171l20 91h171z" />
    <glyph glyph-name="daggerdbl" unicode="&#x2021;" horiz-adv-x="482" 
d="M297 519l42 195h108l-42 -195h172l-18 -86h-172l-62 -290h172l-18 -86h-172l-42 -199h-108l42 199h-172l18 86h172l62 290h-172l18 86h172z" />
    <glyph glyph-name="circumflex" unicode="&#x2c6;" 
d="M96 608l122 144h108l58 -144h-91l-35 88l-76 -88h-86z" />
    <glyph glyph-name="perthousand" unicode="&#x2030;" horiz-adv-x="1056" 
d="M959 308q-29 0 -46 -29t-32 -101q-12 -57 -12 -85q0 -45 35 -45q30 0 46.5 29t32.5 101q12 57 12 85q0 45 -36 45zM636 708h77l-472 -722h-75zM299 646q-30 0 -46.5 -29t-31.5 -101q-12 -57 -12 -85q0 -45 35 -45q30 0 46.5 29t32.5 101q12 57 12 85q0 45 -36 45z
M973 370q106 0 106 -111q0 -35 -10 -81q-41 -192 -178 -192q-106 0 -106 111q0 35 10 81q41 192 178 192zM312 708q106 0 106 -111q0 -35 -9 -81q-41 -192 -178 -192q-106 0 -106 111q0 35 10 81q40 192 177 192zM640 308q-29 0 -46 -29t-32 -101q-12 -57 -12 -85
q0 -45 35 -45q30 0 46.5 29t32.5 101q12 57 12 85q0 45 -36 45zM654 370q106 0 106 -111q0 -35 -10 -81q-41 -192 -178 -192q-106 0 -106 111q0 35 10 81q41 192 178 192z" />
    <glyph glyph-name="Scaron" unicode="&#x160;" horiz-adv-x="519" 
d="M80 221h114l-4 -18q-5 -25 -5 -46q0 -85 94 -85q51 0 88 32q33 29 42 72q4 19 4 35q0 62 -79 92l-72 27q-114 43 -114 141q0 25 7 55q20 96 91.5 149t173.5 53q169 0 169 -129q0 -26 -7 -59l-4 -16h-114l4 15q4 19 4 34q0 69 -83 69q-96 0 -117 -103q-4 -16 -4 -29
q0 -59 85 -92l71 -28q111 -44 111 -137q0 -24 -6 -52q-46 -215 -282 -215q-178 0 -178 153q0 30 7 65zM365 754l-58 144h91l35 -88l76 88h86l-122 -144h-108z" />
    <glyph glyph-name="guilsinglleft" unicode="&#x2039;" horiz-adv-x="240" 
d="M97 232l25 114l172 135l-23 -110l-106 -82l71 -82l-23 -110z" />
    <glyph glyph-name="OE" unicode="&#x152;" horiz-adv-x="796" 
d="M400 0l11 51h-2q-54 -65 -152 -65q-162 0 -162 192q0 73 23 179q79 371 301 371q96 0 121 -58h2l10 44h354l-21 -96h-254l-42 -198h238l-20 -96h-238l-49 -228h262l-20 -96h-362zM442 236l52 242q9 45 9 77q0 87 -81 87q-64 0 -104 -51q-50 -64 -85 -231
q-23 -107 -23 -172q0 -116 83 -116q57 0 89 31q40 37 60 133z" />
    <glyph glyph-name="Zcaron" horiz-adv-x="463" 
d="M18 0l19 90l411 528h-281l21 96h406l-21 -96l-410 -522h302l-20 -96h-427zM337 754l-58 144h91l35 -88l76 88h86l-122 -144h-108z" />
    <glyph glyph-name="Zcaron" unicode="&#x17d;" horiz-adv-x="463" 
d="M18 0l19 90l411 528h-281l21 96h406l-21 -96l-410 -522h302l-20 -96h-427zM337 754l-58 144h91l35 -88l76 88h86l-122 -144h-108z" />
    <glyph glyph-name="quoteleft" unicode="&#x2018;" horiz-adv-x="240" 
d="M154 428l28 132q28 132 147 154l-13 -58q-52 -13 -67 -81l-3 -15h50l-28 -132h-114z" />
    <glyph glyph-name="quoteright" unicode="&#x2019;" horiz-adv-x="240" 
d="M187 582l28 132h114l-28 -132q-28 -132 -147 -154l12 58q53 13 68 81l3 15h-50z" />
    <glyph glyph-name="quotedblleft" unicode="&#x201c;" horiz-adv-x="426" 
d="M158 428l28 132q28 132 147 154l-13 -58q-52 -13 -67 -81l-3 -15h50l-28 -132h-114zM336 428l28 132q28 132 147 154l-13 -58q-52 -13 -67 -81l-3 -15h50l-28 -132h-114z" />
    <glyph glyph-name="quotedblright" unicode="&#x201d;" horiz-adv-x="426" 
d="M369 582l28 132h114l-28 -132q-28 -132 -147 -154l12 58q53 13 68 81l3 15h-50zM191 582l28 132h114l-28 -132q-28 -132 -147 -154l12 58q53 13 68 81l3 15h-50z" />
    <glyph glyph-name="bullet" unicode="&#x2022;" horiz-adv-x="500" 
d="M148 357q16 73 79 125.5t137 52.5q63 0 103.5 -40t40.5 -101q0 -18 -4 -37q-16 -73 -79 -125.5t-137 -52.5q-63 0 -103.5 40t-40.5 101q0 18 4 37z" />
    <glyph glyph-name="endash" unicode="&#x2013;" horiz-adv-x="500" 
d="M51 241l21 96h500l-21 -96h-500z" />
    <glyph glyph-name="emdash" unicode="&#x2014;" horiz-adv-x="1000" 
d="M51 241l21 96h1000l-21 -96h-1000z" />
    <glyph glyph-name="tilde" unicode="&#x2dc;" 
d="M357 738v0h62q-9 -39 -38 -75q-34 -43 -73 -43q-24 0 -61.5 17.5t-51.5 17.5q-34 0 -42 -40h-62q8 41 39 76q37 44 87 44q16 0 50.5 -17.5t51.5 -17.5q30 0 38 38z" />
    <glyph glyph-name="trademark" unicode="&#x2122;" horiz-adv-x="1000" 
d="M219 302l73 344h-123l15 68h332l-15 -68h-123l-73 -344h-86zM892 302l69 326h-2l-190 -326h-56l-52 326h-2l-69 -326h-80l88 412h119l50 -292l174 292h119l-88 -412h-80z" />
    <glyph glyph-name="scaron" unicode="&#x161;" horiz-adv-x="426" 
d="M467 381h-102l3 14q3 16 3 29q0 54 -56 54q-77 0 -92 -70q-3 -11 -3 -20q0 -36 62 -59l64 -24q89 -34 89 -110q0 -20 -5 -45q-18 -82 -82 -125q-59 -39 -146 -39q-148 0 -148 110q0 25 7 57l4 20h96l-4 -17q-4 -21 -4 -37q0 -59 68 -59q88 0 105 79q2 11 2 20
q0 42 -45 59l-81 31q-88 33 -88 107q0 21 6 48q31 148 215 148q141 0 141 -108q0 -18 -4 -39zM287 608l-58 144h91l35 -88l76 88h86l-122 -144h-108z" />
    <glyph glyph-name="guilsinglright" unicode="&#x203a;" horiz-adv-x="240" 
d="M266 346l-25 -114l-172 -135l23 110l105 82l-70 82l23 110z" />
    <glyph glyph-name="oe" unicode="&#x153;" horiz-adv-x="722" 
d="M493 329h160l6 29q6 28 6 50q0 70 -58 70q-44 0 -76 -46q-24 -35 -33 -80zM625 180h102q-19 -89 -80.5 -141.5t-149.5 -52.5q-63 0 -93 37q-18 22 -21 49q-60 -86 -166 -86q-144 0 -144 158q0 53 15 125q29 136 85 204q64 79 171 79q65 0 98 -29q20 -17 33 -53
q66 82 158 82q137 0 137 -135q0 -43 -13 -105l-12 -57h-269l-8 -38q-10 -46 -10 -78q0 -78 56 -79q50 -1 82 47q20 31 29 73zM196 269q-16 -77 -16 -120q0 -83 61 -83q55 0 88 57q27 45 48 146q16 76 16 118q0 85 -66 85q-51 0 -84 -57q-25 -46 -47 -146z" />
    <glyph glyph-name="zcaron" horiz-adv-x="407" 
d="M25 0l18 84l312 363h-221l19 91h343l-19 -89l-302 -358h226l-19 -91h-357zM278 608l-58 144h91l35 -88l76 88h86l-122 -144h-108z" />
    <glyph glyph-name="zcaron" unicode="&#x17e;" horiz-adv-x="407" 
d="M25 0l18 84l312 363h-221l19 91h343l-19 -89l-302 -358h226l-19 -91h-357zM278 608l-58 144h91l35 -88l76 88h86l-122 -144h-108z" />
    <glyph glyph-name="Ydieresis" unicode="&#x178;" horiz-adv-x="481" 
d="M180 0l59 279l-91 435h127l54 -308l189 308h119l-284 -435l-59 -279h-114zM440 774l23 108h96l-23 -108h-96zM274 774l23 108h96l-23 -108h-96z" />
    <glyph glyph-name="nonbreakingspace" unicode="&#xa0;" horiz-adv-x="240" 
 />
    <glyph glyph-name="exclamdown" unicode="&#xa1;" horiz-adv-x="278" 
d="M253 346l-46 -296l-48 -226h-114l48 226l80 296h80zM310 538l-24 -114h-114l24 114h114z" />
    <glyph glyph-name="cent" unicode="&#xa2;" horiz-adv-x="480" 
d="M238 66l86 406q-72 -20 -111 -203q-16 -76 -16 -119q0 -68 41 -84zM202 -102l19 88q-131 11 -131 159q0 52 15 124q57 269 236 283l16 75h44l-16 -75q130 -8 130 -136q0 -27 -7 -57h-108q6 26 6 48q0 56 -38 65l-86 -406q66 18 90 130h102q-54 -200 -209 -210l-19 -88
h-44z" />
    <glyph glyph-name="sterling" unicode="&#xa3;" horiz-adv-x="480" 
d="M85 315l14 68h69l-9 35q-13 47 -13 78q0 92 80 154q74 58 168 58q177 0 177 -144q0 -24 -6 -50l-2 -12h-108l2 11q4 17 4 34q0 81 -79 81q-44 0 -76 -23.5t-40 -62.5q-10 -49 8 -113l13 -46h166l-14 -68h-140q4 -28 -3 -59q-18 -85 -153 -173l1 -4q42 23 78 23
q20 0 60.5 -15t57.5 -15q27 0 81 26l33 16l21 -79l-22 -12q-72 -38 -135 -37q-34 1 -86 20t-80 19q-37 0 -101 -31l-24 77l21 13q120 75 139 165q6 28 -4 66h-98z" />
    <glyph glyph-name="currency" unicode="&#xa4;" horiz-adv-x="480" 
d="M39 157l62 51q-22 42 -22 92q0 104 81 186l-40 51l55 45l40 -51q72 46 148 46q75 0 128 -46l62 51l35 -45l-62 -52q23 -41 23 -91q0 -102 -82 -185l40 -52l-54 -45l-41 52q-70 -47 -147 -47t-128 47l-62 -52zM281 191q63 0 116 45t67 111q4 18 4 35q0 53 -33.5 87
t-87.5 34q-63 0 -116 -45t-67 -111q-4 -18 -4 -35q0 -53 33.5 -87t87.5 -34z" />
    <glyph glyph-name="yen" unicode="&#xa5;" horiz-adv-x="480" 
d="M182 0l34 162h-141l15 68h141l10 47l-5 23h-131l14 68h101l-70 326h124l53 -284l180 284h119l-217 -326h100l-14 -68h-130l-16 -23l-10 -47h141l-15 -68h-141l-34 -162h-108z" />
    <glyph glyph-name="brokenbar" unicode="&#xa6;" 
d="M65 -14l59 277h86l-59 -277h-86zM164 451l59 277h86l-59 -277h-86z" />
    <glyph glyph-name="section" unicode="&#xa7;" horiz-adv-x="481" 
d="M376 346l-105 69l-15 -11q-68 -48 -68 -89q0 -29 60 -69l100 -67l19 12q52 34 52 89q0 38 -43 66zM545 571h-108q3 12 3 23q0 54 -64 54q-36 0 -64 -22t-28 -56q0 -35 59 -72l119 -75q58 -37 58 -104q0 -20 -5 -45q-18 -87 -109 -139q35 -36 35 -86q0 -15 -3 -30
q-18 -84 -82 -131q-60 -44 -145 -44q-160 0 -160 133q0 24 6 50h108q-4 -18 -4 -32q0 -65 68 -65q33 0 59 20t33 55q2 10 2 19q0 40 -56 75l-101 62q-79 48 -79 122q0 15 4 32q19 89 123 142q-43 27 -43 83q0 15 4 32q15 74 79 117q59 39 142 39q153 0 153 -120
q0 -18 -4 -37z" />
    <glyph glyph-name="dieresis" unicode="&#xa8;" 
d="M279 628l23 108h96l-23 -108h-96zM113 628l23 108h96l-23 -108h-96z" />
    <glyph glyph-name="copyright" unicode="&#xa9;" horiz-adv-x="800" 
d="M572 292h83q-28 -74 -88 -116t-135 -42t-118 43t-43 118q0 30 7 63q22 102 91.5 162.5t164.5 60.5q71 0 111 -39q41 -42 36 -114h-80q0 36 -22 58t-62 21q-57 -1 -98 -43t-55 -106q-5 -24 -5 -45q0 -105 98 -105q38 0 70 23t45 61zM414 66q116 0 216 85t126 206
q7 32 7 63q0 99 -63 163.5t-162 64.5q-116 0 -216 -85t-126 -206q-7 -32 -7 -63q0 -99 62.5 -163.5t162.5 -64.5zM105 357q33 154 164.5 262.5t285.5 108.5q132 0 216 -83t84 -210q0 -39 -8 -78q-33 -154 -164.5 -262.5t-285.5 -108.5q-133 0 -216.5 83t-83.5 210q0 39 8 78
z" />
    <glyph glyph-name="ordfeminine" unicode="&#xaa;" horiz-adv-x="316" 
d="M105 457q11 51 40 74q22 18 74 30l55 13q55 13 55 51q0 27 -39 27q-53 0 -64 -50h-74q11 54 45 79q38 27 113 27q103 0 103 -61q0 -9 -2 -18l-38 -177q-5 -23 12 -23q6 0 15 2l-13 -57q-32 -7 -42 -7q-59 0 -52 47h-3q-41 -47 -106 -47q-82 0 -82 65q0 11 3 25zM301 490
l12 57q-11 -7 -43.5 -17t-40.5 -14q-28 -12 -36 -51q-3 -14 6 -25t28 -11q28 0 48 17t26 44z" />
    <glyph glyph-name="guillemotleft" unicode="&#xab;" horiz-adv-x="407" 
d="M262 232l25 114l172 135l-23 -110l-106 -82l71 -82l-23 -110zM99 232l25 114l172 135l-23 -110l-106 -82l71 -82l-23 -110z" />
    <glyph glyph-name="logicalnot" unicode="&#xac;" horiz-adv-x="600" 
d="M490 106l44 208h-420l18 86h506l-62 -294h-86z" />
    <glyph glyph-name="hyphen" unicode="&#xad;" horiz-adv-x="352" 
d="M96 238l21 102h262l-21 -102h-262z" />
    <glyph glyph-name="registered" unicode="&#xae;" horiz-adv-x="800" 
d="M516 145l-70 179h-63l-38 -179h-74l90 424h165q137 0 137 -88q0 -16 -4 -34q-21 -100 -134 -120l77 -182h-86zM396 386h76q49 0 72 10q33 14 42 54q1 7 1 12q0 45 -83 45h-82zM414 66q116 0 216 85t126 206q7 32 7 63q0 99 -63 163.5t-162 64.5q-116 0 -216 -85
t-126 -206q-7 -32 -7 -63q0 -99 62.5 -163.5t162.5 -64.5zM105 357q33 154 164.5 262.5t285.5 108.5q132 0 216 -83t84 -210q0 -39 -8 -78q-33 -154 -164.5 -262.5t-285.5 -108.5q-133 0 -216.5 83t-83.5 210q0 39 8 78z" />
    <glyph glyph-name="macron" unicode="&#xaf;" 
d="M122 714h282l-13 -62h-282z" />
    <glyph glyph-name="degree" unicode="&#xb0;" horiz-adv-x="400" 
d="M350 708q54 0 87.5 -33.5t33.5 -84.5q0 -70 -57 -125t-127 -55q-53 0 -87 33.5t-34 84.5q0 70 57 125t127 55zM236 542q0 -28 18.5 -46t47.5 -18q38 0 69 30t31 68q0 28 -18.5 46t-47.5 18q-39 0 -69.5 -30t-30.5 -68z" />
    <glyph glyph-name="plusminus" unicode="&#xb1;" horiz-adv-x="600" 
d="M332 355l33 151h86l-33 -151h210l-18 -86h-210l-32 -151h-86l32 151h-210l18 86h210zM47 0l18 86h506l-18 -86h-506z" />
    <glyph glyph-name="twosuperior" unicode="&#xb2;" horiz-adv-x="313" 
d="M366 348l-14 -68h-276q18 85 80 142q4 3 110 77q59 41 69 89q2 10 2 18q0 40 -41 40q-56 0 -72 -76h-86q29 138 172 138q116 0 116 -82q0 -15 -4 -32q-12 -59 -62 -102q-13 -11 -96 -66q-59 -39 -83 -78h185z" />
    <glyph glyph-name="threesuperior" unicode="&#xb3;" horiz-adv-x="313" 
d="M216 471l13 62h27q32 0 54.5 20.5t22.5 51.5q0 41 -40 41q-53 0 -66 -61h-86q13 59 58.5 91t112.5 32q46 0 76 -20q34 -23 34 -64q0 -42 -30.5 -77t-71.5 -41l-1 -2q73 -4 73 -74q0 -12 -3 -25q-13 -62 -62 -97t-114 -35q-123 0 -123 88q0 18 5 39h86q-2 -8 -2 -16
q0 -49 47 -49q35 0 57.5 27.5t22.5 63.5q0 45 -60 45h-30z" />
    <glyph glyph-name="acute" unicode="&#xb4;" 
d="M185 608l91 144h120l-137 -144h-74z" />
    <glyph glyph-name="mu" unicode="&#xb5;" horiz-adv-x="481" 
d="M15 -176l151 714h108l-78 -369q-5 -25 -5 -43q0 -54 59 -54q36 0 65 26q33 29 44 79l76 361h108l-114 -538h-102l13 63h-3q-59 -77 -130 -77q-32 0 -46 18l-38 -180h-108z" />
    <glyph glyph-name="paragraph" unicode="&#xb6;" horiz-adv-x="600" 
d="M413 -142l167 788h-111l-167 -788h-91l103 486q-67 0 -110 40t-43 103q0 19 4 39q40 188 273 188h248l-182 -856h-91z" />
    <glyph glyph-name="periodcentered" unicode="&#xb7;" horiz-adv-x="240" 
d="M201 380q26 0 42 -16t16 -41q0 -34 -27.5 -60.5t-61.5 -26.5q-26 0 -42 16t-16 41q0 34 27 60.5t62 26.5z" />
    <glyph glyph-name="periodcentered" unicode="&#x2219;" horiz-adv-x="240" 
d="M201 380q26 0 42 -16t16 -41q0 -34 -27.5 -60.5t-61.5 -26.5q-26 0 -42 16t-16 41q0 34 27 60.5t62 26.5z" />
    <glyph glyph-name="cedilla" unicode="&#xb8;" 
d="M96 0h50l-53 -57q26 5 41 5q29 0 46.5 -17t17.5 -42q0 -48 -47 -78q-41 -27 -91 -27q-56 0 -97 17l24 40q32 -13 63 -13q56 0 65 38q3 17 -8 27.5t-30 10.5q-12 0 -40 -8l-14 17z" />
    <glyph glyph-name="onesuperior" unicode="&#xb9;" horiz-adv-x="313" 
d="M190 280l64 305h-90l12 56h7q94 0 122 59l1 8h60l-90 -428h-86z" />
    <glyph glyph-name="ordmasculine" unicode="&#xba;" horiz-adv-x="316" 
d="M236 367q-116 0 -116 104q0 28 8 65q36 172 180 172q116 0 116 -105q0 -28 -8 -67q-36 -169 -180 -169zM249 429q58 0 81 107q8 36 8 58q0 52 -43 52q-58 0 -81 -110q-7 -34 -7 -55q0 -52 42 -52z" />
    <glyph glyph-name="guillemotright" unicode="&#xbb;" horiz-adv-x="407" 
d="M268 346l-25 -114l-172 -135l23 110l105 82l-70 82l23 110zM431 346l-25 -114l-172 -135l23 110l105 82l-70 82l23 110z" />
    <glyph glyph-name="onequarter" unicode="&#xbc;" horiz-adv-x="721" 
d="M545 0l20 94h-164l13 61l216 273h86l-59 -278h50l-12 -56h-50l-20 -94h-80zM577 150l39 182h-2l-142 -182h105zM67 -31l582 756h74l-582 -756h-74zM160 280l64 305h-90l12 56h7q94 0 122 59l1 8h60l-90 -428h-86z" />
    <glyph glyph-name="onehalf" unicode="&#xbd;" horiz-adv-x="721" 
d="M67 -31l582 756h74l-582 -756h-74zM160 280l64 305h-90l12 56h7q94 0 122 59l1 8h60l-90 -428h-86zM687 0h-276q18 85 80 142q4 3 110 77q59 41 69 89q3 10 3 18q0 40 -41 40q-56 0 -72 -76h-86q29 138 172 138q115 0 115 -82q0 -15 -3 -32q-13 -59 -62 -102
q-13 -11 -97 -66q-59 -39 -83 -78h185z" />
    <glyph glyph-name="threequarters" unicode="&#xbe;" horiz-adv-x="721" 
d="M545 0l20 94h-164l13 61l216 273h86l-59 -278h50l-12 -56h-50l-20 -94h-80zM577 150l39 182h-2l-142 -182h105zM101 -31l582 756h74l-582 -756h-74zM190 471l13 62h27q32 0 54.5 20.5t22.5 51.5q0 41 -40 41q-53 0 -66 -61h-86q13 59 58.5 91t112.5 32q46 0 76 -20
q34 -23 34 -64q0 -42 -30.5 -77t-71.5 -41l-1 -2q73 -4 73 -74q0 -12 -3 -25q-13 -62 -62 -97t-114 -35q-123 0 -123 88q0 18 5 39h86q-2 -8 -2 -16q0 -49 47 -49q35 0 57.5 27.5t22.5 63.5q0 45 -60 45h-30z" />
    <glyph glyph-name="questiondown" unicode="&#xbf;" horiz-adv-x="463" 
d="M368 346l-13 -60l-206 -284q-4 -22 -4 -39q0 -67 63 -67q90 0 120 141h108q-22 -102 -79 -161q-64 -66 -166 -66q-162 0 -162 137q0 26 6 55q16 73 69 131q2 2 93 84q51 46 60 87l9 42h102zM415 538l-24 -114h-114l24 114h114z" />
    <glyph glyph-name="Agrave" unicode="&#xc0;" horiz-adv-x="519" 
d="M234 266h169l-8 352h-2zM-9 0l355 714h146l36 -714h-119l-7 175h-209l-83 -175h-119zM408 754l-75 144h120l29 -144h-74z" />
    <glyph glyph-name="Aacute" unicode="&#xc1;" horiz-adv-x="519" 
d="M234 266h169l-8 352h-2zM-9 0l355 714h146l36 -714h-119l-7 175h-209l-83 -175h-119zM372 754l91 144h120l-137 -144h-74z" />
    <glyph glyph-name="Acircumflex" unicode="&#xc2;" horiz-adv-x="519" 
d="M234 266h169l-8 352h-2zM-9 0l355 714h146l36 -714h-119l-7 175h-209l-83 -175h-119zM283 754l122 144h108l58 -144h-91l-35 88l-76 -88h-86z" />
    <glyph glyph-name="Atilde" unicode="&#xc3;" horiz-adv-x="519" 
d="M234 266h169l-8 352h-2zM-9 0l355 714h146l36 -714h-119l-7 175h-209l-83 -175h-119zM544 884v0h62q-9 -39 -38 -75q-34 -43 -73 -43q-24 0 -61.5 17.5t-51.5 17.5q-34 0 -42 -40h-62q8 41 39 76q37 44 87 44q16 0 50.5 -17.5t51.5 -17.5q30 0 38 38z" />
    <glyph glyph-name="Adieresis" unicode="&#xc4;" horiz-adv-x="519" 
d="M234 266h169l-8 352h-2zM-9 0l355 714h146l36 -714h-119l-7 175h-209l-83 -175h-119zM466 774l23 108h96l-23 -108h-96zM300 774l23 108h96l-23 -108h-96z" />
    <glyph glyph-name="Aring" unicode="&#xc5;" horiz-adv-x="519" 
d="M234 266h169l-8 352h-2zM-9 0l355 714h146l36 -714h-119l-7 175h-209l-83 -175h-119zM389 833q0 -44 46 -44q26 0 47.5 20.5t21.5 47.5q0 44 -46 44q-26 0 -47.5 -20.5t-21.5 -47.5zM469 951q38 0 62 -23.5t24 -59.5q0 -51 -40 -90t-91 -39q-38 0 -62 23.5t-24 59.5
q0 51 40 90t91 39z" />
    <glyph glyph-name="AE" unicode="&#xc6;" horiz-adv-x="741" 
d="M257 266h137l75 357h-9zM-12 0l425 714h437l-21 -96h-253l-42 -198h239l-20 -96h-239l-49 -228h262l-20 -96h-370l37 175h-167l-100 -175h-119z" />
    <glyph glyph-name="Ccedilla" unicode="&#xc7;" horiz-adv-x="519" 
d="M184 -87l62 73q-80 7 -116 52.5t-36 133.5q0 72 24 185q42 197 110 281q73 90 206 90q176 0 176 -148q0 -33 -9 -76l-3 -13h-114l3 12q6 29 6 54q0 86 -79 85q-66 -1 -104 -55q-42 -62 -77 -227q-25 -116 -25 -180q0 -60 21 -84t64 -24q106 0 143 172l2 12h114l-3 -15
q-22 -105 -79 -171q-68 -78 -176 -84l-40 -43q26 5 41 5q29 0 46.5 -17t17.5 -42q0 -48 -47 -78q-41 -27 -91 -27q-56 0 -97 17l24 40q32 -13 63 -13q56 0 65 38q3 17 -8 27.5t-30 10.5q-12 0 -40 -8z" />
    <glyph glyph-name="Egrave" unicode="&#xc8;" horiz-adv-x="481" 
d="M59 0l152 714h386l-21 -96h-272l-42 -198h256l-20 -96h-256l-49 -228h280l-20 -96h-394zM394 754l-75 144h120l29 -144h-74z" />
    <glyph glyph-name="Eacute" unicode="&#xc9;" horiz-adv-x="481" 
d="M59 0l152 714h386l-21 -96h-272l-42 -198h256l-20 -96h-256l-49 -228h280l-20 -96h-394zM358 754l91 144h120l-137 -144h-74z" />
    <glyph glyph-name="Ecircumflex" unicode="&#xca;" horiz-adv-x="481" 
d="M59 0l152 714h386l-21 -96h-272l-42 -198h256l-20 -96h-256l-49 -228h280l-20 -96h-394zM269 754l122 144h108l58 -144h-91l-35 88l-76 -88h-86z" />
    <glyph glyph-name="Edieresis" unicode="&#xcb;" horiz-adv-x="481" 
d="M59 0l152 714h386l-21 -96h-272l-42 -198h256l-20 -96h-256l-49 -228h280l-20 -96h-394zM452 774l23 108h96l-23 -108h-96zM286 774l23 108h96l-23 -108h-96z" />
    <glyph glyph-name="Igrave" unicode="&#xcc;" 
d="M54 0l152 714h114l-152 -714h-114zM252 754l-75 144h120l29 -144h-74z" />
    <glyph glyph-name="Iacute" unicode="&#xcd;" 
d="M54 0l152 714h114l-152 -714h-114zM216 754l91 144h120l-137 -144h-74z" />
    <glyph glyph-name="Icircumflex" unicode="&#xce;" 
d="M54 0l152 714h114l-152 -714h-114zM127 754l122 144h108l58 -144h-91l-35 88l-76 -88h-86z" />
    <glyph glyph-name="Idieresis" unicode="&#xcf;" 
d="M54 0l152 714h114l-152 -714h-114zM310 774l23 108h96l-23 -108h-96zM144 774l23 108h96l-23 -108h-96z" />
    <glyph glyph-name="Eth" unicode="&#xd0;" horiz-adv-x="556" 
d="M59 0l71 333h-59l17 80h59l64 301h203q109 0 157 -48q43 -43 43 -131q0 -64 -24 -178q-39 -182 -97 -258q-76 -99 -231 -99h-203zM191 86h94q73 0 114 57q44 61 77 214q21 101 21 158q0 60 -23 86.5t-74 26.5h-94l-45 -215h119l-17 -80h-119z" />
    <glyph glyph-name="Ntilde" unicode="&#xd1;" horiz-adv-x="574" 
d="M59 0l152 714h139l94 -532h2l113 532h108l-152 -714h-139l-91 546h-2l-116 -546h-108zM564 884v0h62q-9 -39 -38 -75q-34 -43 -73 -43q-24 0 -61.5 17.5t-51.5 17.5q-34 0 -42 -40h-62q8 41 39 76q37 44 87 44q16 0 50.5 -17.5t51.5 -17.5q30 0 38 38z" />
    <glyph glyph-name="Ograve" unicode="&#xd2;" horiz-adv-x="556" 
d="M275 -14q-179 0 -179 199q0 71 22 172q41 192 116.5 281.5t198.5 89.5q178 0 178 -199q0 -71 -21 -172q-41 -192 -116.5 -281.5t-198.5 -89.5zM293 72q59 0 98 52q49 66 86 236q21 103 21 167q0 115 -84 115q-58 0 -97 -51q-49 -65 -84 -231q-23 -107 -23 -172
q0 -116 83 -116zM419 754l-75 144h120l29 -144h-74z" />
    <glyph glyph-name="Oacute" unicode="&#xd3;" horiz-adv-x="556" 
d="M275 -14q-179 0 -179 199q0 71 22 172q41 192 116.5 281.5t198.5 89.5q178 0 178 -199q0 -71 -21 -172q-41 -192 -116.5 -281.5t-198.5 -89.5zM293 72q59 0 98 52q49 66 86 236q21 103 21 167q0 115 -84 115q-58 0 -97 -51q-49 -65 -84 -231q-23 -107 -23 -172
q0 -116 83 -116zM383 754l91 144h120l-137 -144h-74z" />
    <glyph glyph-name="Ocircumflex" unicode="&#xd4;" horiz-adv-x="556" 
d="M275 -14q-179 0 -179 199q0 71 22 172q41 192 116.5 281.5t198.5 89.5q178 0 178 -199q0 -71 -21 -172q-41 -192 -116.5 -281.5t-198.5 -89.5zM293 72q59 0 98 52q49 66 86 236q21 103 21 167q0 115 -84 115q-58 0 -97 -51q-49 -65 -84 -231q-23 -107 -23 -172
q0 -116 83 -116zM294 754l122 144h108l58 -144h-91l-35 88l-76 -88h-86z" />
    <glyph glyph-name="Otilde" unicode="&#xd5;" horiz-adv-x="556" 
d="M275 -14q-179 0 -179 199q0 71 22 172q41 192 116.5 281.5t198.5 89.5q178 0 178 -199q0 -71 -21 -172q-41 -192 -116.5 -281.5t-198.5 -89.5zM293 72q59 0 98 52q49 66 86 236q21 103 21 167q0 115 -84 115q-58 0 -97 -51q-49 -65 -84 -231q-23 -107 -23 -172
q0 -116 83 -116zM555 884v0h62q-9 -39 -38 -75q-34 -43 -73 -43q-24 0 -61.5 17.5t-51.5 17.5q-34 0 -42 -40h-62q8 41 39 76q37 44 87 44q16 0 50.5 -17.5t51.5 -17.5q30 0 38 38z" />
    <glyph glyph-name="Odieresis" unicode="&#xd6;" horiz-adv-x="556" 
d="M275 -14q-179 0 -179 199q0 71 22 172q41 192 116.5 281.5t198.5 89.5q178 0 178 -199q0 -71 -21 -172q-41 -192 -116.5 -281.5t-198.5 -89.5zM293 72q59 0 98 52q49 66 86 236q21 103 21 167q0 115 -84 115q-58 0 -97 -51q-49 -65 -84 -231q-23 -107 -23 -172
q0 -116 83 -116zM477 774l23 108h96l-23 -108h-96zM311 774l23 108h96l-23 -108h-96z" />
    <glyph glyph-name="multiply" unicode="&#xd7;" horiz-adv-x="600" 
d="M298 253l-137 174l68 56l136 -174l212 174l44 -56l-212 -174l138 -174l-68 -56l-138 175l-210 -175l-44 56z" />
    <glyph glyph-name="Oslash" unicode="&#xd8;" horiz-adv-x="556" 
d="M497 535l-271 -428q17 -35 67 -35q59 0 98 52q49 66 86 236q23 110 22 175h-2zM212 179l271 428q-19 35 -69 35q-58 0 -97 -51q-49 -65 -84 -231q-25 -114 -23 -181h2zM125 -52l-46 24l50 78q-32 48 -32 135q0 71 21 172q41 192 116.5 281.5t198.5 89.5q68 0 109 -28
l41 65l46 -24l-50 -77q32 -48 32 -135q0 -71 -21 -172q-41 -192 -116.5 -281.5t-198.5 -89.5q-68 0 -108 28z" />
    <glyph glyph-name="Ugrave" unicode="&#xd9;" horiz-adv-x="537" 
d="M202 714h114l-109 -512q-6 -28 -6 -50q0 -80 83 -80q104 0 132 130l109 512h114l-107 -503q-48 -225 -266 -225q-180 0 -180 148q0 35 9 77zM410 754l-75 144h120l29 -144h-74z" />
    <glyph glyph-name="Uacute" unicode="&#xda;" horiz-adv-x="537" 
d="M202 714h114l-109 -512q-6 -28 -6 -50q0 -80 83 -80q104 0 132 130l109 512h114l-107 -503q-48 -225 -266 -225q-180 0 -180 148q0 35 9 77zM374 754l91 144h120l-137 -144h-74z" />
    <glyph glyph-name="Ucircumflex" unicode="&#xdb;" horiz-adv-x="537" 
d="M202 714h114l-109 -512q-6 -28 -6 -50q0 -80 83 -80q104 0 132 130l109 512h114l-107 -503q-48 -225 -266 -225q-180 0 -180 148q0 35 9 77zM285 754l122 144h108l58 -144h-91l-35 88l-76 -88h-86z" />
    <glyph glyph-name="Udieresis" unicode="&#xdc;" horiz-adv-x="537" 
d="M202 714h114l-109 -512q-6 -28 -6 -50q0 -80 83 -80q104 0 132 130l109 512h114l-107 -503q-48 -225 -266 -225q-180 0 -180 148q0 35 9 77zM468 774l23 108h96l-23 -108h-96zM302 774l23 108h96l-23 -108h-96z" />
    <glyph glyph-name="Yacute" unicode="&#xdd;" horiz-adv-x="481" 
d="M180 0l59 279l-91 435h127l54 -308l189 308h119l-284 -435l-59 -279h-114zM346 754l91 144h120l-137 -144h-74z" />
    <glyph glyph-name="Thorn" unicode="&#xde;" horiz-adv-x="500" 
d="M278 492l-53 -247h81q114 0 140 123q5 24 5 43q0 81 -100 81h-73zM59 0l152 714h114l-29 -136h112q160 0 160 -144q0 -30 -7 -64q-21 -97 -88 -154t-166 -57h-100l-34 -159h-114z" />
    <glyph glyph-name="germandbls" unicode="&#xdf;" horiz-adv-x="481" 
d="M208 -6l18 86h27q100 0 130 140q7 34 7 59q0 84 -76 84h-26l17 80h19q28 0 55 20q36 26 47 78q5 21 5 38q0 63 -64 63q-79 0 -100 -101l-115 -541h-108l113 533q40 189 228 189q158 0 158 -120q0 -20 -5 -44q-27 -123 -132 -148v-2q99 -10 99 -121q0 -30 -8 -65
q-22 -105 -79 -163q-63 -65 -159 -65h-51z" />
    <glyph glyph-name="agrave" unicode="&#xe0;" horiz-adv-x="463" 
d="M494 420l-65 -308q-1 -5 -1 -10q0 -28 21 -28q12 0 18 3l-15 -70q-30 -13 -55 -13q-77 0 -77 57q0 7 1 14h-2q-60 -79 -151 -79q-113 0 -113 103q0 22 5 48q18 83 60 122q33 29 101 47l89 23q35 9 51 21q20 15 27 48q3 17 3 30q0 50 -60 50q-82 0 -104 -103h-102
q19 89 69 131q55 46 157 46q147 0 147 -100q0 -15 -4 -32zM344 194l19 90q-19 -13 -64 -28q-58 -18 -66 -22q-49 -21 -63 -87q-3 -13 -3 -25q0 -56 53 -56q97 0 124 128zM342 608l-75 144h120l29 -144h-74z" />
    <glyph glyph-name="aacute" unicode="&#xe1;" horiz-adv-x="463" 
d="M494 420l-65 -308q-1 -5 -1 -10q0 -28 21 -28q12 0 18 3l-15 -70q-30 -13 -55 -13q-77 0 -77 57q0 7 1 14h-2q-60 -79 -151 -79q-113 0 -113 103q0 22 5 48q18 83 60 122q33 29 101 47l89 23q35 9 51 21q20 15 27 48q3 17 3 30q0 50 -60 50q-82 0 -104 -103h-102
q19 89 69 131q55 46 157 46q147 0 147 -100q0 -15 -4 -32zM344 194l19 90q-19 -13 -64 -28q-58 -18 -66 -22q-49 -21 -63 -87q-3 -13 -3 -25q0 -56 53 -56q97 0 124 128zM306 608l91 144h120l-137 -144h-74z" />
    <glyph glyph-name="acircumflex" unicode="&#xe2;" horiz-adv-x="463" 
d="M494 420l-65 -308q-1 -5 -1 -10q0 -28 21 -28q12 0 18 3l-15 -70q-30 -13 -55 -13q-77 0 -77 57q0 7 1 14h-2q-60 -79 -151 -79q-113 0 -113 103q0 22 5 48q18 83 60 122q33 29 101 47l89 23q35 9 51 21q20 15 27 48q3 17 3 30q0 50 -60 50q-82 0 -104 -103h-102
q19 89 69 131q55 46 157 46q147 0 147 -100q0 -15 -4 -32zM344 194l19 90q-19 -13 -64 -28q-58 -18 -66 -22q-49 -21 -63 -87q-3 -13 -3 -25q0 -56 53 -56q97 0 124 128zM217 608l122 144h108l58 -144h-91l-35 88l-76 -88h-86z" />
    <glyph glyph-name="atilde" unicode="&#xe3;" horiz-adv-x="463" 
d="M494 420l-65 -308q-1 -5 -1 -10q0 -28 21 -28q12 0 18 3l-15 -70q-30 -13 -55 -13q-77 0 -77 57q0 7 1 14h-2q-60 -79 -151 -79q-113 0 -113 103q0 22 5 48q18 83 60 122q33 29 101 47l89 23q35 9 51 21q20 15 27 48q3 17 3 30q0 50 -60 50q-82 0 -104 -103h-102
q19 89 69 131q55 46 157 46q147 0 147 -100q0 -15 -4 -32zM344 194l19 90q-19 -13 -64 -28q-58 -18 -66 -22q-49 -21 -63 -87q-3 -13 -3 -25q0 -56 53 -56q97 0 124 128zM478 738v0h62q-9 -39 -38 -75q-34 -43 -73 -43q-24 0 -61.5 17.5t-51.5 17.5q-34 0 -42 -40h-62
q8 41 39 76q37 44 87 44q16 0 50.5 -17.5t51.5 -17.5q30 0 38 38z" />
    <glyph glyph-name="adieresis" unicode="&#xe4;" horiz-adv-x="463" 
d="M494 420l-65 -308q-1 -5 -1 -10q0 -28 21 -28q12 0 18 3l-15 -70q-30 -13 -55 -13q-77 0 -77 57q0 7 1 14h-2q-60 -79 -151 -79q-113 0 -113 103q0 22 5 48q18 83 60 122q33 29 101 47l89 23q35 9 51 21q20 15 27 48q3 17 3 30q0 50 -60 50q-82 0 -104 -103h-102
q19 89 69 131q55 46 157 46q147 0 147 -100q0 -15 -4 -32zM344 194l19 90q-19 -13 -64 -28q-58 -18 -66 -22q-49 -21 -63 -87q-3 -13 -3 -25q0 -56 53 -56q97 0 124 128zM400 628l23 108h96l-23 -108h-96zM234 628l23 108h96l-23 -108h-96z" />
    <glyph glyph-name="aring" unicode="&#xe5;" horiz-adv-x="463" 
d="M494 420l-65 -308q-1 -5 -1 -10q0 -28 21 -28q12 0 18 3l-15 -70q-30 -13 -55 -13q-77 0 -77 57q0 7 1 14h-2q-60 -79 -151 -79q-113 0 -113 103q0 22 5 48q18 83 60 122q33 29 101 47l89 23q35 9 51 21q20 15 27 48q3 17 3 30q0 50 -60 50q-82 0 -104 -103h-102
q19 89 69 131q55 46 157 46q147 0 147 -100q0 -15 -4 -32zM344 194l19 90q-19 -13 -64 -28q-58 -18 -66 -22q-49 -21 -63 -87q-3 -13 -3 -25q0 -56 53 -56q97 0 124 128zM323 687q0 -44 46 -44q26 0 47.5 20.5t21.5 47.5q0 44 -46 44q-26 0 -47.5 -20.5t-21.5 -47.5z
M403 805q38 0 62 -23.5t24 -59.5q0 -51 -40 -90t-91 -39q-38 0 -62 23.5t-24 59.5q0 51 40 90t91 39z" />
    <glyph glyph-name="ae" unicode="&#xe6;" horiz-adv-x="704" 
d="M469 329h160l6 29q6 28 6 50q0 70 -58 70q-44 0 -76 -46q-24 -35 -33 -80zM721 255h-269l-8 -38q-10 -46 -10 -78q0 -78 56 -79q50 -1 82 47q20 31 29 73h102q-19 -90 -81 -142.5t-149 -51.5q-69 1 -100 37q-17 20 -26 61q-62 -98 -166 -98q-55 0 -90 27.5t-35 82.5
q0 19 4 41q17 78 63 117q36 31 105 48l90 22q28 7 41 21.5t21 52.5q3 17 3 31q0 49 -52 49q-82 0 -104 -103h-102q19 89 69 131q55 46 157 46q99 0 112 -69q55 69 146 69q137 1 137 -135q0 -43 -13 -105zM337 191l18 85q-15 -14 -85 -32q-53 -14 -76 -41q-16 -20 -25 -62
q-2 -10 -2 -20q0 -55 49 -55q94 0 121 125z" />
    <glyph glyph-name="ccedilla" unicode="&#xe7;" horiz-adv-x="444" 
d="M146 -87l62 75q-135 9 -135 159q0 51 15 122q29 136 85 204q65 78 175 79q151 1 151 -137q0 -27 -7 -56h-108q6 25 6 45q0 69 -59 68q-54 -1 -87 -57q-26 -46 -48 -146q-16 -76 -16 -118q0 -85 65 -85q82 -1 110 130h102q-51 -193 -198 -207l-43 -46q26 5 41 5
q29 0 46.5 -17t17.5 -42q0 -48 -47 -78q-41 -27 -91 -27q-56 0 -97 17l24 40q32 -13 63 -13q56 0 65 38q3 17 -8 27.5t-30 10.5q-12 0 -40 -8z" />
    <glyph glyph-name="egrave" unicode="&#xe8;" horiz-adv-x="463" 
d="M480 255h-281l-6 -31q-11 -50 -11 -82q0 -82 66 -82q50 0 82 48q21 31 29 72h102q-19 -89 -80.5 -141.5t-149.5 -52.5q-68 0 -103 26q-50 37 -50 131q0 50 14 118q62 291 261 291q152 0 152 -137q0 -43 -13 -103zM215 329h173l6 29q6 27 6 48q0 72 -63 72
q-90 0 -120 -138zM354 608l-75 144h120l29 -144h-74z" />
    <glyph glyph-name="eacute" unicode="&#xe9;" horiz-adv-x="463" 
d="M480 255h-281l-6 -31q-11 -50 -11 -82q0 -82 66 -82q50 0 82 48q21 31 29 72h102q-19 -89 -80.5 -141.5t-149.5 -52.5q-68 0 -103 26q-50 37 -50 131q0 50 14 118q62 291 261 291q152 0 152 -137q0 -43 -13 -103zM215 329h173l6 29q6 27 6 48q0 72 -63 72
q-90 0 -120 -138zM318 608l91 144h120l-137 -144h-74z" />
    <glyph glyph-name="ecircumflex" unicode="&#xea;" horiz-adv-x="463" 
d="M480 255h-281l-6 -31q-11 -50 -11 -82q0 -82 66 -82q50 0 82 48q21 31 29 72h102q-19 -89 -80.5 -141.5t-149.5 -52.5q-68 0 -103 26q-50 37 -50 131q0 50 14 118q62 291 261 291q152 0 152 -137q0 -43 -13 -103zM215 329h173l6 29q6 27 6 48q0 72 -63 72
q-90 0 -120 -138zM229 608l122 144h108l58 -144h-91l-35 88l-76 -88h-86z" />
    <glyph glyph-name="edieresis" unicode="&#xeb;" horiz-adv-x="463" 
d="M480 255h-281l-6 -31q-11 -50 -11 -82q0 -82 66 -82q50 0 82 48q21 31 29 72h102q-19 -89 -80.5 -141.5t-149.5 -52.5q-68 0 -103 26q-50 37 -50 131q0 50 14 118q62 291 261 291q152 0 152 -137q0 -43 -13 -103zM215 329h173l6 29q6 27 6 48q0 72 -63 72
q-90 0 -120 -138zM412 628l23 108h96l-23 -108h-96zM246 628l23 108h96l-23 -108h-96z" />
    <glyph glyph-name="igrave" unicode="&#xec;" 
d="M57 0l114 538h108l-114 -538h-108zM221 608l-75 144h120l29 -144h-74z" />
    <glyph glyph-name="iacute" unicode="&#xed;" 
d="M57 0l114 538h108l-114 -538h-108zM185 608l91 144h120l-137 -144h-74z" />
    <glyph glyph-name="icircumflex" unicode="&#xee;" 
d="M57 0l114 538h108l-114 -538h-108zM96 608l122 144h108l58 -144h-91l-35 88l-76 -88h-86z" />
    <glyph glyph-name="idieresis" unicode="&#xef;" 
d="M57 0l114 538h108l-114 -538h-108zM279 628l23 108h96l-23 -108h-96zM113 628l23 108h96l-23 -108h-96z" />
    <glyph glyph-name="eth" unicode="&#xf0;" horiz-adv-x="463" 
d="M196 269q-18 -84 -18 -126q0 -77 67 -77q56 0 87 50q26 43 49 153q14 66 14 104q0 85 -67 85q-53 0 -87 -55q-26 -43 -45 -134zM221 598l-28 36l96 47q-27 33 -53 52l88 43q21 -15 55 -51l102 49l24 -36l-96 -47q101 -121 101 -257q0 -68 -21 -165q-60 -283 -261 -283
q-154 0 -154 166q0 51 14 117q57 269 241 269q52 0 75 -33l3 2q-31 68 -89 139z" />
    <glyph glyph-name="ntilde" unicode="&#xf1;" horiz-adv-x="481" 
d="M52 0l114 538h102l-13 -63h3q60 77 154 77q109 0 109 -94q0 -23 -6 -52l-86 -406h-108l78 369q6 25 6 43q0 54 -60 54q-35 0 -65 -26q-33 -29 -43 -79l-77 -361h-108zM487 738v0h62q-9 -39 -38 -75q-34 -43 -73 -43q-24 0 -61.5 17.5t-51.5 17.5q-34 0 -42 -40h-62
q8 41 39 76q37 44 87 44q16 0 50.5 -17.5t51.5 -17.5q30 0 38 38z" />
    <glyph glyph-name="ograve" unicode="&#xf2;" horiz-adv-x="463" 
d="M88 269q29 136 85 204q65 79 175 79q156 0 156 -161q0 -51 -15 -122q-60 -283 -261 -283q-154 0 -154 166q0 51 14 117zM196 269q-18 -84 -18 -126q0 -77 67 -77q56 0 87 50q26 43 49 153q16 76 16 118q0 85 -66 85q-54 0 -87 -57q-26 -45 -48 -146zM342 608l-75 144h120
l29 -144h-74z" />
    <glyph glyph-name="oacute" unicode="&#xf3;" horiz-adv-x="463" 
d="M88 269q29 136 85 204q65 79 175 79q156 0 156 -161q0 -51 -15 -122q-60 -283 -261 -283q-154 0 -154 166q0 51 14 117zM196 269q-18 -84 -18 -126q0 -77 67 -77q56 0 87 50q26 43 49 153q16 76 16 118q0 85 -66 85q-54 0 -87 -57q-26 -45 -48 -146zM306 608l91 144h120
l-137 -144h-74z" />
    <glyph glyph-name="ocircumflex" unicode="&#xf4;" horiz-adv-x="463" 
d="M88 269q29 136 85 204q65 79 175 79q156 0 156 -161q0 -51 -15 -122q-60 -283 -261 -283q-154 0 -154 166q0 51 14 117zM196 269q-18 -84 -18 -126q0 -77 67 -77q56 0 87 50q26 43 49 153q16 76 16 118q0 85 -66 85q-54 0 -87 -57q-26 -45 -48 -146zM217 608l122 144h108
l58 -144h-91l-35 88l-76 -88h-86z" />
    <glyph glyph-name="otilde" unicode="&#xf5;" horiz-adv-x="463" 
d="M88 269q29 136 85 204q65 79 175 79q156 0 156 -161q0 -51 -15 -122q-60 -283 -261 -283q-154 0 -154 166q0 51 14 117zM196 269q-18 -84 -18 -126q0 -77 67 -77q56 0 87 50q26 43 49 153q16 76 16 118q0 85 -66 85q-54 0 -87 -57q-26 -45 -48 -146zM478 738v0h62
q-9 -39 -38 -75q-34 -43 -73 -43q-24 0 -61.5 17.5t-51.5 17.5q-34 0 -42 -40h-62q8 41 39 76q37 44 87 44q16 0 50.5 -17.5t51.5 -17.5q30 0 38 38z" />
    <glyph glyph-name="odieresis" unicode="&#xf6;" horiz-adv-x="463" 
d="M88 269q29 136 85 204q65 79 175 79q156 0 156 -161q0 -51 -15 -122q-60 -283 -261 -283q-154 0 -154 166q0 51 14 117zM196 269q-18 -84 -18 -126q0 -77 67 -77q56 0 87 50q26 43 49 153q16 76 16 118q0 85 -66 85q-54 0 -87 -57q-26 -45 -48 -146zM400 628l23 108h96
l-23 -108h-96zM234 628l23 108h96l-23 -108h-96z" />
    <glyph glyph-name="divide" unicode="&#xf7;" horiz-adv-x="600" 
d="M326 120q25 0 41.5 -16t16.5 -41q0 -34 -27.5 -60.5t-61.5 -26.5q-26 0 -42 16t-16 41q0 34 27 60.5t62 26.5zM92 210l18 86h506l-18 -86h-506zM413 530q26 0 42 -16t16 -41q0 -34 -27.5 -60.5t-61.5 -26.5q-26 0 -42 16t-16 41q0 34 27 60.5t62 26.5z" />
    <glyph glyph-name="oslash" unicode="&#xf8;" horiz-adv-x="463" 
d="M181 153l201 297q-18 22 -51 22q-54 0 -87 -57q-26 -45 -48 -146q-15 -70 -17 -116h2zM396 386l-200 -298q15 -22 49 -22q55 0 88 57q27 45 48 146q16 73 17 117h-2zM51 -36l51 74q-29 37 -29 108q0 51 15 123q29 136 85 204q65 79 175 79q55 0 89 -20l44 65l42 -26
l-48 -70q30 -37 30 -108q0 -52 -16 -124q-29 -136 -85 -204q-65 -79 -176 -79q-55 0 -89 19l-45 -67z" />
    <glyph glyph-name="ugrave" unicode="&#xf9;" horiz-adv-x="481" 
d="M327 0l13 63h-3q-59 -77 -154 -77q-106 0 -106 102q0 32 9 74l80 376h108l-82 -386q-3 -17 -3 -29q0 -51 59 -51q37 0 67.5 23.5t39.5 66.5l80 376h108l-114 -538h-102zM351 608l-75 144h120l29 -144h-74z" />
    <glyph glyph-name="uacute" unicode="&#xfa;" horiz-adv-x="481" 
d="M327 0l13 63h-3q-59 -77 -154 -77q-106 0 -106 102q0 32 9 74l80 376h108l-82 -386q-3 -17 -3 -29q0 -51 59 -51q37 0 67.5 23.5t39.5 66.5l80 376h108l-114 -538h-102zM315 608l91 144h120l-137 -144h-74z" />
    <glyph glyph-name="ucircumflex" unicode="&#xfb;" horiz-adv-x="481" 
d="M327 0l13 63h-3q-59 -77 -154 -77q-106 0 -106 102q0 32 9 74l80 376h108l-82 -386q-3 -17 -3 -29q0 -51 59 -51q37 0 67.5 23.5t39.5 66.5l80 376h108l-114 -538h-102zM226 608l122 144h108l58 -144h-91l-35 88l-76 -88h-86z" />
    <glyph glyph-name="udieresis" unicode="&#xfc;" horiz-adv-x="481" 
d="M327 0l13 63h-3q-59 -77 -154 -77q-106 0 -106 102q0 32 9 74l80 376h108l-82 -386q-3 -17 -3 -29q0 -51 59 -51q37 0 67.5 23.5t39.5 66.5l80 376h108l-114 -538h-102zM409 628l23 108h96l-23 -108h-96zM243 628l23 108h96l-23 -108h-96z" />
    <glyph glyph-name="yacute" unicode="&#xfd;" horiz-adv-x="426" 
d="M122 538h116l7 -404h2l172 404h113l-266 -558q-51 -107 -97 -138q-39 -27 -126 -26q-17 0 -42 4l18 86q23 -4 34 -4q60 0 82 42l23 44zM287 608l91 144h120l-137 -144h-74z" />
    <glyph glyph-name="thorn" unicode="&#xfe;" horiz-adv-x="481" 
d="M15 -176l189 890h108l-51 -239h2q48 77 138 77q121 0 121 -154q0 -57 -16 -136q-33 -153 -103 -223q-53 -53 -122 -53q-90 0 -106 77h-2l-50 -239h-108zM212 275q-16 -78 -16 -121q0 -82 65 -82q48 0 78.5 43t53.5 152q16 74 16 116q0 83 -65 83q-52 0 -84 -52
q-27 -44 -48 -139z" />
    <glyph glyph-name="ydieresis" unicode="&#xff;" horiz-adv-x="426" 
d="M122 538h116l7 -404h2l172 404h113l-266 -558q-51 -107 -97 -138q-39 -27 -126 -26q-17 0 -42 4l18 86q23 -4 34 -4q60 0 82 42l23 44zM381 628l23 108h96l-23 -108h-96zM215 628l23 108h96l-23 -108h-96z" />
    <glyph glyph-name="minus" horiz-adv-x="600" 
d="M92 210l18 86h506l-18 -86h-506z" />
    <glyph glyph-name="fraction" horiz-adv-x="167" 
d="M-171 -31l582 756h74l-582 -756h-74z" />
    <glyph glyph-name="fi" horiz-adv-x="500" 
d="M335 0l114 538h108l-114 -538h-108zM466 614l22 108h108l-22 -108h-108zM85 0l97 458h-75l17 80h75l11 50q16 74 58 105q38 29 107 29q35 0 59 -3l-18 -83h-30q-58 0 -69 -51l-10 -47h88l-17 -80h-88l-97 -458h-108z" />
    <glyph glyph-name="fl" horiz-adv-x="500" 
d="M335 0l152 714h108l-152 -714h-108zM85 0l97 458h-75l17 80h75l11 50q16 74 58 105q38 29 107 29q35 0 59 -3l-18 -83h-30q-58 0 -69 -51l-10 -47h88l-17 -80h-88l-97 -458h-108z" />
    <glyph glyph-name="breve" 
d="M136 743h62q-5 -22 9 -42q16 -25 48 -25t58 25q22 20 27 42h62q-12 -58 -56 -96.5t-106 -38.5q-52 0 -80 28t-28 73q0 16 4 34z" />
    <glyph glyph-name="dotaccent" 
d="M196 628l23 108h96l-23 -108h-96z" />
    <glyph glyph-name="ring" 
d="M202 687q0 -44 46 -44q26 0 47.5 20.5t21.5 47.5q0 44 -46 44q-26 0 -47.5 -20.5t-21.5 -47.5zM282 805q38 0 62 -23.5t24 -59.5q0 -51 -40 -90t-91 -39q-38 0 -62 23.5t-24 59.5q0 51 40 90t91 39z" />
    <glyph glyph-name="hungarumlaut" 
d="M65 608l91 144h120l-137 -144h-74zM265 608l91 144h120l-137 -144h-74z" />
    <glyph glyph-name="ogonek" 
d="M121 0h50q-93 -71 -93 -131q0 -41 46 -41q22 0 46 7l-3 -42q-36 -9 -80 -9q-92 0 -92 67q0 47 42 90q34 35 84 59z" />
    <glyph glyph-name="caron" 
d="M185 608l-58 144h91l35 -88l76 88h86l-122 -144h-108z" />
    <glyph glyph-name="Lslash" horiz-adv-x="444" 
d="M46 0l55 261l-64 -39l21 98l64 39l76 355h114l-59 -277l167 101l-20 -98l-168 -101l-52 -243h276l-20 -96h-390z" />
    <glyph glyph-name="dotlessi" 
d="M57 0l114 538h108l-114 -538h-108z" />
    <glyph glyph-name="lslash" 
d="M57 0l61 286l-66 -40l21 96l65 40l71 332h108l-55 -258l65 40l-20 -96l-65 -40l-77 -360h-108z" />
    </font>
</defs>
</svg>
