<?xml version="1.0" standalone="no"?>
<!DOCTYPE svg PUBLIC "-//W3C//DTD SVG 1.1//EN" "http://www.w3.org/Graphics/SVG/1.1/DTD/svg11.dtd" >
<svg xmlns="http://www.w3.org/2000/svg">
<metadata></metadata>
<defs>
<font id="helveticabold_oblique" horiz-adv-x="1139" >
<font-face units-per-em="2048" ascent="1638" descent="-410" />
<missing-glyph horiz-adv-x="569" />
<glyph unicode="&#xfb01;" horiz-adv-x="1251" d="M187 0l186 879h-159l43 201h156l15 70q37 174 132 259q86 80 298 80q26 0 52.5 -2t55.5 -4l-50 -232q-19 1 -38 1.5t-46 0.5q-67 0 -90 -37t-38 -116l-4 -20h187l-43 -201h-187l-186 -879h-284zM827 0l230 1085h284l-230 -1085h-284zM1086 1223l56 260h279l-56 -260h-279 z" />
<glyph unicode="&#xfb02;" horiz-adv-x="1251" d="M187 0l186 879h-159l43 201h156l15 70q37 174 132 259q86 80 298 80q26 0 52.5 -2t55.5 -4l-50 -232q-19 1 -38 1.5t-46 0.5q-67 0 -90 -37t-38 -116l-4 -20h187l-43 -201h-187l-186 -879h-284zM827 0l313 1474h284l-313 -1474h-284z" />
<glyph horiz-adv-x="0" />
<glyph horiz-adv-x="0" />
<glyph horiz-adv-x="0" />
<glyph unicode="&#x9;" horiz-adv-x="569" />
<glyph unicode="&#xd;" horiz-adv-x="569" />
<glyph unicode="&#xa;" horiz-adv-x="569" />
<glyph unicode=" "  horiz-adv-x="569" />
<glyph unicode="&#x09;" horiz-adv-x="569" />
<glyph unicode="&#xa0;" horiz-adv-x="569" />
<glyph unicode="!" horiz-adv-x="682" d="M232 0l61 289h298l-61 -289h-298zM394 407l63 688l80 374h313l-80 -374l-227 -688h-149z" />
<glyph unicode="&#x22;" horiz-adv-x="971" d="M251 865l85 609h273l-178 -609h-180zM631 865l84 609h273l-177 -609h-180z" />
<glyph unicode="#" d="M85 400l80 168h203l141 292h-204l81 168h204l195 403h199l-195 -403h166l192 403h199l-192 -403h201l-81 -168h-201l-143 -292h204l-80 -168h-204l-192 -400h-199l192 400h-164l-194 -400h-199l194 400h-203zM568 568h163l143 292h-166z" />
<glyph unicode="$" d="M152 440h270q-13 -126 3 -169q25 -67 135 -87l90 427l-76 24q-179 56 -236 156t-27 241q20 93 66.5 169t113.5 131q86 71 178 98q57 17 161 25l28 133h95l-29 -135q161 -13 239 -80q147 -107 102 -347h-263q11 89 -3 130q-23 71 -121 78l-81 -381q220 -82 289 -145 q113 -105 72 -296q-53 -252 -263 -366q-128 -70 -285 -82l-43 -201h-97l42 199q-192 22 -275 86q-147 115 -85 392zM576 1064q-18 -84 34 -133q30 -27 98 -50l74 351q-87 -2 -138.5 -46.5t-67.5 -121.5zM655 187q81 10 123 36q73 46 97 159q18 86 -30 136q-29 29 -107 60z " />
<glyph unicode="%" horiz-adv-x="1821" d="M274 1071q33 154 165 263t286 109t240 -109t53 -263t-164.5 -263t-286.5 -109q-154 0 -240 109t-53 263zM412 -38l1128 1488h152l-1125 -1488h-155zM487 1071q-14 -66 22.5 -112.5t102.5 -46.5t122.5 46.5t70.5 112.5t-22.5 112.5t-102.5 46.5t-122.5 -46.5t-70.5 -112.5 zM1091 343q33 155 165 263.5t286 108.5t240 -109t53 -263q-32 -154 -164.5 -263t-286.5 -109t-239.5 109t-53.5 263zM1304 343q-14 -66 23 -112.5t103 -46.5t122 46.5t70 112.5t-22.5 112.5t-102.5 46.5t-122.5 -46.5t-70.5 -112.5z" />
<glyph unicode="&#x26;" horiz-adv-x="1479" d="M193 389q28 133 114.5 228t256.5 188l35 19q-49 72 -68 147t-2 156q34 161 161.5 251.5t299.5 90.5q157 0 239.5 -92.5t52.5 -236.5q-28 -130 -106.5 -211t-212.5 -150l154 -258q47 52 79.5 113t48.5 129h253q-35 -134 -122 -271q-48 -77 -140 -170l200 -322h-346 l-76 125q-89 -69 -160 -102q-126 -59 -275 -59q-224 0 -322 132t-64 293zM479 398q-15 -73 31.5 -134t139.5 -61q70 0 139 32.5t117 72.5l-199 334q-122 -71 -168 -125t-60 -119zM793 1137q-8 -40 10 -84q12 -29 56 -103q69 42 102 71q61 54 74 117q10 46 -12.5 82t-83.5 36 q-38 0 -75 -21q-57 -31 -71 -98z" />
<glyph unicode="'" horiz-adv-x="487" d="M332 865l80 609h273l-180 -609h-173z" />
<glyph unicode="(" horiz-adv-x="682" d="M190 558q58 274 232 544q119 184 316 396h215l-85 -112q-175 -231 -278 -484q-67 -166 -109 -362q-65 -306 -31 -563q20 -152 101 -390h-211l-50 97q-50 88 -91 262q-73 311 -9 612z" />
<glyph unicode=")" horiz-adv-x="682" d="M-66 -413q181 238 266 390q143 257 208 563q42 196 45 362q5 253 -72 484l-37 112h215q107 -212 147 -396q59 -270 1 -544q-64 -301 -269 -612q-115 -174 -203 -262l-91 -97h-210z" />
<glyph unicode="*" horiz-adv-x="797" d="M293 1161l79 149l194 -68l52 241h173l-52 -241l224 68l15 -149l-227 -66l97 -199l-147 -91l-99 188l-183 -188l-109 91l182 199z" />
<glyph unicode="+" horiz-adv-x="1196" d="M160 412l56 261h410l87 410h263l-87 -410h410l-56 -261h-410l-87 -412h-263l87 412h-410z" />
<glyph unicode="," horiz-adv-x="569" d="M44 -347l23 110q91 24 143.5 80t80.5 157h-173l63 298h308l-55 -258q-14 -68 -48 -142t-94 -128q-66 -58 -143.5 -87.5t-104.5 -29.5z" />
<glyph unicode="-" horiz-adv-x="682" d="M139 436l58 270h574l-58 -270h-574z" />
<glyph unicode="." horiz-adv-x="569" d="M128 0l63 298h303l-63 -298h-303z" />
<glyph unicode="/" horiz-adv-x="569" d="M-112 0l893 1519h237l-895 -1519h-235z" />
<glyph unicode="0" d="M208.5 158q-70.5 194 6.5 553q76 359 229 554t430 195t347 -195t-6 -554q-77 -359 -229.5 -553t-429.5 -194t-347.5 194zM465 328.5q13 -132.5 140 -132.5t194.5 132.5t121.5 382.5q55 262 42.5 388t-139.5 126t-195 -126t-123 -388q-54 -250 -41 -382.5z" />
<glyph unicode="1" d="M354 1000l41 194q137 6 193 18q90 19 156 76q46 39 78 104q20 39 24 58h237l-308 -1450h-292l212 1000h-341z" />
<glyph unicode="2" d="M64 0q37 156 127 285q92 145 353 307q227 141 298 202q109 95 133 208q20 92 -18 153t-133 61q-130 0 -198 -97q-39 -56 -69 -178h-277q46 185 130 299q160 217 451 217q230 0 339 -127.5t64 -337.5q-34 -161 -156 -286q-81 -83 -247 -185l-131 -81q-123 -76 -170 -110 t-83 -79h633l-53 -251h-993z" />
<glyph unicode="3" d="M148 445h280q-18 -87 -3 -144q30 -105 167 -105q84 0 159 57.5t98 165.5q30 143 -76 191q-60 27 -202 27l43 204q140 2 200 27q104 42 131 170q18 83 -19.5 135t-125.5 52q-101 0 -162 -64t-82 -171h-266q27 108 81 205q53 85 143 157q67 51 149.5 78t194.5 27 q208 0 312.5 -107.5t66.5 -288.5q-27 -128 -122 -216q-60 -55 -116 -75q39 0 98 -67q87 -101 50 -276q-39 -184 -196 -323.5t-407 -139.5q-308 0 -385 201q-41 107 -11 280z" />
<glyph unicode="4" d="M120 312l53 249l720 880h320l-193 -906h164l-47 -223h-164l-66 -312h-279l66 312h-574zM378 535h363l133 626z" />
<glyph unicode="5" d="M136 388h284q-3 -93 34.5 -143.5t129.5 -50.5q106 0 177 74.5t95 187.5q24 111 -11.5 187.5t-145.5 76.5q-52 0 -93 -13q-72 -24 -120 -89l-254 12l273 801h799l-52 -242h-593l-119 -317q75 43 115 57q67 23 156 23q180 0 288 -121t59 -352q-42 -201 -205 -359t-420 -158 q-207 0 -316 111t-81 315z" />
<glyph unicode="6" d="M202 653q36 166 72 270q64 185 162 308q84 105 198.5 169t254.5 64q202 0 300 -103.5t76 -275.5h-284q8 35 -11 77q-31 68 -124 68q-139 0 -231 -156q-50 -86 -98 -254q66 63 142.5 92t166.5 29q193 0 288.5 -131t51.5 -335q-43 -203 -197 -358t-409 -155 q-274 0 -355 229q-63 179 -3 462zM447 459q-25 -117 22.5 -191t144.5 -74q95 0 164.5 71.5t93.5 185.5q27 127 -20.5 194.5t-137.5 67.5q-73 0 -138 -44q-98 -65 -129 -210z" />
<glyph unicode="7" d="M256 0q95 390 428 811q212 261 340 364h-723l59 256h1024l-48 -223q-77 -63 -225.5 -224.5t-261.5 -333.5q-90 -135 -180.5 -330t-116.5 -320h-296z" />
<glyph unicode="8" d="M139 402q26 122 102.5 221t194.5 149q-91 70 -105 151.5t1 152.5q34 158 176.5 269.5t359.5 111.5t312.5 -111.5t61.5 -269.5q-15 -71 -64 -152.5t-166 -141.5q94 -60 127 -159t7 -221q-39 -183 -202 -311.5t-406 -128.5t-340.5 128.5t-58.5 311.5zM439 421 q-23 -107 20 -166t141 -59t166 59t91 166q24 111 -20.5 168.5t-140.5 57.5t-164.5 -57.5t-92.5 -168.5zM597 1044q-16 -79 21.5 -129t123.5 -50q87 0 145.5 50t74.5 129q19 86 -18.5 134.5t-124.5 48.5q-86 0 -144.5 -48.5t-77.5 -134.5z" />
<glyph unicode="9" d="M161 336h284q-4 -64 31.5 -104t108.5 -40q141 0 231 156q50 86 93 251q-50 -49 -99 -75q-90 -48 -207 -48q-173 0 -282 119.5t-61 344.5q50 233 215 377.5t380 144.5q331 0 392 -293q35 -166 -23 -437q-56 -263 -160 -439q-199 -335 -541 -335q-163 0 -272.5 96.5 t-89.5 281.5zM555 966q-28 -129 11 -193.5t148 -64.5q59 0 118 34q110 62 143 215q26 123 -16 195t-142 72q-73 0 -134 -41q-96 -64 -128 -217z" />
<glyph unicode=":" horiz-adv-x="682" d="M232 0l63 298h303l-63 -298h-303zM391 749l63 298h303l-63 -298h-303z" />
<glyph unicode=";" horiz-adv-x="682" d="M158 -347l23 110q107 29 163 103q35 46 61 134h-173l63 298h308l-55 -258q-15 -69 -48.5 -142.5t-93.5 -127.5q-64 -57 -142 -87t-106 -30zM391 749l63 298h303l-63 -298h-303z" />
<glyph unicode="&#x3c;" horiz-adv-x="1196" d="M110 414l55 256l1273 448l-59 -279l-904 -297l777 -298l-59 -278z" />
<glyph unicode="=" horiz-adv-x="1196" d="M110 177l56 263h1083l-56 -263h-1083zM209 644l56 263h1083l-56 -263h-1083z" />
<glyph unicode="&#x3e;" horiz-adv-x="1196" d="M15 -34l59 278l906 298l-779 297l59 279l1082 -450l-54 -254z" />
<glyph unicode="?" horiz-adv-x="1251" d="M337 1009q73 285 285 404q134 76 306 76q226 0 352.5 -108t81.5 -320q-28 -130 -112 -219q-49 -54 -175 -138l-83 -55q-67 -45 -99 -105q-20 -38 -38 -118h-270q42 169 81.5 233.5t165.5 148.5l85 57q42 27 71 59q52 55 66 121q16 76 -15.5 138.5t-149.5 62.5 q-116 0 -180.5 -77t-82.5 -160h-289zM488 0l61 289h298l-61 -289h-298z" />
<glyph unicode="@" horiz-adv-x="1997" d="M352 724q70 328 355 556q299 241 686 241q315 0 487 -165q181 -174 120 -462q-49 -227 -221.5 -389.5t-349.5 -162.5q-92 0 -130.5 52t-26.5 107q1 7 3.5 15.5t5.5 18.5q-53 -72 -109 -115q-102 -77 -221 -77q-121 0 -183 87t-28 243q38 181 194.5 339t335.5 158 q105 0 151 -58q34 -45 37 -103l63 126h189l-220 -434q-27 -53 -39 -78.5t-16 -44.5q-6 -30 8.5 -56.5t58.5 -26.5q86 0 196.5 112.5t149.5 298.5q59 275 -152 395q-132 76 -317 76q-340 0 -590 -208q-226 -188 -282 -451q-62 -292 120 -463q161 -151 439 -151q190 0 369 70 q98 37 209 105l27 17l50 -112q-166 -110 -343.5 -167.5t-355.5 -57.5q-415 0 -588 258q-144 214 -82 507zM953 653q-15 -73 9 -118t85 -45q107 0 210 162.5t123 255.5q11 53 -13.5 89t-78.5 36q-104 0 -206.5 -129.5t-128.5 -250.5z" />
<glyph unicode="A" horiz-adv-x="1479" d="M52 0l839 1474h348l209 -1474h-334l-31 303h-543l-166 -303h-322zM677 557h374l-61 580z" />
<glyph unicode="B" horiz-adv-x="1479" d="M161 0l313 1474h716q270 -4 350 -157q31 -60 31 -135q0 -42 -10 -90q-29 -135 -115 -217q-47 -46 -129 -84q105 -41 143 -130q23 -52 22 -118q0 -46 -11 -98q-28 -131 -116 -235q-57 -69 -130 -116q-82 -54 -182.5 -74t-213.5 -20h-668zM509 256h362q97 0 156 26 q109 48 138 184q5 25 5 47q0 78 -67 111q-48 24 -144 25h-367zM644 893h362q97 0 165.5 36.5t88.5 129.5q5 23 5 43q0 68 -56 93q-65 23 -172 23h-324z" />
<glyph unicode="C" horiz-adv-x="1479" d="M246 725q82 386 333 595q219 182 497 182q372 0 492 -244q49 -102 49 -204q0 -36 -6 -71h-308q-7 106 -43 160q-63 96 -228 96q-168 0 -294 -135.5t-178 -383.5q-22 -102 -22 -183q0 -117 45 -189q76 -124 234 -123q162 0 270 106q59 57 114 171h305 q-91 -241 -287.5 -392t-453.5 -151q-318 0 -457 204q-89 132 -89 328q0 107 27 234z" />
<glyph unicode="D" horiz-adv-x="1479" d="M156 0l313 1474h635q136 -2 221 -32q144 -51 211 -187q54 -110 54 -238q0 -3 1 -5q0 -125 -24 -239q-63 -294 -224 -498q-218 -275 -552 -275h-635zM509 256h284q218 0 350 215q72 118 106 281q25 116 25 204q0 84 -22 142q-45 120 -255 120h-284z" />
<glyph unicode="E" horiz-adv-x="1366" d="M165 0l313 1474h1081l-56 -261h-780l-66 -313h716l-55 -256h-716l-80 -379h816l-56 -265h-1117z" />
<glyph unicode="F" horiz-adv-x="1251" d="M156 0l312 1472h1045l-55 -259h-739l-72 -339h647l-54 -256h-647l-131 -618h-306z" />
<glyph unicode="G" horiz-adv-x="1593" d="M238 722q76 358 319 574t567 216q281 0 421 -142q123 -125 123 -304q0 -25 -3 -52h-303q-3 151 -126 211q-69 33 -162 33q-178 0 -321 -134.5t-201 -404.5q-21 -99 -21 -177q0 -136 63 -208q100 -113 258 -113q155 0 273.5 89.5t171.5 234.5h-341l53 246h614l-168 -791 h-204l8 184q-112 -105 -192 -148q-138 -75 -316 -75q-293 0 -437 203q-101 136 -101 340q0 101 25 218z" />
<glyph unicode="H" horiz-adv-x="1479" d="M154 0l313 1474h305l-120 -562h576l120 562h306l-313 -1474h-306l139 658h-576l-139 -658h-305z" />
<glyph unicode="I" horiz-adv-x="569" d="M132 0l313 1474h306l-313 -1474h-306z" />
<glyph unicode="J" d="M156 525l7 34h291l-7 -34q-20 -108 -20 -176q0 -39 7 -65q18 -69 128 -69q109 0 160 76q31 45 54 152l219 1031h308l-218 -1026q-40 -188 -129 -298q-149 -186 -436 -186t-353 150q-36 83 -36 197q0 96 25 214z" />
<glyph unicode="K" horiz-adv-x="1479" d="M161 0l313 1474h303l-129 -607l698 607h398l-733 -607l451 -867h-396l-319 644l-179 -151l-104 -493h-303z" />
<glyph unicode="L" horiz-adv-x="1251" d="M156 0l313 1474h308l-257 -1209h730l-56 -265h-1038z" />
<glyph unicode="M" horiz-adv-x="1706" d="M151 0l313 1474h448l21 -1159l513 1159h443l-313 -1474h-287l211 997q10 43 27.5 120.5t25.5 119.5l-541 -1237h-299l-15 1237q-8 -42 -23.5 -119.5t-25.5 -120.5l-211 -997h-287z" />
<glyph unicode="N" horiz-adv-x="1479" d="M151 0l313 1474h323l368 -1029l219 1029h287l-313 -1474h-308l-380 1047l-222 -1047h-287z" />
<glyph unicode="O" horiz-adv-x="1593" d="M258 739q86 405 353 608q203 172 519 172t447 -172q122 -137 122 -367q0 -110 -28 -241q-85 -397 -353 -608q-203 -172 -519 -172t-447 172q-121 143 -121 372q0 108 27 236zM564 739q-21 -99 -21 -180q0 -122 48 -204q80 -135 263 -135t319.5 135t189.5 384 q21 99 21 180q0 121 -48 203q-78 136 -261 136t-320.5 -135t-190.5 -384z" />
<glyph unicode="P" horiz-adv-x="1366" d="M163 0l313 1474h642q222 0 330 -114q73 -78 73 -214q0 -63 -16 -139q-56 -261 -211 -369t-400 -108h-313l-112 -530h-306zM635 784h287q109 0 181 53t96 168q8 38 8 69q1 62 -33 95q-50 49 -160 49h-287z" />
<glyph unicode="Q" horiz-adv-x="1593" d="M258 739q85 404 363 611q227 169 511 169q286 0 442 -179q125 -144 125 -367q0 -99 -24 -212q-42 -197 -118 -330q-66 -127 -160 -211l136 -159l-196 -168l-143 168q-91 -49 -154 -69q-106 -33 -244 -33q-288 0 -440 172q-125 141 -125 372q0 108 27 236zM564 739 q-22 -102 -22 -185q0 -162 85 -249q83 -85 224 -85q53 0 105 13q29 7 74 25l-118 142l194 166l119 -142q50 72 75 126q40 81 63 189q22 104 22 188q0 117 -43 195q-72 136 -267 136q-183 0 -319.5 -130t-191.5 -389z" />
<glyph unicode="R" horiz-adv-x="1479" d="M163 0l313 1474h723q154 -3 230 -38t120 -103q35 -56 49 -124q6 -29 6 -62q0 -44 -10 -93q-23 -105 -97.5 -206.5t-205.5 -143.5q93 -40 119 -116q12 -34 13 -84q0 -62 -19 -147l-21 -99q-21 -101 -21 -137q0 -57 38 -84l-7 -37h-339q-4 49 -4 79q1 62 14 127l27 137 q12 58 12 101q1 60 -23 87q-40 47 -176 47h-318l-122 -578h-301zM638 822h349q104 0 161 24q101 42 128 166q7 35 7 64q0 82 -58 116q-45 26 -145 26h-358z" />
<glyph unicode="S" horiz-adv-x="1366" d="M181 455h294q-1 -19 -1 -36q0 -74 24 -115q56 -91 238 -91q109 0 182 24q139 46 165 171q4 16 4 31q0 51 -44 82q-55 39 -186 69l-149 35q-219 52 -294 113q-93 75 -93 212q0 50 12 107q42 198 214 329t451 131q233 1 371 -123q106 -95 106 -255q0 -49 -10 -104h-296 q4 24 4 45q0 98 -79 144q-64 37 -171 37q-119 0 -200.5 -48t-99.5 -134q-4 -17 -3 -32q0 -55 48 -86q39 -26 179 -61l241 -61q158 -40 229 -107q80 -75 80 -199q0 -47 -12 -102q-43 -202 -226 -335.5t-465 -133.5q-288 0 -425 132q-101 97 -101 247q0 53 13 114z" />
<glyph unicode="T" horiz-adv-x="1251" d="M290 1213l56 261h1194l-56 -261h-441l-257 -1213h-310l257 1213h-443z" />
<glyph unicode="U" horiz-adv-x="1479" d="M271 202q-21 62 -21 147q0 95 26 219l193 906h313l-193 -906q-19 -92 -19 -154q0 -41 8 -68q30 -124 218 -124q187 0 269 124q51 70 83 222l193 906h313l-193 -906q-50 -235 -151 -366q-187 -240 -570 -240t-469 240z" />
<glyph unicode="V" horiz-adv-x="1366" d="M360 1474h329l82 -1119l561 1119h320l-816 -1474h-291z" />
<glyph unicode="W" horiz-adv-x="1933" d="M343 1474h327l15 -844l-8 -235l92 230l347 849h325l-5 -844l-5 -235l93 226l379 853h313l-728 -1474h-294l5 862l8 285l-112 -285l-361 -862h-286z" />
<glyph unicode="X" horiz-adv-x="1366" d="M33 0l633 751l-297 723h368l161 -479l372 479h356l-602 -711l317 -763h-374l-174 502l-402 -502h-358z" />
<glyph unicode="Y" horiz-adv-x="1366" d="M348 1474h363l169 -642l430 642h349l-689 -920l-117 -554h-308l117 554z" />
<glyph unicode="Z" horiz-adv-x="1251" d="M52 0l55 260l963 953h-742l56 261h1126l-53 -247l-976 -967h773l-55 -260h-1147z" />
<glyph unicode="[" horiz-adv-x="682" d="M44 -394l400 1882h502l-44 -208h-232l-312 -1465h232l-44 -209h-502z" />
<glyph unicode="\" horiz-adv-x="569" d="M210 1519h235l251 -1519h-237z" />
<glyph unicode="]" horiz-adv-x="682" d="M-36 -394l43 209h232l312 1469h-232l44 204h502l-400 -1882h-501z" />
<glyph unicode="^" horiz-adv-x="1196" d="M264 590l556 884h225l179 -884h-251l-107 566l-350 -566h-252z" />
<glyph unicode="_" d="M-54 -256l22 101h1138l-22 -101h-1138z" />
<glyph unicode="`" horiz-adv-x="682" d="M276 1536h317l128 -299h-206z" />
<glyph unicode="a" d="M120 290q43 201 217 291q95 49 265 70l99 12q82 10 119 25q66 26 78 81q4 17 4 31q0 42 -31 62q-41 26 -131 25q-101 0 -154 -50q-37 -37 -61 -100h-275q40 143 130 235q144 144 419 144q179 0 303 -71q93 -53 93 -176q0 -42 -11 -92l-107 -500q-11 -52 -24 -126 q-4 -27 -4 -46q1 -20 5 -30q10 -20 34 -33l-8 -42h-310q-6 33 -5 62t6 66q-73 -64 -159 -109q-104 -53 -220 -53q-148 0 -226 84q-55 59 -56 154q0 40 10 86zM411 311q-5 -24 -5 -43q0 -40 22 -62q34 -32 92 -33q92 0 181 54t123 197l22 106q-30 -17 -60 -27.5t-80 -19.5 l-66 -12q-94 -16 -138 -39q-74 -39 -91 -121z" />
<glyph unicode="b" horiz-adv-x="1251" d="M123 0l312 1472h284l-111 -524q70 76 144 116q87 50 206 50q216 0 304 -155q56 -98 55 -231q0 -78 -19 -169q-54 -254 -209.5 -421t-370.5 -167q-135 0 -205 54q-42 32 -82 112l-29 -137h-279zM510 530q-12 -58 -12 -108q0 -70 24 -124q42 -92 170 -92q110 0 190 89 t111 234q16 74 16 132q0 32 -5 60q-27 144 -180 144q-155 0 -243 -141q-46 -75 -71 -194z" />
<glyph unicode="c" d="M182 523q59 281 229.5 437t411.5 156q205 0 316 -92q90 -75 90 -242q0 -39 -5 -83h-292q1 11 1 21q0 48 -19 89q-34 66 -135 66q-144 0 -227 -143q-44 -76 -71 -202q-17 -81 -17 -141q0 -29 4 -52q22 -136 163 -136q100 0 153.5 54t80.5 140h291q-37 -130 -146 -246 q-174 -187 -437 -187t-353 156q-57 98 -58 234q0 79 20 171z" />
<glyph unicode="d" horiz-adv-x="1251" d="M172 517q60 279 222.5 439t377.5 160q99 0 166.5 -43.5t99.5 -120.5l110 520h289l-312 -1472h-277l32 151q-82 -97 -169.5 -141t-203.5 -44q-191 0 -289 154q-64 101 -64 241q0 73 18 156zM471 538q-14 -67 -15 -122q0 -70 23 -120q40 -90 161 -90t203.5 90t112.5 233 q14 68 14 122q0 107 -54 164q-51 52 -133 52q-125 0 -203.5 -94.5t-108.5 -234.5z" />
<glyph unicode="e" d="M160 534q60 283 235.5 434t404.5 151q136 0 234.5 -51t145.5 -161q37 -81 36 -182q0 -21 -1 -43q-4 -75 -36 -216h-746q-8 -42 -7 -78q0 -103 61 -152q50 -41 133 -41q88 0 154 50q35 27 69 75h291q-32 -97 -143 -197q-174 -159 -426 -159q-209 0 -339 134 q-88 90 -87 255q0 82 21 181zM480 654h443q4 29 4 54q-1 74 -37 118q-50 58 -140 58q-99 0 -166.5 -62t-103.5 -168z" />
<glyph unicode="f" horiz-adv-x="682" d="M180 0l186 879h-159l43 201h156l15 70q37 175 110 241q83 98 320 98q27 0 48.5 -1.5t59.5 -4.5l-50 -232q-23 3 -79 5h-6q-51 0 -78 -26t-33 -58q-7 -32 -20 -92h187l-43 -201h-187l-186 -879h-284z" />
<glyph unicode="g" horiz-adv-x="1251" d="M66 -119h310q2 -50 24 -72q38 -39 147 -39q154 0 228 103q48 66 81 222l15 70q-56 -70 -111 -105q-99 -65 -235 -65q-210 0 -304 147q-60 94 -60 230q0 78 20 170q51 243 207.5 408.5t378.5 165.5q82 0 137 -25q95 -43 135 -158l33 157h277l-220 -1034 q-44 -211 -138 -318q-161 -184 -507 -184q-209 0 -324 82q-97 70 -97 198q0 23 3 47zM472 372q28 -138 178 -138q100 0 185 75.5t120 240.5q13 63 13 114q0 74 -28 122q-48 81 -158 81q-150 0 -237 -141q-46 -75 -70 -185q-11 -51 -11 -97q0 -38 8 -72z" />
<glyph unicode="h" horiz-adv-x="1251" d="M135 0l312 1469h284l-111 -521q82 95 171.5 132.5t179.5 37.5q101 0 176 -35t113 -107q29 -55 29 -113q-1 -7 -1 -13q-4 -64 -34 -210l-136 -640h-291l140 663q10 45 10 81q0 34 -9 61q-23 76 -132 76q-113 0 -187.5 -75.5t-104.5 -215.5l-125 -590h-284z" />
<glyph unicode="i" horiz-adv-x="569" d="M137 0l231 1090h289l-231 -1090h-289zM396 1220l56 263h289l-56 -263h-289z" />
<glyph unicode="j" horiz-adv-x="569" d="M-83 -437l48 228q24 -2 33 -2.5t17 -0.5q42 0 68 20.5t39 79.5l254 1197h285l-255 -1202q-35 -165 -117 -244t-272 -79q-13 0 -38 1t-62 2zM405 1220l56 263h285l-56 -263h-285z" />
<glyph unicode="k" d="M130 0l312 1469h280l-169 -794l442 410h353l-470 -417l255 -668h-344l-162 466l-145 -123l-72 -343h-280z" />
<glyph unicode="l" horiz-adv-x="569" d="M139 0l313 1474h285l-313 -1474h-285z" />
<glyph unicode="m" horiz-adv-x="1821" d="M128 0l231 1088h277l-34 -159q71 85 126 121q96 64 228 64q125 0 191 -55q51 -51 66 -131q76 96 169 141q97 45 205 45q72 0 136 -28t107 -98q33 -57 32 -140q-2 -55 -24 -161l-148 -687h-292l147 694q7 34 7 61q0 23 -5 41q-22 76 -124 76q-118 0 -184 -98 q-34 -52 -50 -125l-137 -649h-287l137 649q14 64 14 104q0 21 -4 37q-19 79 -124 79q-122 0 -181 -79q-32 -45 -51 -134l-139 -656h-289z" />
<glyph unicode="n" horiz-adv-x="1251" d="M135 0l231 1088h275l-34 -159q73 84 130 121q102 66 237 66q170 0 258 -88q60 -60 59 -172q0 -55 -14 -122l-156 -734h-292l140 663q11 50 11 86q0 27 -6 46q-24 84 -142 84q-145 0 -225 -123q-42 -65 -63 -166l-125 -590h-284z" />
<glyph unicode="o" horiz-adv-x="1251" d="M181 543q50 236 225 409t456 173t382 -173q68 -116 68 -260q0 -71 -17 -149q-51 -240 -225.5 -410.5t-455.5 -170.5q-280 0 -382 170q-68 113 -68 258q0 73 17 153zM477 543q-15 -69 -15 -124q0 -77 28 -129q48 -89 174 -89q125 0 211 89t121 253q15 69 15 124 q-1 77 -29 129q-48 88 -173 88t-211 -88.5t-121 -252.5z" />
<glyph unicode="p" horiz-adv-x="1251" d="M33 -429l323 1519h273l-34 -161q61 71 122 112q110 73 241 73q191 0 294 -141q65 -90 65 -234q0 -81 -21 -180q-61 -288 -222.5 -439t-365.5 -151q-130 0 -202 65q-40 36 -70 105l-121 -568h-282zM507 520q-13 -61 -13 -111q0 -104 57 -156q51 -45 133 -45q119 0 201 92 t114 245q11 53 11 101q0 66 -21 122q-37 97 -166 97q-155 0 -244 -147q-46 -78 -72 -198z" />
<glyph unicode="q" horiz-adv-x="1251" d="M170 520q58 272 226 435t364 163q136 0 206 -67q41 -38 73 -125l35 162h275l-323 -1520h-282l120 567q-46 -66 -134.5 -117.5t-222.5 -51.5q-189 0 -290 151q-66 98 -66 240q0 75 19 163zM460 347q27 -137 179 -137q147 0 236 126q58 83 85 210q12 55 12 104q0 40 -8 75 q-31 142 -184 142q-108 0 -191 -83t-119 -252q-15 -71 -15 -126q0 -32 5 -59z" />
<glyph unicode="r" horiz-adv-x="797" d="M130 0l231 1090h272l-40 -190q89 109 146 149q95 67 223 67q8 0 13.5 -0.5t23.5 -1.5l-62 -292q-26 3 -47 4t-34 1q-172 0 -255 -112q-46 -63 -74 -194l-110 -521h-287z" />
<glyph unicode="s" d="M139 348h289q-2 -17 -1 -32q0 -51 18 -76q40 -57 183 -57q84 0 139 25t66 75q2 11 2 20q0 33 -27 53q-35 25 -279 86q-175 46 -236 115q-43 47 -43 122q0 34 9 74q32 151 173.5 259.5t356.5 108.5q204 1 315 -81q92 -68 92 -217q0 -31 -4 -65h-285q1 12 1 23q0 39 -14 64 q-35 58 -148 58q-93 0 -138.5 -29t-53.5 -68q-2 -11 -3 -21q0 -33 30 -50q37 -23 280 -79q161 -40 229 -121q48 -59 48 -139q0 -31 -7 -66q-35 -162 -177 -264.5t-394 -102.5q-256 1 -356 109q-74 80 -74 193q0 39 9 83z" />
<glyph unicode="t" horiz-adv-x="682" d="M207 877l43 203h152l65 304h282l-65 -304h177l-43 -203h-177l-123 -576q-7 -34 -8 -55q0 -20 8 -28q14 -16 100 -17q13 0 27.5 0.5t29.5 1.5l-46 -213l-136 -5q-17 -1 -33 -1q-175 0 -228 71q-24 31 -24 84q0 30 8 67l143 671h-152z" />
<glyph unicode="u" horiz-adv-x="1251" d="M203 150q-10 38 -10 90q0 80 24 193l139 657h292l-139 -657q-12 -58 -12 -98q0 -24 4 -42q21 -83 135 -83q146 0 225 118q42 64 64 169l126 593h289l-231 -1090h-277l32 154q-5 -5 -26 -30t-47 -44q-80 -60 -147.5 -82t-151.5 -22q-242 0 -289 174z" />
<glyph unicode="v" d="M257 1090h320l56 -804l403 804h306l-624 -1090h-301z" />
<glyph unicode="w" horiz-adv-x="1593" d="M245 1090h306l4 -782l323 782h289l-1 -785l337 785h297l-547 -1090h-293l-3 794l-341 -794h-296z" />
<glyph unicode="x" d="M26 0l489 552l-242 536h349l115 -316l245 316h339l-471 -531l254 -557h-355l-119 327l-258 -327h-346z" />
<glyph unicode="y" d="M84 -437l48 228l36 -2q12 -1 23 -1q29 0 57 4q39 5 69 23q29 17 62 71t31 66l-158 1138h317l67 -804l396 804h303l-602 -1072q-174 -310 -252.5 -384.5t-267.5 -74.5q-38 0 -61 0.5t-68 3.5z" />
<glyph unicode="z" horiz-adv-x="1024" d="M33 0l47 222l694 636h-521l49 232h884l-50 -237l-685 -619h572l-49 -234h-941z" />
<glyph unicode="{" horiz-adv-x="797" d="M102 483l26 121q104 33 152 73q86 69 116 211l57 268q11 51 40 107q51 97 135 154q77 52 169 69q57 11 158 12l-34 -159q-87 -18 -123 -48q-56 -46 -80 -161l-50 -232q-23 -112 -67 -178q-75 -111 -239 -180q124 -55 155 -128t5 -202l-54 -253q-23 -111 20 -160 q24 -29 95 -51l-34 -159l-71 2q-142 4 -232 85.5t-57 237.5l66 313q27 126 -35 193q-37 41 -118 65z" />
<glyph unicode="|" horiz-adv-x="573" d="M106 0l316 1488h263l-316 -1488h-263z" />
<glyph unicode="}" horiz-adv-x="797" d="M-42 -413l34 159q78 22 115 52q61 50 86 159l54 253q30 142 99.5 210.5t200.5 119.5q-117 64 -149 145.5t-5 212.5l50 232q23 111 -4 151t-110 58l34 159q100 -1 151 -12q86 -17 142 -69t65.5 -128t-2.5 -133l-57 -268q-30 -143 21 -210q31 -40 127 -74l-26 -121 q-90 -24 -142 -62q-93 -68 -121 -196l-66 -313q-33 -152 -155.5 -235.5t-271.5 -87.5z" />
<glyph unicode="~" horiz-adv-x="1196" d="M68 305q43 119 92.5 205t107.5 141q61 58 118 81.5t112 23.5q24 0 62 -6q60 -10 109 -30l213 -90q38 -16 75 -22.5t58 -6.5q66 0 116 51.5t84 124.5h170q-67 -186 -178.5 -319t-253.5 -133q-28 0 -58 5q-58 9 -133 43l-192 79q-27 11 -67 20t-60 9q-57 0 -110.5 -43.5 t-91.5 -132.5h-173z" />
<glyph unicode="&#xa1;" horiz-adv-x="682" d="M143 -384l79 374l226 687h150l-63 -687l-79 -374h-313zM401 796l61 289h298l-61 -289h-298z" />
<glyph unicode="&#xa2;" d="M181 528q57 269 231 428.5t392 159.5q46 0 64 -2t47 -8l88 181h106l-102 -202q100 -37 153 -104q82 -102 64 -282h-292q2 60 -15 99q-9 26 -31 43l-310 -635q16 -3 27.5 -5t25.5 -2q68 0 134 47t102 149h291q-56 -187 -199 -311.5t-405 -124.5q-30 0 -48.5 2t-47.5 5 l-104 -211h-112l126 242q-116 48 -173 184.5t-12 346.5zM465.5 349.5q10.5 -66.5 31.5 -91.5l301 614q-17 2 -35 2q-100 0 -177 -102t-106 -239q-25 -117 -14.5 -183.5z" />
<glyph unicode="&#xa3;" d="M103 175q80 39 175.5 125.5t112.5 169.5q10 44 6 100q-3 32 -12 86h-178l24 112h114q-27 90 -34.5 158.5t9.5 147.5q33 154 186 276t389 122q196 0 317 -108.5t75 -366.5h-271q11 99 -12 160q-35 85 -161 85q-93 0 -159 -57.5t-82 -132.5q-9 -45 -0.5 -94.5t44.5 -189.5 h287l-24 -112h-244q-4 -39 -7 -65t-9 -52q-20 -96 -96 -178q-48 -51 -183 -155q86 29 126 38q65 16 123 16q36 0 69 -6t70 -17l38 -13q25 -9 43 -11.5t31 -2.5q46 0 114 26q39 15 99 46l35 -223q-57 -33 -153.5 -64t-179.5 -31q-44 0 -89.5 11t-98.5 29l-53 19 q-34 12 -57 18q-38 8 -80 8q-45 0 -101 -18q-37 -13 -137 -55z" />
<glyph unicode="&#xa4;" d="M126 342l170 140q-47 115 -21.5 235t121.5 235l-110 140l169 140l111 -140q130 71 250 71t220 -71l169 140l111 -140l-170 -140q46 -115 20.5 -235t-120.5 -235l110 -140l-170 -140l-110 140q-130 -71 -250 -71t-220 71l-170 -140zM487 717q-21 -98 32.5 -166t151.5 -68 t180.5 68t103.5 166t-32.5 166t-151.5 68t-180.5 -68t-103.5 -166z" />
<glyph unicode="&#xa5;" d="M213 471l28 135h280l-62 218h-213l29 136h147l-140 471h339l133 -623l386 623h325l-328 -471h143l-29 -136h-209l-154 -218h282l-28 -135h-320l-100 -471h-291l100 471h-318z" />
<glyph unicode="&#xa6;" horiz-adv-x="573" d="M106 0l124 587h263l-124 -587h-263zM297 903l125 585h263l-125 -585h-263z" />
<glyph unicode="&#xa7;" d="M122 -10h270q-1 -74 18 -107q31 -56 129 -56q60 0 110.5 37t63.5 96q11 53 -25 93q-37 40 -224 146q-164 90 -219 148q-87 93 -59 226q27 125 116 207q53 49 138 89q-27 22 -52 80q-22 72 -4 160q32 149 161.5 257t333.5 108q244 0 312 -160q37 -86 18 -215h-258 q6 60 -10 95q-28 62 -122 62q-63 0 -109 -30.5t-59 -89.5q-14 -68 48.5 -102t231.5 -120q293 -154 250 -357q-27 -127 -119 -210q-51 -46 -138 -87q46 -48 63 -90q30 -73 9 -172q-41 -191 -194 -291.5t-317 -100.5q-178 0 -283.5 89t-79.5 295zM444 645q-11 -49 24 -87 q20 -23 76 -56l253 -149q36 14 64 41q45 39 56 93q10 45 -30 86q-21 21 -62 45l-267 152q-57 -22 -88 -65q-20 -28 -26 -60z" />
<glyph unicode="&#xa8;" horiz-adv-x="682" d="M223 1256l51 237h261l-51 -237h-261zM623 1256l51 237h261l-51 -237h-261z" />
<glyph unicode="&#xa9;" horiz-adv-x="1509" d="M182 737q69 323 344 537q259 200 550 200q305 0 475 -216t105 -521q-67 -314 -333 -529q-259 -208 -560 -208q-311 0 -479 213t-102 524zM310 737q-54 -256 87 -435q140 -179 392 -179q251 0 467 180q216 181 270 434q52 246 -86 427q-140 184 -391 184q-254 0 -472 -184 q-214 -180 -267 -427zM524 735q38 182 171 310t317 128q117 0 193 -48q123 -78 116 -273l-188 3q2 90 -46 121q-40 29 -95 29q-83 0 -150.5 -68.5t-96.5 -206.5q-29 -137 16 -199t127 -62q75 0 122.5 41t71.5 103h183q-67 -174 -187.5 -243.5t-233.5 -69.5q-168 0 -265 120 t-55 315z" />
<glyph unicode="&#xaa;" horiz-adv-x="758" d="M257 1021q22 108 117 166q62 38 178 52l131 17q29 3 50 16.5t26 37.5q10 47 -33 64q-25 10 -72 10q-53 0 -84 -22.5t-51 -67.5h-180q31 91 84 142q87 83 254 83q123 0 183 -24q111 -45 79 -195l-69 -322q-8 -39 -5.5 -65.5t25.5 -35.5l-8 -36h-200q-3 17 -4 34.5t4 41.5 q-61 -45 -100 -64q-69 -33 -143 -33q-137 0 -174 85q-23 49 -8 116zM446 1036q-9 -40 13.5 -60.5t64.5 -20.5q35 0 79 16q28 12 46 26q22 14 37 34t30 75l13 64q-20 -12 -36 -17.5t-49 -10.5l-48 -7q-75 -11 -108.5 -36t-41.5 -63z" />
<glyph unicode="&#xab;" d="M269 444l50 238l405 294l-51 -238l-241 -175l167 -174l-50 -238zM712 444l50 238l405 294l-51 -238l-241 -175l167 -174l-50 -238z" />
<glyph unicode="&#xac;" horiz-adv-x="1196" d="M209 644l56 263h1083l-155 -730h-263l99 467h-820z" />
<glyph unicode="&#xad;" horiz-adv-x="682" d="M139 436l58 270h574l-58 -270h-574z" />
<glyph unicode="&#xae;" horiz-adv-x="1509" d="M182 737q69 323 344 537q259 200 550 200q305 0 475 -216t105 -521q-67 -314 -333 -529q-259 -208 -560 -208q-311 0 -479 213t-102 524zM310 737q-54 -256 87 -435q140 -179 392 -179q251 0 467 180q216 181 270 434q52 246 -86 427q-140 184 -391 184q-254 0 -472 -184 q-214 -180 -267 -427zM509 327l174 817q76 0 227 -0.5t168 -1.5q96 -7 152 -42q97 -60 68 -195q-22 -103 -89.5 -149t-152.5 -55q73 -16 106 -47q59 -58 33 -183l-16 -73q-2 -12 -3.5 -24t0.5 -24l2 -23h-204q-2 39 11 113t8 100q-7 43 -47 60q-22 10 -70 13l-47 3h-45 l-61 -289h-214zM816 763h83q75 0 123 30t63 97q14 67 -47 93q-40 17 -120 17h-52z" />
<glyph unicode="&#xaf;" horiz-adv-x="682" d="M209 1301l32 152h711l-32 -152h-711z" />
<glyph unicode="&#xb0;" horiz-adv-x="819" d="M335 1137q28 132 144 227.5t248 95.5t207 -95.5t47 -227.5t-143.5 -227.5t-247.5 -95.5t-207.5 95.5t-47.5 227.5zM497 1137q-14 -67 23 -114t104 -47t124 47t71 114t-23 114t-104 47t-124 -47t-71 -114z" />
<glyph unicode="&#xb1;" horiz-adv-x="1124" d="M73 0l52 246h1083l-52 -246h-1083zM193 566l52 244h410l58 273h263l-58 -273h410l-52 -244h-410l-55 -256h-263l55 256h-410z" />
<glyph unicode="&#xb2;" horiz-adv-x="682" d="M149 580q43 205 304 359q162 96 215 143.5t65 105.5q13 62 -15 94.5t-86 32.5q-86 0 -126 -53q-25 -32 -44 -110h-181q37 156 135 232t244 76q135 0 211.5 -74t49.5 -204q-18 -83 -78.5 -150.5t-181.5 -136.5l-83 -45q-50 -28 -80 -48q-64 -40 -82 -65h410l-33 -157h-644 z" />
<glyph unicode="&#xb3;" horiz-adv-x="682" d="M199 853h183q-10 -64 2 -94q21 -55 108 -55q37 0 75 18q71 34 89 117q17 82 -41 109q-35 17 -143 21l26 121q90 2 129 17q69 27 85 104q11 54 -18 82.5t-81 28.5q-60 0 -100.5 -39.5t-54.5 -102.5h-171q24 135 141 220q88 60 223 60q138 0 205.5 -65.5t44.5 -171.5 q-13 -65 -53 -107.5t-98 -68.5q53 -8 86.5 -55t13.5 -145q-29 -134 -137 -207.5t-237 -73.5q-153 0 -231 67.5t-46 219.5z" />
<glyph unicode="&#xb4;" horiz-adv-x="682" d="M380 1237l256 299h318l-368 -299h-206z" />
<glyph unicode="&#xb5;" horiz-adv-x="1180" d="M-153 -475l616 1565h289l-285 -728q-2 -7 -4.5 -15t-4.5 -16q-15 -68 28 -94.5t92 -26.5q72 0 143 41.5t118 98.5q32 39 63 105t89 211l169 424h284l-425 -1088h-263l67 182q-61 -72 -167.5 -144t-213.5 -72q-42 0 -72.5 12t-44.5 27l-189 -482h-289z" />
<glyph unicode="&#xb6;" d="M145 971q45 214 199 358.5t393 144.5h651l-37 -171h-125l-355 -1673h-202l355 1673h-196l-355 -1673h-202l184 865q-188 0 -272 129t-38 347z" />
<glyph unicode="&#xb7;" horiz-adv-x="569" d="M265 718q15 68 74 117t127 49q69 0 109 -48.5t25 -117.5t-74 -117.5t-128 -48.5t-108.5 48.5t-24.5 117.5z" />
<glyph unicode="&#xb8;" horiz-adv-x="682" d="M-70 -418l56 86q52 -17 72 -22q46 -12 76 -12q60 0 91.5 25.5t36.5 53.5q9 42 -16 59t-58 17q-19 0 -40 -4.5t-48 -12.5l-103 117l230 111h109l-116 -131q34 7 48.5 9.5t30.5 2.5q81 0 120.5 -39.5t24.5 -113.5q-20 -92 -106.5 -145.5t-204.5 -53.5q-51 0 -118 21 q-30 10 -85 32z" />
<glyph unicode="&#xb9;" horiz-adv-x="682" d="M330 1180l25 116q111 5 144 14t58 26q34 21 57.5 50.5t31.5 63.5h164l-185 -870h-199l127 600h-223z" />
<glyph unicode="&#xba;" horiz-adv-x="748" d="M262.5 1170q33.5 158 150 254t286.5 96t245.5 -96t41.5 -254q-33 -158 -149.5 -254t-286.5 -96t-245.5 96t-42 254zM454 1170q-20 -93 11 -149t116 -56t137 56t72 149t-8.5 149t-113.5 56t-139.5 -56t-74.5 -149z" />
<glyph unicode="&#xbb;" d="M32 151l50 238l241 174l-167 175l51 238l279 -294l-50 -238zM475 151l50 238l241 174l-167 175l51 238l279 -294l-50 -238z" />
<glyph unicode="&#xbc;" horiz-adv-x="1708" d="M340 1180l25 116q114 6 170 26q101 36 121 128h164l-185 -870h-200l127 600h-222zM360 -38l1191 1483h161l-1191 -1483h-161zM1008 187l32 149l460 526h216l-115 -542h97l-29 -133h-97l-39 -187h-189l39 187h-375zM1174 320h238l79 372z" />
<glyph unicode="&#xbd;" horiz-adv-x="1708" d="M270 -38l1191 1483h161l-1191 -1483h-161zM297 1180l25 116q112 5 149 16t63 29q37 24 56 57t23 52h164l-185 -870h-199l127 600h-223zM976 0q47 209 306 360q177 107 221 148.5t57 98.5q11 56 -14 91.5t-88 35.5q-86 0 -127 -56q-24 -31 -42 -107h-180q30 144 137 231 q100 77 241 77q145 0 216 -78.5t45 -198.5q-18 -88 -83.5 -157t-173.5 -128l-86 -47q-27 -15 -43.5 -25t-43.5 -27q-21 -14 -42 -30.5t-32 -31.5h410l-33 -156h-645z" />
<glyph unicode="&#xbe;" horiz-adv-x="1708" d="M259 853h182q-10 -58 3 -90q20 -59 107 -59q40 0 78 19q69 34 87 118q17 80 -43 108q-35 16 -141 20l26 121q91 2 130 18q68 27 85 107q8 40 -16 73.5t-85 33.5q-76 0 -117 -54q-23 -31 -38 -88h-170q26 146 152 228q86 52 211 52q140 0 206.5 -66t44.5 -167 q-14 -66 -51 -108.5t-101 -71.5q31 2 76 -51.5t24 -152.5q-27 -125 -133.5 -201t-240.5 -76q-207 0 -264 111q-30 61 -12 176zM431 -38l1186 1483h162l-1186 -1483h-162zM1055 187l32 149l461 526h216l-115 -542h97l-29 -133h-97l-39 -187h-190l39 187h-375zM1222 320h237 l79 372z" />
<glyph unicode="&#xbf;" horiz-adv-x="1251" d="M113 23q28 130 111 220q51 55 176 138l83 55q68 45 99 105q21 38 38 117h270q-41 -166 -81.5 -231.5t-165.5 -149.5l-85 -57q-72 -49 -106 -104q-21 -34 -31 -79q-19 -91 23 -145t134 -54q136 0 215 110q42 59 56 127h289q-71 -280 -242 -379.5t-347 -99.5 q-229 0 -354.5 109t-81.5 318zM628 796l61 289h299l-61 -289h-299z" />
<glyph unicode="&#xc0;" horiz-adv-x="1479" d="M52 0l839 1474h348l209 -1474h-334l-31 303h-543l-166 -303h-322zM677 557h374l-61 580zM811 1891h317l128 -299h-206z" />
<glyph unicode="&#xc1;" horiz-adv-x="1479" d="M52 0l839 1474h348l209 -1474h-334l-31 303h-543l-166 -303h-322zM677 557h374l-61 580zM918 1592l256 299h318l-368 -299h-206z" />
<glyph unicode="&#xc2;" horiz-adv-x="1479" d="M52 0l839 1474h348l209 -1474h-334l-31 303h-543l-166 -303h-322zM677 557h374l-61 580zM724 1592l299 299h256l170 -299h-232l-94 168l-167 -168h-232z" />
<glyph unicode="&#xc3;" horiz-adv-x="1479" d="M52 0l839 1474h348l209 -1474h-334l-31 303h-543l-166 -303h-322zM677 557h374l-61 580zM714 1606q44 103 91 156q84 95 210 95q27 0 51.5 -6t41.5 -13l86 -35q39 -14 51.5 -18t28.5 -4q48 0 72.5 25.5t41.5 60.5h133q-40 -105 -109 -176t-172 -71q-31 0 -84 15 q-32 8 -60 18l-75 27q-16 6 -31.5 8.5t-31.5 2.5q-38 0 -66 -22q-29 -23 -48 -63h-130z" />
<glyph unicode="&#xc4;" horiz-adv-x="1479" d="M52 0l839 1474h348l209 -1474h-334l-31 303h-543l-166 -303h-322zM677 557h374l-61 580zM760 1611l51 237h261l-51 -237h-261zM1160 1611l51 237h261l-51 -237h-261z" />
<glyph unicode="&#xc5;" horiz-adv-x="1479" d="M52 0l839 1474h348l209 -1474h-334l-31 303h-543l-166 -303h-322zM677 557h374l-61 580zM914 1748q19 90 97 154t168 64t140 -64t31 -154t-96.5 -154t-167.5 -64t-140.5 64t-31.5 154zM1013 1748q-10 -49 17.5 -83.5t76.5 -34.5t91 34.5t52 83.5q11 49 -16 84t-76 35 t-91.5 -35t-53.5 -84z" />
<glyph unicode="&#xc6;" horiz-adv-x="2048" d="M18 0l848 1469h1394l-55 -256h-759l-67 -317h683l-54 -252h-683l-81 -384h773l-55 -260h-1076l66 312h-441l-173 -312h-320zM643 554h360l141 664h-133z" />
<glyph unicode="&#xc7;" horiz-adv-x="1479" d="M246 725q82 386 333 595q219 182 497 182q372 0 492 -244q66 -137 43 -275h-308q-7 106 -43 160q-63 96 -228 96q-168 0 -294 -135.5t-178 -383.5q-53 -248 23 -371.5t234 -123.5q162 0 270 106q59 57 114 171h305q-91 -241 -287.5 -392t-425.5 -151l-80 -90 q34 7 48.5 9.5t30.5 2.5q81 0 120.5 -39.5t24.5 -113.5q-20 -92 -106.5 -145.5t-204.5 -53.5q-51 0 -118 21q-31 10 -86 32l56 86q53 -17 73 -22q46 -12 76 -12q60 0 91.5 25.5t36.5 53.5q9 42 -16 59t-58 17q-19 0 -40 -4.5t-48 -12.5l-34 40l125 147q-237 0 -376 204 q-138 205 -62 562z" />
<glyph unicode="&#xc8;" horiz-adv-x="1366" d="M165 0l313 1474h1081l-56 -261h-780l-66 -313h716l-55 -256h-716l-80 -379h816l-56 -265h-1117zM774 1891h317l128 -299h-206z" />
<glyph unicode="&#xc9;" horiz-adv-x="1366" d="M165 0l313 1474h1081l-56 -261h-780l-66 -313h716l-55 -256h-716l-80 -379h816l-56 -265h-1117zM881 1592l256 299h318l-368 -299h-206z" />
<glyph unicode="&#xca;" horiz-adv-x="1366" d="M165 0l313 1474h1081l-56 -261h-780l-66 -313h716l-55 -256h-716l-80 -379h816l-56 -265h-1117zM687 1592l299 299h256l170 -299h-232l-94 168l-167 -168h-232z" />
<glyph unicode="&#xcb;" horiz-adv-x="1366" d="M165 0l313 1474h1081l-56 -261h-780l-66 -313h716l-55 -256h-716l-80 -379h816l-56 -265h-1117zM723 1611l51 237h261l-51 -237h-261zM1123 1611l51 237h261l-51 -237h-261z" />
<glyph unicode="&#xcc;" horiz-adv-x="569" d="M132 0l313 1474h306l-313 -1474h-306zM357 1920h317l128 -299h-206z" />
<glyph unicode="&#xcd;" horiz-adv-x="569" d="M132 0l313 1474h306l-313 -1474h-306zM461 1621l256 299h318l-368 -299h-206z" />
<glyph unicode="&#xce;" horiz-adv-x="569" d="M132 0l313 1474h306l-313 -1474h-306zM269 1621l299 299h256l170 -299h-232l-94 168l-167 -168h-232z" />
<glyph unicode="&#xcf;" horiz-adv-x="569" d="M132 0l313 1474h306l-313 -1474h-306zM304 1640l51 237h261l-51 -237h-261zM704 1640l51 237h261l-51 -237h-261z" />
<glyph unicode="&#xd0;" horiz-adv-x="1479" d="M156 0l139 658h-138l55 256h138l118 558h616q171 0 280.5 -51.5t172.5 -173.5q47 -93 53.5 -212t-23.5 -263q-57 -266 -197 -460q-225 -312 -600 -312h-614zM509 256h213q125 0 182 16q95 25 171 109q71 77 114 182.5t60 187.5q65 304 -63 409q-72 58 -246 58h-227 l-64 -304h310l-55 -256h-310z" />
<glyph unicode="&#xd1;" horiz-adv-x="1479" d="M151 0l313 1474h323l368 -1029l219 1029h287l-313 -1474h-308l-380 1047l-222 -1047h-287zM726 1609q44 103 91 156q84 95 210 95q27 0 51.5 -6t41.5 -13l86 -35q39 -14 51.5 -18t28.5 -4q48 0 72.5 25.5t41.5 60.5h133q-40 -105 -109 -176t-172 -71q-31 0 -84 15 q-32 8 -60 18l-75 27q-16 6 -31.5 8.5t-31.5 2.5q-38 0 -66 -22q-29 -23 -48 -63h-130z" />
<glyph unicode="&#xd2;" horiz-adv-x="1593" d="M258 739q86 405 353 608q203 172 519 172t447 -172q180 -203 94 -608q-85 -397 -353 -608q-203 -172 -519 -172t-447 172q-179 211 -94 608zM564 739q-53 -249 27 -384t263 -135t319.5 135t189.5 384q52 248 -26.5 383.5t-261.5 135.5t-320.5 -135t-190.5 -384zM879 1936 h317l128 -299h-206z" />
<glyph unicode="&#xd3;" horiz-adv-x="1593" d="M258 739q86 405 353 608q203 172 519 172t447 -172q180 -203 94 -608q-85 -397 -353 -608q-203 -172 -519 -172t-447 172q-179 211 -94 608zM564 739q-53 -249 27 -384t263 -135t319.5 135t189.5 384q52 248 -26.5 383.5t-261.5 135.5t-320.5 -135t-190.5 -384zM986 1637 l256 299h318l-368 -299h-206z" />
<glyph unicode="&#xd4;" horiz-adv-x="1593" d="M258 739q86 405 353 608q203 172 519 172t447 -172q180 -203 94 -608q-85 -397 -353 -608q-203 -172 -519 -172t-447 172q-179 211 -94 608zM564 739q-53 -249 27 -384t263 -135t319.5 135t189.5 384q52 248 -26.5 383.5t-261.5 135.5t-320.5 -135t-190.5 -384zM792 1637 l299 299h256l170 -299h-232l-94 168l-167 -168h-232z" />
<glyph unicode="&#xd5;" horiz-adv-x="1593" d="M258 739q86 405 353 608q203 172 519 172t447 -172q180 -203 94 -608q-85 -397 -353 -608q-203 -172 -519 -172t-447 172q-179 211 -94 608zM564 739q-53 -249 27 -384t263 -135t319.5 135t189.5 384q52 248 -26.5 383.5t-261.5 135.5t-320.5 -135t-190.5 -384zM782 1651 q44 103 91 156q84 95 210 95q27 0 51.5 -6t41.5 -13l86 -35q39 -14 51.5 -18t28.5 -4q48 0 72.5 25.5t41.5 60.5h133q-40 -105 -109 -176t-172 -71q-31 0 -84 15q-32 8 -60 18l-75 27q-16 6 -31.5 8.5t-31.5 2.5q-38 0 -66 -22q-29 -23 -48 -63h-130z" />
<glyph unicode="&#xd6;" horiz-adv-x="1593" d="M258 739q86 405 353 608q203 172 519 172t447 -172q180 -203 94 -608q-85 -397 -353 -608q-203 -172 -519 -172t-447 172q-179 211 -94 608zM564 739q-53 -249 27 -384t263 -135t319.5 135t189.5 384q52 248 -26.5 383.5t-261.5 135.5t-320.5 -135t-190.5 -384zM828 1656 l51 237h261l-51 -237h-261zM1228 1656l51 237h261l-51 -237h-261z" />
<glyph unicode="&#xd7;" horiz-adv-x="1196" d="M127 199l417 343l-271 344l224 185l270 -344l420 344l145 -185l-419 -344l273 -343l-224 -188l-274 346l-416 -346z" />
<glyph unicode="&#xd8;" horiz-adv-x="1593" d="M75 23l223 190q-42 78 -60 197q-22 142 18 329q73 346 344 594q227 186 527 186q131 0 247.5 -44t195.5 -127l202 178l68 -81l-208 -187q41 -69 61 -192q18 -128 -24 -327q-74 -346 -318 -565q-239 -215 -555 -215q-122 0 -235.5 37.5t-202.5 131.5l-215 -185zM541 559 q0 -48 11 -119l781 697q-29 47 -91 81q-63 40 -170 40q-214 0 -337 -141.5t-173 -377.5q-21 -98 -21 -180zM600 341q45 -66 110 -93.5t141 -27.5q214 0 342 161t170 358q14 66 19 128q7 95 -7 164z" />
<glyph unicode="&#xd9;" horiz-adv-x="1479" d="M271 202q-45 131 5 366l193 906h313l-193 -906q-32 -152 -11 -222q30 -124 218 -124q187 0 269 124q51 70 83 222l193 906h313l-193 -906q-50 -235 -151 -366q-187 -240 -570 -240t-469 240zM810 1891h317l128 -299h-206z" />
<glyph unicode="&#xda;" horiz-adv-x="1479" d="M271 202q-45 131 5 366l193 906h313l-193 -906q-32 -152 -11 -222q30 -124 218 -124q187 0 269 124q51 70 83 222l193 906h313l-193 -906q-50 -235 -151 -366q-187 -240 -570 -240t-469 240zM917 1592l256 299h318l-368 -299h-206z" />
<glyph unicode="&#xdb;" horiz-adv-x="1479" d="M271 202q-45 131 5 366l193 906h313l-193 -906q-32 -152 -11 -222q30 -124 218 -124q187 0 269 124q51 70 83 222l193 906h313l-193 -906q-50 -235 -151 -366q-187 -240 -570 -240t-469 240zM723 1592l299 299h256l170 -299h-232l-94 168l-167 -168h-232z" />
<glyph unicode="&#xdc;" horiz-adv-x="1479" d="M271 202q-45 131 5 366l193 906h313l-193 -906q-32 -152 -11 -222q30 -124 218 -124q187 0 269 124q51 70 83 222l193 906h313l-193 -906q-50 -235 -151 -366q-187 -240 -570 -240t-469 240zM759 1611l51 237h261l-51 -237h-261zM1159 1611l51 237h261l-51 -237h-261z " />
<glyph unicode="&#xdd;" horiz-adv-x="1366" d="M348 1474h363l169 -642l430 642h349l-689 -920l-117 -554h-308l117 554zM859 1592l256 299h318l-368 -299h-206z" />
<glyph unicode="&#xde;" horiz-adv-x="1366" d="M128 0l312 1472h299l-47 -221h302q256 0 362.5 -114t65.5 -307q-62 -292 -311 -399q-133 -57 -334 -57h-271l-79 -374h-299zM556 611h236q124 0 189 26q116 47 145 183q27 126 -59 168q-49 24 -173 24h-252z" />
<glyph unicode="&#xdf;" horiz-adv-x="1251" d="M137 0l219 1035q40 188 121 286q146 177 456 177q216 0 326 -104t72 -282q-14 -67 -44 -118q-56 -95 -166 -153q114 -53 149 -147.5t7 -223.5q-39 -184 -185.5 -340.5t-426.5 -156.5q-14 0 -43 2.5t-62 9.5l49 228q21 -2 36 -2.5t27 -0.5q158 0 241 92q52 60 74 160 q31 148 -60 204q-54 33 -198 45l42 199q107 1 156 23q80 38 104 152q21 96 -26.5 139.5t-127.5 43.5q-126 0 -183 -85q-35 -50 -63 -181l-212 -1002h-282z" />
<glyph unicode="&#xe0;" d="M120 290q43 201 217 291q95 49 265 70l99 12q82 10 119 25q66 26 78 81q14 67 -27 92.5t-131 25.5q-101 0 -154 -50q-37 -37 -61 -100h-275q40 143 130 235q144 144 419 144q179 0 303 -71t82 -268l-107 -500q-11 -52 -24 -126q-9 -56 0.5 -76t34.5 -33l-8 -42h-310 q-6 33 -5 62t6 66q-73 -64 -159 -109q-104 -53 -220 -53q-148 0 -226.5 84.5t-45.5 239.5zM411 311q-16 -73 17.5 -105.5t91.5 -32.5q92 0 181 54t123 197l22 106q-30 -17 -60 -27.5t-80 -19.5l-66 -12q-94 -16 -138 -39q-74 -39 -91 -121zM562 1536h317l128 -299h-206z" />
<glyph unicode="&#xe1;" d="M120 290q43 201 217 291q95 49 265 70l99 12q82 10 119 25q66 26 78 81q14 67 -27 92.5t-131 25.5q-101 0 -154 -50q-37 -37 -61 -100h-275q40 143 130 235q144 144 419 144q179 0 303 -71t82 -268l-107 -500q-11 -52 -24 -126q-9 -56 0.5 -76t34.5 -33l-8 -42h-310 q-6 33 -5 62t6 66q-73 -64 -159 -109q-104 -53 -220 -53q-148 0 -226.5 84.5t-45.5 239.5zM411 311q-16 -73 17.5 -105.5t91.5 -32.5q92 0 181 54t123 197l22 106q-30 -17 -60 -27.5t-80 -19.5l-66 -12q-94 -16 -138 -39q-74 -39 -91 -121zM669 1237l256 299h318l-368 -299 h-206z" />
<glyph unicode="&#xe2;" d="M120 290q43 201 217 291q95 49 265 70l99 12q82 10 119 25q66 26 78 81q14 67 -27 92.5t-131 25.5q-101 0 -154 -50q-37 -37 -61 -100h-275q40 143 130 235q144 144 419 144q179 0 303 -71t82 -268l-107 -500q-11 -52 -24 -126q-9 -56 0.5 -76t34.5 -33l-8 -42h-310 q-6 33 -5 62t6 66q-73 -64 -159 -109q-104 -53 -220 -53q-148 0 -226.5 84.5t-45.5 239.5zM411 311q-16 -73 17.5 -105.5t91.5 -32.5q92 0 181 54t123 197l22 106q-30 -17 -60 -27.5t-80 -19.5l-66 -12q-94 -16 -138 -39q-74 -39 -91 -121zM475 1237l299 299h256l170 -299 h-232l-94 168l-167 -168h-232z" />
<glyph unicode="&#xe3;" d="M120 290q43 201 217 291q95 49 265 70l99 12q82 10 119 25q66 26 78 81q14 67 -27 92.5t-131 25.5q-101 0 -154 -50q-37 -37 -61 -100h-275q40 143 130 235q144 144 419 144q179 0 303 -71t82 -268l-107 -500q-11 -52 -24 -126q-9 -56 0.5 -76t34.5 -33l-8 -42h-310 q-6 33 -5 62t6 66q-73 -64 -159 -109q-104 -53 -220 -53q-148 0 -226.5 84.5t-45.5 239.5zM411 311q-16 -73 17.5 -105.5t91.5 -32.5q92 0 181 54t123 197l22 106q-30 -17 -60 -27.5t-80 -19.5l-66 -12q-94 -16 -138 -39q-74 -39 -91 -121zM465 1251q44 103 91 156 q84 95 210 95q27 0 51.5 -6t41.5 -13l86 -35q39 -14 51.5 -18t28.5 -4q48 0 72.5 25.5t41.5 60.5h133q-40 -105 -109 -176t-172 -71q-31 0 -84 15q-32 8 -60 18l-75 27q-16 6 -31.5 8.5t-31.5 2.5q-38 0 -66 -22q-29 -23 -48 -63h-130z" />
<glyph unicode="&#xe4;" d="M120 290q43 201 217 291q95 49 265 70l99 12q82 10 119 25q66 26 78 81q14 67 -27 92.5t-131 25.5q-101 0 -154 -50q-37 -37 -61 -100h-275q40 143 130 235q144 144 419 144q179 0 303 -71t82 -268l-107 -500q-11 -52 -24 -126q-9 -56 0.5 -76t34.5 -33l-8 -42h-310 q-6 33 -5 62t6 66q-73 -64 -159 -109q-104 -53 -220 -53q-148 0 -226.5 84.5t-45.5 239.5zM411 311q-16 -73 17.5 -105.5t91.5 -32.5q92 0 181 54t123 197l22 106q-30 -17 -60 -27.5t-80 -19.5l-66 -12q-94 -16 -138 -39q-74 -39 -91 -121zM511 1256l51 237h261l-51 -237 h-261zM911 1256l51 237h261l-51 -237h-261z" />
<glyph unicode="&#xe5;" d="M120 290q43 201 217 291q95 49 265 70l99 12q82 10 119 25q66 26 78 81q14 67 -27 92.5t-131 25.5q-101 0 -154 -50q-37 -37 -61 -100h-275q40 143 130 235q144 144 419 144q179 0 303 -71t82 -268l-107 -500q-11 -52 -24 -126q-9 -56 0.5 -76t34.5 -33l-8 -42h-310 q-6 33 -5 62t6 66q-73 -64 -159 -109q-104 -53 -220 -53q-148 0 -226.5 84.5t-45.5 239.5zM411 311q-16 -73 17.5 -105.5t91.5 -32.5q92 0 181 54t123 197l22 106q-30 -17 -60 -27.5t-80 -19.5l-66 -12q-94 -16 -138 -39q-74 -39 -91 -121zM664 1443q19 90 97 154t168 64 t140 -64t31 -154t-96.5 -154t-167.5 -64t-140.5 64t-31.5 154zM763 1443q-10 -49 17.5 -83.5t76.5 -34.5t91 34.5t52 83.5q11 49 -16 84t-76 35t-91.5 -35t-53.5 -84z" />
<glyph unicode="&#xe6;" horiz-adv-x="1821" d="M118 295q40 185 195 270q85 46 245 70l181 26q70 10 105 27q53 26 64 78q17 79 -57 108q-40 15 -112 15q-110 0 -166 -62q-30 -33 -45 -93h-278q58 225 254 318q130 62 311 62q129 0 219 -44q50 -24 99 -73q72 52 158 84.5t190 32.5q332 0 391 -273q31 -145 -21 -367 h-746q-24 -113 -10 -173q27 -110 169 -110q80 0 145 27.5t110 108.5h289q-33 -100 -142 -200q-177 -163 -440 -163q-135 0 -220.5 51t-121.5 131q-95 -95 -207.5 -139t-246.5 -44q-202 0 -271.5 98t-40.5 234zM404 299q-10 -47 16.5 -88t110.5 -41q87 0 151 32 q117 58 149 210l23 109q-24 -15 -42.5 -21.5t-79.5 -18.5l-114 -22q-98 -19 -135 -41q-61 -36 -79 -119zM1148 658h446q16 105 -24 167.5t-147 62.5q-108 0 -176 -56.5t-99 -173.5z" />
<glyph unicode="&#xe7;" d="M182 523q59 281 229.5 437t411.5 156q205 0 316 -92t85 -325h-292q5 61 -18 110q-34 66 -135 66q-144 0 -227 -143q-44 -76 -71 -202q-25 -120 -13 -193q22 -136 163 -136q100 0 153.5 54t80.5 140h291q-37 -130 -146 -246q-174 -187 -406 -187l-82 -93q34 7 48.5 9.5 t30.5 2.5q81 0 120.5 -39.5t24.5 -113.5q-20 -92 -106.5 -145.5t-204.5 -53.5q-51 0 -118 21q-31 10 -86 32l56 86q53 -17 73 -22q46 -12 76 -12q60 0 91.5 25.5t36.5 53.5q9 42 -16 59t-58 17q-19 0 -40 -4.5t-48 -12.5l-34 40l130 150q-188 0 -278.5 156t-37.5 405z" />
<glyph unicode="&#xe8;" d="M160 534q60 283 235.5 434t404.5 151q136 0 234.5 -51t145.5 -161q44 -97 35 -225q-4 -75 -36 -216h-746q-29 -164 54 -230q50 -41 133 -41q88 0 154 50q35 27 69 75h291q-32 -97 -143 -197q-174 -159 -426 -159q-208 0 -338.5 134t-66.5 436zM480 654h443 q17 113 -32.5 171.5t-140.5 58.5q-99 0 -166.5 -62t-103.5 -168zM569 1536h317l128 -299h-206z" />
<glyph unicode="&#xe9;" d="M160 534q60 283 235.5 434t404.5 151q136 0 234.5 -51t145.5 -161q44 -97 35 -225q-4 -75 -36 -216h-746q-29 -164 54 -230q50 -41 133 -41q88 0 154 50q35 27 69 75h291q-32 -97 -143 -197q-174 -159 -426 -159q-208 0 -338.5 134t-66.5 436zM480 654h443 q17 113 -32.5 171.5t-140.5 58.5q-99 0 -166.5 -62t-103.5 -168zM676 1237l256 299h318l-368 -299h-206z" />
<glyph unicode="&#xea;" d="M160 534q60 283 235.5 434t404.5 151q136 0 234.5 -51t145.5 -161q44 -97 35 -225q-4 -75 -36 -216h-746q-29 -164 54 -230q50 -41 133 -41q88 0 154 50q35 27 69 75h291q-32 -97 -143 -197q-174 -159 -426 -159q-208 0 -338.5 134t-66.5 436zM480 654h443 q17 113 -32.5 171.5t-140.5 58.5q-99 0 -166.5 -62t-103.5 -168zM482 1237l299 299h256l170 -299h-232l-94 168l-167 -168h-232z" />
<glyph unicode="&#xeb;" d="M160 534q60 283 235.5 434t404.5 151q136 0 234.5 -51t145.5 -161q44 -97 35 -225q-4 -75 -36 -216h-746q-29 -164 54 -230q50 -41 133 -41q88 0 154 50q35 27 69 75h291q-32 -97 -143 -197q-174 -159 -426 -159q-208 0 -338.5 134t-66.5 436zM480 654h443 q17 113 -32.5 171.5t-140.5 58.5q-99 0 -166.5 -62t-103.5 -168zM518 1256l51 237h261l-51 -237h-261zM918 1256l51 237h261l-51 -237h-261z" />
<glyph unicode="&#xec;" horiz-adv-x="569" d="M137 0l231 1090h289l-231 -1090h-289zM276 1536h317l128 -299h-206z" />
<glyph unicode="&#xed;" horiz-adv-x="569" d="M137 0l231 1090h289l-231 -1090h-289zM380 1237l256 299h318l-368 -299h-206z" />
<glyph unicode="&#xee;" horiz-adv-x="569" d="M137 0l231 1090h289l-231 -1090h-289zM188 1237l299 299h256l170 -299h-232l-94 168l-167 -168h-232z" />
<glyph unicode="&#xef;" horiz-adv-x="569" d="M137 0l231 1090h289l-231 -1090h-289zM223 1256l51 237h261l-51 -237h-261zM623 1256l51 237h261l-51 -237h-261z" />
<glyph unicode="&#xf0;" horiz-adv-x="1251" d="M215 499q47 222 210 365t354 143q38 0 63.5 -3t73.5 -16q-60 84 -84 113.5t-68 76.5l-242 -100l-80 103l247 99q-47 39 -59.5 53t-45.5 46l257 104q28 -22 48 -39.5t58 -52.5l199 79l80 -103l-193 -73q87 -118 120 -169q51 -79 77 -148q53 -141 58.5 -250.5t-19.5 -225.5 q-48 -225 -217 -377.5t-415 -152.5q-255 0 -363 149t-59 379zM499 493q-32 -152 22 -226t157 -74q117 0 198 83t113 233q24 115 -13 204t-165 89q-111 0 -195 -76.5t-117 -232.5z" />
<glyph unicode="&#xf1;" horiz-adv-x="1251" d="M135 0l231 1088h275l-34 -159q73 84 130 121q102 66 237 66q169 0 257.5 -88.5t45.5 -293.5l-156 -734h-292l140 663q19 86 5 132q-24 84 -142 84q-145 0 -225 -123q-42 -65 -63 -166l-125 -590h-284zM521 1251q44 103 91 156q84 95 210 95q27 0 51.5 -6t41.5 -13l86 -35 q39 -14 51.5 -18t28.5 -4q48 0 72.5 25.5t41.5 60.5h133q-40 -105 -109 -176t-172 -71q-31 0 -84 15q-32 8 -60 18l-75 27q-16 6 -31.5 8.5t-31.5 2.5q-38 0 -66 -22q-29 -23 -48 -63h-130z" />
<glyph unicode="&#xf2;" horiz-adv-x="1251" d="M181 543q50 236 225 409t456 173t382 -173t51 -409q-51 -240 -225.5 -410.5t-455.5 -170.5t-382.5 170.5t-50.5 410.5zM477 543q-35 -164 13.5 -253t173.5 -89t211 89t121 253t-13.5 252.5t-173.5 88.5t-211 -88.5t-121 -252.5zM609 1536h317l128 -299h-206z" />
<glyph unicode="&#xf3;" horiz-adv-x="1251" d="M181 543q50 236 225 409t456 173t382 -173t51 -409q-51 -240 -225.5 -410.5t-455.5 -170.5t-382.5 170.5t-50.5 410.5zM477 543q-35 -164 13.5 -253t173.5 -89t211 89t121 253t-13.5 252.5t-173.5 88.5t-211 -88.5t-121 -252.5zM716 1237l256 299h318l-368 -299h-206z " />
<glyph unicode="&#xf4;" horiz-adv-x="1251" d="M181 543q50 236 225 409t456 173t382 -173t51 -409q-51 -240 -225.5 -410.5t-455.5 -170.5t-382.5 170.5t-50.5 410.5zM477 543q-35 -164 13.5 -253t173.5 -89t211 89t121 253t-13.5 252.5t-173.5 88.5t-211 -88.5t-121 -252.5zM522 1237l299 299h256l170 -299h-232 l-94 168l-167 -168h-232z" />
<glyph unicode="&#xf5;" horiz-adv-x="1251" d="M181 543q50 236 225 409t456 173t382 -173t51 -409q-51 -240 -225.5 -410.5t-455.5 -170.5t-382.5 170.5t-50.5 410.5zM477 543q-35 -164 13.5 -253t173.5 -89t211 89t121 253t-13.5 252.5t-173.5 88.5t-211 -88.5t-121 -252.5zM512 1251q44 103 91 156q84 95 210 95 q27 0 51.5 -6t41.5 -13l86 -35q39 -14 51.5 -18t28.5 -4q48 0 72.5 25.5t41.5 60.5h133q-40 -105 -109 -176t-172 -71q-31 0 -84 15q-32 8 -60 18l-75 27q-16 6 -31.5 8.5t-31.5 2.5q-38 0 -66 -22q-29 -23 -48 -63h-130z" />
<glyph unicode="&#xf6;" horiz-adv-x="1251" d="M181 543q50 236 225 409t456 173t382 -173t51 -409q-51 -240 -225.5 -410.5t-455.5 -170.5t-382.5 170.5t-50.5 410.5zM477 543q-35 -164 13.5 -253t173.5 -89t211 89t121 253t-13.5 252.5t-173.5 88.5t-211 -88.5t-121 -252.5zM558 1256l51 237h261l-51 -237h-261z M958 1256l51 237h261l-51 -237h-261z" />
<glyph unicode="&#xf7;" horiz-adv-x="1124" d="M160 412l56 261h1083l-56 -261h-1083zM462 0l63 298h306l-63 -298h-306zM629 786l63 297h306l-63 -297h-306z" />
<glyph unicode="&#xf8;" horiz-adv-x="1251" d="M42 0l172 144q-49 93 -50.5 200.5t17.5 197.5q53 250 234.5 416.5t425.5 166.5q142 0 223.5 -30.5t142.5 -92.5l169 145l57 -67l-175 -149q48 -87 53.5 -185.5t-14.5 -193.5q-56 -264 -242.5 -428.5t-452.5 -164.5q-132 0 -226 44q-53 25 -108 77l-166 -142zM464.5 451 q-3.5 -49 6.5 -84l508 441q-26 44 -92 64q-41 12 -82 12q-119 0 -206.5 -89.5t-120.5 -245.5q-10 -49 -13.5 -98zM504 279q33 -41 58 -56q41 -24 111 -24q123 0 207 96t115 244q11 50 13 81.5t2 97.5z" />
<glyph unicode="&#xf9;" horiz-adv-x="1251" d="M203 150q-26 96 14 283l139 657h292l-139 -657q-20 -93 -8 -140q21 -83 135 -83q146 0 225 118q42 64 64 169l126 593h289l-231 -1090h-277l32 154q-5 -5 -26 -30t-47 -44q-80 -60 -147.5 -82t-151.5 -22q-242 0 -289 174zM603 1536h317l128 -299h-206z" />
<glyph unicode="&#xfa;" horiz-adv-x="1251" d="M203 150q-26 96 14 283l139 657h292l-139 -657q-20 -93 -8 -140q21 -83 135 -83q146 0 225 118q42 64 64 169l126 593h289l-231 -1090h-277l32 154q-5 -5 -26 -30t-47 -44q-80 -60 -147.5 -82t-151.5 -22q-242 0 -289 174zM710 1237l256 299h318l-368 -299h-206z" />
<glyph unicode="&#xfb;" horiz-adv-x="1251" d="M203 150q-26 96 14 283l139 657h292l-139 -657q-20 -93 -8 -140q21 -83 135 -83q146 0 225 118q42 64 64 169l126 593h289l-231 -1090h-277l32 154q-5 -5 -26 -30t-47 -44q-80 -60 -147.5 -82t-151.5 -22q-242 0 -289 174zM516 1237l299 299h256l170 -299h-232l-94 168 l-167 -168h-232z" />
<glyph unicode="&#xfc;" horiz-adv-x="1251" d="M203 150q-26 96 14 283l139 657h292l-139 -657q-20 -93 -8 -140q21 -83 135 -83q146 0 225 118q42 64 64 169l126 593h289l-231 -1090h-277l32 154q-5 -5 -26 -30t-47 -44q-80 -60 -147.5 -82t-151.5 -22q-242 0 -289 174zM552 1256l51 237h261l-51 -237h-261zM952 1256 l51 237h261l-51 -237h-261z" />
<glyph unicode="&#xfd;" d="M84 -437l48 228l36 -2q41 -2 80 3t69 23q29 17 62 71t31 66l-158 1138h317l67 -804l396 804h303l-602 -1072q-174 -310 -252.5 -384.5t-267.5 -74.5q-38 0 -61 0.5t-68 3.5zM656 1237l256 299h318l-368 -299h-206z" />
<glyph unicode="&#xfe;" horiz-adv-x="1251" d="M37 -427l403 1899h284l-112 -529q70 89 156.5 132.5t188.5 43.5q210 0 305 -141.5t35 -425.5q-52 -245 -205.5 -413t-374.5 -168q-87 0 -141 23q-93 39 -134 150l-121 -571h-284zM520 543q-33 -156 9 -245t163 -89q154 0 243 150q46 78 71 194q31 146 -16 230t-163 84 q-97 0 -184 -77t-123 -247z" />
<glyph unicode="&#xff;" d="M84 -437l48 228l36 -2q41 -2 80 3t69 23q29 17 62 71t31 66l-158 1138h317l67 -804l396 804h303l-602 -1072q-174 -310 -252.5 -384.5t-267.5 -74.5q-38 0 -61 0.5t-68 3.5zM498 1256l51 237h261l-51 -237h-261zM898 1256l51 237h261l-51 -237h-261z" />
<glyph unicode="&#x152;" horiz-adv-x="2048" d="M231 734q72 343 309 588q202 183 452 183q127 0 210 -48q46 -26 94 -85l21 97h962l-55 -256h-683l-68 -322h636l-53 -247h-636l-81 -384h683l-55 -260h-962l21 101q-69 -78 -161.5 -108.5t-198.5 -30.5q-252 0 -375 184q-133 245 -60 588zM529 720q-45 -209 10 -359.5 t230 -150.5q112 0 199.5 60.5t102.5 129.5l139 654q16 78 -40 135t-184 57q-178 0 -295 -155t-162 -371z" />
<glyph unicode="&#x153;" horiz-adv-x="1933" d="M176 536q58 273 239.5 425.5t424.5 152.5q144 0 228 -44t129 -115q97 78 162 109q105 50 243 50q127 0 218.5 -51t142.5 -147q42 -77 36 -200q-1 -80 -36 -242h-745q-21 -127 20.5 -203.5t147.5 -76.5q89 0 150 28.5t96 99.5h284q-49 -141 -199.5 -248.5t-386.5 -107.5 q-135 0 -223 55q-51 32 -105 102q-69 -64 -137 -98q-121 -61 -281 -61q-244 0 -353 159t-55 413zM472 542q-37 -172 5 -261t161 -89q144 0 224 98t112 247q34 162 -3.5 254.5t-180.5 92.5q-157 0 -245 -145q-48 -76 -73 -197zM1260 658h452q16 83 -3 136q-35 99 -180 99 q-66 0 -123 -29q-108 -57 -146 -206z" />
<glyph unicode="&#x178;" horiz-adv-x="1366" d="M348 1474h363l169 -642l430 642h349l-689 -920l-117 -554h-308l117 554zM701 1611l51 237h261l-51 -237h-261zM1101 1611l51 237h261l-51 -237h-261z" />
<glyph unicode="&#x2c6;" horiz-adv-x="682" d="M188 1237l299 299h256l170 -299h-232l-94 168l-167 -168h-232z" />
<glyph unicode="&#x2dc;" horiz-adv-x="682" d="M177 1251q44 103 91 156q84 95 210 95q27 0 51.5 -6t41.5 -13l86 -35q39 -14 51.5 -18t28.5 -4q48 0 72.5 25.5t41.5 60.5h133q-40 -105 -109 -176t-172 -71q-31 0 -84 15q-32 8 -60 18l-75 27q-16 6 -31.5 8.5t-31.5 2.5q-38 0 -66 -22q-29 -23 -48 -63h-130z" />
<glyph unicode="&#x2000;" horiz-adv-x="983" />
<glyph unicode="&#x2001;" horiz-adv-x="1966" />
<glyph unicode="&#x2002;" horiz-adv-x="983" />
<glyph unicode="&#x2003;" horiz-adv-x="1966" />
<glyph unicode="&#x2004;" horiz-adv-x="655" />
<glyph unicode="&#x2005;" horiz-adv-x="491" />
<glyph unicode="&#x2006;" horiz-adv-x="327" />
<glyph unicode="&#x2007;" horiz-adv-x="327" />
<glyph unicode="&#x2008;" horiz-adv-x="245" />
<glyph unicode="&#x2009;" horiz-adv-x="393" />
<glyph unicode="&#x200a;" horiz-adv-x="109" />
<glyph unicode="&#x2010;" horiz-adv-x="682" d="M139 436l58 270h574l-58 -270h-574z" />
<glyph unicode="&#x2011;" horiz-adv-x="682" d="M139 436l58 270h574l-58 -270h-574z" />
<glyph unicode="&#x2012;" horiz-adv-x="682" d="M139 436l58 270h574l-58 -270h-574z" />
<glyph unicode="&#x2013;" d="M93 464l46 218h1147l-46 -218h-1147z" />
<glyph unicode="&#x2014;" horiz-adv-x="2048" d="M339 464l46 218h1565l-46 -218h-1565z" />
<glyph unicode="&#x2018;" horiz-adv-x="569" d="M333 926l45 211q33 153 123.5 238.5t231.5 112.5l-22 -104q-110 -30 -161 -112q-28 -44 -33 -83h156l-56 -263h-284z" />
<glyph unicode="&#x2019;" horiz-adv-x="569" d="M329 907l23 105q104 31 157 105q29 44 36 89h-157l56 263h285l-45 -211q-32 -151 -124 -238t-231 -113z" />
<glyph unicode="&#x201a;" horiz-adv-x="569" d="M79 -337l23 109q90 28 134 75t67 153h-157l61 289h290l-50 -237q-26 -116 -63 -180q-59 -99 -150 -151q-53 -30 -155 -58z" />
<glyph unicode="&#x201c;" horiz-adv-x="1024" d="M335 926l45 211q32 150 122 237t233 114l-22 -104q-109 -32 -161 -110q-26 -41 -33 -85h157l-56 -263h-285zM809 926l45 211q32 152 124 238t231 113l-22 -104q-108 -31 -160 -112q-29 -43 -34 -83h157l-56 -263h-285z" />
<glyph unicode="&#x201d;" horiz-adv-x="1024" d="M348 907l23 105q107 32 159 110q28 41 34 84h-157l56 263h285l-45 -211q-31 -147 -121.5 -236t-233.5 -115zM820 907l23 105q109 31 161 114q21 33 31 80h-156l56 263h284l-45 -211q-30 -143 -119 -233.5t-235 -117.5z" />
<glyph unicode="&#x201e;" horiz-adv-x="1024" d="M79 -337l23 109q90 28 134 75t67 153h-157l61 289h290l-50 -237q-26 -116 -63 -180q-59 -99 -150 -151q-53 -30 -155 -58zM527 -337l23 109q105 28 155 105q29 44 46 123h-157l61 289h290l-50 -237q-31 -124 -64 -185q-39 -70 -120.5 -126.5t-183.5 -77.5z" />
<glyph unicode="&#x2022;" horiz-adv-x="717" d="M235 734q20 96 95.5 158t171.5 62t145.5 -62t29.5 -158q-21 -96 -97 -159t-172 -63t-145 63t-28 159z" />
<glyph unicode="&#x2026;" horiz-adv-x="2048" d="M189 0l63 298h306l-63 -298h-306zM872 0l63 298h306l-63 -298h-306zM1554 0l63 298h306l-63 -298h-306z" />
<glyph unicode="&#x202f;" horiz-adv-x="393" />
<glyph unicode="&#x2039;" horiz-adv-x="682" d="M264 444l50 238l405 294l-51 -238l-241 -175l167 -174l-50 -238z" />
<glyph unicode="&#x203a;" horiz-adv-x="682" d="M202 151l50 238l241 174l-167 175l51 238l279 -294l-50 -238z" />
<glyph unicode="&#x205f;" horiz-adv-x="491" />
<glyph unicode="&#x20ac;" horiz-adv-x="1524" d="M157 419l84 201h247q7 50 19 105q10 48 23 94h-288l84 201h274q80 179 207 300q190 182 424 182q312 0 405 -244q51 -137 27 -275h-259q-2 106 -31 160q-49 96 -188 96q-141 0 -252 -136q-30 -37 -56 -83h397l-84 -201h-395q-13 -47 -24 -99q-12 -53 -19 -100h370 l-84 -201h-283q7 -39 22 -71q60 -123 193 -123q136 0 230 106q52 57 102 171h256q-85 -241 -255 -392t-386 -151q-267 0 -377 204q-57 107 -63 256h-320z" />
<glyph unicode="&#x2122;" horiz-adv-x="2048" d="M478 1296l38 178h655l-38 -178h-221l-120 -564h-216l120 564h-218zM1079 732l158 742h308l44 -427l224 427h308l-158 -742h-197l114 538l-275 -538h-168l-47 538l-114 -538h-197z" />
</font>
</defs>
</svg>
