<?xml version="1.0" standalone="no"?>
<!DOCTYPE svg PUBLIC "-//W3C//DTD SVG 1.1//EN" "http://www.w3.org/Graphics/SVG/1.1/DTD/svg11.dtd" >
<svg>
<metadata>
Created by FontForge 20090622 at Mon May 27 10:04:32 2019
 By deploy user
Digitized data copyright The Monotype Corporation 1991-1995. All rights reserved. Perpetua&#194;&#174; is a trademark of The Monotype Corporation which may be registered in certain jurisdictions.
</metadata>
<defs>
<font id="Perpetua-Bold" horiz-adv-x="938" >
  <font-face 
    font-family="Perpetua"
    font-weight="700"
    font-stretch="normal"
    units-per-em="2048"
    panose-1="2 2 8 2 6 4 1 2 3 3"
    ascent="1638"
    descent="-410"
    x-height="772"
    cap-height="1198"
    bbox="-322 -633 2087 1878"
    underline-thickness="102"
    underline-position="-103"
    unicode-range="U+0020-U+F003"
  />
<missing-glyph horiz-adv-x="2048" 
d="M256 0v1536h1536v-1536h-1536zM384 128h1280v1280h-1280v-1280z" />
    <glyph glyph-name=".notdef" horiz-adv-x="2048" 
d="M256 0v1536h1536v-1536h-1536zM384 128h1280v1280h-1280v-1280z" />
    <glyph glyph-name="glyph1" horiz-adv-x="0" 
 />
    <glyph glyph-name="glyph2" horiz-adv-x="461" 
 />
    <glyph glyph-name="space" unicode=" " horiz-adv-x="461" 
 />
    <glyph glyph-name="exclam" unicode="!" horiz-adv-x="532" 
d="M37 1225v35q97 22 252 22q65 0 91 -19t26 -67q0 -61 -55 -349q-60 -314 -75 -448h-30q-51 293 -79 614q-14 161 -31 188t-61 27q-13 0 -38 -3zM268 272q63 0 107.5 -44t44.5 -107t-44.5 -107.5t-107.5 -44.5t-107 44.5t-44 107.5t44 107t107 44z" />
    <glyph glyph-name="quotedbl" unicode="&#x22;" horiz-adv-x="1137" 
d="M770 698h-43l-53 295q-23 150 -23 170q0 119 97 119q45 0 74.5 -29.5t29.5 -76.5q0 -34 -27 -183zM403 698h-43l-53 295q-22 143 -22 170q0 119 96 119q45 0 74.5 -29.5t29.5 -76.5q0 -40 -26 -183z" />
    <glyph glyph-name="numbersign" unicode="#" horiz-adv-x="1368" 
d="M94 977h322l84 399h127l-84 -399h415l84 399h127l-84 -399h189v-127h-215l-80 -369h295v-127h-322l-84 -399h-127l84 399h-415l-84 -399h-127l84 399h-189v127h215l80 369h-295v127zM852 481l80 369h-416l-80 -369h416z" />
    <glyph glyph-name="dollar" unicode="$" 
d="M426 1260h53v-87q180 -6 299 -114l-26 -234h-35q-9 138 -70 211.5t-168 75.5v-397q224 -148 296.5 -240.5t72.5 -202.5q0 -133 -103 -218t-266 -85v-211h-53v211q-212 6 -336 133l43 236h35q32 -289 258 -307v434q-193 136 -260.5 220t-67.5 183q0 123 95 211t233 94v87z
M426 754v358q-74 -6 -123 -48t-49 -99q0 -97 172 -211zM479 428v-397q89 3 145 49.5t56 116.5q0 55 -44 107.5t-157 123.5z" />
    <glyph glyph-name="percent" unicode="%" horiz-adv-x="1622" 
d="M1208 311q0 -282 97 -282q50 0 73 73t23 236q0 256 -96 256q-97 0 -97 -283zM1036 311q0 154 71.5 241t197.5 87q122 0 194 -85t72 -228q0 -164 -69 -253t-197 -89q-126 0 -197.5 87t-71.5 240zM1169 1225h134l-852 -1241h-134zM49 901q0 154 71.5 241t196.5 87
q122 0 194.5 -85t72.5 -229q0 -164 -69.5 -253t-197.5 -89q-125 0 -196.5 87t-71.5 241zM221 901q0 -283 96 -283q51 0 74 73.5t23 236.5q0 256 -97 256q-96 0 -96 -283z" />
    <glyph glyph-name="ampersand" unicode="&#x26;" horiz-adv-x="1579" 
d="M289 942q0 125 106.5 206t282.5 81q160 0 250 -62.5t90 -173.5q0 -100 -77 -176.5t-208 -103.5q203 -210 305 -336q78 140 78 219q0 88 -78 117v35h353v-35q-59 -16 -101.5 -60.5t-123.5 -198.5q-45 -88 -74 -139q100 -115 165 -159.5t127 -44.5q55 0 101 43l26 -23
q-99 -162 -297 -162q-83 0 -148 32t-144 112q-195 -144 -406 -144q-175 0 -285 87.5t-110 226.5q0 233 315 376q-79 88 -113 153t-34 130zM516 1020q0 -53 35 -108t125 -140q54 16 87.5 55.5t33.5 87.5q0 92 -48.5 160t-113.5 68q-54 0 -86.5 -33.5t-32.5 -89.5zM377 420
q0 -133 87.5 -230.5t207.5 -97.5q103 0 202 78q-274 335 -385 434q-63 -44 -87.5 -85t-24.5 -99z" />
    <glyph glyph-name="quotesingle" unicode="'" horiz-adv-x="569" 
d="M303 698h-43l-53 295q-23 150 -23 170q0 119 97 119q45 0 74.5 -29.5t29.5 -76.5q0 -56 -27 -183z" />
    <glyph glyph-name="parenleft" unicode="(" horiz-adv-x="748" 
d="M694 -610l-20 -23q-303 195 -427 415t-124 544q0 325 128 548t423 408l20 -22q-165 -167 -240 -389.5t-75 -546.5t71.5 -535t243.5 -399z" />
    <glyph glyph-name="parenright" unicode=")" horiz-adv-x="748" 
d="M76 -633l-23 23q170 180 243 393.5t73 542.5q0 331 -72 540.5t-244 393.5l23 22q285 -173 417 -403t132 -553q0 -320 -126.5 -546t-422.5 -413z" />
    <glyph glyph-name="asterisk" unicode="*" horiz-adv-x="1044" 
d="M393 944l45 -45q31 -26 70 -43q-10 56 -46 135q-46 101 -46 174q0 48 33 82.5t79 34.5q47 0 78 -34t31 -85q0 -76 -48 -173q-29 -60 -35.5 -79t-10.5 -55q59 35 104 78q118 110 199 110q47 0 78.5 -30.5t31.5 -75.5q0 -55 -45.5 -88t-119.5 -33q-60 0 -117 8l-64 6
q-18 0 -57 -8q30 -36 108 -81q103 -59 136.5 -101.5t33.5 -85.5q0 -41 -32 -73.5t-72 -32.5q-126 0 -164 233l-10 53q-6 34 -27 70q-21 -35 -27.5 -53.5t-16.5 -75.5q-19 -97 -55 -162t-108 -65q-43 0 -74.5 31.5t-31.5 74.5q0 100 172 190q51 26 66 37t47 41q-27 6 -58 6
l-176 -8q-83 0 -128.5 31t-45.5 88q0 45 33 78t78 33q70 0 192 -107z" />
    <glyph glyph-name="plus" unicode="+" horiz-adv-x="1366" 
d="M137 606v127h481v481h127v-481h482v-127h-482v-481h-127v481h-481z" />
    <glyph glyph-name="comma" unicode="," horiz-adv-x="532" 
d="M88 -371v35q195 69 195 232q0 27 -11 52t-26 25q-3 0 -13 -2q-14 -2 -22 -2q-49 0 -84 41.5t-35 98.5q0 64 42.5 104.5t109.5 40.5q84 0 143 -75.5t59 -182.5q0 -132 -110 -244.5t-248 -122.5z" />
    <glyph glyph-name="hyphen" unicode="-" horiz-adv-x="748" 
d="M68 473h612v-172h-612v172z" />
    <glyph glyph-name="period" unicode="." horiz-adv-x="532" 
d="M266 272q63 0 107.5 -44t44.5 -107t-44.5 -107.5t-107.5 -44.5t-107 44.5t-44 107.5t44 107t107 44z" />
    <glyph glyph-name="slash" unicode="/" horiz-adv-x="1087" 
d="M166 -31l606 1241h150l-607 -1241h-149z" />
    <glyph glyph-name="zero" unicode="0" 
d="M899 610q0 -296 -114.5 -468.5t-311.5 -172.5q-198 0 -317 164t-119 436q0 312 114 486t318 174q200 0 315 -165.5t115 -453.5zM651 623q0 289 -44.5 416.5t-137.5 127.5q-96 0 -140 -141.5t-44 -478.5q0 -248 47 -382t135 -134q96 0 140 133t44 459z" />
    <glyph glyph-name="one" unicode="1" 
d="M240 0v27q72 11 99.5 43t27.5 133v719q0 49 -5.5 63t-25.5 14q-8 0 -37 -6q-75 -15 -125 -16v24q139 39 387 228h29v-1026q0 -95 23 -128t100 -48v-27h-473z" />
    <glyph glyph-name="two" unicode="2" 
d="M266 160h611v-160h-818v49l105 96q165 150 228.5 228.5t103.5 137.5q114 167 114 320q0 114 -57 186.5t-147 72.5q-83 0 -147 -60.5t-83 -157.5h-26q22 171 113 264t237 93q156 0 254 -99.5t98 -236.5q0 -144 -124 -302.5t-462 -426.5v-4z" />
    <glyph glyph-name="three" unicode="3" 
d="M541 915q0 95 -60.5 155t-136.5 60q-77 0 -174 -94l-16 17q43 82 127 129t186 47q131 0 216 -79t85 -200q0 -102 -77 -184.5t-208 -118.5v-4q153 -10 240.5 -95.5t87.5 -223.5q0 -154 -111.5 -254.5t-281.5 -100.5q-211 0 -334 160l16 16q126 -98 230 -98q103 0 168 71
t65 183q0 128 -76.5 210t-208.5 82q-24 0 -51 -3v33q314 64 314 292z" />
    <glyph glyph-name="four" unicode="4" 
d="M897 295h-233v-322h-211v322h-433v45l609 889h35v-823h233v-111zM164 406h289v436h-4z" />
    <glyph glyph-name="five" unicode="5" 
d="M799 989h-477v-319q46 12 102 12q180 0 291.5 -98t111.5 -256q0 -160 -111.5 -259.5t-291.5 -99.5q-228 0 -356 178l16 15q124 -94 248 -94q107 0 177.5 67t70.5 168q0 98 -68 159.5t-176 61.5q-45 0 -107 -12v686h570v-209z" />
    <glyph glyph-name="six" unicode="6" 
d="M799 1225v-27q-213 -33 -343.5 -204t-138.5 -404q138 67 254 67q136 0 228 -92.5t92 -228.5q0 -158 -116 -262.5t-292 -104.5q-193 0 -313.5 131.5t-120.5 341.5t101 390.5t276.5 286.5t372.5 106zM668 289q0 110 -53 188t-142 78q-91 0 -170 -70q-6 -34 -6 -92
q0 -166 54 -264t143 -98q72 0 123 75.5t51 182.5z" />
    <glyph glyph-name="seven" unicode="7" 
d="M233 -31l504 1012h-504q-57 0 -85.5 -26t-65.5 -115h-29l99 401h26q3 -26 12 -34.5t31 -8.5h678l-410 -1229h-256z" />
    <glyph glyph-name="eight" unicode="8" 
d="M111 887q0 150 103 246t263 96q151 0 245.5 -80t94.5 -209q0 -79 -41 -138.5t-155 -144.5q137 -95 188 -166.5t51 -171.5q0 -155 -110 -252.5t-304 -97.5q-164 0 -266 82t-102 213q0 201 252 309q-120 79 -169.5 150t-49.5 164zM268 999q0 -132 287 -297
q62 62 84.5 107.5t22.5 110.5q0 106 -62.5 176.5t-157.5 70.5q-71 0 -122.5 -49.5t-51.5 -118.5zM244 279q0 -106 67 -177t166 -71q81 0 142 53.5t61 124.5q0 164 -295 323q-141 -103 -141 -253z" />
    <glyph glyph-name="nine" unicode="9" 
d="M141 -31v27q207 34 333.5 195t148.5 413q-141 -67 -256 -67q-135 0 -226.5 93t-91.5 230q0 157 116 261t290 104q194 0 315 -131.5t121 -341.5q0 -202 -102 -387t-273.5 -290.5t-374.5 -105.5zM272 907q0 -121 52.5 -193.5t140.5 -72.5q90 0 170 68q8 48 8 92
q0 166 -54 264t-145 98q-71 0 -121.5 -75t-50.5 -181z" />
    <glyph glyph-name="colon" unicode=":" horiz-adv-x="532" 
d="M266 842q63 0 107.5 -44.5t44.5 -107.5t-44.5 -107t-107.5 -44t-107 44t-44 107t44 107.5t107 44.5zM266 272q63 0 107.5 -44t44.5 -107t-44.5 -107.5t-107.5 -44.5t-107 44.5t-44 107.5t44 107t107 44z" />
    <glyph glyph-name="semicolon" unicode=";" horiz-adv-x="532" 
d="M88 -371v35q195 69 195 232q0 27 -11 52t-26 25q-3 0 -13 -2q-14 -2 -22 -2q-49 0 -84 41.5t-35 98.5q0 64 42.5 104.5t109.5 40.5q84 0 143 -75.5t59 -182.5q0 -132 -110 -244.5t-248 -122.5zM266 842q63 0 107.5 -44.5t44.5 -107.5t-44.5 -107t-107.5 -44t-107 44
t-44 107t44 107.5t107 44.5z" />
    <glyph glyph-name="less" unicode="&#x3c;" horiz-adv-x="1366" 
d="M1225 147l-1086 457v119l1086 457v-142l-910 -374l910 -375v-142z" />
    <glyph glyph-name="equal" unicode="=" horiz-adv-x="1366" 
d="M137 840v127h1090v-127h-1090zM137 367v127h1090v-127h-1090z" />
    <glyph glyph-name="greater" unicode="&#x3e;" horiz-adv-x="1366" 
d="M1227 723v-119l-1086 -457v142l910 375l-910 374v142z" />
    <glyph glyph-name="question" unicode="?" horiz-adv-x="748" 
d="M94 1012l-28 26q28 109 108.5 176.5t181.5 67.5q131 0 228.5 -103.5t97.5 -242.5q0 -74 -24 -146t-68 -127t-140 -113q-78 -47 -101.5 -84t-24.5 -91h-35q-19 47 -19 90q0 34 15.5 66t67.5 91q69 78 91.5 132t22.5 116q0 95 -62.5 162.5t-150.5 67.5q-94 0 -160 -88z
M322 272q63 0 107 -44t44 -107t-44 -107.5t-107 -44.5t-107.5 44.5t-44.5 107.5t44.5 107t107.5 44z" />
    <glyph glyph-name="at" unicode="@" horiz-adv-x="1905" 
d="M1081 311l-4 4q-209 -284 -389 -284q-76 0 -129 67t-53 164q0 147 87 311.5t220.5 277t243.5 112.5q70 0 115.5 -36.5t56.5 -101.5h4l31 111l157 20l-184 -632q-27 -101 -27 -146q0 -32 21.5 -54t52.5 -22q101 0 202.5 94.5t162.5 245.5t61 314q0 270 -182.5 443
t-466.5 173q-240 0 -435 -126t-309 -351t-114 -477q0 -353 218.5 -577t563.5 -224q272 0 481 144t324 411h57q-87 -279 -325.5 -446.5t-540.5 -167.5q-246 0 -446 114.5t-313 318t-113 453.5q0 268 125.5 494t344 355.5t476.5 129.5q319 0 516.5 -190t197.5 -496
q0 -180 -74.5 -349t-198.5 -263t-277 -94q-154 0 -154 137q0 54 16 143zM1071 917q-80 0 -172 -101t-162.5 -261t-70.5 -260q0 -59 34 -101t82 -42q126 0 268 198.5t142 427.5q0 62 -33.5 100.5t-87.5 38.5z" />
    <glyph glyph-name="A" unicode="A" horiz-adv-x="1366" 
d="M756 0v35q74 14 104.5 34.5t30.5 57.5q0 30 -23 92l-69 184h-426l-60 -159q-23 -61 -23 -98q0 -79 120 -111v-35h-387v35q70 12 122 73t103 199l344 922h164l364 -959q50 -128 98 -178.5t125 -56.5v-35h-587zM410 489h356l-182 486z" />
    <glyph glyph-name="B" unicode="B" horiz-adv-x="1260" 
d="M788 0h-722v35q94 19 122.5 54.5t28.5 113.5v796q0 82 -31.5 116.5t-119.5 47.5v35h632q194 0 303 -73.5t109 -207.5q0 -208 -266 -282v-4q340 -62 340 -316q0 -141 -108 -228t-288 -87zM481 1130v-481h97q115 0 180 64t65 178q0 239 -264 239h-78zM623 582h-142v-367
q0 -80 40 -113.5t134 -33.5q113 0 177.5 67.5t64.5 186.5q0 118 -72.5 189t-201.5 71z" />
    <glyph glyph-name="C" unicode="C" horiz-adv-x="1260" 
d="M1182 780h-33q-41 181 -148 281t-260 100q-167 0 -265.5 -141t-98.5 -379q0 -265 115 -410t317 -145q109 0 200 45t185 145v-63q-178 -244 -485 -244q-275 0 -447 170.5t-172 442.5q0 276 185.5 461.5t461.5 185.5q113 0 255 -50q61 -22 83 -22q44 0 74 62h33v-439z" />
    <glyph glyph-name="D" unicode="D" horiz-adv-x="1473" 
d="M63 0v35q95 26 123.5 57.5t28.5 136.5v764q0 81 -28.5 113t-123.5 57v35h613q334 0 527.5 -169t193.5 -445q0 -266 -173 -425t-468 -159h-693zM635 1130h-156v-921q0 -77 45 -109t150 -32q208 0 322 138t114 390q0 247 -125 390.5t-350 143.5z" />
    <glyph glyph-name="E" unicode="E" horiz-adv-x="1044" 
d="M858 784h39v-370h-39q-21 153 -166 153h-211v-352q0 -81 37 -114t127 -33h70q176 0 252 223h34l-22 -291h-913v35q91 19 121 54.5t30 137.5v770q0 84 -31 116.5t-120 49.5v35h899v-266h-35q-30 117 -74.5 157.5t-142.5 40.5h-232v-495h211q72 0 110 34t56 115z" />
    <glyph glyph-name="F" unicode="F" horiz-adv-x="981" 
d="M870 793h35v-371h-35q-14 80 -57 114.5t-129 34.5h-186v-370q0 -80 32 -116t115 -50v-35h-563v35q89 14 120 52.5t31 141.5v772q0 73 -29.5 105t-121.5 57v35h850l24 -225h-34q-32 84 -82 120.5t-135 36.5h-207v-491h186q81 0 121.5 33t64.5 121z" />
    <glyph glyph-name="G" unicode="G" horiz-adv-x="1366" 
d="M1202 1198v-336h-37q-53 137 -164.5 218t-246.5 81q-182 0 -281.5 -155t-99.5 -437q0 -260 99 -396t286 -136q180 0 180 127v178q0 123 -123 147v35h504v-35q-66 -18 -91.5 -57.5t-25.5 -122.5v-254q-180 -86 -465 -86q-190 0 -337 79t-230.5 224.5t-83.5 317.5
q0 275 185 457t466 182q111 0 242 -47q69 -25 100 -25q46 0 86 41h37z" />
    <glyph glyph-name="H" unicode="H" horiz-adv-x="1579" 
d="M1077 229v353h-575v-379q0 -82 28 -113.5t119 -54.5v-35h-563v35q64 16 95.5 35t44 48.5t12.5 110.5v766q0 81 -29.5 113.5t-122.5 54.5v35h563v-35q-87 -20 -117 -53.5t-30 -105.5v-336h575v327q0 81 -29 113.5t-120 54.5v35h565v-35q-96 -25 -124 -56.5t-28 -137.5
v-766q0 -80 29 -112.5t123 -55.5v-35h-565v35q87 20 118 54.5t31 139.5z" />
    <glyph glyph-name="I" unicode="I" horiz-adv-x="748" 
d="M657 1198v-35q-89 -20 -120 -53.5t-31 -138.5v-768q0 -81 29 -113t122 -55v-35h-567v35q64 16 95.5 35t44 48t12.5 111v766q0 81 -29.5 113.5t-122.5 54.5v35h567z" />
    <glyph glyph-name="J" unicode="J" horiz-adv-x="811" 
d="M729 1198v-35q-94 -25 -121.5 -55.5t-27.5 -136.5v-1061q0 -176 -89 -274.5t-251 -98.5q-126 0 -213 69t-101 181h35q60 -115 178 -115q95 0 135.5 64.5t40.5 220.5v1034q0 86 -29.5 119t-123.5 53v35h567z" />
    <glyph glyph-name="K" unicode="K" horiz-adv-x="1343" 
d="M897 963l-223 -211l479 -590q60 -74 94 -98t84 -29v-35h-547v35q83 19 83 57q0 21 -25 51l-375 465v-391q0 -87 24.5 -119.5t124.5 -62.5v-35h-565v35q95 22 123.5 56t28.5 118v786q0 82 -29.5 114t-122.5 54v35h565v-35q-87 -20 -118 -54.5t-31 -98.5v-355l369 355
q37 35 37 69q0 58 -111 84v35h498v-35q-84 0 -165.5 -44.5t-197.5 -155.5z" />
    <glyph glyph-name="L" unicode="L" horiz-adv-x="1044" 
d="M637 1198v-35q-96 -24 -124 -55t-28 -104v-807q0 -75 39.5 -102t149.5 -27q115 0 178.5 50.5t132.5 192.5h35l-35 -311h-915v35q96 24 123.5 57t27.5 137v766q0 81 -29.5 113.5t-121.5 54.5v35h567z" />
    <glyph glyph-name="M" unicode="M" horiz-adv-x="1855" 
d="M1663 1198v-35q-73 -13 -106 -46.5t-33 -95.5q0 -23 4 -52l108 -748q12 -82 55.5 -126t127.5 -60v-35h-592v35q74 19 106 59t32 115q0 37 -7 90l-98 684l-394 -983h-43l-389 983l-104 -704q-6 -42 -6 -76q0 -157 147 -168v-35h-434v35q95 4 143 63.5t70 200.5l119 782
q-76 79 -174 82v35h432l313 -790l317 790h406z" />
    <glyph glyph-name="N" unicode="N" horiz-adv-x="1366" 
d="M934 1163v35h405v-35q-174 -10 -174 -196v-981h-39l-862 972v-733q0 -96 35 -134.5t141 -55.5v-35h-413v35q84 13 120.5 57.5t36.5 138.5v813q-70 72 -96.5 92t-62.5 27v35h360l700 -803v539q0 119 -31.5 164.5t-119.5 64.5z" />
    <glyph glyph-name="O" unicode="O" horiz-adv-x="1473" 
d="M1389 598q0 -275 -184 -452t-470 -177q-285 0 -468 177t-183 452t183.5 453t467.5 178q286 0 470 -178t184 -453zM1102 590q0 279 -93.5 425t-273.5 146q-178 0 -271 -146t-93 -427q0 -261 94 -406t270 -145q173 0 270 144t97 409z" />
    <glyph glyph-name="P" unicode="P" horiz-adv-x="1110" 
d="M61 1198h615q190 0 299.5 -88t109.5 -229q0 -152 -121.5 -249t-334.5 -97q-74 0 -152 10v-342q0 -81 32.5 -117t117.5 -51v-35h-566v35q91 18 121.5 54.5t30.5 127.5v782q0 82 -29 113t-123 51v35zM578 1130h-101v-514q46 -14 88 -14q110 0 172 70.5t62 197.5
q0 116 -61 188t-160 72z" />
    <glyph glyph-name="Q" unicode="Q" horiz-adv-x="1473" 
d="M936 -4l276 -272q75 -75 132.5 -98.5t156.5 -24.5v-37q-91 -25 -198 -25q-147 0 -259.5 50t-228.5 167l-160 162q-50 51 -159 92q-141 53 -227.5 136t-135.5 203.5t-49 250.5q0 274 183.5 451.5t467.5 177.5q285 0 469.5 -177.5t184.5 -451.5q0 -217 -121 -380t-332 -224
zM1102 600q0 267 -96 414t-271 147q-177 0 -270.5 -148.5t-93.5 -426.5q0 -260 94 -404.5t270 -144.5q175 0 271 147t96 416z" />
    <glyph glyph-name="R" unicode="R" horiz-adv-x="1343" 
d="M55 0v35q152 12 152 153v811q0 83 -31.5 115t-120.5 49v35h570q224 0 344.5 -79t120.5 -222q0 -103 -62.5 -177t-179.5 -108v-4q42 -10 91 -69.5t142 -233.5q91 -169 132.5 -214t113.5 -56v-35h-346q-68 80 -174 291q-73 145 -108.5 193t-74 67.5t-153.5 19.5v-368
q0 -79 35 -117.5t119 -50.5v-35h-570zM553 1130h-82v-491q31 -2 58 -2q143 0 208.5 61.5t65.5 194.5q0 237 -250 237z" />
    <glyph glyph-name="S" unicode="S" 
d="M782 1229v-316h-34q-35 105 -120.5 176.5t-176.5 71.5q-82 0 -139.5 -47t-57.5 -115q0 -33 15 -65.5t43.5 -60.5t183.5 -125q158 -97 204 -135t88 -97q64 -91 64 -199q0 -160 -112.5 -254t-272.5 -94q-86 0 -205 31q-63 16 -88 16q-42 0 -61 -39h-35v361h35
q27 -140 112 -220.5t209 -80.5q96 0 158.5 48t62.5 122q0 60 -40 113.5t-214 157.5q-160 96 -212 148t-78.5 116.5t-26.5 136.5q0 154 105.5 252t271.5 98q51 0 123 -17q72 -16 102 -16q29 0 62 33h34z" />
    <glyph glyph-name="T" unicode="T" horiz-adv-x="1153" 
d="M856 35v-35h-563v35q89 17 120 52t31 128v915h-120q-109 0 -172.5 -47t-94.5 -149h-34l12 289h37q39 -25 118 -25h773q81 0 118 25h37l12 -289h-34q-31 102 -94.5 149t-172.5 47h-120v-917q0 -88 31 -125.5t116 -52.5z" />
    <glyph glyph-name="U" unicode="U" horiz-adv-x="1473" 
d="M1004 0v160q-110 -110 -191.5 -150.5t-194.5 -40.5q-188 0 -299.5 108t-111.5 290v628q0 81 -29.5 113.5t-122.5 54.5v35h568v-35q-91 -21 -121.5 -54.5t-30.5 -123.5v-670q0 -110 60 -172.5t165 -62.5q148 0 308 166v749q0 81 -29 113t-123 55v35h567v-35
q-87 -18 -119 -52.5t-32 -139.5v-768q0 -81 29 -113t122 -55v-35h-415z" />
    <glyph glyph-name="V" unicode="V" horiz-adv-x="1260" 
d="M1231 1198v-35q-73 -15 -118 -60.5t-89 -160.5l-369 -973h-39l-378 961q-52 131 -93 176t-118 57v35h544v-35q-100 -17 -100 -87q0 -32 21 -85l239 -608l213 575q19 53 19 90q0 95 -129 115v35h397z" />
    <glyph glyph-name="W" unicode="W" horiz-adv-x="1898" 
d="M1872 1198v-35q-73 -8 -126.5 -72.5t-98.5 -199.5l-314 -922h-37l-352 944l-317 -944h-35l-373 1002q-44 117 -78 151.5t-112 40.5v35h516v-35q-79 -15 -79 -85q0 -32 17 -81l217 -577l205 606q-32 74 -64 99.5t-106 37.5v35h510v-35q-76 -21 -76 -85q0 -24 11 -52
l227 -606l166 493q31 94 31 142q0 88 -105 108v35h373z" />
    <glyph glyph-name="X" unicode="X" horiz-adv-x="1366" 
d="M979 952l-191 -254l359 -516q63 -87 98 -110.5t94 -36.5v-35h-596v35q107 2 107 78q0 42 -37 96l-186 272l-164 -211q-67 -85 -67 -147q0 -69 83 -88v-35h-436v35q151 11 303 213l229 303l-321 465q-52 75 -97.5 106.5t-113.5 40.5v35h584v-35q-83 -9 -83 -73
q0 -39 31 -84l168 -240l166 225q36 50 36 90q0 64 -93 82v35h416v-35q-131 0 -289 -211z" />
    <glyph glyph-name="Y" unicode="Y" horiz-adv-x="1260" 
d="M1055 1034l-283 -403v-428q0 -80 32 -116t120 -52v-35h-568v35q83 12 117.5 51.5t34.5 124.5v350l-311 477q-46 69 -80.5 94t-89.5 31v35h546v-35q-87 -4 -87 -58q0 -34 34 -87l207 -320l182 263q43 62 43 110q0 70 -92 92v35h371v-35q-93 -9 -176 -129z" />
    <glyph glyph-name="Z" unicode="Z" horiz-adv-x="1260" 
d="M1186 313h37l-52 -313h-1136v35l809 1095h-453q-112 0 -167.5 -48.5t-102.5 -184.5h-35l35 301h1065v-33l-807 -1097h467q140 0 207 50t133 195z" />
    <glyph glyph-name="bracketleft" unicode="[" horiz-adv-x="748" 
d="M190 -602v1862h498v-48h-90q-176 0 -176 -129v-1507q3 -69 44.5 -100t131.5 -31h90v-47h-498z" />
    <glyph glyph-name="backslash" unicode="\" horiz-adv-x="1087" 
d="M166 1210h149l607 -1241h-150z" />
    <glyph glyph-name="bracketright" unicode="]" horiz-adv-x="748" 
d="M59 1260h498v-1862h-498v47h91q176 0 176 131v1507q0 68 -41.5 98.5t-134.5 30.5h-91v48z" />
    <glyph glyph-name="asciicircum" unicode="^" horiz-adv-x="1190" 
d="M299 668h-152l406 718h84l405 -718h-151l-297 512z" />
    <glyph glyph-name="underscore" unicode="_" horiz-adv-x="1024" 
d="M1042 -154v-102h-1058v102h1058z" />
    <glyph glyph-name="grave" unicode="`" horiz-adv-x="682" 
d="M438 926l-461 344h369l127 -344h-35z" />
    <glyph glyph-name="a" unicode="a" 
d="M266 -31q-96 0 -163.5 59.5t-67.5 143.5t67 139.5t280 111.5q103 27 148 44q0 107 -46 155t-146 48q-157 0 -232 -129h-30q31 125 121.5 193.5t224.5 68.5q155 0 247.5 -76t92.5 -213v-364q0 -103 47 -103q49 0 61 72h33q-6 -72 -55 -111t-133 -39q-71 0 -114.5 25.5
t-72.5 83.5l-18 -17q-104 -92 -244 -92zM528 133v293q-153 -65 -202.5 -112t-49.5 -121q0 -63 29.5 -101.5t77.5 -38.5q65 0 145 80z" />
    <glyph glyph-name="b" unicode="b" horiz-adv-x="1130" 
d="M354 1282h35v-620q135 141 297 141q157 0 263 -115t106 -285q0 -206 -134.5 -320t-385.5 -114q-221 0 -377 31v1110q0 94 -117 115v35zM389 606v-452q0 -70 28.5 -99.5t94.5 -29.5q287 0 287 354q0 142 -63.5 230.5t-166.5 88.5q-47 0 -85 -19.5t-95 -72.5z" />
    <glyph glyph-name="c" unicode="c" horiz-adv-x="961" 
d="M885 803l18 -281h-35q-110 234 -284 234q-118 0 -186 -91.5t-68 -250.5q0 -163 75.5 -255.5t208.5 -92.5q87 0 145.5 31.5t125.5 113.5h41q-115 -242 -416 -242q-195 0 -315.5 111t-120.5 291q0 184 132.5 308t330.5 124q65 0 152 -13q75 -12 102 -12q31 0 61 25h33z" />
    <glyph glyph-name="d" unicode="d" horiz-adv-x="1173" 
d="M952 1282h35v-1071q0 -96 27.5 -127.5t126.5 -48.5v-35h-578q-237 0 -365 106t-128 291q0 180 113.5 293t295.5 113q159 0 277 -78v354q0 79 -42.5 111t-148.5 35v35zM756 223v400q-88 125 -217 125q-98 0 -155.5 -90.5t-57.5 -245.5q0 -171 82 -268t208 -97q78 0 109 39
t31 137z" />
    <glyph glyph-name="e" unicode="e" horiz-adv-x="961" 
d="M877 238h34q-52 -125 -163 -197t-250 -72q-181 0 -301.5 117.5t-120.5 294.5q0 180 123.5 301t306.5 121q165 0 274.5 -94.5t130.5 -253.5h-585q-1 -16 -1 -32q0 -157 79 -255t196 -98q167 0 277 168zM326 502h336q-7 109 -55 177.5t-118 68.5t-114 -67t-49 -179z" />
    <glyph glyph-name="f" unicode="f" horiz-adv-x="641" 
d="M412 772h172v-63h-172v-498q0 -99 25.5 -128.5t133.5 -47.5v-35h-538v35q87 12 117 44t30 130v500h-123v28q68 15 98.5 51t36.5 140q6 107 31.5 164.5t71.5 101.5q94 88 297 88q171 0 278 -86l-163 -199h-33q1 15 1 30q0 89 -40 144.5t-96 55.5q-127 0 -127 -226v-229z
" />
    <glyph glyph-name="g" unicode="g" horiz-adv-x="1044" 
d="M74 485q0 137 110.5 227.5t280.5 90.5q31 0 89 -3l26 -1h403v-140l-197 15l-4 -4q105 -88 105 -197q0 -121 -104.5 -202t-268.5 -81q-135 0 -191.5 -19t-56.5 -62q0 -32 41 -50t185 -32q209 -21 301 -58t140 -102.5t48 -136.5q0 -152 -141.5 -251.5t-374.5 -99.5
q-196 0 -320.5 67t-124.5 173q0 86 90 150t240 79v5q-140 14 -205 56.5t-65 127.5q0 64 54.5 102t197.5 70v4q-134 41 -196 106.5t-62 165.5zM305 494q0 -113 48 -180.5t128 -67.5q83 0 128.5 66t45.5 188q0 115 -45 180t-121 65q-184 0 -184 -251zM209 -297
q0 -88 134 -141.5t310 -53.5q86 0 141.5 36t55.5 91q0 87 -126 137t-302 50q-97 0 -155 -32.5t-58 -86.5z" />
    <glyph glyph-name="h" unicode="h" horiz-adv-x="1153" 
d="M373 1282h35v-666h4q60 99 128 143t160 44q126 0 199.5 -79.5t73.5 -215.5v-334q0 -65 27.5 -95t93.5 -44v-35h-473v35q69 18 94.5 49.5t25.5 95.5v312q0 186 -139 186q-51 0 -94.5 -27.5t-99.5 -99.5v-381q0 -61 27 -90t95 -45v-35h-471v35q66 16 91.5 48t25.5 97v918
q0 55 -25.5 82.5t-91.5 44.5v35z" />
    <glyph glyph-name="i" unicode="i" horiz-adv-x="598" 
d="M387 803h35v-637q0 -116 125 -131v-35h-486v35q78 15 103.5 44t25.5 103v412q0 71 -27 99t-112 44v35zM172 1149q0 55 39.5 94t95.5 39q55 0 94 -38.5t39 -94.5t-39 -95.5t-94 -39.5q-56 0 -95.5 40t-39.5 95z" />
    <glyph glyph-name="j" unicode="j" horiz-adv-x="598" 
d="M-63 -500v33h6q131 0 188 72t57 237v772q0 57 -33 84t-114 39v35l344 31h35v-887q0 -233 -108 -329.5t-285 -96.5q-50 0 -90 10zM172 1149q0 55 39.5 94t95.5 39q55 0 94 -38.5t39 -94.5t-39 -95.5t-94 -39.5q-56 0 -95.5 40t-39.5 95z" />
    <glyph glyph-name="k" unicode="k" horiz-adv-x="1153" 
d="M59 0v35q66 18 91.5 46t25.5 87v936q0 52 -24.5 77.5t-92.5 43.5v35l314 22h35v-866l274 198q31 23 31 59q0 29 -22.5 46.5t-61.5 17.5v35h426v-35q-77 -11 -124.5 -31t-119.5 -71l-203 -143l365 -381q38 -42 66 -56.5t77 -19.5v-35h-352l-356 369v-176q0 -80 19 -106.5
t97 -51.5v-35h-465z" />
    <glyph glyph-name="l" unicode="l" horiz-adv-x="598" 
d="M41 0v35q83 13 114 45.5t31 107.5v883q0 83 -31.5 116.5t-113.5 37.5v35l342 22h35v-1094q0 -77 25.5 -105.5t111.5 -47.5v-35h-514z" />
    <glyph glyph-name="m" unicode="m" horiz-adv-x="1642" 
d="M410 803v-191h4q90 191 272 191q194 0 252 -191q59 102 123.5 146.5t155.5 44.5q119 0 184 -74t65 -209v-334q0 -71 25.5 -102t95.5 -49v-35h-475v35q66 15 94.5 45t28.5 86v371q0 62 -35 100.5t-90 38.5q-118 0 -172 -166v-336q0 -63 26 -92.5t95 -46.5v-35h-475v35
q66 16 94.5 46t28.5 83v387q0 54 -35 89.5t-84 35.5q-103 0 -178 -135v-355q0 -75 25.5 -104.5t96.5 -46.5v-35h-475v35q67 16 94 46t27 91v414q0 75 -27.5 105t-111.5 46v35l336 31h35z" />
    <glyph glyph-name="n" unicode="n" horiz-adv-x="1153" 
d="M410 803v-189h4q111 189 293 189q114 0 192 -76.5t78 -204.5v-338q0 -73 26 -102.5t95 -46.5v-35h-475v35q68 15 95 45.5t27 93.5v320q0 87 -37.5 135.5t-105.5 48.5q-119 0 -192 -135v-361q0 -69 24 -98t90 -49v-35h-467v35q68 17 94.5 46t26.5 87v432q0 66 -30.5 96
t-108.5 41v35l336 31h35z" />
    <glyph glyph-name="o" unicode="o" horiz-adv-x="1110" 
d="M1036 387q0 -178 -132.5 -298t-348.5 -120t-349.5 119.5t-133.5 298.5q0 111 61.5 211t169 152.5t252.5 52.5q217 0 349 -120t132 -296zM780 387q0 172 -58.5 266.5t-166.5 94.5q-111 0 -169 -97t-58 -278q0 -159 61.5 -253.5t165.5 -94.5q106 0 165.5 95.5t59.5 266.5z
" />
    <glyph glyph-name="p" unicode="p" horiz-adv-x="1173" 
d="M418 803v-150q130 150 311 150q157 0 261 -116.5t104 -291.5q0 -186 -114.5 -306t-291.5 -120q-75 0 -130.5 23.5t-139.5 89.5v-488q0 -82 28 -113.5t115 -49.5v-33h-514v35q84 10 111.5 47t27.5 147v944q0 89 -27.5 119t-111.5 47v35l336 31h35zM418 598v-461
q90 -90 190 -90q103 0 166.5 89t63.5 235q0 152 -60.5 240.5t-163.5 88.5q-112 0 -196 -102z" />
    <glyph glyph-name="q" unicode="q" horiz-adv-x="1173" 
d="M610 -602v35q84 8 120 41.5t36 113.5v484q-101 -59 -166 -81t-139 -22q-172 0 -273.5 109t-101.5 289q0 196 140 316t397 120q157 0 374 -31v-1196q0 -70 23.5 -98t99.5 -45v-35h-510zM766 127v594q-71 27 -129 27q-142 0 -218.5 -93t-76.5 -266q0 -152 64 -236.5
t180 -84.5q84 0 180 59z" />
    <glyph glyph-name="r" unicode="r" horiz-adv-x="831" 
d="M408 803v-246h4q110 246 256 246q80 0 137 -66l-51 -233q-105 100 -174 100q-51 0 -89 -24t-83 -86v-316q0 -74 26 -101t105 -42v-35h-492v35q76 18 102.5 47t26.5 96v408q0 73 -33.5 109t-107.5 42v35l338 31h35z" />
    <glyph glyph-name="s" unicode="s" horiz-adv-x="748" 
d="M80 -31v299h35q116 -243 280 -243q56 0 96.5 33t40.5 79q0 50 -37 86.5t-160 84.5q-157 61 -207 118.5t-50 140.5q0 100 75.5 168t194.5 68q44 0 153 -17q43 -6 52 -6q18 0 47 23h35v-242h-35q-35 88 -98 137.5t-140 49.5q-55 0 -92 -24.5t-37 -61.5t31 -64.5t139 -68.5
q167 -64 223 -130t56 -163q0 -112 -85.5 -189.5t-193.5 -77.5q-64 0 -127 13q-64 14 -90 14q-46 0 -71 -27h-35z" />
    <glyph glyph-name="t" unicode="t" horiz-adv-x="705" 
d="M664 129l24 -23q-81 -137 -248 -137q-124 0 -193 64t-69 182v496h-139v39q155 95 332 321h39v-299h254v-61h-254v-445q0 -105 33.5 -151.5t107.5 -46.5q61 0 113 61z" />
    <glyph glyph-name="u" unicode="u" horiz-adv-x="1153" 
d="M737 158h-4q-124 -189 -307 -189q-120 0 -188 62.5t-68 173.5v399q0 64 -26 92.5t-95 40.5v35l318 31h34v-570q0 -64 38 -99.5t106 -35.5q59 0 100.5 30.5t91.5 109.5v385q0 93 -121 114v35l318 31h35v-615q0 -77 23 -105.5t100 -47.5v-35l-355 -31v189z" />
    <glyph glyph-name="v" unicode="v" horiz-adv-x="1024" 
d="M993 772v-35q-57 -6 -98.5 -47t-85.5 -135l-279 -586h-43l-290 600q-47 95 -87.5 130t-103.5 38v35h481v-35q-73 -14 -73 -72q0 -24 14 -53l178 -360l139 287q32 65 32 111q0 80 -95 87v35h311z" />
    <glyph glyph-name="w" unicode="w" horiz-adv-x="1556" 
d="M1526 772v-35q-118 -31 -187 -186l-252 -582h-40l-277 609l-260 -609h-41l-279 609q-41 90 -80.5 124.5t-101.5 34.5v35h502v-35q-89 -7 -89 -89q0 -36 19 -77l140 -297l161 367q-42 77 -135 96v35h471v-35q-82 -31 -82 -82q0 -25 17 -61l149 -320l109 252q28 67 28 117
q0 89 -86 94v35h314z" />
    <glyph glyph-name="x" unicode="x" horiz-adv-x="1130" 
d="M813 584l-143 -148l243 -299q46 -56 82 -77.5t92 -24.5v-35h-532v35q79 4 79 55q0 27 -26 60l-127 161l-114 -110q-48 -45 -48 -92q0 -58 70 -74v-35h-373v35q70 6 128 41t147 125l151 155l-168 207q-78 97 -128 134t-111 40v35h520v-35q-59 0 -59 -56q0 -30 20 -54
l117 -144l98 101q43 43 43 86q0 49 -59 67v35h342v-35q-69 -14 -122 -47.5t-122 -105.5z" />
    <glyph glyph-name="y" unicode="y" horiz-adv-x="1024" 
d="M997 772v-35q-72 -19 -105 -53.5t-81 -144.5l-389 -889q-61 -141 -135 -198.5t-195 -57.5q-37 0 -65 4l47 233q55 -18 104 -18q103 0 174 78t146 278l-283 596q-43 92 -79.5 123t-108.5 49v35h471v-35q-72 -10 -72 -58q0 -32 31 -97l164 -338l106 248q41 94 41 148
q0 78 -92 97v35h321z" />
    <glyph glyph-name="z" unicode="z" 
d="M51 0v35l522 682h-106q-114 0 -211 -48.5t-154 -131.5h-34l20 235h786v-35l-524 -682h115q302 0 397 211h35l-23 -266h-823z" />
    <glyph glyph-name="braceleft" unicode="{" horiz-adv-x="807" 
d="M412 96q0 83 -63 142.5t-165 72.5v33q102 13 165 73t63 142q0 51 -20 133q-25 102 -25 178q0 147 106.5 256t271.5 131l-8 -36q-221 -56 -221 -238q0 -40 23 -145q22 -97 22 -166q0 -113 -78.5 -204t-216.5 -138v-4q138 -48 216.5 -139t78.5 -203q0 -71 -22 -166
q-23 -104 -23 -146q0 -181 221 -237l8 -37q-166 23 -272 132t-106 255q0 76 25 178q20 82 20 133z" />
    <glyph glyph-name="bar" unicode="|" horiz-adv-x="1079" 
d="M473 -420v1702h133v-1702h-133z" />
    <glyph glyph-name="braceright" unicode="}" horiz-adv-x="807" 
d="M395 559q0 -82 63 -142t165 -73v-33q-102 -13 -165 -72.5t-63 -142.5q0 -43 24 -141q21 -86 21 -170q0 -146 -106.5 -255t-272.5 -132l9 37q221 56 221 237q0 51 -22 146q-23 104 -23 166q0 112 78.5 203t216.5 139v4q-138 47 -216.5 138t-78.5 204q0 60 24 166
q21 96 21 145q0 182 -221 238l-9 36q166 -22 272.5 -131t106.5 -256q0 -84 -21 -170q-24 -98 -24 -141z" />
    <glyph glyph-name="asciitilde" unicode="~" horiz-adv-x="1366" 
d="M197 492h-64q1 159 76 251.5t197 92.5q108 0 321 -92q211 -91 268 -91q74 0 119.5 47.5t54.5 133.5h64q-8 -162 -82.5 -253.5t-198.5 -91.5q-51 0 -116.5 18.5t-201.5 76.5q-202 86 -265 86q-145 0 -172 -178z" />
    <glyph glyph-name="Adieresis" unicode="&#xc4;" horiz-adv-x="1366" 
d="M756 0v35q74 14 104.5 34.5t30.5 57.5q0 30 -23 92l-69 184h-426l-60 -159q-23 -61 -23 -98q0 -79 120 -111v-35h-387v35q70 12 122 73t103 199l344 922h164l364 -959q50 -128 98 -178.5t125 -56.5v-35h-587zM410 489h356l-182 486zM489 1622q55 0 95.5 -40t40.5 -95
q0 -56 -40.5 -96t-95.5 -40t-95 40.5t-40 95.5t40 95t95 40zM879 1622q55 0 95 -40t40 -95t-40 -95.5t-95 -40.5t-95.5 40t-40.5 96q0 55 40.5 95t95.5 40z" />
    <glyph glyph-name="Aring" unicode="&#xc5;" horiz-adv-x="1366" 
d="M756 0v35q74 14 104.5 34.5t30.5 57.5q0 30 -23 92l-69 184h-426l-60 -159q-23 -61 -23 -98q0 -79 120 -111v-35h-387v35q70 12 122 73t103 199l344 922h164l364 -959q50 -128 98 -178.5t125 -56.5v-35h-587zM410 489h356l-182 486zM684 1679q80 0 136.5 -56t56.5 -136
t-56.5 -136.5t-136.5 -56.5t-136 56.5t-56 136.5t56.5 136t135.5 56zM684 1607q-51 0 -86 -35t-35 -85q0 -51 35 -86t86 -35t86 35t35 86q0 50 -35 85t-86 35z" />
    <glyph glyph-name="Ccedilla" unicode="&#xc7;" horiz-adv-x="1260" 
d="M1182 780h-33q-41 181 -148 281t-260 100q-167 0 -265.5 -141t-98.5 -379q0 -265 115 -410t317 -145q109 0 200 45t185 145v-63q-178 -244 -485 -244q-275 0 -447 170.5t-172 442.5q0 276 185.5 461.5t461.5 185.5q113 0 255 -50q61 -22 83 -22q44 0 74 62h33v-439z
M646 35h48l-48 -144q84 0 140.5 -50t56.5 -124q0 -119 -107 -197.5t-278 -84.5l10 37q92 10 149.5 57.5t57.5 110.5q0 90 -137 110z" />
    <glyph glyph-name="Eacute" unicode="&#xc9;" horiz-adv-x="1044" 
d="M858 784h39v-370h-39q-21 153 -166 153h-211v-352q0 -81 37 -114t127 -33h70q176 0 252 223h34l-22 -291h-913v35q91 19 121 54.5t30 137.5v770q0 84 -31 116.5t-120 49.5v35h899v-266h-35q-30 117 -74.5 157.5t-142.5 40.5h-232v-495h211q72 0 110 34t56 115zM518 1667
h369l-461 -344h-35z" />
    <glyph glyph-name="Ntilde" unicode="&#xd1;" horiz-adv-x="1366" 
d="M934 1163v35h405v-35q-174 -10 -174 -196v-981h-39l-862 972v-733q0 -96 35 -134.5t141 -55.5v-35h-413v35q84 13 120.5 57.5t36.5 138.5v813q-70 72 -96.5 92t-62.5 27v35h360l700 -803v539q0 119 -31.5 164.5t-119.5 64.5zM901 1525q68 0 105 84h26q0 -116 -70 -191
t-165 -75q-63 0 -180 51q-95 41 -136 41q-84 0 -112 -84h-35q9 120 76.5 193.5t169.5 73.5q59 0 163 -47q101 -46 158 -46z" />
    <glyph glyph-name="Odieresis" unicode="&#xd6;" horiz-adv-x="1473" 
d="M1389 598q0 -275 -184 -452t-470 -177q-285 0 -468 177t-183 452t183.5 453t467.5 178q286 0 470 -178t184 -453zM1102 590q0 279 -93.5 425t-273.5 146q-178 0 -271 -146t-93 -427q0 -261 94 -406t270 -145q173 0 270 144t97 409zM542 1622q55 0 95.5 -40t40.5 -95
q0 -56 -40.5 -96t-95.5 -40t-95 40.5t-40 95.5t40 95t95 40zM932 1622q55 0 95 -40t40 -95t-40 -95.5t-95 -40.5t-95.5 40t-40.5 96q0 55 40.5 95t95.5 40z" />
    <glyph glyph-name="Udieresis" unicode="&#xdc;" horiz-adv-x="1473" 
d="M1004 0v160q-110 -110 -191.5 -150.5t-194.5 -40.5q-188 0 -299.5 108t-111.5 290v628q0 81 -29.5 113.5t-122.5 54.5v35h568v-35q-91 -21 -121.5 -54.5t-30.5 -123.5v-670q0 -110 60 -172.5t165 -62.5q148 0 308 166v749q0 81 -29 113t-123 55v35h567v-35
q-87 -18 -119 -52.5t-32 -139.5v-768q0 -81 29 -113t122 -55v-35h-415zM542 1622q55 0 95.5 -40t40.5 -95q0 -56 -40.5 -96t-95.5 -40t-95 40.5t-40 95.5t40 95t95 40zM932 1622q55 0 95 -40t40 -95t-40 -95.5t-95 -40.5t-95.5 40t-40.5 96q0 55 40.5 95t95.5 40z" />
    <glyph glyph-name="aacute" unicode="&#xe1;" 
d="M266 -31q-96 0 -163.5 59.5t-67.5 143.5t67 139.5t280 111.5q103 27 148 44q0 107 -46 155t-146 48q-157 0 -232 -129h-30q31 125 121.5 193.5t224.5 68.5q155 0 247.5 -76t92.5 -213v-364q0 -103 47 -103q49 0 61 72h33q-6 -72 -55 -111t-133 -39q-71 0 -114.5 25.5
t-72.5 83.5l-18 -17q-104 -92 -244 -92zM528 133v293q-153 -65 -202.5 -112t-49.5 -121q0 -63 29.5 -101.5t77.5 -38.5q65 0 145 80zM399 1270h369l-461 -344h-35z" />
    <glyph glyph-name="agrave" unicode="&#xe0;" 
d="M266 -31q-96 0 -163.5 59.5t-67.5 143.5t67 139.5t280 111.5q103 27 148 44q0 107 -46 155t-146 48q-157 0 -232 -129h-30q31 125 121.5 193.5t224.5 68.5q155 0 247.5 -76t92.5 -213v-364q0 -103 47 -103q49 0 61 72h33q-6 -72 -55 -111t-133 -39q-71 0 -114.5 25.5
t-72.5 83.5l-18 -17q-104 -92 -244 -92zM528 133v293q-153 -65 -202.5 -112t-49.5 -121q0 -63 29.5 -101.5t77.5 -38.5q65 0 145 80zM501 926l-461 344h369l127 -344h-35z" />
    <glyph glyph-name="acircumflex" unicode="&#xe2;" 
d="M266 -31q-96 0 -163.5 59.5t-67.5 143.5t67 139.5t280 111.5q103 27 148 44q0 107 -46 155t-146 48q-157 0 -232 -129h-30q31 125 121.5 193.5t224.5 68.5q155 0 247.5 -76t92.5 -213v-364q0 -103 47 -103q49 0 61 72h33q-6 -72 -55 -111t-133 -39q-71 0 -114.5 25.5
t-72.5 83.5l-18 -17q-104 -92 -244 -92zM528 133v293q-153 -65 -202.5 -112t-49.5 -121q0 -63 29.5 -101.5t77.5 -38.5q65 0 145 80zM256 1282h299l182 -379h-37l-295 213l-295 -213h-39z" />
    <glyph glyph-name="adieresis" unicode="&#xe4;" 
d="M266 -31q-96 0 -163.5 59.5t-67.5 143.5t67 139.5t280 111.5q103 27 148 44q0 107 -46 155t-146 48q-157 0 -232 -129h-30q31 125 121.5 193.5t224.5 68.5q155 0 247.5 -76t92.5 -213v-364q0 -103 47 -103q49 0 61 72h33q-6 -72 -55 -111t-133 -39q-71 0 -114.5 25.5
t-72.5 83.5l-18 -17q-104 -92 -244 -92zM528 133v293q-153 -65 -202.5 -112t-49.5 -121q0 -63 29.5 -101.5t77.5 -38.5q65 0 145 80zM267 1225q55 0 95.5 -40t40.5 -95q0 -56 -40.5 -96t-95.5 -40t-95 40.5t-40 95.5t40 95t95 40zM657 1225q55 0 95 -40t40 -95t-40 -95.5
t-95 -40.5t-95.5 40t-40.5 96q0 55 40.5 95t95.5 40z" />
    <glyph glyph-name="atilde" unicode="&#xe3;" 
d="M266 -31q-96 0 -163.5 59.5t-67.5 143.5t67 139.5t280 111.5q103 27 148 44q0 107 -46 155t-146 48q-157 0 -232 -129h-30q31 125 121.5 193.5t224.5 68.5q155 0 247.5 -76t92.5 -213v-364q0 -103 47 -103q49 0 61 72h33q-6 -72 -55 -111t-133 -39q-71 0 -114.5 25.5
t-72.5 83.5l-18 -17q-104 -92 -244 -92zM528 133v293q-153 -65 -202.5 -112t-49.5 -121q0 -63 29.5 -101.5t77.5 -38.5q65 0 145 80zM679 1128q68 0 105 84h26q0 -116 -70 -191t-165 -75q-63 0 -180 51q-95 41 -136 41q-84 0 -112 -84h-35q9 120 76.5 193.5t169.5 73.5
q59 0 163 -47q101 -46 158 -46z" />
    <glyph glyph-name="aring" unicode="&#xe5;" 
d="M266 -31q-96 0 -163.5 59.5t-67.5 143.5t67 139.5t280 111.5q103 27 148 44q0 107 -46 155t-146 48q-157 0 -232 -129h-30q31 125 121.5 193.5t224.5 68.5q155 0 247.5 -76t92.5 -213v-364q0 -103 47 -103q49 0 61 72h33q-6 -72 -55 -111t-133 -39q-71 0 -114.5 25.5
t-72.5 83.5l-18 -17q-104 -92 -244 -92zM528 133v293q-153 -65 -202.5 -112t-49.5 -121q0 -63 29.5 -101.5t77.5 -38.5q65 0 145 80zM442 1282q80 0 136.5 -56t56.5 -136t-56.5 -136.5t-136.5 -56.5t-136 56.5t-56 136.5t56.5 136t135.5 56zM442 1210q-51 0 -86 -35t-35 -85
q0 -51 35 -86t86 -35t86 35t35 86q0 50 -35 85t-86 35z" />
    <glyph glyph-name="ccedilla" unicode="&#xe7;" horiz-adv-x="961" 
d="M885 803l18 -281h-35q-110 234 -284 234q-118 0 -186 -91.5t-68 -250.5q0 -163 75.5 -255.5t208.5 -92.5q87 0 145.5 31.5t125.5 113.5h41q-115 -242 -416 -242q-195 0 -315.5 111t-120.5 291q0 184 132.5 308t330.5 124q65 0 152 -13q75 -12 102 -12q31 0 61 25h33z
M460 35h48l-48 -144q84 0 140.5 -50t56.5 -124q0 -119 -107 -197.5t-278 -84.5l10 37q92 10 149.5 57.5t57.5 110.5q0 90 -137 110z" />
    <glyph glyph-name="eacute" unicode="&#xe9;" horiz-adv-x="961" 
d="M877 238h34q-52 -125 -163 -197t-250 -72q-181 0 -301.5 117.5t-120.5 294.5q0 180 123.5 301t306.5 121q165 0 274.5 -94.5t130.5 -253.5h-585q-1 -16 -1 -32q0 -157 79 -255t196 -98q167 0 277 168zM326 502h336q-7 109 -55 177.5t-118 68.5t-114 -67t-49 -179z
M456 1270h369l-461 -344h-35z" />
    <glyph glyph-name="egrave" unicode="&#xe8;" horiz-adv-x="961" 
d="M877 238h34q-52 -125 -163 -197t-250 -72q-181 0 -301.5 117.5t-120.5 294.5q0 180 123.5 301t306.5 121q165 0 274.5 -94.5t130.5 -253.5h-585q-1 -16 -1 -32q0 -157 79 -255t196 -98q167 0 277 168zM326 502h336q-7 109 -55 177.5t-118 68.5t-114 -67t-49 -179z
M528 926l-461 344h369l127 -344h-35z" />
    <glyph glyph-name="ecircumflex" unicode="&#xea;" horiz-adv-x="961" 
d="M877 238h34q-52 -125 -163 -197t-250 -72q-181 0 -301.5 117.5t-120.5 294.5q0 180 123.5 301t306.5 121q165 0 274.5 -94.5t130.5 -253.5h-585q-1 -16 -1 -32q0 -157 79 -255t196 -98q167 0 277 168zM326 502h336q-7 109 -55 177.5t-118 68.5t-114 -67t-49 -179z
M323 1282h299l182 -379h-37l-295 213l-295 -213h-39z" />
    <glyph glyph-name="edieresis" unicode="&#xeb;" horiz-adv-x="961" 
d="M877 238h34q-52 -125 -163 -197t-250 -72q-181 0 -301.5 117.5t-120.5 294.5q0 180 123.5 301t306.5 121q165 0 274.5 -94.5t130.5 -253.5h-585q-1 -16 -1 -32q0 -157 79 -255t196 -98q167 0 277 168zM326 502h336q-7 109 -55 177.5t-118 68.5t-114 -67t-49 -179z
M277 1225q55 0 95.5 -40t40.5 -95q0 -56 -40.5 -96t-95.5 -40t-95 40.5t-40 95.5t40 95t95 40zM667 1225q55 0 95 -40t40 -95t-40 -95.5t-95 -40.5t-95.5 40t-40.5 96q0 55 40.5 95t95.5 40z" />
    <glyph glyph-name="iacute" unicode="&#xed;" horiz-adv-x="598" 
d="M387 803h35v-637q0 -116 125 -131v-35h-486v35q78 15 103.5 44t25.5 103v412q0 71 -27 99t-112 44v35zM316 1270h369l-461 -344h-35z" />
    <glyph glyph-name="igrave" unicode="&#xec;" horiz-adv-x="598" 
d="M387 803h35v-637q0 -116 125 -131v-35h-486v35q78 15 103.5 44t25.5 103v412q0 71 -27 99t-112 44v35zM418 926l-461 344h369l127 -344h-35z" />
    <glyph glyph-name="icircumflex" unicode="&#xee;" horiz-adv-x="598" 
d="M387 803h35v-637q0 -116 125 -131v-35h-486v35q78 15 103.5 44t25.5 103v412q0 71 -27 99t-112 44v35zM173 1282h299l182 -379h-37l-295 213l-295 -213h-39z" />
    <glyph glyph-name="idieresis" unicode="&#xef;" horiz-adv-x="598" 
d="M387 803h35v-637q0 -116 125 -131v-35h-486v35q78 15 103.5 44t25.5 103v412q0 71 -27 99t-112 44v35zM127 1225q55 0 95.5 -40t40.5 -95q0 -56 -40.5 -96t-95.5 -40t-95 40.5t-40 95.5t40 95t95 40zM517 1225q55 0 95 -40t40 -95t-40 -95.5t-95 -40.5t-95.5 40t-40.5 96
q0 55 40.5 95t95.5 40z" />
    <glyph glyph-name="ntilde" unicode="&#xf1;" horiz-adv-x="1153" 
d="M410 803v-189h4q111 189 293 189q114 0 192 -76.5t78 -204.5v-338q0 -73 26 -102.5t95 -46.5v-35h-475v35q68 15 95 45.5t27 93.5v320q0 87 -37.5 135.5t-105.5 48.5q-119 0 -192 -135v-361q0 -69 24 -98t90 -49v-35h-467v35q68 17 94.5 46t26.5 87v432q0 66 -30.5 96
t-108.5 41v35l336 31h35zM769 1128q68 0 105 84h26q0 -116 -70 -191t-165 -75q-63 0 -180 51q-95 41 -136 41q-84 0 -112 -84h-35q9 120 76.5 193.5t169.5 73.5q59 0 163 -47q101 -46 158 -46z" />
    <glyph glyph-name="oacute" unicode="&#xf3;" horiz-adv-x="1110" 
d="M1036 387q0 -178 -132.5 -298t-348.5 -120t-349.5 119.5t-133.5 298.5q0 111 61.5 211t169 152.5t252.5 52.5q217 0 349 -120t132 -296zM780 387q0 172 -58.5 266.5t-166.5 94.5q-111 0 -169 -97t-58 -278q0 -159 61.5 -253.5t165.5 -94.5q106 0 165.5 95.5t59.5 266.5z
M486 1270h369l-461 -344h-35z" />
    <glyph glyph-name="ograve" unicode="&#xf2;" horiz-adv-x="1110" 
d="M1036 387q0 -178 -132.5 -298t-348.5 -120t-349.5 119.5t-133.5 298.5q0 111 61.5 211t169 152.5t252.5 52.5q217 0 349 -120t132 -296zM780 387q0 172 -58.5 266.5t-166.5 94.5q-111 0 -169 -97t-58 -278q0 -159 61.5 -253.5t165.5 -94.5q106 0 165.5 95.5t59.5 266.5z
M588 926l-461 344h369l127 -344h-35z" />
    <glyph glyph-name="ocircumflex" unicode="&#xf4;" horiz-adv-x="1110" 
d="M1036 387q0 -178 -132.5 -298t-348.5 -120t-349.5 119.5t-133.5 298.5q0 111 61.5 211t169 152.5t252.5 52.5q217 0 349 -120t132 -296zM780 387q0 172 -58.5 266.5t-166.5 94.5q-111 0 -169 -97t-58 -278q0 -159 61.5 -253.5t165.5 -94.5q106 0 165.5 95.5t59.5 266.5z
M373 1282h299l182 -379h-37l-295 213l-295 -213h-39z" />
    <glyph glyph-name="odieresis" unicode="&#xf6;" horiz-adv-x="1110" 
d="M1036 387q0 -178 -132.5 -298t-348.5 -120t-349.5 119.5t-133.5 298.5q0 111 61.5 211t169 152.5t252.5 52.5q217 0 349 -120t132 -296zM780 387q0 172 -58.5 266.5t-166.5 94.5q-111 0 -169 -97t-58 -278q0 -159 61.5 -253.5t165.5 -94.5q106 0 165.5 95.5t59.5 266.5z
M357 1225q55 0 95.5 -40t40.5 -95q0 -56 -40.5 -96t-95.5 -40t-95 40.5t-40 95.5t40 95t95 40zM747 1225q55 0 95 -40t40 -95t-40 -95.5t-95 -40.5t-95.5 40t-40.5 96q0 55 40.5 95t95.5 40z" />
    <glyph glyph-name="otilde" unicode="&#xf5;" horiz-adv-x="1110" 
d="M1036 387q0 -178 -132.5 -298t-348.5 -120t-349.5 119.5t-133.5 298.5q0 111 61.5 211t169 152.5t252.5 52.5q217 0 349 -120t132 -296zM780 387q0 172 -58.5 266.5t-166.5 94.5q-111 0 -169 -97t-58 -278q0 -159 61.5 -253.5t165.5 -94.5q106 0 165.5 95.5t59.5 266.5z
M776 1128q68 0 105 84h26q0 -116 -70 -191t-165 -75q-63 0 -180 51q-95 41 -136 41q-84 0 -112 -84h-35q9 120 76.5 193.5t169.5 73.5q59 0 163 -47q101 -46 158 -46z" />
    <glyph glyph-name="uacute" unicode="&#xfa;" horiz-adv-x="1153" 
d="M737 158h-4q-124 -189 -307 -189q-120 0 -188 62.5t-68 173.5v399q0 64 -26 92.5t-95 40.5v35l318 31h34v-570q0 -64 38 -99.5t106 -35.5q59 0 100.5 30.5t91.5 109.5v385q0 93 -121 114v35l318 31h35v-615q0 -77 23 -105.5t100 -47.5v-35l-355 -31v189zM486 1270h369
l-461 -344h-35z" />
    <glyph glyph-name="ugrave" unicode="&#xf9;" horiz-adv-x="1153" 
d="M737 158h-4q-124 -189 -307 -189q-120 0 -188 62.5t-68 173.5v399q0 64 -26 92.5t-95 40.5v35l318 31h34v-570q0 -64 38 -99.5t106 -35.5q59 0 100.5 30.5t91.5 109.5v385q0 93 -121 114v35l318 31h35v-615q0 -77 23 -105.5t100 -47.5v-35l-355 -31v189zM588 926
l-461 344h369l127 -344h-35z" />
    <glyph glyph-name="ucircumflex" unicode="&#xfb;" horiz-adv-x="1153" 
d="M737 158h-4q-124 -189 -307 -189q-120 0 -188 62.5t-68 173.5v399q0 64 -26 92.5t-95 40.5v35l318 31h34v-570q0 -64 38 -99.5t106 -35.5q59 0 100.5 30.5t91.5 109.5v385q0 93 -121 114v35l318 31h35v-615q0 -77 23 -105.5t100 -47.5v-35l-355 -31v189zM392 1282h299
l182 -379h-37l-295 213l-295 -213h-39z" />
    <glyph glyph-name="udieresis" unicode="&#xfc;" horiz-adv-x="1153" 
d="M737 158h-4q-124 -189 -307 -189q-120 0 -188 62.5t-68 173.5v399q0 64 -26 92.5t-95 40.5v35l318 31h34v-570q0 -64 38 -99.5t106 -35.5q59 0 100.5 30.5t91.5 109.5v385q0 93 -121 114v35l318 31h35v-615q0 -77 23 -105.5t100 -47.5v-35l-355 -31v189zM367 1225
q55 0 95.5 -40t40.5 -95q0 -56 -40.5 -96t-95.5 -40t-95 40.5t-40 95.5t40 95t95 40zM757 1225q55 0 95 -40t40 -95t-40 -95.5t-95 -40.5t-95.5 40t-40.5 96q0 55 40.5 95t95.5 40z" />
    <glyph glyph-name="dagger" unicode="&#x2020;" horiz-adv-x="1044" 
d="M373 418q59 78 87.5 146t37.5 153h-9q-44 0 -120 -46q-78 -48 -154 -48q-58 0 -92.5 32t-34.5 86q0 56 36 88.5t97 32.5q59 0 134 -42q78 -43 143 -48q-7 84 -54 192q-49 111 -49 195q0 56 34.5 89.5t92.5 33.5t93.5 -33.5t35.5 -87.5q0 -75 -45 -181q-49 -115 -57 -208
q58 2 137 47q74 43 133 43q66 0 102.5 -32.5t36.5 -92.5q0 -49 -35 -81.5t-87 -32.5q-77 0 -169 55q-67 39 -107 39h-11q6 -81 34.5 -149t90.5 -150q-52 -168 -85.5 -451.5t-39.5 -599.5h-51q-12 354 -35.5 553.5t-89.5 497.5z" />
    <glyph glyph-name="degree" unicode="&#xb0;" horiz-adv-x="819" 
d="M756 1020q0 -143 -101.5 -244.5t-244.5 -101.5t-245 101.5t-102 244.5t102 244.5t245 101.5t244.5 -101.5t101.5 -244.5zM629 1020q0 90 -64.5 154.5t-154.5 64.5q-91 0 -155.5 -64t-64.5 -155t64.5 -155t155.5 -64q90 0 154.5 64.5t64.5 154.5z" />
    <glyph glyph-name="cent" unicode="&#xa2;" 
d="M862 1274l-153 -490q59 -6 75 -6q33 0 58 25h32l19 -281h-35q-73 156 -168 205l-198 -641q50 -20 112 -20q87 0 145 31t125 114h41q-117 -243 -390 -243q-34 0 -70 3l-191 -604h-57l194 610q-153 25 -246.5 133.5t-93.5 260.5q0 185 134 308.5t335 123.5q64 0 129 -10
l154 481h49zM444 113l201 632q-33 11 -72 11q-118 0 -187 -92.5t-69 -251.5q0 -207 127 -299z" />
    <glyph glyph-name="sterling" unicode="&#xa3;" 
d="M143 -31q-60 0 -99.5 35.5t-39.5 89.5q0 81 69.5 137t178.5 56q22 0 45 -2q0 113 -23 196h-200v74h186q-51 164 -51 272q0 150 89 246t228 96q105 0 181.5 -64.5t103.5 -174.5h-39q-55 129 -170 129q-75 0 -116.5 -55t-41.5 -156q0 -48 10 -137q11 -98 11 -156h209v-74
h-209q-7 -79 -16.5 -121t-34.5 -102l133 -42q127 -42 190 -42q54 0 82.5 24.5t50.5 86.5h33q-2 -134 -78 -225t-188 -91q-73 0 -134.5 34.5t-142.5 121.5q-88 -156 -217 -156zM297 172q-58 35 -107 35q-57 0 -98 -33.5t-41 -79.5q0 -33 23 -54.5t59 -21.5q48 0 91.5 41
t72.5 113z" />
    <glyph glyph-name="section" unicode="&#xa7;" 
d="M270 1092q0 -64 49 -126t213 -177q156 -108 220 -173.5t94.5 -133.5t30.5 -142q0 -209 -232 -356q99 -89 140.5 -162t41.5 -154q0 -130 -105.5 -215.5t-266.5 -85.5q-138 0 -232 65t-94 160q0 47 33 79t82 32q47 0 78.5 -27.5t31.5 -68.5q0 -37 -28 -66q-17 -17 -17 -30
q0 -39 46.5 -64t117.5 -25q89 0 144 38.5t55 101.5q0 61 -48.5 121t-210.5 172q-159 109 -224 175.5t-96.5 135t-31.5 143.5q0 102 62.5 198.5t171.5 162.5q-180 142 -180 311q0 128 105.5 214.5t260.5 86.5q139 0 234.5 -63t95.5 -154q0 -51 -30.5 -81t-82.5 -30
q-44 0 -78 28.5t-34 66.5q0 29 28 64q19 24 19 36q0 33 -46 54.5t-114 21.5q-92 0 -147.5 -36.5t-55.5 -96.5zM610 10q121 107 121 201q0 76 -74.5 158.5t-326.5 269.5q-123 -86 -123 -201q0 -64 50 -129t241 -212z" />
    <glyph glyph-name="bullet" unicode="&#x2022;" horiz-adv-x="717" 
d="M358 928q105 0 177.5 -72.5t72.5 -177.5t-73 -178.5t-177 -73.5t-178 74t-74 178t73.5 177t178.5 73z" />
    <glyph glyph-name="paragraph" unicode="&#xb6;" horiz-adv-x="1106" 
d="M1024 1300h-131v-1742h-74v1742h-186v-1742h-74v1042q-253 11 -366 103.5t-113 277.5q0 174 120 274.5t330 100.5h494v-56z" />
    <glyph glyph-name="germandbls" unicode="&#xdf;" horiz-adv-x="1153" 
d="M784 934q0 117 -49.5 186.5t-132.5 69.5q-192 0 -192 -338v-715q0 -60 23.5 -81t98.5 -21v-35h-477v35q78 0 100.5 21.5t22.5 93.5v575q0 246 121 383t334 137q168 0 287.5 -90.5t119.5 -218.5q0 -98 -71 -174t-191 -107v-4q148 -28 227.5 -110t79.5 -207
q0 -160 -111 -254t-272 -94q-49 0 -98 14l-18 131h37q24 -92 86 -92q118 0 118 270q0 176 -59 246.5t-207 73.5v47q223 9 223 258z" />
    <glyph glyph-name="registered" unicode="&#xae;" horiz-adv-x="1530" 
d="M463 373v610q0 54 -20.5 75t-71.5 21v35h385q135 0 217 -62t82 -163q0 -166 -224 -221l209 -299q34 -48 58.5 -65.5t62.5 -20.5v-35h-184l-295 405h-74v-284q0 -51 24.5 -68.5t92.5 -17.5v-35h-367v35q57 0 81 21t24 69zM608 1055v-359h29q121 0 188.5 48t67.5 135
q0 82 -57.5 136t-145.5 54q-33 0 -82 -14zM764 1386q191 0 355 -95t259 -259t95 -354t-95 -354.5t-259.5 -259.5t-354.5 -95t-354.5 95t-259.5 259.5t-95 354.5t95 354t259 259t355 95zM764 31q269 0 458 189t189 458t-189.5 458t-457.5 189t-457.5 -189t-189.5 -458
t189 -458t458 -189z" />
    <glyph glyph-name="copyright" unicode="&#xa9;" horiz-adv-x="1530" 
d="M1073 1135h39l21 -281h-39q-71 236 -303 236q-147 0 -233.5 -105.5t-86.5 -284.5q0 -198 86.5 -304.5t243.5 -106.5q197 0 311 162l39 -21q-139 -203 -385 -203q-197 0 -330 128t-133 317q0 197 143 330t355 133q77 0 167 -31q40 -14 56 -14q31 0 49 45zM764 1386
q191 0 355 -95t259 -259t95 -354t-95 -354.5t-259.5 -259.5t-354.5 -95t-354.5 95t-259.5 259.5t-95 354.5t95 354t259 259t355 95zM764 31q269 0 458 189t189 458t-189.5 458t-457.5 189t-457.5 -189t-189.5 -458t189 -458t458 -189z" />
    <glyph glyph-name="trademark" unicode="&#x2122;" horiz-adv-x="2048" 
d="M354 725v571h-80q-92 0 -132.5 -30.5t-55.5 -110.5h-35l21 201h729l22 -201h-35q-12 79 -54 110t-138 31h-74v-571q0 -86 18.5 -109t86.5 -26v-41h-375v41q68 6 85 28.5t17 106.5zM1163 590h37v-41h-309v41q74 0 94.5 24t20.5 111v459q0 89 -19 112t-96 23v37h289
l272 -572l266 572h277v-37q-72 -1 -90.5 -24t-18.5 -111v-459q0 -87 17.5 -108.5t91.5 -26.5v-41h-400v41q79 2 101 24t22 101v483l-309 -649h-33l-309 649v-473q0 -84 18 -109.5t78 -25.5z" />
    <glyph glyph-name="acute" unicode="&#xb4;" horiz-adv-x="682" 
d="M336 1270h369l-461 -344h-35z" />
    <glyph glyph-name="dieresis" unicode="&#xa8;" horiz-adv-x="682" 
d="M147 1225q55 0 95.5 -40t40.5 -95q0 -56 -40.5 -96t-95.5 -40t-95 40.5t-40 95.5t40 95t95 40zM537 1225q55 0 95 -40t40 -95t-40 -95.5t-95 -40.5t-95.5 40t-40.5 96q0 55 40.5 95t95.5 40z" />
    <glyph glyph-name="notequal" unicode="&#x2260;" horiz-adv-x="1124" 
d="M1106 279h-621l-184 -330l-100 57l151 273h-321v112h385l157 285h-542v112h606l186 336l101 -57l-156 -279h338v-112h-399l-160 -285h559v-112z" />
    <glyph glyph-name="AE" unicode="&#xc6;" horiz-adv-x="1556" 
d="M694 1198h789v-266h-35q-36 117 -82 157.5t-145 40.5h-224v-495h217q70 0 109.5 35t58.5 114h35v-370h-35q-15 84 -59 118.5t-135 34.5h-191v-372q0 -66 43.5 -96.5t137.5 -30.5q136 0 195 40.5t114 182.5h35l-23 -291h-924v35q84 12 121 46.5t37 102.5v383h-262
l-174 -350q-32 -66 -32 -100q0 -62 108 -82v-35h-373v35q68 12 122.5 65.5t108.5 161.5zM504 635h229v467z" />
    <glyph glyph-name="Oslash" unicode="&#xd8;" horiz-adv-x="1473" 
d="M412 293l618 684q-90 184 -295 184q-178 0 -271 -146t-93 -427q0 -182 41 -295zM1303 1186l-111 -123q197 -184 197 -465q0 -275 -184 -452t-470 -177q-115 0 -226.5 36t-184.5 93l-115 -127l-47 43l112 125q-190 188 -190 459q0 275 183.5 453t467.5 178q231 0 408 -127
l112 125zM1057 913l-619 -686q97 -190 297 -190q173 0 270 144t97 409q0 197 -45 323z" />
    <glyph glyph-name="infinity" unicode="&#x221e;" horiz-adv-x="1460" 
d="M653 668q71 169 159 222.5t212 53.5q161 0 272 -116.5t111 -301.5q0 -186 -111.5 -303t-238.5 -117q-95 0 -170.5 63t-165.5 224q-117 -233 -324 -233q-149 0 -246.5 104.5t-97.5 263.5q0 157 89 262t218 105q80 0 149 -42t144 -185zM750 465q64 -138 134.5 -201
t176.5 -63q126 0 207.5 91t81.5 234q0 140 -84 240t-199 100q-55 0 -97.5 -21.5t-74.5 -62t-64 -116.5zM614 557l11 33q-96 215 -267 215q-110 0 -179.5 -76.5t-69.5 -198.5q0 -123 66.5 -207.5t162.5 -84.5q82 0 149.5 65t126.5 254z" />
    <glyph glyph-name="plusminus" unicode="&#xb1;" horiz-adv-x="1366" 
d="M137 -41v127h1090v-127h-1090zM137 768v127h481v481h127v-481h482v-127h-482v-481h-127v481h-481z" />
    <glyph glyph-name="lessequal" unicode="&#x2264;" horiz-adv-x="1124" 
d="M1077 240l-1018 471v127l1018 471v-127l-887 -408l887 -407v-127zM1077 0h-1018v112h1018v-112z" />
    <glyph glyph-name="greaterequal" unicode="&#x2265;" horiz-adv-x="1124" 
d="M1077 711l-1018 -471v127l887 407l-887 408v127l1018 -471v-127zM1077 0h-1018v112h1018v-112z" />
    <glyph glyph-name="yen" unicode="&#xa5;" horiz-adv-x="1260" 
d="M1182 604h-410v-205h410v-67h-410v-129q0 -80 32 -116t120 -52v-35h-568v35q83 12 117.5 51.5t34.5 124.5v121h-410v67h410v205h-410v68h363l-236 366q-43 67 -79 93t-91 32v35h547v-35q-86 -4 -86 -60q0 -34 33 -85l174 -279l166 236q35 50 35 94q0 73 -93 94v35h371
v-35q-91 -9 -176 -129l-254 -362h410v-68z" />
    <glyph glyph-name="mu" unicode="&#xb5;" horiz-adv-x="1024" 
d="M674 238v565h231v-615q0 -76 23 -104.5t100 -48.5v-35l-354 -31v189h-4q-124 -189 -312 -189q-70 0 -149 39q0 -78 39 -186q28 -77 28 -117q0 -45 -35.5 -71.5t-97.5 -26.5q-55 0 -89 26.5t-34 69.5q0 54 32 124q32 73 43 135t11 144v697h232v-578q0 -58 39.5 -92.5
t103.5 -34.5q58 0 99 29.5t94 110.5z" />
    <glyph glyph-name="partialdiff" unicode="&#x2202;" horiz-adv-x="1012" 
d="M295 1120h-45q131 303 379 303q161 0 263.5 -127t102.5 -376q0 -358 -164.5 -654.5t-427.5 -296.5q-155 0 -246 91t-91 245q0 239 166.5 420.5t383.5 181.5q222 0 312 -190h4q10 144 10 186q0 175 -92.5 276t-253.5 101q-194 0 -301 -160zM911 629q-81 225 -284 225
q-178 0 -286 -190.5t-108 -399.5q0 -108 54 -172.5t143 -64.5q136 0 279.5 162.5t201.5 439.5z" />
    <glyph glyph-name="summation" unicode="&#x2211;" horiz-adv-x="1460" 
d="M1423 238q-32 -125 -54 -240t-34 -219q-63 11 -102.5 16.5t-54.5 5.5h-1031q-20 0 -59 -3t-59 -3l714 815l-710 930q70 -7 123 -10.5t90 -3.5h1018l12 -326h-41q-31 102 -52.5 141t-81.5 66q-30 13 -74.5 20t-104.5 7h-539l559 -734l-602 -694h760q127 0 177.5 52
t98.5 180h47z" />
    <glyph glyph-name="product" unicode="&#x220f;" horiz-adv-x="1686" 
d="M1645 -207h-629v47q120 0 159.5 41t39.5 125v1419h-734v-1419q0 -84 39.5 -125t159.5 -41v-47h-629v47q122 0 160.5 41t38.5 125v1282q0 101 -48.5 152t-146.5 51v47h1586v-47q-98 0 -146.5 -51t-48.5 -152v-1282q0 -84 38.5 -125t160.5 -41v-47z" />
    <glyph glyph-name="pi" unicode="&#x3c0;" horiz-adv-x="1124" 
d="M1085 309q-5 -155 -75.5 -248.5t-167.5 -93.5q-79 0 -138.5 91.5t-59.5 281.5q0 42 2 80t5 72l35 329h-231q-60 -624 -98.5 -742.5t-130.5 -118.5q-39 0 -74 31t-35 82q0 46 72.5 128.5t80.5 150.5l60 469h-97q-40 0 -78.5 -19.5t-56.5 -45.5l-43 -64h-35
q49 152 120.5 228.5t164.5 76.5h764v-176h-258q-12 -120 -18.5 -240t-6.5 -241q0 -82 38 -133t95 -51q35 0 73.5 28.5t43.5 74.5q3 22 4.5 34.5t1.5 15.5h43z" />
    <glyph glyph-name="integral" unicode="&#x222b;" horiz-adv-x="561" 
d="M602 1760q0 -39 -29.5 -64t-75.5 -25q-37 0 -60 25t-44 25q-18 0 -27.5 -14.5t-9.5 -43.5q0 -34 19.5 -256t19.5 -551q0 -505 -30 -709.5t-79 -282.5q-26 -41 -67.5 -62t-85.5 -21q-49 0 -86 35t-37 85q0 38 25.5 65t64.5 27q34 0 65.5 -33t44.5 -33q25 0 39.5 44.5
t14.5 153.5q0 37 -6 197t-6 562q0 481 17 638.5t41 215.5q29 70 69 104t84 34q57 0 98 -32.5t41 -83.5z" />
    <glyph glyph-name="ordfeminine" unicode="&#xaa;" horiz-adv-x="682" 
d="M365 1028q0 62 -25 87.5t-84 25.5q-95 0 -141 -82l-41 12q21 75 82 116.5t151 41.5q106 0 168 -44.5t62 -123.5v-221q0 -56 20 -56t29 43h43q-6 -102 -135 -102q-94 0 -129 57q-75 -57 -160 -57q-63 0 -108.5 37t-45.5 88q0 62 65 99.5t249 78.5zM365 827v162
q-86 -34 -111 -57.5t-25 -71.5q0 -32 16 -52t42 -20q34 0 78 39z" />
    <glyph glyph-name="ordmasculine" unicode="&#xba;" horiz-adv-x="831" 
d="M737 977q0 -108 -92 -180t-229 -72q-138 0 -230 72t-92 180t92 180t230 72q144 0 232.5 -72.5t88.5 -179.5zM549 977q0 97 -35 151t-98 54t-98 -54t-35 -151t35 -152t98 -55t98 55t35 152z" />
    <glyph glyph-name="ohm" unicode="&#x2126;" horiz-adv-x="1573" 
d="M1506 0h-604l33 311q161 59 226 200t65 313q0 227 -107 373t-331 146t-331 -146t-107 -373q0 -172 65 -313t226 -200l33 -311h-604v332h30q16 -66 40 -95.5t96 -29.5h323l-4 57q-238 65 -341 221t-103 332q0 259 192 425.5t485 166.5t485 -166.5t192 -425.5
q0 -176 -103 -332t-341 -221l-4 -57h323q72 0 96 29.5t40 95.5h30v-332z" />
    <glyph glyph-name="ae" unicode="&#xe6;" horiz-adv-x="1473" 
d="M299 -31q-103 0 -173.5 58.5t-70.5 144.5q0 60 31.5 105t97.5 78.5t232 75.5q115 29 166 48q-2 197 -211 197q-93 0 -149.5 -31t-90.5 -100h-37q22 122 113 190t233 68q162 0 287 -98q76 56 137 77t148 21q174 0 279.5 -91.5t123.5 -256.5h-602v-19q0 -161 84.5 -263.5
t212.5 -102.5q75 0 148.5 44t123.5 119h33q-119 -264 -401 -264q-237 0 -365 176q-111 -103 -185.5 -139.5t-164.5 -36.5zM582 145v293q-34 -17 -94 -43q-122 -53 -153.5 -93t-31.5 -105q0 -61 27 -96t73 -35q77 0 179 79zM813 502h352q-2 112 -49.5 179t-126.5 67
q-80 0 -127 -66.5t-49 -179.5z" />
    <glyph glyph-name="oslash" unicode="&#xf8;" horiz-adv-x="1110" 
d="M350 205l385 424q-59 119 -180 119q-111 0 -169 -97t-58 -278q0 -89 22 -168zM975 823l-103 -114q78 -58 121 -143t43 -179q0 -178 -132.5 -298t-348.5 -120q-172 0 -281 70l-100 -111l-39 33l94 109q-74 54 -115.5 140t-41.5 177q0 111 61.5 211t169 152.5t252.5 52.5
q147 0 274 -66l109 119zM756 575l-385 -425q67 -125 184 -125q106 0 165.5 95.5t59.5 266.5q0 103 -24 188z" />
    <glyph glyph-name="questiondown" unicode="&#xbf;" horiz-adv-x="748" 
d="M654 -363l28 -26q-28 -109 -108.5 -176.5t-181.5 -67.5q-131 0 -228.5 103.5t-97.5 242.5q0 74 24 146t68 127t140 113q78 47 101.5 84t24.5 91h35q19 -47 19 -90q0 -34 -15.5 -66t-67.5 -91q-69 -78 -91.5 -132t-22.5 -116q0 -95 62.5 -162.5t150.5 -67.5q94 0 160 88z
M426 377q-63 0 -107 44t-44 107t44 107.5t107 44.5t107.5 -44.5t44.5 -107.5t-44.5 -107t-107.5 -44z" />
    <glyph glyph-name="exclamdown" unicode="&#xa1;" horiz-adv-x="532" 
d="M495 -564v-35q-97 -22 -252 -22q-65 0 -91 19t-26 67q0 61 55 349q60 314 75 448h30q51 -293 79 -614q14 -161 31 -188t61 -27q13 0 38 3zM264 389q-63 0 -107.5 44t-44.5 107t44.5 107.5t107.5 44.5t107 -44.5t44 -107.5t-44 -107t-107 -44z" />
    <glyph glyph-name="logicalnot" unicode="&#xac;" horiz-adv-x="1366" 
d="M137 840v127h1090v-600h-127v473h-963z" />
    <glyph glyph-name="radical" unicode="&#x221a;" horiz-adv-x="1124" 
d="M1055 1868l-307 -1946l-498 1028l-197 -96l-33 68l299 147l404 -825l260 1634z" />
    <glyph glyph-name="florin" unicode="&#x192;" horiz-adv-x="1366" 
d="M905 723h144l-15 -68h-145l-121 -686q-95 -542 -547 -542q-134 0 -225 32l70 232h32q11 -93 57.5 -147t116.5 -54q104 0 175 84.5t100 239.5l151 841h-172l15 68h174q36 265 148 401t294 136q63 0 152 -23l22 20h33l-76 -245h-31q-6 102 -35.5 149t-88.5 47
q-54 0 -93 -41t-68 -127t-67 -317z" />
    <glyph glyph-name="approxequal" unicode="&#x2248;" horiz-adv-x="1124" 
d="M1022 874h51q-21 -155 -95.5 -238t-186.5 -83q-97 0 -304 117q-139 78 -211 78q-149 0 -178 -187h-47q20 154 93.5 238t181.5 84q47 0 107 -19.5t224 -107.5q118 -62 193 -62q144 0 172 180zM1022 487h51q-21 -155 -95.5 -238t-186.5 -83q-96 0 -268.5 97t-246.5 97
q-149 0 -178 -186h-47q20 153 93.5 236.5t181.5 83.5q47 0 112 -21.5t219 -103.5q118 -62 193 -62q144 0 172 180z" />
    <glyph glyph-name="Delta" unicode="&#x2206;" horiz-adv-x="1253" 
d="M668 1409l577 -1409h-1233zM594 1059l-447 -959h844z" />
    <glyph glyph-name="guillemotleft" unicode="&#xab;" 
d="M893 745l-197 -419l197 -420h-41l-418 420l418 419h41zM475 745l-196 -419l196 -420h-41l-418 420l418 419h41z" />
    <glyph glyph-name="guillemotright" unicode="&#xbb;" 
d="M463 -94l196 420l-196 419h41l418 -419l-418 -420h-41zM45 -94l197 420l-197 419h41l418 -419l-418 -420h-41z" />
    <glyph glyph-name="ellipsis" unicode="&#x2026;" horiz-adv-x="2048" 
d="M1706 272q63 0 107.5 -44t44.5 -107t-44.5 -107.5t-107.5 -44.5t-107.5 44.5t-44.5 107.5t44.5 107t107.5 44zM1024 272q63 0 107.5 -44t44.5 -107t-44.5 -107.5t-107.5 -44.5t-107.5 44.5t-44.5 107.5t44.5 107t107.5 44zM342 272q63 0 107.5 -44t44.5 -107
t-44.5 -107.5t-107.5 -44.5t-107.5 44.5t-44.5 107.5t44.5 107t107.5 44z" />
    <glyph glyph-name="nonbreakingspace" unicode="&#xa0;" horiz-adv-x="1024" 
 />
    <glyph glyph-name="Agrave" unicode="&#xc0;" horiz-adv-x="1366" 
d="M756 0v35q74 14 104.5 34.5t30.5 57.5q0 30 -23 92l-69 184h-426l-60 -159q-23 -61 -23 -98q0 -79 120 -111v-35h-387v35q70 12 122 73t103 199l344 922h164l364 -959q50 -128 98 -178.5t125 -56.5v-35h-587zM410 489h356l-182 486zM780 1323l-461 344h369l127 -344h-35z
" />
    <glyph glyph-name="Atilde" unicode="&#xc3;" horiz-adv-x="1366" 
d="M756 0v35q74 14 104.5 34.5t30.5 57.5q0 30 -23 92l-69 184h-426l-60 -159q-23 -61 -23 -98q0 -79 120 -111v-35h-387v35q70 12 122 73t103 199l344 922h164l364 -959q50 -128 98 -178.5t125 -56.5v-35h-587zM410 489h356l-182 486zM901 1525q68 0 105 84h26
q0 -116 -70 -191t-165 -75q-63 0 -180 51q-95 41 -136 41q-84 0 -112 -84h-35q9 120 76.5 193.5t169.5 73.5q59 0 163 -47q101 -46 158 -46z" />
    <glyph glyph-name="Otilde" unicode="&#xd5;" horiz-adv-x="1473" 
d="M1389 598q0 -275 -184 -452t-470 -177q-285 0 -468 177t-183 452t183.5 453t467.5 178q286 0 470 -178t184 -453zM1102 590q0 279 -93.5 425t-273.5 146q-178 0 -271 -146t-93 -427q0 -261 94 -406t270 -145q173 0 270 144t97 409zM954 1525q68 0 105 84h26
q0 -116 -70 -191t-165 -75q-63 0 -180 51q-95 41 -136 41q-84 0 -112 -84h-35q9 120 76.5 193.5t169.5 73.5q59 0 163 -47q101 -46 158 -46z" />
    <glyph glyph-name="OE" unicode="&#x152;" horiz-adv-x="1921" 
d="M942 1198h891v-268h-35q-35 109 -76 154.5t-108 45.5h-297v-495h219q89 0 131.5 33.5t61.5 119.5h34v-372h-34q-20 90 -58.5 120.5t-134.5 30.5h-219v-381q0 -64 45 -91t151 -27q149 0 215 48t107 181h35l-25 -297h-850l-162 -4l-118 -4q-289 0 -458 168.5t-169 439.5
q0 262 171 434t437 172q60 0 129 -4q70 -4 117 -4zM1053 256v725q0 83 -54 120.5t-172 37.5q-223 0 -337.5 -143t-114.5 -421q0 -248 123.5 -382t351.5 -134q113 0 158 43t45 154z" />
    <glyph glyph-name="oe" unicode="&#x153;" horiz-adv-x="1599" 
d="M1141 803q169 0 279 -92t128 -248h-559v-27q0 -172 67.5 -266t190.5 -94q163 0 266 168h35q-44 -126 -155.5 -200.5t-255.5 -74.5q-75 0 -136 21t-131 71q-89 -53 -155.5 -72.5t-161.5 -19.5q-212 0 -348.5 117t-136.5 297q0 188 136 304t357 116q92 0 156 -18t153 -68
q134 86 271 86zM547 748q-103 0 -159 -98t-56 -269q0 -173 56.5 -264.5t164.5 -91.5q100 0 152.5 96t52.5 276q0 171 -54 261t-157 90zM989 510h307q-4 106 -50.5 175t-112.5 69q-65 0 -104.5 -65.5t-39.5 -171.5v-7z" />
    <glyph glyph-name="endash" unicode="&#x2013;" horiz-adv-x="1024" 
d="M-12 350v129h1048v-129h-1048z" />
    <glyph glyph-name="emdash" unicode="&#x2014;" horiz-adv-x="2048" 
d="M-12 350v129h2072v-129h-2072z" />
    <glyph glyph-name="quotedblleft" unicode="&#x201c;" 
d="M422 1282v-35q-195 -69 -195 -232q0 -27 11 -52t26 -25q3 0 13 2q14 2 22 2q49 0 84 -41.5t35 -98.5q0 -64 -42.5 -104.5t-109.5 -40.5q-84 0 -143 75.5t-59 182.5q0 132 110 244.5t248 122.5zM875 1282v-35q-195 -68 -195 -232q0 -28 10.5 -52.5t26.5 -24.5q3 0 12 2
q14 2 23 2q48 0 83 -42t35 -98q0 -64 -42 -104.5t-109 -40.5q-85 0 -144 75.5t-59 182.5q0 132 110 244.5t249 122.5z" />
    <glyph glyph-name="quotedblright" unicode="&#x201d;" 
d="M517 657v35q195 69 195 232q0 27 -11 52t-26 25q-3 0 -13 -2q-14 -2 -22 -2q-49 0 -84 41.5t-35 98.5q0 64 42.5 104.5t109.5 40.5q84 0 143 -75.5t59 -182.5q0 -132 -110 -244.5t-248 -122.5zM64 657v35q195 68 195 232q0 28 -10.5 52.5t-26.5 24.5q-3 0 -12 -2
q-14 -2 -23 -2q-48 0 -83 42t-35 98q0 64 42 104.5t109 40.5q85 0 144 -75.5t59 -182.5q0 -132 -110 -244.5t-249 -122.5z" />
    <glyph glyph-name="quoteleft" unicode="&#x2018;" horiz-adv-x="532" 
d="M444 1283v-35q-195 -69 -195 -232q0 -27 11 -52t26 -25q3 0 13 2q14 2 22 2q49 0 84 -41.5t35 -98.5q0 -64 -42.5 -104.5t-109.5 -40.5q-84 0 -143 75.5t-59 182.5q0 132 110 244.5t248 122.5z" />
    <glyph glyph-name="quoteright" unicode="&#x2019;" horiz-adv-x="532" 
d="M139 657v35q195 69 195 232q0 27 -11 52t-26 25q-3 0 -13 -2q-14 -2 -22 -2q-49 0 -84 41.5t-35 98.5q0 64 42.5 104.5t109.5 40.5q84 0 143 -75.5t59 -182.5q0 -132 -110 -244.5t-248 -122.5z" />
    <glyph glyph-name="divide" unicode="&#xf7;" horiz-adv-x="1368" 
d="M684 344q35 0 59.5 -24.5t24.5 -59.5t-24.5 -59.5t-59.5 -24.5t-59.5 24.5t-24.5 59.5t24.5 59.5t59.5 24.5zM684 1163q35 0 59.5 -24.5t24.5 -59.5t-24.5 -59.5t-59.5 -24.5t-59.5 24.5t-24.5 59.5t24.5 59.5t59.5 24.5zM139 606v127h1090v-127h-1090z" />
    <glyph glyph-name="lozenge" unicode="&#x25ca;" horiz-adv-x="1012" 
d="M962 763l-397 -763h-122l-397 763l397 763h122zM839 763l-335 652l-335 -652l335 -652z" />
    <glyph glyph-name="ydieresis" unicode="&#xff;" horiz-adv-x="1024" 
d="M997 772v-35q-72 -19 -105 -53.5t-81 -144.5l-389 -889q-61 -141 -135 -198.5t-195 -57.5q-37 0 -65 4l47 233q55 -18 104 -18q103 0 174 78t146 278l-283 596q-43 92 -79.5 123t-108.5 49v35h471v-35q-72 -10 -72 -58q0 -32 31 -97l164 -338l106 248q41 94 41 148
q0 78 -92 97v35h321zM307 1225q55 0 95.5 -40t40.5 -95q0 -56 -40.5 -96t-95.5 -40t-95 40.5t-40 95.5t40 95t95 40zM697 1225q55 0 95 -40t40 -95t-40 -95.5t-95 -40.5t-95.5 40t-40.5 96q0 55 40.5 95t95.5 40z" />
    <glyph glyph-name="Ydieresis" unicode="&#x178;" horiz-adv-x="1260" 
d="M1055 1034l-283 -403v-428q0 -80 32 -116t120 -52v-35h-568v35q83 12 117.5 51.5t34.5 124.5v350l-311 477q-46 69 -80.5 94t-89.5 31v35h546v-35q-87 -4 -87 -58q0 -34 34 -87l207 -320l182 263q43 62 43 110q0 70 -92 92v35h371v-35q-93 -9 -176 -129zM436 1622
q55 0 95.5 -40t40.5 -95q0 -56 -40.5 -96t-95.5 -40t-95 40.5t-40 95.5t40 95t95 40zM826 1622q55 0 95 -40t40 -95t-40 -95.5t-95 -40.5t-95.5 40t-40.5 96q0 55 40.5 95t95.5 40z" />
    <glyph glyph-name="fraction" unicode="&#x2215;" horiz-adv-x="342" 
d="M530 1229h134l-852 -1245h-134z" />
    <glyph glyph-name="currency" unicode="&#xa4;" horiz-adv-x="1401" 
d="M698 987q-135 0 -229 -94t-94 -229q0 -136 94 -231t229 -95q136 0 231 95t95 231q0 135 -95 229t-231 94zM301 1151l127 -127q115 90 270 90q145 0 273 -90l127 127l90 -90l-127 -127q49 -75 68.5 -135.5t19.5 -134.5q0 -156 -90 -271l129 -129l-90 -90l-127 127
q-130 -90 -273 -90q-146 0 -270 90l-127 -127l-90 90l127 127q-92 122 -92 273q0 157 92 270l-127 127z" />
    <glyph glyph-name="guilsinglleft" unicode="&#x2039;" horiz-adv-x="532" 
d="M504 745l-197 -419l197 -420h-41l-418 420l418 419h41z" />
    <glyph glyph-name="guilsinglright" unicode="&#x203a;" horiz-adv-x="532" 
d="M29 -94l196 420l-196 419h41l417 -419l-417 -420h-41z" />
    <glyph glyph-name="fi" unicode="&#xf001;" horiz-adv-x="1110" 
d="M913 799h35v-594q0 -89 19.5 -119t91.5 -51v-35h-455v35q71 13 92 44t21 126v504h-332v-539q0 -61 26 -91t91 -44v-35h-469v35q77 18 99 49t22 121v504h-121v34q64 19 94.5 52.5t39.5 122.5q12 105 47.5 165.5t93.5 105.5q121 93 294 93q97 0 193.5 -30t142.5 -76
l-195 -220l-26 21q0 109 -47.5 177.5t-122.5 68.5q-78 0 -120 -63.5t-42 -182.5v-205h324q140 0 204 27z" />
    <glyph glyph-name="fl" unicode="&#xf002;" horiz-adv-x="1153" 
d="M993 1282v-1100q0 -71 22.5 -98.5t100.5 -48.5v-35h-475v35q69 17 95 45.5t26 85.5v543h-342v-549q0 -59 34.5 -85.5t120.5 -39.5v-35h-536v35q97 16 123 43.5t26 128.5v500h-118v34q56 16 82.5 45t37.5 113q18 135 81 220.5t141.5 124t171.5 38.5q127 0 235 -70
q85 24 144 70h30zM420 772h342v205q0 119 -43 184.5t-121 65.5q-81 0 -129.5 -59t-48.5 -158v-238z" />
    <glyph glyph-name="daggerdbl" unicode="&#x2021;" horiz-adv-x="1044" 
d="M528 -633q-55 0 -88.5 36t-33.5 95q0 64 47 160q42 85 47 141h-13q-49 0 -115 -41q-79 -49 -147 -49q-50 0 -81 30.5t-31 80.5q0 47 31 80.5t75 33.5q46 0 135 -41q92 -42 146 -47q-2 62 -31 116.5t-96 121.5q72 73 98.5 125t26.5 117q0 63 -26.5 114.5t-98.5 124.5
q68 68 97 122t30 116q-58 -5 -149 -48q-84 -40 -130 -40q-45 0 -76.5 33t-31.5 79q0 51 30.5 82t79.5 31q63 0 139 -45q76 -44 138 -45q-5 53 -48 144q-46 98 -46 153q0 61 33.5 98t88.5 37q52 0 86.5 -36t34.5 -89q0 -64 -46 -153q-45 -87 -54 -154q7 -1 13 -1q37 0 105 37
q96 52 171 52q46 0 74 -29.5t28 -77.5q0 -53 -30.5 -85.5t-80.5 -32.5q-56 0 -135 41q-82 43 -145 49q3 -120 129 -238q-127 -121 -127 -239q0 -121 127 -242q-126 -118 -129 -238q65 7 149 51q76 40 125 40q54 0 85.5 -32t31.5 -87q0 -48 -28.5 -77.5t-75.5 -29.5
q-71 0 -169 51q-71 37 -108 37h-10q3 -53 51 -151q49 -100 49 -152q0 -57 -34 -93t-87 -36z" />
    <glyph glyph-name="periodcentered" unicode="&#xb7;" horiz-adv-x="532" 
d="M266 780q63 0 107.5 -44t44.5 -107t-44.5 -107.5t-107.5 -44.5t-107 44.5t-44 107.5t44 107t107 44z" />
    <glyph glyph-name="periodcentered" unicode="&#x2219;" horiz-adv-x="532" 
d="M266 780q63 0 107.5 -44t44.5 -107t-44.5 -107.5t-107.5 -44.5t-107 44.5t-44 107.5t44 107t107 44z" />
    <glyph glyph-name="quotesinglbase" unicode="&#x201a;" horiz-adv-x="532" 
d="M88 -371v35q195 69 195 232q0 27 -11 52t-26 25q-3 0 -13 -2q-14 -2 -22 -2q-49 0 -84 41.5t-35 98.5q0 64 42.5 104.5t109.5 40.5q84 0 143 -75.5t59 -182.5q0 -132 -110 -244.5t-248 -122.5z" />
    <glyph glyph-name="quotedblbase" unicode="&#x201e;" 
d="M516 -371v35q195 69 195 232q0 27 -11 52t-26 25q-3 0 -13 -2q-14 -2 -22 -2q-49 0 -84 41.5t-35 98.5q0 64 42.5 104.5t109.5 40.5q84 0 143 -75.5t59 -182.5q0 -132 -110 -244.5t-248 -122.5zM63 -371v35q195 68 195 232q0 28 -10.5 52.5t-26.5 24.5q-3 0 -12 -2
q-14 -2 -23 -2q-48 0 -83 42t-35 98q0 64 42 104.5t109 40.5q85 0 144 -75.5t59 -182.5q0 -132 -110 -244.5t-249 -122.5z" />
    <glyph glyph-name="perthousand" unicode="&#x2030;" horiz-adv-x="2134" 
d="M1724 311q0 -282 97 -282q50 0 73 73t23 236q0 256 -96 256q-97 0 -97 -283zM1552 311q0 154 71.5 241t197.5 87q122 0 194 -85t72 -228q0 -164 -69 -253t-197 -89q-126 0 -197.5 87t-71.5 240zM1108 1225h133l-852 -1241h-133zM913 311q0 154 71.5 241t197.5 87
q122 0 194 -85t72 -228q0 -164 -69 -253t-197 -89q-126 0 -197.5 87t-71.5 240zM1085 311q0 -282 97 -282q50 0 73 73t23 236q0 256 -96 256q-97 0 -97 -283zM47 901q0 154 71 241t197 87q122 0 194.5 -85t72.5 -229q0 -164 -69.5 -253t-197.5 -89q-126 0 -197 87t-71 241z
M219 901q0 -283 96 -283q51 0 74 73.5t23 236.5q0 256 -97 256q-96 0 -96 -283z" />
    <glyph glyph-name="Acircumflex" unicode="&#xc2;" horiz-adv-x="1366" 
d="M756 0v35q74 14 104.5 34.5t30.5 57.5q0 30 -23 92l-69 184h-426l-60 -159q-23 -61 -23 -98q0 -79 120 -111v-35h-387v35q70 12 122 73t103 199l344 922h164l364 -959q50 -128 98 -178.5t125 -56.5v-35h-587zM410 489h356l-182 486zM535 1679h299l182 -379h-37l-295 213
l-295 -213h-39z" />
    <glyph glyph-name="Ecircumflex" unicode="&#xca;" horiz-adv-x="1044" 
d="M858 784h39v-370h-39q-21 153 -166 153h-211v-352q0 -81 37 -114t127 -33h70q176 0 252 223h34l-22 -291h-913v35q91 19 121 54.5t30 137.5v770q0 84 -31 116.5t-120 49.5v35h899v-266h-35q-30 117 -74.5 157.5t-142.5 40.5h-232v-495h211q72 0 110 34t56 115zM375 1679
h299l182 -379h-37l-295 213l-295 -213h-39z" />
    <glyph glyph-name="Aacute" unicode="&#xc1;" horiz-adv-x="1366" 
d="M756 0v35q74 14 104.5 34.5t30.5 57.5q0 30 -23 92l-69 184h-426l-60 -159q-23 -61 -23 -98q0 -79 120 -111v-35h-387v35q70 12 122 73t103 199l344 922h164l364 -959q50 -128 98 -178.5t125 -56.5v-35h-587zM410 489h356l-182 486zM678 1667h369l-461 -344h-35z" />
    <glyph glyph-name="Edieresis" unicode="&#xcb;" horiz-adv-x="1044" 
d="M858 784h39v-370h-39q-21 153 -166 153h-211v-352q0 -81 37 -114t127 -33h70q176 0 252 223h34l-22 -291h-913v35q91 19 121 54.5t30 137.5v770q0 84 -31 116.5t-120 49.5v35h899v-266h-35q-30 117 -74.5 157.5t-142.5 40.5h-232v-495h211q72 0 110 34t56 115zM329 1622
q55 0 95.5 -40t40.5 -95q0 -56 -40.5 -96t-95.5 -40t-95 40.5t-40 95.5t40 95t95 40zM719 1622q55 0 95 -40t40 -95t-40 -95.5t-95 -40.5t-95.5 40t-40.5 96q0 55 40.5 95t95.5 40z" />
    <glyph glyph-name="Egrave" unicode="&#xc8;" horiz-adv-x="1044" 
d="M858 784h39v-370h-39q-21 153 -166 153h-211v-352q0 -81 37 -114t127 -33h70q176 0 252 223h34l-22 -291h-913v35q91 19 121 54.5t30 137.5v770q0 84 -31 116.5t-120 49.5v35h899v-266h-35q-30 117 -74.5 157.5t-142.5 40.5h-232v-495h211q72 0 110 34t56 115zM620 1323
l-461 344h369l127 -344h-35z" />
    <glyph glyph-name="Iacute" unicode="&#xcd;" horiz-adv-x="748" 
d="M657 1198v-35q-89 -20 -120 -53.5t-31 -138.5v-768q0 -81 29 -113t122 -55v-35h-567v35q64 16 95.5 35t44 48t12.5 111v766q0 81 -29.5 113.5t-122.5 54.5v35h567zM369 1667h369l-461 -344h-35z" />
    <glyph glyph-name="Icircumflex" unicode="&#xce;" horiz-adv-x="748" 
d="M657 1198v-35q-89 -20 -120 -53.5t-31 -138.5v-768q0 -81 29 -113t122 -55v-35h-567v35q64 16 95.5 35t44 48t12.5 111v766q0 81 -29.5 113.5t-122.5 54.5v35h567zM225 1679h299l182 -379h-37l-295 213l-295 -213h-39z" />
    <glyph glyph-name="Idieresis" unicode="&#xcf;" horiz-adv-x="748" 
d="M657 1198v-35q-89 -20 -120 -53.5t-31 -138.5v-768q0 -81 29 -113t122 -55v-35h-567v35q64 16 95.5 35t44 48t12.5 111v766q0 81 -29.5 113.5t-122.5 54.5v35h567zM179 1622q55 0 95.5 -40t40.5 -95q0 -56 -40.5 -96t-95.5 -40t-95 40.5t-40 95.5t40 95t95 40zM569 1622
q55 0 95 -40t40 -95t-40 -95.5t-95 -40.5t-95.5 40t-40.5 96q0 55 40.5 95t95.5 40z" />
    <glyph glyph-name="Igrave" unicode="&#xcc;" horiz-adv-x="748" 
d="M657 1198v-35q-89 -20 -120 -53.5t-31 -138.5v-768q0 -81 29 -113t122 -55v-35h-567v35q64 16 95.5 35t44 48t12.5 111v766q0 81 -29.5 113.5t-122.5 54.5v35h567zM470 1323l-461 344h369l127 -344h-35z" />
    <glyph glyph-name="Oacute" unicode="&#xd3;" horiz-adv-x="1473" 
d="M1389 598q0 -275 -184 -452t-470 -177q-285 0 -468 177t-183 452t183.5 453t467.5 178q286 0 470 -178t184 -453zM1102 590q0 279 -93.5 425t-273.5 146q-178 0 -271 -146t-93 -427q0 -261 94 -406t270 -145q173 0 270 144t97 409zM731 1667h369l-461 -344h-35z" />
    <glyph glyph-name="Ocircumflex" unicode="&#xd4;" horiz-adv-x="1473" 
d="M1389 598q0 -275 -184 -452t-470 -177q-285 0 -468 177t-183 452t183.5 453t467.5 178q286 0 470 -178t184 -453zM1102 590q0 279 -93.5 425t-273.5 146q-178 0 -271 -146t-93 -427q0 -261 94 -406t270 -145q173 0 270 144t97 409zM588 1679h299l182 -379h-37l-295 213
l-295 -213h-39z" />
    <glyph glyph-name="Ograve" unicode="&#xd2;" horiz-adv-x="1473" 
d="M1389 598q0 -275 -184 -452t-470 -177q-285 0 -468 177t-183 452t183.5 453t467.5 178q286 0 470 -178t184 -453zM1102 590q0 279 -93.5 425t-273.5 146q-178 0 -271 -146t-93 -427q0 -261 94 -406t270 -145q173 0 270 144t97 409zM833 1323l-461 344h369l127 -344h-35z
" />
    <glyph glyph-name="Uacute" unicode="&#xda;" horiz-adv-x="1473" 
d="M1004 0v160q-110 -110 -191.5 -150.5t-194.5 -40.5q-188 0 -299.5 108t-111.5 290v628q0 81 -29.5 113.5t-122.5 54.5v35h568v-35q-91 -21 -121.5 -54.5t-30.5 -123.5v-670q0 -110 60 -172.5t165 -62.5q148 0 308 166v749q0 81 -29 113t-123 55v35h567v-35
q-87 -18 -119 -52.5t-32 -139.5v-768q0 -81 29 -113t122 -55v-35h-415zM731 1667h369l-461 -344h-35z" />
    <glyph glyph-name="Ucircumflex" unicode="&#xdb;" horiz-adv-x="1473" 
d="M1004 0v160q-110 -110 -191.5 -150.5t-194.5 -40.5q-188 0 -299.5 108t-111.5 290v628q0 81 -29.5 113.5t-122.5 54.5v35h568v-35q-91 -21 -121.5 -54.5t-30.5 -123.5v-670q0 -110 60 -172.5t165 -62.5q148 0 308 166v749q0 81 -29 113t-123 55v35h567v-35
q-87 -18 -119 -52.5t-32 -139.5v-768q0 -81 29 -113t122 -55v-35h-415zM588 1679h299l182 -379h-37l-295 213l-295 -213h-39z" />
    <glyph glyph-name="Ugrave" unicode="&#xd9;" horiz-adv-x="1473" 
d="M1004 0v160q-110 -110 -191.5 -150.5t-194.5 -40.5q-188 0 -299.5 108t-111.5 290v628q0 81 -29.5 113.5t-122.5 54.5v35h568v-35q-91 -21 -121.5 -54.5t-30.5 -123.5v-670q0 -110 60 -172.5t165 -62.5q148 0 308 166v749q0 81 -29 113t-123 55v35h567v-35
q-87 -18 -119 -52.5t-32 -139.5v-768q0 -81 29 -113t122 -55v-35h-415zM833 1323l-461 344h369l127 -344h-35z" />
    <glyph glyph-name="dotlessi" unicode="&#x131;" horiz-adv-x="598" 
d="M387 803h35v-637q0 -116 125 -131v-35h-486v35q78 15 103.5 44t25.5 103v412q0 71 -27 99t-112 44v35z" />
    <glyph glyph-name="circumflex" unicode="&#x2c6;" horiz-adv-x="682" 
d="M193 1282h299l182 -379h-37l-295 213l-295 -213h-39z" />
    <glyph glyph-name="tilde" unicode="&#x2dc;" horiz-adv-x="682" 
d="M559 1128q68 0 105 84h26q0 -116 -70 -191t-165 -75q-63 0 -180 51q-95 41 -136 41q-84 0 -112 -84h-35q9 120 76.5 193.5t169.5 73.5q59 0 163 -47q101 -46 158 -46z" />
    <glyph glyph-name="macron" unicode="&#x2c9;" horiz-adv-x="682" 
d="M4 1100v168h674v-168h-674z" />
    <glyph glyph-name="breve" unicode="&#x2d8;" horiz-adv-x="682" 
d="M39 1239h65q40 -127 240 -127q193 0 238 127h63q-3 -135 -90 -227t-211 -92q-122 0 -210 92t-95 227z" />
    <glyph glyph-name="dotaccent" unicode="&#x2d9;" horiz-adv-x="682" 
d="M342 1225q55 0 95 -40t40 -95q0 -56 -40 -96t-95 -40t-95 40t-40 96q0 55 40 95t95 40z" />
    <glyph glyph-name="ring" unicode="&#x2da;" horiz-adv-x="682" 
d="M342 1282q80 0 136.5 -56t56.5 -136t-56.5 -136.5t-136.5 -56.5t-136 56.5t-56 136.5t56.5 136t135.5 56zM342 1210q-51 0 -86 -35t-35 -85q0 -51 35 -86t86 -35t86 35t35 86q0 50 -35 85t-86 35z" />
    <glyph glyph-name="cedilla" unicode="&#xb8;" horiz-adv-x="682" 
d="M358 35h48l-48 -144q84 0 140.5 -50t56.5 -124q0 -119 -107 -197.5t-278 -84.5l10 37q92 10 149.5 57.5t57.5 110.5q0 90 -137 110z" />
    <glyph glyph-name="hungarumlaut" unicode="&#x2dd;" horiz-adv-x="682" 
d="M227 1270h310l-402 -344h-35zM588 1270h309l-401 -344h-35z" />
    <glyph glyph-name="ogonek" unicode="&#x2db;" horiz-adv-x="682" 
d="M289 14h65q-20 -46 -20 -86q0 -63 49.5 -106t120.5 -43q47 0 121 31l34 -66q-106 -94 -251 -94q-93 0 -157.5 55t-64.5 135q0 98 103 174z" />
    <glyph glyph-name="caron" unicode="&#x2c7;" horiz-adv-x="682" 
d="M489 903h-299l-182 379h37l295 -213l295 213h39z" />
    <glyph glyph-name="Lslash" unicode="&#x141;" horiz-adv-x="1044" 
d="M985 311h35l-35 -311h-915v35q96 24 123.5 57t27.5 137v164l-194 -196v92l194 194v512q0 81 -29.5 113.5t-121.5 54.5v35h567v-35q-96 -24 -124 -55t-28 -104v-285l250 254v-92l-250 -254v-430q0 -75 39.5 -102t149.5 -27q115 0 178.5 50.5t132.5 192.5z" />
    <glyph glyph-name="lslash" unicode="&#x142;" horiz-adv-x="598" 
d="M596 895l-178 -184v-523q0 -77 25.5 -105.5t111.5 -47.5v-35h-514v35q83 13 114 45.5t31 107.5v314l-182 -191v92l182 191v477q0 83 -31.5 116.5t-113.5 37.5v35l342 22h35v-481l178 186v-92z" />
    <glyph glyph-name="Scaron" unicode="&#x160;" 
d="M782 1229v-316h-34q-35 105 -120.5 176.5t-176.5 71.5q-82 0 -139.5 -47t-57.5 -115q0 -33 15 -65.5t43.5 -60.5t183.5 -125q158 -97 204 -135t88 -97q64 -91 64 -199q0 -160 -112.5 -254t-272.5 -94q-86 0 -205 31q-63 16 -88 16q-42 0 -61 -39h-35v361h35
q27 -140 112 -220.5t209 -80.5q96 0 158.5 48t62.5 122q0 60 -40 113.5t-214 157.5q-160 96 -212 148t-78.5 116.5t-26.5 136.5q0 154 105.5 252t271.5 98q51 0 123 -17q72 -16 102 -16q29 0 62 33h34zM618 1300h-299l-182 379h37l295 -213l295 213h39z" />
    <glyph glyph-name="scaron" unicode="&#x161;" horiz-adv-x="748" 
d="M80 -31v299h35q116 -243 280 -243q56 0 96.5 33t40.5 79q0 50 -37 86.5t-160 84.5q-157 61 -207 118.5t-50 140.5q0 100 75.5 168t194.5 68q44 0 153 -17q43 -6 52 -6q18 0 47 23h35v-242h-35q-35 88 -98 137.5t-140 49.5q-55 0 -92 -24.5t-37 -61.5t31 -64.5t139 -68.5
q167 -64 223 -130t56 -163q0 -112 -85.5 -189.5t-193.5 -77.5q-64 0 -127 13q-64 14 -90 14q-46 0 -71 -27h-35zM505 903h-299l-182 379h37l295 -213l295 213h39z" />
    <glyph glyph-name="Zcaron" unicode="&#x17d;" horiz-adv-x="1260" 
d="M1186 313h37l-52 -313h-1136v35l809 1095h-453q-112 0 -167.5 -48.5t-102.5 -184.5h-35l35 301h1065v-33l-807 -1097h467q140 0 207 50t133 195zM778 1300h-299l-182 379h37l295 -213l295 213h39z" />
    <glyph glyph-name="zcaron" unicode="&#x17e;" 
d="M51 0v35l522 682h-106q-114 0 -211 -48.5t-154 -131.5h-34l20 235h786v-35l-524 -682h115q302 0 397 211h35l-23 -266h-823zM579 903h-299l-182 379h37l295 -213l295 213h39z" />
    <glyph glyph-name="brokenbar" unicode="&#xa6;" horiz-adv-x="1079" 
d="M473 -420v723h133v-723h-133zM473 557v725h133v-725h-133z" />
    <glyph glyph-name="sfthyphen" unicode="&#xad;" horiz-adv-x="618" 
d="M139 473h612v-172h-612v172z" />
    <glyph glyph-name="overscore" unicode="&#xaf;" horiz-adv-x="1024" 
d="M1042 1404v-102h-1058v102h1058z" />
    <glyph glyph-name="Eth" unicode="&#xd0;" horiz-adv-x="1473" 
d="M63 0v35q95 26 123.5 57.5t28.5 136.5v336h-152v68h152v360q0 81 -28.5 113t-123.5 57v35h613q334 0 527.5 -169t193.5 -445q0 -266 -173 -425t-468 -159h-693zM768 565h-289v-356q0 -77 45 -109t150 -32q208 0 322 138t114 390q0 247 -125 390.5t-350 143.5h-156v-497
h289v-68z" />
    <glyph glyph-name="eth" unicode="&#xf0;" horiz-adv-x="1161" 
d="M354 377q0 -163 60 -254.5t166 -91.5q109 0 167 92.5t58 267.5q0 167 -59 258.5t-164 91.5q-228 0 -228 -364zM971 1282l37 -59l-201 -121q120 -138 187 -309.5t67 -331.5q0 -238 -129 -365t-354 -127q-207 0 -343.5 119t-136.5 299q0 172 134 294t323 122q115 0 221 -49
q-23 155 -86 278l-215 -129l-37 60l219 131q-48 81 -120 145l65 43q92 -63 156 -127z" />
    <glyph glyph-name="Yacute" unicode="&#xdd;" horiz-adv-x="1260" 
d="M1055 1034l-283 -403v-428q0 -80 32 -116t120 -52v-35h-568v35q83 12 117.5 51.5t34.5 124.5v350l-311 477q-46 69 -80.5 94t-89.5 31v35h546v-35q-87 -4 -87 -58q0 -34 34 -87l207 -320l182 263q43 62 43 110q0 70 -92 92v35h371v-35q-93 -9 -176 -129zM625 1667h369
l-461 -344h-35z" />
    <glyph glyph-name="yacute" unicode="&#xfd;" horiz-adv-x="1024" 
d="M997 772v-35q-72 -19 -105 -53.5t-81 -144.5l-389 -889q-61 -141 -135 -198.5t-195 -57.5q-37 0 -65 4l47 233q55 -18 104 -18q103 0 174 78t146 278l-283 596q-43 92 -79.5 123t-108.5 49v35h471v-35q-72 -10 -72 -58q0 -32 31 -97l164 -338l106 248q41 94 41 148
q0 78 -92 97v35h321zM569 1270h369l-461 -344h-35z" />
    <glyph glyph-name="Thorn" unicode="&#xde;" horiz-adv-x="1110" 
d="M629 1198v-35q-91 -18 -121.5 -54.5t-30.5 -127.5v-57h199q190 0 299.5 -88.5t109.5 -229.5q0 -151 -121.5 -248.5t-334.5 -97.5q-59 0 -152 12v-69q0 -81 32.5 -117t117.5 -51v-35h-566v35q91 18 121.5 54.5t30.5 127.5v778q0 81 -32.5 117t-117.5 51v35h566zM578 856
h-101v-516q40 -12 88 -12q110 0 172 70.5t62 197.5q0 116 -61 188t-160 72z" />
    <glyph glyph-name="thorn" unicode="&#xfe;" horiz-adv-x="1153" 
d="M383 1282h35v-629q130 150 311 150q157 0 261 -116.5t104 -291.5q0 -186 -114.5 -306t-291.5 -120q-75 0 -130.5 23.5t-139.5 89.5v-488q0 -82 28 -113.5t115 -49.5v-33h-514v35q84 10 111.5 47t27.5 147v1420q0 88 -28 118t-111 47v35zM418 598v-461q90 -90 190 -90
q103 0 166.5 89t63.5 235q0 152 -60.5 240.5t-163.5 88.5q-112 0 -196 -102z" />
    <glyph glyph-name="minus" unicode="&#x2212;" horiz-adv-x="1366" 
d="M137 606v127h1090v-127h-1090z" />
    <glyph glyph-name="multiply" unicode="&#xd7;" horiz-adv-x="1368" 
d="M590 659l-408 408l94 94l408 -407l408 407l94 -94l-408 -408l408 -407l-94 -94l-408 407l-408 -407l-94 94z" />
    <glyph glyph-name="onesuperior" unicode="&#xb9;" horiz-adv-x="641" 
d="M246 702v363q0 35 -17 35q-5 0 -25 -4q-45 -9 -71 -9v23q107 27 234 119h34v-527q0 -49 12 -63.5t62 -24.5v-24h-303v24q47 5 60.5 21t13.5 67z" />
    <glyph glyph-name="twosuperior" unicode="&#xb2;" horiz-adv-x="641" 
d="M225 684h346v-94h-505v35q325 233 325 395q0 56 -30 90.5t-78 34.5q-47 0 -81 -30t-44 -81h-39q9 90 67.5 142.5t151.5 52.5q92 0 155.5 -50.5t63.5 -123.5q0 -72 -62 -145.5t-270 -221.5v-4z" />
    <glyph glyph-name="threesuperior" unicode="&#xb3;" horiz-adv-x="641" 
d="M348 1061q0 44 -29.5 74t-72.5 30q-42 0 -103 -51l-22 19q26 44 79 70t117 26q82 0 136.5 -42t54.5 -106q0 -95 -143 -151v-4q170 -34 170 -166q0 -81 -69.5 -134t-176.5 -53q-133 0 -209 89l20 20q64 -53 142 -53q53 0 86.5 34.5t33.5 88.5q0 63 -41.5 104t-111.5 41
q-21 0 -45 -4v24q184 33 184 144z" />
    <glyph glyph-name="onehalf" unicode="&#xbd;" horiz-adv-x="1622" 
d="M252 702v363q0 35 -17 35q-5 0 -25 -4q-45 -9 -71 -9v23q107 27 234 119h34v-527q0 -49 12 -63.5t62 -24.5v-24h-303v24q47 5 60.5 21t13.5 67zM1156 1229h134l-852 -1245h-134zM1175 94h346v-94h-505v35q325 233 325 395q0 56 -30 90.5t-78 34.5q-47 0 -81 -30t-44 -81
h-39q9 90 67.5 142.5t151.5 52.5q92 0 155.5 -50.5t63.5 -123.5q0 -72 -62 -145.5t-270 -221.5v-4z" />
    <glyph glyph-name="onequarter" unicode="&#xbc;" horiz-adv-x="1622" 
d="M252 702v363q0 35 -17 35q-5 0 -25 -4q-45 -9 -71 -9v23q107 27 234 119h34v-527q0 -49 12 -63.5t62 -24.5v-24h-303v24q47 5 60.5 21t13.5 67zM1156 1229h134l-852 -1245h-134zM1491 147h-139v-159h-148v159h-256v29l369 463h35v-424h139v-68zM1204 404l-141 -189h141
v189z" />
    <glyph glyph-name="threequarters" unicode="&#xbe;" horiz-adv-x="1622" 
d="M348 1061q0 44 -29.5 74t-72.5 30q-42 0 -103 -51l-22 19q26 44 79 70t117 26q82 0 136.5 -42t54.5 -106q0 -95 -143 -151v-4q170 -34 170 -166q0 -81 -69.5 -134t-176.5 -53q-133 0 -209 89l20 20q64 -53 142 -53q53 0 86.5 34.5t33.5 88.5q0 63 -41.5 104t-111.5 41
q-21 0 -45 -4v24q184 33 184 144zM1150 1229h134l-852 -1245h-134zM1485 147h-139v-159h-148v159h-256v29l369 463h35v-424h139v-68zM1198 404l-141 -189h141v189z" />
    <glyph glyph-name="foursuperior" unicode="&#xf003;" horiz-adv-x="641" 
d="M567 737h-139v-159h-148v159h-256v29l369 463h35v-424h139v-68zM280 994l-141 -189h141v189z" />
    </font>
</defs>
</svg>
