<?xml version="1.0" standalone="no"?>
<!DOCTYPE svg PUBLIC "-//W3C//DTD SVG 1.1//EN" "http://www.w3.org/Graphics/SVG/1.1/DTD/svg11.dtd" >
<svg>
<metadata>
Created by FontForge 20090622 at Mon May 27 12:26:22 2019
 By deploy user
Copyright (c) 2015-2016, Robert Jablonski @ Cannot Into Space Fonts, all rights reserved.
</metadata>
<defs>
<font id="RabbidHighwaySignIVBd" horiz-adv-x="662" >
  <font-face 
    font-family="Rabbid Highway Sign IV"
    font-weight="400"
    font-stretch="normal"
    units-per-em="1000"
    panose-1="0 0 8 0 0 0 0 0 0 0"
    ascent="750"
    descent="-250"
    x-height="575"
    cap-height="823"
    bbox="-159 -254 1211 994"
    underline-thickness="50"
    underline-position="-150"
    unicode-range="U+0020-U+20BE"
  />
<missing-glyph horiz-adv-x="426" 
 />
    <glyph glyph-name=".notdef" horiz-adv-x="426" 
 />
    <glyph glyph-name=".null" horiz-adv-x="0" 
 />
    <glyph glyph-name="nonmarkingreturn" horiz-adv-x="333" 
 />
    <glyph glyph-name="space" unicode=" " horiz-adv-x="147" 
 />
    <glyph glyph-name="exclam" unicode="!" horiz-adv-x="254" 
d="M34 824h161l-20 -607h-121zM37 111q8 21 30 35.5t49 14.5q32 0 64 -15q14 -31 14 -68q0 -35 -14 -63q-32 -15 -64 -15q-34 0 -64 15q-15 48 -15 96z" />
    <glyph glyph-name="quotedbl" unicode="&#x22;" horiz-adv-x="351" 
d="M16 843h136v-287h-113zM187 843h136l-1 -287h-113z" />
    <glyph glyph-name="numbersign" unicode="#" horiz-adv-x="664" 
d="M11 199l18 129h101l32 169h-114l19 129h120l41 197h123l-41 -197h112l41 197h123l-41 -197h93l-18 -129h-101l-32 -169h114l-19 -129h-120l-42 -199h-122l41 199h-112l-41 -199h-123l41 199h-93zM253 328h111l32 169h-111z" />
    <glyph glyph-name="dollar" unicode="$" 
d="M34 130l112 98q29 -28 81.5 -49.5t104.5 -21.5q57 0 89 21t32 61q0 32 -39.5 60.5t-96 53t-113 53t-96.5 75t-40 104.5q0 84 60 155t152 87l9 70l97 40l4 -112q64 -11 121.5 -41t88.5 -73l-116 -89q-31 33 -60.5 42t-80.5 10q-49 1 -79 -24.5t-31 -60.5q0 -22 29.5 -42
t73.5 -36.5t96 -41t96 -51.5t73.5 -72.5t29.5 -100.5q0 -12 -3 -24q-8 -81 -78.5 -146.5t-168.5 -79.5l-8 -61l-97 -40l-3 106q-65 14 -130 51t-109 79z" />
    <glyph glyph-name="percent" unicode="%" horiz-adv-x="700" 
d="M-62 640q0 78 57.5 137t135.5 59t134.5 -59t56.5 -137t-56.5 -136.5t-134.5 -58.5t-135.5 58.5t-57.5 136.5zM53 0l450 823h130l-450 -823h-130zM54 640q0 -32 22.5 -55t53.5 -23q32 0 54 23t22 55q0 33 -22 56t-54 23t-54 -23t-22 -56zM363 187q0 78 57.5 136.5
t135.5 58.5q77 0 134 -58.5t57 -136.5q0 -79 -57 -137.5t-135 -58.5t-135 59t-57 137zM479 187q0 -33 22 -56t54 -23t54 23t22 56q0 32 -22 55t-54 24q-31 0 -53.5 -23.5t-22.5 -55.5z" />
    <glyph glyph-name="ampersand" unicode="&#x26;" horiz-adv-x="826" 
d="M15 225q-4 70 42 131q23 28 74.5 69t56.5 56q-1 3 -14 25l-23 40t-18.5 42.5t-8.5 41.5q0 83 51 134.5t126 62.5q109 15 183.5 -38.5t83.5 -140.5q2 -24 -3.5 -46t-15 -37.5t-27 -32.5t-30 -27t-33.5 -25t-30 -22q11 -44 47 -86q21 -10 42 -17t35 -10.5t35.5 -5t29 -1.5
t31 0.5t26.5 0.5q19 1 49 8.5t43 8.5q0 -36 -21 -82q-10 -3 -48 -19q-3 -2 -7 -6t-9 -10.5l-9 -12t-10.5 -15.5t-11.5 -17l67 -66l133 -128h-226l-22 22q-30 28 -60 60q-109 -90 -246 -91q-113 0 -194.5 61.5t-87.5 172.5zM193 236q1 -42 39 -64t92 -17q32 4 59 20t39 31
q-64 67 -144 159q-1 -1 -12 -8t-17.5 -12t-16.5 -13.5t-16 -17.5q-26 -39 -23 -78zM293 629q0 -14 9 -30.5t20 -30.5t12 -15q81 43 81 77q0 33 -14.5 49.5t-49.5 16.5q-58 0 -58 -67z" />
    <glyph glyph-name="quotesingle" unicode="'" horiz-adv-x="252" 
d="M52 843h136l-1 -287h-113z" />
    <glyph glyph-name="parenleft" unicode="(" horiz-adv-x="350" 
d="M23 342q1 249 152 447q31 50 42 57l146 -28q-45 -45 -86 -119q-100 -153 -100 -358q0 -185 89 -327q49 -98 96 -137l-152 -28q-9 9 -30 39q-64 76 -110.5 192.5t-46.5 261.5z" />
    <glyph glyph-name="parenright" unicode=")" horiz-adv-x="350" 
d="M-21 818l147 28q12 -12 28 -36q68 -83 116.5 -202.5t48.5 -265.5q0 -139 -47 -257t-108 -196q-19 -29 -30 -40l-147 28q40 40 76 103q103 158 103 362q0 202 -101 357q-41 74 -86 119z" />
    <glyph glyph-name="asterisk" unicode="*" horiz-adv-x="454" 
d="M49 608l15 91l110 -20l-29 121h67l17 -30l33 30h68l-30 -121l111 20l15 -91l-111 -23l68 -112l-89 -25l-57 82l-57 -82l-89 25l68 112z" />
    <glyph glyph-name="plus" unicode="+" horiz-adv-x="554" 
d="M24 313v147h176v176h147v-176h175v-147h-175v-176h-147v176h-176z" />
    <glyph glyph-name="comma" unicode="," horiz-adv-x="224" 
d="M-12 -114q36 25 53.5 59t19 65t0 60t3 52t21.5 33q35 0 65 -13.5t45 -35.5q-1 -5 -5 -22q-7 -52 -35 -99t-63 -74q-24 -17 -54 -34z" />
    <glyph glyph-name="hyphen" unicode="-" horiz-adv-x="517" 
d="M34 266v147h445v-147h-445z" />
    <glyph glyph-name="period" unicode="." horiz-adv-x="248" 
d="M33 111q8 21 30 35.5t49 14.5q32 0 64 -15q14 -31 14 -68q0 -35 -14 -63q-32 -15 -64 -15q-34 0 -64 15q-15 48 -15 96z" />
    <glyph glyph-name="slash" unicode="/" horiz-adv-x="509" 
d="M-4 -69l350 912h150l-350 -912h-150z" />
    <glyph glyph-name="zero" unicode="0" horiz-adv-x="679" 
d="M23 420q0 188 92 308.5t221 120.5t220.5 -120.5t91.5 -308.5q0 -195 -90 -312t-222 -117q-131 0 -222 117t-91 312zM192 420q0 -131 39.5 -203t104.5 -71q65 0 104 71t39 203q0 128 -39.5 201t-103.5 74q-65 0 -104.5 -74t-39.5 -201z" />
    <glyph glyph-name="one" unicode="1" horiz-adv-x="376" 
d="M24 548l26 139l188 153h99v-840h-168v598z" />
    <glyph glyph-name="two" unicode="2" horiz-adv-x="658" 
d="M21 0v57q1 1 4 3q9 38 55.5 92t106.5 108l118.5 108.5t98.5 110t40 97.5q0 45 -29.5 83.5t-97.5 38.5q-59 0 -101.5 -53t-42.5 -84l-150 44q0 23 20 62t55 80.5t94 71.5t125 30q74 0 133.5 -23t94.5 -61t53.5 -81.5t20.5 -88.5q4 -67 -30 -133t-85.5 -115t-103.5 -88.5
l-89 -67t-37 -37.5h355v-154h-608z" />
    <glyph glyph-name="three" unicode="3" horiz-adv-x="638" 
d="M10 233l158 49q1 -11 10 -44q25 -94 132 -94q69 0 109.5 40.5t36.5 98.5q-3 53 -46 84.5t-121 30.5l-54 104q77 5 123 59q42 50 19 96q-15 31 -59 46q-10 4 -20.5 5t-22 -1.5l-21.5 -4.5t-22 -8l-20 -10t-19.5 -11.5l-16 -10.5l-14.5 -10l-11 -8l-85 101q82 104 251 104
q121 0 184 -56t63 -136q0 -30 -14 -60.5t-29 -49.5t-41 -47q43 -20 86.5 -86t43.5 -142q0 -116 -87.5 -198.5t-211.5 -82.5q-64 0 -119 20.5t-89.5 52t-55.5 64t-28 62.5q-4 14 -9 43z" />
    <glyph glyph-name="four" unicode="4" horiz-adv-x="674" 
d="M-3 177l11 65l307 600h241v-511h88v-154h-88v-177h-161v177h-398zM220 331h175v353z" />
    <glyph glyph-name="five" unicode="5" horiz-adv-x="639" 
d="M19 229l145 41q9 -52 48 -90.5t98 -38.5q63 1 101.5 46t34.5 114q-4 120 -145 137q-58 2 -106 -31q-68 0 -143 -15l92 448h413v-154h-275l-22 -110q23 9 64 7q117 -4 195.5 -71.5t87.5 -187.5q1 -28 0 -58q-8 -117 -92.5 -196t-204.5 -79q-115 0 -194.5 70t-96.5 168z
" />
    <glyph glyph-name="six" unicode="6" horiz-adv-x="654" 
d="M21 250v30q0 31 11 67q38 142 234 433l43 60h195l-83 -114l-113 -162q31 7 64 6q97 -8 174.5 -89t78.5 -202q0 -7 -2 -19q-7 -122 -94 -195t-199 -74q-119 0 -206.5 75t-98.5 184h-4zM193 280q0 -63 36 -101.5t95 -38.5t96 38.5t37 100.5q0 63 -37.5 102t-95.5 39
q-57 0 -94 -39t-37 -101z" />
    <glyph glyph-name="seven" unicode="7" horiz-adv-x="644" 
d="M25 686v154h616l-27 -77l-32 -44q-121 -183 -200.5 -337t-126.5 -313q-12 -35 -21 -69h-189l22 59.5t24 62.5q107 349 284 564h-350z" />
    <glyph glyph-name="eight" unicode="8" horiz-adv-x="642" 
d="M21 232q0 152 126 230q-93 64 -93 171q0 91 80.5 153t182.5 63q102 0 181.5 -64t79.5 -152q0 -107 -92 -172q54 -32 88 -82.5t39 -113.5l1 -17q0 -16 -1 -16q-5 -100 -94 -170.5t-201 -70.5q-114 0 -202.5 70.5t-94.5 170.5zM197 262q0 -53 32.5 -85.5t87.5 -32.5
q53 0 86.5 32.5t33.5 85.5q0 49 -28.5 81t-75.5 37h-32q-48 -5 -76 -37t-28 -81zM217 618q0 -36 23.5 -59.5t62.5 -28.5h31q39 5 61 28t21 60q0 41 -26 65t-72 24t-73.5 -24.5t-27.5 -64.5z" />
    <glyph glyph-name="nine" unicode="9" horiz-adv-x="653" 
d="M22 561q0 130 89 209t206 79q118 0 205.5 -75t98.5 -183h4v-31q0 -29 -11 -67q-39 -144 -235 -432l-43 -61h-193l82 114l114 162q-2 0 -22 -4q-20 -3 -43 -2q-97 9 -174.5 90t-77.5 201zM189 561q0 -63 37.5 -102t95.5 -38q57 0 94 38.5t37 101.5q0 62 -36 100.5
t-95 38.5t-95.5 -38.5t-37.5 -100.5z" />
    <glyph glyph-name="colon" unicode=":" horiz-adv-x="244" 
d="M36 111q8 21 30 35.5t48 14.5q33 0 65 -15q14 -31 14 -68q0 -35 -14 -63q-32 -15 -65 -15q-32 0 -64 15q-14 51 -14 96zM36 410q8 21 30 35.5t48 14.5q36 0 65 -15q14 -31 14 -68q0 -33 -14 -63q-32 -15 -65 -15q-32 0 -64 15q-14 51 -14 96z" />
    <glyph glyph-name="semicolon" unicode=";" horiz-adv-x="233" 
d="M-17 -114q36 25 53.5 59t19 65t0.5 60t3.5 52t21.5 33q34 0 64 -13.5t45 -35.5q-2 -14 -5 -22q-7 -52 -35 -99t-63 -74q-24 -17 -54 -34zM33 410q8 21 30 35.5t48 14.5q37 0 65 -15q14 -35 14 -68q0 -30 -14 -63q-32 -15 -65 -15q-32 0 -64 15q-14 45 -14 96z" />
    <glyph glyph-name="less" unicode="&#x3c;" horiz-adv-x="611" 
d="M23 338v108l553 224v-146l-335 -132l335 -132v-146z" />
    <glyph glyph-name="equal" unicode="=" horiz-adv-x="567" 
d="M58 217v133h473v-133h-473zM58 434v133h473v-133h-473z" />
    <glyph glyph-name="greater" unicode="&#x3e;" horiz-adv-x="611" 
d="M27 114v146l335 132l-335 132v146l552 -224v-108z" />
    <glyph glyph-name="question" unicode="?" horiz-adv-x="568" 
d="M19 582q0 38 15.5 76.5t45 73t80.5 56.5t114 22q100 -1 179 -65t85 -160q1 -15 0 -29q-4 -42 -26 -77.5t-48 -58.5t-54 -57t-40 -71q-19 -12 -23.5 -23.5t-8.5 -52.5l-142 1q-4 96 5 142.5t38 75.5q20 21 54.5 46t51.5 44t17 45q0 43 -24 66.5t-65 23.5q-49 0 -77 -34.5
t-33 -84.5zM196 111q7 21 29 36t49 15q32 0 64 -15q15 -35 15 -69q0 -33 -15 -63q-32 -15 -64 -15t-64 15q-14 45 -14 96z" />
    <glyph glyph-name="at" unicode="@" horiz-adv-x="1160" 
d="M33 0q0 223 32.5 380.5t105.5 267.5t193 162.5t292 53.5q237 1 367 -169q100 -132 104 -315q4 -166 -72 -276q-72 -104 -185 -104h-161v56q-75 -72 -185 -64q-109 9 -181.5 94.5t-72.5 200.5t73 200.5t181 94.5q22 2 37 2q120 2 206 -33q29 5 38 4q36 -6 65 -15v-355
q58 2 84 80q32 92 0 206q-40 138 -149 198q-66 36 -149 36q-111 0 -192 -30.5t-133.5 -86.5t-83.5 -145.5t-43.5 -195t-12.5 -247.5h-158zM438 287q0 -68 37.5 -109.5t99.5 -41.5q60 0 97.5 40.5t38.5 107.5v3q0 67 -38.5 108.5t-97.5 42.5q-60 0 -98.5 -41.5t-38.5 -109.5z
" />
    <glyph glyph-name="A" unicode="A" horiz-adv-x="840" 
d="M2 0l345 823h139l345 -823h-181l-67 167h-333l-66 -167h-182zM313 321h207l-104 252z" />
    <glyph glyph-name="B" unicode="B" horiz-adv-x="693" 
d="M57 0v820l318 1q111 0 187.5 -67t76.5 -172q0 -95 -72 -162q95 -71 94 -185q0 -94 -67.5 -158t-167.5 -75q-36 -2 -56 -2h-313zM230 141h42q79 0 128 6q87 12 86 95q0 77 -80 90q-51 11 -148 11h-28v-202zM230 475h40q50 0 95 3q45 4 72 28t27 69t-27 70t-72 30
q-45 3 -95 3h-40v-203z" />
    <glyph glyph-name="C" unicode="C" horiz-adv-x="735" 
d="M23 411q0 151 100 269.5t242 141.5q57 10 115 3q41 -4 81 -18t67.5 -31.5t49 -34.5t32.5 -29l10 -11l-84 -106q-58 50 -131 59q-134 30 -219.5 -48.5t-85.5 -193.5q0 -116 85.5 -194.5t219.5 -48.5q32 4 65 22t50 34l16 16l84 -106l-11 -13.5t-31 -30.5t-50 -40
t-66.5 -34t-81.5 -19q-57 -7 -115 3q-141 23 -241.5 141t-100.5 269z" />
    <glyph glyph-name="D" unicode="D" horiz-adv-x="746" 
d="M57 0v822l244 1q45 0 89 -6q136 -17 230 -133.5t94 -271.5q0 -156 -93.5 -272.5t-230.5 -133.5q-44 -6 -90 -6h-243zM225 156q76 0 154 10q78 15 119 79.5t41 165.5t-41 165.5t-119 79.5q-74 11 -154 11v-511z" />
    <glyph glyph-name="E" unicode="E" horiz-adv-x="617" 
d="M57 0v823h526v-154h-358v-180h299v-154h-299v-181h358v-154h-526z" />
    <glyph glyph-name="F" unicode="F" horiz-adv-x="591" 
d="M57 0v823h504v-154h-336v-180h277v-154h-277v-335h-168z" />
    <glyph glyph-name="G" unicode="G" horiz-adv-x="825" 
d="M19 406q0 133 56.5 234.5t148.5 154t204 53.5q123 2 215.5 -49t124.5 -138l-138 -77q-23 53 -74.5 80.5t-117.5 25.5q-98 -2 -170.5 -78.5t-72.5 -201.5q0 -109 67 -184.5t160 -75.5q90 1 152.5 50.5t62.5 118.5l-207 -1l-20 137l403 2q6 -293 -40 -447l-56 19l-7 73
q-103 -111 -294 -111q-158 1 -277.5 124.5t-119.5 290.5z" />
    <glyph glyph-name="H" unicode="H" horiz-adv-x="701" 
d="M57 0v823h168v-328h269v328h168v-823h-168v327h-269v-327h-168z" />
    <glyph glyph-name="I" unicode="I" horiz-adv-x="280" 
d="M57 0v823h168v-823h-168z" />
    <glyph glyph-name="J" unicode="J" horiz-adv-x="249" 
d="M-145 -66q77 32 133 87t56 134v668h167v-678q-1 -106 -93.5 -178.5t-193.5 -73.5z" />
    <glyph glyph-name="K" unicode="K" horiz-adv-x="776" 
d="M57 0v823h168v-378l325 378h218l-356 -408l386 -415h-236l-337 385v-385h-168z" />
    <glyph glyph-name="L" unicode="L" horiz-adv-x="580" 
d="M57 0v823h168v-669h324v-154h-492z" />
    <glyph glyph-name="M" unicode="M" horiz-adv-x="927" 
d="M57 0v823h202l214 -519l212 519h203v-823h-167l-1 478l-200 -475h-95l-199 475l-2 -478h-167z" />
    <glyph glyph-name="N" unicode="N" horiz-adv-x="765" 
d="M57 0v823l119 -61l381 -409l2 470h167v-823l-120 61l-381 408v-469h-168z" />
    <glyph glyph-name="O" unicode="O" horiz-adv-x="864" 
d="M31 412q0 169 119 294t283 126q163 0 281.5 -125.5t117.5 -294.5q0 -111 -53.5 -208t-146 -155t-200.5 -58q-163 0 -282 125.5t-119 295.5zM209 412q0 -106 64 -177t159 -70q96 0 159.5 70.5t63.5 176.5q0 105 -63.5 175.5t-158.5 70.5q-96 0 -160 -70.5t-64 -175.5z" />
    <glyph glyph-name="P" unicode="P" horiz-adv-x="684" 
d="M57 0v822l324 1q91 -1 154.5 -38.5t91.5 -92t28 -118.5q0 -107 -79.5 -173.5t-186.5 -75.5q-34 -2 -164 -5v-320h-168zM225 466q92 0 159 8q46 6 72 31t26 66q0 45 -21 67.5t-73 29.5q-64 9 -163 9v-211z" />
    <glyph glyph-name="Q" unicode="Q" horiz-adv-x="896" 
d="M31 412q0 169 119 294t283 126q163 0 281.5 -125.5t117.5 -294.5q0 -134 -79 -247l132 -136l-172 -41l-69 69q-96 -66 -212 -66q-163 0 -282 125.5t-119 295.5zM209 412q0 -106 64 -177t159 -70q48 0 87 18l-82 82l115 106l77 -79q26 54 26 120q0 105 -63.5 175.5
t-158.5 70.5q-96 0 -160 -70.5t-64 -175.5z" />
    <glyph glyph-name="R" unicode="R" horiz-adv-x="697" 
d="M57 0v822l324 1q91 -1 154.5 -38.5t91.5 -92t28 -118.5q0 -129 -117 -201q37 -8 62.5 -59.5t36 -109.5l21 -111.5t20.5 -61.5l27 -31h-206q0 80 -19.5 157t-50 124t-60.5 44q-25 -3 -144 -5v-320h-168zM225 466q92 0 159 8q46 6 72 31t26 66q0 45 -21 67.5t-73 29.5
q-64 9 -163 9v-211z" />
    <glyph glyph-name="S" unicode="S" 
d="M34 130l112 98q29 -28 81.5 -49.5t104.5 -21.5q57 0 89 21t32 61q0 32 -39.5 60.5t-96 53t-113 53t-96.5 75t-40 104.5q0 95 75 170.5t183 75.5q75 0 155 -33t119 -87l-116 -89q-31 33 -60.5 42t-80.5 10q-49 1 -79 -24.5t-31 -60.5q0 -22 29.5 -42t73.5 -36.5t96 -41
t96 -51.5t73.5 -72.5t29.5 -100.5q0 -12 -3 -24q-9 -91 -94 -160t-197 -69q-76 0 -161.5 42t-141.5 96z" />
    <glyph glyph-name="T" unicode="T" horiz-adv-x="646" 
d="M12 669v154h605v-154h-218v-669h-168v669h-219z" />
    <glyph glyph-name="U" unicode="U" horiz-adv-x="734" 
d="M46 358l1 464h168l-1 -471q0 -194 158 -194t157 194l1 471h168l-1 -464q0 -34 -3 -67q-11 -138 -97 -219t-225 -81q-139 1 -225.5 81.5t-97.5 218.5q-3 33 -3 67z" />
    <glyph glyph-name="V" unicode="V" horiz-adv-x="822" 
d="M2 823h187l219 -552l218 552h186l-342 -823h-125z" />
    <glyph glyph-name="W" unicode="W" horiz-adv-x="1103" 
d="M9 823h182l131 -539l164 539h125l161 -539h2l132 539h181l-218 -823h-164l-157 496l-157 -496h-164z" />
    <glyph glyph-name="X" unicode="X" horiz-adv-x="813" 
d="M-10 0l307 421l-299 402h207l195 -257l194 257h213l-304 -402l312 -421h-212l-203 280l-203 -280h-207z" />
    <glyph glyph-name="Y" unicode="Y" horiz-adv-x="792" 
d="M-16 823h204l206 -313l203 313h202l-315 -476v-347h-183v347z" />
    <glyph glyph-name="Z" unicode="Z" horiz-adv-x="729" 
d="M-9 0l430 669h-333l-29 154h664l-431 -669h369l28 -154h-698z" />
    <glyph glyph-name="bracketleft" unicode="[" horiz-adv-x="372" 
d="M37 -152v990h308v-121h-166v-748h166v-121h-308z" />
    <glyph glyph-name="backslash" unicode="\" horiz-adv-x="509" 
d="M-3 843h150l350 -912h-151z" />
    <glyph glyph-name="bracketright" unicode="]" horiz-adv-x="372" 
d="M26 -31h166v748h-166v121h308v-990h-308v121z" />
    <glyph glyph-name="asciicircum" unicode="^" horiz-adv-x="532" 
d="M22 508l205 308h84l206 -308h-149l-99 154l-99 -154h-148z" />
    <glyph glyph-name="underscore" unicode="_" horiz-adv-x="561" 
d="M6 -2h575v-108h-575v108z" />
    <glyph glyph-name="grave" unicode="`" horiz-adv-x="323" 
d="M-1 765l121 67l195 -233l-102 -44z" />
    <glyph glyph-name="a" unicode="a" 
d="M25 287q0 115 73 200.5t181 94.5q22 2 37 2q120 2 206 -33q29 5 38 4q36 -6 65 -15v-540h-161v56q-75 -72 -185 -64q-109 9 -181.5 94.5t-72.5 200.5zM193 287q0 -68 37.5 -109.5t99.5 -41.5q60 0 97.5 40.5t38.5 107.5v3q0 67 -38.5 108.5t-97.5 42.5q-60 0 -98.5 -41.5
t-38.5 -109.5z" />
    <glyph glyph-name="b" unicode="b" horiz-adv-x="680" 
d="M46 0v861h161l-1 -302q78 25 149 25q24 0 35 -2q101 -7 173 -84.5t80 -182.5q3 -21 1 -48q-6 -110 -78 -189t-176 -86q-19 -1 -54 -1q-109 7 -183 61q-4 -11 -4 -52h-103zM206 259q8 -56 45 -89.5t90 -33.5q62 0 99.5 41.5t37.5 109.5q0 67 -38.5 108.5t-98.5 42.5
q-53 0 -90 -33.5t-45 -89.5v-56z" />
    <glyph glyph-name="c" unicode="c" horiz-adv-x="553" 
d="M25 286q0 107 72.5 192.5t173.5 99.5l15 3q24 3 60 -1q65 -5 113 -31t61 -49q7 -26 6.5 -62t-6.5 -53l-126 14l-8 15q-6 8 -10 12q-31 15 -73 10q-49 -8 -79.5 -48.5t-31.5 -100.5q0 -60 30.5 -100t80.5 -48q31 -6 65 6q49 10 76 46l104 -70q-15 -25 -46 -56
q-50 -48 -141 -64q-47 -11 -90 -5q-101 14 -173.5 98.5t-72.5 191.5z" />
    <glyph glyph-name="d" unicode="d" horiz-adv-x="663" 
d="M30 267q-2 27 1 48q8 100 74.5 174.5t161.5 88.5q30 6 76 6q63 0 125 -25l-1 302h162v-861h-104q0 41 -4 52q-76 -56 -183 -61q-35 0 -54 1q-104 7 -175.5 86t-78.5 189zM196 287q0 -68 37.5 -109.5t99.5 -41.5q53 0 90 33t45 88v58q-8 56 -44.5 89t-90.5 34
q-60 0 -98.5 -41.5t-38.5 -109.5z" />
    <glyph glyph-name="e" unicode="e" horiz-adv-x="632" 
d="M28 287q0 129 86 213t200 84q138 0 212 -91t74 -252h-406q7 -47 44 -78t86 -36q38 -4 74 11t58 44l134 -30q-30 -68 -94.5 -115t-170.5 -47q-117 0 -207 83t-90 214zM197 351h244q-4 42 -38.5 74.5t-85.5 32.5q-49 0 -80.5 -30t-39.5 -77z" />
    <glyph glyph-name="f" unicode="f" horiz-adv-x="447" 
d="M2 407v137h81q0 131 40 201t135 83q39 2 85.5 -8t50.5 -10l-36 -131q-3 0 -27 2t-36 -1q-30 -6 -40.5 -39.5t-10.5 -96.5h116v-137h-116l-1 -407h-161v407h-80z" />
    <glyph glyph-name="g" unicode="g" horiz-adv-x="659" 
d="M26 296q0 116 75 202.5t185 93.5h49q113 -4 181 -57q2 13 2 34h108v-546q0 -139 -85 -207t-219 -69q-187 0 -254 101l84 105q72 -61 171 -58q49 1 88.5 27t47.5 79q4 16 6 51q-55 -50 -145 -53q-23 0 -34 1q-110 6 -185 92.5t-75 203.5zM194 296q0 -68 37.5 -109.5
t99.5 -41.5q50 0 86 29t47 78q3 19 3 40v38q0 11 -1 17q-8 45 -42 72t-93 27q-60 0 -98.5 -41.5t-38.5 -108.5z" />
    <glyph glyph-name="h" unicode="h" horiz-adv-x="631" 
d="M48 0v841h162v-313q65 57 141 57q15 0 22 -2q76 -10 139.5 -62.5t76.5 -129.5q6 -28 6 -60v-331h-161l-1 327q0 52 -29.5 86t-78.5 34q-48 0 -81.5 -34.5t-33.5 -85.5v-327h-162z" />
    <glyph glyph-name="i" unicode="i" horiz-adv-x="266" 
d="M52 0v578h163v-578h-163zM54 757q8 21 31.5 35.5t50.5 14.5q32 0 62 -15q14 -30 14 -65t-14 -66q-31 -14 -68 -14q-34 0 -62 14q-14 51 -14 96z" />
    <glyph glyph-name="j" unicode="j" horiz-adv-x="247" 
d="M48 -165v743h162v-560zM50 755q8 22 31 36.5t51 14.5q31 0 61 -15q15 -32 15 -65q0 -34 -15 -66q-32 -15 -67 -15q-31 0 -61 15q-15 48 -15 95z" />
    <glyph glyph-name="k" unicode="k" horiz-adv-x="635" 
d="M48 0v868h162v-502l197 209h217l-268 -280l299 -295h-216l-229 226v-226h-162z" />
    <glyph glyph-name="l" unicode="l" horiz-adv-x="208" 
d="M23 0v848h161v-848h-161z" />
    <glyph glyph-name="m" unicode="m" horiz-adv-x="972" 
d="M47 0v579h140v-28q54 33 126 33q120 0 180 -75q38 42 80 58.5t100 16.5q115 1 185.5 -61t75.5 -166q2 -28 2 -44v-313h-161v270q0 35 -3 68q-7 102 -99 104q-92 0 -99 -107l1 -335h-163l-1 334q-6 108 -98 108q-95 0 -99 -104l-1 -338h-166z" />
    <glyph glyph-name="n" unicode="n" horiz-adv-x="637" 
d="M47 0v579h140v-34q60 39 139 39q128 1 201.5 -69.5t72.5 -190.5l1 -324h-161l-1 299q0 143 -113 143q-103 0 -111 -113q-2 -16 -2 -53v-276h-166z" />
    <glyph glyph-name="o" unicode="o" 
d="M25 287q0 118 90.5 207.5t212.5 89.5t212 -90t90 -207q0 -118 -90 -207.5t-212 -89.5t-212.5 89.5t-90.5 207.5zM189 287q0 -64 39.5 -106.5t98.5 -41.5q60 0 99.5 42t39.5 106t-39.5 106t-99.5 42q-59 0 -98.5 -42t-39.5 -106z" />
    <glyph glyph-name="p" unicode="p" horiz-adv-x="663" 
d="M28 -236v709q24 26 59 46q4 4 6.5 2.5l8.5 -5t12 -1.5q86 68 205 68q69 0 125 -22.5t89 -56.5t55 -76.5t30 -79t8 -67.5q0 -139 -83 -215t-206 -76q-76 0 -148 25l1 -251h-162zM188 280q0 -65 38.5 -104.5t96.5 -39.5q60 0 98.5 42t38.5 110q0 67 -37.5 108.5t-99.5 41.5
q-59 -1 -97 -40.5t-38 -105.5v-12z" />
    <glyph glyph-name="q" unicode="q" horiz-adv-x="663" 
d="M28 281q0 31 8 67.5t30 79t55 76.5t89 56.5t125 22.5q119 0 205 -68q6 -2 12 1.5l8.5 5t6.5 -2.5q35 -20 59 -46v-709h-162l1 251q-72 -25 -148 -25q-123 0 -206 76t-83 215zM194 288q0 -68 38.5 -110t98.5 -42q58 0 96.5 39.5t38.5 104.5v12q0 66 -38 105.5t-97 40.5
q-62 0 -99.5 -41.5t-37.5 -108.5z" />
    <glyph glyph-name="r" unicode="r" horiz-adv-x="511" 
d="M47 0v577h162v-69q17 28 61 51.5t93 25.5q20 0 48 -2q16 -3 32.5 -7t26 -6.5t13.5 -2.5l-42 -146q-8 0 -36 4q-58 10 -96 4q-37 -5 -60.5 -29t-31.5 -49.5t-8 -51.5v-299h-162z" />
    <glyph glyph-name="s" unicode="s" horiz-adv-x="522" 
d="M18 115l101 69q51 -58 129 -58q39 0 58.5 13t19.5 33q0 4 -5 7q-8 21 -53 43.5t-93 40.5t-88 55.5t-40 85.5q0 65 59 122t140 57q66 0 130.5 -28.5t102.5 -78.5l-93 -67q-52 45 -120 45q-31 0 -46 -12.5t-15 -31.5q0 -17 30 -33t72 -31.5t84.5 -35.5t72 -54.5t29.5 -79.5
q0 -73 -69.5 -129t-159.5 -56q-76 0 -145.5 33.5t-100.5 90.5z" />
    <glyph glyph-name="t" unicode="t" horiz-adv-x="404" 
d="M-2 424v137h80v177h162v-177h111v-137h-111v-159q0 -24 1 -35q3 -66 37 -76q10 -4 22 -4.5t24.5 1t16.5 1.5l25 -142q-4 0 -48.5 -6.5t-77.5 -3.5q-152 17 -160 200q-1 20 -1 62l-1 162h-80z" />
    <glyph glyph-name="u" unicode="u" horiz-adv-x="623" 
d="M37 239v336h162v-262q-1 -29 1 -80q9 -101 112 -101t111 101q2 50 2 80v262h162l-1 -311q0 -38 -2 -56q-8 -100 -81 -159t-191 -59q-128 1 -201.5 67t-73.5 182z" />
    <glyph glyph-name="v" unicode="v" horiz-adv-x="677" 
d="M3 575h185l147 -334l145 334h185l-276 -575h-108z" />
    <glyph glyph-name="w" unicode="w" horiz-adv-x="983" 
d="M9 577h179l114 -315l130 315h111l131 -315l113 315h179l-233 -577h-113l-132 321l-132 -321h-113z" />
    <glyph glyph-name="x" unicode="x" horiz-adv-x="665" 
d="M-15 0l243 300l-216 277h195l122 -156l122 156h195l-217 -277l243 -300h-199l-144 182l-144 -182h-200z" />
    <glyph glyph-name="y" unicode="y" horiz-adv-x="642" 
d="M0 575h177l140 -263l142 263h171l-458 -827l-124 69l188 346z" />
    <glyph glyph-name="z" unicode="z" horiz-adv-x="609" 
d="M-14 0l323 438h-259v137h555l-324 -438h290v-137h-585z" />
    <glyph glyph-name="braceleft" unicode="{" horiz-adv-x="372" 
d="M-56 308v70l90 80v380h308v-121h-166v-259l-90 -80v-70l90 -80v-259h166v-121h-308v380z" />
    <glyph glyph-name="bar" unicode="|" horiz-adv-x="251" 
d="M40 -90v933h148v-933h-148z" />
    <glyph glyph-name="braceright" unicode="}" horiz-adv-x="372" 
d="M-56 -31h166v259l90 80v70l-90 80v259h-166v121h308v-380l90 -80v-70l-90 -80v-380h-308v121z" />
    <glyph glyph-name="asciitilde" unicode="~" horiz-adv-x="622" 
d="M22 369q0 9 2 33q7 42 55.5 97t120.5 56q40 0 85.5 -24t80.5 -48t49 -24q32 0 42 30q21 32 21 63l113 -47q0 -20 -1 -32q-4 -25 -23.5 -59t-61 -64.5t-90.5 -30.5q-36 0 -71 15t-57.5 33t-46.5 33t-40 15q-31 0 -43 -30q-18 -30 -22 -62z" />
    <glyph glyph-name="uni00A0" unicode="&#xa0;" horiz-adv-x="147" 
 />
    <glyph glyph-name="cent" unicode="&#xa2;" horiz-adv-x="553" 
d="M25 286q0 101 65 183.5t159 104.5l11 78l97 40l4 -114q60 -7 103.5 -31.5t55.5 -46.5q7 -26 6.5 -62t-6.5 -53l-126 14l-8 15q-6 8 -10 12q-31 15 -73 10q-49 -8 -79.5 -48.5t-31.5 -100.5q0 -60 30.5 -100t80.5 -48q31 -6 65 6q49 10 76 46l104 -70q-15 -25 -46 -56
q-50 -48 -141 -64q-1 -1 -4 -1t-5 -1l-8 -65l-97 -40l-3 107q-93 24 -156 105t-63 180z" />
    <glyph glyph-name="yen" unicode="&#xa5;" horiz-adv-x="792" 
d="M-16 823h204l206 -313l203 313h202l-293 -442h118v-113h-140v-45h140v-113h-140v-110h-183v110h-150v113h150v45h-150v113h127z" />
    <glyph glyph-name="brokenbar" unicode="&#xa6;" horiz-adv-x="251" 
d="M40 -90v415h148v-415h-148zM40 415v428h148l1 -428h-149z" />
    <glyph glyph-name="guillemotleft" unicode="&#xab;" horiz-adv-x="877" 
d="M23 392l341 265h173l-335 -265l335 -265h-173zM311 392l341 265h173l-335 -265l335 -265h-173z" />
    <glyph glyph-name="logicalnot" unicode="&#xac;" horiz-adv-x="517" 
d="M34 266v147h445v-268h-129v121h-316z" />
    <glyph glyph-name="uni00AD" unicode="&#xad;" horiz-adv-x="418" 
d="M27 267v147h356v-147h-356z" />
    <glyph glyph-name="acute" unicode="&#xb4;" horiz-adv-x="323" 
d="M-1 599l195 233l121 -67l-214 -210z" />
    <glyph glyph-name="paragraph" unicode="&#xb6;" horiz-adv-x="917" 
d="M57 574q0 64 28 118.5t91.5 92t154.5 38.5l324 -1v-822h-168v320q-130 3 -164 5q-107 9 -186.5 75.5t-79.5 173.5zM696 0v823h168v-823h-168z" />
    <glyph glyph-name="cedilla" unicode="&#xb8;" horiz-adv-x="355" 
d="M23 -199l41 73q15 -16 47 -29.5t60 -9.5q42 5 47 26q6 18 -8.5 37t-43.5 28q-9 1 -17.5 1h-12t-4.5 1q-4 100 6 138l103 -13l-21 -64h-2q32 -4 70 -35.5t38 -78.5q0 -121 -152 -129q-30 0 -60 11.5t-55.5 26t-35.5 17.5z" />
    <glyph glyph-name="guillemotright" unicode="&#xbb;" horiz-adv-x="877" 
d="M23 127l335 265l-335 265h173l341 -265l-341 -265h-173zM311 127l335 265l-335 265h173l341 -265l-341 -265h-173z" />
    <glyph glyph-name="AE" unicode="&#xc6;" horiz-adv-x="1252" 
d="M67 0l538 823h606v-154h-364v-180h315v-154h-315v-181h364v-154h-563l-1 167h-269l-103 -167h-208zM469 321h177l1 289z" />
    <glyph glyph-name="Eth" unicode="&#xd0;" horiz-adv-x="746" 
d="M-54 344l27 123l84 -7v362l244 1q45 0 89 -6q136 -17 230 -133.5t94 -271.5q0 -156 -93.5 -272.5t-230.5 -133.5q-44 -6 -90 -6h-243v349zM225 156q76 0 154 10q78 15 119 79.5t41 165.5t-41 165.5t-119 79.5q-74 11 -154 11v-221l135 -12l-39 -72l-96 -5v-201z" />
    <glyph glyph-name="germandbls" unicode="&#xdf;" horiz-adv-x="657" 
d="M57 0v820l288 1q105 0 170 -58.5t65 -163.5q0 -60 -30 -101.5t-68 -49.5l47 -23t40 -26t37.5 -38t21.5 -51.5t10 -74.5q0 -65 -16.5 -108.5t-42.5 -68.5t-76 -38t-97.5 -16.5t-126.5 -3.5l-30 141q122 0 168 22t46 79q0 47 -46.5 82.5t-144.5 35.5v146q133 0 133 83
q0 25 -8 42t-20 26.5t-37.5 14t-47 5.5t-62.5 1v-591z" />
    <glyph glyph-name="ae" unicode="&#xe6;" horiz-adv-x="1170" 
d="M25 287q0 115 73 200.5t181 94.5q22 2 37 2q120 2 206 -33q29 5 38 4q36 -6 65 -15v-57q40 48 97 74.5t119 26.5q138 0 212 -91t74 -252h-406q7 -47 44 -78t86 -36q38 -4 74 11t58 44l134 -30q-30 -68 -94.5 -115t-170.5 -47q-72 0 -150 40.5t-99 83.5
q-37 -54 -118.5 -87.5t-205.5 -34.5q-109 9 -181.5 94.5t-72.5 200.5zM193 287q0 -68 37.5 -109.5t99.5 -41.5q60 0 97.5 40.5t38.5 107.5v3q0 67 -38.5 108.5t-97.5 42.5q-60 0 -98.5 -41.5t-38.5 -109.5zM724 351h244q-4 42 -38.5 74.5t-85.5 32.5q-49 0 -80.5 -30
t-39.5 -77z" />
    <glyph glyph-name="Dcroat" unicode="&#x110;" horiz-adv-x="746" 
d="M-40 477h97v345l244 1q45 0 89 -6q136 -17 230 -133.5t94 -271.5q0 -156 -93.5 -272.5t-230.5 -133.5q-44 -6 -90 -6h-243v322l-66 -8zM225 156q76 0 154 10q78 15 119 79.5t41 165.5t-41 165.5t-119 79.5q-74 11 -154 11v-190h94l12 -122l-106 -13v-186z" />
    <glyph glyph-name="dotlessi" unicode="&#x131;" horiz-adv-x="264" 
d="M47 0v575h162v-575h-162z" />
    <glyph glyph-name="IJ" unicode="&#x132;" horiz-adv-x="529" 
d="M57 0v823h168v-823h-168zM135 -66q77 32 133 87t56 134v668h167v-678q-1 -106 -93.5 -178.5t-193.5 -73.5z" />
    <glyph glyph-name="ij" unicode="&#x133;" horiz-adv-x="527" 
d="M52 0v578h163v-578h-163zM54 757q8 21 31.5 35.5t50.5 14.5q32 0 62 -15q14 -30 14 -65t-14 -66q-31 -14 -68 -14q-34 0 -62 14q-14 51 -14 96zM207 -28q55 11 73 24q36 27 36 99v483h162l-1 -480q0 -257 -237 -263q-15 17 -29.5 68t-3.5 69zM318 755q8 22 31 36.5
t51 14.5q31 0 61 -15q15 -32 15 -65q0 -34 -15 -66q-32 -15 -67 -15q-31 0 -61 15q-15 48 -15 95z" />
    <glyph glyph-name="OE" unicode="&#x152;" horiz-adv-x="1047" 
d="M31 412q0 172 126.5 295.5t317.5 124.5h526v-154h-358l-1 -189h299v-154h-299v-190h358v-154h-526q-99 0 -183.5 34t-140.5 92t-87.5 134.5t-31.5 160.5zM209 412q0 -109 70 -178t195 -69l1 493q-128 0 -197 -68.5t-69 -177.5z" />
    <glyph glyph-name="oe" unicode="&#x153;" horiz-adv-x="1170" 
d="M25 287q0 118 90.5 207.5t212.5 89.5t212 -90t90 -207q0 -118 -90 -207.5t-212 -89.5t-212.5 89.5t-90.5 207.5zM189 287q0 -64 39.5 -106.5t98.5 -41.5q60 0 99.5 42t39.5 106t-39.5 106t-99.5 42q-59 0 -98.5 -42t-39.5 -106zM554 287q0 129 86 213t200 84
q138 0 212 -91t74 -252h-406q7 -47 44 -78t86 -36q38 -4 74 11t58 44l134 -30q-30 -68 -94.5 -115t-170.5 -47q-117 0 -207 83t-90 214zM723 351h244q-4 42 -38.5 74.5t-85.5 32.5q-49 0 -80.5 -30t-39.5 -77z" />
    <glyph glyph-name="circumflex" unicode="&#x2c6;" horiz-adv-x="434" 
d="M-10 619l208 196l54 -19l184 -177l-115 -52l-109 89l-106 -89z" />
    <glyph glyph-name="caron" unicode="&#x2c7;" horiz-adv-x="431" 
d="M-11 762l115 53l108 -90l107 90l116 -53l-183 -176l-55 -19z" />
    <glyph glyph-name="uni02C9" unicode="&#x2c9;" horiz-adv-x="440" 
d="M35 773v129h363v-129h-363z" />
    <glyph glyph-name="uni02CA" unicode="&#x2ca;" horiz-adv-x="339" 
d="M2 791l198 203l129 -66l-218 -182z" />
    <glyph glyph-name="uni02CB" unicode="&#x2cb;" horiz-adv-x="339" 
d="M2 928l129 66l198 -203l-109 -45z" />
    <glyph glyph-name="uni02CD" unicode="&#x2cd;" horiz-adv-x="439" 
d="M35 -27h362v-129h-362v129z" />
    <glyph glyph-name="breve" unicode="&#x2d8;" horiz-adv-x="455" 
d="M23 767l123 18q0 -18 13 -43.5t41 -34.5q9 -4 23 -4q15 0 24 4q28 9 41 34t13 44l123 -18q-5 -70 -63 -119.5t-138 -48.5q-79 0 -137 48.5t-63 119.5z" />
    <glyph glyph-name="dotaccent" unicode="&#x2d9;" horiz-adv-x="290" 
d="M58 707q0 35 16 64q46 16 97 16q22 -8 37.5 -32.5t15.5 -53.5q0 -35 -16 -65q-32 -15 -67 -15t-67 15q-16 34 -16 71z" />
    <glyph glyph-name="ring" unicode="&#x2da;" horiz-adv-x="352" 
d="M24 698q0 55 44.5 95.5t103.5 41.5q59 0 103.5 -41.5t44.5 -96.5t-43.5 -96.5t-104.5 -40.5q-61 0 -104.5 41t-43.5 97zM119 698q0 -23 16 -40t38 -17t37.5 17t15.5 40q0 22 -16 38.5t-37 16.5t-37.5 -16.5t-16.5 -38.5z" />
    <glyph glyph-name="ogonek" unicode="&#x2db;" horiz-adv-x="306" 
d="M23 -108q-1 49 36 108.5t73 77.5l77 -55q-9 -6 -21.5 -16.5t-33 -40.5t-19.5 -57q0 -12 7.5 -20t16.5 -10q18 -13 35.5 4.5t21.5 32.5l71 -82q-2 -1 -21 -17.5t-37 -26.5q-37 -21 -81 -20q-48 2 -86.5 37t-38.5 85z" />
    <glyph glyph-name="tilde" unicode="&#x2dc;" horiz-adv-x="473" 
d="M14 604v2q2 27 8 50q9 50 42 92t82 46q16 0 26 -2q33 -4 80.5 -40t60.5 -39q7 -4 18 11q12 5 23 17.5t17 23t8 10.5h75l-1 -1q-1 -29 -13 -66.5t-42.5 -74t-71.5 -41.5q-14 -2 -32 0q-32 4 -73.5 45t-61.5 41q-23 0 -39.5 -18.5t-25.5 -37t-12 -18.5h-68z" />
    <glyph glyph-name="hungarumlaut" unicode="&#x2dd;" horiz-adv-x="413" 
d="M-10 611l181 215l124 -60l-196 -199zM203 611l182 215l124 -60l-197 -199z" />
    <glyph glyph-name="Euro" unicode="&#x20ac;" horiz-adv-x="735" 
d="M-159 220l142 176l569 2v-121l-315 -1q39 -65 108.5 -96.5t159.5 -10.5q32 4 65 22t50 34l16 16l84 -106l-11 -13.5t-31 -30.5t-50 -40t-66.5 -34t-81.5 -19q-57 -7 -115 3q-106 17 -193 91.5t-125 180.5l-69 -78zM-159 604l137 25l70 -78q38 106 124.5 180t192.5 91
q57 10 115 3q41 -4 81 -18t67.5 -31.5t49 -34.5t32.5 -29l10 -11l-84 -106q-58 50 -131 59q-90 21 -159 -10t-108 -96l314 -1v-121l-569 2z" />
    <glyph glyph-name="uni20BD" unicode="&#x20bd;" horiz-adv-x="684" 
d="M-40 122l20 146h77v52h-97l20 146h77v356l324 1q91 -1 154.5 -38.5t91.5 -92t28 -118.5q0 -107 -79.5 -173.5t-186.5 -75.5q-34 -2 -164 -5v-52h145l-100 -146h-45v-122h-168v122h-97zM225 466q92 0 159 8q46 6 72 31t26 66q0 45 -21 67.5t-73 29.5q-64 9 -163 9v-211z
" />
    <glyph glyph-name="PolskiZloty" unicode="&#x20be;" horiz-adv-x="609" 
d="M-115 0l323 438h-259v137h500l-1 273h161l3 -560q0 -43 12 -76q13 -56 95 -59q13 -15 -2.5 -75.5t-30.5 -77.5q-169 4 -216 130v-130h-585zM180 137h287q-14 40 -16 95q0 8 -0.5 25.5t-0.5 26.5l-1 217z" />
  </font>
</defs>
</svg>
