<?xml version="1.0" standalone="no"?>
<!DOCTYPE svg PUBLIC "-//W3C//DTD SVG 1.1//EN" "http://www.w3.org/Graphics/SVG/1.1/DTD/svg11.dtd" >
<svg>
<metadata>
Created by FontForge 20110222 at Sun Feb  8 09:56:24 2015
 By deploy user
Copyright 1992-2003 Adobe Systems Incorporated. All Rights Reserved. U.S. Patent Des. 454,582.
</metadata>
<defs>
<font id="MyriadWebPro-Italic" horiz-adv-x="1016" >
  <font-face 
    font-family="Myriad Web Pro"
    font-weight="400"
    font-style="italic"
    font-stretch="normal"
    units-per-em="2000"
    panose-1="2 11 5 3 3 4 3 9 2 4"
    ascent="1520"
    descent="-480"
    x-height="968"
    cap-height="1348"
    bbox="-220 -500 2242 1748"
    underline-thickness="100"
    underline-position="-150"
    slope="-11"
    unicode-range="U+0020-FB02"
  />
<missing-glyph horiz-adv-x="1000" 
d="M0 1400h1000v-1400h-1000v1400zM840 1300h-680l340 -510zM900 190v1020l-340 -510zM840 100l-340 510l-340 -510h680zM100 190l340 510l-340 510v-1020z" />
    <glyph glyph-name="f_i" unicode="fi" horiz-adv-x="1030" 
d="M260 0h-176l156 830h-128l26 138h130q37 252 167.5 365t318.5 113q145 0 228 -52l-56 -140q-84 46 -196 46q-111 0 -184 -72.5t-102 -259.5h534l-184 -968h-176l156 830h-356z" />
    <glyph glyph-name="f_l" unicode="fl" horiz-adv-x="1030" 
d="M260 0h-176l158 830h-130l26 138h130q43 254 177 366t331 112q169 0 278 -66l-262 -1380h-176l244 1276q-40 26 -132 26q-238 0 -284 -334h206l-26 -138h-206z" />
    <glyph glyph-name=".notdef" horiz-adv-x="1000" 
d="M0 1400h1000v-1400h-1000v1400zM840 1300h-680l340 -510zM900 190v1020l-340 -510zM840 100l-340 510l-340 -510h680zM100 190l340 510l-340 510v-1020z" />
    <glyph glyph-name="NULL" horiz-adv-x="0" 
 />
    <glyph glyph-name="nonmarkingreturn" horiz-adv-x="372" 
 />
    <glyph glyph-name="uni00A0" unicode="&#xa0;" horiz-adv-x="372" 
 />
    <glyph glyph-name="exclam" unicode="!" horiz-adv-x="482" 
d="M296 392h-140l154 956h200zM296 114q0 -58 -38 -97t-96 -39q-51 0 -83.5 34.5t-32.5 85.5q0 59 37 99.5t95 40.5q52 0 85 -35t33 -89z" />
    <glyph glyph-name="quotedbl" unicode="&#x22;" horiz-adv-x="630" 
d="M246 1386h184l-128 -492h-116zM554 1386h182l-128 -492h-116z" />
    <glyph glyph-name="numbersign" unicode="#" 
d="M242 0h-124l120 388h-168l22 122h186l90 288h-176l20 122h194l120 380h120l-118 -380h184l120 380h120l-118 -380h168l-20 -122h-186l-90 -288h178l-22 -122h-194l-122 -388h-122l120 388h-182zM402 510h182l90 288h-184z" />
    <glyph glyph-name="dollar" unicode="$" 
d="M438 -172h-126l38 200q-159 10 -276 92l60 138q122 -90 278 -90q114 0 190 60.5t76 155.5q0 133 -176 218q-270 135 -270 322q0 134 100.5 235t265.5 117l40 194h128l-38 -194q137 -7 226 -68l-60 -132q-110 66 -240 66q-104 0 -169 -55t-65 -137q0 -67 44.5 -112
t159.5 -102q242 -123 242 -320q0 -155 -104 -260t-284 -128z" />
    <glyph glyph-name="percent" unicode="%" horiz-adv-x="1588" 
d="M140 816q0 202 110.5 354t273.5 152q115 0 181.5 -77t66.5 -197q0 -222 -106.5 -373t-271.5 -151q-116 0 -185 79t-69 213zM630 1038q0 81 -31.5 127.5t-92.5 46.5q-90 0 -155 -125t-65 -275q0 -178 128 -178q90 0 153 126t63 278zM394 -22h-126l988 1344h124zM886 280
q0 202 110 353t272 151q115 0 181.5 -76.5t66.5 -195.5q0 -222 -106.5 -374t-269.5 -152q-116 0 -185 79.5t-69 214.5zM1374 502q0 172 -124 172q-90 0 -154 -124t-64 -276q0 -178 128 -178q89 0 151.5 127t62.5 279z" />
    <glyph glyph-name="ampersand" unicode="&#x26;" horiz-adv-x="1212" 
d="M1102 0h-210q-35 39 -94 124q-164 -146 -386 -146q-172 0 -275 95t-103 245q0 271 338 432l2 6q-76 132 -76 246q0 153 105.5 261.5t260.5 108.5q129 0 205.5 -76t76.5 -194q0 -235 -348 -390v-6q103 -168 244 -364q121 141 206 400h168q-120 -346 -290 -516
q108 -150 176 -226zM528 810q258 116 258 286q0 69 -35 110.5t-99 41.5q-80 0 -135 -65t-55 -163q0 -105 66 -210zM438 652q-224 -130 -224 -304q0 -103 66 -167.5t178 -64.5q149 0 266 116q-188 260 -286 420z" />
    <glyph glyph-name="quotesingle" unicode="'" horiz-adv-x="346" 
d="M258 1386h184l-128 -492h-116z" />
    <glyph glyph-name="parenleft" unicode="(" horiz-adv-x="580" 
d="M562 1382h146q-418 -485 -418 -1070q0 -286 112 -548h-134q-130 251 -130 552q0 294 110.5 569.5t313.5 496.5z" />
    <glyph glyph-name="parenright" unicode=")" horiz-adv-x="580" 
d="M62 -236h-148q418 496 418 1074q0 285 -112 544h136q128 -251 128 -548q0 -593 -422 -1070z" />
    <glyph glyph-name="asterisk" unicode="*" horiz-adv-x="844" 
d="M684 1372l118 -72l-224 -252l2 -4l310 42l-30 -142l-290 38l-2 -4l168 -244l-134 -74l-94 284h-4l-160 -284l-110 74l220 246v4l-304 -40l28 142l284 -40v4l-162 248l134 74l94 -284h4z" />
    <glyph glyph-name="plus" unicode="+" horiz-adv-x="1192" 
d="M544 1064h130v-468h434v-124h-434v-472h-130v472h-434v124h434v468z" />
    <glyph glyph-name="comma" unicode="," horiz-adv-x="434" 
d="M48 -232l-134 -14q132 261 200 486l208 20q-125 -287 -274 -492z" />
    <glyph glyph-name="uni00AD" unicode="&#xad;" horiz-adv-x="622" 
d="M98 610h486l-26 -136h-486z" />
    <glyph glyph-name="period" unicode="." horiz-adv-x="434" 
d="M292 116q0 -59 -37.5 -98.5t-96.5 -39.5q-51 0 -83.5 35t-32.5 87q0 60 37.5 100t94.5 40q52 0 85 -35t33 -89z" />
    <glyph glyph-name="slash" unicode="/" horiz-adv-x="664" 
d="M34 -78h-140l806 1450h144z" />
    <glyph glyph-name="zero" unicode="0" 
d="M1004 906q0 -369 -163.5 -648.5t-412.5 -279.5q-166 0 -253 117.5t-87 336.5q0 355 168.5 622.5t413.5 267.5q162 0 248 -111t86 -305zM262 424q0 -304 184 -304q102 0 188.5 115.5t139 309.5t52.5 347q0 288 -178 288q-152 0 -269 -244t-117 -512z" />
    <glyph glyph-name="one" unicode="1" 
d="M372 0l214 1124h-4l-224 -110l-18 138l300 148h150l-248 -1300h-170z" />
    <glyph glyph-name="two" unicode="2" 
d="M814 0h-814l22 116q355 284 482.5 399t203.5 231.5t76 229.5q0 80 -49.5 138t-154.5 58q-141 0 -280 -96l-46 126q166 120 362 120q167 0 259.5 -91t92.5 -233q0 -163 -125 -342.5t-555 -501.5v-4h554z" />
    <glyph glyph-name="three" unicode="3" 
d="M32 66l62 138q125 -76 264 -76q149 0 236.5 82t87.5 196q0 113 -78.5 168.5t-205.5 55.5h-68l28 138h68q120 0 223 67.5t103 176.5q0 160 -186 160q-150 0 -260 -76l-40 134q159 92 328 92q157 0 250.5 -80t93.5 -204q0 -113 -80 -204.5t-212 -129.5l-2 -4
q107 -25 165.5 -105.5t58.5 -188.5q0 -181 -150 -304.5t-368 -123.5q-99 0 -187 24.5t-131 63.5z" />
    <glyph glyph-name="four" unicode="4" 
d="M698 0h-166l68 354h-578l24 118l702 828h198l-154 -806h180l-28 -140h-178zM238 494h389q96 512 131 636h-8q-115 -176 -144 -210z" />
    <glyph glyph-name="five" unicode="5" 
d="M1002 1300l-30 -154h-462l-100 -318q47 4 68 4q85 0 187 -38.5t155.5 -123t53.5 -188.5q0 -224 -158.5 -364t-387.5 -140q-183 0 -298 76l54 138q113 -64 258 -64q140 0 244 93.5t104 222.5q0 248 -324 248q-44 0 -154 -8l182 616h608z" />
    <glyph glyph-name="six" unicode="6" 
d="M966 1320l-24 -150q-255 0 -421.5 -144t-228.5 -328h4q62 75 151.5 118.5t176.5 43.5q150 0 238 -98.5t88 -259.5q0 -204 -144.5 -364t-347.5 -160q-183 0 -284.5 116.5t-101.5 317.5q0 238 126.5 462.5t332 335t435.5 110.5zM246 388q0 -123 59 -195.5t163 -72.5
q122 0 211 112.5t89 255.5q0 114 -56 174t-156 60q-65 0 -128 -33.5t-111 -89t-59.5 -94.5t-11.5 -117z" />
    <glyph glyph-name="seven" unicode="7" 
d="M272 1300h804l-22 -110q-2 -12 -119 -194l-647 -996h-196l760 1146l-2 4h-608z" />
    <glyph glyph-name="eight" unicode="8" 
d="M356 698q-142 100 -142 252q0 160 125.5 266t302.5 106q152 0 248 -82t96 -218q0 -212 -254 -332v-6q194 -105 194 -304q0 -179 -139 -290.5t-333 -111.5q-184 0 -294 91t-110 235q0 129 80.5 230.5t225.5 157.5v6zM584 748q107 32 169.5 100.5t62.5 153.5
q0 81 -49.5 133.5t-142.5 52.5q-98 0 -167 -67t-69 -157q0 -154 196 -216zM510 622q-127 -31 -200.5 -109.5t-73.5 -186.5q0 -88 61 -151t171 -63q119 0 197.5 70t78.5 180q0 185 -234 260z" />
    <glyph glyph-name="nine" unicode="9" 
d="M116 -20l20 150q100 0 173.5 14t169 70t178.5 154t133 232h-4q-127 -142 -306 -142q-150 0 -239 98t-89 244q0 205 146.5 363.5t349.5 158.5q175 0 270.5 -113.5t95.5 -308.5q0 -321 -225.5 -620.5t-672.5 -299.5zM836 926q0 121 -53 187.5t-153 66.5q-118 0 -207 -108.5
t-89 -251.5q0 -102 53 -163t147 -61q61 0 117.5 25t99.5 68t64 88t21 149z" />
    <glyph glyph-name="colon" unicode=":" horiz-adv-x="434" 
d="M426 814q0 -58 -38 -98t-96 -40q-51 0 -83.5 35t-32.5 87q0 60 37.5 100t94.5 40q52 0 85 -35t33 -89zM290 116q0 -58 -37.5 -98t-96.5 -40q-51 0 -83.5 35t-32.5 87q0 60 37.5 100t94.5 40q52 0 85 -35t33 -89z" />
    <glyph glyph-name="semicolon" unicode=";" horiz-adv-x="434" 
d="M436 814q0 -58 -37.5 -98t-96.5 -40q-51 0 -83.5 35t-32.5 87q0 60 37.5 100t94.5 40q52 0 85 -35t33 -89zM48 -232l-136 -14q126 243 200 486l208 20q-128 -293 -272 -492z" />
    <glyph glyph-name="less" unicode="&#x3c;" horiz-adv-x="1192" 
d="M154 476v112l898 476v-142l-746 -388v-4l746 -388v-142z" />
    <glyph glyph-name="equal" unicode="=" horiz-adv-x="1192" 
d="M1110 676h-998v124h998v-124zM1110 276h-998v124h998v-124z" />
    <glyph glyph-name="greater" unicode="&#x3e;" horiz-adv-x="1192" 
d="M1082 590v-116l-898 -474v142l750 388v4l-750 388v142z" />
    <glyph glyph-name="question" unicode="?" horiz-adv-x="794" 
d="M434 388h-172q12 153 69 244.5t133 169.5q116 121 145 178t29 106q0 138 -152 138q-115 0 -208 -56l-34 128q133 76 286 76q133 0 212.5 -73.5t79.5 -178.5q0 -85 -41.5 -170t-178.5 -222q-140 -140 -160 -282q-5 -46 -8 -58zM420 114q0 -58 -38 -97t-96 -39
q-51 0 -83.5 34.5t-32.5 85.5q0 60 37.5 100t94.5 40q52 0 85 -35t33 -89z" />
    <glyph glyph-name="at" unicode="@" horiz-adv-x="1476" 
d="M1056 148l34 -92q-146 -78 -354 -78q-272 0 -450 175.5t-178 454.5q0 322 208 543t534 221q263 0 431.5 -166.5t168.5 -423.5q0 -206 -105.5 -335t-256.5 -129q-67 0 -110.5 43t-43.5 133h-6q-106 -176 -290 -176q-93 0 -157.5 71t-64.5 185q0 192 138.5 331t339.5 139
q126 0 224 -44q-68 -367 -73 -398t-5 -69q0 -113 74 -113q85 0 152.5 98t67.5 254q0 226 -136 365t-366 139q-257 0 -431.5 -182.5t-174.5 -471.5q0 -249 146.5 -397.5t385.5 -148.5q169 0 298 72zM936 702l40 214q-44 16 -102 16q-131 0 -225.5 -103t-94.5 -247
q0 -67 35.5 -109.5t102.5 -42.5q81 0 153 86t91 186z" />
    <glyph glyph-name="A" unicode="A" horiz-adv-x="1176" 
d="M828 424h-478l-216 -424h-188l710 1348h212l200 -1348h-182zM414 564h400q-62 415 -82 628h-4q-87 -195 -110 -238z" />
    <glyph glyph-name="B" unicode="B" horiz-adv-x="1072" 
d="M66 10l252 1318q141 30 302 30q208 0 315 -88t107 -218q0 -116 -80.5 -207.5t-211.5 -126.5v-4q106 -33 165 -111.5t59 -188.5q0 -176 -146 -300t-470 -124q-178 0 -292 20zM470 1206l-82 -428h130q151 0 246.5 70.5t95.5 185.5q0 184 -248 184q-102 0 -142 -12zM360 644
l-96 -504q59 -8 142 -8q175 0 278.5 75t103.5 215q0 105 -78.5 163.5t-207.5 58.5h-142z" />
    <glyph glyph-name="C" unicode="C" horiz-adv-x="1160" 
d="M1018 188l24 -142q-152 -68 -370 -68q-264 0 -418 153t-154 419q0 220 102 409.5t291.5 300t424.5 110.5q206 0 312 -68l-58 -140q-106 58 -280 58q-260 0 -432 -185.5t-172 -464.5q0 -208 110 -325t318 -117q181 0 302 60z" />
    <glyph glyph-name="D" unicode="D" horiz-adv-x="1348" 
d="M68 8l250 1322q171 28 350 28q314 0 485 -146t171 -404q0 -339 -222.5 -578.5t-689.5 -239.5q-178 0 -344 18zM472 1200l-200 -1054q59 -10 182 -10q333 0 506.5 187.5t173.5 478.5q0 412 -468 412q-121 0 -194 -14z" />
    <glyph glyph-name="E" unicode="E" horiz-adv-x="976" 
d="M898 778l-30 -150h-508l-90 -478h572l-30 -150h-748l256 1348h718l-30 -150h-540l-80 -420h510z" />
    <glyph glyph-name="F" unicode="F" horiz-adv-x="966" 
d="M64 0l256 1348h714l-30 -150h-536l-84 -442h494l-30 -150h-494l-114 -606h-176z" />
    <glyph glyph-name="G" unicode="G" horiz-adv-x="1298" 
d="M1226 710l-122 -650q-206 -74 -402 -74q-293 0 -447.5 159.5t-154.5 412.5q0 215 104 404t299.5 294.5t436.5 105.5q214 0 338 -64l-58 -148q-122 62 -300 62q-175 0 -323.5 -87t-227.5 -239.5t-79 -313.5q0 -211 114 -323.5t332 -112.5q128 0 214 40l74 390h-280l28 144
h454z" />
    <glyph glyph-name="H" unicode="H" horiz-adv-x="1300" 
d="M322 1348h178l-108 -564h638l108 564h178l-256 -1348h-178l120 628h-640l-120 -628h-176z" />
    <glyph glyph-name="I" unicode="I" horiz-adv-x="480" 
d="M318 1348h178l-258 -1348h-176z" />
    <glyph glyph-name="J" unicode="J" horiz-adv-x="756" 
d="M440 454l170 894h176l-174 -916q-45 -241 -152.5 -347.5t-307.5 -106.5q-131 0 -212 36l38 150q77 -30 178 -30q122 0 187 75t97 245z" />
    <glyph glyph-name="K" unicode="K" horiz-adv-x="1070" 
d="M64 0l256 1348h176l-124 -652h8q51 63 117 130l501 522h224l-582 -580l362 -768h-192l-308 658l-166 -152l-96 -506h-176z" />
    <glyph glyph-name="L" unicode="L" horiz-adv-x="918" 
d="M64 0l256 1348h178l-228 -1194h562l-30 -154h-738z" />
    <glyph glyph-name="M" unicode="M" horiz-adv-x="1610" 
d="M1402 0h-174l94 712q36 261 76 472h-6q-133 -287 -220 -446l-400 -728h-136l-102 710q-27 200 -46 464h-4l-108 -472l-180 -712h-166l350 1348h230l108 -754q32 -230 36 -348h6q71 175 162 342l414 760h236z" />
    <glyph glyph-name="N" unicode="N" horiz-adv-x="1310" 
d="M234 0h-168l256 1348h198l318 -752q77 -182 126 -380l4 2q7 163 56 422l134 708h168l-256 -1348h-178l-318 754q-85 202 -132 392l-6 -2q-15 -144 -72 -448z" />
    <glyph glyph-name="O" unicode="O" horiz-adv-x="1394" 
d="M1370 804q0 -220 -94.5 -417t-261 -303t-372.5 -106q-251 0 -396.5 157t-145.5 407q0 223 99 424.5t270.5 303.5t362.5 102q255 0 396.5 -155.5t141.5 -412.5zM284 556q0 -199 98 -314.5t280 -115.5q209 0 364.5 205t155.5 467q0 203 -95 314.5t-281 111.5
q-214 0 -368 -207t-154 -461z" />
    <glyph glyph-name="P" unicode="P" horiz-adv-x="1048" 
d="M64 0l254 1328q134 30 304 30q210 0 328 -92t118 -262q0 -205 -156.5 -342.5t-429.5 -137.5q-76 0 -142 12l-102 -536h-174zM466 1202l-98 -518q54 -14 138 -14q170 0 277 90.5t107 231.5q0 110 -70.5 167t-201.5 57q-98 0 -152 -14z" />
    <glyph glyph-name="Q" unicode="Q" horiz-adv-x="1394" 
d="M1234 -46l-62 -146q-140 32 -287 75.5t-207 68.5q-71 28 -98 28q-211 13 -345.5 165t-134.5 399q0 225 100 423.5t268 301.5t364 103q254 0 396 -156t142 -410q0 -181 -66.5 -352t-181.5 -279t-256 -149v-6q244 -49 368 -66zM286 552q0 -198 95.5 -313t274.5 -115
q224 0 376 207t152 469q0 198 -95 311t-279 113q-216 0 -370 -209t-154 -463z" />
    <glyph glyph-name="R" unicode="R" horiz-adv-x="1082" 
d="M66 0l254 1328q129 30 308 30q208 0 323 -91.5t115 -234.5q0 -134 -88.5 -239.5t-235.5 -148.5v-4q134 -47 150 -266q29 -343 46 -374h-184q-18 81 -34 324q-9 134 -59.5 196t-154.5 62h-154l-110 -582h-176zM472 1204l-92 -486h154q153 0 250.5 84.5t97.5 205.5
q0 102 -70 156t-196 54q-92 0 -144 -14z" />
    <glyph glyph-name="S" unicode="S" horiz-adv-x="966" 
d="M24 76l66 144q134 -90 302 -90q123 0 206.5 67.5t83.5 178.5q0 76 -48 134t-154 112q-147 76 -214.5 160t-67.5 188q0 181 136.5 290.5t333.5 109.5q172 0 290 -72l-64 -144q-111 66 -244 66q-118 0 -193 -64t-75 -150q0 -73 45.5 -127t170.5 -119q143 -75 205.5 -161
t62.5 -201q0 -182 -136.5 -301t-363.5 -119q-98 0 -194.5 27.5t-147.5 70.5z" />
    <glyph glyph-name="T" unicode="T" horiz-adv-x="986" 
d="M310 0l226 1196h-408l30 152h996l-30 -152h-410l-228 -1196h-176z" />
    <glyph glyph-name="U" unicode="U" horiz-adv-x="1286" 
d="M320 1348h176l-150 -784q-16 -90 -16 -170q0 -129 69 -197.5t189 -68.5q152 0 249 108.5t139 325.5l150 786h178l-152 -792q-56 -289 -203 -433.5t-385 -144.5q-192 0 -301 107t-109 307q0 90 18 184z" />
    <glyph glyph-name="V" unicode="V" horiz-adv-x="1118" 
d="M544 0h-198l-180 1348h180l104 -852q30 -235 30 -310h6q75 180 154 332l432 830h196z" />
    <glyph glyph-name="W" unicode="W" horiz-adv-x="1706" 
d="M460 0h-192l-74 1348h178l30 -796q4 -112 4 -358h4q55 157 144 350l370 804h192l28 -762q6 -180 6 -388h4q71 211 136 354l362 796h186l-636 -1348h-188l-36 754q-5 103 -5 178q0 81 7 218h-6q-83 -247 -138 -362z" />
    <glyph glyph-name="X" unicode="X" horiz-adv-x="1082" 
d="M974 0h-188q-194 475 -224 566h-4q-126 -190 -404 -566h-214l540 686l-266 662h188q190 -492 204 -548h4q118 178 135 199l265 349h214l-534 -662z" />
    <glyph glyph-name="Y" unicode="Y" horiz-adv-x="1070" 
d="M510 0h-176l106 558l-274 790h188q152 -485 167.5 -538t28.5 -120h4q114 180 156 242l284 416h210l-588 -788z" />
    <glyph glyph-name="Z" unicode="Z" horiz-adv-x="1090" 
d="M-38 0l20 106l934 1086v6h-662l30 150h902l-22 -110l-928 -1082l2 -6h732l-28 -150h-980z" />
    <glyph glyph-name="bracketleft" unicode="[" horiz-adv-x="580" 
d="M400 -224h-360l304 1596h360l-22 -112h-218l-262 -1372h218z" />
    <glyph glyph-name="backslash" unicode="\" horiz-adv-x="670" 
d="M628 -78h-138l-366 1450h136z" />
    <glyph glyph-name="bracketright" unicode="]" horiz-adv-x="580" 
d="M220 1372h360l-304 -1596h-360l22 112h218l262 1372h-220z" />
    <glyph glyph-name="asciicircum" unicode="^" horiz-adv-x="1192" 
d="M1068 376h-142l-324 772h-4l-324 -772h-140l404 924h126z" />
    <glyph glyph-name="underscore" unicode="_" horiz-adv-x="1000" 
d="M-96 -150h1000l-20 -100h-1000z" />
    <glyph glyph-name="grave" unicode="`" horiz-adv-x="778" 
d="M290 1378h196l134 -290h-126z" />
    <glyph glyph-name="a" unicode="a" horiz-adv-x="1082" 
d="M892 0h-166q0 69 22 254h-4q-145 -276 -388 -276q-129 0 -209.5 91.5t-80.5 234.5q0 277 193.5 481.5t494.5 204.5q149 0 274 -38q-100 -521 -112.5 -597t-18 -153.5t-5.5 -201.5zM776 558l52 278q-42 14 -118 14q-184 0 -322 -156t-138 -360q0 -99 43.5 -155.5
t126.5 -56.5q110 0 215 122.5t141 313.5z" />
    <glyph glyph-name="b" unicode="b" horiz-adv-x="1090" 
d="M320 1424h176l-128 -634h4q135 200 352 200q144 0 224 -98.5t80 -255.5q0 -256 -174.5 -457t-445.5 -201q-150 0 -231 66t-81 192q0 68 18 158zM654 844q-101 0 -196 -87.5t-138.5 -236t-43.5 -258.5q0 -146 162 -146q171 0 288.5 156.5t117.5 341.5q0 103 -50 166.5
t-140 63.5z" />
    <glyph glyph-name="c" unicode="c" horiz-adv-x="878" 
d="M736 178l16 -138q-129 -62 -296 -62q-179 0 -282.5 105t-103.5 275q0 258 176 445t432 187q123 0 214 -46l-50 -138q-76 38 -174 38q-176 0 -295 -140.5t-119 -323.5q0 -121 65.5 -189.5t182.5 -68.5q115 0 234 56z" />
    <glyph glyph-name="d" unicode="d" horiz-adv-x="1088" 
d="M946 1424h176l-214 -1116q-30 -154 -40 -308h-164l28 194h-4q-146 -216 -362 -216q-137 0 -218.5 99.5t-81.5 260.5q0 171 82.5 323.5t225 240.5t308.5 88q103 0 176 -32zM768 488l62 322q-64 40 -162 40q-171 0 -294.5 -145.5t-123.5 -342.5q0 -113 48 -176.5t140 -63.5
q102 0 201 105t129 261z" />
    <glyph glyph-name="e" unicode="e" horiz-adv-x="938" 
d="M760 188l24 -132q-146 -78 -334 -78q-182 0 -282 107t-100 289q0 236 159 426t383 190q136 0 217 -70.5t81 -183.5q0 -95 -51.5 -158t-144 -98t-196 -45.5t-272.5 -10.5q-3 -18 -3 -43q0 -128 67 -194.5t180 -66.5q148 0 272 68zM264 558q230 -3 352 35t122 139
q0 57 -41.5 89.5t-110.5 32.5q-106 0 -195.5 -83.5t-126.5 -212.5z" />
    <glyph glyph-name="f" unicode="f" horiz-adv-x="584" 
d="M258 0h-176l156 830h-128l26 138h130q37 255 145 366.5t261 111.5q85 0 138 -26l-36 -142q-38 20 -100 20q-86 0 -144.5 -72t-87.5 -258h216l-26 -138h-216z" />
    <glyph glyph-name="g" unicode="g" horiz-adv-x="1086" 
d="M24 -348l48 136q106 -64 268 -64q77 0 139.5 24.5t112 82t72 125t62.5 250.5h-4q-129 -204 -344 -204q-140 0 -225 99t-85 243q0 171 82.5 322t227.5 237.5t322 86.5q169 0 326 -70l-148 -796q-59 -312 -191 -428t-359 -116q-194 0 -304 72zM774 510l58 306
q-69 34 -164 34q-173 0 -293.5 -145t-120.5 -335q0 -107 49 -168.5t143 -61.5q106 0 203 111t125 259z" />
    <glyph glyph-name="h" unicode="h" horiz-adv-x="1104" 
d="M236 0h-176l272 1424h176l-122 -628h4q140 194 356 194q108 0 179 -69t71 -197q0 -84 -15 -162l-107 -562h-178l75 388q34 177 38.5 214.5t4.5 79.5q0 76 -39.5 119t-114.5 43q-102 0 -204.5 -106t-131.5 -264z" />
    <glyph glyph-name="i" unicode="i" horiz-adv-x="474" 
d="M236 0h-176l184 968h176zM500 1266q0 -49 -34 -85.5t-88 -36.5q-47 0 -76.5 31.5t-29.5 80.5q0 52 35 87t85 35q48 0 78 -31.5t30 -80.5z" />
    <glyph glyph-name="j" unicode="j" horiz-adv-x="472" 
d="M256 968h176l-182 -962q-49 -262 -139.5 -344t-214.5 -82q-77 0 -116 12l22 140q23 -8 78 -8q77 0 121 63t67 187zM502 1266q0 -49 -34 -85.5t-88 -36.5q-47 0 -76.5 31.5t-29.5 80.5q0 52 35 87t85 35q48 0 78 -31.5t30 -80.5z" />
    <glyph glyph-name="k" unicode="k" horiz-adv-x="948" 
d="M236 0h-176l270 1424h176l-170 -894h4q47 54 152 156l286 282h220l-432 -398l300 -570h-196l-240 472l-126 -110z" />
    <glyph glyph-name="l" unicode="l" horiz-adv-x="474" 
d="M236 0h-176l272 1424h176z" />
    <glyph glyph-name="m" unicode="m" horiz-adv-x="1668" 
d="M232 0h-172l128 690q21 109 46 278h154l-26 -184h6q141 206 350 206q103 0 165 -57.5t69 -160.5q137 218 366 218q105 0 174.5 -69t69.5 -193q0 -78 -18 -174l-104 -554h-172l73 393q33 175 38 212.5t5 66.5q0 172 -150 172q-94 0 -186 -99t-126 -281l-88 -464h-172
l83 428q31 162 34 190.5t3 55.5q0 170 -150 170q-93 0 -188.5 -108t-123.5 -260z" />
    <glyph glyph-name="n" unicode="n" horiz-adv-x="1104" 
d="M238 0h-178l130 690q32 168 46 278h160l-26 -194h4q141 216 368 216q113 0 183.5 -71t70.5 -205q0 -60 -17 -150l-105 -564h-176l74 390q33 177 37.5 213.5t4.5 68.5q0 172 -156 172q-100 0 -202.5 -107.5t-133.5 -276.5z" />
    <glyph glyph-name="o" unicode="o" horiz-adv-x="1086" 
d="M1022 578q0 -242 -159 -421t-393 -179q-180 0 -289 114t-109 290q0 250 158 429t394 179q184 0 291 -116t107 -296zM252 388q0 -121 65 -196.5t171 -75.5q141 0 245.5 141.5t104.5 320.5q0 114 -61.5 194t-172.5 80q-147 0 -249.5 -141.5t-102.5 -322.5z" />
    <glyph glyph-name="p" unicode="p" horiz-adv-x="1092" 
d="M148 -398h-176l194 1020q31 160 54 350h162l-28 -188h4q69 99 163.5 152.5t194.5 53.5q146 0 229 -101t83 -259q0 -263 -170.5 -457.5t-409.5 -194.5q-50 0 -92 6.5t-71 16.5l-55 21h-4zM304 424l-46 -254q71 -54 190 -54q155 0 275.5 153t120.5 349q0 99 -50 162.5
t-142 63.5q-110 0 -212 -116t-136 -304z" />
    <glyph glyph-name="q" unicode="q" horiz-adv-x="1088" 
d="M776 -398h-178l118 574h-4q-60 -94 -154.5 -146t-191.5 -52q-138 0 -219 101t-81 259q0 262 180.5 457t451.5 195q175 0 326 -64zM770 498l60 316q-60 36 -168 36q-165 0 -288.5 -146.5t-123.5 -345.5q0 -110 47 -173t125 -63q117 0 217.5 110t130.5 266z" />
    <glyph glyph-name="r" unicode="r" horiz-adv-x="660" 
d="M236 0h-176l116 620q32 167 50 348h156q-15 -131 -28 -214h6q116 236 304 236q21 0 50 -4l-34 -174q-10 4 -48 4q-107 0 -195.5 -112.5t-122.5 -291.5z" />
    <glyph glyph-name="s" unicode="s" horiz-adv-x="772" 
d="M20 46l50 130q111 -62 218 -62q81 0 132.5 44t51.5 108q0 55 -30.5 93.5t-107.5 80.5q-184 97 -184 248q0 130 103 216t261 86q131 0 210 -50l-50 -132q-81 46 -174 46q-75 0 -123.5 -40t-48.5 -100q0 -50 32.5 -86t105.5 -74q188 -99 188 -254q0 -145 -107.5 -233.5
t-274.5 -88.5q-153 0 -252 68z" />
    <glyph glyph-name="t" unicode="t" horiz-adv-x="648" 
d="M316 1148l184 54l-46 -234h236l-28 -138h-234q-88 -460 -97 -511t-9 -95q0 -96 94 -96q51 0 80 8l-10 -140q-44 -18 -134 -18q-101 0 -155.5 52t-54.5 140q0 71 16 155l96 505h-138l26 138h140z" />
    <glyph glyph-name="u" unicode="u" horiz-adv-x="1088" 
d="M858 968h176l-132 -690q-26 -137 -44 -278h-158l26 184l-4 2q-71 -100 -163.5 -154t-188.5 -54q-126 0 -195 73t-69 215q0 73 21 180l101 522h176l-100 -518q-9 -51 -13.5 -86.5t-4.5 -65.5q0 -172 158 -172q99 0 194.5 101.5t125.5 254.5z" />
    <glyph glyph-name="v" unicode="v" horiz-adv-x="946" 
d="M102 968h180q117 -719 124 -782h4q75 170 102 221l300 561h196l-552 -968h-174z" />
    <glyph glyph-name="w" unicode="w" horiz-adv-x="1454" 
d="M122 968h174l40 -605v-195h6q42 122 111 255l285 545h154q66 -573 73 -647.5t7 -152.5h4q52 160 89 240l265 560h180l-484 -968h-166q-70 546 -76 606.5t-6 169.5h-4q-91 -208 -112 -248l-280 -528h-166z" />
    <glyph glyph-name="x" unicode="x" horiz-adv-x="918" 
d="M126 968h194q109 -232 164 -362h6q84 120 104 144l182 218h206l-418 -472l240 -496h-194q-146 311 -174 386h-6q-70 -109 -103 -150l-195 -236h-206l436 500z" />
    <glyph glyph-name="y" unicode="y" horiz-adv-x="914" 
d="M96 968h182q144 -736 148 -768h4q79 182 103 235l249 533h188l-366 -728q-177 -353 -328 -502t-310 -186l-40 152q169 54 273 177.5t104 160.5q0 6 -3 18z" />
    <glyph glyph-name="z" unicode="z" horiz-adv-x="862" 
d="M-40 0l20 108q493 531 536 574.5t146 135.5v6h-508l28 144h722l-22 -114q-481 -521 -528.5 -569.5t-145.5 -134.5v-6h550l-28 -144h-770z" />
    <glyph glyph-name="braceleft" unicode="{" horiz-adv-x="580" 
d="M66 524l18 104q83 0 123.5 32.5t55.5 86.5t24 195q8 124 23 194t59 126.5t109.5 83t149.5 26.5h50l-22 -114h-38q-84 0 -135 -61t-60 -259q-9 -187 -53.5 -262.5t-141.5 -99.5v-4q110 -32 110 -140q0 -80 -50 -222q-50 -138 -50 -196q0 -124 120 -124h36l-20 -114h-40
q-115 0 -177.5 54t-62.5 154q0 76 54 230q52 148 52 202q0 108 -134 108z" />
    <glyph glyph-name="bar" unicode="|" horiz-adv-x="444" 
d="M192 1500h130v-2000h-130v2000z" />
    <glyph glyph-name="braceright" unicode="}" horiz-adv-x="580" 
d="M538 624l-18 -104q-83 0 -123.5 -32.5t-55.5 -86.5t-24 -195q-8 -124 -23 -194t-59 -126.5t-109.5 -83t-149.5 -26.5h-50l22 114h38q84 0 135 61t60 259q6 121 23 189t61 112t111 61v4q-110 32 -110 142q0 68 52 216q50 142 50 198q0 126 -120 126h-38l22 114h40
q113 0 175.5 -54t62.5 -154q0 -84 -52 -232q-52 -137 -52 -200q0 -108 132 -108z" />
    <glyph glyph-name="asciitilde" unicode="~" horiz-adv-x="1192" 
d="M246 420h-126q0 157 69.5 229.5t172.5 72.5q104 0 270 -86q164 -84 244 -84q105 0 108 164h126q0 -177 -68 -240.5t-168 -63.5q-108 0 -282 90q-152 82 -232 82q-49 0 -80.5 -43t-33.5 -121z" />
    <glyph glyph-name="Adieresis" unicode="&#xc4;" horiz-adv-x="1176" 
d="M828 424h-478l-216 -424h-188l710 1348h212l200 -1348h-182zM414 564h400q-62 415 -82 628h-4q-87 -195 -110 -238zM697 1576q0 -45 -31.5 -76.5t-74.5 -31.5q-40 0 -69 29t-29 69q0 45 31.5 77.5t76.5 32.5q41 0 68.5 -29.5t27.5 -70.5zM1073 1576q0 -45 -31.5 -76.5
t-74.5 -31.5q-40 0 -69 29t-29 69q0 45 32 77.5t76 32.5q41 0 68.5 -29.5t27.5 -70.5z" />
    <glyph glyph-name="Aring" unicode="&#xc5;" horiz-adv-x="1176" 
d="M828 424h-478l-218 -424h-186l700 1326q-78 48 -78 134q0 88 62.5 147t159.5 59q96 0 149 -49.5t53 -130.5q0 -55 -32.5 -103t-87.5 -65l196 -1318h-182zM880 1480q0 48 -25.5 80t-66.5 32q-48 0 -78 -32.5t-30 -89.5q0 -48 27.5 -78t68.5 -30q42 0 73 34t31 84zM414 564
h400q-62 415 -82 628h-4q-87 -195 -110 -238z" />
    <glyph glyph-name="Ccedilla" unicode="&#xc7;" horiz-adv-x="1160" 
d="M1020 194l24 -144q-142 -63 -324 -70l-60 -80q51 -11 79.5 -46t28.5 -82q0 -82 -66 -127t-156 -45q-84 0 -134 36l36 84q47 -28 102 -28q38 0 63 18.5t25 49.5q0 66 -132 78l106 144q-245 20 -378.5 171t-133.5 397q0 349 234 584.5t586 235.5q204 0 310 -68l-56 -140
q-106 58 -282 58q-161 0 -304.5 -82.5t-221.5 -235.5t-78 -328q0 -198 104 -321t324 -123q178 0 304 64z" />
    <glyph glyph-name="Eacute" unicode="&#xc9;" horiz-adv-x="976" 
d="M898 778l-30 -150h-508l-90 -478h572l-30 -150h-748l256 1348h718l-30 -150h-540l-80 -420h510zM794 1688h228l-272 -238h-156z" />
    <glyph glyph-name="Ntilde" unicode="&#xd1;" horiz-adv-x="1310" 
d="M234 0h-168l256 1348h198l318 -752q77 -182 126 -380l4 2q7 163 56 422l134 708h168l-256 -1348h-178l-318 754q-85 202 -132 392l-6 -2q-15 -144 -72 -448zM694 1450h-98q5 96 44 149t100 53q58 0 128 -42q60 -36 92 -36q50 0 60 84h96q-10 -196 -146 -196
q-60 0 -126 38t-92 38q-45 0 -58 -88z" />
    <glyph glyph-name="Odieresis" unicode="&#xd6;" horiz-adv-x="1394" 
d="M1370 804q0 -220 -94.5 -417t-261 -303t-372.5 -106q-251 0 -396.5 157t-145.5 407q0 223 99 424.5t270.5 303.5t362.5 102q255 0 396.5 -155.5t141.5 -412.5zM284 556q0 -199 98 -314.5t280 -115.5q209 0 364.5 205t155.5 467q0 203 -95 314.5t-281 111.5
q-214 0 -368 -207t-154 -461zM812 1576q0 -45 -31.5 -76.5t-74.5 -31.5q-40 0 -69 29t-29 69q0 45 31.5 77.5t76.5 32.5q41 0 68.5 -29.5t27.5 -70.5zM1188 1576q0 -45 -31.5 -76.5t-74.5 -31.5q-40 0 -69 29t-29 69q0 45 32 77.5t76 32.5q41 0 68.5 -29.5t27.5 -70.5z" />
    <glyph glyph-name="Udieresis" unicode="&#xdc;" horiz-adv-x="1286" 
d="M320 1348h176l-150 -784q-16 -90 -16 -170q0 -129 69 -197.5t189 -68.5q152 0 249 108.5t139 325.5l150 786h178l-152 -792q-56 -289 -203 -433.5t-385 -144.5q-192 0 -301 107t-109 307q0 90 18 184zM766 1576q0 -45 -31.5 -76.5t-74.5 -31.5q-40 0 -69 29t-29 69
q0 45 31.5 77.5t76.5 32.5q41 0 68.5 -29.5t27.5 -70.5zM1142 1576q0 -45 -31.5 -76.5t-74.5 -31.5q-40 0 -69 29t-29 69q0 45 32 77.5t76 32.5q41 0 68.5 -29.5t27.5 -70.5z" />
    <glyph glyph-name="aacute" unicode="&#xe1;" horiz-adv-x="1082" 
d="M892 0h-166q0 69 22 254h-4q-145 -276 -388 -276q-129 0 -209.5 91.5t-80.5 234.5q0 277 193.5 481.5t494.5 204.5q149 0 274 -38q-100 -521 -112.5 -597t-18 -153.5t-5.5 -201.5zM776 558l52 278q-42 14 -118 14q-184 0 -322 -156t-138 -360q0 -99 43.5 -155.5
t126.5 -56.5q110 0 215 122.5t141 313.5zM816 1378h208l-270 -290h-138z" />
    <glyph glyph-name="agrave" unicode="&#xe0;" horiz-adv-x="1082" 
d="M892 0h-166q0 69 22 254h-4q-145 -276 -388 -276q-129 0 -209.5 91.5t-80.5 234.5q0 277 193.5 481.5t494.5 204.5q149 0 274 -38q-100 -521 -112.5 -597t-18 -153.5t-5.5 -201.5zM776 558l52 278q-42 14 -118 14q-184 0 -322 -156t-138 -360q0 -99 43.5 -155.5
t126.5 -56.5q110 0 215 122.5t141 313.5zM466 1378h196l134 -290h-126z" />
    <glyph glyph-name="acircumflex" unicode="&#xe2;" horiz-adv-x="1082" 
d="M892 0h-166q0 69 22 254h-4q-145 -276 -388 -276q-129 0 -209.5 91.5t-80.5 234.5q0 277 193.5 481.5t494.5 204.5q149 0 274 -38q-100 -521 -112.5 -597t-18 -153.5t-5.5 -201.5zM776 558l52 278q-42 14 -118 14q-184 0 -322 -156t-138 -360q0 -99 43.5 -155.5
t126.5 -56.5q110 0 215 122.5t141 313.5zM668 1378h126l140 -290h-130l-86 190h-4l-142 -190h-140z" />
    <glyph glyph-name="adieresis" unicode="&#xe4;" horiz-adv-x="1082" 
d="M892 0h-166q0 69 22 254h-4q-145 -276 -388 -276q-129 0 -209.5 91.5t-80.5 234.5q0 277 193.5 481.5t494.5 204.5q149 0 274 -38q-100 -521 -112.5 -597t-18 -153.5t-5.5 -201.5zM776 558l52 278q-42 14 -118 14q-184 0 -322 -156t-138 -360q0 -99 43.5 -155.5
t126.5 -56.5q110 0 215 122.5t141 313.5zM604 1224q0 -47 -31 -78.5t-77 -31.5q-42 0 -70 28.5t-28 71.5q0 46 31.5 78t76.5 32q43 0 70.5 -29t27.5 -71zM980 1224q0 -47 -31 -78.5t-77 -31.5q-42 0 -70 28.5t-28 71.5q0 46 31.5 78t76.5 32q43 0 70.5 -29t27.5 -71z" />
    <glyph glyph-name="atilde" unicode="&#xe3;" horiz-adv-x="1082" 
d="M892 0h-166q0 69 22 254h-4q-145 -276 -388 -276q-129 0 -209.5 91.5t-80.5 234.5q0 277 193.5 481.5t494.5 204.5q149 0 274 -38q-100 -521 -112.5 -597t-18 -153.5t-5.5 -201.5zM776 558l52 278q-42 14 -118 14q-184 0 -322 -156t-138 -360q0 -99 43.5 -155.5
t126.5 -56.5q110 0 215 122.5t141 313.5zM534 1122h-98q5 97 43.5 150.5t100.5 53.5q42 0 130 -42q68 -34 82 -34q31 0 42 20.5t16 63.5h96q-11 -196 -144 -196q-61 0 -126 38q-63 36 -86 36q-43 0 -56 -90z" />
    <glyph glyph-name="aring" unicode="&#xe5;" horiz-adv-x="1082" 
d="M892 0h-166q0 69 22 254h-4q-145 -276 -388 -276q-129 0 -209.5 91.5t-80.5 234.5q0 277 193.5 481.5t494.5 204.5q149 0 274 -38q-100 -521 -112.5 -597t-18 -153.5t-5.5 -201.5zM776 558l52 278q-42 14 -118 14q-184 0 -322 -156t-138 -360q0 -99 43.5 -155.5
t126.5 -56.5q110 0 215 122.5t141 313.5zM494 1248q0 86 60 142t152 56q84 0 139 -51t55 -133q0 -83 -62 -137.5t-150 -54.5q-82 0 -138 50.5t-56 127.5zM798 1264q0 45 -27.5 74.5t-70.5 29.5q-44 0 -72 -33t-28 -83q0 -42 27 -73t67 -31q45 0 74.5 33t29.5 83z" />
    <glyph glyph-name="ccedilla" unicode="&#xe7;" horiz-adv-x="878" 
d="M736 180l16 -136q-117 -53 -222 -60l-62 -82q110 -29 110 -132q0 -77 -65.5 -123.5t-154.5 -46.5q-84 0 -138 34l38 88q49 -30 106 -30q38 0 62 19.5t24 52.5q0 64 -134 76l102 142q-168 11 -258 115t-90 261q0 259 176.5 445.5t433.5 186.5q121 0 212 -46l-50 -138
q-76 38 -172 38q-178 0 -297 -140t-119 -326q0 -118 65 -186t181 -68q119 0 236 56z" />
    <glyph glyph-name="eacute" unicode="&#xe9;" horiz-adv-x="938" 
d="M760 188l24 -132q-146 -78 -334 -78q-182 0 -282 107t-100 289q0 236 159 426t383 190q136 0 217 -70.5t81 -183.5q0 -95 -51.5 -158t-144 -98t-196 -45.5t-272.5 -10.5q-3 -18 -3 -43q0 -128 67 -194.5t180 -66.5q148 0 272 68zM264 558q230 -3 352 35t122 139
q0 57 -41.5 89.5t-110.5 32.5q-106 0 -195.5 -83.5t-126.5 -212.5zM717 1378h208l-270 -290h-138z" />
    <glyph glyph-name="egrave" unicode="&#xe8;" horiz-adv-x="938" 
d="M760 188l24 -132q-146 -78 -334 -78q-182 0 -282 107t-100 289q0 236 159 426t383 190q136 0 217 -70.5t81 -183.5q0 -95 -51.5 -158t-144 -98t-196 -45.5t-272.5 -10.5q-3 -18 -3 -43q0 -128 67 -194.5t180 -66.5q148 0 272 68zM264 558q230 -3 352 35t122 139
q0 57 -41.5 89.5t-110.5 32.5q-106 0 -195.5 -83.5t-126.5 -212.5zM388 1378h196l134 -290h-126z" />
    <glyph glyph-name="ecircumflex" unicode="&#xea;" horiz-adv-x="938" 
d="M760 188l24 -132q-146 -78 -334 -78q-182 0 -282 107t-100 289q0 236 159 426t383 190q136 0 217 -70.5t81 -183.5q0 -95 -51.5 -158t-144 -98t-196 -45.5t-272.5 -10.5q-3 -18 -3 -43q0 -128 67 -194.5t180 -66.5q148 0 272 68zM264 558q230 -3 352 35t122 139
q0 57 -41.5 89.5t-110.5 32.5q-106 0 -195.5 -83.5t-126.5 -212.5zM605 1378h126l140 -290h-130l-86 190h-4l-142 -190h-140z" />
    <glyph glyph-name="edieresis" unicode="&#xeb;" horiz-adv-x="938" 
d="M760 188l24 -132q-146 -78 -334 -78q-182 0 -282 107t-100 289q0 236 159 426t383 190q136 0 217 -70.5t81 -183.5q0 -95 -51.5 -158t-144 -98t-196 -45.5t-272.5 -10.5q-3 -18 -3 -43q0 -128 67 -194.5t180 -66.5q148 0 272 68zM264 558q230 -3 352 35t122 139
q0 57 -41.5 89.5t-110.5 32.5q-106 0 -195.5 -83.5t-126.5 -212.5zM556 1224q0 -47 -31 -78.5t-77 -31.5q-42 0 -70 28.5t-28 71.5q0 46 31.5 78t76.5 32q43 0 70.5 -29t27.5 -71zM932 1224q0 -47 -31 -78.5t-77 -31.5q-42 0 -70 28.5t-28 71.5q0 46 31.5 78t76.5 32
q43 0 70.5 -29t27.5 -71z" />
    <glyph glyph-name="iacute" unicode="&#xed;" horiz-adv-x="474" 
d="M236 0h-176l186 968h176zM457 1378h208l-270 -290h-138z" />
    <glyph glyph-name="igrave" unicode="&#xec;" horiz-adv-x="474" 
d="M236 0h-176l186 968h176zM103 1378h196l134 -290h-126z" />
    <glyph glyph-name="icircumflex" unicode="&#xee;" horiz-adv-x="474" 
d="M236 0h-176l186 968h176zM331 1378h126l140 -290h-130l-86 190h-4l-142 -190h-140z" />
    <glyph glyph-name="idieresis" unicode="&#xef;" horiz-adv-x="474" 
d="M236 0h-176l186 968h176zM286 1224q0 -47 -31 -78.5t-77 -31.5q-42 0 -70 28.5t-28 71.5q0 46 31.5 78t76.5 32q43 0 70.5 -29t27.5 -71zM662 1224q0 -47 -31 -78.5t-77 -31.5q-42 0 -70 28.5t-28 71.5q0 46 31.5 78t76.5 32q43 0 70.5 -29t27.5 -71z" />
    <glyph glyph-name="ntilde" unicode="&#xf1;" horiz-adv-x="1104" 
d="M238 0h-178l130 690q32 168 46 278h160l-26 -194h4q141 216 368 216q113 0 183.5 -71t70.5 -205q0 -60 -17 -150l-105 -564h-176l74 390q33 177 37.5 213.5t4.5 68.5q0 172 -156 172q-100 0 -202.5 -107.5t-133.5 -276.5zM522 1122h-98q5 97 43.5 150.5t100.5 53.5
q42 0 130 -42q68 -34 82 -34q31 0 42 20.5t16 63.5h96q-11 -196 -144 -196q-61 0 -126 38q-63 36 -86 36q-43 0 -56 -90z" />
    <glyph glyph-name="oacute" unicode="&#xf3;" horiz-adv-x="1086" 
d="M1022 578q0 -242 -159 -421t-393 -179q-180 0 -289 114t-109 290q0 250 158 429t394 179q184 0 291 -116t107 -296zM252 388q0 -121 65 -196.5t171 -75.5q141 0 245.5 141.5t104.5 320.5q0 114 -61.5 194t-172.5 80q-147 0 -249.5 -141.5t-102.5 -322.5zM754 1378h208
l-270 -290h-138z" />
    <glyph glyph-name="ograve" unicode="&#xf2;" horiz-adv-x="1086" 
d="M1022 578q0 -242 -159 -421t-393 -179q-180 0 -289 114t-109 290q0 250 158 429t394 179q184 0 291 -116t107 -296zM252 388q0 -121 65 -196.5t171 -75.5q141 0 245.5 141.5t104.5 320.5q0 114 -61.5 194t-172.5 80q-147 0 -249.5 -141.5t-102.5 -322.5zM428 1378h196
l134 -290h-126z" />
    <glyph glyph-name="ocircumflex" unicode="&#xf4;" horiz-adv-x="1086" 
d="M1022 578q0 -242 -159 -421t-393 -179q-180 0 -289 114t-109 290q0 250 158 429t394 179q184 0 291 -116t107 -296zM252 388q0 -121 65 -196.5t171 -75.5q141 0 245.5 141.5t104.5 320.5q0 114 -61.5 194t-172.5 80q-147 0 -249.5 -141.5t-102.5 -322.5zM642 1378h126
l140 -290h-130l-86 190h-4l-142 -190h-140z" />
    <glyph glyph-name="odieresis" unicode="&#xf6;" horiz-adv-x="1086" 
d="M1022 578q0 -242 -159 -421t-393 -179q-180 0 -289 114t-109 290q0 250 158 429t394 179q184 0 291 -116t107 -296zM252 388q0 -121 65 -196.5t171 -75.5q141 0 245.5 141.5t104.5 320.5q0 114 -61.5 194t-172.5 80q-147 0 -249.5 -141.5t-102.5 -322.5zM594 1224
q0 -47 -31 -78.5t-77 -31.5q-42 0 -70 28.5t-28 71.5q0 46 31.5 78t76.5 32q43 0 70.5 -29t27.5 -71zM970 1224q0 -47 -31 -78.5t-77 -31.5q-42 0 -70 28.5t-28 71.5q0 46 31.5 78t76.5 32q43 0 70.5 -29t27.5 -71z" />
    <glyph glyph-name="otilde" unicode="&#xf5;" horiz-adv-x="1086" 
d="M1022 578q0 -242 -159 -421t-393 -179q-180 0 -289 114t-109 290q0 250 158 429t394 179q184 0 291 -116t107 -296zM252 388q0 -121 65 -196.5t171 -75.5q141 0 245.5 141.5t104.5 320.5q0 114 -61.5 194t-172.5 80q-147 0 -249.5 -141.5t-102.5 -322.5zM492 1122h-98
q5 97 43.5 150.5t100.5 53.5q42 0 130 -42q68 -34 82 -34q31 0 42 20.5t16 63.5h96q-11 -196 -144 -196q-61 0 -126 38q-63 36 -86 36q-43 0 -56 -90z" />
    <glyph glyph-name="uacute" unicode="&#xfa;" horiz-adv-x="1088" 
d="M858 968h176l-132 -690q-26 -137 -44 -278h-158l26 184l-4 2q-71 -100 -163.5 -154t-188.5 -54q-126 0 -195 73t-69 215q0 73 21 180l101 522h176l-100 -518q-9 -51 -13.5 -86.5t-4.5 -65.5q0 -172 158 -172q99 0 194.5 101.5t125.5 254.5zM776 1378h208l-270 -290h-138z
" />
    <glyph glyph-name="ugrave" unicode="&#xf9;" horiz-adv-x="1088" 
d="M858 968h176l-132 -690q-26 -137 -44 -278h-158l26 184l-4 2q-71 -100 -163.5 -154t-188.5 -54q-126 0 -195 73t-69 215q0 73 21 180l101 522h176l-100 -518q-9 -51 -13.5 -86.5t-4.5 -65.5q0 -172 158 -172q99 0 194.5 101.5t125.5 254.5zM436 1378h196l134 -290h-126z
" />
    <glyph glyph-name="ucircumflex" unicode="&#xfb;" horiz-adv-x="1088" 
d="M858 968h176l-132 -690q-26 -137 -44 -278h-158l26 184l-4 2q-71 -100 -163.5 -154t-188.5 -54q-126 0 -195 73t-69 215q0 73 21 180l101 522h176l-100 -518q-9 -51 -13.5 -86.5t-4.5 -65.5q0 -172 158 -172q99 0 194.5 101.5t125.5 254.5zM648 1378h126l140 -290h-130
l-86 190h-4l-142 -190h-140z" />
    <glyph glyph-name="udieresis" unicode="&#xfc;" horiz-adv-x="1088" 
d="M858 968h176l-132 -690q-26 -137 -44 -278h-158l26 184l-4 2q-71 -100 -163.5 -154t-188.5 -54q-126 0 -195 73t-69 215q0 73 21 180l101 522h176l-100 -518q-9 -51 -13.5 -86.5t-4.5 -65.5q0 -172 158 -172q99 0 194.5 101.5t125.5 254.5zM588 1224q0 -47 -31 -78.5
t-77 -31.5q-42 0 -70 28.5t-28 71.5q0 46 31.5 78t76.5 32q43 0 70.5 -29t27.5 -71zM964 1224q0 -47 -31 -78.5t-77 -31.5q-42 0 -70 28.5t-28 71.5q0 46 31.5 78t76.5 32q43 0 70.5 -29t27.5 -71z" />
    <glyph glyph-name="dagger" unicode="&#x2020;" horiz-adv-x="994" 
d="M580 1348h170l-100 -424l346 16l-30 -150l-338 16l-156 -906h-170l190 906l-344 -16l28 150l338 -16z" />
    <glyph glyph-name="degree" unicode="&#xb0;" horiz-adv-x="650" 
d="M186 1102q0 111 80 190.5t190 79.5q114 0 187 -74.5t73 -179.5q0 -119 -82.5 -196.5t-189.5 -77.5q-112 0 -185 74.5t-73 183.5zM604 1114q0 65 -39.5 112.5t-108.5 47.5q-68 0 -111 -52.5t-43 -119.5q0 -69 43.5 -114.5t106.5 -45.5q64 0 108 50t44 122z" />
    <glyph glyph-name="cent" unicode="&#xa2;" 
d="M568 -30h-128l40 204q-156 25 -235 127.5t-79 256.5q0 220 141.5 389.5t364.5 202.5l36 202h128l-36 -198q107 0 188 -50l-60 -134q-86 46 -200 46q-146 0 -260 -128.5t-114 -311.5q0 -121 68.5 -193.5t187.5 -72.5q110 0 214 48l16 -134q-103 -52 -234 -52z" />
    <glyph glyph-name="sterling" unicode="&#xa3;" 
d="M882 0h-830l18 106q94 45 164.5 129.5t93 165t22.5 185.5h-182l24 132h160q5 331 129 467.5t323 136.5q110 0 192 -46l-54 -138q-64 36 -156 36q-117 0 -190.5 -93.5t-73.5 -362.5h304l-24 -132h-286q-12 -290 -202 -430v-6h594z" />
    <glyph glyph-name="section" unicode="&#xa7;" horiz-adv-x="1034" 
d="M972 1300l-50 -112q-102 62 -234 62q-88 0 -150 -46t-62 -114q0 -48 33.5 -85.5t172.5 -98.5q147 -66 202.5 -131.5t55.5 -152.5q0 -171 -180 -286q48 -57 48 -142q0 -150 -115.5 -236t-288.5 -86q-188 0 -304 82l54 118q120 -78 254 -78q102 0 168 48.5t66 125.5
q0 61 -48.5 105t-151.5 91q-158 71 -220 138.5t-62 149.5q0 168 200 282q-46 61 -46 130q0 136 114.5 221t279.5 85q162 0 264 -70zM440 870q-124 -69 -124 -170q0 -68 41 -109.5t127 -82.5q143 -66 188 -100q112 75 112 174q0 109 -150 186q-171 85 -194 102z" />
    <glyph glyph-name="bullet" unicode="&#x2022;" horiz-adv-x="566" 
d="M540 688q0 -89 -63 -151.5t-153 -62.5t-153 62.5t-63 151.5q0 90 63 153t153 63t153 -63t63 -153z" />
    <glyph glyph-name="paragraph" unicode="&#xb6;" 
d="M456 -102h-128l120 624q-2 1 -11 2q-119 15 -203 108t-84 236q0 214 167 347t461 133q155 0 230 -16l-276 -1434h-128l254 1326h-148z" />
    <glyph glyph-name="germandbls" unicode="&#xdf;" horiz-adv-x="1110" 
d="M236 0h-176l174 922q100 524 506 524q145 0 235.5 -81t90.5 -209q0 -60 -24 -119.5t-58 -92.5q-174 -64 -174 -184q0 -33 12.5 -67.5t63.5 -100.5q102 -138 102 -258q0 -161 -114 -258.5t-288 -97.5q-128 0 -204 48l46 132q76 -40 158 -40q97 0 159.5 55.5t62.5 144.5
q0 84 -76 178q-104 134 -104 228q0 90 58.5 163.5t159.5 116.5q44 44 44 134q0 72 -46 118t-130 46q-110 0 -187.5 -90.5t-110.5 -265.5z" />
    <glyph glyph-name="registered" unicode="&#xae;" horiz-adv-x="1018" 
d="M160 918q0 187 130.5 317.5t315.5 130.5q184 0 313 -130.5t129 -317.5q0 -189 -129 -320.5t-313 -131.5q-185 0 -315.5 131.5t-130.5 320.5zM964 916q0 158 -104.5 269t-253.5 111q-147 0 -252.5 -111t-105.5 -267q0 -159 105.5 -270.5t254.5 -111.5q147 0 251.5 111.5
t104.5 268.5zM522 872v-216h-82v502q80 12 142 12q204 0 204 -144q0 -89 -98 -120v-4q69 -13 84 -122q15 -98 32 -124h-86q-14 16 -34 130q-14 86 -108 86h-54zM522 1102v-168h56q122 0 122 84q0 88 -120 88q-31 0 -58 -4z" />
    <glyph glyph-name="copyright" unicode="&#xa9;" horiz-adv-x="1352" 
d="M128 680q0 255 177.5 435.5t428.5 180.5t426.5 -180.5t175.5 -435.5q0 -258 -175.5 -439t-426.5 -181q-252 0 -429 181.5t-177 438.5zM1236 680q0 223 -145.5 377.5t-354.5 154.5q-212 0 -358 -155.5t-146 -382.5q0 -223 146 -376.5t358 -153.5q210 0 355 155t145 381z
M1002 986l-24 -82q-84 48 -196 48q-130 0 -203 -75t-73 -203q0 -124 75 -202t203 -78q125 0 206 54l24 -78q-95 -64 -248 -64q-166 0 -266 101t-100 261q0 162 112 267t270 105q149 0 220 -54z" />
    <glyph glyph-name="trademark" unicode="&#x2122;" horiz-adv-x="1580" 
d="M106 1348h602v-108h-238v-688h-128v688h-236v108zM1610 552h-128q-31 485 -32 542l-2 152h-6q-7 -49 -228 -682h-100l-160 481l-54 201h-6l-1 -107q-1 -81 -2 -106l-31 -481h-122l62 796h174q185 -548 200 -626h4q35 138 62 216l140 410h170z" />
    <glyph glyph-name="acute" unicode="&#xb4;" horiz-adv-x="778" 
d="M606 1378h208l-270 -290h-138z" />
    <glyph glyph-name="dieresis" unicode="&#xa8;" horiz-adv-x="778" 
d="M448 1224q0 -47 -31 -78.5t-77 -31.5q-42 0 -70 28.5t-28 71.5q0 46 31.5 78t76.5 32q43 0 70.5 -29t27.5 -71zM824 1224q0 -47 -31 -78.5t-77 -31.5q-42 0 -70 28.5t-28 71.5q0 46 31.5 78t76.5 32q43 0 70.5 -29t27.5 -71z" />
    <glyph glyph-name="notequal" unicode="&#x2260;" horiz-adv-x="1192" 
d="M1110 276h-592l-160 -286l-118 66l124 220h-252v124h326l156 288h-482v124h558l166 302l114 -66l-128 -236h288v-124h-364l-154 -288h518v-124z" />
    <glyph glyph-name="AE" unicode="&#xc6;" horiz-adv-x="1610" 
d="M86 0h-190l920 1348h796l-28 -150h-522l-44 -424h494l-28 -150h-476l-46 -474h532l-30 -150h-684l46 472h-420zM500 620h338l60 594h-6q-66 -109 -128 -202z" />
    <glyph glyph-name="Oslash" unicode="&#xd8;" horiz-adv-x="1394" 
d="M138 -88l-86 84l158 174q-112 153 -112 380q0 219 98 413.5t270.5 301.5t361.5 107q222 0 346 -114l160 172l96 -82l-166 -180q106 -143 106 -362q0 -221 -99 -422t-268 -303.5t-357 -102.5q-213 0 -342 112zM336 314l732 818q-87 92 -256 92q-221 0 -376.5 -196.5
t-155.5 -460.5q0 -141 52 -253h4zM1136 1020l-724 -806q91 -88 258 -88q138 0 261 93t189.5 246.5t66.5 314.5q0 133 -47 240h-4z" />
    <glyph glyph-name="infinity" unicode="&#x221e;" horiz-adv-x="1460" 
d="M1084 230q-55 0 -104 19.5t-92.5 50.5t-82.5 68.5t-75 73.5q-39 -38 -79 -76t-84.5 -68t-95.5 -49t-113 -19q-64 0 -117 22t-91.5 61.5t-60 94.5t-21.5 120q0 60 23 114t63.5 95t96.5 65t123 24q56 0 105.5 -19.5t93 -50.5t82.5 -68.5t75 -73.5q39 38 79 76t84.5 68
t96 49t112.5 19q64 0 117 -22t91.5 -61.5t60 -94.5t21.5 -120q0 -60 -23 -114t-63.5 -95t-96.5 -65t-123 -24h-2zM1088 354q36 0 67.5 14t54.5 38t36.5 55.5t13.5 66.5q0 38 -12.5 69.5t-35 55t-53.5 36.5t-67 13q-42 0 -80.5 -16t-73 -41.5t-65.5 -56.5t-59 -60
q29 -26 59 -56.5t63 -56.5t70 -43.5t80 -17.5h2zM370 354q41 0 79 16t72.5 41.5t65.5 56.5t59 60q-28 26 -58.5 56.5t-63.5 56.5t-70 43.5t-80 17.5q-37 0 -68.5 -14t-55 -38t-37 -55.5t-13.5 -66.5q0 -37 13 -69t35.5 -55.5t53 -36.5t66.5 -13h2z" />
    <glyph glyph-name="plusminus" unicode="&#xb1;" horiz-adv-x="1192" 
d="M546 1144h130v-386h434v-124h-434v-398h-130v398h-434v124h434v386zM112 124h998v-124h-998v124z" />
    <glyph glyph-name="lessequal" unicode="&#x2264;" horiz-adv-x="1192" 
d="M154 674v126l898 422v-128l-756 -358l756 -354v-130zM138 0v124h914v-124h-914z" />
    <glyph glyph-name="greaterequal" unicode="&#x2265;" horiz-adv-x="1192" 
d="M184 1222l898 -422v-126l-898 -422v130l754 354l-754 358v128zM184 0v124h914v-124h-914z" />
    <glyph glyph-name="yen" unicode="&#xa5;" 
d="M490 0h-166l64 348h-298l20 102h298l28 144h-300l20 102h250l-218 604h182q164 -547 172 -592h6q58 106 105 172l295 420h196l-466 -604h246l-20 -102h-302l-28 -144h302l-20 -102h-300z" />
    <glyph glyph-name="mu" unicode="&#xb5;" horiz-adv-x="1076" 
d="M1028 968l-132 -690q-26 -140 -40 -278h-158l22 172h-4q-142 -194 -314 -194q-136 0 -174 112h-4l-84 -488h-168l260 1366h178q-102 -533 -109 -573.5t-7 -86.5q0 -182 160 -182q90 0 181 86t118 236l99 520h176z" />
    <glyph glyph-name="partialdiff" unicode="&#x2202;" horiz-adv-x="1070" 
d="M224 1346q26 17 62 36t81 35t98.5 26.5t114.5 10.5q99 0 185 -39t150 -115t100.5 -187t36.5 -255q0 -110 -18.5 -218t-54.5 -205.5t-89.5 -181.5t-122.5 -145t-153.5 -95.5t-183.5 -34.5q-91 0 -158.5 31.5t-112.5 84.5t-67 122t-22 144q0 110 39 206t106.5 167t159 112
t197.5 41q56 0 104.5 -16.5t87 -42t65 -56t39.5 -59.5h2q6 38 9 78.5t3 81.5q0 109 -27.5 190t-73 135t-104.5 80.5t-123 26.5q-49 0 -92 -7.5t-79.5 -19.5t-65.5 -26.5t-49 -28.5zM456 120q72 0 132.5 35.5t107.5 95t80.5 137t51.5 162.5q-10 35 -34 70t-57.5 62.5
t-75.5 44.5t-89 17q-67 0 -126 -29t-102.5 -80t-68.5 -120.5t-25 -150.5q0 -55 14.5 -100.5t41 -77t64.5 -49t84 -17.5h2z" />
    <glyph glyph-name="summation" unicode="&#x2211;" horiz-adv-x="1110" 
d="M-60 -180l20 110l596 632l-354 614l22 124h904l-28 -152h-686l-2 -8l334 -580l-542 -580v-6h754l-28 -154h-990z" />
    <glyph glyph-name="product" unicode="&#x220f;" horiz-adv-x="1276" 
d="M1178 1150l-268 -1330h-170l268 1330h-496l-268 -1330h-170l268 1330h-160l30 150h1154l-30 -150h-158z" />
    <glyph glyph-name="integral" unicode="&#x222b;" horiz-adv-x="602" 
d="M720 1460q-11 3 -27 5.5t-33 2.5q-38 0 -67 -17t-50.5 -46t-36.5 -66.5t-25.5 -77.5t-17.5 -80t-13 -75q-18 -107 -33 -223.5t-30 -236t-30.5 -239t-34.5 -233.5q-9 -51 -22 -106.5t-32 -109t-45.5 -101t-63.5 -83.5t-85 -57t-110 -21q-35 0 -59.5 6.5t-42.5 15.5l34 120
q12 -5 30.5 -8.5t41.5 -3.5q38 0 67 18t50.5 47.5t36.5 66.5t25.5 75.5t17.5 75t11 63.5q19 115 35 236.5t31 243t30.5 239.5t33.5 227q13 82 36.5 166t65.5 152.5t105.5 112t154.5 43.5q29 0 52 -5t40 -13z" />
    <glyph glyph-name="ordfeminine" unicode="&#xaa;" horiz-adv-x="720" 
d="M672 534h-126q0 68 8 130l-4 -2q-90 -138 -238 -138q-88 0 -142 64t-54 168q0 179 120 302.5t318 123.5q110 0 206 -36q-77 -434 -82.5 -479t-5.5 -133zM574 842l40 222q-36 14 -94 14q-108 0 -186 -86.5t-78 -211.5q0 -68 29.5 -107t84.5 -39q66 0 127.5 61t76.5 147z
" />
    <glyph glyph-name="ordmasculine" unicode="&#xba;" horiz-adv-x="706" 
d="M102 794q0 170 107.5 280t258.5 110q132 0 209 -77t77 -199q0 -165 -107.5 -274.5t-266.5 -109.5q-124 0 -201 79t-77 191zM612 916q0 75 -38.5 119.5t-113.5 44.5q-88 0 -151 -84.5t-63 -199.5q0 -78 42 -123t108 -45q86 0 151 83t65 205z" />
    <glyph glyph-name="Omega" unicode="&#x2126;" horiz-adv-x="1420" 
d="M304 148q-37 35 -72 83t-61.5 106.5t-42.5 127t-16 143.5q0 106 25 203.5t71 182.5t111.5 154t146 118.5t174 76.5t196.5 27q131 0 233.5 -44t174 -119t109 -174t37.5 -209q0 -120 -33.5 -224.5t-87.5 -190t-121 -151.5t-134 -110v-8h280l-26 -140h-512l20 114
q73 41 148.5 107t137 153.5t101 195.5t39.5 234q0 80 -23.5 156t-71 135t-119 95t-168.5 36q-81 0 -151.5 -26t-128.5 -70.5t-103 -105.5t-76 -130.5t-47 -144.5t-16 -149q0 -87 17 -161.5t46 -136t68 -109t83 -79.5l-20 -114h-512l24 140h300v8z" />
    <glyph glyph-name="ae" unicode="&#xe6;" horiz-adv-x="1486" 
d="M1308 188l20 -128q-141 -82 -330 -82q-119 0 -205.5 56t-120.5 160h-4q-62 -104 -162.5 -160t-217.5 -56q-126 0 -201 71t-75 181q0 97 50.5 171.5t142.5 123t195.5 66t261.5 17.5q9 47 9 68q0 79 -49.5 130.5t-141.5 51.5q-138 0 -264 -84l-38 118q156 98 322 98
q241 0 284 -204h6q61 98 162 151t214 53q134 0 212 -68.5t78 -169.5q0 -150 -126 -222.5t-409 -72.5q-57 0 -125 3q-10 -53 -10 -96q0 -117 68 -180.5t180 -63.5q146 0 274 68zM818 590q71 -2 120 -2q187 0 265.5 36.5t78.5 113.5q0 50 -39.5 84t-104.5 34
q-108 0 -196.5 -77t-123.5 -189zM622 380l18 104q-104 0 -165.5 -7t-129.5 -32.5t-110.5 -72.5t-42.5 -118q0 -64 39 -100t107 -36q102 0 183 72.5t101 189.5z" />
    <glyph glyph-name="oslash" unicode="&#xf8;" horiz-adv-x="1086" 
d="M110 -80l-62 62l116 132q-92 106 -92 282q0 243 159.5 418.5t388.5 175.5q145 0 242 -70l114 124l68 -58l-114 -128q94 -115 94 -276q0 -253 -161 -428.5t-379 -175.5q-161 0 -256 78zM292 254l466 546q-57 56 -158 56q-145 0 -246.5 -140t-101.5 -304q0 -101 36 -160z
M804 714l-470 -542q63 -60 164 -60q131 0 237.5 136t106.5 308q0 90 -34 158h-4z" />
    <glyph glyph-name="questiondown" unicode="&#xbf;" horiz-adv-x="794" 
d="M400 840q0 58 37.5 97t96.5 39q51 0 83.5 -34.5t32.5 -85.5q0 -60 -37.5 -100t-94.5 -40q-52 0 -85 35t-33 89zM390 566h172q-12 -159 -72 -249t-132 -165q-99 -99 -135.5 -163t-36.5 -121q0 -140 154 -140q117 0 206 56l34 -130q-133 -74 -282 -74q-137 0 -216.5 76
t-79.5 188q0 97 55.5 187t162.5 197q143 140 162 280z" />
    <glyph glyph-name="exclamdown" unicode="&#xa1;" horiz-adv-x="482" 
d="M190 840q0 58 37.5 97t96.5 39q51 0 83.5 -34.5t32.5 -85.5q0 -59 -37 -99.5t-95 -40.5q-52 0 -85 35t-33 89zM178 -390h-198l210 950h140z" />
    <glyph glyph-name="logicalnot" unicode="&#xac;" horiz-adv-x="1192" 
d="M98 800h998v-562h-132v438h-866v124z" />
    <glyph glyph-name="radical" unicode="&#x221a;" horiz-adv-x="1104" 
d="M554 -192h-128l-166 858l-152 -62l-26 92l294 122l120 -694q6 -32 9.5 -64.5t6.5 -61.5h2q9 27 21.5 61t26.5 67l612 1530h132z" />
    <glyph glyph-name="florin" unicode="&#x192;" 
d="M258 672l20 132h188q46 160 72 229.5t73.5 137t121.5 109.5t179 42q90 0 138 -34l-50 -130q-51 24 -108 24q-79 0 -141 -71.5t-111 -306.5h234l-20 -132h-246l-104 -413q-39 -155 -90.5 -247t-124 -137t-171.5 -45q-93 0 -154 36l40 126q43 -24 114 -24q74 0 126 75.5
t91 228.5l101 400h-178z" />
    <glyph glyph-name="approxequal" unicode="&#x2248;" horiz-adv-x="1192" 
d="M1140 752q-24 -31 -57 -60t-72.5 -51.5t-84.5 -35.5t-92 -13q-43 0 -79 7.5t-67 18t-57.5 23.5t-50.5 23q-22 9 -46.5 21t-52.5 22.5t-59.5 17.5t-69.5 7q-34 0 -67.5 -10.5t-63.5 -27.5t-56.5 -38.5t-46.5 -43.5l-72 88q24 29 57 57.5t73 51t85 36t93 13.5
q44 0 79.5 -7.5t66 -18.5t57 -23.5t51.5 -22.5q23 -10 47 -21.5t51 -22t59 -17.5t69 -7q35 0 68 11t62.5 28.5t54.5 38.5t43 40zM1148 356q-23 -32 -56.5 -62t-73.5 -52.5t-84.5 -36t-91.5 -13.5q-43 0 -79 7.5t-67 18.5t-57.5 23.5t-50.5 22.5q-22 10 -46.5 21.5t-52.5 22
t-60.5 17.5t-70.5 7q-33 0 -66 -10.5t-63 -27t-56.5 -37.5t-46.5 -43l-72 88q24 30 57.5 58t73 50t84.5 35t91 13q44 0 80 -7.5t67 -18t57.5 -23t51.5 -23.5q23 -9 47 -20.5t51 -22t59 -18t69 -7.5q35 0 68 10.5t63 27.5t56 38.5t45 43.5z" />
    <glyph glyph-name="Delta" unicode="&#x2206;" horiz-adv-x="1094" 
d="M10 0l20 104l652 1206h212l212 -1206l-20 -104h-1076zM922 150l-116 682q-6 35 -13 79t-13.5 88.5t-12 85.5t-9.5 71h-6q-12 -26 -28.5 -61.5t-35 -74.5t-38 -79.5t-38.5 -76.5l-380 -714h690z" />
    <glyph glyph-name="guillemotleft" unicode="&#xab;" horiz-adv-x="838" 
d="M518 876l-308 -374l208 -368h-140l-212 372l298 370h154zM854 876l-308 -374l208 -368h-140l-212 372l298 370h154z" />
    <glyph glyph-name="guillemotright" unicode="&#xbb;" horiz-adv-x="836" 
d="M324 510l-208 366h140l212 -370l-300 -372h-152zM660 510l-208 366h140l212 -370l-300 -372h-152z" />
    <glyph glyph-name="ellipsis" unicode="&#x2026;" horiz-adv-x="2000" 
d="M390 116q0 -59 -37.5 -98.5t-96.5 -39.5q-51 0 -83.5 35t-32.5 87q0 60 37.5 100t94.5 40q52 0 85 -35t33 -89zM1054 116q0 -59 -37.5 -98.5t-96.5 -39.5q-51 0 -83.5 35t-32.5 87q0 59 37 99.5t95 40.5q52 0 85 -35t33 -89zM1718 116q0 -59 -37.5 -98.5t-96.5 -39.5
q-51 0 -83.5 35t-32.5 87q0 59 37 99.5t95 40.5q52 0 85 -35t33 -89z" />
    <glyph glyph-name="space" unicode=" " horiz-adv-x="372" 
 />
    <glyph glyph-name="Agrave" unicode="&#xc0;" horiz-adv-x="1176" 
d="M828 424h-478l-216 -424h-188l710 1348h212l200 -1348h-182zM414 564h400q-62 415 -82 628h-4q-87 -195 -110 -238zM544 1688h216l148 -236h-146z" />
    <glyph glyph-name="Atilde" unicode="&#xc3;" horiz-adv-x="1176" 
d="M828 424h-478l-216 -424h-188l710 1348h212l200 -1348h-182zM414 564h400q-62 415 -82 628h-4q-87 -195 -110 -238zM610 1460h-98q5 96 44 149t100 53q58 0 128 -42q60 -36 92 -36q50 0 60 84h96q-10 -196 -146 -196q-60 0 -126 38t-92 38q-45 0 -58 -88z" />
    <glyph glyph-name="Otilde" unicode="&#xd5;" horiz-adv-x="1394" 
d="M1370 804q0 -220 -94.5 -417t-261 -303t-372.5 -106q-251 0 -396.5 157t-145.5 407q0 223 99 424.5t270.5 303.5t362.5 102q255 0 396.5 -155.5t141.5 -412.5zM284 556q0 -199 98 -314.5t280 -115.5q209 0 364.5 205t155.5 467q0 203 -95 314.5t-281 111.5
q-214 0 -368 -207t-154 -461zM728 1461h-98q5 96 44 149t100 53q58 0 128 -42q60 -36 92 -36q50 0 60 84h96q-10 -196 -146 -196q-60 0 -126 38t-92 38q-45 0 -58 -88z" />
    <glyph glyph-name="OE" unicode="&#x152;" horiz-adv-x="1802" 
d="M1666 150l-28 -150h-674q-78 0 -126 -6q-88 -8 -154 -8q-275 0 -431.5 159.5t-156.5 416.5q0 343 229 571.5t611 228.5q85 0 177.5 -7t124.5 -7h624l-28 -150h-558l-78 -422h524l-28 -150h-526l-90 -476h588zM902 150l198 1048q-63 16 -176 16q-291 0 -466.5 -182.5
t-175.5 -457.5q0 -205 117 -322.5t337 -117.5q93 0 166 16z" />
    <glyph glyph-name="oe" unicode="&#x153;" horiz-adv-x="1656" 
d="M1478 190l26 -128q-136 -84 -326 -84q-123 0 -210 58t-122 168h-6q-65 -110 -167 -168t-221 -58q-169 0 -274.5 115.5t-105.5 294.5q0 248 153 425t379 177q123 0 209.5 -61t120.5 -173h4q68 112 176 173t224 61q138 0 213 -70t75 -172q0 -156 -145 -234t-513 -78
q-6 -32 -6 -65q0 -118 68 -183.5t186 -65.5q142 0 262 68zM992 570q275 0 371.5 41.5t96.5 124.5q0 54 -41.5 87t-112.5 33q-104 0 -189 -79.5t-125 -206.5zM254 394q0 -123 63.5 -199.5t166.5 -76.5q140 0 240 147t100 317q0 128 -56.5 199t-165.5 71q-148 0 -248 -139
t-100 -319z" />
    <glyph glyph-name="endash" unicode="&#x2013;" horiz-adv-x="1000" 
d="M82 568h880l-24 -124h-880z" />
    <glyph glyph-name="emdash" unicode="&#x2014;" horiz-adv-x="2000" 
d="M82 568h1880l-24 -124h-1880z" />
    <glyph glyph-name="quotedblleft" unicode="&#x201c;" horiz-adv-x="712" 
d="M340 912l-192 -20q129 289 268 482l122 12q-117 -226 -198 -474zM648 912l-192 -20q129 289 268 482l122 12q-125 -241 -198 -474z" />
    <glyph glyph-name="quotedblright" unicode="&#x201d;" horiz-adv-x="712" 
d="M324 1366l192 20q-138 -301 -268 -482l-122 -12q117 226 198 474zM632 1366l192 20q-138 -301 -268 -482l-122 -12q117 226 198 474z" />
    <glyph glyph-name="quoteleft" unicode="&#x2018;" horiz-adv-x="404" 
d="M340 912l-192 -20q129 289 268 482l122 12q-125 -241 -198 -474z" />
    <glyph glyph-name="quoteright" unicode="&#x2019;" horiz-adv-x="404" 
d="M324 1366l192 20q-138 -301 -268 -482l-122 -12q117 226 198 474z" />
    <glyph glyph-name="divide" unicode="&#xf7;" horiz-adv-x="1192" 
d="M722 884q0 -50 -31 -83t-81 -33q-48 0 -79 33t-31 83q0 51 31.5 83.5t80.5 32.5t79.5 -32.5t30.5 -83.5zM1108 472h-998v124h998v-124zM720 184q0 -50 -31 -83t-81 -33q-48 0 -79 33t-31 83q0 51 31.5 83.5t80.5 32.5t79.5 -32.5t30.5 -83.5z" />
    <glyph glyph-name="lozenge" unicode="&#x25ca;" horiz-adv-x="942" 
d="M412 0l-376 722l376 706h120l376 -706l-376 -722h-120zM180 722l292 -574l292 574l-292 558z" />
    <glyph glyph-name="ydieresis" unicode="&#xff;" horiz-adv-x="914" 
d="M96 968h182q144 -736 148 -768h4q79 182 103 235l249 533h188l-366 -728q-177 -353 -328 -502t-310 -186l-40 152q169 54 273 177.5t104 160.5q0 6 -3 18zM490 1224q0 -47 -31 -78.5t-77 -31.5q-42 0 -70 28.5t-28 71.5q0 46 31.5 78t76.5 32q43 0 70.5 -29t27.5 -71z
M866 1224q0 -47 -31 -78.5t-77 -31.5q-42 0 -70 28.5t-28 71.5q0 46 31.5 78t76.5 32q43 0 70.5 -29t27.5 -71z" />
    <glyph glyph-name="Ydieresis" unicode="&#x178;" horiz-adv-x="1070" 
d="M510 0h-176l106 558l-274 790h188q152 -485 167.5 -538t28.5 -120h4q114 180 156 242l284 416h210l-588 -788zM630 1576q0 -45 -31.5 -76.5t-74.5 -31.5q-40 0 -69 29t-29 69q0 45 31.5 77.5t76.5 32.5q41 0 68.5 -29.5t27.5 -70.5zM1006 1576q0 -45 -31.5 -76.5
t-74.5 -31.5q-40 0 -69 29t-29 69q0 45 32 77.5t76 32.5q41 0 68.5 -29.5t27.5 -70.5z" />
    <glyph glyph-name="fraction" unicode="&#x2044;" horiz-adv-x="818" 
d="M16 -22h-126l984 1344h126z" />
    <glyph glyph-name="currency" unicode="&#xa4;" 
d="M312 992q92 80 228 80q145 0 238 -80l144 150l92 -98l-156 -140q72 -93 72 -236q0 -145 -72 -244l152 -144l-94 -96l-138 154q-96 -84 -238 -84q-138 0 -230 78l-134 -148l-94 96l146 138q-76 100 -76 240q0 150 80 246l-154 140l94 98zM790 666q0 117 -68 197.5
t-180 80.5q-107 0 -176.5 -81t-69.5 -199q0 -131 73.5 -206.5t172.5 -75.5q108 0 178 74t70 210z" />
    <glyph glyph-name="guilsinglleft" unicode="&#x2039;" horiz-adv-x="502" 
d="M518 876l-308 -374l208 -368h-140l-212 372l298 370h154z" />
    <glyph glyph-name="guilsinglright" unicode="&#x203a;" horiz-adv-x="500" 
d="M324 510l-208 366h140l212 -370l-300 -372h-152z" />
    <glyph glyph-name="daggerdbl" unicode="&#x2021;" horiz-adv-x="994" 
d="M582 1348h168l-92 -400l342 16l-28 -150l-336 16l-76 -402l342 16l-30 -150l-334 16l-66 -410h-168l92 410l-340 -16l30 150l334 -16l76 402l-340 -16l28 150l334 -16z" />
    <glyph glyph-name="uni2219" unicode="&#x2219;" horiz-adv-x="434" 
d="M356 556q0 -59 -37.5 -98.5t-96.5 -39.5q-51 0 -83.5 35t-32.5 87q0 59 37 99.5t95 40.5q52 0 85 -35t33 -89z" />
    <glyph glyph-name="quotesinglbase" unicode="&#x201a;" horiz-adv-x="404" 
d="M22 -230l-126 -14q131 259 202 484l198 20q-131 -293 -274 -490z" />
    <glyph glyph-name="quotedblbase" unicode="&#x201e;" horiz-adv-x="712" 
d="M16 -230l-128 -14q132 254 202 484l198 20q-126 -289 -272 -490zM338 -230l-126 -14q133 264 200 484l200 20q-131 -293 -274 -490z" />
    <glyph glyph-name="perthousand" unicode="&#x2030;" horiz-adv-x="2310" 
d="M142 818q0 201 110 352.5t272 151.5q115 0 181.5 -77t66.5 -197q0 -220 -106.5 -372t-269.5 -152q-116 0 -185 79.5t-69 214.5zM630 1038q0 81 -31.5 127.5t-92.5 46.5q-90 0 -154 -124t-64 -276q0 -178 128 -178q89 0 151.5 126.5t62.5 277.5zM394 -22h-124l986 1344
h124zM886 280q0 201 110 352.5t272 151.5q115 0 181.5 -77t66.5 -197q0 -222 -108 -373t-268 -151q-116 0 -185 79.5t-69 214.5zM1374 500q0 82 -31.5 128t-92.5 46q-90 0 -154 -124t-64 -276q0 -178 128 -178q89 0 151.5 126.5t62.5 277.5zM1610 280q0 201 110.5 352.5
t273.5 151.5q115 0 181.5 -77t66.5 -197q0 -223 -108 -373.5t-270 -150.5q-116 0 -185 79.5t-69 214.5zM2100 500q0 82 -31.5 128t-92.5 46q-90 0 -155 -124t-65 -276q0 -178 128 -178q90 0 153 126.5t63 277.5z" />
    <glyph glyph-name="Acircumflex" unicode="&#xc2;" horiz-adv-x="1176" 
d="M828 424h-478l-216 -424h-188l710 1348h212l200 -1348h-182zM414 564h400q-62 415 -82 628h-4q-87 -195 -110 -238zM735 1688h132l168 -238h-140l-102 146h-4l-142 -146h-156z" />
    <glyph glyph-name="Ecircumflex" unicode="&#xca;" horiz-adv-x="976" 
d="M898 778l-30 -150h-508l-90 -478h572l-30 -150h-748l256 1348h718l-30 -150h-540l-80 -420h510zM665 1688h132l168 -238h-140l-102 146h-4l-142 -146h-156z" />
    <glyph glyph-name="Aacute" unicode="&#xc1;" horiz-adv-x="1176" 
d="M828 424h-478l-216 -424h-188l710 1348h212l200 -1348h-182zM414 564h400q-62 415 -82 628h-4q-87 -195 -110 -238zM864 1688h228l-272 -238h-156z" />
    <glyph glyph-name="Edieresis" unicode="&#xcb;" horiz-adv-x="976" 
d="M898 778l-30 -150h-508l-90 -478h572l-30 -150h-748l256 1348h718l-30 -150h-540l-80 -420h510zM634 1578q0 -45 -31.5 -76.5t-74.5 -31.5q-40 0 -69 29t-29 69q0 45 31.5 77.5t76.5 32.5q41 0 68.5 -29.5t27.5 -70.5zM1010 1578q0 -45 -31.5 -76.5t-74.5 -31.5
q-40 0 -69 29t-29 69q0 45 32 77.5t76 32.5q41 0 68.5 -29.5t27.5 -70.5z" />
    <glyph glyph-name="Egrave" unicode="&#xc8;" horiz-adv-x="976" 
d="M898 778l-30 -150h-508l-90 -478h572l-30 -150h-748l256 1348h718l-30 -150h-540l-80 -420h510zM433 1688h216l148 -236h-146z" />
    <glyph glyph-name="Iacute" unicode="&#xcd;" horiz-adv-x="480" 
d="M318 1348h178l-258 -1348h-176zM511 1688h228l-272 -238h-156z" />
    <glyph glyph-name="Icircumflex" unicode="&#xce;" horiz-adv-x="480" 
d="M318 1348h178l-258 -1348h-176zM382 1688h132l168 -238h-140l-102 146h-4l-142 -146h-156z" />
    <glyph glyph-name="Idieresis" unicode="&#xcf;" horiz-adv-x="480" 
d="M318 1348h178l-258 -1348h-176zM354 1576q0 -45 -31.5 -76.5t-74.5 -31.5q-40 0 -69 29t-29 69q0 45 31.5 77.5t76.5 32.5q41 0 68.5 -29.5t27.5 -70.5zM730 1576q0 -45 -31.5 -76.5t-74.5 -31.5q-40 0 -69 29t-29 69q0 45 32 77.5t76 32.5q41 0 68.5 -29.5t27.5 -70.5z
" />
    <glyph glyph-name="Igrave" unicode="&#xcc;" horiz-adv-x="480" 
d="M318 1348h178l-258 -1348h-176zM164 1688h216l148 -236h-146z" />
    <glyph glyph-name="Oacute" unicode="&#xd3;" horiz-adv-x="1394" 
d="M1370 804q0 -220 -94.5 -417t-261 -303t-372.5 -106q-251 0 -396.5 157t-145.5 407q0 223 99 424.5t270.5 303.5t362.5 102q255 0 396.5 -155.5t141.5 -412.5zM284 556q0 -199 98 -314.5t280 -115.5q209 0 364.5 205t155.5 467q0 203 -95 314.5t-281 111.5
q-214 0 -368 -207t-154 -461zM970 1688h228l-272 -238h-156z" />
    <glyph glyph-name="Ocircumflex" unicode="&#xd4;" horiz-adv-x="1394" 
d="M1370 804q0 -220 -94.5 -417t-261 -303t-372.5 -106q-251 0 -396.5 157t-145.5 407q0 223 99 424.5t270.5 303.5t362.5 102q255 0 396.5 -155.5t141.5 -412.5zM284 556q0 -199 98 -314.5t280 -115.5q209 0 364.5 205t155.5 467q0 203 -95 314.5t-281 111.5
q-214 0 -368 -207t-154 -461zM844 1688h132l168 -238h-140l-102 146h-4l-142 -146h-156z" />
    <glyph glyph-name="apple" unicode="&#xf000;" horiz-adv-x="372" 
 />
    <glyph glyph-name="Ograve" unicode="&#xd2;" horiz-adv-x="1394" 
d="M1370 804q0 -220 -94.5 -417t-261 -303t-372.5 -106q-251 0 -396.5 157t-145.5 407q0 223 99 424.5t270.5 303.5t362.5 102q255 0 396.5 -155.5t141.5 -412.5zM284 556q0 -199 98 -314.5t280 -115.5q209 0 364.5 205t155.5 467q0 203 -95 314.5t-281 111.5
q-214 0 -368 -207t-154 -461zM598 1688h216l148 -236h-146z" />
    <glyph glyph-name="Uacute" unicode="&#xda;" horiz-adv-x="1286" 
d="M320 1348h176l-150 -784q-16 -90 -16 -170q0 -129 69 -197.5t189 -68.5q152 0 249 108.5t139 325.5l150 786h178l-152 -792q-56 -289 -203 -433.5t-385 -144.5q-192 0 -301 107t-109 307q0 90 18 184zM908 1688h228l-272 -238h-156z" />
    <glyph glyph-name="Ucircumflex" unicode="&#xdb;" horiz-adv-x="1286" 
d="M320 1348h176l-150 -784q-16 -90 -16 -170q0 -129 69 -197.5t189 -68.5q152 0 249 108.5t139 325.5l150 786h178l-152 -792q-56 -289 -203 -433.5t-385 -144.5q-192 0 -301 107t-109 307q0 90 18 184zM807 1688h132l168 -238h-140l-102 146h-4l-142 -146h-156z" />
    <glyph glyph-name="Ugrave" unicode="&#xd9;" horiz-adv-x="1286" 
d="M320 1348h176l-150 -784q-16 -90 -16 -170q0 -129 69 -197.5t189 -68.5q152 0 249 108.5t139 325.5l150 786h178l-152 -792q-56 -289 -203 -433.5t-385 -144.5q-192 0 -301 107t-109 307q0 90 18 184zM567 1688h216l148 -236h-146z" />
    <glyph glyph-name="dotlessi" unicode="&#x131;" horiz-adv-x="474" 
d="M236 0h-176l186 968h176z" />
    <glyph glyph-name="circumflex" unicode="&#x2c6;" horiz-adv-x="778" 
d="M494 1378h126l140 -290h-130l-86 190h-4l-142 -190h-140z" />
    <glyph glyph-name="tilde" unicode="&#x2dc;" horiz-adv-x="778" 
d="M378 1122h-98q5 97 43.5 150.5t100.5 53.5q42 0 130 -42q68 -34 82 -34q31 0 42 20.5t16 63.5h96q-11 -196 -144 -196q-61 0 -126 38q-63 36 -86 36q-43 0 -56 -90z" />
    <glyph glyph-name="macron" unicode="&#xaf;" horiz-adv-x="778" 
d="M322 1282h448l-20 -110h-448z" />
    <glyph glyph-name="breve" unicode="&#x2d8;" horiz-adv-x="778" 
d="M325 1368h104q0 -140 110 -140q120 0 158 140h110q-21 -114 -95 -179t-177 -65q-104 0 -158.5 53t-54.5 147q0 21 3 44z" />
    <glyph glyph-name="dotaccent" unicode="&#x2d9;" horiz-adv-x="778" 
d="M636 1224q0 -47 -31 -78.5t-77 -31.5q-42 0 -70 28.5t-28 71.5q0 46 31.5 78t76.5 32q43 0 70.5 -29t27.5 -71z" />
    <glyph glyph-name="ring" unicode="&#x2da;" horiz-adv-x="780" 
d="M338 1248q0 86 60 142t152 56q84 0 139 -51t55 -133q0 -83 -62 -137.5t-150 -54.5q-82 0 -138 50.5t-56 127.5zM642 1264q0 45 -27.5 74.5t-70.5 29.5q-44 0 -72 -33t-28 -83q0 -42 27 -73t67 -31q45 0 74.5 33t29.5 83z" />
    <glyph glyph-name="cedilla" unicode="&#xb8;" horiz-adv-x="778" 
d="M268 4h112l-78 -104q110 -26 110 -128q0 -78 -64.5 -126t-159.5 -48q-81 0 -134 34l38 88q46 -30 106 -30q36 0 61 20t25 52q0 64 -134 76z" />
    <glyph glyph-name="hungarumlaut" unicode="&#x2dd;" horiz-adv-x="778" 
d="M492 1376h182l-256 -274h-116zM790 1376h180l-256 -274h-116z" />
    <glyph glyph-name="ogonek" unicode="&#x2db;" horiz-adv-x="778" 
d="M318 0h114q-94 -47 -154 -110.5t-60 -119.5q0 -35 18.5 -55.5t49.5 -20.5q49 0 90 18l12 -80q-68 -32 -146 -32q-67 0 -107.5 38.5t-40.5 99.5q0 58 37.5 115.5t104 102t82.5 44.5z" />
    <glyph glyph-name="caron" unicode="&#x2c7;" horiz-adv-x="778" 
d="M578 1088h-128l-142 290h130l88 -192h6l144 192h140z" />
    <glyph glyph-name="Lslash" unicode="&#x141;" horiz-adv-x="930" 
d="M814 0h-738l102 538l-192 -122l28 140l192 120l128 672h176l-106 -548l288 182l-26 -142l-288 -180l-96 -506h562z" />
    <glyph glyph-name="lslash" unicode="&#x142;" horiz-adv-x="490" 
d="M246 0h-176l106 556l-152 -104l26 140l152 104l140 728h174l-112 -586l160 110l-26 -142l-160 -110z" />
    <glyph glyph-name="Scaron" unicode="&#x160;" horiz-adv-x="966" 
d="M24 76l66 144q134 -90 302 -90q123 0 206.5 67.5t83.5 178.5q0 76 -48 134t-154 112q-147 76 -214.5 160t-67.5 188q0 181 136.5 290.5t333.5 109.5q172 0 290 -72l-64 -144q-111 66 -244 66q-118 0 -193 -64t-75 -150q0 -73 45.5 -127t170.5 -119q143 -75 205.5 -161
t62.5 -201q0 -182 -136.5 -301t-363.5 -119q-98 0 -194.5 27.5t-147.5 70.5zM751 1450h-136l-166 238h142l98 -146h6l142 146h156z" />
    <glyph glyph-name="scaron" unicode="&#x161;" horiz-adv-x="772" 
d="M20 46l50 130q111 -62 218 -62q81 0 132.5 44t51.5 108q0 55 -30.5 93.5t-107.5 80.5q-184 97 -184 248q0 130 103 216t261 86q131 0 210 -50l-50 -132q-81 46 -174 46q-75 0 -123.5 -40t-48.5 -100q0 -50 32.5 -86t105.5 -74q188 -99 188 -254q0 -145 -107.5 -233.5
t-274.5 -88.5q-153 0 -252 68zM567 1088h-128l-142 290h130l88 -192h6l144 192h140z" />
    <glyph glyph-name="Zcaron" unicode="&#x17d;" horiz-adv-x="1090" 
d="M-38 0l20 106l934 1086v6h-662l30 150h902l-22 -110l-928 -1082l2 -6h732l-28 -150h-980zM819 1450h-136l-166 238h142l98 -146h6l142 146h156z" />
    <glyph glyph-name="zcaron" unicode="&#x17e;" horiz-adv-x="862" 
d="M-40 0l20 108q493 531 536 574.5t146 135.5v6h-508l28 144h722l-22 -114q-481 -521 -528.5 -569.5t-145.5 -134.5v-6h550l-28 -144h-770zM624 1088h-128l-142 290h130l88 -192h6l144 192h140z" />
    <glyph glyph-name="brokenbar" unicode="&#xa6;" horiz-adv-x="444" 
d="M192 1348h130v-700h-130v700zM192 348h130v-700h-130v700z" />
    <glyph glyph-name="Eth" unicode="&#xd0;" horiz-adv-x="1362" 
d="M28 630l30 148h170l104 552q184 28 360 28q302 0 474 -145.5t172 -402.5q0 -163 -63.5 -320.5t-179.5 -268.5t-284 -170t-385 -59q-178 0 -344 18l118 620h-172zM748 778l-30 -148h-342l-90 -482q58 -10 190 -10q306 0 489 188.5t183 475.5q0 412 -468 412
q-121 0 -194 -12l-80 -424h342z" />
    <glyph glyph-name="eth" unicode="&#xf0;" horiz-adv-x="1072" 
d="M336 1012l-32 88l260 116q-70 65 -184 120l80 106q131 -56 256 -160l274 120l36 -90l-230 -100q216 -224 216 -544q0 -309 -160.5 -499.5t-387.5 -190.5q-184 0 -289 111.5t-105 286.5q0 244 155 418t369 174q146 0 220 -100l6 2q-55 165 -178 278zM250 378
q0 -116 60.5 -189t163.5 -73q148 0 249 145.5t101 330.5q0 76 -19 122.5t-71.5 83t-131.5 36.5q-147 0 -249.5 -138t-102.5 -318z" />
    <glyph glyph-name="Yacute" unicode="&#xdd;" horiz-adv-x="1070" 
d="M510 0h-176l106 558l-274 790h188q152 -485 167.5 -538t28.5 -120h4q114 180 156 242l284 416h210l-588 -788zM798 1688h228l-272 -238h-156z" />
    <glyph glyph-name="yacute" unicode="&#xfd;" horiz-adv-x="914" 
d="M96 968h182q144 -736 148 -768h4q79 182 103 235l249 533h188l-366 -728q-177 -353 -328 -502t-310 -186l-40 152q169 54 273 177.5t104 160.5q0 6 -3 18zM660 1378h208l-270 -290h-138z" />
    <glyph glyph-name="Thorn" unicode="&#xde;" horiz-adv-x="1048" 
d="M66 0l256 1348h172l-50 -260q81 14 168 14q197 0 302.5 -91.5t105.5 -242.5q0 -215 -161.5 -343.5t-404.5 -128.5q-80 0 -158 10l-58 -306h-172zM418 944l-94 -490q57 -12 146 -12q155 0 263.5 85.5t108.5 216.5q0 105 -71 160.5t-201 55.5q-90 0 -152 -16z" />
    <glyph glyph-name="thorn" unicode="&#xfe;" horiz-adv-x="1090" 
d="M-28 -398l330 1738h176l-106 -546h4q134 196 340 196q146 0 230 -101t84 -261q0 -265 -172.5 -457.5t-409.5 -192.5q-29 0 -59 3t-58.5 8.5t-51.5 14.5l-45 18h-8l-78 -420h-176zM304 424l-48 -256q72 -52 192 -52q156 0 276 151.5t120 346.5q0 100 -49 165t-139 65
q-113 0 -214.5 -114.5t-137.5 -305.5z" />
    <glyph glyph-name="minus" unicode="&#x2212;" horiz-adv-x="1192" 
d="M114 596h998v-124h-998v124z" />
    <glyph glyph-name="multiply" unicode="&#xd7;" horiz-adv-x="1192" 
d="M124 962l90 92l402 -440l406 440l90 -90l-408 -436l408 -436l-92 -92l-406 442l-404 -442l-86 94l404 434z" />
    <glyph glyph-name="one.superior" unicode="&#xb9;" horiz-adv-x="628" 
d="M428 534h-146l124 650h-4l-142 -64l-14 104l202 88h128z" />
    <glyph glyph-name="two.superior" unicode="&#xb2;" horiz-adv-x="696" 
d="M636 534h-542l14 82q339 260 402.5 339t63.5 147q0 48 -30.5 76t-89.5 28q-85 0 -176 -62l-32 92q116 86 252 86q106 0 169 -56t63 -146q0 -82 -65.5 -173.5t-340.5 -294.5v-4h334z" />
    <glyph glyph-name="three.superior" unicode="&#xb3;" horiz-adv-x="672" 
d="M272 1156l-22 96q101 70 232 70q104 0 166 -49.5t62 -124.5q0 -133 -184 -192l-2 -4q67 -17 106.5 -66t39.5 -110q0 -112 -92.5 -182t-241.5 -70q-147 0 -230 60l50 100q81 -54 178 -54q83 0 134.5 42t51.5 102t-51 94t-133 34h-42l18 94h42q77 0 139.5 37.5t62.5 92.5
q0 88 -114 88q-92 0 -170 -58z" />
    <glyph glyph-name="periodcentered" unicode="&#xb7;" horiz-adv-x="434" 
d="M356 556q0 -59 -37.5 -98.5t-96.5 -39.5q-51 0 -83.5 35t-32.5 87q0 59 37 99.5t95 40.5q52 0 85 -35t33 -89z" />
    <glyph glyph-name="onehalf" unicode="&#xbd;" horiz-adv-x="1544" 
d="M405 534h-146l124 650h-4l-142 -64l-14 104l202 88h128zM292 -22h-126l984 1344h126zM1360 3h-542l14 82q339 260 402.5 339t63.5 147q0 48 -30.5 76t-89.5 28q-85 0 -176 -62l-32 92q116 86 252 86q106 0 169 -56t63 -146q0 -82 -65.5 -173.5t-340.5 -294.5v-4h334z" />
    <glyph glyph-name="onequarter" unicode="&#xbc;" horiz-adv-x="1544" 
d="M413 534h-146l124 650h-4l-142 -64l-14 104l202 88h128zM332 -22h-126l984 1344h126zM1274 3h-140l38 202h-396l16 82l472 506h160l-92 -486h116l-18 -102h-118zM1192 307q56 305 74 360h-4l-52 -68q-27 -35 -88 -101l-174 -189l2 -2h242z" />
    <glyph glyph-name="threequarters" unicode="&#xbe;" horiz-adv-x="1544" 
d="M249 1153l-22 96q101 70 232 70q104 0 166 -49.5t62 -124.5q0 -133 -184 -192l-2 -4q67 -17 106.5 -66t39.5 -110q0 -112 -92.5 -182t-241.5 -70q-147 0 -230 60l50 100q81 -54 178 -54q83 0 134.5 42t51.5 102t-51 94t-133 34h-42l18 94h42q77 0 139.5 37.5t62.5 92.5
q0 88 -114 88q-92 0 -170 -58zM400 -22h-126l984 1344h126zM1294 3h-140l38 202h-396l16 82l472 506h160l-92 -486h116l-18 -102h-118zM1212 307q56 305 74 360h-4l-52 -68q-27 -35 -88 -101l-174 -189l2 -2h242z" />
    <glyph glyph-name="hyphen" unicode="-" horiz-adv-x="622" 
d="M98 610h486l-26 -136h-486z" />
    <glyph glyph-name="uni02C9" unicode="&#x2c9;" horiz-adv-x="1000" 
d="M236 1600h1000l-20 -100h-1000z" />
    <glyph glyph-name="four.superior" unicode="&#xf003;" horiz-adv-x="628" 
d="M550 534h-140l38 202h-396l16 82l472 506h160l-92 -486h116l-18 -102h-118zM468 838q56 305 74 360h-4l-52 -68q-27 -35 -88 -101l-174 -189l2 -2h242z" />
    <glyph glyph-name="pi.1" unicode="&#xf006;" horiz-adv-x="1124" 
d="M962 828l-98 -528q-11 -62 -17.5 -109.5t-9.5 -83.5t-3 -62q0 -25 2 -45h-168q-10 23 -7 91t25 191l100 546h-308q-12 -45 -23 -96t-25 -104q-25 -91 -54 -185t-60.5 -178.5t-64 -153.5t-63.5 -111h-170q32 51 64 121.5t63 152t59.5 171t51.5 177.5q15 54 27 106.5
t23 99.5q-65 0 -117 -4.5t-91 -15.5l-4 106q33 26 98.5 40t185.5 14h756l-34 -140h-138z" />
    <glyph glyph-name="f_i.1" unicode="&#xfb01;" horiz-adv-x="1030" 
d="M260 0h-176l156 830h-128l26 138h130q37 252 167.5 365t318.5 113q145 0 228 -52l-56 -140q-84 46 -196 46q-111 0 -184 -72.5t-102 -259.5h534l-184 -968h-176l156 830h-356z" />
    <glyph glyph-name="f_l.1" unicode="&#xfb02;" horiz-adv-x="1030" 
d="M260 0h-176l158 830h-130l26 138h130q43 254 177 366t331 112q169 0 278 -66l-262 -1380h-176l244 1276q-40 26 -132 26q-238 0 -284 -334h206l-26 -138h-206z" />
    <glyph glyph-name="Gbreve" unicode="&#x11e;" horiz-adv-x="1298" 
d="M1226 710l-122 -650q-206 -74 -402 -74q-293 0 -447.5 159.5t-154.5 412.5q0 215 104 404t299.5 294.5t436.5 105.5q214 0 338 -64l-58 -148q-122 62 -300 62q-175 0 -323.5 -87t-227.5 -239.5t-79 -313.5q0 -211 114 -323.5t332 -112.5q128 0 214 40l74 390h-280l28 144
h454zM712 1672h110q0 -112 120 -112q123 0 152 112h114q-18 -101 -89.5 -157.5t-182.5 -56.5q-110 0 -168 48.5t-58 133.5q0 16 2 32z" />
    <glyph glyph-name="gbreve" unicode="&#x11f;" horiz-adv-x="1086" 
d="M24 -348l48 136q106 -64 268 -64q77 0 139.5 24.5t112 82t72 125t62.5 250.5h-4q-129 -204 -344 -204q-140 0 -225 99t-85 243q0 171 82.5 322t227.5 237.5t322 86.5q169 0 326 -70l-148 -796q-59 -312 -191 -428t-359 -116q-194 0 -304 72zM774 510l58 306
q-69 34 -164 34q-173 0 -293.5 -145t-120.5 -335q0 -107 49 -168.5t143 -61.5q106 0 203 111t125 259zM476 1368h104q0 -140 110 -140q120 0 158 140h110q-21 -114 -95 -179t-177 -65q-104 0 -158.5 53t-54.5 147q0 21 3 44z" />
    <glyph glyph-name="Scedilla" unicode="&#x15e;" horiz-adv-x="966" 
d="M24 76l66 144q134 -90 302 -90q123 0 206.5 67.5t83.5 178.5q0 76 -48 134t-154 112q-147 76 -214.5 160t-67.5 188q0 181 136.5 290.5t333.5 109.5q172 0 290 -72l-64 -144q-111 66 -244 66q-118 0 -193 -64t-75 -150q0 -73 45.5 -127t170.5 -119q143 -75 205.5 -161
t62.5 -201q0 -154 -101 -266t-281 -144l-66 -88q108 -29 108 -126q0 -81 -63.5 -128.5t-158.5 -47.5q-84 0 -134 36l36 86q51 -30 102 -30q39 0 63.5 18.5t24.5 51.5q0 66 -132 78l100 140q-225 7 -340 98z" />
    <glyph glyph-name="scedilla" unicode="&#x15f;" horiz-adv-x="772" 
d="M20 46l50 130q111 -62 218 -62q81 0 132.5 44t51.5 108q0 55 -30.5 93.5t-107.5 80.5q-184 97 -184 248q0 130 103 216t261 86q131 0 210 -50l-50 -132q-81 46 -174 46q-75 0 -123.5 -40t-48.5 -100q0 -50 32.5 -86t105.5 -74q188 -99 188 -254q0 -117 -73 -200
t-203 -112l-68 -88q110 -26 110 -128q0 -80 -66 -127t-158 -47q-81 0 -134 34l38 88q46 -30 106 -30q36 0 61 20t25 52q0 64 -134 76l100 140q-154 10 -238 68z" />
    <glyph glyph-name="Cacute" unicode="&#x106;" horiz-adv-x="1160" 
d="M1018 188l24 -142q-152 -68 -370 -68q-264 0 -418 153t-154 419q0 220 102 409.5t291.5 300t424.5 110.5q206 0 312 -68l-58 -140q-106 58 -280 58q-260 0 -432 -185.5t-172 -464.5q0 -208 110 -325t318 -117q181 0 302 60zM968 1688h228l-272 -238h-156z" />
    <glyph glyph-name="cacute" unicode="&#x107;" horiz-adv-x="878" 
d="M736 178l16 -138q-129 -62 -296 -62q-179 0 -282.5 105t-103.5 275q0 258 176 445t432 187q123 0 214 -46l-50 -138q-76 38 -174 38q-176 0 -295 -140.5t-119 -323.5q0 -121 65.5 -189.5t182.5 -68.5q115 0 234 56zM756 1378h208l-270 -290h-138z" />
    <glyph glyph-name="Ccaron" unicode="&#x10c;" horiz-adv-x="1160" 
d="M1018 188l24 -142q-152 -68 -370 -68q-264 0 -418 153t-154 419q0 220 102 409.5t291.5 300t424.5 110.5q206 0 312 -68l-58 -140q-106 58 -280 58q-260 0 -432 -185.5t-172 -464.5q0 -208 110 -325t318 -117q181 0 302 60zM953 1450h-136l-166 238h142l98 -146h6
l142 146h156z" />
    <glyph glyph-name="ccaron" unicode="&#x10d;" horiz-adv-x="878" 
d="M736 178l16 -138q-129 -62 -296 -62q-179 0 -282.5 105t-103.5 275q0 258 176 445t432 187q123 0 214 -46l-50 -138q-76 38 -174 38q-176 0 -295 -140.5t-119 -323.5q0 -121 65.5 -189.5t182.5 -68.5q115 0 234 56zM728 1088h-128l-142 290h130l88 -192h6l144 192h140z
" />
    <glyph glyph-name="Amacron" unicode="&#x100;" horiz-adv-x="1176" 
d="M828 424h-478l-216 -424h-188l710 1348h212l200 -1348h-182zM414 564h400q-62 415 -82 628h-4q-87 -195 -110 -238zM573 1608h472l-22 -112h-474z" />
    <glyph glyph-name="amacron" unicode="&#x101;" horiz-adv-x="1082" 
d="M892 0h-166q0 69 22 254h-4q-145 -276 -388 -276q-129 0 -209.5 91.5t-80.5 234.5q0 277 193.5 481.5t494.5 204.5q149 0 274 -38q-100 -521 -112.5 -597t-18 -153.5t-5.5 -201.5zM776 558l52 278q-42 14 -118 14q-184 0 -322 -156t-138 -360q0 -99 43.5 -155.5
t126.5 -56.5q110 0 215 122.5t141 313.5zM494 1282h448l-20 -110h-448z" />
    <glyph glyph-name="Abreve" unicode="&#x102;" horiz-adv-x="1176" 
d="M828 424h-478l-216 -424h-188l710 1348h212l200 -1348h-182zM414 564h400q-62 415 -82 628h-4q-87 -195 -110 -238zM572 1702h110q0 -112 120 -112q123 0 152 112h114q-18 -101 -89.5 -157.5t-182.5 -56.5q-110 0 -168 48.5t-58 133.5q0 16 2 32z" />
    <glyph glyph-name="abreve" unicode="&#x103;" horiz-adv-x="1082" 
d="M892 0h-166q0 69 22 254h-4q-145 -276 -388 -276q-129 0 -209.5 91.5t-80.5 234.5q0 277 193.5 481.5t494.5 204.5q149 0 274 -38q-100 -521 -112.5 -597t-18 -153.5t-5.5 -201.5zM776 558l52 278q-42 14 -118 14q-184 0 -322 -156t-138 -360q0 -99 43.5 -155.5
t126.5 -56.5q110 0 215 122.5t141 313.5zM494 1368h104q0 -140 110 -140q120 0 158 140h110q-21 -114 -95 -179t-177 -65q-104 0 -158.5 53t-54.5 147q0 21 3 44z" />
    <glyph glyph-name="Aogonek" unicode="&#x104;" horiz-adv-x="1176" 
d="M828 424h-478l-216 -424h-188l710 1348h212l200 -1348q-78 -40 -127 -105t-49 -129q0 -31 19 -50.5t51 -19.5q39 0 92 18l12 -78q-69 -34 -148 -34q-70 0 -110 37.5t-40 100.5q0 76 56.5 153t133.5 107h-72zM414 564h400q-62 415 -82 628h-4q-87 -195 -110 -238z" />
    <glyph glyph-name="aogonek" unicode="&#x105;" horiz-adv-x="1082" 
d="M1028 952q-110 -571 -121 -656q-22 -178 -15 -296q-95 -45 -155.5 -108.5t-60.5 -119.5q0 -35 18.5 -55.5t49.5 -20.5q49 0 90 18l12 -80q-68 -32 -146 -32q-67 0 -107.5 38.5t-40.5 99.5q0 77 65 151t155 109h-46q0 69 22 254h-4q-145 -276 -388 -276
q-129 0 -209.5 91.5t-80.5 234.5q0 277 193.5 481.5t494.5 204.5q149 0 274 -38zM776 558l52 278q-42 14 -118 14q-184 0 -322 -156t-138 -360q0 -99 43.5 -155.5t126.5 -56.5q110 0 215 122.5t141 313.5z" />
    <glyph glyph-name="Dcaron" unicode="&#x10e;" horiz-adv-x="1348" 
d="M68 8l250 1322q171 28 350 28q314 0 485 -146t171 -404q0 -339 -222.5 -578.5t-689.5 -239.5q-178 0 -344 18zM472 1200l-200 -1054q59 -10 182 -10q333 0 506.5 187.5t173.5 478.5q0 412 -468 412q-121 0 -194 -14zM837 1450h-136l-166 238h142l98 -146h6l142 146h156z
" />
    <glyph glyph-name="dcaron" unicode="&#x10f;" horiz-adv-x="1208" 
d="M946 1424h176l-214 -1116q-30 -154 -40 -308h-164l28 194h-4q-146 -216 -362 -216q-137 0 -218.5 99.5t-81.5 260.5q0 171 82.5 323.5t225 240.5t308.5 88q103 0 176 -32zM768 488l62 322q-64 40 -162 40q-171 0 -294.5 -145.5t-123.5 -342.5q0 -113 48 -176.5t140 -63.5
q102 0 201 105t129 261zM1256 1072l-104 -10q100 181 160 362l162 14q-95 -206 -218 -366z" />
    <glyph glyph-name="Dcroat" unicode="&#x110;" horiz-adv-x="1362" 
d="M28 630l30 148h170l104 552q184 28 360 28q302 0 474 -145.5t172 -402.5q0 -163 -63.5 -320.5t-179.5 -268.5t-284 -170t-385 -59q-178 0 -344 18l118 620h-172zM748 778l-30 -148h-342l-90 -482q58 -10 190 -10q306 0 489 188.5t183 475.5q0 412 -468 412
q-121 0 -194 -12l-80 -424h342z" />
    <glyph glyph-name="dcroat" unicode="&#x111;" horiz-adv-x="1088" 
d="M1066 1128l-158 -820q-30 -154 -40 -308h-164l28 194h-4q-146 -216 -362 -216q-137 0 -218.5 99.5t-81.5 260.5q0 171 82.5 323.5t225 240.5t308.5 88q103 0 176 -32l32 170h-282l26 130h280l32 166h176l-32 -166h92l-26 -130h-90zM768 488l62 322q-64 40 -162 40
q-171 0 -294.5 -145.5t-123.5 -342.5q0 -113 48 -176.5t140 -63.5q102 0 201 105t129 261z" />
    <glyph glyph-name="Emacron" unicode="&#x112;" horiz-adv-x="976" 
d="M898 778l-30 -150h-508l-90 -478h572l-30 -150h-748l256 1348h718l-30 -150h-540l-80 -420h510zM473 1608h472l-22 -112h-474z" />
    <glyph glyph-name="emacron" unicode="&#x113;" horiz-adv-x="938" 
d="M760 188l24 -132q-146 -78 -334 -78q-182 0 -282 107t-100 289q0 236 159 426t383 190q136 0 217 -70.5t81 -183.5q0 -95 -51.5 -158t-144 -98t-196 -45.5t-272.5 -10.5q-3 -18 -3 -43q0 -128 67 -194.5t180 -66.5q148 0 272 68zM264 558q230 -3 352 35t122 139
q0 57 -41.5 89.5t-110.5 32.5q-106 0 -195.5 -83.5t-126.5 -212.5zM402 1282h448l-20 -110h-448z" />
    <glyph glyph-name="Edotaccent" unicode="&#x116;" horiz-adv-x="976" 
d="M898 778l-30 -150h-508l-90 -478h572l-30 -150h-748l256 1348h718l-30 -150h-540l-80 -420h510zM825 1578q0 -46 -31.5 -78t-76.5 -32q-41 0 -70.5 29.5t-29.5 70.5q0 45 32 77.5t76 32.5q42 0 71 -30t29 -70z" />
    <glyph glyph-name="edotaccent" unicode="&#x117;" horiz-adv-x="938" 
d="M760 188l24 -132q-146 -78 -334 -78q-182 0 -282 107t-100 289q0 236 159 426t383 190q136 0 217 -70.5t81 -183.5q0 -95 -51.5 -158t-144 -98t-196 -45.5t-272.5 -10.5q-3 -18 -3 -43q0 -128 67 -194.5t180 -66.5q148 0 272 68zM264 558q230 -3 352 35t122 139
q0 57 -41.5 89.5t-110.5 32.5q-106 0 -195.5 -83.5t-126.5 -212.5zM746 1224q0 -47 -31 -78.5t-77 -31.5q-42 0 -70 28.5t-28 71.5q0 46 31.5 78t76.5 32q43 0 70.5 -29t27.5 -71z" />
    <glyph glyph-name="Eogonek" unicode="&#x118;" horiz-adv-x="976" 
d="M898 778l-30 -150h-508l-90 -478h572l-30 -150q-96 -45 -156 -109.5t-60 -124.5q0 -31 19 -50.5t51 -19.5q39 0 92 18l12 -78q-69 -34 -148 -34q-70 0 -110 37.5t-40 100.5q0 72 67.5 149t154.5 111h-630l256 1348h718l-30 -150h-540l-80 -420h510z" />
    <glyph glyph-name="eogonek" unicode="&#x119;" horiz-adv-x="938" 
d="M760 188l24 -132q-28 -16 -64.5 -29.5t-66 -20.5t-75.5 -40t-75.5 -62t-47 -61t-17.5 -63q0 -35 18.5 -55.5t49.5 -20.5q49 0 90 18l12 -80q-68 -32 -146 -32q-67 0 -107.5 38.5t-40.5 99.5q0 132 164 232q-9 -2 -28 -2q-182 0 -282 107t-100 289q0 236 159 426t383 190
q136 0 217 -70.5t81 -183.5q0 -95 -51.5 -158t-144 -98t-196 -45.5t-272.5 -10.5q-3 -18 -3 -43q0 -128 67 -194.5t180 -66.5q148 0 272 68zM264 558q230 -3 352 35t122 139q0 57 -41.5 89.5t-110.5 32.5q-106 0 -195.5 -83.5t-126.5 -212.5z" />
    <glyph glyph-name="Ecaron" unicode="&#x11a;" horiz-adv-x="976" 
d="M898 778l-30 -150h-508l-90 -478h572l-30 -150h-748l256 1348h718l-30 -150h-540l-80 -420h510zM771 1450h-136l-166 238h142l98 -146h6l142 146h156z" />
    <glyph glyph-name="ecaron" unicode="&#x11b;" horiz-adv-x="938" 
d="M760 188l24 -132q-146 -78 -334 -78q-182 0 -282 107t-100 289q0 236 159 426t383 190q136 0 217 -70.5t81 -183.5q0 -95 -51.5 -158t-144 -98t-196 -45.5t-272.5 -10.5q-3 -18 -3 -43q0 -128 67 -194.5t180 -66.5q148 0 272 68zM264 558q230 -3 352 35t122 139
q0 57 -41.5 89.5t-110.5 32.5q-106 0 -195.5 -83.5t-126.5 -212.5zM682 1088h-128l-142 290h130l88 -192h6l144 192h140z" />
    <glyph glyph-name="Gcommaaccent" unicode="&#x122;" horiz-adv-x="1298" 
d="M1226 710l-122 -650q-206 -74 -402 -74q-293 0 -447.5 159.5t-154.5 412.5q0 215 104 404t299.5 294.5t436.5 105.5q214 0 338 -64l-58 -148q-122 62 -300 62q-175 0 -323.5 -87t-227.5 -239.5t-79 -313.5q0 -211 114 -323.5t332 -112.5q128 0 214 40l74 390h-280l28 144
h454zM532 -450l-104 -10q100 181 160 362l162 14q-95 -206 -218 -366z" />
    <glyph glyph-name="gcommaaccent" unicode="&#x123;" horiz-adv-x="1086" 
d="M24 -348l48 136q106 -64 268 -64q77 0 139.5 24.5t112 82t72 125t62.5 250.5h-4q-129 -204 -344 -204q-140 0 -225 99t-85 243q0 171 82.5 322t227.5 237.5t322 86.5q169 0 326 -70l-148 -796q-59 -312 -191 -428t-359 -116q-194 0 -304 72zM774 510l58 306
q-69 34 -164 34q-173 0 -293.5 -145t-120.5 -335q0 -107 49 -168.5t143 -61.5q106 0 203 111t125 259zM816 1462l104 10q-100 -181 -160 -362l-162 -14q95 206 218 366z" />
    <glyph glyph-name="Imacron" unicode="&#x12a;" horiz-adv-x="480" 
d="M318 1348h178l-258 -1348h-176zM225 1608h472l-22 -112h-474z" />
    <glyph glyph-name="imacron" unicode="&#x12b;" horiz-adv-x="474" 
d="M236 0h-176l186 968h176zM171 1282h448l-20 -110h-448z" />
    <glyph glyph-name="Iogonek" unicode="&#x12e;" horiz-adv-x="480" 
d="M62 0l256 1348h178l-258 -1348q-82 -41 -134 -106t-52 -128q0 -31 19 -50.5t51 -19.5q39 0 92 18l12 -78q-69 -34 -148 -34q-70 0 -110 37.5t-40 100.5q0 75 59 152t139 108h-64z" />
    <glyph glyph-name="iogonek" unicode="&#x12f;" horiz-adv-x="474" 
d="M500 1266q0 -49 -34 -85.5t-88 -36.5q-47 0 -76.5 31.5t-29.5 80.5q0 52 35 87t85 35q48 0 78 -31.5t30 -80.5zM60 0l184 968h176l-184 -968q-95 -45 -155.5 -108.5t-60.5 -119.5q0 -35 18.5 -55.5t49.5 -20.5q49 0 90 18l12 -80q-68 -32 -146 -32q-67 0 -107.5 38.5
t-40.5 99.5q0 77 65 151t155 109h-56z" />
    <glyph glyph-name="Idotaccent" unicode="&#x130;" horiz-adv-x="480" 
d="M318 1348h178l-258 -1348h-176zM557 1578q0 -46 -31.5 -78t-76.5 -32q-41 0 -70.5 29.5t-29.5 70.5q0 45 32 77.5t76 32.5q42 0 71 -30t29 -70z" />
    <glyph glyph-name="Kcommaaccent" unicode="&#x136;" horiz-adv-x="1070" 
d="M64 0l256 1348h176l-124 -652h8q51 63 117 130l501 522h224l-582 -580l362 -768h-192l-308 658l-166 -152l-96 -506h-176zM378 -420l-104 -10q100 181 160 362l162 14q-95 -206 -218 -366z" />
    <glyph glyph-name="kcommaaccent" unicode="&#x137;" horiz-adv-x="948" 
d="M236 0h-176l270 1424h176l-170 -894h4q47 54 152 156l286 282h220l-432 -398l300 -570h-196l-240 472l-126 -110zM316 -430l-104 -10q100 181 160 362l162 14q-95 -206 -218 -366z" />
    <glyph glyph-name="Lacute" unicode="&#x139;" horiz-adv-x="918" 
d="M64 0l256 1348h178l-228 -1194h562l-30 -154h-738zM512 1688h228l-272 -238h-156z" />
    <glyph glyph-name="lacute" unicode="&#x13a;" horiz-adv-x="474" 
d="M236 0h-176l272 1424h176zM524 1748h228l-272 -238h-156z" />
    <glyph glyph-name="Lcommaaccent" unicode="&#x13b;" horiz-adv-x="918" 
d="M64 0l256 1348h178l-228 -1194h562l-30 -154h-738zM302 -450l-104 -10q100 181 160 362l162 14q-95 -206 -218 -366z" />
    <glyph glyph-name="lcommaaccent" unicode="&#x13c;" horiz-adv-x="474" 
d="M236 0h-176l272 1424h176zM1 -450l-104 -10q100 181 160 362l162 14q-95 -206 -218 -366z" />
    <glyph glyph-name="Lcaron" unicode="&#x13d;" horiz-adv-x="918" 
d="M64 0l256 1348h178l-228 -1194h562l-30 -154h-738zM682 1140l-104 -10q100 181 160 362l162 14q-95 -206 -218 -366z" />
    <glyph glyph-name="lcaron" unicode="&#x13e;" horiz-adv-x="594" 
d="M236 0h-176l272 1424h176zM642 1072l-104 -10q100 181 160 362l162 14q-95 -206 -218 -366z" />
    <glyph glyph-name="Nacute" unicode="&#x143;" horiz-adv-x="1310" 
d="M234 0h-168l256 1348h198l318 -752q77 -182 126 -380l4 2q7 163 56 422l134 708h168l-256 -1348h-178l-318 754q-85 202 -132 392l-6 -2q-15 -144 -72 -448zM942 1659h228l-272 -238h-156z" />
    <glyph glyph-name="nacute" unicode="&#x144;" horiz-adv-x="1104" 
d="M238 0h-178l130 690q32 168 46 278h160l-26 -194h4q141 216 368 216q113 0 183.5 -71t70.5 -205q0 -60 -17 -150l-105 -564h-176l74 390q33 177 37.5 213.5t4.5 68.5q0 172 -156 172q-100 0 -202.5 -107.5t-133.5 -276.5zM770 1378h208l-270 -290h-138z" />
    <glyph glyph-name="Ncommaaccent" unicode="&#x145;" horiz-adv-x="1310" 
d="M234 0h-168l256 1348h198l318 -752q77 -182 126 -380l4 2q7 163 56 422l134 708h168l-256 -1348h-178l-318 754q-85 202 -132 392l-6 -2q-15 -144 -72 -448zM468 -420l-104 -10q100 181 160 362l162 14q-95 -206 -218 -366z" />
    <glyph glyph-name="ncommaaccent" unicode="&#x146;" horiz-adv-x="1104" 
d="M238 0h-178l130 690q32 168 46 278h160l-26 -194h4q141 216 368 216q113 0 183.5 -71t70.5 -205q0 -60 -17 -150l-105 -564h-176l74 390q33 177 37.5 213.5t4.5 68.5q0 172 -156 172q-100 0 -202.5 -107.5t-133.5 -276.5zM354 -430l-104 -10q100 181 160 362l162 14
q-95 -206 -218 -366z" />
    <glyph glyph-name="Ncaron" unicode="&#x147;" horiz-adv-x="1310" 
d="M234 0h-168l256 1348h198l318 -752q77 -182 126 -380l4 2q7 163 56 422l134 708h168l-256 -1348h-178l-318 754q-85 202 -132 392l-6 -2q-15 -144 -72 -448zM917 1421h-136l-166 238h142l98 -146h6l142 146h156z" />
    <glyph glyph-name="ncaron" unicode="&#x148;" horiz-adv-x="1104" 
d="M238 0h-178l130 690q32 168 46 278h160l-26 -194h4q141 216 368 216q113 0 183.5 -71t70.5 -205q0 -60 -17 -150l-105 -564h-176l74 390q33 177 37.5 213.5t4.5 68.5q0 172 -156 172q-100 0 -202.5 -107.5t-133.5 -276.5zM742 1088h-128l-142 290h130l88 -192h6l144 192
h140z" />
    <glyph glyph-name="Omacron" unicode="&#x14c;" horiz-adv-x="1394" 
d="M1370 804q0 -220 -94.5 -417t-261 -303t-372.5 -106q-251 0 -396.5 157t-145.5 407q0 223 99 424.5t270.5 303.5t362.5 102q255 0 396.5 -155.5t141.5 -412.5zM284 556q0 -199 98 -314.5t280 -115.5q209 0 364.5 205t155.5 467q0 203 -95 314.5t-281 111.5
q-214 0 -368 -207t-154 -461zM681 1608h472l-22 -112h-474z" />
    <glyph glyph-name="omacron" unicode="&#x14d;" horiz-adv-x="1086" 
d="M1022 578q0 -242 -159 -421t-393 -179q-180 0 -289 114t-109 290q0 250 158 429t394 179q184 0 291 -116t107 -296zM252 388q0 -121 65 -196.5t171 -75.5q141 0 245.5 141.5t104.5 320.5q0 114 -61.5 194t-172.5 80q-147 0 -249.5 -141.5t-102.5 -322.5zM476 1282h448
l-20 -110h-448z" />
    <glyph glyph-name="Ohungarumlaut" unicode="&#x150;" horiz-adv-x="1394" 
d="M1370 804q0 -220 -94.5 -417t-261 -303t-372.5 -106q-251 0 -396.5 157t-145.5 407q0 223 99 424.5t270.5 303.5t362.5 102q255 0 396.5 -155.5t141.5 -412.5zM284 556q0 -199 98 -314.5t280 -115.5q209 0 364.5 205t155.5 467q0 203 -95 314.5t-281 111.5
q-214 0 -368 -207t-154 -461zM858 1688h198l-256 -228h-134zM1160 1688h198l-256 -228h-134z" />
    <glyph glyph-name="ohungarumlaut" unicode="&#x151;" horiz-adv-x="1086" 
d="M1022 578q0 -242 -159 -421t-393 -179q-180 0 -289 114t-109 290q0 250 158 429t394 179q184 0 291 -116t107 -296zM252 388q0 -121 65 -196.5t171 -75.5q141 0 245.5 141.5t104.5 320.5q0 114 -61.5 194t-172.5 80q-147 0 -249.5 -141.5t-102.5 -322.5zM646 1376h182
l-256 -274h-116zM944 1376h180l-256 -274h-116z" />
    <glyph glyph-name="Racute" unicode="&#x154;" horiz-adv-x="1082" 
d="M66 0l254 1328q129 30 308 30q208 0 323 -91.5t115 -234.5q0 -134 -88.5 -239.5t-235.5 -148.5v-4q134 -47 150 -266q29 -343 46 -374h-184q-18 81 -34 324q-9 134 -59.5 196t-154.5 62h-154l-110 -582h-176zM472 1204l-92 -486h154q153 0 250.5 84.5t97.5 205.5
q0 102 -70 156t-196 54q-92 0 -144 -14zM798 1688h228l-272 -238h-156z" />
    <glyph glyph-name="racute" unicode="&#x155;" horiz-adv-x="660" 
d="M236 0h-176l116 620q32 167 50 348h156q-15 -131 -28 -214h6q116 236 304 236q21 0 50 -4l-34 -174q-10 4 -48 4q-107 0 -195.5 -112.5t-122.5 -291.5zM549 1378h208l-270 -290h-138z" />
    <glyph glyph-name="Rcommaaccent" unicode="&#x156;" horiz-adv-x="1082" 
d="M66 0l254 1328q129 30 308 30q208 0 323 -91.5t115 -234.5q0 -134 -88.5 -239.5t-235.5 -148.5v-4q134 -47 150 -266q29 -343 46 -374h-184q-18 81 -34 324q-9 134 -59.5 196t-154.5 62h-154l-110 -582h-176zM472 1204l-92 -486h154q153 0 250.5 84.5t97.5 205.5
q0 102 -70 156t-196 54q-92 0 -144 -14zM384 -420l-104 -10q100 181 160 362l162 14q-95 -206 -218 -366z" />
    <glyph glyph-name="rcommaaccent" unicode="&#x157;" horiz-adv-x="660" 
d="M236 0h-176l116 620q32 167 50 348h156q-15 -131 -28 -214h6q116 236 304 236q21 0 50 -4l-34 -174q-10 4 -48 4q-107 0 -195.5 -112.5t-122.5 -291.5zM3 -450l-104 -10q100 181 160 362l162 14q-95 -206 -218 -366z" />
    <glyph glyph-name="Rcaron" unicode="&#x158;" horiz-adv-x="1082" 
d="M66 0l254 1328q129 30 308 30q208 0 323 -91.5t115 -234.5q0 -134 -88.5 -239.5t-235.5 -148.5v-4q134 -47 150 -266q29 -343 46 -374h-184q-18 81 -34 324q-9 134 -59.5 196t-154.5 62h-154l-110 -582h-176zM472 1204l-92 -486h154q153 0 250.5 84.5t97.5 205.5
q0 102 -70 156t-196 54q-92 0 -144 -14zM773 1450h-136l-166 238h142l98 -146h6l142 146h156z" />
    <glyph glyph-name="rcaron" unicode="&#x159;" horiz-adv-x="660" 
d="M236 0h-176l116 620q32 167 50 348h156q-15 -131 -28 -214h6q116 236 304 236q21 0 50 -4l-34 -174q-10 4 -48 4q-107 0 -195.5 -112.5t-122.5 -291.5zM541 1088h-128l-142 290h130l88 -192h6l144 192h140z" />
    <glyph glyph-name="Sacute" unicode="&#x15a;" horiz-adv-x="966" 
d="M24 76l66 144q134 -90 302 -90q123 0 206.5 67.5t83.5 178.5q0 76 -48 134t-154 112q-147 76 -214.5 160t-67.5 188q0 181 136.5 290.5t333.5 109.5q172 0 290 -72l-64 -144q-111 66 -244 66q-118 0 -193 -64t-75 -150q0 -73 45.5 -127t170.5 -119q143 -75 205.5 -161
t62.5 -201q0 -182 -136.5 -301t-363.5 -119q-98 0 -194.5 27.5t-147.5 70.5zM730 1688h228l-272 -238h-156z" />
    <glyph glyph-name="sacute" unicode="&#x15b;" horiz-adv-x="772" 
d="M20 46l50 130q111 -62 218 -62q81 0 132.5 44t51.5 108q0 55 -30.5 93.5t-107.5 80.5q-184 97 -184 248q0 130 103 216t261 86q131 0 210 -50l-50 -132q-81 46 -174 46q-75 0 -123.5 -40t-48.5 -100q0 -50 32.5 -86t105.5 -74q188 -99 188 -254q0 -145 -107.5 -233.5
t-274.5 -88.5q-153 0 -252 68zM605 1378h208l-270 -290h-138z" />
    <glyph glyph-name="Scommaaccent" unicode="&#x218;" horiz-adv-x="966" 
d="M24 76l66 144q134 -90 302 -90q123 0 206.5 67.5t83.5 178.5q0 76 -48 134t-154 112q-147 76 -214.5 160t-67.5 188q0 181 136.5 290.5t333.5 109.5q172 0 290 -72l-64 -144q-111 66 -244 66q-118 0 -193 -64t-75 -150q0 -73 45.5 -127t170.5 -119q143 -75 205.5 -161
t62.5 -201q0 -182 -136.5 -301t-363.5 -119q-98 0 -194.5 27.5t-147.5 70.5zM306 -450l-104 -10q100 181 160 362l162 14q-95 -206 -218 -366z" />
    <glyph glyph-name="scommaaccent" unicode="&#x219;" horiz-adv-x="772" 
d="M20 46l50 130q111 -62 218 -62q81 0 132.5 44t51.5 108q0 55 -30.5 93.5t-107.5 80.5q-184 97 -184 248q0 130 103 216t261 86q131 0 210 -50l-50 -132q-81 46 -174 46q-75 0 -123.5 -40t-48.5 -100q0 -50 32.5 -86t105.5 -74q188 -99 188 -254q0 -145 -107.5 -233.5
t-274.5 -88.5q-153 0 -252 68zM188 -450l-104 -10q100 181 160 362l162 14q-95 -206 -218 -366z" />
    <glyph glyph-name="Tcommaaccent" unicode="&#x162;" horiz-adv-x="986" 
d="M310 0l226 1196h-408l30 152h996l-30 -152h-410l-228 -1196h-176zM250 -450l-104 -10q100 181 160 362l162 14q-95 -206 -218 -366z" />
    <glyph glyph-name="tcommaaccent" unicode="&#x163;" horiz-adv-x="648" 
d="M316 1148l184 54l-46 -234h236l-28 -138h-234q-88 -460 -97 -511t-9 -95q0 -96 94 -96q51 0 80 8l-10 -140q-44 -18 -134 -18q-101 0 -155.5 52t-54.5 140q0 71 16 155l96 505h-138l26 138h140zM166 -450l-104 -10q100 181 160 362l162 14q-95 -206 -218 -366z" />
    <glyph glyph-name="Tcaron" unicode="&#x164;" horiz-adv-x="986" 
d="M310 0l226 1196h-408l30 152h996l-30 -152h-410l-228 -1196h-176zM755 1450h-136l-166 238h142l98 -146h6l142 146h156z" />
    <glyph glyph-name="tcaron" unicode="&#x165;" horiz-adv-x="648" 
d="M316 1148l184 54l-46 -234h236l-28 -138h-234q-88 -460 -97 -511t-9 -95q0 -96 94 -96q51 0 80 8l-10 -140q-44 -18 -134 -18q-101 0 -155.5 52t-54.5 140q0 71 16 155l96 505h-138l26 138h140zM676 1070l-104 -10q100 181 160 362l162 14q-95 -206 -218 -366z" />
    <glyph glyph-name="Umacron" unicode="&#x16a;" horiz-adv-x="1286" 
d="M320 1348h176l-150 -784q-16 -90 -16 -170q0 -129 69 -197.5t189 -68.5q152 0 249 108.5t139 325.5l150 786h178l-152 -792q-56 -289 -203 -433.5t-385 -144.5q-192 0 -301 107t-109 307q0 90 18 184zM627 1608h472l-22 -112h-474z" />
    <glyph glyph-name="umacron" unicode="&#x16b;" horiz-adv-x="1088" 
d="M858 968h176l-132 -690q-26 -137 -44 -278h-158l26 184l-4 2q-71 -100 -163.5 -154t-188.5 -54q-126 0 -195 73t-69 215q0 73 21 180l101 522h176l-100 -518q-9 -51 -13.5 -86.5t-4.5 -65.5q0 -172 158 -172q99 0 194.5 101.5t125.5 254.5zM478 1282h448l-20 -110h-448z
" />
    <glyph glyph-name="Uring" unicode="&#x16e;" horiz-adv-x="1286" 
d="M320 1348h176l-150 -784q-16 -90 -16 -170q0 -129 69 -197.5t189 -68.5q152 0 249 108.5t139 325.5l150 786h178l-152 -792q-56 -289 -203 -433.5t-385 -144.5q-192 0 -301 107t-109 307q0 90 18 184zM626 1542q0 83 58.5 136.5t149.5 53.5q86 0 140 -48.5t54 -127.5
q0 -80 -60.5 -131t-149.5 -51q-83 0 -137.5 47.5t-54.5 120.5zM922 1554q0 47 -25 75.5t-67 28.5t-69 -31.5t-27 -80.5q0 -41 25.5 -69.5t64.5 -28.5q43 0 70.5 30t27.5 76z" />
    <glyph glyph-name="uring" unicode="&#x16f;" horiz-adv-x="1088" 
d="M858 968h176l-132 -690q-26 -137 -44 -278h-158l26 184l-4 2q-71 -100 -163.5 -154t-188.5 -54q-126 0 -195 73t-69 215q0 73 21 180l101 522h176l-100 -518q-9 -51 -13.5 -86.5t-4.5 -65.5q0 -172 158 -172q99 0 194.5 101.5t125.5 254.5zM472 1248q0 86 60 142t152 56
q84 0 139 -51t55 -133q0 -83 -62 -137.5t-150 -54.5q-82 0 -138 50.5t-56 127.5zM776 1264q0 45 -27.5 74.5t-70.5 29.5q-44 0 -72 -33t-28 -83q0 -42 27 -73t67 -31q45 0 74.5 33t29.5 83z" />
    <glyph glyph-name="Uhungarumlaut" unicode="&#x170;" horiz-adv-x="1286" 
d="M320 1348h176l-150 -784q-16 -90 -16 -170q0 -129 69 -197.5t189 -68.5q152 0 249 108.5t139 325.5l150 786h178l-152 -792q-56 -289 -203 -433.5t-385 -144.5q-192 0 -301 107t-109 307q0 90 18 184zM804 1688h198l-256 -228h-134zM1106 1688h198l-256 -228h-134z" />
    <glyph glyph-name="uhungarumlaut" unicode="&#x171;" horiz-adv-x="1088" 
d="M858 968h176l-132 -690q-26 -137 -44 -278h-158l26 184l-4 2q-71 -100 -163.5 -154t-188.5 -54q-126 0 -195 73t-69 215q0 73 21 180l101 522h176l-100 -518q-9 -51 -13.5 -86.5t-4.5 -65.5q0 -172 158 -172q99 0 194.5 101.5t125.5 254.5zM648 1376h182l-256 -274h-116z
M946 1376h180l-256 -274h-116z" />
    <glyph glyph-name="Uogonek" unicode="&#x172;" horiz-adv-x="1286" 
d="M320 1348h176l-150 -784q-16 -90 -16 -170q0 -129 69 -197.5t189 -68.5q305 0 388 434l150 786h178l-152 -792q-96 -502 -466 -568q-84 -42 -140 -103.5t-56 -120.5q0 -31 19 -50.5t51 -19.5q39 0 92 18l12 -78q-69 -34 -148 -34q-70 0 -110 37.5t-40 100.5t52 130
t132 110q-191 6 -293.5 113.5t-102.5 300.5q0 90 18 184z" />
    <glyph glyph-name="uogonek" unicode="&#x173;" horiz-adv-x="1088" 
d="M1034 968l-132 -690q-26 -137 -44 -278q-81 -41 -133.5 -105t-52.5 -123q0 -35 18.5 -55.5t49.5 -20.5q49 0 90 18l12 -80q-68 -32 -146 -32q-67 0 -107.5 38.5t-40.5 99.5q0 80 57 153.5t139 106.5h-44l26 184l-4 2q-71 -100 -163.5 -154t-188.5 -54q-126 0 -195 73
t-69 215q0 73 21 180l101 522h176l-100 -518q-9 -51 -13.5 -86.5t-4.5 -65.5q0 -172 158 -172q95 0 192.5 99t131.5 278l90 465h176z" />
    <glyph glyph-name="Zacute" unicode="&#x179;" horiz-adv-x="1090" 
d="M-38 0l20 106l934 1086v6h-662l30 150h902l-22 -110l-928 -1082l2 -6h732l-28 -150h-980zM832 1688h228l-272 -238h-156z" />
    <glyph glyph-name="zacute" unicode="&#x17a;" horiz-adv-x="862" 
d="M-40 0l20 108q493 531 536 574.5t146 135.5v6h-508l28 144h722l-22 -114q-481 -521 -528.5 -569.5t-145.5 -134.5v-6h550l-28 -144h-770zM648 1378h208l-270 -290h-138z" />
    <glyph glyph-name="Zdotaccent" unicode="&#x17b;" horiz-adv-x="1090" 
d="M-38 0l20 106l934 1086v6h-662l30 150h902l-22 -110l-928 -1082l2 -6h732l-28 -150h-980zM861 1578q0 -46 -31.5 -78t-76.5 -32q-41 0 -70.5 29.5t-29.5 70.5q0 45 32 77.5t76 32.5q42 0 71 -30t29 -70z" />
    <glyph glyph-name="zdotaccent" unicode="&#x17c;" horiz-adv-x="862" 
d="M-40 0l20 108q493 531 536 574.5t146 135.5v6h-508l28 144h722l-22 -114q-481 -521 -528.5 -569.5t-145.5 -134.5v-6h550l-28 -144h-770zM678 1224q0 -47 -31 -78.5t-77 -31.5q-42 0 -70 28.5t-28 71.5q0 46 31.5 78t76.5 32q43 0 70.5 -29t27.5 -71z" />
    <glyph glyph-name="commaaccent" unicode="&#xf6c3;" horiz-adv-x="600" 
d="M142 -450l-104 -10q100 181 160 362l162 14q-95 -206 -218 -366z" />
    <glyph glyph-name="acute.cap" unicode="&#xf100;" horiz-adv-x="600" 
d="M286 1688h228l-272 -238h-156z" />
    <glyph glyph-name="dieresis.cap" unicode="&#xf101;" horiz-adv-x="600" 
d="M214 1576q0 -45 -31.5 -76.5t-74.5 -31.5q-40 0 -69 29t-29 69q0 45 31.5 77.5t76.5 32.5q41 0 68.5 -29.5t27.5 -70.5zM590 1576q0 -45 -31.5 -76.5t-74.5 -31.5q-40 0 -69 29t-29 69q0 45 32 77.5t76 32.5q41 0 68.5 -29.5t27.5 -70.5z" />
    <glyph glyph-name="circumflex.cap" unicode="&#xf102;" horiz-adv-x="600" 
d="M272 1688h132l168 -238h-140l-102 146h-4l-142 -146h-156z" />
    <glyph glyph-name="tilde.cap" unicode="&#xf103;" horiz-adv-x="600" 
d="M138 1450h-98q5 96 44 149t100 53q58 0 128 -42q60 -36 92 -36q50 0 60 84h96q-10 -196 -146 -196q-60 0 -126 38t-92 38q-45 0 -58 -88z" />
    <glyph glyph-name="macron.cap" unicode="&#xf104;" horiz-adv-x="600" 
d="M76 1608h472l-22 -112h-474z" />
    <glyph glyph-name="breve.cap" unicode="&#xf105;" horiz-adv-x="600" 
d="M54 1672h110q0 -112 120 -112q123 0 152 112h114q-18 -101 -89.5 -157.5t-182.5 -56.5q-110 0 -168 48.5t-58 133.5q0 16 2 32z" />
    <glyph glyph-name="dotaccent.cap" unicode="&#xf106;" horiz-adv-x="600" 
d="M404 1578q0 -46 -31.5 -78t-76.5 -32q-41 0 -70.5 29.5t-29.5 70.5q0 45 32 77.5t76 32.5q42 0 71 -30t29 -70z" />
    <glyph glyph-name="ring.cap" unicode="&#xf107;" horiz-adv-x="600" 
d="M100 1542q0 83 58.5 136.5t149.5 53.5q86 0 140 -48.5t54 -127.5q0 -80 -60.5 -131t-149.5 -51q-83 0 -137.5 47.5t-54.5 120.5zM396 1554q0 47 -25 75.5t-67 28.5t-69 -31.5t-27 -80.5q0 -41 25.5 -69.5t64.5 -28.5q43 0 70.5 30t27.5 76z" />
    <glyph glyph-name="cedilla.cap" unicode="&#xf108;" horiz-adv-x="600" 
d="M336 4h112l-80 -104q112 -27 112 -128q0 -80 -66 -127t-158 -47q-80 0 -136 34l38 88q46 -30 106 -30q36 0 62 20t26 52q0 64 -136 76z" />
    <glyph glyph-name="hungarumlaut.cap" unicode="&#xf109;" horiz-adv-x="600" 
d="M146 1688h198l-256 -228h-134zM448 1688h198l-256 -228h-134z" />
    <glyph glyph-name="ogonek.cap" unicode="&#xf110;" horiz-adv-x="600" 
d="M356 0h114q-95 -48 -155.5 -111t-60.5 -119q0 -35 18.5 -55.5t49.5 -20.5q49 0 90 18l14 -80q-68 -32 -146 -32q-68 0 -109 38.5t-41 99.5q0 58 37.5 115.5t104.5 102t84 44.5z" />
    <glyph glyph-name="caron.cap" unicode="&#xf111;" horiz-adv-x="600" 
d="M330 1450h-136l-166 238h142l98 -146h6l142 146h156z" />
    <glyph glyph-name="grave.cap" unicode="&#xf112;" horiz-adv-x="601" 
d="M118 1688h216l148 -236h-146z" />
    <glyph glyph-name="Euro" unicode="&#x20ac;" 
d="M924 48q-22 -13 -53.5 -25.5t-69.5 -22.5t-81 -16t-90 -6q-118 0 -209 40t-152.5 110t-92.5 165t-30 205h-136l22 104h120q6 61 24 118h-124l22 104h132q37 105 101 196t149 158t187.5 105.5t214.5 38.5q91 0 157.5 -19t110.5 -43l-60 -134q-36 18 -90.5 34t-131.5 16
q-80 0 -151 -29t-129.5 -78t-102 -112.5t-69.5 -132.5h546l-22 -104h-562q-8 -26 -13.5 -55.5t-8.5 -62.5h560l-22 -104h-542q1 -76 22 -144t62.5 -119t103.5 -81t144 -30q35 0 70 5.5t66 13.5t57 18t43 19z" />
    <glyph glyph-name="pi" unicode="&#x3c0;" horiz-adv-x="1092" 
d="M962 828l-98 -528q-11 -62 -17.5 -109.5t-9.5 -83.5t-3 -62q0 -25 2 -45h-168q-10 23 -7 91t25 191l100 546h-308q-12 -45 -23 -96t-25 -104q-25 -91 -54 -185t-60.5 -178.5t-64 -153.5t-63.5 -111h-170q32 51 64 121.5t63 152t59.5 171t51.5 177.5q15 54 27 106.5
t23 99.5q-65 0 -117 -4.5t-91 -15.5l-4 106q33 26 98.5 40t185.5 14h756l-34 -140h-138z" />
    <glyph glyph-name="litre" unicode="&#x2113;" horiz-adv-x="994" 
d="M382 592q59 52 122.5 118.5t117 141.5t88 156t34.5 162q0 65 -24.5 97.5t-71.5 32.5q-27 0 -54 -16.5t-51.5 -50.5t-44.5 -86.5t-34 -124.5zM870 234q-80 -133 -184 -193.5t-226 -60.5q-76 0 -131.5 24.5t-91 67.5t-52 100.5t-15.5 123.5v16q-32 -21 -59.5 -39t-54.5 -35
l-42 102q44 29 89 57.5t89 60.5l98 528q22 117 60.5 200.5t88 137.5t108.5 79t121 25q53 0 94.5 -17.5t70 -50t44 -77.5t15.5 -101q0 -78 -24 -152.5t-64.5 -145t-94.5 -136t-114.5 -124.5t-123 -111t-121.5 -97l-2 -24q-10 -70 -1.5 -119t31 -79.5t56.5 -44t74 -13.5
q50 0 91.5 17.5t76.5 44.5t63.5 59t50.5 61z" />
    <glyph glyph-name="estimated" unicode="&#x212e;" horiz-adv-x="1634" 
d="M394 632q-10 0 -10 -8v-366q0 -12 5 -22.5t13 -19.5q86 -92 204 -145t254 -53q72 0 139.5 15.5t129 44.5t115 70t96.5 92h110q-51 -59 -116 -107.5t-141 -83t-160.5 -53t-174.5 -18.5q-103 0 -198.5 24t-178.5 67.5t-151.5 105t-117 136t-75.5 160.5t-27 179t27 179
t75.5 160.5t117 136t151.5 105t178.5 67.5t198.5 24q155 0 290.5 -52.5t237 -144t160 -213.5t58.5 -262v-18h-1210zM1332 1048q0 14 -5.5 24.5t-14.5 19.5q-88 88 -203.5 139t-248.5 51q-136 0 -252 -52.5t-204 -143.5q-9 -9 -14.5 -20.5t-5.5 -25.5v-360q0 -10 10 -10h928
q10 0 10 10v368z" />
    <glyph glyph-name="uni021A" horiz-adv-x="986" 
d="M310 0l226 1196h-408l30 152h996l-30 -152h-410l-228 -1196h-176zM250 -450l-104 -10q100 181 160 362l162 14q-95 -206 -218 -366z" />
    <glyph glyph-name="uni2215" unicode="&#x2215;" horiz-adv-x="818" 
d="M16 -22h-126l984 1344h126z" />
    </font>
</defs>
</svg>
