<?xml version="1.0" standalone="no"?>
<!DOCTYPE svg PUBLIC "-//W3C//DTD SVG 1.1//EN" "http://www.w3.org/Graphics/SVG/1.1/DTD/svg11.dtd" >
<svg>
<metadata>
Created by FontForge 20110222 at Sat Nov  2 00:11:21 2013
 By Orthosie Webhosting
Copyright 1992-2003 Adobe Systems Incorporated. All Rights Reserved. U.S. Patent Des. 454,582.
</metadata>
<defs>
<font id="MyriadWebProRegular" horiz-adv-x="600" >
  <font-face 
    font-family="MyriadWebProRegular"
    font-weight="400"
    font-stretch="normal"
    units-per-em="2000"
    panose-1="2 11 5 3 3 4 3 2 2 4"
    ascent="1600"
    descent="-400"
    x-height="968"
    cap-height="1348"
    bbox="-94 -500 2322 1748"
    underline-thickness="100"
    underline-position="-150"
    unicode-range="U+0020-FB02"
  />
<missing-glyph horiz-adv-x="1000" 
d="M0 1400h1000v-1400h-1000v1400zM840 1300h-680l340 -510zM900 190v1020l-340 -510zM840 100l-340 510l-340 -510h680zM100 190l340 510l-340 510v-1020z" />
    <glyph glyph-name="f_i" unicode="fi" horiz-adv-x="1080" 
d="M352 0h-186v826h-136v142h136v52q0 199 115.5 312.5t320.5 113.5q68 0 141.5 -18.5t114.5 -47.5l-52 -142q-89 58 -212 58q-244 0 -244 -282v-46h580v-968h-186v826h-392v-826z" />
    <glyph glyph-name="f_l" unicode="fl" horiz-adv-x="1080" 
d="M352 0h-186v826h-136v142h136v40q0 194 116.5 316t345.5 122q171 0 302 -66v-1380h-186v1276q-49 26 -146 26q-121 0 -184.5 -75.5t-63.5 -212.5v-46h230v-142h-228v-826z" />
    <glyph glyph-name=".notdef" horiz-adv-x="1000" 
d="M0 1400h1000v-1400h-1000v1400zM840 1300h-680l340 -510zM900 190v1020l-340 -510zM840 100l-340 510l-340 -510h680zM100 190l340 510l-340 510v-1020z" />
    <glyph glyph-name=".null" horiz-adv-x="0" 
 />
    <glyph glyph-name="nonmarkingreturn" horiz-adv-x="436" 
 />
    <glyph glyph-name="space" unicode=" " horiz-adv-x="436" 
 />
    <glyph glyph-name="exclam" unicode="!" horiz-adv-x="472" 
d="M306 392h-142l-30 956h202zM360 108q0 -55 -34 -92.5t-90 -37.5q-54 0 -89 37.5t-35 92.5q0 57 35 93.5t89 36.5q55 0 89.5 -36.5t34.5 -93.5z" />
    <glyph glyph-name="quotedbl" unicode="&#x22;" horiz-adv-x="690" 
d="M98 1386h186l-36 -486h-114zM406 1386h186l-36 -486h-114z" />
    <glyph glyph-name="numbersign" unicode="#" horiz-adv-x="1028" 
d="M196 0l52 390h-170v124h188l38 282h-176v124h194l52 380h124l-52 -380h214l50 380h124l-50 -380h168v-124h-186l-36 -282h174v-124h-194l-52 -390h-126l52 390h-212l-50 -390h-126zM392 514h212l36 282h-212z" />
    <glyph glyph-name="dollar" unicode="$" horiz-adv-x="1062" 
d="M582 -172h-132v200q-192 5 -318 90l52 144q137 -90 300 -90q106 0 173 53.5t67 136.5q0 75 -53 129t-177 101q-190 73 -267 155t-77 197q0 123 83 212.5t231 113.5v200h132v-194q150 -5 268 -72l-50 -140q-127 72 -266 72q-101 0 -156.5 -48t-55.5 -120
q0 -70 53.5 -118.5t198.5 -105.5q175 -69 248.5 -154t73.5 -212q0 -125 -86 -221.5t-242 -122.5v-206z" />
    <glyph glyph-name="percent" unicode="%" horiz-adv-x="1630" 
d="M60 914q0 186 92 297t234 111q144 0 228 -102.5t84 -283.5q0 -196 -93 -304t-231 -108q-136 0 -225 105t-89 285zM552 926q0 136 -44 211t-126 75q-78 0 -125 -80t-47 -210q0 -128 45.5 -208t126.5 -80q82 0 126 76.5t44 215.5zM486 -22h-116l770 1344h116zM932 378
q0 184 92 295t234 111q144 0 228 -102.5t84 -283.5q0 -196 -93 -304t-231 -108q-137 0 -225.5 105t-88.5 287zM1424 388q0 129 -41.5 207.5t-128.5 78.5q-78 0 -125 -79.5t-47 -210.5t46.5 -209.5t125.5 -78.5q82 0 126 76.5t44 215.5z" />
    <glyph glyph-name="ampersand" unicode="&#x26;" horiz-adv-x="1246" 
d="M1244 0h-222l-128 130q-171 -152 -404 -152q-191 0 -309.5 109t-118.5 269q0 250 272 400q-116 144 -116 278q0 133 96 234.5t260 101.5q135 0 222.5 -81t87.5 -209q0 -113 -74.5 -199t-227.5 -165q280 -313 330 -366q93 134 134 390h170q-58 -339 -202 -500zM496 814
q123 67 174.5 126t51.5 132q0 72 -42.5 122t-115.5 50q-78 0 -125 -55t-47 -137q0 -115 104 -238zM418 654q-176 -109 -176 -268q0 -116 79 -192t201 -76q164 0 280 118q-157 163 -384 418z" />
    <glyph glyph-name="quotesingle" unicode="'" horiz-adv-x="382" 
d="M98 1386h186l-36 -486h-114z" />
    <glyph glyph-name="parenleft" unicode="(" horiz-adv-x="580" 
d="M394 -240q-264 341 -264 812q0 470 264 818h144q-252 -340 -252 -820q0 -455 252 -810h-144z" />
    <glyph glyph-name="parenright" unicode=")" horiz-adv-x="580" 
d="M42 -240q252 350 252 816q0 467 -252 814h144q264 -341 264 -814q0 -468 -264 -816h-144z" />
    <glyph glyph-name="asterisk" unicode="*" horiz-adv-x="846" 
d="M62 946v140l298 -36l-190 248l128 72l126 -282l124 282l124 -70l-194 -254l308 40v-140l-308 32l196 -242l-130 -74l-126 284l-130 -286l-118 76l194 248z" />
    <glyph glyph-name="plus" unicode="+" horiz-adv-x="1192" 
d="M530 0v472h-448v126h448v468h134v-468h448v-126h-448v-472h-134z" />
    <glyph glyph-name="comma" unicode="," horiz-adv-x="424" 
d="M162 -232l-132 -14q82 229 122 486l206 20q-87 -305 -196 -492z" />
    <glyph glyph-name="hyphen" unicode="-" horiz-adv-x="622" 
d="M60 610h502v-136h-502v136z" />
    <glyph glyph-name="period" unicode="." horiz-adv-x="424" 
d="M354 108q0 -56 -35.5 -93t-90.5 -37q-54 0 -89 37.5t-35 92.5q0 57 35.5 94.5t90.5 37.5t89.5 -36.5t34.5 -95.5z" />
    <glyph glyph-name="slash" unicode="/" horiz-adv-x="700" 
d="M140 -80h-140l562 1450h144z" />
    <glyph glyph-name="zero" unicode="0" horiz-adv-x="1062" 
d="M988 664q0 -329 -122 -507.5t-344 -178.5q-204 0 -326 178t-122 490q0 315 128 495.5t340 180.5q211 0 328.5 -173t117.5 -485zM260 656q0 -251 72 -392.5t194 -141.5q132 0 202 137.5t70 396.5q0 247 -67 384.5t-201 137.5q-122 0 -196 -140.5t-74 -381.5z" />
    <glyph glyph-name="one" unicode="1" horiz-adv-x="1062" 
d="M484 0v1128h-4l-228 -120l-36 140l290 152h158v-1300h-180z" />
    <glyph glyph-name="two" unicode="2" horiz-adv-x="1062" 
d="M950 0h-858v114q451 409 545.5 545t94.5 257q0 119 -67 185.5t-195 66.5q-144 0 -286 -114l-60 130q165 138 384 138q192 0 301 -109t109 -273q0 -146 -93.5 -301t-466.5 -485h592v-154z" />
    <glyph glyph-name="three" unicode="3" horiz-adv-x="1062" 
d="M88 70l48 142q145 -84 302 -84q144 0 221 71t77 175q0 119 -95 186.5t-243 67.5h-108v140h108q118 0 205 57.5t87 154.5q0 87 -60.5 139.5t-171.5 52.5q-139 0 -272 -88l-50 134q153 104 358 104q181 0 283.5 -88t102.5 -224q0 -216 -246 -310q135 -26 215.5 -117.5
t80.5 -214.5q0 -169 -132.5 -279.5t-357.5 -110.5q-209 0 -352 92z" />
    <glyph glyph-name="four" unicode="4" horiz-adv-x="1062" 
d="M830 0h-178v352h-620v122l590 826h208v-804h184v-144h-184v-352zM652 496v432v202q-76 -145 -103 -182l-329 -448z" />
    <glyph glyph-name="five" unicode="5" horiz-adv-x="1062" 
d="M894 1300v-156h-512l-48 -318q60 8 112 8q217 0 348.5 -110.5t131.5 -301.5q0 -190 -141 -317t-357 -127q-199 0 -340 82l46 142q136 -74 292 -74q131 0 220.5 77.5t89.5 198.5q0 137 -97.5 211.5t-284.5 74.5q-100 0 -190 -14l86 624h644z" />
    <glyph glyph-name="six" unicode="6" horiz-adv-x="1062" 
d="M858 1320l2 -152q-265 0 -418 -127t-176 -331q118 150 322 150q180 0 293 -117t113 -305q0 -191 -126 -325.5t-324 -134.5q-215 0 -345.5 151.5t-130.5 404.5q0 262 119.5 453t304.5 262t366 71zM254 484q0 -158 77 -261t215 -103q115 0 186.5 85.5t71.5 220.5t-74 214.5
t-198 79.5q-104 0 -191 -72.5t-87 -163.5z" />
    <glyph glyph-name="seven" unicode="7" horiz-adv-x="1062" 
d="M118 1300h848v-124l-580 -1176h-194l578 1146h-652v154z" />
    <glyph glyph-name="eight" unicode="8" horiz-adv-x="1062" 
d="M126 972q0 151 118.5 250.5t297.5 99.5q181 0 287.5 -93t106.5 -229q0 -203 -216 -308q129 -48 197.5 -134t68.5 -198q0 -167 -130 -274.5t-328 -107.5q-202 0 -327 101.5t-125 252.5q0 235 260 344q-210 101 -210 296zM560 750q200 64 200 230q0 85 -55.5 146.5
t-166.5 61.5q-105 0 -167.5 -58t-62.5 -146q0 -172 252 -234zM270 349q0 -98 73 -166.5t189 -68.5q119 0 192.5 63.5t73.5 162.5q0 46 -13 84.5t-40 69.5t-67 55.5t-99.5 45.5t-77 21t-67 -25t-78.5 -50t-48 -55.5t-28.5 -64.5t-9.5 -72z" />
    <glyph glyph-name="nine" unicode="9" horiz-adv-x="1062" 
d="M198 -20v152q19 -2 41 -2q231 0 377 123t178 345q-116 -140 -316 -140q-175 0 -285.5 114t-110.5 286q0 190 130 327t332 137q204 0 325 -149.5t121 -402.5q0 -349 -190.5 -569.5t-601.5 -220.5zM800 796q0 179 -71 281.5t-201 102.5q-113 0 -186.5 -88.5t-73.5 -223.5
q0 -119 70.5 -194.5t185.5 -75.5q110 0 193 61.5t83 136.5z" />
    <glyph glyph-name="colon" unicode=":" horiz-adv-x="424" 
d="M354 806q0 -55 -35 -92.5t-89 -37.5t-89 37.5t-35 92.5q0 57 35 94.5t89 37.5q55 0 89.5 -36.5t34.5 -95.5zM352 108q0 -55 -35 -92.5t-89 -37.5t-89 37.5t-35 92.5q0 57 35 94.5t89 37.5q55 0 89.5 -36.5t34.5 -95.5z" />
    <glyph glyph-name="semicolon" unicode=";" horiz-adv-x="424" 
d="M368 806q0 -55 -35 -92.5t-89 -37.5t-89 37.5t-35 92.5q0 57 35 94.5t89 37.5q55 0 89.5 -36.5t34.5 -95.5zM162 -232l-130 -14q81 226 122 486l204 20q-89 -309 -196 -492z" />
    <glyph glyph-name="less" unicode="&#x3c;" horiz-adv-x="1192" 
d="M1060 0l-930 474v116l930 474v-144l-778 -390l778 -386v-144z" />
    <glyph glyph-name="equal" unicode="=" horiz-adv-x="1192" 
d="M80 674v126h1032v-126h-1032zM80 276v126h1032v-126h-1032z" />
    <glyph glyph-name="greater" unicode="&#x3e;" horiz-adv-x="1192" 
d="M130 0v144l784 390l-784 386v144l932 -472v-120z" />
    <glyph glyph-name="question" unicode="?" horiz-adv-x="840" 
d="M456 388h-166q-5 69 -5 84q0 163 129 310q85 100 113.5 157t28.5 109q0 80 -50 125t-142 45q-123 0 -210 -64l-52 132q127 84 300 84q162 0 254 -84t92 -214q0 -70 -32 -143.5t-144 -198.5q-66 -76 -92 -141.5t-26 -148.5zM496 108q0 -56 -35.5 -93t-90.5 -37
q-54 0 -89 37.5t-35 92.5q0 57 35.5 93.5t90.5 36.5t89.5 -36.5t34.5 -93.5z" />
    <glyph glyph-name="at" unicode="@" horiz-adv-x="1514" 
d="M1042 148l32 -92q-153 -78 -362 -78q-263 0 -443.5 177.5t-180.5 454.5q0 319 209.5 539.5t534.5 220.5q265 0 433.5 -165.5t168.5 -422.5q0 -210 -106.5 -337t-255.5 -127q-67 0 -110.5 43t-49.5 133q-108 -176 -290 -176q-94 0 -158 71t-64 185q0 192 138 331t340 139
q126 0 224 -44q-68 -368 -73 -398t-5 -68q0 -114 79 -114q82 0 147.5 98.5t65.5 253.5q0 227 -135 364.5t-365 137.5q-258 0 -433 -182t-175 -470q0 -247 148.5 -396.5t377.5 -149.5q178 0 308 72zM920 702l40 214q-44 16 -102 16q-132 0 -226 -102.5t-94 -245.5
q0 -70 36 -112t100 -42q82 0 154.5 85.5t91.5 186.5z" />
    <glyph glyph-name="A" unicode="A" horiz-adv-x="1272" 
d="M878 420h-492l-142 -420h-194l472 1348h228l476 -1348h-200zM424 564h416q-181 508 -212 626q-44 -167 -204 -626z" />
    <glyph glyph-name="B" unicode="B" horiz-adv-x="1122" 
d="M154 4v1326q139 30 334 30q258 0 378 -93.5t120 -244.5q0 -97 -60.5 -177t-169.5 -123q128 -32 205 -121.5t77 -216.5q0 -171 -138.5 -283.5t-463.5 -112.5q-119 0 -282 16zM340 1206v-426h164q136 0 215 61.5t79 160.5q0 216 -296 216q-106 0 -162 -12zM340 642v-502
q47 -8 152 -8q165 0 257.5 65.5t92.5 190.5q0 122 -94.5 188t-257.5 66h-150z" />
    <glyph glyph-name="C" unicode="C" horiz-adv-x="1210" 
d="M1104 192l36 -146q-137 -68 -374 -68q-311 0 -501.5 184.5t-190.5 499.5q0 311 202 509.5t530 198.5q207 0 338 -62l-44 -150q-129 58 -286 58q-251 0 -397.5 -147.5t-146.5 -402.5q0 -242 141 -387t393 -145q177 0 300 58z" />
    <glyph glyph-name="D" unicode="D" horiz-adv-x="1388" 
d="M154 4v1326q188 30 392 30q395 0 581.5 -178.5t186.5 -473.5q0 -331 -205 -525.5t-619 -194.5q-189 0 -336 16zM340 1196v-1052q41 -8 184 -8q286 0 440 147t154 417q0 248 -145 381t-419 133q-127 0 -214 -18z" />
    <glyph glyph-name="E" unicode="E" horiz-adv-x="1020" 
d="M882 780v-154h-542v-472h606v-154h-792v1348h760v-154h-574v-414h542z" />
    <glyph glyph-name="F" unicode="F" horiz-adv-x="1012" 
d="M154 0v1348h758v-154h-572v-436h528v-154h-528v-604h-186z" />
    <glyph glyph-name="G" unicode="G" horiz-adv-x="1346" 
d="M1230 712v-648q-216 -78 -436 -78q-347 0 -533.5 190.5t-186.5 487.5q0 307 207.5 502.5t550.5 195.5q209 0 356 -64l-46 -150q-132 60 -316 60q-254 0 -405 -145t-151 -389q0 -245 145.5 -390.5t390.5 -145.5q167 0 242 38v388h-280v148h462z" />
    <glyph glyph-name="H" unicode="H" horiz-adv-x="1354" 
d="M154 1348h186v-560h674v560h186v-1348h-186v628h-674v-628h-186v1348z" />
    <glyph glyph-name="I" unicode="I" horiz-adv-x="494" 
d="M154 1348h186v-1348h-186v1348z" />
    <glyph glyph-name="J" unicode="J" horiz-adv-x="770" 
d="M444 474v874h186v-890q0 -480 -422 -480q-117 0 -200 34l28 150q68 -28 156 -28q139 0 195.5 82t56.5 258z" />
    <glyph glyph-name="K" unicode="K" horiz-adv-x="1126" 
d="M154 0v1348h192v-648q52 75 532 648h232l-504 -572l544 -776h-220l-456 658l-134 -150v-508h-186z" />
    <glyph glyph-name="L" unicode="L" horiz-adv-x="980" 
d="M154 0v1348h186v-1192h596v-156h-782z" />
    <glyph glyph-name="M" unicode="M" horiz-adv-x="1662" 
d="M1362 0l-39 733q-16 317 -21 441q-69 -226 -157 -465l-259 -699h-142q-250 719 -293.5 854.5t-90.5 309.5q-14 -377 -28 -608l-36 -566h-176l94 1348h242q252 -697 289 -812t85 -286q62 234 139 437l251 661h240l84 -1348h-182z" />
    <glyph glyph-name="N" unicode="N" horiz-adv-x="1366" 
d="M328 0h-174v1348h208l442 -674q151 -229 252 -436q-20 184 -20 548v562h174v-1348h-190l-438 676q-165 256 -266 452q12 -195 12 -550v-578z" />
    <glyph glyph-name="O" unicode="O" horiz-adv-x="1438" 
d="M1364 688q0 -324 -183.5 -517t-470.5 -193q-281 0 -458.5 190.5t-177.5 491.5q0 315 184 512.5t468 197.5t461 -190.5t177 -491.5zM268 666q0 -227 124.5 -382.5t321.5 -155.5q204 0 328 154.5t124 397.5q0 226 -122.5 383t-325.5 157q-206 0 -328 -156.5t-122 -397.5z
" />
    <glyph glyph-name="P" unicode="P" horiz-adv-x="1102" 
d="M154 0v1332q154 28 354 28q255 0 382.5 -109.5t127.5 -288.5q0 -211 -147 -324.5t-385 -113.5q-101 0 -146 14v-538h-186zM340 1200v-512q52 -16 150 -16q162 0 252 74.5t90 207.5q0 125 -84.5 192.5t-237.5 67.5q-97 0 -170 -14z" />
    <glyph glyph-name="Q" unicode="Q" horiz-adv-x="1438" 
d="M1372 -48l-54 -152q-273 69 -540 158q-53 18 -86 20q-269 10 -443.5 194.5t-174.5 485.5q0 319 183.5 515.5t472.5 196.5q282 0 458 -191t176 -491q0 -236 -104.5 -405.5t-293.5 -236.5v-8q223 -55 406 -86zM270 664q0 -228 124 -382t322 -154q204 0 328 154.5t124 397.5
q0 226 -122 383t-322 157q-208 0 -331 -157t-123 -399z" />
    <glyph glyph-name="R" unicode="R" horiz-adv-x="1114" 
d="M154 0v1330q158 30 352 30q268 0 390 -100t122 -270q0 -120 -68.5 -210.5t-189.5 -131.5q146 -57 198 -274q82 -331 108 -374h-192q-28 47 -90 320q-32 142 -95 201t-179 59h-170v-580h-186zM340 1202v-482h186q140 0 223 68t83 182q0 121 -80.5 184.5t-231.5 63.5
q-117 0 -180 -16z" />
    <glyph glyph-name="S" unicode="S" horiz-adv-x="1024" 
d="M86 68l48 154q151 -90 326 -90q132 0 209 61t77 163q0 94 -61 153.5t-201 106.5q-192 66 -281 159t-89 225q0 161 126 265.5t326 104.5q192 0 312 -68l-50 -150q-116 66 -268 66q-122 0 -190 -57.5t-68 -140.5q0 -84 58 -139t218 -113q192 -70 274 -163.5t82 -234.5
q0 -173 -129 -282.5t-359 -109.5q-96 0 -197 25t-163 65z" />
    <glyph glyph-name="T" unicode="T" horiz-adv-x="1034" 
d="M424 0v1192h-426v156h1040v-156h-428v-1192h-186z" />
    <glyph glyph-name="U" unicode="U" horiz-adv-x="1344" 
d="M154 1348h186v-786q0 -211 85.5 -322.5t240.5 -111.5q163 0 250.5 111t87.5 323v786h186v-774q0 -290 -139 -443t-393 -153q-244 0 -374 150t-130 440v780z" />
    <glyph glyph-name="V" unicode="V" horiz-adv-x="1158" 
d="M670 0h-208l-456 1348h202l254 -785q74 -230 114 -377q52 199 158 498l236 664h198z" />
    <glyph glyph-name="W" unicode="W" horiz-adv-x="1742" 
d="M576 0h-198l-350 1348h198q236 -981 262 -1142h4q28 156 112 466l182 676h198l164 -682q72 -304 96 -456h4q34 188 108 462l182 676h190l-394 -1348h-196l-170 700q-74 306 -90 438h-4q-23 -145 -104 -438z" />
    <glyph glyph-name="X" unicode="X" horiz-adv-x="1190" 
d="M1140 0h-218q-327 543 -340 560l-314 -560h-216l428 682l-412 666h218q286 -496 310 -542q5 19 316 542h218l-426 -658z" />
    <glyph glyph-name="Y" unicode="Y" horiz-adv-x="1126" 
d="M654 0h-186v570l-442 778h214q285 -544 332 -646q32 78 338 646h212l-468 -774v-574z" />
    <glyph glyph-name="Z" unicode="Z" horiz-adv-x="1156" 
d="M62 0v106l772 1088h-706v154h950v-110l-768 -1084h780v-154h-1028z" />
    <glyph glyph-name="bracketleft" unicode="[" horiz-adv-x="580" 
d="M540 -224h-376v1594h376v-114h-232v-1366h232v-114z" />
    <glyph glyph-name="backslash" unicode="\" horiz-adv-x="706" 
d="M708 -80h-144l-558 1450h144z" />
    <glyph glyph-name="bracketright" unicode="]" horiz-adv-x="580" 
d="M40 1370h376v-1594h-376v114h232v1366h-232v114z" />
    <glyph glyph-name="asciicircum" unicode="^" horiz-adv-x="1192" 
d="M1074 376h-146l-334 772l-332 -772h-144l412 924h132z" />
    <glyph glyph-name="underscore" unicode="_" horiz-adv-x="1000" 
d="M0 -150h1000v-100h-1000v100z" />
    <glyph glyph-name="grave" unicode="`" 
d="M38 1378h202l178 -290h-132z" />
    <glyph glyph-name="a" unicode="a" horiz-adv-x="998" 
d="M858 586v-354q0 -144 16 -232h-170l-22 124q-109 -146 -306 -146q-138 0 -221 81.5t-83 196.5q0 176 153 269t447 93v18q0 103 -56.5 160.5t-167.5 57.5q-148 0 -264 -74l-42 122q140 88 334 88q189 0 285.5 -104t96.5 -300zM676 330v160q-234 0 -325 -56t-91 -154
q0 -77 45.5 -120.5t120.5 -43.5q106 0 178 65.5t72 148.5z" />
    <glyph glyph-name="b" unicode="b" horiz-adv-x="1182" 
d="M150 254v1170h190v-614q106 180 342 180q186 0 305 -137.5t119 -354.5q0 -237 -131.5 -378.5t-320.5 -141.5q-227 0 -342 182l-8 -160h-162q8 92 8 254zM336 554v-158q0 -108 80.5 -189t199.5 -81q139 0 220.5 98.5t81.5 265.5q0 155 -81 254.5t-217 99.5
q-120 0 -202 -87.5t-82 -202.5z" />
    <glyph glyph-name="c" unicode="c" horiz-adv-x="930" 
d="M836 176l30 -140q-123 -58 -290 -58q-224 0 -362 137t-138 357q0 229 148.5 373.5t389.5 144.5q146 0 256 -54l-40 -142q-92 48 -214 48q-159 0 -254.5 -100.5t-95.5 -257.5q0 -163 97 -259.5t247 -96.5q116 0 226 48z" />
    <glyph glyph-name="d" unicode="d" horiz-adv-x="1170" 
d="M834 1424h186v-1170q0 -162 8 -254h-166l-14 172q-48 -92 -138 -143t-204 -51q-184 0 -307 138.5t-123 351.5q0 231 129.5 376.5t320.5 145.5q102 0 182.5 -40t125.5 -108v582zM834 416v154q0 123 -79.5 198.5t-190.5 75.5q-135 0 -217.5 -101t-82.5 -263q0 -152 78 -252
t218 -100q107 0 190.5 78.5t83.5 209.5z" />
    <glyph glyph-name="e" unicode="e" horiz-adv-x="1038" 
d="M958 446h-702q4 -157 97 -240.5t241 -83.5q161 0 282 50l32 -130q-143 -64 -338 -64q-226 0 -360 134t-134 356t128.5 372t345.5 150q200 0 307 -133.5t107 -326.5q0 -55 -6 -84zM258 580h526q0 125 -64.5 201.5t-183.5 76.5q-113 0 -187 -76.5t-91 -201.5z" />
    <glyph glyph-name="f" unicode="f" horiz-adv-x="606" 
d="M352 0h-186v826h-136v142h136v44q0 207 94.5 320.5t263.5 113.5q85 0 154 -28l-22 -144q-50 22 -116 22q-190 0 -190 -278v-50h238v-142h-236v-826z" />
    <glyph glyph-name="g" unicode="g" horiz-adv-x="1160" 
d="M1010 706v-562q0 -316 -137 -440t-373 -124q-210 0 -338 84l46 142q129 -80 296 -80q155 0 238.5 86t83.5 252l-4 106q-105 -166 -320 -166q-183 0 -304.5 135.5t-121.5 336.5q0 233 133.5 373.5t318.5 140.5q220 0 318 -168l8 146h164q-8 -87 -8 -262zM824 422v158
q0 108 -73 187t-191 79q-130 0 -213 -99t-83 -261q0 -149 79.5 -244.5t214.5 -95.5q107 0 186.5 77t79.5 199z" />
    <glyph glyph-name="h" unicode="h" horiz-adv-x="1148" 
d="M150 0v1424h186v-610h4q49 82 136.5 129t179.5 47q150 0 250 -107.5t100 -314.5v-568h-186v548q0 137 -59 212.5t-171 75.5q-95 0 -174.5 -71.5t-79.5 -184.5v-580h-186z" />
    <glyph glyph-name="i" unicode="i" horiz-adv-x="484" 
d="M336 0h-186v968h186v-968zM362 1262q0 -50 -33 -84t-87 -34q-52 0 -85 34t-33 84q0 49 33.5 82.5t86.5 33.5q51 0 84.5 -33.5t33.5 -82.5z" />
    <glyph glyph-name="j" unicode="j" horiz-adv-x="506" 
d="M-74 -424l-20 146q114 5 171.5 50t77 124.5t19.5 265.5v806h186v-876q0 -303 -123.5 -409.5t-310.5 -106.5zM386 1262q0 -51 -33 -84.5t-87 -33.5q-52 0 -85 34t-33 84q0 49 34 82.5t86 33.5t85 -33t33 -83z" />
    <glyph glyph-name="k" unicode="k" horiz-adv-x="974" 
d="M336 1424l4 -896q37 52 91 113l287 327h226l-386 -396l442 -572h-230l-340 462l-94 -102v-360h-186v1424h186z" />
    <glyph glyph-name="l" unicode="l" horiz-adv-x="484" 
d="M150 0v1424h186v-1424h-186z" />
    <glyph glyph-name="m" unicode="m" horiz-adv-x="1722" 
d="M150 0v702q0 161 -8 266h162l14 -158q108 180 316 180q96 0 170.5 -52t113.5 -144q119 196 332 196q144 0 237 -109t93 -319v-562h-182v540q0 144 -55.5 221t-158.5 77q-89 0 -158.5 -68.5t-69.5 -175.5v-594h-182v572q0 123 -55 194.5t-151 71.5q-93 0 -164.5 -78
t-71.5 -182v-578h-182z" />
    <glyph glyph-name="n" unicode="n" horiz-adv-x="1148" 
d="M150 0v702q0 161 -8 266h164l16 -164q46 84 135 135t195 51q152 0 253 -107.5t101 -314.5v-568h-186v548q0 137 -59 212.5t-171 75.5q-100 0 -177 -75t-77 -183v-578h-186z" />
    <glyph glyph-name="o" unicode="o" horiz-adv-x="1140" 
d="M1064 494q0 -156 -65 -273t-182 -180t-253 -63q-212 0 -350 138.5t-138 359.5q0 235 142.5 374.5t359.5 139.5q216 0 351 -138.5t135 -357.5zM266 482q0 -159 85 -262.5t213 -103.5q131 0 218.5 104t87.5 268q0 151 -80.5 257.5t-219.5 106.5q-141 0 -222.5 -105.5
t-81.5 -264.5z" />
    <glyph glyph-name="p" unicode="p" horiz-adv-x="1182" 
d="M150 -396v1046q0 195 -8 318h166l10 -168h4q121 190 360 190q182 0 303 -137.5t121 -352.5q0 -239 -130.5 -380.5t-325.5 -141.5q-99 0 -181.5 40t-128.5 114h-4v-528h-186zM336 556v-156q0 -117 81.5 -196.5t196.5 -79.5q140 0 222 99.5t82 268.5q0 152 -81 251t-215 99
q-86 0 -158 -49.5t-100 -121t-28 -115.5z" />
    <glyph glyph-name="q" unicode="q" horiz-adv-x="1168" 
d="M834 -396v550q-105 -176 -334 -176q-180 0 -302 138t-122 352q0 159 60 277t166 181.5t226 63.5q218 0 314 -170l6 148h180q-8 -108 -8 -264v-1100h-186zM834 400v172q0 119 -79 195.5t-191 76.5q-136 0 -218 -100t-82 -264q0 -157 79 -255.5t215 -98.5q122 0 199 86.5
t77 187.5z" />
    <glyph glyph-name="r" unicode="r" horiz-adv-x="680" 
d="M150 0v660q0 188 -8 308h164l12 -194q37 102 113 159t165 57q19 0 50 -4v-176q-27 6 -64 6q-101 0 -173.5 -79t-72.5 -225v-512h-186z" />
    <glyph glyph-name="s" unicode="s" horiz-adv-x="822" 
d="M82 46l44 142q118 -72 244 -72q90 0 139 38t49 102q0 61 -40.5 99.5t-141.5 72.5q-266 91 -266 274q0 122 94.5 205t251.5 83q146 0 248 -60l-46 -134q-101 58 -208 58q-74 0 -117 -36.5t-43 -93.5q0 -51 36.5 -86t151.5 -76q140 -50 201 -118.5t61 -171.5
q0 -132 -100.5 -213t-273.5 -81q-159 0 -284 68z" />
    <glyph glyph-name="t" unicode="t" horiz-adv-x="684" 
d="M188 1148l182 54v-234h258v-142h-258v-504q0 -101 32.5 -145.5t103.5 -44.5q65 0 106 12l8 -140q-69 -26 -166 -26q-266 0 -266 332v516h-152v142h152v180z" />
    <glyph glyph-name="u" unicode="u" horiz-adv-x="1142" 
d="M992 968v-700q0 -165 8 -268h-164l-16 164q-112 -186 -332 -186q-159 0 -251.5 109t-92.5 321v560h186v-528q0 -308 222 -308q102 0 178 73t76 177v586h186z" />
    <glyph glyph-name="v" unicode="v" horiz-adv-x="1000" 
d="M26 968h202l206 -570q35 -96 74 -216q27 91 83 247l193 539h198l-394 -968h-182z" />
    <glyph glyph-name="w" unicode="w" horiz-adv-x="1514" 
d="M36 968h190q190 -704 204 -796h4q11 78 248 796h158q215 -673 240 -796h4q28 150 70 294l146 502h184l-320 -968h-172q-165 508 -186 577.5t-48 196.5h-4q-33 -151 -87 -308l-161 -466h-172z" />
    <glyph glyph-name="x" unicode="x" horiz-adv-x="964" 
d="M30 968h210q235 -342 246 -360q48 83 238 360h204l-340 -466l350 -502h-212q-197 286 -258 382q-22 -46 -246 -382h-208l356 496z" />
    <glyph glyph-name="y" unicode="y" horiz-adv-x="978" 
d="M18 968h204l220 -577q28 -72 66 -185q39 135 60 195l198 567h200l-274 -692q-131 -330 -212.5 -456t-177 -186.5t-178.5 -75.5l-44 156q151 47 235.5 162t84.5 154q0 17 -12 46z" />
    <glyph glyph-name="z" unicode="z" horiz-adv-x="888" 
d="M38 0v108l444 554q62 73 134 158h-540v148h770l-2 -114l-438 -548q-88 -108 -132 -158h580v-148h-816z" />
    <glyph glyph-name="braceleft" unicode="{" horiz-adv-x="580" 
d="M56 524v106q80 0 122 33t42 115q0 61 -16 164.5t-16 163.5q0 133 79.5 198.5t216.5 65.5h46v-116h-36q-83 0 -122.5 -41t-39.5 -131q0 -54 15 -144t15 -144q0 -176 -148 -218q148 -36 148 -218q0 -56 -16 -152q-14 -84 -14 -140q0 -176 162 -176h36v-114h-46
q-296 0 -296 276q0 54 16 162t16 160q0 150 -164 150z" />
    <glyph glyph-name="bar" unicode="|" horiz-adv-x="492" 
d="M176 1500h140v-2000h-140v2000z" />
    <glyph glyph-name="braceright" unicode="}" horiz-adv-x="580" 
d="M522 630l2 -106q-164 0 -164 -150q0 -52 16 -160t16 -162q0 -276 -296 -276h-46v114h36q162 0 162 176q0 56 -14 140q-16 96 -16 152q0 182 148 222q-148 38 -148 214q0 54 16 150q14 84 14 138q0 90 -39.5 131t-122.5 41h-36v116h46q142 0 219 -68t77 -196
q0 -52 -16 -164q-16 -108 -16 -164q0 -82 41.5 -115t120.5 -33z" />
    <glyph glyph-name="asciitilde" unicode="~" horiz-adv-x="1192" 
d="M216 416h-126q0 162 69.5 236t174.5 74q61 0 117.5 -19t168.5 -73q179 -84 248 -84q105 0 108 170h126q0 -121 -28.5 -185.5t-83.5 -95.5t-124 -31q-59 0 -122.5 19.5t-169.5 70.5q-188 88 -238 88q-114 0 -120 -170z" />
    <glyph glyph-name="uni00A0" unicode="&#xa0;" horiz-adv-x="436" 
 />
    <glyph glyph-name="exclamdown" unicode="&#xa1;" horiz-adv-x="472" 
d="M112 846q0 56 35 93t89 37t89 -37t35 -93q0 -57 -34.5 -93.5t-89.5 -36.5q-54 0 -89 37t-35 93zM338 -388h-202l30 948h142z" />
    <glyph glyph-name="cent" unicode="&#xa2;" horiz-adv-x="1062" 
d="M684 -30h-132v204q-197 20 -306.5 149.5t-109.5 328.5q0 192 111 329t305 169v202h132v-198q122 -3 226 -52l-42 -140q-88 50 -216 50q-146 0 -238 -99t-92 -251q0 -157 91 -251.5t231 -94.5q125 0 236 50l32 -134q-98 -52 -228 -60v-202z" />
    <glyph glyph-name="sterling" unicode="&#xa3;" horiz-adv-x="1062" 
d="M976 0h-860v104q110 57 171 149t61 197q0 70 -10 134h-208v134h190q-22 128 -22 210q0 176 110.5 285t285.5 109q140 0 226 -50l-40 -142q-73 42 -184 42q-110 0 -167 -65t-57 -185q0 -94 22 -204h296v-134h-278q3 -59 3 -93q0 -206 -149 -337h610v-154z" />
    <glyph glyph-name="currency" unicode="&#xa4;" horiz-adv-x="1062" 
d="M296 990q93 82 234 82q144 0 236 -80l144 152l94 -96l-160 -142q72 -97 72 -236q0 -152 -72 -246l150 -148l-92 -94l-138 156q-96 -84 -238 -84q-145 0 -234 78l-134 -150l-92 94l146 140q-76 103 -76 242q0 145 80 248l-154 142l94 96zM770 668q0 113 -67 192.5
t-175 79.5q-107 0 -174.5 -79.5t-67.5 -198.5q0 -128 72.5 -202t167.5 -74q104 0 174 74t70 208z" />
    <glyph glyph-name="yen" unicode="&#xa5;" horiz-adv-x="1062" 
d="M606 0h-176v346h-316v102h316v144h-316v102h264l-346 606h200l298 -592l302 592h198l-368 -606h262v-102h-318v-144h318v-102h-318v-346z" />
    <glyph glyph-name="brokenbar" unicode="&#xa6;" horiz-adv-x="492" 
d="M176 1348h140v-700h-140v700zM176 348h140v-700h-140v700z" />
    <glyph glyph-name="section" unicode="&#xa7;" horiz-adv-x="1072" 
d="M864 1298l-44 -120q-112 64 -250 64q-93 0 -151.5 -40.5t-58.5 -105.5q0 -54 45.5 -94.5t208.5 -91.5q196 -63 266 -137.5t70 -180.5q0 -146 -132 -242q80 -71 80 -180q0 -148 -117 -225t-275 -77q-204 0 -326 86l50 120q119 -82 274 -82q101 0 162.5 43.5t61.5 116.5
q0 72 -56 116t-190 88q-215 71 -287.5 143.5t-72.5 174.5q0 140 148 234q-74 65 -74 170q0 128 106.5 207t273.5 79q161 0 288 -66zM364 852q-90 -62 -90 -152q0 -116 214 -190q192 -69 234 -94q74 60 74 150q0 122 -180 186q-205 70 -252 100z" />
    <glyph glyph-name="dieresis" unicode="&#xa8;" 
d="M212 1216q0 -43 -28.5 -73.5t-71.5 -30.5q-44 0 -73 30.5t-29 73.5q0 44 29.5 74t74.5 30q41 0 69.5 -30t28.5 -74zM588 1216q0 -43 -28.5 -73.5t-71.5 -30.5q-45 0 -73.5 30t-28.5 74t29.5 74t72.5 30t71.5 -30t28.5 -74z" />
    <glyph glyph-name="copyright" unicode="&#xa9;" horiz-adv-x="1354" 
d="M72 680q0 255 177.5 435.5t430.5 180.5q251 0 426.5 -180.5t175.5 -435.5q0 -258 -175.5 -439t-426.5 -181q-253 0 -430.5 181t-177.5 439zM1182 680q0 223 -145 376.5t-355 153.5q-214 0 -360 -154.5t-146 -381.5q0 -223 146.5 -375.5t359.5 -152.5q210 0 355 154
t145 380zM948 986l-24 -82q-84 48 -196 48q-130 0 -203 -75t-73 -203q0 -122 73.5 -201t204.5 -79q123 0 204 54l24 -78q-94 -64 -246 -64q-166 0 -266 101t-100 261q0 165 113 268.5t269 103.5q149 0 220 -54z" />
    <glyph glyph-name="ordfeminine" unicode="&#xaa;" horiz-adv-x="714" 
d="M628 534h-126l-12 84h-4q-84 -94 -208 -94q-96 0 -153 53.5t-57 136.5q0 101 96.5 164.5t313.5 63.5v20q0 45 -37 81.5t-113 36.5q-103 0 -176 -54l-34 90q102 66 238 66q260 0 260 -284v-208q0 -87 12 -156zM482 750v102q-162 0 -218 -36t-56 -94q0 -45 33.5 -72.5
t82.5 -27.5q73 0 115.5 48.5t42.5 79.5z" />
    <glyph glyph-name="guillemotleft" unicode="&#xab;" horiz-adv-x="860" 
d="M476 876l-272 -370l272 -372h-148l-270 372l268 370h150zM812 876l-270 -370l272 -372h-150l-268 372l268 370h148z" />
    <glyph glyph-name="logicalnot" unicode="&#xac;" horiz-adv-x="1192" 
d="M80 802h1032v-562h-134v436h-898v126z" />
    <glyph glyph-name="uni00AD" unicode="&#xad;" horiz-adv-x="622" 
d="M60 610h502v-136h-502v136z" />
    <glyph glyph-name="registered" unicode="&#xae;" horiz-adv-x="1020" 
d="M66 918q0 186 131 317t315 131q185 0 314.5 -130.5t129.5 -317.5q0 -189 -129.5 -320.5t-314.5 -131.5t-315.5 131.5t-130.5 320.5zM872 916q0 158 -105 269t-255 111q-147 0 -252.5 -111t-105.5 -267q0 -159 105 -270.5t255 -111.5q148 0 253 111.5t105 268.5zM428 872
v-216h-82v502q80 12 142 12q204 0 204 -144q0 -89 -98 -124q69 -13 84 -122q15 -98 32 -124h-86q-14 16 -34 130q-14 86 -108 86h-54zM428 1102v-168h56q122 0 122 84q0 88 -120 88q-31 0 -58 -4z" />
    <glyph glyph-name="macron" unicode="&#xaf;" 
d="M72 1284h460v-112h-460v112z" />
    <glyph glyph-name="degree" unicode="&#xb0;" horiz-adv-x="650" 
d="M58 1098q0 115 79 193.5t193 78.5q119 0 193.5 -76t74.5 -186q0 -118 -81.5 -194t-190.5 -76q-116 0 -192 76t-76 184zM486 1104q0 70 -41.5 119t-116.5 49q-70 0 -112 -50.5t-42 -121.5q0 -69 44 -116.5t110 -47.5q68 0 113 48t45 120z" />
    <glyph glyph-name="plusminus" unicode="&#xb1;" horiz-adv-x="1192" 
d="M530 1146h134v-386h448v-126h-448v-398h-134v398h-448v126h448v386zM82 126h1030v-126h-1030v126z" />
    <glyph glyph-name="two.superior" unicode="&#xb2;" horiz-adv-x="722" 
d="M90 534v80q280 247 332 319t52 135q0 61 -40 98.5t-112 37.5q-85 0 -174 -62l-44 94q104 86 254 86q128 0 201 -65.5t73 -160.5q0 -79 -48.5 -164t-283.5 -282h346v-116h-556z" />
    <glyph glyph-name="three.superior" unicode="&#xb3;" horiz-adv-x="700" 
d="M148 1160l-40 98q104 64 240 64q121 0 187.5 -53t66.5 -137q0 -58 -41 -106t-115 -78q88 -12 139 -65.5t51 -126.5q0 -98 -88.5 -165t-235.5 -67q-148 0 -240 58l38 104q91 -54 194 -54q82 0 129 39t47 91q0 68 -63.5 102t-152.5 34h-58v96h58q75 0 129.5 32.5t54.5 89.5
q0 43 -33.5 70.5t-94.5 27.5q-93 0 -172 -54z" />
    <glyph glyph-name="acute" unicode="&#xb4;" 
d="M376 1378h202l-248 -290h-132z" />
    <glyph glyph-name="mu" unicode="&#xb5;" horiz-adv-x="1142" 
d="M992 968v-700q0 -165 8 -268h-164l-16 166q-109 -186 -302 -186q-142 0 -208 112l6 -488h-172v1364h186v-542q0 -141 57.5 -216.5t168.5 -75.5q98 0 174 72t76 156v606h186z" />
    <glyph glyph-name="paragraph" unicode="&#xb6;" horiz-adv-x="1054" 
d="M600 -98h-132v624h-14q-145 0 -265.5 106t-120.5 276q0 140 63.5 241t189.5 153t313 52q169 0 244 -18v-1434h-132v1324h-146v-1324z" />
    <glyph glyph-name="periodcentered" unicode="&#xb7;" horiz-adv-x="424" 
d="M336 546q0 -56 -35.5 -93t-90.5 -37q-54 0 -89 37.5t-35 92.5q0 57 35.5 94.5t90.5 37.5t89.5 -36.5t34.5 -95.5z" />
    <glyph glyph-name="cedilla" unicode="&#xb8;" 
d="M268 4h112l-64 -104q62 -8 101 -46t39 -90q0 -80 -56.5 -122t-157.5 -42q-80 0 -138 36l30 86q54 -28 110 -28q86 0 86 62q0 69 -158 82z" />
    <glyph glyph-name="one.superior" unicode="&#xb9;" horiz-adv-x="654" 
d="M444 534h-148l-4 650l-144 -68l-24 108l190 88h130v-778z" />
    <glyph glyph-name="ordmasculine" unicode="&#xba;" horiz-adv-x="728" 
d="M34 846q0 150 97 243t235 93q147 0 237.5 -91t90.5 -233q0 -160 -99 -247t-233 -87q-141 0 -234.5 91t-93.5 231zM554 854q0 90 -51 157t-137 67t-137 -67t-51 -161q0 -96 56 -159t132 -63q82 0 135 62t53 164z" />
    <glyph glyph-name="guillemotright" unicode="&#xbb;" horiz-adv-x="860" 
d="M320 506l-274 370h148l270 -370l-270 -372h-146zM654 506l-272 370h146l272 -370l-270 -372h-148z" />
    <glyph glyph-name="onequarter" unicode="&#xbc;" horiz-adv-x="1562" 
d="M406 -22h-116l764 1344h120zM408 534h-148l-4 650l-144 -68l-24 108l190 88h130v-778zM1368 0h-140v202h-414v82l396 506h158v-486h122v-102h-122v-202zM1228 304v236l2 124q-50 -84 -68 -107l-196 -253h262z" />
    <glyph glyph-name="onehalf" unicode="&#xbd;" horiz-adv-x="1562" 
d="M368 -22h-116l764 1344h118zM380 534h-148l-4 650l-144 -68l-24 108l190 88h130v-778zM906 0v80q281 252 332.5 323t51.5 133q0 61 -40 98.5t-112 37.5q-87 0 -172 -62l-44 94q104 86 252 86q128 0 201 -65.5t73 -160.5q0 -69 -41.5 -147.5t-288.5 -300.5h344v-116h-556z
" />
    <glyph glyph-name="threequarters" unicode="&#xbe;" horiz-adv-x="1562" 
d="M136 1160l-40 98q104 64 240 64q121 0 187.5 -53t66.5 -137q0 -58 -41 -106t-115 -74v-4q88 -12 139 -65.5t51 -126.5q0 -97 -86.5 -164.5t-237.5 -67.5q-148 0 -240 58l38 102q88 -52 194 -52q82 0 129 39t47 91q0 64 -60.5 100t-155.5 36h-58v96h58q75 0 129.5 32.5
t54.5 89.5q0 41 -31.5 69.5t-96.5 28.5q-87 0 -172 -54zM484 -22h-118l766 1344h118zM1390 0h-140v202h-412v82l394 506h158v-486h122v-102h-122v-202zM1250 304v236q0 17 2 124l-39 -65q-19 -30 -73 -100l-150 -195h260z" />
    <glyph glyph-name="questiondown" unicode="&#xbf;" horiz-adv-x="840" 
d="M364 846q0 57 35.5 93.5t90.5 36.5t89.5 -36.5t34.5 -93.5t-35 -93.5t-91 -36.5q-54 0 -89 37t-35 93zM408 566h166q5 -69 5 -83q0 -161 -129 -311q-79 -92 -109.5 -152t-30.5 -116q0 -80 49.5 -125t140.5 -45q121 0 212 66l50 -134q-127 -84 -300 -84q-160 0 -252 84
t-92 214q0 65 30 137t146 207q46 52 81 117t35 173z" />
    <glyph glyph-name="Agrave" unicode="&#xc0;" horiz-adv-x="1272" 
d="M878 420h-492l-142 -420h-194l472 1348h228l476 -1348h-200zM424 564h416q-181 508 -212 626q-44 -167 -204 -626zM331 1688h224l184 -236h-150z" />
    <glyph glyph-name="Aacute" unicode="&#xc1;" horiz-adv-x="1272" 
d="M878 420h-492l-142 -420h-194l472 1348h228l476 -1348h-200zM424 564h416q-181 508 -212 626q-44 -167 -204 -626zM682 1688h222l-256 -238h-152z" />
    <glyph glyph-name="Acircumflex" unicode="&#xc2;" horiz-adv-x="1272" 
d="M878 420h-492l-142 -420h-194l472 1348h228l476 -1348h-200zM424 564h416q-181 508 -212 626q-44 -167 -204 -626zM578 1688h136l212 -238h-152l-130 146l-128 -146h-146z" />
    <glyph glyph-name="Atilde" unicode="&#xc3;" horiz-adv-x="1272" 
d="M878 420h-492l-142 -420h-194l472 1348h228l476 -1348h-200zM424 564h416q-181 508 -212 626q-44 -167 -204 -626zM477 1460h-96q0 105 39 153.5t97 48.5q50 0 126 -40q68 -36 98 -36q27 0 40.5 17t17.5 67h94q0 -198 -138 -198q-47 0 -126 38q-80 38 -100 38
q-42 0 -52 -88z" />
    <glyph glyph-name="Adieresis" unicode="&#xc4;" horiz-adv-x="1272" 
d="M878 420h-492l-142 -420h-194l472 1348h228l476 -1348h-200zM424 564h416q-181 508 -212 626q-44 -167 -204 -626zM557 1574q0 -43 -28.5 -73.5t-71.5 -30.5q-44 0 -74 30.5t-30 73.5t30 73.5t74 30.5q42 0 71 -30.5t29 -73.5zM933 1574q0 -43 -28.5 -73.5t-71.5 -30.5
q-45 0 -74.5 30.5t-29.5 73.5t29.5 73.5t72.5 30.5t72.5 -30t29.5 -74z" />
    <glyph glyph-name="Aring" unicode="&#xc5;" horiz-adv-x="1272" 
d="M876 420h-490l-142 -420h-194l466 1328q-96 40 -96 146q0 81 60 136.5t162 55.5t161 -52.5t59 -139.5q0 -110 -106 -150l468 -1324h-200zM750 1480q0 49 -30 79.5t-80 30.5t-79 -31.5t-29 -82.5q0 -44 30 -75t78 -31q50 0 80 30.5t30 79.5zM424 564h418l-151 423l-63 201
q-25 -113 -58 -208z" />
    <glyph glyph-name="AE" unicode="&#xc6;" horiz-adv-x="1640" 
d="M188 0h-192l638 1348h882v-154h-594l54 -416h520v-154h-496l62 -470h510v-154h-670l-62 472h-430zM474 622h344q-68 543 -80 592q-36 -91 -86 -200z" />
    <glyph glyph-name="Ccedilla" unicode="&#xc7;" horiz-adv-x="1210" 
d="M1104 192l38 -148q-141 -66 -380 -66l-50 -76q63 -11 101.5 -50.5t38.5 -93.5q0 -76 -57 -117t-155 -41q-77 0 -140 34l30 88q50 -28 110 -28q84 0 84 62q0 69 -156 82l84 148q-273 36 -425.5 216t-152.5 460q0 311 202 509.5t530 198.5q207 0 338 -62l-46 -150
q-126 58 -284 58q-251 0 -397.5 -147.5t-146.5 -402.5q0 -242 141 -387t393 -145q173 0 300 58z" />
    <glyph glyph-name="Egrave" unicode="&#xc8;" horiz-adv-x="1020" 
d="M882 780v-154h-542v-472h606v-154h-792v1348h760v-154h-574v-414h542zM260 1688h224l184 -236h-150z" />
    <glyph glyph-name="Eacute" unicode="&#xc9;" horiz-adv-x="1020" 
d="M882 780v-154h-542v-472h606v-154h-792v1348h760v-154h-574v-414h542zM623 1688h222l-256 -238h-152z" />
    <glyph glyph-name="Ecircumflex" unicode="&#xca;" horiz-adv-x="1020" 
d="M882 780v-154h-542v-472h606v-154h-792v1348h760v-154h-574v-414h542zM466 1688h136l212 -238h-152l-130 146l-128 -146h-146z" />
    <glyph glyph-name="Edieresis" unicode="&#xcb;" horiz-adv-x="1020" 
d="M882 780v-154h-542v-472h606v-154h-792v1348h760v-154h-574v-414h542zM453 1574q0 -43 -28.5 -73.5t-71.5 -30.5q-44 0 -74 30.5t-30 73.5t30 73.5t74 30.5q42 0 71 -30.5t29 -73.5zM829 1574q0 -43 -28.5 -73.5t-71.5 -30.5q-45 0 -74.5 30.5t-29.5 73.5t29.5 73.5
t72.5 30.5t72.5 -30t29.5 -74z" />
    <glyph glyph-name="Igrave" unicode="&#xcc;" horiz-adv-x="494" 
d="M154 1348h186v-1348h-186v1348zM-49 1688h224l184 -236h-150z" />
    <glyph glyph-name="Iacute" unicode="&#xcd;" horiz-adv-x="494" 
d="M154 1348h186v-1348h-186v1348zM332 1688h222l-256 -238h-152z" />
    <glyph glyph-name="Icircumflex" unicode="&#xce;" horiz-adv-x="494" 
d="M154 1348h186v-1348h-186v1348zM179 1688h136l212 -238h-152l-130 146l-128 -146h-146z" />
    <glyph glyph-name="Idieresis" unicode="&#xcf;" horiz-adv-x="494" 
d="M155 1348h186v-1348h-186v1348zM163 1574q0 -43 -28.5 -73.5t-71.5 -30.5q-44 0 -74 30.5t-30 73.5t30 73.5t74 30.5q42 0 71 -30.5t29 -73.5zM539 1574q0 -43 -28.5 -73.5t-71.5 -30.5q-45 0 -74.5 30.5t-29.5 73.5t29.5 73.5t72.5 30.5t72.5 -30t29.5 -74z" />
    <glyph glyph-name="Eth" unicode="&#xd0;" horiz-adv-x="1398" 
d="M-2 608v150h166v576q188 30 392 30q394 0 580 -179t186 -477q0 -333 -204.5 -528.5t-619.5 -195.5q-187 0 -334 16v608h-166zM722 758v-150h-372v-468q40 -8 184 -8q286 0 439 148.5t153 423.5q0 249 -144 381.5t-418 132.5q-127 0 -214 -18v-442h372z" />
    <glyph glyph-name="Ntilde" unicode="&#xd1;" horiz-adv-x="1366" 
d="M328 0h-174v1348h208l442 -674q151 -229 252 -436q-20 184 -20 548v562h174v-1348h-190l-438 676q-165 256 -266 452q12 -195 12 -550v-578zM542 1450h-96q0 105 39 153.5t97 48.5q50 0 126 -40q68 -36 98 -36q27 0 40.5 17t17.5 67h94q0 -198 -138 -198q-47 0 -126 38
q-80 38 -100 38q-42 0 -52 -88z" />
    <glyph glyph-name="Ograve" unicode="&#xd2;" horiz-adv-x="1438" 
d="M1364 688q0 -324 -183.5 -517t-470.5 -193q-281 0 -458.5 190.5t-177.5 491.5q0 315 184 512.5t468 197.5t461 -190.5t177 -491.5zM268 666q0 -227 124.5 -382.5t321.5 -155.5q204 0 328 154.5t124 397.5q0 226 -122.5 383t-325.5 157q-206 0 -328 -156.5t-122 -397.5z
M412 1688h224l184 -236h-150z" />
    <glyph glyph-name="Oacute" unicode="&#xd3;" horiz-adv-x="1438" 
d="M1364 688q0 -324 -183.5 -517t-470.5 -193q-281 0 -458.5 190.5t-177.5 491.5q0 315 184 512.5t468 197.5t461 -190.5t177 -491.5zM268 666q0 -227 124.5 -382.5t321.5 -155.5q204 0 328 154.5t124 397.5q0 226 -122.5 383t-325.5 157q-206 0 -328 -156.5t-122 -397.5z
M822 1688h222l-256 -238h-152z" />
    <glyph glyph-name="Ocircumflex" unicode="&#xd4;" horiz-adv-x="1438" 
d="M1364 688q0 -324 -183.5 -517t-470.5 -193q-281 0 -458.5 190.5t-177.5 491.5q0 315 184 512.5t468 197.5t461 -190.5t177 -491.5zM268 666q0 -227 124.5 -382.5t321.5 -155.5q204 0 328 154.5t124 397.5q0 226 -122.5 383t-325.5 157q-206 0 -328 -156.5t-122 -397.5z
M650 1688h136l212 -238h-152l-130 146l-128 -146h-146z" />
    <glyph glyph-name="Otilde" unicode="&#xd5;" horiz-adv-x="1438" 
d="M1364 688q0 -324 -183.5 -517t-470.5 -193q-281 0 -458.5 190.5t-177.5 491.5q0 315 184 512.5t468 197.5t461 -190.5t177 -491.5zM268 666q0 -227 124.5 -382.5t321.5 -155.5q204 0 328 154.5t124 397.5q0 226 -122.5 383t-325.5 157q-206 0 -328 -156.5t-122 -397.5z
M559 1460h-96q0 105 39 153.5t97 48.5q50 0 126 -40q68 -36 98 -36q27 0 40.5 17t17.5 67h94q0 -198 -138 -198q-47 0 -126 38q-80 38 -100 38q-42 0 -52 -88z" />
    <glyph glyph-name="Odieresis" unicode="&#xd6;" horiz-adv-x="1438" 
d="M1364 688q0 -324 -183.5 -517t-470.5 -193q-281 0 -458.5 190.5t-177.5 491.5q0 315 184 512.5t468 197.5t461 -190.5t177 -491.5zM268 666q0 -227 124.5 -382.5t321.5 -155.5q204 0 328 154.5t124 397.5q0 226 -122.5 383t-325.5 157q-206 0 -328 -156.5t-122 -397.5z
M633 1574q0 -43 -28.5 -73.5t-71.5 -30.5q-44 0 -74 30.5t-30 73.5t30 73.5t74 30.5q42 0 71 -30.5t29 -73.5zM1009 1574q0 -43 -28.5 -73.5t-71.5 -30.5q-45 0 -74.5 30.5t-29.5 73.5t29.5 73.5t72.5 30.5t72.5 -30t29.5 -74z" />
    <glyph glyph-name="multiply" unicode="&#xd7;" horiz-adv-x="1192" 
d="M80 962l92 92l424 -434l424 434l92 -92l-424 -434l424 -436l-92 -92l-424 434l-424 -434l-92 92l424 436z" />
    <glyph glyph-name="Oslash" unicode="&#xd8;" horiz-adv-x="1438" 
d="M238 -90l-106 86l128 172q-186 199 -186 498q0 310 184.5 507t467.5 197q196 0 348 -106l124 164l112 -78l-128 -170q182 -195 182 -494q0 -323 -183 -515.5t-459 -192.5q-198 0 -352 106zM982 1132q-111 92 -260 92q-208 0 -333 -157t-125 -391q0 -189 102 -358z
M1072 1024l-610 -808q106 -92 256 -92q205 0 330.5 157t125.5 399q0 192 -98 344h-4z" />
    <glyph glyph-name="Ugrave" unicode="&#xd9;" horiz-adv-x="1344" 
d="M154 1348h186v-786q0 -211 85.5 -322.5t240.5 -111.5q163 0 250.5 111t87.5 323v786h186v-774q0 -290 -139 -443t-393 -153q-244 0 -374 150t-130 440v780zM382 1688h224l184 -236h-150z" />
    <glyph glyph-name="Uacute" unicode="&#xda;" horiz-adv-x="1344" 
d="M154 1348h186v-786q0 -211 85.5 -322.5t240.5 -111.5q163 0 250.5 111t87.5 323v786h186v-774q0 -290 -139 -443t-393 -153q-244 0 -374 150t-130 440v780zM768 1688h222l-256 -238h-152z" />
    <glyph glyph-name="Ucircumflex" unicode="&#xdb;" horiz-adv-x="1344" 
d="M154 1348h186v-786q0 -211 85.5 -322.5t240.5 -111.5q163 0 250.5 111t87.5 323v786h186v-774q0 -290 -139 -443t-393 -153q-244 0 -374 150t-130 440v780zM618 1688h136l212 -238h-152l-130 146l-128 -146h-146z" />
    <glyph glyph-name="Udieresis" unicode="&#xdc;" horiz-adv-x="1344" 
d="M154 1348h186v-786q0 -211 85.5 -322.5t240.5 -111.5q163 0 250.5 111t87.5 323v786h186v-774q0 -290 -139 -443t-393 -153q-244 0 -374 150t-130 440v780zM591 1574q0 -43 -28.5 -73.5t-71.5 -30.5q-44 0 -74 30.5t-30 73.5t30 73.5t74 30.5q42 0 71 -30.5t29 -73.5z
M967 1574q0 -43 -28.5 -73.5t-71.5 -30.5q-45 0 -74.5 30.5t-29.5 73.5t29.5 73.5t72.5 30.5t72.5 -30t29.5 -74z" />
    <glyph glyph-name="Yacute" unicode="&#xdd;" horiz-adv-x="1126" 
d="M654 0h-186v570l-442 778h214q285 -544 332 -646q32 78 338 646h212l-468 -774v-574zM677 1688h222l-256 -238h-152z" />
    <glyph glyph-name="Thorn" unicode="&#xde;" horiz-adv-x="1100" 
d="M154 0v1348h184v-262q90 16 200 16q239 0 359.5 -107t120.5 -267q0 -204 -139.5 -318t-380.5 -114q-88 0 -160 10v-306h-184zM338 940v-482q52 -14 158 -14q159 0 247.5 70.5t88.5 193.5q0 120 -81.5 184t-230.5 64q-113 0 -182 -16z" />
    <glyph glyph-name="germandbls" unicode="&#xdf;" horiz-adv-x="1130" 
d="M336 0h-186v900q0 285 119 415.5t329 130.5q160 0 265 -94.5t105 -249.5q0 -98 -48 -162q-142 -63 -142 -160q0 -47 23 -82.5t77 -87.5q107 -107 136.5 -175.5t29.5 -134.5q0 -145 -99 -233.5t-267 -88.5q-133 0 -218 42l32 142q87 -40 170 -40q90 0 143 46t53 118
q0 54 -23 98.5t-83 99.5q-99 92 -129.5 151.5t-30.5 118.5q0 155 178 248q18 36 18 82q0 99 -57 157.5t-153 58.5q-125 0 -183.5 -95t-58.5 -293v-912z" />
    <glyph glyph-name="agrave" unicode="&#xe0;" horiz-adv-x="998" 
d="M858 586v-354q0 -144 16 -232h-170l-22 124q-109 -146 -306 -146q-138 0 -221 81.5t-83 196.5q0 176 153 269t447 93v18q0 103 -56.5 160.5t-167.5 57.5q-148 0 -264 -74l-42 122q140 88 334 88q189 0 285.5 -104t96.5 -300zM676 330v160q-234 0 -325 -56t-91 -154
q0 -77 45.5 -120.5t120.5 -43.5q106 0 178 65.5t72 148.5zM200 1378h202l178 -290h-132z" />
    <glyph glyph-name="aacute" unicode="&#xe1;" horiz-adv-x="998" 
d="M858 586v-354q0 -144 16 -232h-170l-22 124q-109 -146 -306 -146q-138 0 -221 81.5t-83 196.5q0 176 153 269t447 93v18q0 103 -56.5 160.5t-167.5 57.5q-148 0 -264 -74l-42 122q140 88 334 88q189 0 285.5 -104t96.5 -300zM676 330v160q-234 0 -325 -56t-91 -154
q0 -77 45.5 -120.5t120.5 -43.5q106 0 178 65.5t72 148.5zM568 1378h202l-248 -290h-132z" />
    <glyph glyph-name="acircumflex" unicode="&#xe2;" horiz-adv-x="998" 
d="M858 586v-354q0 -144 16 -232h-170l-22 124q-109 -146 -306 -146q-138 0 -221 81.5t-83 196.5q0 176 153 269t447 93v18q0 103 -56.5 160.5t-167.5 57.5q-148 0 -264 -74l-42 122q140 88 334 88q189 0 285.5 -104t96.5 -300zM676 330v160q-234 0 -325 -56t-91 -154
q0 -77 45.5 -120.5t120.5 -43.5q106 0 178 65.5t72 148.5zM426 1378h126l196 -290h-140l-122 190l-116 -190h-136z" />
    <glyph glyph-name="atilde" unicode="&#xe3;" horiz-adv-x="998" 
d="M858 586v-354q0 -144 16 -232h-170l-22 124q-109 -146 -306 -146q-138 0 -221 81.5t-83 196.5q0 176 153 269t447 93v18q0 103 -56.5 160.5t-167.5 57.5q-148 0 -264 -74l-42 122q140 88 334 88q189 0 285.5 -104t96.5 -300zM676 330v160q-234 0 -325 -56t-91 -154
q0 -77 45.5 -120.5t120.5 -43.5q106 0 178 65.5t72 148.5zM336 1124h-94q0 95 34.5 149.5t97.5 54.5q45 0 130 -46q60 -34 92 -34q47 0 52 86h92q0 -198 -136 -198q-49 0 -126 44q-60 34 -90 34q-45 0 -52 -90z" />
    <glyph glyph-name="adieresis" unicode="&#xe4;" horiz-adv-x="998" 
d="M858 586v-354q0 -144 16 -232h-170l-22 124q-109 -146 -306 -146q-138 0 -221 81.5t-83 196.5q0 176 153 269t447 93v18q0 103 -56.5 160.5t-167.5 57.5q-148 0 -264 -74l-42 122q140 88 334 88q189 0 285.5 -104t96.5 -300zM676 330v160q-234 0 -325 -56t-91 -154
q0 -77 45.5 -120.5t120.5 -43.5q106 0 178 65.5t72 148.5zM412 1216q0 -43 -28.5 -73.5t-71.5 -30.5q-44 0 -73 30.5t-29 73.5q0 44 29.5 74t74.5 30q41 0 69.5 -30t28.5 -74zM788 1216q0 -43 -28.5 -73.5t-71.5 -30.5q-45 0 -73.5 30t-28.5 74t29.5 74t72.5 30t71.5 -30
t28.5 -74z" />
    <glyph glyph-name="aring" unicode="&#xe5;" horiz-adv-x="998" 
d="M858 586v-354q0 -144 16 -232h-170l-22 124q-109 -146 -306 -146q-138 0 -221 81.5t-83 196.5q0 176 153 269t447 93v18q0 103 -56.5 160.5t-167.5 57.5q-148 0 -264 -74l-42 122q140 88 334 88q189 0 285.5 -104t96.5 -300zM676 330v160q-234 0 -325 -56t-91 -154
q0 -77 45.5 -120.5t120.5 -43.5q106 0 178 65.5t72 148.5zM262 1256q0 81 58 135.5t150 54.5q91 0 147.5 -53.5t56.5 -136.5q0 -79 -58.5 -132.5t-145.5 -53.5q-90 0 -149 53.5t-59 132.5zM572 1258q0 46 -28.5 78t-75.5 32q-44 0 -72 -32.5t-28 -79.5q0 -43 29 -75.5
t71 -32.5q46 0 75 31.5t29 78.5z" />
    <glyph glyph-name="ae" unicode="&#xe6;" horiz-adv-x="1600" 
d="M1520 460h-670q0 -169 90 -253.5t226 -84.5q161 0 274 56l34 -132q-137 -68 -330 -68q-129 0 -232.5 56.5t-153.5 157.5q-50 -103 -148 -158.5t-224 -55.5q-144 0 -229 79.5t-85 196.5q0 162 145.5 257t458.5 95v38q0 76 -57.5 143t-172.5 67q-148 0 -262 -76l-44 122
q149 90 316 90q253 0 330 -204q113 204 348 204q188 0 290 -136t102 -314q0 -52 -6 -80zM850 592h498q0 115 -63 191.5t-171 76.5q-111 0 -184 -78t-80 -190zM680 348v134q-245 0 -333.5 -58.5t-88.5 -153.5q0 -70 48 -113t122 -43q107 0 179.5 67t72.5 167z" />
    <glyph glyph-name="ccedilla" unicode="&#xe7;" horiz-adv-x="930" 
d="M836 176l34 -140q-115 -53 -272 -56l-48 -78q63 -9 101.5 -47.5t38.5 -90.5q0 -79 -57 -121.5t-157 -42.5q-80 0 -138 36l30 88q49 -30 108 -30q88 0 88 62q0 69 -158 82l84 148q-194 26 -304 160t-110 328q0 227 149 371.5t391 144.5q144 0 254 -54l-40 -142
q-92 48 -214 48q-159 0 -254.5 -100.5t-95.5 -257.5q0 -160 97 -258t249 -98q117 0 224 48z" />
    <glyph glyph-name="egrave" unicode="&#xe8;" horiz-adv-x="1038" 
d="M958 446h-702q4 -157 97 -240.5t241 -83.5q161 0 282 50l32 -130q-143 -64 -338 -64q-226 0 -360 134t-134 356t128.5 372t345.5 150q200 0 307 -133.5t107 -326.5q0 -55 -6 -84zM258 580h526q0 125 -64.5 201.5t-183.5 76.5q-113 0 -187 -76.5t-91 -201.5zM282 1378h202
l178 -290h-132z" />
    <glyph glyph-name="eacute" unicode="&#xe9;" horiz-adv-x="1038" 
d="M958 446h-702q4 -157 97 -240.5t241 -83.5q161 0 282 50l32 -130q-143 -64 -338 -64q-226 0 -360 134t-134 356t128.5 372t345.5 150q200 0 307 -133.5t107 -326.5q0 -55 -6 -84zM258 580h526q0 125 -64.5 201.5t-183.5 76.5q-113 0 -187 -76.5t-91 -201.5zM426 1378h202
l-248 -290h-132z" />
    <glyph glyph-name="ecircumflex" unicode="&#xea;" horiz-adv-x="1038" 
d="M958 446h-702q4 -157 97 -240.5t241 -83.5q161 0 282 50l32 -130q-143 -64 -338 -64q-226 0 -360 134t-134 356t128.5 372t345.5 150q200 0 307 -133.5t107 -326.5q0 -55 -6 -84zM258 580h526q0 125 -64.5 201.5t-183.5 76.5q-113 0 -187 -76.5t-91 -201.5zM480 1378h126
l196 -290h-140l-122 190l-116 -190h-136z" />
    <glyph glyph-name="edieresis" unicode="&#xeb;" horiz-adv-x="1038" 
d="M958 446h-702q4 -157 97 -240.5t241 -83.5q161 0 282 50l32 -130q-143 -64 -338 -64q-226 0 -360 134t-134 356t128.5 372t345.5 150q200 0 307 -133.5t107 -326.5q0 -55 -6 -84zM258 580h526q0 125 -64.5 201.5t-183.5 76.5q-113 0 -187 -76.5t-91 -201.5zM468 1216
q0 -43 -28.5 -73.5t-71.5 -30.5q-44 0 -73 30.5t-29 73.5q0 44 29.5 74t74.5 30q41 0 69.5 -30t28.5 -74zM844 1216q0 -43 -28.5 -73.5t-71.5 -30.5q-45 0 -73.5 30t-28.5 74t29.5 74t72.5 30t71.5 -30t28.5 -74z" />
    <glyph glyph-name="igrave" unicode="&#xec;" horiz-adv-x="484" 
d="M336 0h-186v968h186v-968zM-7 1378h202l178 -290h-132z" />
    <glyph glyph-name="iacute" unicode="&#xed;" horiz-adv-x="484" 
d="M336 0h-186v968h186v-968zM331 1378h202l-248 -290h-132z" />
    <glyph glyph-name="icircumflex" unicode="&#xee;" horiz-adv-x="484" 
d="M336 0h-186v968h186v-968zM181 1378h126l196 -290h-140l-122 190l-116 -190h-136z" />
    <glyph glyph-name="idieresis" unicode="&#xef;" horiz-adv-x="484" 
d="M336 0h-186v968h186v-968zM157 1216q0 -43 -28.5 -73.5t-71.5 -30.5q-44 0 -73 30.5t-29 73.5q0 44 29.5 74t74.5 30q41 0 69.5 -30t28.5 -74zM533 1216q0 -43 -28.5 -73.5t-71.5 -30.5q-45 0 -73.5 30t-28.5 74t29.5 74t72.5 30t71.5 -30t28.5 -74z" />
    <glyph glyph-name="eth" unicode="&#xf0;" horiz-adv-x="1124" 
d="M242 1010l-40 92l238 110q-93 63 -214 114l78 116q163 -68 298 -160l266 122l44 -90l-218 -100q352 -280 352 -706q0 -248 -139 -389t-349 -141q-209 0 -344.5 137.5t-135.5 354.5q0 219 137 358.5t329 139.5q139 0 238 -84q-96 154 -244 260zM268 474q0 -154 83 -256
t205 -102q133 0 214.5 101t81.5 269q0 203 -87 279.5t-203 76.5q-136 0 -215 -109t-79 -259z" />
    <glyph glyph-name="ntilde" unicode="&#xf1;" horiz-adv-x="1148" 
d="M150 0v702q0 161 -8 266h164l16 -164q46 84 135 135t195 51q152 0 253 -107.5t101 -314.5v-568h-186v548q0 137 -59 212.5t-171 75.5q-100 0 -177 -75t-77 -183v-578h-186zM422 1124h-94q0 95 34.5 149.5t97.5 54.5q45 0 130 -46q60 -34 92 -34q47 0 52 86h92
q0 -198 -136 -198q-49 0 -126 44q-60 34 -90 34q-45 0 -52 -90z" />
    <glyph glyph-name="ograve" unicode="&#xf2;" horiz-adv-x="1140" 
d="M1064 494q0 -156 -65 -273t-182 -180t-253 -63q-212 0 -350 138.5t-138 359.5q0 235 142.5 374.5t359.5 139.5q216 0 351 -138.5t135 -357.5zM266 482q0 -159 85 -262.5t213 -103.5q131 0 218.5 104t87.5 268q0 151 -80.5 257.5t-219.5 106.5q-141 0 -222.5 -105.5
t-81.5 -264.5zM302 1378h202l178 -290h-132z" />
    <glyph glyph-name="oacute" unicode="&#xf3;" horiz-adv-x="1140" 
d="M1064 494q0 -156 -65 -273t-182 -180t-253 -63q-212 0 -350 138.5t-138 359.5q0 235 142.5 374.5t359.5 139.5q216 0 351 -138.5t135 -357.5zM266 482q0 -159 85 -262.5t213 -103.5q131 0 218.5 104t87.5 268q0 151 -80.5 257.5t-219.5 106.5q-141 0 -222.5 -105.5
t-81.5 -264.5zM640 1378h202l-248 -290h-132z" />
    <glyph glyph-name="ocircumflex" unicode="&#xf4;" horiz-adv-x="1140" 
d="M1064 494q0 -156 -65 -273t-182 -180t-253 -63q-212 0 -350 138.5t-138 359.5q0 235 142.5 374.5t359.5 139.5q216 0 351 -138.5t135 -357.5zM266 482q0 -159 85 -262.5t213 -103.5q131 0 218.5 104t87.5 268q0 151 -80.5 257.5t-219.5 106.5q-141 0 -222.5 -105.5
t-81.5 -264.5zM506 1378h126l196 -290h-140l-122 190l-116 -190h-136z" />
    <glyph glyph-name="otilde" unicode="&#xf5;" horiz-adv-x="1140" 
d="M1064 494q0 -156 -65 -273t-182 -180t-253 -63q-212 0 -350 138.5t-138 359.5q0 235 142.5 374.5t359.5 139.5q216 0 351 -138.5t135 -357.5zM266 482q0 -159 85 -262.5t213 -103.5q131 0 218.5 104t87.5 268q0 151 -80.5 257.5t-219.5 106.5q-141 0 -222.5 -105.5
t-81.5 -264.5zM416 1124h-94q0 95 34.5 149.5t97.5 54.5q45 0 130 -46q60 -34 92 -34q47 0 52 86h92q0 -198 -136 -198q-49 0 -126 44q-60 34 -90 34q-45 0 -52 -90z" />
    <glyph glyph-name="odieresis" unicode="&#xf6;" horiz-adv-x="1140" 
d="M1064 494q0 -156 -65 -273t-182 -180t-253 -63q-212 0 -350 138.5t-138 359.5q0 235 142.5 374.5t359.5 139.5q216 0 351 -138.5t135 -357.5zM266 482q0 -159 85 -262.5t213 -103.5q131 0 218.5 104t87.5 268q0 151 -80.5 257.5t-219.5 106.5q-141 0 -222.5 -105.5
t-81.5 -264.5zM482 1216q0 -43 -28.5 -73.5t-71.5 -30.5q-44 0 -73 30.5t-29 73.5q0 44 29.5 74t74.5 30q41 0 69.5 -30t28.5 -74zM858 1216q0 -43 -28.5 -73.5t-71.5 -30.5q-45 0 -73.5 30t-28.5 74t29.5 74t72.5 30t71.5 -30t28.5 -74z" />
    <glyph glyph-name="divide" unicode="&#xf7;" horiz-adv-x="1192" 
d="M708 886q0 -51 -31 -83.5t-81 -32.5q-48 0 -79 33t-31 83q0 51 31.5 83.5t80.5 32.5t79.5 -32.5t30.5 -83.5zM1110 472h-1032v126h1032v-126zM706 184q0 -51 -31 -83.5t-81 -32.5q-48 0 -79 33t-31 83q0 51 31.5 83.5t80.5 32.5t79.5 -32.5t30.5 -83.5z" />
    <glyph glyph-name="oslash" unicode="&#xf8;" horiz-adv-x="1140" 
d="M234 102q-158 144 -158 376t141 372t355 140q146 0 256 -68l88 122l82 -56l-88 -124q154 -147 154 -372q0 -237 -143.5 -375.5t-350.5 -138.5q-146 0 -256 68l-92 -126l-74 62zM744 796q-72 56 -174 56q-144 0 -227 -106t-83 -264q0 -139 72 -240zM402 170
q64 -54 164 -54q139 0 228.5 103t89.5 267q0 134 -72 234z" />
    <glyph glyph-name="ugrave" unicode="&#xf9;" horiz-adv-x="1142" 
d="M992 968v-700q0 -165 8 -268h-164l-16 164q-112 -186 -332 -186q-159 0 -251.5 109t-92.5 321v560h186v-528q0 -308 222 -308q102 0 178 73t76 177v586h186zM302 1378h202l178 -290h-132z" />
    <glyph glyph-name="uacute" unicode="&#xfa;" horiz-adv-x="1142" 
d="M992 968v-700q0 -165 8 -268h-164l-16 164q-112 -186 -332 -186q-159 0 -251.5 109t-92.5 321v560h186v-528q0 -308 222 -308q102 0 178 73t76 177v586h186zM660 1378h202l-248 -290h-132z" />
    <glyph glyph-name="ucircumflex" unicode="&#xfb;" horiz-adv-x="1142" 
d="M992 968v-700q0 -165 8 -268h-164l-16 164q-112 -186 -332 -186q-159 0 -251.5 109t-92.5 321v560h186v-528q0 -308 222 -308q102 0 178 73t76 177v586h186zM506 1378h126l196 -290h-140l-122 190l-116 -190h-136z" />
    <glyph glyph-name="udieresis" unicode="&#xfc;" horiz-adv-x="1142" 
d="M992 968v-700q0 -165 8 -268h-164l-16 164q-112 -186 -332 -186q-159 0 -251.5 109t-92.5 321v560h186v-528q0 -308 222 -308q102 0 178 73t76 177v586h186zM488 1216q0 -43 -28.5 -73.5t-71.5 -30.5q-44 0 -73 30.5t-29 73.5q0 44 29.5 74t74.5 30q41 0 69.5 -30
t28.5 -74zM864 1216q0 -43 -28.5 -73.5t-71.5 -30.5q-45 0 -73.5 30t-28.5 74t29.5 74t72.5 30t71.5 -30t28.5 -74z" />
    <glyph glyph-name="yacute" unicode="&#xfd;" horiz-adv-x="978" 
d="M18 968h204l220 -577q28 -72 66 -185q39 135 60 195l198 567h200l-274 -692q-131 -330 -212.5 -456t-177 -186.5t-178.5 -75.5l-44 156q151 47 235.5 162t84.5 154q0 17 -12 46zM592 1378h202l-248 -290h-132z" />
    <glyph glyph-name="thorn" unicode="&#xfe;" horiz-adv-x="1182" 
d="M150 1340h186l4 -526q113 176 340 176q182 0 304 -137.5t122 -354.5q0 -157 -59 -275t-165.5 -181.5t-231.5 -63.5q-203 0 -314 154v-528h-186v1736zM336 556v-170q0 -45 29.5 -109t98.5 -108.5t156 -44.5q134 0 216 100t82 270q0 150 -81 249t-211 99
q-131 0 -210.5 -90.5t-79.5 -195.5z" />
    <glyph glyph-name="ydieresis" unicode="&#xff;" horiz-adv-x="978" 
d="M18 968h204l220 -577q28 -72 66 -185q39 135 60 195l198 567h200l-274 -692q-131 -330 -212.5 -456t-177 -186.5t-178.5 -75.5l-44 156q151 47 235.5 162t84.5 154q0 17 -12 46zM426 1216q0 -43 -28.5 -73.5t-71.5 -30.5q-44 0 -73 30.5t-29 73.5q0 44 29.5 74t74.5 30
q41 0 69.5 -30t28.5 -74zM802 1216q0 -43 -28.5 -73.5t-71.5 -30.5q-45 0 -73.5 30t-28.5 74t29.5 74t72.5 30t71.5 -30t28.5 -74z" />
    <glyph glyph-name="Amacron" unicode="&#x100;" horiz-adv-x="1272" 
d="M878 420h-492l-142 -420h-194l472 1348h228l476 -1348h-200zM424 564h416q-181 508 -212 626q-44 -167 -204 -626zM394 1608h488v-114h-488v114z" />
    <glyph glyph-name="amacron" unicode="&#x101;" horiz-adv-x="998" 
d="M858 586v-354q0 -144 16 -232h-170l-22 124q-109 -146 -306 -146q-138 0 -221 81.5t-83 196.5q0 176 153 269t447 93v18q0 103 -56.5 160.5t-167.5 57.5q-148 0 -264 -74l-42 122q140 88 334 88q189 0 285.5 -104t96.5 -300zM676 330v160q-234 0 -325 -56t-91 -154
q0 -77 45.5 -120.5t120.5 -43.5q106 0 178 65.5t72 148.5zM272 1284h460v-112h-460v112z" />
    <glyph glyph-name="Abreve" unicode="&#x102;" horiz-adv-x="1272" 
d="M878 420h-492l-142 -420h-194l472 1348h228l476 -1348h-200zM424 564h416q-181 508 -212 626q-44 -167 -204 -626zM382 1672h110q16 -112 144 -112q134 0 146 112h108q-3 -103 -69.5 -159.5t-186.5 -56.5q-117 0 -182.5 56.5t-69.5 159.5z" />
    <glyph glyph-name="abreve" unicode="&#x103;" horiz-adv-x="998" 
d="M858 586v-354q0 -144 16 -232h-170l-22 124q-109 -146 -306 -146q-138 0 -221 81.5t-83 196.5q0 176 153 269t447 93v18q0 103 -56.5 160.5t-167.5 57.5q-148 0 -264 -74l-42 122q140 88 334 88q189 0 285.5 -104t96.5 -300zM676 330v160q-234 0 -325 -56t-91 -154
q0 -77 45.5 -120.5t120.5 -43.5q106 0 178 65.5t72 148.5zM254 1368h106q25 -138 140 -138q60 0 97.5 37.5t44.5 100.5h106q-2 -114 -69.5 -178t-178.5 -64q-114 0 -178.5 64.5t-67.5 177.5z" />
    <glyph glyph-name="Aogonek" unicode="&#x104;" horiz-adv-x="1272" 
d="M878 420h-492l-142 -420h-194l472 1348h228l476 -1348q-77 -48 -124.5 -107t-47.5 -109q0 -40 24.5 -64t63.5 -24q48 0 100 20l18 -82q-65 -32 -154 -32q-77 0 -124.5 43t-47.5 115q0 65 58 136.5t132 103.5h-98zM424 564h416q-181 508 -212 626q-44 -167 -68 -236z" />
    <glyph glyph-name="aogonek" unicode="&#x105;" horiz-adv-x="998" 
d="M858 586v-354q0 -144 16 -232q-87 -44 -139.5 -104t-52.5 -112q0 -40 24.5 -64t61.5 -24q58 0 100 20l18 -82q-65 -32 -152 -32q-77 0 -124.5 43t-47.5 115q0 66 58.5 137t133.5 103h-50l-22 124q-109 -146 -306 -146q-138 0 -221 81.5t-83 196.5q0 176 153 269t447 93
v18q0 103 -56.5 160.5t-167.5 57.5q-148 0 -264 -74l-42 122q140 88 334 88q189 0 285.5 -104t96.5 -300zM676 330v160q-234 0 -325 -56t-91 -154q0 -77 45.5 -120.5t120.5 -43.5q106 0 178 65.5t72 148.5z" />
    <glyph glyph-name="Cacute" unicode="&#x106;" horiz-adv-x="1210" 
d="M1104 192l36 -146q-137 -68 -374 -68q-311 0 -501.5 184.5t-190.5 499.5q0 311 202 509.5t530 198.5q207 0 338 -62l-44 -150q-129 58 -286 58q-251 0 -397.5 -147.5t-146.5 -402.5q0 -242 141 -387t393 -145q177 0 300 58zM848 1688h222l-256 -238h-152z" />
    <glyph glyph-name="cacute" unicode="&#x107;" horiz-adv-x="930" 
d="M836 176l30 -140q-123 -58 -290 -58q-224 0 -362 137t-138 357q0 229 148.5 373.5t389.5 144.5q146 0 256 -54l-40 -142q-92 48 -214 48q-159 0 -254.5 -100.5t-95.5 -257.5q0 -163 97 -259.5t247 -96.5q116 0 226 48zM652 1378h202l-248 -290h-132z" />
    <glyph glyph-name="Ccaron" unicode="&#x10c;" horiz-adv-x="1210" 
d="M1104 192l36 -146q-137 -68 -374 -68q-311 0 -501.5 184.5t-190.5 499.5q0 311 202 509.5t530 198.5q207 0 338 -62l-44 -150q-129 58 -286 58q-251 0 -397.5 -147.5t-146.5 -402.5q0 -242 141 -387t393 -145q177 0 300 58zM856 1450h-136l-212 238h150l134 -146l126 146
h146z" />
    <glyph glyph-name="ccaron" unicode="&#x10d;" horiz-adv-x="930" 
d="M836 176l30 -140q-123 -58 -290 -58q-224 0 -362 137t-138 357q0 229 148.5 373.5t389.5 144.5q146 0 256 -54l-40 -142q-92 48 -214 48q-159 0 -254.5 -100.5t-95.5 -257.5q0 -163 97 -259.5t247 -96.5q116 0 226 48zM652 1088h-130l-198 290h140l124 -192l122 192h136z
" />
    <glyph glyph-name="Dcaron" unicode="&#x10e;" horiz-adv-x="1388" 
d="M154 4v1326q188 30 392 30q395 0 581.5 -178.5t186.5 -473.5q0 -331 -205 -525.5t-619 -194.5q-189 0 -336 16zM340 1196v-1052q41 -8 184 -8q286 0 440 147t154 417q0 248 -145 381t-419 133q-127 0 -214 -18zM704 1450h-136l-212 238h150l134 -146l126 146h146z" />
    <glyph glyph-name="dcaron" unicode="&#x10f;" horiz-adv-x="1300" 
d="M834 1424h186v-1170q0 -162 8 -254h-166l-14 172q-48 -92 -138 -143t-204 -51q-184 0 -307 138.5t-123 351.5q0 231 129.5 376.5t320.5 145.5q102 0 182.5 -40t125.5 -108v582zM834 416v154q0 123 -79.5 198.5t-190.5 75.5q-135 0 -217.5 -101t-82.5 -263q0 -152 78 -252
t218 -100q107 0 190.5 78.5t83.5 209.5zM1236 1042l-106 -10q63 169 98 388l164 16q-69 -245 -156 -394z" />
    <glyph glyph-name="Dcroat" unicode="&#x110;" horiz-adv-x="1398" 
d="M-2 608v150h166v576q188 30 392 30q394 0 580 -179t186 -477q0 -333 -204.5 -528.5t-619.5 -195.5q-187 0 -334 16v608h-166zM722 758v-150h-372v-468q40 -8 184 -8q286 0 439 148.5t153 423.5q0 249 -144 381.5t-418 132.5q-127 0 -214 -18v-442h372z" />
    <glyph glyph-name="dcroat" unicode="&#x111;" horiz-adv-x="1170" 
d="M1020 1128v-874q0 -162 8 -254h-166l-14 172q-48 -92 -138 -143t-204 -51q-184 0 -307 138.5t-123 351.5q0 231 129.5 376.5t320.5 145.5q102 0 182.5 -40t125.5 -108v286h-296v136h296v160h186v-160h98v-136h-98zM834 416v154q0 123 -79.5 198.5t-190.5 75.5
q-135 0 -217.5 -101t-82.5 -263q0 -152 78 -252t218 -100q107 0 190.5 78.5t83.5 209.5z" />
    <glyph glyph-name="Emacron" unicode="&#x112;" horiz-adv-x="1020" 
d="M882 780v-154h-542v-472h606v-154h-792v1348h760v-154h-574v-414h542zM268 1608h488v-114h-488v114z" />
    <glyph glyph-name="emacron" unicode="&#x113;" horiz-adv-x="1038" 
d="M958 446h-702q4 -157 97 -240.5t241 -83.5q161 0 282 50l32 -130q-143 -64 -338 -64q-226 0 -360 134t-134 356t128.5 372t345.5 150q200 0 307 -133.5t107 -326.5q0 -55 -6 -84zM258 580h526q0 125 -64.5 201.5t-183.5 76.5q-113 0 -187 -76.5t-91 -201.5zM322 1284h460
v-112h-460v112z" />
    <glyph glyph-name="Edotaccent" unicode="&#x116;" horiz-adv-x="1020" 
d="M882 780v-154h-542v-472h606v-154h-792v1348h760v-154h-574v-414h542zM643 1574q0 -42 -29 -73t-71 -31t-73 31.5t-31 72.5t31 72.5t73 31.5q41 0 70.5 -31.5t29.5 -72.5z" />
    <glyph glyph-name="edotaccent" unicode="&#x117;" horiz-adv-x="1038" 
d="M958 446h-702q4 -157 97 -240.5t241 -83.5q161 0 282 50l32 -130q-143 -64 -338 -64q-226 0 -360 134t-134 356t128.5 372t345.5 150q200 0 307 -133.5t107 -326.5q0 -55 -6 -84zM258 580h526q0 125 -64.5 201.5t-183.5 76.5q-113 0 -187 -76.5t-91 -201.5zM654 1216
q0 -43 -29 -73.5t-71 -30.5q-44 0 -73 30.5t-29 73.5q0 44 29.5 74t74.5 30q41 0 69.5 -30t28.5 -74z" />
    <glyph glyph-name="Eogonek" unicode="&#x118;" horiz-adv-x="1020" 
d="M882 780v-154h-542v-472h606v-154q-86 -44 -138 -103.5t-52 -112.5q0 -40 24.5 -64t63.5 -24q48 0 100 20l18 -82q-65 -32 -154 -32q-77 0 -124.5 43t-47.5 115q0 66 59 137.5t135 102.5h-676v1348h760v-154h-574v-414h542z" />
    <glyph glyph-name="eogonek" unicode="&#x119;" horiz-adv-x="1038" 
d="M958 446h-702q4 -157 97 -240.5t241 -83.5q161 0 282 50l32 -130q-61 -27 -116 -38q-33 -7 -103 -70q-47 -42 -68 -80.5t-21 -78.5q0 -36 24 -58.5t60 -22.5q58 0 100 20l18 -82q-65 -32 -152 -32q-77 0 -124.5 43t-47.5 115q0 57 43.5 118.5t112.5 105.5q-16 -4 -64 -4
q-226 0 -360 134t-134 356t128.5 372t345.5 150q200 0 307 -133.5t107 -326.5q0 -55 -6 -84zM258 580h526q0 125 -64.5 201.5t-183.5 76.5q-113 0 -187 -76.5t-91 -201.5z" />
    <glyph glyph-name="Ecaron" unicode="&#x11a;" horiz-adv-x="1020" 
d="M882 780v-154h-542v-472h606v-154h-792v1348h760v-154h-574v-414h542zM600 1450h-136l-212 238h150l134 -146l126 146h146z" />
    <glyph glyph-name="ecaron" unicode="&#x11b;" horiz-adv-x="1038" 
d="M958 446h-702q4 -157 97 -240.5t241 -83.5q161 0 282 50l32 -130q-143 -64 -338 -64q-226 0 -360 134t-134 356t128.5 372t345.5 150q200 0 307 -133.5t107 -326.5q0 -55 -6 -84zM258 580h526q0 125 -64.5 201.5t-183.5 76.5q-113 0 -187 -76.5t-91 -201.5zM626 1088
h-130l-198 290h140l124 -192l122 192h136z" />
    <glyph glyph-name="Gbreve" unicode="&#x11e;" horiz-adv-x="1346" 
d="M1230 712v-648q-216 -78 -436 -78q-347 0 -533.5 190.5t-186.5 487.5q0 307 207.5 502.5t550.5 195.5q209 0 356 -64l-46 -150q-132 60 -316 60q-254 0 -405 -145t-151 -389q0 -245 145.5 -390.5t390.5 -145.5q167 0 242 38v388h-280v148h462zM520 1672h110
q16 -112 144 -112q134 0 146 112h108q-3 -103 -69.5 -159.5t-186.5 -56.5q-117 0 -182.5 56.5t-69.5 159.5z" />
    <glyph glyph-name="gbreve" unicode="&#x11f;" horiz-adv-x="1160" 
d="M1010 706v-562q0 -316 -137 -440t-373 -124q-210 0 -338 84l46 142q129 -80 296 -80q155 0 238.5 86t83.5 252l-4 106q-105 -166 -320 -166q-183 0 -304.5 135.5t-121.5 336.5q0 233 133.5 373.5t318.5 140.5q220 0 318 -168l8 146h164q-8 -87 -8 -262zM824 422v158
q0 108 -73 187t-191 79q-130 0 -213 -99t-83 -261q0 -149 79.5 -244.5t214.5 -95.5q107 0 186.5 77t79.5 199zM334 1368h106q25 -138 140 -138q60 0 97.5 37.5t44.5 100.5h106q-2 -114 -69.5 -178t-178.5 -64q-114 0 -178.5 64.5t-67.5 177.5z" />
    <glyph glyph-name="Gcommaaccent" unicode="&#x122;" horiz-adv-x="1346" 
d="M1230 712v-648q-216 -78 -436 -78q-347 0 -533.5 190.5t-186.5 487.5q0 307 207.5 502.5t550.5 195.5q209 0 356 -64l-46 -150q-132 60 -316 60q-254 0 -405 -145t-151 -389q0 -245 145.5 -390.5t390.5 -145.5q167 0 242 38v388h-280v148h462zM644 -478l-106 -10
q63 169 98 388l164 16q-69 -245 -156 -394z" />
    <glyph glyph-name="gcommaaccent" unicode="&#x123;" horiz-adv-x="1160" 
d="M1010 706v-562q0 -316 -137 -440t-373 -124q-210 0 -338 84l46 142q129 -80 296 -80q155 0 238.5 86t83.5 252l-4 106q-105 -166 -320 -166q-183 0 -304.5 135.5t-121.5 336.5q0 233 133.5 373.5t318.5 140.5q220 0 318 -168l8 146h164q-8 -87 -8 -262zM824 422v158
q0 108 -73 187t-191 79q-130 0 -213 -99t-83 -261q0 -149 79.5 -244.5t214.5 -95.5q107 0 186.5 77t79.5 199zM612.014 1499.97l105.993 10q-62.9961 -168.99 -97.9941 -387.977l-163.989 -15.999q68.9951 244.985 155.99 393.976z" />
    <glyph glyph-name="Imacron" unicode="&#x12a;" horiz-adv-x="494" 
d="M154 1348h186v-1348h-186v1348zM7 1608h488v-114h-488v114z" />
    <glyph glyph-name="imacron" unicode="&#x12b;" horiz-adv-x="484" 
d="M336 0h-186v968h186v-968zM15 1284h460v-112h-460v112z" />
    <glyph glyph-name="Iogonek" unicode="&#x12e;" horiz-adv-x="494" 
d="M154 1348h186v-1348h-2q-81 -42 -134.5 -102.5t-53.5 -113.5q0 -41 24.5 -64.5t63.5 -23.5q48 0 100 20l18 -82q-65 -32 -154 -32q-77 0 -124.5 43t-47.5 115q0 66 59 137.5t135 102.5h-70v1348z" />
    <glyph glyph-name="iogonek" unicode="&#x12f;" horiz-adv-x="484" 
d="M362 1262q0 -50 -33 -84t-87 -34q-52 0 -85 34t-33 84q0 49 33.5 82.5t86.5 33.5q51 0 84.5 -33.5t33.5 -82.5zM336 968v-968q-87 -43 -139.5 -103t-52.5 -113q0 -40 25 -64t61 -24q58 0 100 20l18 -82q-65 -32 -152 -32q-77 0 -124.5 43t-47.5 115q0 66 58.5 137
t133.5 103h-66v968h186z" />
    <glyph glyph-name="Idotaccent" unicode="&#x130;" horiz-adv-x="494" 
d="M155 1348h186v-1348h-186v1348zM353 1574q0 -42 -29 -73t-71 -31t-73 31.5t-31 72.5t31 72.5t73 31.5q41 0 70.5 -31.5t29.5 -72.5z" />
    <glyph glyph-name="dotlessi" unicode="&#x131;" horiz-adv-x="484" 
d="M336 0h-186v968h186v-968z" />
    <glyph glyph-name="Kcommaaccent" unicode="&#x136;" horiz-adv-x="1126" 
d="M154 0v1348h192v-648q52 75 532 648h232l-504 -572l544 -776h-220l-456 658l-134 -150v-508h-186zM504 -478l-106 -10q63 169 98 388l164 16q-69 -245 -156 -394z" />
    <glyph glyph-name="kcommaaccent" unicode="&#x137;" horiz-adv-x="974" 
d="M336 1424l4 -896q37 52 91 113l287 327h226l-386 -396l442 -572h-230l-340 462l-94 -102v-360h-186v1424h186zM438 -478l-106 -10q63 169 98 388l164 16q-69 -245 -156 -394z" />
    <glyph glyph-name="Lacute" unicode="&#x139;" horiz-adv-x="980" 
d="M154 0v1348h186v-1192h596v-156h-782zM332 1688h222l-256 -238h-152z" />
    <glyph glyph-name="lacute" unicode="&#x13a;" horiz-adv-x="484" 
d="M150 0v1424h186v-1424h-186zM334 1748h222l-256 -238h-152z" />
    <glyph glyph-name="Lcommaaccent" unicode="&#x13b;" horiz-adv-x="980" 
d="M154 0v1348h186v-1192h596v-156h-782zM410 -478l-106 -10q63 169 98 388l164 16q-69 -245 -156 -394z" />
    <glyph glyph-name="lcommaaccent" unicode="&#x13c;" horiz-adv-x="484" 
d="M150 0v1424h186v-1424h-186zM163 -478l-106 -10q63 169 98 388l164 16q-69 -245 -156 -394z" />
    <glyph glyph-name="Lcaron" unicode="&#x13d;" horiz-adv-x="980" 
d="M154 0v1348h186v-1192h596v-156h-782zM580 1122l-106 -10q63 169 98 388l164 16q-69 -245 -156 -394z" />
    <glyph glyph-name="lcaron" unicode="&#x13e;" horiz-adv-x="614" 
d="M150 0v1424h186v-1424h-186zM552 1042l-106 -10q63 169 98 388l164 16q-69 -245 -156 -394z" />
    <glyph glyph-name="Lslash" unicode="&#x141;" horiz-adv-x="986" 
d="M944 0h-782v538l-170 -122v140l170 120v672h186v-546l274 190v-140l-274 -192v-504h596v-156z" />
    <glyph glyph-name="lslash" unicode="&#x142;" horiz-adv-x="500" 
d="M344 0h-186v566l-138 -114v142l138 116v714h186v-570l144 120v-144l-144 -122v-708z" />
    <glyph glyph-name="Nacute" unicode="&#x143;" horiz-adv-x="1366" 
d="M328 0h-174v1348h208l442 -674q151 -229 252 -436q-20 184 -20 548v562h174v-1348h-190l-438 676q-165 256 -266 452q12 -195 12 -550v-578zM776 1668h222l-256 -238h-152z" />
    <glyph glyph-name="nacute" unicode="&#x144;" horiz-adv-x="1148" 
d="M150 0v702q0 161 -8 266h164l16 -164q46 84 135 135t195 51q152 0 253 -107.5t101 -314.5v-568h-186v548q0 137 -59 212.5t-171 75.5q-100 0 -177 -75t-77 -183v-578h-186zM576 1378h202l-248 -290h-132z" />
    <glyph glyph-name="Ncommaaccent" unicode="&#x145;" horiz-adv-x="1366" 
d="M328 0h-174v1348h208l442 -674q151 -229 252 -436q-20 184 -20 548v562h174v-1348h-190l-438 676q-165 256 -266 452q12 -195 12 -550v-578zM604 -478l-106 -10q63 169 98 388l164 16q-69 -245 -156 -394z" />
    <glyph glyph-name="ncommaaccent" unicode="&#x146;" horiz-adv-x="1148" 
d="M150 0v702q0 161 -8 266h164l16 -164q46 84 135 135t195 51q152 0 253 -107.5t101 -314.5v-568h-186v548q0 137 -59 212.5t-171 75.5q-100 0 -177 -75t-77 -183v-578h-186zM420 -478l-106 -10q63 169 98 388l164 16q-69 -245 -156 -394z" />
    <glyph glyph-name="Ncaron" unicode="&#x147;" horiz-adv-x="1366" 
d="M328 0h-174v1348h208l442 -674q151 -229 252 -436q-20 184 -20 548v562h174v-1348h-190l-438 676q-165 256 -266 452q12 -195 12 -550v-578zM754 1411h-136l-212 238h150l134 -146l126 146h146z" />
    <glyph glyph-name="ncaron" unicode="&#x148;" horiz-adv-x="1148" 
d="M150 0v702q0 161 -8 266h164l16 -164q46 84 135 135t195 51q152 0 253 -107.5t101 -314.5v-568h-186v548q0 137 -59 212.5t-171 75.5q-100 0 -177 -75t-77 -183v-578h-186zM640 1088h-130l-198 290h140l124 -192l122 192h136z" />
    <glyph glyph-name="Omacron" unicode="&#x14c;" horiz-adv-x="1438" 
d="M1364 688q0 -324 -183.5 -517t-470.5 -193q-281 0 -458.5 190.5t-177.5 491.5q0 315 184 512.5t468 197.5t461 -190.5t177 -491.5zM268 666q0 -227 124.5 -382.5t321.5 -155.5q204 0 328 154.5t124 397.5q0 226 -122.5 383t-325.5 157q-206 0 -328 -156.5t-122 -397.5z
M478 1608h488v-114h-488v114z" />
    <glyph glyph-name="omacron" unicode="&#x14d;" horiz-adv-x="1140" 
d="M1064 494q0 -156 -65 -273t-182 -180t-253 -63q-212 0 -350 138.5t-138 359.5q0 235 142.5 374.5t359.5 139.5q216 0 351 -138.5t135 -357.5zM266 482q0 -159 85 -262.5t213 -103.5q131 0 218.5 104t87.5 268q0 151 -80.5 257.5t-219.5 106.5q-141 0 -222.5 -105.5
t-81.5 -264.5zM342 1284h460v-112h-460v112z" />
    <glyph glyph-name="Ohungarumlaut" unicode="&#x150;" horiz-adv-x="1438" 
d="M1364 688q0 -324 -183.5 -517t-470.5 -193q-281 0 -458.5 190.5t-177.5 491.5q0 315 184 512.5t468 197.5t461 -190.5t177 -491.5zM268 666q0 -227 124.5 -382.5t321.5 -155.5q204 0 328 154.5t124 397.5q0 226 -122.5 383t-325.5 157q-206 0 -328 -156.5t-122 -397.5z
M653 1688h200l-224 -228h-138zM955 1688h200l-226 -228h-136z" />
    <glyph glyph-name="ohungarumlaut" unicode="&#x151;" horiz-adv-x="1140" 
d="M1064 494q0 -156 -65 -273t-182 -180t-253 -63q-212 0 -350 138.5t-138 359.5q0 235 142.5 374.5t359.5 139.5q216 0 351 -138.5t135 -357.5zM266 482q0 -159 85 -262.5t213 -103.5q131 0 218.5 104t87.5 268q0 151 -80.5 257.5t-219.5 106.5q-141 0 -222.5 -105.5
t-81.5 -264.5zM510 1376h180l-220 -274h-116zM806 1376h180l-220 -274h-116z" />
    <glyph glyph-name="OE" unicode="&#x152;" horiz-adv-x="1860" 
d="M1782 154v-154h-718q-51 0 -138 -10q-100 -12 -176 -12q-307 0 -491.5 191t-184.5 493q0 323 189 515.5t497 192.5q56 0 186 -10q108 -12 136 -12h668v-154h-574v-416h542v-154h-542v-470h606zM990 156v1034q-89 30 -222 30q-227 0 -362.5 -151.5t-135.5 -398.5
q0 -241 137.5 -391.5t380.5 -150.5q127 0 202 28z" />
    <glyph glyph-name="oe" unicode="&#x153;" horiz-adv-x="1786" 
d="M1706 448h-678q0 -148 91 -237t237 -89q140 0 270 56l36 -132q-136 -68 -328 -68q-279 0 -398 228q-54 -111 -158 -169.5t-232 -58.5q-204 0 -337 139t-133 361q0 227 136.5 369.5t345.5 142.5q129 0 229.5 -60t152.5 -170q56 112 151 171t213 59q198 0 303 -133.5
t105 -324.5q0 -56 -6 -84zM1024 582h506q0 125 -63 200.5t-179 75.5q-109 0 -180 -77.5t-84 -198.5zM854 484q0 160 -78 264t-214 104q-139 0 -216.5 -106t-77.5 -264t84 -262t210 -104q129 0 210.5 101t81.5 267z" />
    <glyph glyph-name="Racute" unicode="&#x154;" horiz-adv-x="1114" 
d="M154 0v1330q158 30 352 30q268 0 390 -100t122 -270q0 -120 -68.5 -210.5t-189.5 -131.5q146 -57 198 -274q82 -331 108 -374h-192q-28 47 -90 320q-32 142 -95 201t-179 59h-170v-580h-186zM340 1202v-482h186q140 0 223 68t83 182q0 121 -80.5 184.5t-231.5 63.5
q-117 0 -180 -16zM582 1688h222l-256 -238h-152z" />
    <glyph glyph-name="racute" unicode="&#x155;" horiz-adv-x="680" 
d="M150 0v660q0 188 -8 308h164l12 -194q37 102 113 159t165 57q19 0 50 -4v-176q-27 6 -64 6q-101 0 -173.5 -79t-72.5 -225v-512h-186zM416 1378h202l-248 -290h-132z" />
    <glyph glyph-name="Rcommaaccent" unicode="&#x156;" horiz-adv-x="1114" 
d="M154 0v1330q158 30 352 30q268 0 390 -100t122 -270q0 -120 -68.5 -210.5t-189.5 -131.5q146 -57 198 -274q82 -331 108 -374h-192q-28 47 -90 320q-32 142 -95 201t-179 59h-170v-580h-186zM340 1202v-482h186q140 0 223 68t83 182q0 121 -80.5 184.5t-231.5 63.5
q-117 0 -180 -16zM498 -478l-106 -10q63 169 98 388l164 16q-69 -245 -156 -394z" />
    <glyph glyph-name="rcommaaccent" unicode="&#x157;" horiz-adv-x="680" 
d="M150 0v660q0 188 -8 308h164l12 -194q37 102 113 159t165 57q19 0 50 -4v-176q-27 6 -64 6q-101 0 -173.5 -79t-72.5 -225v-512h-186zM181 -478l-106 -10q63 169 98 388l164 16q-69 -245 -156 -394z" />
    <glyph glyph-name="Rcaron" unicode="&#x158;" horiz-adv-x="1114" 
d="M154 0v1330q158 30 352 30q268 0 390 -100t122 -270q0 -120 -68.5 -210.5t-189.5 -131.5q146 -57 198 -274q82 -331 108 -374h-192q-28 47 -90 320q-32 142 -95 201t-179 59h-170v-580h-186zM340 1202v-482h186q140 0 223 68t83 182q0 121 -80.5 184.5t-231.5 63.5
q-117 0 -180 -16zM628 1450h-136l-212 238h150l134 -146l126 146h146z" />
    <glyph glyph-name="rcaron" unicode="&#x159;" horiz-adv-x="680" 
d="M150 0v660q0 188 -8 308h164l12 -194q37 102 113 159t165 57q19 0 50 -4v-176q-27 6 -64 6q-101 0 -173.5 -79t-72.5 -225v-512h-186zM426 1088h-130l-198 290h140l124 -192l122 192h136z" />
    <glyph glyph-name="Sacute" unicode="&#x15a;" horiz-adv-x="1024" 
d="M86 68l48 154q151 -90 326 -90q132 0 209 61t77 163q0 94 -61 153.5t-201 106.5q-192 66 -281 159t-89 225q0 161 126 265.5t326 104.5q192 0 312 -68l-50 -150q-116 66 -268 66q-122 0 -190 -57.5t-68 -140.5q0 -84 58 -139t218 -113q192 -70 274 -163.5t82 -234.5
q0 -173 -129 -282.5t-359 -109.5q-96 0 -197 25t-163 65zM604 1688h222l-256 -238h-152z" />
    <glyph glyph-name="sacute" unicode="&#x15b;" horiz-adv-x="822" 
d="M82 46l44 142q118 -72 244 -72q90 0 139 38t49 102q0 61 -40.5 99.5t-141.5 72.5q-266 91 -266 274q0 122 94.5 205t251.5 83q146 0 248 -60l-46 -134q-101 58 -208 58q-74 0 -117 -36.5t-43 -93.5q0 -51 36.5 -86t151.5 -76q140 -50 201 -118.5t61 -171.5
q0 -132 -100.5 -213t-273.5 -81q-159 0 -284 68zM558 1378h202l-248 -290h-132z" />
    <glyph glyph-name="Scedilla" unicode="&#x15e;" horiz-adv-x="1024" 
d="M86 68l48 154q151 -90 326 -90q132 0 209 61t77 163q0 94 -61 153.5t-201 106.5q-192 66 -281 159t-89 225q0 161 126 265.5t326 104.5q192 0 312 -68l-50 -150q-116 66 -268 66q-122 0 -190 -57.5t-68 -140.5q0 -84 58 -139t218 -113q192 -70 274 -163.5t82 -234.5
q0 -146 -95.5 -250.5t-274.5 -133.5l-54 -86q63 -9 101.5 -48.5t38.5 -93.5q0 -75 -58 -116.5t-154 -41.5q-80 0 -140 36l30 86q56 -28 110 -28q84 0 84 62q0 69 -156 82l80 140q-96 0 -197 25t-163 65z" />
    <glyph glyph-name="scedilla" unicode="&#x15f;" horiz-adv-x="822" 
d="M82 46l44 142q118 -72 244 -72q90 0 139 38t49 102q0 61 -40.5 99.5t-141.5 72.5q-266 91 -266 274q0 122 94.5 205t251.5 83q146 0 248 -60l-46 -134q-101 58 -208 58q-74 0 -117 -36.5t-43 -93.5q0 -51 36.5 -86t151.5 -76q140 -50 201 -118.5t61 -171.5
q0 -113 -75.5 -190.5t-214.5 -97.5l-52 -84q62 -8 101 -46t39 -90q0 -80 -56.5 -122t-157.5 -42q-80 0 -138 36l30 86q54 -28 110 -28q86 0 86 62q0 69 -158 82l82 140q-145 9 -254 68z" />
    <glyph glyph-name="Scaron" unicode="&#x160;" horiz-adv-x="1024" 
d="M86 68l48 154q151 -90 326 -90q132 0 209 61t77 163q0 94 -61 153.5t-201 106.5q-192 66 -281 159t-89 225q0 161 126 265.5t326 104.5q192 0 312 -68l-50 -150q-116 66 -268 66q-122 0 -190 -57.5t-68 -140.5q0 -84 58 -139t218 -113q192 -70 274 -163.5t82 -234.5
q0 -173 -129 -282.5t-359 -109.5q-96 0 -197 25t-163 65zM605 1450h-136l-212 238h150l134 -146l126 146h146z" />
    <glyph glyph-name="scaron" unicode="&#x161;" horiz-adv-x="822" 
d="M82 46l44 142q118 -72 244 -72q90 0 139 38t49 102q0 61 -40.5 99.5t-141.5 72.5q-266 91 -266 274q0 122 94.5 205t251.5 83q146 0 248 -60l-46 -134q-101 58 -208 58q-74 0 -117 -36.5t-43 -93.5q0 -51 36.5 -86t151.5 -76q140 -50 201 -118.5t61 -171.5
q0 -132 -100.5 -213t-273.5 -81q-159 0 -284 68zM486 1088h-130l-198 290h140l124 -192l122 192h136z" />
    <glyph glyph-name="Tcommaaccent" unicode="&#x162;" horiz-adv-x="1034" 
d="M424 0v1192h-426v156h1040v-156h-428v-1192h-186zM438 -478l-106 -10q63 169 98 388l164 16q-69 -245 -156 -394z" />
    <glyph glyph-name="tcommaaccent" unicode="&#x163;" horiz-adv-x="684" 
d="M188 1148l182 54v-234h258v-142h-258v-504q0 -101 32.5 -145.5t103.5 -44.5q65 0 106 12l8 -140q-69 -26 -166 -26q-266 0 -266 332v516h-152v142h152v180zM272 -478l-106 -10q63 169 98 388l164 16q-69 -245 -156 -394z" />
    <glyph glyph-name="Tcaron" unicode="&#x164;" horiz-adv-x="1034" 
d="M424 0v1192h-426v156h1040v-156h-428v-1192h-186zM588 1450h-136l-212 238h150l134 -146l126 146h146z" />
    <glyph glyph-name="tcaron" unicode="&#x165;" horiz-adv-x="684" 
d="M188 1148l182 54v-234h258v-142h-258v-504q0 -101 32.5 -145.5t103.5 -44.5q65 0 106 12l8 -140q-69 -26 -166 -26q-266 0 -266 332v516h-152v142h152v180zM582 1082l-106 -10q63 169 98 388l164 16q-69 -245 -156 -394z" />
    <glyph glyph-name="Umacron" unicode="&#x16a;" horiz-adv-x="1344" 
d="M154 1348h186v-786q0 -211 85.5 -322.5t240.5 -111.5q163 0 250.5 111t87.5 323v786h186v-774q0 -290 -139 -443t-393 -153q-244 0 -374 150t-130 440v780zM430 1608h488v-114h-488v114z" />
    <glyph glyph-name="umacron" unicode="&#x16b;" horiz-adv-x="1142" 
d="M992 968v-700q0 -165 8 -268h-164l-16 164q-112 -186 -332 -186q-159 0 -251.5 109t-92.5 321v560h186v-528q0 -308 222 -308q102 0 178 73t76 177v586h186zM372 1284h460v-112h-460v112z" />
    <glyph glyph-name="Uring" unicode="&#x16e;" horiz-adv-x="1344" 
d="M154 1348h186v-786q0 -211 85.5 -322.5t240.5 -111.5q163 0 250.5 111t87.5 323v786h186v-774q0 -290 -139 -443t-393 -153q-244 0 -374 150t-130 440v780zM469 1520q0 78 57 131t149 53q90 0 146 -52.5t56 -131.5q0 -76 -56.5 -127t-145.5 -51q-90 0 -148 51t-58 127z
M773 1522q0 44 -27.5 75t-70.5 31t-70.5 -31t-27.5 -77q0 -41 27.5 -71.5t68.5 -30.5q44 0 72 29.5t28 74.5z" />
    <glyph glyph-name="uring" unicode="&#x16f;" horiz-adv-x="1142" 
d="M992 968v-700q0 -165 8 -268h-164l-16 164q-112 -186 -332 -186q-159 0 -251.5 109t-92.5 321v560h186v-528q0 -308 222 -308q102 0 178 73t76 177v586h186zM366 1256q0 81 58 135.5t150 54.5q91 0 147.5 -53.5t56.5 -136.5q0 -79 -58.5 -132.5t-145.5 -53.5
q-90 0 -149 53.5t-59 132.5zM676 1258q0 46 -28.5 78t-75.5 32q-44 0 -72 -32.5t-28 -79.5q0 -43 29 -75.5t71 -32.5q46 0 75 31.5t29 78.5z" />
    <glyph glyph-name="Uhungarumlaut" unicode="&#x170;" horiz-adv-x="1344" 
d="M154 1348h186v-786q0 -211 85.5 -322.5t240.5 -111.5q163 0 250.5 111t87.5 323v786h186v-774q0 -290 -139 -443t-393 -153q-244 0 -374 150t-130 440v780zM605 1688h200l-224 -228h-138zM907 1688h200l-226 -228h-136z" />
    <glyph glyph-name="uhungarumlaut" unicode="&#x171;" horiz-adv-x="1142" 
d="M992 968v-700q0 -165 8 -268h-164l-16 164q-112 -186 -332 -186q-159 0 -251.5 109t-92.5 321v560h186v-528q0 -308 222 -308q102 0 178 73t76 177v586h186zM512 1376h180l-220 -274h-116zM808 1376h180l-220 -274h-116z" />
    <glyph glyph-name="Uogonek" unicode="&#x172;" horiz-adv-x="1344" 
d="M154 1348h186v-786q0 -211 85.5 -322.5t240.5 -111.5q163 0 250.5 111t87.5 323v786h186v-774q0 -242 -94 -384t-258 -188q-82 -41 -136 -101.5t-54 -114.5q0 -40 24.5 -64t61.5 -24q58 0 100 20l18 -82q-65 -32 -152 -32q-77 0 -124.5 43t-47.5 115q0 57 43 117t109 99
q-526 0 -526 590v780z" />
    <glyph glyph-name="uogonek" unicode="&#x173;" horiz-adv-x="1142" 
d="M992 968v-700q0 -165 8 -268q-87 -43 -139.5 -103t-52.5 -113q0 -40 24.5 -64t61.5 -24q58 0 100 20l18 -82q-65 -32 -152 -32q-77 0 -124.5 43t-47.5 115q0 66 58.5 137t133.5 103h-44l-16 164q-112 -186 -332 -186q-159 0 -251.5 109t-92.5 321v560h186v-528
q0 -308 222 -308q102 0 178 73t76 177v586h186z" />
    <glyph glyph-name="Ydieresis" unicode="&#x178;" horiz-adv-x="1126" 
d="M654 0h-186v570l-442 778h214q285 -544 332 -646q32 78 338 646h212l-468 -774v-574zM483 1574q0 -43 -28.5 -73.5t-71.5 -30.5q-44 0 -74 30.5t-30 73.5t30 73.5t74 30.5q42 0 71 -30.5t29 -73.5zM859 1574q0 -43 -28.5 -73.5t-71.5 -30.5q-45 0 -74.5 30.5t-29.5 73.5
t29.5 73.5t72.5 30.5t72.5 -30t29.5 -74z" />
    <glyph glyph-name="Zacute" unicode="&#x179;" horiz-adv-x="1156" 
d="M62 0v106l772 1088h-706v154h950v-110l-768 -1084h780v-154h-1028zM670 1688h222l-256 -238h-152z" />
    <glyph glyph-name="zacute" unicode="&#x17a;" horiz-adv-x="888" 
d="M38 0v108l444 554q62 73 134 158h-540v148h770l-2 -114l-438 -548q-88 -108 -132 -158h580v-148h-816zM520 1378h202l-248 -290h-132z" />
    <glyph glyph-name="Zdotaccent" unicode="&#x17b;" horiz-adv-x="1156" 
d="M62 0v106l772 1088h-706v154h950v-110l-768 -1084h780v-154h-1028zM681 1574q0 -42 -29 -73t-71 -31t-73 31.5t-31 72.5t31 72.5t73 31.5q41 0 70.5 -31.5t29.5 -72.5z" />
    <glyph glyph-name="zdotaccent" unicode="&#x17c;" horiz-adv-x="888" 
d="M38 0v108l444 554q62 73 134 158h-540v148h770l-2 -114l-438 -548q-88 -108 -132 -158h580v-148h-816zM518 1216q0 -43 -29 -73.5t-71 -30.5q-44 0 -73 30.5t-29 73.5q0 44 29.5 74t74.5 30q41 0 69.5 -30t28.5 -74z" />
    <glyph glyph-name="Zcaron" unicode="&#x17d;" horiz-adv-x="1156" 
d="M62 0v106l772 1088h-706v154h950v-110l-768 -1084h780v-154h-1028zM668 1450h-136l-212 238h150l134 -146l126 146h146z" />
    <glyph glyph-name="zcaron" unicode="&#x17e;" horiz-adv-x="888" 
d="M38 0v108l444 554q62 73 134 158h-540v148h770l-2 -114l-438 -548q-88 -108 -132 -158h580v-148h-816zM535 1088h-130l-198 290h140l124 -192l122 192h136z" />
    <glyph glyph-name="florin" unicode="&#x192;" horiz-adv-x="1062" 
d="M232 670v134h200q34 301 140 409.5t264 108.5q83 0 142 -32l-34 -134q-62 20 -108 20q-86 0 -144 -72t-80 -300h244v-134h-260l-47 -396q-20 -160 -62.5 -255.5t-115.5 -142t-181 -46.5q-100 0 -160 34l34 132q46 -22 112 -22q88 0 132 73.5t62 225.5l46 397h-184z" />
    <glyph glyph-name="Scommaaccent" unicode="&#x218;" horiz-adv-x="1024" 
d="M86 68l48 154q151 -90 326 -90q132 0 209 61t77 163q0 94 -61 153.5t-201 106.5q-192 66 -281 159t-89 225q0 161 126 265.5t326 104.5q192 0 312 -68l-50 -150q-116 66 -268 66q-122 0 -190 -57.5t-68 -140.5q0 -84 58 -139t218 -113q192 -70 274 -163.5t82 -234.5
q0 -173 -129 -282.5t-359 -109.5q-96 0 -197 25t-163 65zM432 -478l-106 -10q63 169 98 388l164 16q-69 -245 -156 -394z" />
    <glyph glyph-name="scommaaccent" unicode="&#x219;" horiz-adv-x="822" 
d="M82 46l44 142q118 -72 244 -72q90 0 139 38t49 102q0 61 -40.5 99.5t-141.5 72.5q-266 91 -266 274q0 122 94.5 205t251.5 83q146 0 248 -60l-46 -134q-101 58 -208 58q-74 0 -117 -36.5t-43 -93.5q0 -51 36.5 -86t151.5 -76q140 -50 201 -118.5t61 -171.5
q0 -132 -100.5 -213t-273.5 -81q-159 0 -284 68zM332 -478l-106 -10q63 169 98 388l164 16q-69 -245 -156 -394z" />
    <glyph glyph-name="uni021A" unicode="&#x21a;" horiz-adv-x="1034" 
d="M424 0v1192h-426v156h1040v-156h-428v-1192h-186zM438 -478l-106 -10q63 169 98 388l164 16q-69 -245 -156 -394z" />
    <glyph glyph-name="circumflex" unicode="&#x2c6;" 
d="M236 1378h126l196 -290h-140l-122 190l-116 -190h-136z" />
    <glyph glyph-name="caron" unicode="&#x2c7;" 
d="M366 1088h-130l-198 290h140l124 -192l122 192h136z" />
    <glyph glyph-name="uni02C9" unicode="&#x2c9;" horiz-adv-x="1000" 
d="M0 1600h1000v-100h-1000v100z" />
    <glyph glyph-name="breve" unicode="&#x2d8;" 
d="M54 1368h106q25 -138 140 -138q60 0 97.5 37.5t44.5 100.5h106q-2 -114 -69.5 -178t-178.5 -64q-114 0 -178.5 64.5t-67.5 177.5z" />
    <glyph glyph-name="dotaccent" unicode="&#x2d9;" 
d="M374 1216q0 -43 -29 -73.5t-71 -30.5q-44 0 -73 30.5t-29 73.5q0 44 29.5 74t74.5 30q41 0 69.5 -30t28.5 -74z" />
    <glyph glyph-name="ring" unicode="&#x2da;" horiz-adv-x="800" 
d="M194 1256q0 81 58 135.5t150 54.5q91 0 147.5 -53.5t56.5 -136.5q0 -79 -58.5 -132.5t-145.5 -53.5q-90 0 -149 53.5t-59 132.5zM504 1258q0 46 -28.5 78t-75.5 32q-44 0 -72 -32.5t-28 -79.5q0 -43 29 -75.5t71 -32.5q46 0 75 31.5t29 78.5z" />
    <glyph glyph-name="ogonek" unicode="&#x2db;" 
d="M324 0h114q-86 -46 -138 -106t-52 -112q0 -40 25 -64t61 -24q58 0 100 20l18 -82q-65 -32 -152 -32q-77 0 -124.5 43t-47.5 115q0 49 32.5 102t90 96.5t73.5 43.5z" />
    <glyph glyph-name="tilde" unicode="&#x2dc;" 
d="M146 1124h-94q0 95 34.5 149.5t97.5 54.5q45 0 130 -46q60 -34 92 -34q47 0 52 86h92q0 -198 -136 -198q-49 0 -126 44q-60 34 -90 34q-45 0 -52 -90z" />
    <glyph glyph-name="hungarumlaut" unicode="&#x2dd;" 
d="M240 1376h180l-220 -274h-116zM536 1376h180l-220 -274h-116z" />
    <glyph glyph-name="pi" unicode="&#x3c0;" horiz-adv-x="1152" 
d="M942 824v-530q0 -60 2.5 -106t6.5 -81.5t9 -61t10 -45.5h-180q-15 23 -23.5 90t-8.5 186v548h-324q-2 -63 -8.5 -138.5t-16 -154t-22 -157t-27 -149t-30.5 -128.5t-34 -97h-180q18 47 35 108.5t31.5 132t27 146.5t22 152t15.5 149t7 136q-59 0 -111 -3.5t-93 -14.5
l-24 110q17 12 42 21.5t59.5 16.5t80.5 10.5t106 3.5h786l-20 -144h-138z" />
    <glyph glyph-name="endash" unicode="&#x2013;" horiz-adv-x="1000" 
d="M60 568h880v-124h-880v124z" />
    <glyph glyph-name="emdash" unicode="&#x2014;" horiz-adv-x="2000" 
d="M60 568h1880v-124h-1880v124z" />
    <glyph glyph-name="quoteleft" unicode="&#x2018;" horiz-adv-x="428" 
d="M262 912l-190 -20q86 295 190 482l120 12q-81 -228 -120 -474z" />
    <glyph glyph-name="quoteright" unicode="&#x2019;" horiz-adv-x="428" 
d="M192 1366l190 20q-86 -295 -190 -482l-120 -12q81 228 120 474z" />
    <glyph glyph-name="quotesinglbase" unicode="&#x201a;" horiz-adv-x="428" 
d="M160 -220l-120 -12q81 228 120 474l190 20q-86 -295 -190 -482z" />
    <glyph glyph-name="quotedblleft" unicode="&#x201c;" horiz-adv-x="734" 
d="M262 912l-192 -20q88 301 192 482l118 12q-77 -218 -118 -474zM568 912l-190 -20q83 296 190 482l120 12q-81 -228 -120 -474z" />
    <glyph glyph-name="quotedblright" unicode="&#x201d;" horiz-adv-x="734" 
d="M190 1366l190 20q-80 -283 -190 -482l-120 -12q81 228 120 474zM496 1366l192 20q-88 -301 -192 -482l-118 -12q77 218 118 474z" />
    <glyph glyph-name="quotedblbase" unicode="&#x201e;" horiz-adv-x="738" 
d="M160 -220l-120 -12q81 228 120 474l190 20q-80 -283 -190 -482zM466 -220l-118 -12q77 218 118 474l192 20q-88 -301 -192 -482z" />
    <glyph glyph-name="dagger" unicode="&#x2020;" horiz-adv-x="1032" 
d="M428 1348h174l-16 -424l356 16v-152l-356 16l16 -904h-174l16 904l-356 -16v152l356 -16z" />
    <glyph glyph-name="daggerdbl" unicode="&#x2021;" horiz-adv-x="1032" 
d="M430 1348h172l-14 -400l356 16v-152l-356 16v-398l356 16v-152l-356 16l12 -410h-170l12 410l-354 -16v152l356 -16v398l-356 -16v152l356 -16z" />
    <glyph glyph-name="bullet" unicode="&#x2022;" horiz-adv-x="578" 
d="M506 688q0 -89 -63 -151.5t-153 -62.5t-153 62.5t-63 151.5q0 90 63 153t153 63t153 -63t63 -153z" />
    <glyph glyph-name="ellipsis" unicode="&#x2026;" horiz-adv-x="2000" 
d="M458 108q0 -56 -35.5 -93t-90.5 -37q-54 0 -89 37.5t-35 92.5q0 57 35.5 94.5t90.5 37.5t89.5 -36.5t34.5 -95.5zM1122 108q0 -56 -35.5 -93t-90.5 -37q-54 0 -89 37.5t-35 92.5q0 57 35.5 94.5t90.5 37.5t89.5 -36.5t34.5 -95.5zM1786 108q0 -56 -35.5 -93t-90.5 -37
q-54 0 -89 37.5t-35 92.5q0 57 35.5 94.5t90.5 37.5t89.5 -36.5t34.5 -95.5z" />
    <glyph glyph-name="perthousand" unicode="&#x2030;" horiz-adv-x="2384" 
d="M60 914q0 186 92 297t234 111q144 0 228 -102.5t84 -283.5q0 -196 -93 -304t-231 -108q-137 0 -225.5 104.5t-88.5 285.5zM552 926q0 136 -44 211t-126 75q-78 0 -125 -80t-47 -210q0 -128 45.5 -208t126.5 -80q82 0 126 76.5t44 215.5zM486 -22h-118l772 1344h116z
M932 376q0 190 93 299t233 109q144 0 228 -102.5t84 -283.5q0 -196 -93 -304t-231 -108q-137 0 -225.5 104.5t-88.5 285.5zM1424 388q0 129 -41.5 207.5t-128.5 78.5q-78 0 -125 -80t-47 -210q0 -131 46.5 -209.5t125.5 -78.5q82 0 126 76.5t44 215.5zM1686 376
q0 186 91.5 297t232.5 111q144 0 228 -102.5t84 -283.5q0 -196 -92.5 -304t-229.5 -108t-225.5 104.5t-88.5 285.5zM2176 388q0 129 -40.5 207.5t-127.5 78.5q-78 0 -125 -80t-47 -210t46.5 -209t123.5 -79q82 0 126 76.5t44 215.5z" />
    <glyph glyph-name="guilsinglleft" unicode="&#x2039;" horiz-adv-x="524" 
d="M474 876l-270 -370l272 -372h-148l-270 372l268 370h148z" />
    <glyph glyph-name="guilsinglright" unicode="&#x203a;" horiz-adv-x="524" 
d="M318 506l-272 370h148l270 -370l-270 -372h-146z" />
    <glyph glyph-name="fraction" unicode="&#x2044;" horiz-adv-x="852" 
d="M102 -22h-118l766 1344h118z" />
    <glyph glyph-name="Euro" unicode="&#x20ac;" horiz-adv-x="1062" 
d="M1026 64q-50 -33 -128.5 -59.5t-181.5 -26.5q-131 0 -241 47.5t-187 138.5q-114 126 -144 332h-126v104h116v28q0 23 1 45t3 43h-120v104h136q18 101 60 184.5t104 145.5q80 81 182 126.5t230 45.5q95 0 166 -20.5t116 -43.5l-42 -140q-41 23 -102 39.5t-132 16.5
q-170 0 -276 -112q-44 -42 -73 -105t-43 -137h578v-104h-598q-3 -20 -3.5 -40.5t-0.5 -41.5v-34h602v-104h-586q12 -81 40 -143.5t70 -106.5q56 -59 130.5 -87.5t159.5 -28.5q41 0 79 6.5t71 17t59.5 22.5t44.5 22z" />
    <glyph glyph-name="litre" unicode="&#x2113;" horiz-adv-x="1040" 
d="M402 592q127 125 196.5 257t69.5 263q0 99 -35 142.5t-91 43.5q-27 0 -52 -16t-44.5 -49.5t-31.5 -85.5t-12 -125v-430zM982 234q-75 -132 -180.5 -193t-237.5 -61q-78 0 -137 24t-100 66t-65 100t-32 126q-2 5 -2 8v6q-29 -20 -56 -38t-56 -36l-54 104q41 29 83 58.5
t81 61.5v526q0 117 25 200.5t69 137.5t104 79t130 25q62 0 112 -22.5t84.5 -64t53 -99t18.5 -128.5q0 -91 -27 -178.5t-80 -173t-131.5 -171.5t-181.5 -175v-22q2 -71 17.5 -120.5t42.5 -80t64.5 -44t81.5 -13.5q51 0 94 18t78 45t62 59t46 60z" />
    <glyph glyph-name="trademark" unicode="&#x2122;" horiz-adv-x="1646" 
d="M28 1348h626v-108h-250v-688h-128v688h-248v108zM1566 552h-126q-33 481 -34 539l-8 155q-39 -148 -74 -245l-160 -437h-98l-163 465l-63 217l-5 -175l-31 -519h-120l60 796h170l152 -418l64 -208q43 170 56 204l156 422h164z" />
    <glyph glyph-name="Omega" unicode="&#x2126;" horiz-adv-x="1470" 
d="M1106 146h304v-146h-530v116q62 41 118 99t98.5 132.5t68 163.5t25.5 191q-1 93 -30 186t-85.5 167t-140.5 120.5t-194 46.5q-109 0 -195 -44t-144.5 -117t-89.5 -167t-31 -194q0 -95 25.5 -184.5t69 -166t100 -136.5t117.5 -97v-116h-532v146h300v6q-52 40 -101 96.5
t-87 127.5t-61 156t-23 182q0 143 49.5 263.5t137.5 207.5t208 136t261 49q147 0 265 -50t201 -137t127.5 -203t44.5 -248q0 -104 -24 -192.5t-63 -161t-88.5 -129t-100.5 -97.5v-6z" />
    <glyph glyph-name="estimated" unicode="&#x212e;" horiz-adv-x="1634" 
d="M354 632q-10 0 -10 -8v-366q0 -12 5 -22.5t13 -19.5q86 -92 204 -145t254 -53q72 0 139.5 15.5t129 44.5t115 70t96.5 92h110q-51 -59 -116 -107.5t-141 -83t-160.5 -53t-174.5 -18.5q-103 0 -198.5 24t-178.5 67.5t-151.5 105t-117 136t-75.5 160.5t-27 179t27 179
t75.5 160.5t117 136t151.5 105t178.5 67.5t198.5 24q155 0 290.5 -52.5t237 -144t160 -213.5t58.5 -262v-18h-1210zM1292 1048q0 14 -5.5 24.5t-14.5 19.5q-88 88 -203.5 139t-248.5 51q-136 0 -252 -52.5t-204 -143.5q-9 -9 -14.5 -20.5t-5.5 -25.5v-360q0 -10 10 -10h928
q10 0 10 10v368z" />
    <glyph glyph-name="partialdiff" unicode="&#x2202;" horiz-adv-x="1094" 
d="M116 1344q26 18 60 37.5t79 35.5t100.5 26.5t122.5 10.5q108 0 206.5 -47t173.5 -138t119.5 -223.5t44.5 -303.5q0 -188 -45.5 -331t-122.5 -239t-178 -145t-212 -49q-106 0 -184 37.5t-129 97.5t-76 136t-25 153q0 100 34.5 188.5t94.5 154.5t142 104.5t177 38.5
q66 0 121.5 -17t99 -43.5t73.5 -58.5t46 -61h2q3 15 3.5 33t0.5 35q0 129 -32.5 227t-86.5 164t-123 99.5t-142 33.5q-51 0 -94 -7.5t-78.5 -19.5t-63.5 -26.5t-48 -28.5zM482 130q68 0 125 34.5t100.5 91.5t72.5 132t40 156q-13 37 -39.5 72t-64 62.5t-84.5 44.5t-102 17
q-61 0 -114 -25.5t-92.5 -70.5t-62.5 -106t-23 -132q0 -64 17.5 -115t49.5 -87t76.5 -55t98.5 -19h2z" />
    <glyph glyph-name="Delta" unicode="&#x2206;" horiz-adv-x="1184" 
d="M54 0v104l434 1206h212l430 -1206v-104h-1076zM688 838q-12 35 -25.5 76.5t-27 83.5t-25.5 81.5t-22 70.5h-6q-7 -24 -17 -58t-21.5 -72.5t-24 -78.5t-23.5 -75l-254 -714h688z" />
    <glyph glyph-name="product" unicode="&#x220f;" horiz-adv-x="1276" 
d="M1062 1146v-1326h-176v1326h-496v-1326h-178v1326h-194v154h1238v-154h-194z" />
    <glyph glyph-name="summation" unicode="&#x2211;" horiz-adv-x="1048" 
d="M18 -180v110l514 626l-488 620v124h956v-154h-716v-6l454 -578l-476 -582v-6h802v-154h-1046z" />
    <glyph glyph-name="minus" unicode="&#x2212;" horiz-adv-x="1192" 
d="M80 598h1032v-126h-1032v126z" />
    <glyph glyph-name="uni2219" unicode="&#x2219;" horiz-adv-x="424" 
d="M336 546q0 -56 -35.5 -93t-90.5 -37q-54 0 -89 37.5t-35 92.5q0 57 35.5 94.5t90.5 37.5t89.5 -36.5t34.5 -95.5z" />
    <glyph glyph-name="radical" unicode="&#x221a;" horiz-adv-x="1134" 
d="M710 -188h-136l-326 852l-150 -62l-38 96l282 120l252 -690q12 -30 21 -63.5t17 -62.5h2q6 27 13 61t15 67l376 1526h138z" />
    <glyph glyph-name="infinity" unicode="&#x221e;" horiz-adv-x="1460" 
d="M1084 230q-55 0 -104 19.5t-92.5 50.5t-82.5 68.5t-75 73.5q-39 -38 -79 -76t-84.5 -68t-95.5 -49t-113 -19q-64 0 -117 22t-91.5 61.5t-60 94.5t-21.5 120q0 60 23 114t63.5 95t96.5 65t123 24q56 0 105.5 -19.5t93 -50.5t82.5 -68.5t75 -73.5q39 38 79 76t84.5 68
t96 49t112.5 19q64 0 117 -22t91.5 -61.5t60 -94.5t21.5 -120q0 -60 -23 -114t-63.5 -95t-96.5 -65t-123 -24h-2zM1088 354q36 0 67.5 14t54.5 38t36.5 55.5t13.5 66.5q0 38 -12.5 69.5t-35 55t-53.5 36.5t-67 13q-42 0 -80.5 -16t-73 -41.5t-65.5 -56.5t-59 -60
q29 -26 59 -56.5t63 -56.5t70 -43.5t80 -17.5h2zM370 354q41 0 79 16t72.5 41.5t65.5 56.5t59 60q-28 26 -58.5 56.5t-63.5 56.5t-70 43.5t-80 17.5q-37 0 -68.5 -14t-55 -38t-37 -55.5t-13.5 -66.5q0 -37 13 -69t35.5 -55.5t53 -36.5t66.5 -13h2z" />
    <glyph glyph-name="integral" unicode="&#x222b;" horiz-adv-x="638" 
d="M598 1460q-12 3 -27.5 5.5t-32.5 2.5q-27 0 -52 -10.5t-42 -33.5q-15 -19 -26 -45t-18 -63.5t-10.5 -88t-3.5 -117.5q0 -109 4 -226t9 -237t9 -239.5t4 -233.5q0 -146 -25 -237t-61 -139q-35 -51 -86.5 -76.5t-111.5 -25.5q-35 0 -66 6t-46 14l24 120q14 -3 32.5 -6.5
t41.5 -3.5q24 0 47 9.5t43 32.5q12 15 23 38t20 58.5t14 86.5t5 121q0 115 -4 236.5t-9 243t-9 241t-4 229.5q0 76 6.5 136t19.5 107.5t33 84.5t47 66q38 39 84.5 57.5t99.5 18.5q29 0 53 -4t39 -10z" />
    <glyph glyph-name="approxequal" unicode="&#x2248;" horiz-adv-x="1192" 
d="M1140 752q-24 -31 -57 -60t-72.5 -51.5t-84.5 -35.5t-92 -13q-43 0 -79 7.5t-67 18t-57.5 23.5t-50.5 23q-22 9 -46.5 21t-52.5 22.5t-59.5 17.5t-69.5 7q-34 0 -67.5 -10.5t-63.5 -27.5t-56.5 -38.5t-46.5 -43.5l-72 88q24 29 57 57.5t73 51t85 36t93 13.5
q44 0 79.5 -7.5t66 -18.5t57 -23.5t51.5 -22.5q23 -10 47 -21.5t51 -22t59 -17.5t69 -7q35 0 68 11t62.5 28.5t54.5 38.5t43 40zM1148 356q-23 -32 -56.5 -62t-73.5 -52.5t-84.5 -36t-91.5 -13.5q-43 0 -79 7.5t-67 18.5t-57.5 23.5t-50.5 22.5q-22 10 -46.5 21.5t-52.5 22
t-60.5 17.5t-70.5 7q-33 0 -66 -10.5t-63 -27t-56.5 -37.5t-46.5 -43l-72 88q24 30 57.5 58t73 50t84.5 35t91 13q44 0 80 -7.5t67 -18t57.5 -23t51.5 -23.5q23 -9 47 -20.5t51 -22t59 -18t69 -7.5q35 0 68 10.5t63 27.5t56 38.5t45 43.5z" />
    <glyph glyph-name="notequal" unicode="&#x2260;" horiz-adv-x="1192" 
d="M1112 276h-608l-160 -286l-118 66l124 220h-270v126h344l156 284h-500v126h576l166 302l114 -66l-128 -236h304v-126h-380l-154 -284h534v-126z" />
    <glyph glyph-name="lessequal" unicode="&#x2264;" horiz-adv-x="1192" 
d="M1062 1222v-128l-784 -358l784 -354v-130l-934 422v126zM128 0v126h934v-126h-934z" />
    <glyph glyph-name="greaterequal" unicode="&#x2265;" horiz-adv-x="1192" 
d="M130 1222l934 -422v-126l-934 -422v130l782 354l-782 358v128zM130 0v126h934v-126h-934z" />
    <glyph glyph-name="lozenge" unicode="&#x25ca;" horiz-adv-x="942" 
d="M412 0l-376 722l376 706h120l376 -706l-376 -722h-120zM180 722l292 -574l292 574l-292 558z" />
    <glyph glyph-name="apple" unicode="&#xf000;" horiz-adv-x="436" 
 />
    <glyph glyph-name="four.superior" unicode="&#xf003;" horiz-adv-x="654" 
d="M552 534h-140v202h-412v82l394 506h158v-486h122v-102h-122v-202zM412 838v236q0 17 2 124l-39 -65q-19 -30 -73 -100l-150 -195h260z" />
    <glyph glyph-name="pi.1" unicode="&#xf006;" horiz-adv-x="1152" 
d="M942 824v-530q0 -60 2.5 -106t6.5 -81.5t9 -61t10 -45.5h-180q-15 23 -23.5 90t-8.5 186v548h-324q-2 -63 -8.5 -138.5t-16 -154t-22 -157t-27 -149t-30.5 -128.5t-34 -97h-180q18 47 35 108.5t31.5 132t27 146.5t22 152t15.5 149t7 136q-59 0 -111 -3.5t-93 -14.5
l-24 110q17 12 42 21.5t59.5 16.5t80.5 10.5t106 3.5h786l-20 -144h-138z" />
    <glyph glyph-name="acute.cap" unicode="&#xf100;" 
d="M282 1668h222l-256 -238h-152z" />
    <glyph glyph-name="dieresis.cap" unicode="&#xf101;" 
d="M214 1574q0 -43 -28.5 -73.5t-71.5 -30.5q-44 0 -74 30.5t-30 73.5t30 73.5t74 30.5q42 0 71 -30.5t29 -73.5zM590 1574q0 -43 -28.5 -73.5t-71.5 -30.5q-45 0 -74.5 30.5t-29.5 73.5t29.5 73.5t72.5 30.5t72.5 -30t29.5 -74z" />
    <glyph glyph-name="circumflex.cap" unicode="&#xf102;" 
d="M230 1688h136l212 -238h-152l-130 146l-128 -146h-146z" />
    <glyph glyph-name="tilde.cap" unicode="&#xf103;" 
d="M140 1450h-96q0 105 39 153.5t97 48.5q50 0 126 -40q68 -36 98 -36q27 0 40.5 17t17.5 67h94q0 -198 -138 -198q-47 0 -126 38q-80 38 -100 38q-42 0 -52 -88z" />
    <glyph glyph-name="macron.cap" unicode="&#xf104;" 
d="M56 1608h488v-114h-488v114z" />
    <glyph glyph-name="breve.cap" unicode="&#xf105;" 
d="M46 1672h110q16 -112 144 -112q134 0 146 112h108q-3 -103 -69.5 -159.5t-186.5 -56.5q-117 0 -182.5 56.5t-69.5 159.5z" />
    <glyph glyph-name="dotaccent.cap" unicode="&#xf106;" 
d="M402 1574q0 -42 -29 -73t-71 -31t-73 31.5t-31 72.5t31 72.5t73 31.5q41 0 70.5 -31.5t29.5 -72.5z" />
    <glyph glyph-name="ring.cap" unicode="&#xf107;" 
d="M96 1520q0 78 57 131t149 53q90 0 146 -52.5t56 -131.5q0 -76 -56.5 -127t-145.5 -51q-90 0 -148 51t-58 127zM400 1522q0 44 -27.5 75t-70.5 31t-70.5 -31t-27.5 -77q0 -41 27.5 -71.5t68.5 -30.5q44 0 72 29.5t28 74.5z" />
    <glyph glyph-name="cedilla.cap" unicode="&#xf108;" 
d="M288 4h112l-64 -104q62 -8 101 -46t39 -90q0 -85 -59.5 -124.5t-154.5 -39.5q-80 0 -138 36l30 86q54 -28 110 -28q86 0 86 62q0 69 -158 82z" />
    <glyph glyph-name="hungarumlaut.cap" unicode="&#xf109;" 
d="M130 1688h200l-224 -228h-138zM432 1688h200l-226 -228h-136z" />
    <glyph glyph-name="ogonek.cap" unicode="&#xf110;" 
d="M334 0h114q-86 -46 -138 -106t-52 -112q0 -40 24.5 -64t61.5 -24q58 0 100 20l18 -82q-65 -32 -152 -32q-77 0 -124.5 43t-47.5 115q0 49 32.5 102t90 96.5t73.5 43.5z" />
    <glyph glyph-name="caron.cap" unicode="&#xf111;" 
d="M370 1450h-136l-212 238h150l134 -146l126 146h146z" />
    <glyph glyph-name="grave.cap" unicode="&#xf112;" horiz-adv-x="601" 
d="M96 1688h224l184 -236h-150z" />
    <glyph glyph-name="commaaccent" unicode="&#xf6c3;" 
d="M220 -478l-106 -10q63 169 98 388l164 16q-69 -245 -156 -394z" />
    <glyph glyph-name="f_i.1" unicode="&#xfb01;" horiz-adv-x="1080" 
d="M352 0h-186v826h-136v142h136v52q0 199 115.5 312.5t320.5 113.5q68 0 141.5 -18.5t114.5 -47.5l-52 -142q-89 58 -212 58q-244 0 -244 -282v-46h580v-968h-186v826h-392v-826z" />
    <glyph glyph-name="f_l.1" unicode="&#xfb02;" horiz-adv-x="1080" 
d="M352 0h-186v826h-136v142h136v40q0 194 116.5 316t345.5 122q171 0 302 -66v-1380h-186v1276q-49 26 -146 26q-121 0 -184.5 -75.5t-63.5 -212.5v-46h230v-142h-228v-826z" />
    <glyph glyph-name="NULL" horiz-adv-x="0" 
 />
    <glyph glyph-name="uni2215" horiz-adv-x="852" 
d="M102 -22h-118l766 1344h118z" />
    </font>
</defs>
</svg>
