<?xml version="1.0" standalone="no"?>
<!DOCTYPE svg PUBLIC "-//W3C//DTD SVG 1.1//EN" "http://www.w3.org/Graphics/SVG/1.1/DTD/svg11.dtd" >
<svg>
<metadata>
Created by FontForge 20090622 at Wed Jun 10 19:01:03 2015
 By deploy user
Copyright (c) 1988, 1990, 1995 Adobe Systems Incorporated.  All Rights Reserved.Frutiger is a registered trademark of Linotype AG and/or its subsidiaries.
</metadata>
<defs>
<font id="FrutigerCE-BlackItalic" horiz-adv-x="611" >
  <font-face 
    font-family="Frutiger CE 55 Roman"
    font-weight="700"
    font-style="italic"
    font-stretch="normal"
    units-per-em="1000"
    panose-1="2 0 10 3 5 0 0 9 0 4"
    ascent="800"
    descent="-200"
    x-height="521"
    cap-height="698"
    bbox="-192 -253 1090 946"
    underline-thickness="50"
    underline-position="-75"
    slope="-12"
    unicode-range="U+0020-U+FB02"
  />
<missing-glyph horiz-adv-x="306" 
 />
    <glyph glyph-name=".notdef" horiz-adv-x="306" 
 />
    <glyph glyph-name="exclam" unicode="!" horiz-adv-x="444" 
d="M153 229h138l124 469h-186zM89 0h169l34 162h-169z" />
    <glyph glyph-name="quotedbl" unicode="&#x22;" 
d="M408 427h132v271h-132v-271zM213 427h132v271h-132v-271z" />
    <glyph glyph-name="numbersign" unicode="#" horiz-adv-x="612" 
d="M77 187h84l-26 -187h106l26 187h87l-26 -187h105l26 187h84l10 108h-79l15 110h84l10 108h-79l25 185h-105l-25 -185h-87l26 185h-106l-26 -185h-89l-10 -108h84l-15 -110h-89zM369 295h-87l15 110h87z" />
    <glyph glyph-name="dollar" unicode="$" horiz-adv-x="612" 
d="M322 447q-29 8 -45 22t-16 37q0 32 25.5 53t66.5 25zM354 280q25 -11 43.5 -26t18.5 -41q0 -22 -8.5 -37.5t-22 -26t-31.5 -17t-36 -9.5zM199 -93h70l19 81q58 2 111 17.5t92.5 46t63 78t23.5 113.5q0 48 -17 80t-44 53.5t-61 34.5t-68 23l34 150q41 -2 80 -12.5
t76 -27.5l44 133q-32 11 -76 21t-95 12l18 80h-70l-18 -80q-51 0 -101.5 -13.5t-90.5 -41.5t-65 -70t-25 -99q-2 -43 14 -73.5t43 -52.5t61 -37t70 -26l-40 -177q-52 3 -96.5 11t-87.5 29l-44 -138q29 -13 83 -23.5t116 -10.5z" />
    <glyph glyph-name="percent" unicode="%" horiz-adv-x="1000" 
d="M576 143q0 -70 40.5 -112.5t114.5 -42.5q50 0 87.5 19t62.5 50t37.5 70.5t12.5 81.5q0 74 -42 116t-117 42q-48 0 -84.5 -19.5t-61.5 -51t-37.5 -71.5t-12.5 -82zM702 124q0 13 3.5 39t12 51t21.5 44t31 19q13 0 20 -6t10.5 -15t4 -18.5t0.5 -15.5q0 -12 -4.5 -36
t-13.5 -48t-23 -42t-32 -18q-10 0 -16 5t-9 12.5t-4 15.5t-1 13zM120 486q0 -70 40.5 -112.5t114.5 -42.5q50 0 87.5 19t62.5 50t37.5 70.5t12.5 81.5q0 74 -42 116t-117 42q-48 0 -84.5 -19.5t-61.5 -51t-37.5 -71.5t-12.5 -82zM246 467q0 13 3.5 39t12 51t21.5 44t31 19
q13 0 20 -6t10.5 -15t4 -18.5t0.5 -15.5q0 -15 -4.5 -39.5t-13.5 -48t-23 -40t-32 -16.5q-10 0 -16 5t-9 12.5t-4 15.5t-1 13zM201 -22h110l540 742h-110z" />
    <glyph glyph-name="ampersand" unicode="&#x26;" horiz-adv-x="778" 
d="M316 529q0 33 23 52t61 19q29 0 49.5 -17t20.5 -46q0 -20 -11 -35.5t-28 -27.5t-36.5 -20.5t-35.5 -12.5q-14 14 -28.5 37.5t-14.5 50.5zM528 0h190l-102 125q30 19 54.5 47.5t42.5 62t30.5 70t18.5 72.5h-143q-9 -46 -30.5 -85.5t-53.5 -66.5l-50.5 64.5t-53.5 62.5
q35 10 69 27t60.5 40.5t43 54t16.5 68.5q0 46 -19 78t-49.5 52t-70 29t-79.5 9q-42 0 -85.5 -11.5t-78 -35t-56.5 -58t-22 -80.5q0 -45 17 -76t45 -58q-38 -9 -70.5 -25t-56.5 -40.5t-38 -57.5t-14 -74q0 -54 18.5 -93t51.5 -64t77.5 -37t96.5 -12q25 0 53 2.5t56 8.5t54 16
t47 26zM205 186q0 21 7.5 38t20 30.5t28.5 23.5t34 18l66.5 -79l63.5 -76q-26 -14 -54.5 -23.5t-65.5 -9.5q-48 0 -74 20t-26 58z" />
    <glyph glyph-name="quotesingle" unicode="'" horiz-adv-x="333" 
d="M159 427h132v271h-132v-271z" />
    <glyph glyph-name="parenleft" unicode="(" horiz-adv-x="389" 
d="M365 756q-67 -55 -119.5 -116t-88.5 -130.5t-54.5 -147t-18.5 -165.5t26 -170t69 -167h136q-36 78 -52.5 157t-16.5 158q0 172 68 316t187 265h-136z" />
    <glyph glyph-name="parenright" unicode=")" horiz-adv-x="389" 
d="M82 -140q134 109 207.5 246t73.5 313q0 88 -26 170t-69 167h-136q36 -78 52.5 -157t16.5 -158q0 -173 -68 -316.5t-187 -264.5h136z" />
    <glyph glyph-name="asterisk" unicode="*" 
d="M381 290l105 49l-74 117h145l-16 117l-140 -36l48 140l-120 21l-4 -150l-121 90l-59 -105l138 -53l-125 -85l80 -88l100 118z" />
    <glyph glyph-name="plus" unicode="+" horiz-adv-x="600" 
d="M62 190h190v-190h126v190h190v126h-190v190h-126v-190h-190v-126z" />
    <glyph glyph-name="comma" unicode="," horiz-adv-x="306" 
d="M-61 -109h144l149 271h-178z" />
    <glyph glyph-name="hyphen" unicode="-" horiz-adv-x="333" 
d="M30 203h270l27 132h-271z" />
    <glyph glyph-name="hyphen" unicode="&#xad;" horiz-adv-x="333" 
d="M30 203h270l27 132h-271z" />
    <glyph glyph-name="period" unicode="." horiz-adv-x="306" 
d="M20 0h169l34 162h-169z" />
    <glyph glyph-name="slash" unicode="/" horiz-adv-x="278" 
d="M-40 -12h126l295 722h-126z" />
    <glyph glyph-name="zero" unicode="0" horiz-adv-x="612" 
d="M446 494q0 -19 -3.5 -54t-11 -77.5t-20 -86.5t-30 -80t-41.5 -59t-54 -23q-68 0 -68 89q0 19 4 54.5t12 77.5t21 86.5t31.5 80.5t42.5 59t55 23q62 -2 62 -90zM48 241q0 -122 60.5 -187.5t174.5 -65.5q81 0 143.5 38t104.5 102t63.5 149t21.5 180q0 123 -60.5 188
t-174.5 65q-83 0 -145.5 -39.5t-104 -105t-62.5 -150t-21 -174.5z" />
    <glyph glyph-name="one" unicode="1" horiz-adv-x="612" 
d="M206 0h186l147 698h-161l-260 -151l68 -127l138 94z" />
    <glyph glyph-name="two" unicode="2" horiz-adv-x="612" 
d="M1 0h502l27 132h-246v2l104 72.5t99 83.5t74 99t29 121q0 54 -20.5 92t-53.5 62t-75 35t-85 11q-57 0 -106 -8.5t-95 -22.5l-18 -158q36 20 81.5 35.5t87.5 15.5q41 0 69.5 -23t28.5 -76q0 -32 -22.5 -64.5t-69 -73t-118.5 -92.5l-171 -122z" />
    <glyph glyph-name="three" unicode="3" horiz-adv-x="612" 
d="M176 292q15 2 32.5 2.5t32.5 0.5q19 0 40 -2t38.5 -9.5t29 -22.5t11.5 -40q0 -27 -12 -45.5t-31.5 -29.5t-43.5 -15.5t-48 -4.5q-51 0 -94 9.5t-89 30.5l-35 -134q46 -23 106 -33.5t118 -10.5q54 0 109.5 10t101.5 35.5t75 68.5t29 108q0 62 -33.5 95t-93.5 47v2
q39 4 73 17.5t58.5 36.5t38.5 55t14 73q0 49 -22 82t-56.5 53.5t-78 29.5t-85.5 9q-25 0 -52 -2t-53 -5.5t-50.5 -8t-43.5 -9.5l-18 -145q30 13 75 22.5t84 9.5q20 0 40.5 -3.5t37 -12t26.5 -23t10 -36.5q0 -29 -16 -45t-38.5 -24.5t-47 -10.5t-42.5 -2q-19 0 -38 0.5
t-34 3.5z" />
    <glyph glyph-name="four" unicode="4" horiz-adv-x="612" 
d="M334 259h-168l237 295h2zM271 0h175l29 133h100l25 126h-98l95 439h-207l-375 -439l-21 -126h305z" />
    <glyph glyph-name="five" unicode="5" horiz-adv-x="612" 
d="M639 698h-456l-79 -373q32 7 65.5 11t68.5 4q27 0 52.5 -5t45 -17t31.5 -31.5t12 -47.5q0 -30 -13 -51.5t-35 -35t-50.5 -20t-59.5 -6.5q-35 0 -75.5 8t-82.5 32l-28 -137q22 -10 48 -17.5t53 -13t54 -8t51 -2.5q58 0 116 16.5t104.5 49.5t75 82t28.5 113
q0 110 -72.5 160.5t-198.5 50.5l22 112h300z" />
    <glyph glyph-name="six" unicode="6" horiz-adv-x="612" 
d="M406 231q0 -21 -6 -43t-17.5 -39.5t-29.5 -29t-42 -11.5q-23 0 -39.5 8t-26.5 21.5t-14.5 31t-4.5 36.5t5.5 40t18 38.5t32 29t46.5 11.5q38 0 58 -27.5t20 -65.5zM634 658q-45 26 -96 39t-102 13q-101 0 -172 -39t-115.5 -104t-64.5 -148.5t-20 -173.5q0 -119 66.5 -188
t189.5 -69q57 0 104.5 17t81 49.5t52 78.5t18.5 103q0 49 -14.5 87.5t-41 65.5t-63 41t-80.5 14q-32 0 -62.5 -9.5t-56.5 -29.5l-2 2q7 34 20 65t35 54.5t53.5 37.5t76.5 14q39 0 78.5 -11.5t71.5 -33.5z" />
    <glyph glyph-name="seven" unicode="7" horiz-adv-x="612" 
d="M646 698h-507l-27 -132h312l-378 -566h212l354 540z" />
    <glyph glyph-name="eight" unicode="8" horiz-adv-x="612" 
d="M108 502q0 -43 24.5 -78t66.5 -55q-33 -11 -63.5 -26.5t-54 -38.5t-37.5 -55t-14 -77q0 -43 21.5 -77t57.5 -58t82.5 -36.5t96.5 -12.5q88 0 142 23t83.5 56t39.5 68.5t10 60.5q0 60 -32 97.5t-87 56.5v2v-1q34 6 64.5 21.5t54 39t37.5 53t14 64.5q0 50 -20.5 84.5
t-54.5 56t-77.5 31t-89.5 9.5q-59 0 -107.5 -14t-83 -41t-54 -65.5t-19.5 -87.5zM393 203q0 -39 -30 -64t-72 -25q-39 0 -65 20.5t-26 53.5q0 21 9.5 39t25 32t35 24.5t40.5 17.5q38 -17 60.5 -40t22.5 -58zM278 510q0 15 7.5 29.5t20.5 26t29 18t33 6.5q31 0 53.5 -17
t22.5 -53q0 -19 -9.5 -35t-24.5 -29t-34.5 -23t-38.5 -17q-23 17 -41 41t-18 53z" />
    <glyph glyph-name="nine" unicode="9" horiz-adv-x="612" 
d="M253 467q0 21 6 43t17.5 39.5t29.5 29t42 11.5q23 0 39.5 -8t26.5 -21.5t14.5 -31t4.5 -36.5t-5.5 -40t-18 -38.5t-32 -29t-46.5 -11.5q-38 0 -58 27.5t-20 65.5zM25 40q45 -26 96 -39t102 -13q101 0 172 39t115.5 104t64.5 148.5t20 173.5q0 119 -66.5 188t-189.5 69
q-57 0 -104.5 -17t-81 -49.5t-52 -78.5t-18.5 -103q0 -49 14.5 -87.5t40.5 -65.5t63 -41t81 -14q32 0 62.5 9.5t56.5 29.5l2 -2q-8 -34 -20.5 -65t-34.5 -54.5t-53.5 -37.5t-76.5 -14q-39 0 -78.5 11.5t-71.5 33.5z" />
    <glyph glyph-name="colon" unicode=":" horiz-adv-x="306" 
d="M95 359h169l34 162h-169zM20 0h169l34 162h-169z" />
    <glyph glyph-name="semicolon" unicode=";" horiz-adv-x="306" 
d="M-61 -109h144l149 271h-178zM95 359h169l34 162h-169z" />
    <glyph glyph-name="semicolon" unicode="&#x37e;" horiz-adv-x="306" 
d="M-61 -109h144l149 271h-178zM95 359h169l34 162h-169z" />
    <glyph glyph-name="less" unicode="&#x3c;" horiz-adv-x="600" 
d="M568 514l-506 -208v-106l506 -208v122l-341 139l341 139v122z" />
    <glyph glyph-name="equal" unicode="=" horiz-adv-x="600" 
d="M62 305h506v126h-506v-126zM62 75h506v126h-506v-126z" />
    <glyph glyph-name="greater" unicode="&#x3e;" horiz-adv-x="600" 
d="M62 -8l506 208v106l-506 208v-122l341 -139l-341 -139v-122z" />
    <glyph glyph-name="question" unicode="?" horiz-adv-x="556" 
d="M117 549q37 17 79.5 26t76.5 9q23 0 42.5 -6t34 -15t22.5 -21t8 -24q0 -24 -13 -44.5t-33.5 -40l-44 -40t-45 -45t-36.5 -55t-18 -69.5h142q10 30 31 53.5t46 45l52 43t49 47.5t36 58t14 75q0 46 -23.5 77t-60.5 50.5t-82 28t-88 8.5t-84.5 -7t-83.5 -17zM131 0h169
l34 162h-169z" />
    <glyph glyph-name="at" unicode="@" horiz-adv-x="800" 
d="M392 235q-42 0 -63 27.5t-21 68.5q0 20 6.5 39t18.5 34t29.5 24t39.5 9q38 0 60.5 -26t22.5 -67q0 -48 -24.5 -78.5t-68.5 -30.5zM613 137q-32 -23 -80 -38t-111 -15q-60 0 -110 17t-86 50.5t-55.5 82.5t-19.5 113q0 58 18.5 107t52 84.5t81.5 55.5t107 20
q134 0 196 -59.5t61 -167.5q0 -39 -8.5 -67t-20.5 -45.5t-27 -26t-29 -8.5q-8 0 -10.5 5.5t-2.5 13.5t3 21.5t7 33.5l34 209h-94l-9 -47q-22 30 -52.5 43.5t-67.5 13.5q-43 0 -78 -17t-60 -44.5t-38.5 -64t-13.5 -75.5q0 -42 12.5 -77.5t33.5 -61t49 -40t59 -14.5
q30 0 56.5 14.5t44.5 34.5h2q1 -25 16 -37t35 -12q14 0 38.5 5.5t52.5 18t57.5 33t53 51.5t38.5 73.5t15 97.5q0 67 -28 121t-75 92t-110 58.5t-132 20.5q-83 0 -153 -27.5t-120.5 -76t-79 -114.5t-28.5 -143q0 -79 29.5 -145t81.5 -114t123 -75t153 -27q91 0 164.5 38
t126.5 111h-102z" />
    <glyph glyph-name="A" unicode="A" horiz-adv-x="778" 
d="M-41 0h202l83 149h271l19 -149h188l-114 698h-234zM497 281h-180l148 273h2z" />
    <glyph glyph-name="B" unicode="B" horiz-adv-x="667" 
d="M318 566h48q26 0 47.5 -2.5t36.5 -9t23.5 -19.5t8.5 -34q0 -36 -32.5 -57.5t-91.5 -21.5h-70zM15 0l318 4q60 1 112.5 14.5t91 40.5t61 68t22.5 97q0 58 -37.5 92t-97.5 43v2q41 5 75 20t58 38t37 53.5t13 65.5q0 49 -20.5 80.5t-51 49t-64.5 24t-61 6.5h-310zM261 296
h45q31 0 55 -2.5t40.5 -10t24.5 -21t8 -36.5q0 -51 -43 -72.5t-114 -21.5h-50z" />
    <glyph glyph-name="C" unicode="C" horiz-adv-x="667" 
d="M737 673q-14 5 -35.5 11.5t-52 12t-70 9.5t-89.5 4q-98 0 -177 -29.5t-134 -82t-84.5 -125.5t-29.5 -160q0 -72 23.5 -132t69 -102.5t111.5 -66.5t150 -24q24 0 49.5 2t50 6t47 8.5t39.5 10.5l20 150q-37 -19 -81.5 -29t-95.5 -10q-42 0 -77 11t-60.5 33.5t-39.5 56.5
t-14 81q0 49 14.5 96.5t46 85t81.5 60t120 22.5q45 0 87 -8t87 -34z" />
    <glyph glyph-name="D" unicode="D" horiz-adv-x="778" 
d="M15 0h301q98 0 180 24t141 75t91.5 130t32.5 189q0 70 -24.5 122.5t-70.5 87.5t-112 52.5t-149 17.5h-242zM321 560h46q43 0 80 -6t64 -23.5t42.5 -47.5t15.5 -78q0 -49 -14 -96.5t-44.5 -85.5t-78.5 -61.5t-117 -23.5h-82z" />
    <glyph glyph-name="E" unicode="E" 
d="M15 0h505l27 132h-319l34 158h290l29 132h-291l32 144h307l27 132h-491z" />
    <glyph glyph-name="F" unicode="F" horiz-adv-x="556" 
d="M5 0h188l59 281h270l27 132h-274l35 153h284l26 132h-467z" />
    <glyph glyph-name="G" unicode="G" horiz-adv-x="778" 
d="M761 676q-57 15 -113 24.5t-120 9.5q-122 0 -209.5 -29.5t-143.5 -82t-83 -125.5t-27 -160q0 -72 23.5 -132t69 -102.5t111.5 -66.5t150 -24q22 0 53 2t64.5 5.5t66.5 9.5t59 14l83 389h-293l-27 -132h111l-31 -138q-39 -12 -74 -12q-36 0 -67.5 11t-55 33.5t-37.5 56.5
t-14 81q0 49 14.5 96.5t46 85t81.5 60t120 22.5q61 0 108.5 -9t93.5 -29z" />
    <glyph glyph-name="H" unicode="H" horiz-adv-x="722" 
d="M15 0h187l62 299h221l-62 -299h187l145 698h-187l-55 -267h-221l55 267h-187z" />
    <glyph glyph-name="I" unicode="I" horiz-adv-x="333" 
d="M23 0h188l145 698h-188z" />
    <glyph glyph-name="J" unicode="J" horiz-adv-x="444" 
d="M483 698h-189l-82 -383q-6 -27 -12 -57t-19 -55.5t-34.5 -42t-57.5 -16.5q-45 0 -84 18l-38 -151q27 -8 61.5 -15.5t74.5 -7.5q30 0 60 2.5t62 10.5q45 14 72.5 39t44 59t26.5 75t20 88z" />
    <glyph glyph-name="K" unicode="K" horiz-adv-x="722" 
d="M15 0h188l67 317h2l172 -317h215l-206 359l332 339h-241l-252 -285h-2l60 285h-188z" />
    <glyph glyph-name="L" unicode="L" horiz-adv-x="556" 
d="M15 0h481l29 138h-292l116 560h-189z" />
    <glyph glyph-name="M" unicode="M" horiz-adv-x="944" 
d="M6 0h170l121 572h2l26 -572h176l274 572h2l-127 -572h182l148 698h-298l-219 -469h-2l-11 469h-292z" />
    <glyph glyph-name="N" unicode="N" horiz-adv-x="778" 
d="M13 0h176l97 483h2l146 -483h232l148 698h-176l-98 -484h-2l-143 484h-233z" />
    <glyph glyph-name="O" unicode="O" horiz-adv-x="778" 
d="M773 425q0 54 -16.5 105.5t-53.5 91t-96 64t-144 24.5q-101 0 -177.5 -31t-127.5 -88.5t-77 -138.5t-26 -180q0 -54 16.5 -105t53.5 -90.5t96 -64t144 -24.5q101 0 177.5 31t127.5 88.5t77 138t26 179.5zM581 410q0 -44 -11.5 -94t-36.5 -92t-63.5 -70t-92.5 -28
q-36 0 -61 13t-40.5 34.5t-22 51t-6.5 62.5q0 44 11.5 94t36.5 92.5t63.5 70.5t92.5 28q36 0 61 -13t40.5 -35t22 -51.5t6.5 -62.5z" />
    <glyph glyph-name="P" unicode="P" 
d="M309 566h55q19 0 36 -3t30.5 -12t21.5 -25t8 -41q0 -31 -11.5 -52t-31 -33.5t-45 -18t-53.5 -5.5h-50zM3 0h186l52 244h95q63 0 119.5 16.5t98.5 49.5t67 82t25 114q0 66 -26.5 104t-69.5 57.5t-98.5 25t-112.5 5.5h-186z" />
    <glyph glyph-name="Q" unicode="Q" horiz-adv-x="778" 
d="M581 410q0 -44 -11.5 -94t-36.5 -92t-63.5 -70t-92.5 -28q-36 0 -61 13t-40.5 34.5t-22 51t-6.5 62.5q0 44 11.5 94t36.5 92.5t63.5 70.5t92.5 28q36 0 61 -13t40.5 -35t22 -51.5t6.5 -62.5zM462 -132h218l-132 154q112 47 168.5 151.5t56.5 252.5q0 54 -16.5 105
t-53.5 90.5t-96 64t-144 24.5q-101 0 -177.5 -31t-127.5 -88.5t-77 -138.5t-26 -180q0 -74 24.5 -127.5t66.5 -88t98.5 -51.5t120.5 -17h19z" />
    <glyph glyph-name="R" unicode="R" horiz-adv-x="667" 
d="M317 566h89q42 -1 64 -17.5t22 -54.5q0 -25 -11 -41.5t-30.5 -26.5t-46 -14t-56.5 -4h-63zM15 0h187l56 276h20q31 0 49.5 -2.5t29 -12.5t16.5 -29.5t13 -53.5l36 -178h186l-50 215q-4 17 -9.5 37.5t-15 39.5t-23.5 32t-35 15v2q40 5 77 16t65 32t44.5 53t16.5 78
q0 65 -27 100.5t-69.5 53t-94.5 21t-102 3.5h-223z" />
    <glyph glyph-name="S" unicode="S" 
d="M628 679q-35 17 -92 24t-122 7q-57 0 -113 -11.5t-100 -38.5t-71 -72t-27 -112q0 -49 20 -80.5t50 -51.5t65.5 -33.5t65.5 -26.5t50 -30t20 -45q0 -27 -15 -43.5t-37.5 -25t-48.5 -11.5t-48 -3q-23 0 -47.5 3t-47.5 8t-43 12.5t-34 16.5l-44 -142q46 -14 104 -25t112 -11
q61 0 121.5 11t109.5 38.5t79.5 74.5t30.5 119q0 53 -20 87t-50 56t-65.5 36t-65.5 27t-50 28t-20 40q0 21 10.5 34t28.5 20.5t42.5 10t52.5 2.5q52 0 89.5 -9.5t64.5 -22.5z" />
    <glyph glyph-name="T" unicode="T" horiz-adv-x="556" 
d="M134 0h189l119 560h174l30 138h-537l-30 -138h174z" />
    <glyph glyph-name="U" unicode="U" horiz-adv-x="722" 
d="M765 698h-185l-69 -316l-18.5 -87.5t-27 -83t-45 -61.5t-72.5 -24q-50 0 -74.5 29t-24.5 72q0 12 4 31.5l9 44.5l84 395h-189l-79 -358q-5 -24 -10 -57t-5 -75q0 -62 21.5 -104t59.5 -67.5t89 -37t110 -11.5q95 0 156 29t99 80.5t60 122t39 153.5z" />
    <glyph glyph-name="V" unicode="V" horiz-adv-x="722" 
d="M812 698h-201l-270 -528h-2l-47 528h-187l91 -698h230z" />
    <glyph glyph-name="W" unicode="W" horiz-adv-x="1000" 
d="M113 0h240l210 548h2l-14 -548h240l299 698h-188l-200 -536h-2l16 536h-238l-207 -536h-2l24 536h-184z" />
    <glyph glyph-name="X" unicode="X" horiz-adv-x="722" 
d="M-38 0h226l189 250l87 -250h203l-154 365l280 333h-226l-163 -222l-74 222h-203l143 -328z" />
    <glyph glyph-name="Y" unicode="Y" horiz-adv-x="722" 
d="M217 0h190l54 258l352 440h-229l-193 -281l-87 281h-196l163 -440z" />
    <glyph glyph-name="Z" unicode="Z" 
d="M109 560h301l-396 -412l-32 -148h552l26 138h-319l403 412l31 148h-538z" />
    <glyph glyph-name="bracketleft" unicode="[" horiz-adv-x="444" 
d="M50 -140h265l23 110h-115l140 676h115l23 110h-265z" />
    <glyph glyph-name="backslash" unicode="\" horiz-adv-x="278" 
d="M196 -12h126l-194 722h-126z" />
    <glyph glyph-name="bracketright" unicode="]" horiz-adv-x="444" 
d="M425 756h-265l-23 -110h115l-140 -676h-115l-23 -110h265z" />
    <glyph glyph-name="asciicircum" unicode="^" horiz-adv-x="600" 
d="M110 333h122l108 227l108 -227h122l-174 365h-112z" />
    <glyph glyph-name="underscore" unicode="_" horiz-adv-x="500" 
d="M500 -125v50h-500v-50h500z" />
    <glyph glyph-name="grave" unicode="`" horiz-adv-x="278" 
d="M222 599h118v12l-96 132h-187v-22z" />
    <glyph glyph-name="a" unicode="a" 
d="M359 0h147q7 59 18.5 110.5l22 95.5t18 81.5t7.5 68.5q0 48 -18 81.5t-48.5 55t-72 31t-87.5 9.5q-61 0 -106 -8t-85 -22l-18 -131q45 23 82.5 32t86.5 9q45 0 70.5 -19.5t25.5 -47.5v-11q0 -5 -2 -10q-19 2 -44.5 3.5t-52.5 1.5q-60 0 -112 -12t-91 -35.5t-61.5 -59.5
t-22.5 -84q0 -76 44.5 -113.5t129.5 -37.5q53 0 99.5 20t75.5 65v2l2 -2zM186 160q0 35 42 55.5t107 18.5q8 0 22.5 -0.5t25.5 -2.5q-10 -53 -44 -88t-92 -35q-29 0 -45 17t-16 35z" />
    <glyph glyph-name="b" unicode="b" horiz-adv-x="667" 
d="M152 0l26 98h2q48 -110 181 -110q70 0 122 27.5t85.5 73.5t50 105.5t16.5 123.5q0 44 -12.5 83t-36.5 68.5t-60.5 46.5t-84.5 17q-51 0 -92.5 -19.5t-75.5 -55.5h-2l65 292h-177l-138 -620q-9 -39 -18 -72t-18 -58h167zM227 232q0 26 9.5 54.5t27 52.5t42.5 40t57 16
q43 0 64.5 -29.5t21.5 -77.5q0 -30 -9.5 -59.5t-27 -52t-42.5 -36.5t-57 -14q-23 0 -39 9t-26.5 24t-15.5 34t-5 39z" />
    <glyph glyph-name="c" unicode="c" horiz-adv-x="500" 
d="M458 143q-29 -12 -55.5 -17.5t-60.5 -5.5q-29 0 -51.5 9t-39 24.5t-25 36t-8.5 43.5q0 81 44.5 124.5t114.5 43.5q30 0 59 -7.5t57 -20.5l39 125q-40 17 -85.5 26t-78.5 9q-75 0 -137 -24t-106 -65.5t-68.5 -97.5t-24.5 -120q0 -49 17 -92.5t49 -75.5t77.5 -51t102.5 -19
q53 0 90 5.5t64 14.5z" />
    <glyph glyph-name="d" unicode="d" horiz-adv-x="667" 
d="M403 0h165q2 16 4 35.5t7 42.5l140 672h-177l-63 -313h-2q-20 42 -66 69t-115 27q-67 0 -116.5 -27.5t-82.5 -73.5t-49 -105.5t-16 -123.5q0 -44 14.5 -83t40.5 -68.5t61.5 -46.5t77.5 -17q37 0 65 6.5t49.5 19t39.5 30t35 39.5h2zM304 126q-43 0 -64.5 29.5t-21.5 77.5
q0 30 9.5 59.5t27 52t42.5 36.5t57 14q22 0 38.5 -9.5t27 -24.5t15.5 -34t5 -38q0 -26 -9.5 -54.5t-27 -52.5t-42.5 -40t-57 -16z" />
    <glyph glyph-name="e" unicode="e" 
d="M505 144q-38 -18 -82.5 -27t-80.5 -9q-41 0 -68 7.5t-42.5 21t-22 32t-7.5 39.5h369q3 12 5 25.5l4 27t3 25.5t1 20q0 59 -18 102t-50.5 70.5t-76.5 41t-95 13.5q-87 0 -146.5 -31t-96.5 -77t-53 -100t-16 -99q0 -49 17.5 -92.5t51.5 -75.5t84 -51t115 -19q39 0 86.5 7.5
t95.5 21.5zM213 310q5 19 15.5 37.5t27 33t39 23.5t51.5 9q25 0 41.5 -8t27 -22.5t15 -33t4.5 -39.5h-221z" />
    <glyph glyph-name="f" unicode="f" horiz-adv-x="444" 
d="M73 0h180l82 395h132l28 126h-134l7 31q10 44 30.5 64t52.5 20q15 0 29 -4t28 -9l34 123q-29 8 -64.5 12t-69.5 4q-88 0 -142 -47t-71 -128l-14 -66h-109l-28 -126h113z" />
    <glyph glyph-name="g" unicode="g" horiz-adv-x="667" 
d="M32 -189q42 -13 89 -23t115 -10q81 0 137 12.5t94 43t62 81t41 126.5l80 355q10 42 19 73t14 52h-167l-23 -95h-2q-23 57 -71.5 82t-108.5 25q-63 0 -114.5 -23.5t-88 -64t-56.5 -94.5t-20 -114q0 -52 13 -95.5t39.5 -75t66.5 -49t94 -17.5t97 23.5t73 67.5l2 -2
q-11 -50 -25.5 -84.5t-37.5 -55.5t-56 -30.5t-80 -8.5q-82 1 -151 41zM444 301q0 -26 -7.5 -54.5t-24 -52.5t-41.5 -40t-59 -16q-43 0 -68.5 27.5t-25.5 68.5q0 27 7.5 56t23.5 52t40.5 38t58.5 15q48 0 72 -26t24 -68z" />
    <glyph glyph-name="h" unicode="h" horiz-adv-x="667" 
d="M7 0h180l51 240q5 29 16 55t27.5 45.5t39 31t51.5 11.5q37 1 53.5 -18t16.5 -42q0 -20 -4 -39.5l-8 -39.5l-50 -244h186l48 243l7 35.5t4.5 27t2 23.5t0.5 24q0 38 -10.5 71t-31 57t-51 38t-69.5 14q-63 0 -108 -25.5t-73 -62.5h-2l64 305h-182z" />
    <glyph glyph-name="i" unicode="i" horiz-adv-x="333" 
d="M26 0h182l108 521h-182zM152 606h182l28 132h-182z" />
    <glyph glyph-name="j" unicode="j" horiz-adv-x="333" 
d="M-122 -207q21 -7 42.5 -11t44.5 -4q59 0 100 13t68.5 40.5t45 69.5t29.5 101l108 519h-182l-108 -519q-11 -55 -25 -79.5t-46 -24.5q-15 0 -27.5 3t-20.5 7zM152 606h182l28 132h-182z" />
    <glyph glyph-name="k" unicode="k" 
d="M7 0h183l55 258h2l107 -258h200l-135 270l215 251h-205l-173 -219h-2l96 448h-182z" />
    <glyph glyph-name="l" unicode="l" horiz-adv-x="333" 
d="M26 0h182l156 750h-182z" />
    <glyph glyph-name="m" unicode="m" horiz-adv-x="944" 
d="M7 0h180l51 240q4 21 11 46t19 46.5t30.5 36t46.5 14.5q32 0 45 -14t13 -40q0 -16 -2.5 -36t-7.5 -40l-52 -253h180l51 240q4 21 11 46t19 46.5t30.5 36t46.5 14.5q32 0 45 -14t13 -40q0 -16 -2.5 -36t-7.5 -40l-52 -253h180l54 261q6 28 9 59.5t3 57.5q0 43 -14 73
t-37 48t-52 26t-59 8q-57 0 -105 -28t-81 -78q-5 27 -18.5 46.5t-32.5 33t-41 20t-45 6.5q-55 0 -103 -28t-81 -78l-2 -1l20 95h-160q-4 -35 -9.5 -68.5t-12.5 -67.5z" />
    <glyph glyph-name="n" unicode="n" horiz-adv-x="667" 
d="M7 0h180l51 240q5 29 16 55t27.5 45.5t39 31t51.5 11.5q37 1 53.5 -18t16.5 -42q0 -20 -4 -39.5l-8 -39.5l-50 -244h186l48 243l7 35.5t4.5 27t2 23.5t0.5 24q0 38 -10.5 71t-31 57t-51 38t-69.5 14q-36 0 -64.5 -7t-52.5 -20t-44.5 -30.5t-39.5 -39.5h-2l14 85h-167
q-4 -35 -9.5 -68.5t-12.5 -67.5z" />
    <glyph glyph-name="o" unicode="o" horiz-adv-x="667" 
d="M453 302q0 -89 -37 -138.5t-100 -49.5q-46 -1 -72 31t-26 85q0 31 10 62.5t28 57t44 41.5t59 16q26 0 44 -9t29 -23.5t16 -33.5t5 -39zM639 300q0 49 -17.5 91.5t-51.5 74t-85 49.5t-117 18q-77 0 -139 -22t-105.5 -62.5t-67.5 -97t-24 -125.5q0 -49 15 -92.5t48 -75.5
t84.5 -51t123.5 -19q73 0 134.5 18t106.5 56.5t70 97.5t25 140z" />
    <glyph glyph-name="p" unicode="p" horiz-adv-x="667" 
d="M-55 -210h182l66 297q29 -49 68.5 -74t99.5 -25q70 0 122 27.5t85.5 73.5t50 105.5t16.5 123.5q0 44 -12.5 83t-36.5 68.5t-60.5 46.5t-84.5 17q-49 0 -97 -22t-90 -73h-2l14 83h-165q-2 -16 -4 -35.5t-7 -42.5zM227 232q0 26 9.5 54.5t27 52.5t42.5 40t57 16
q43 0 64.5 -29.5t21.5 -77.5q0 -30 -9.5 -59.5t-27 -52t-42.5 -36.5t-57 -14q-23 0 -39 9t-26.5 24t-15.5 34t-5 39z" />
    <glyph glyph-name="q" unicode="q" horiz-adv-x="667" 
d="M339 -210h182l129 615q8 36 16 66t16 50h-167l-28 -110h-2q-24 62 -69 92t-120 30q-67 0 -116.5 -27.5t-82.5 -73.5t-49 -105.5t-16 -123.5q0 -44 14.5 -83t40.5 -68.5t61.5 -46.5t77.5 -17q51 0 92.5 19.5t75.5 54.5h2zM304 126q-43 0 -64.5 29.5t-21.5 77.5
q0 30 9.5 59.5t27 52t42.5 36.5t57 14q22 0 38.5 -9.5t27 -24.5t15.5 -34t5 -38q0 -26 -9.5 -54.5t-27 -52.5t-42.5 -40t-57 -16z" />
    <glyph glyph-name="r" unicode="r" horiz-adv-x="444" 
d="M110 521q-4 -35 -9.5 -68.5t-12.5 -67.5l-81 -385h180l51 240q5 29 16 55t27.5 45.5t39 31t51.5 11.5q26 0 46 -4t37 -18l41 159q-18 8 -38 10.5t-38 2.5q-28 0 -52.5 -10t-45 -26.5t-36.5 -38t-27 -44.5h-2l20 107h-167z" />
    <glyph glyph-name="s" unicode="s" horiz-adv-x="500" 
d="M-4 15q42 -12 100.5 -20t118.5 -7q51 1 95.5 13.5t77.5 36.5t52 60.5t19 84.5q0 33 -16.5 55.5t-41.5 38t-54.5 26.5l-54.5 20.5t-41.5 19.5t-16.5 25q0 13 7.5 22t19.5 14t27 7t30 2q41 0 75 -7.5t69 -21.5l38 118q-49 16 -94 23.5t-79 7.5q-45 0 -92 -9.5t-85 -30
t-62 -53t-24 -78.5q0 -43 16 -70t40 -44t51.5 -27l51.5 -18.5t40 -19t16 -29.5q0 -16 -11.5 -25.5t-28 -14t-33.5 -5.5t-28 -1q-77 0 -146 30z" />
    <glyph glyph-name="t" unicode="t" horiz-adv-x="444" 
d="M51 395h96l-31 -146q-9 -42 -12.5 -64.5t-3.5 -42.5q0 -41 13 -70t35 -48t52 -27.5t65 -8.5q27 0 55 2.5t57 7.5l20 119l-29 -10t-29 -5q-27 0 -43 16t-16 42q0 19 4.5 40l10.5 50l31 145h131l22 126h-124l36 163l-190 -51l-25 -112h-103z" />
    <glyph glyph-name="u" unicode="u" horiz-adv-x="667" 
d="M660 521h-180l-51 -240q-5 -29 -16 -55t-27.5 -45.5t-39.5 -31t-51 -11.5q-19 -1 -32 4t-21.5 13.5t-12.5 19.5t-4 23q0 20 4 39.5l8 39.5l50 244h-186l-48 -243l-7 -35.5t-4.5 -27t-2 -23.5t-0.5 -24q0 -38 10.5 -71t31 -57t51 -38t69.5 -14q71 0 116.5 26.5t84.5 70.5
h2l-14 -85h167q4 35 9.5 68.5t12.5 67.5z" />
    <glyph glyph-name="v" unicode="v" 
d="M664 521h-194l-183 -371h-2l-36 371h-181l85 -521h205z" />
    <glyph glyph-name="w" unicode="w" horiz-adv-x="944" 
d="M998 521h-182l-167 -377h-2l-4 377h-218l-171 -377h-2l-5 377h-179l50 -521h210l179 377h2l7 -377h209z" />
    <glyph glyph-name="x" unicode="x" 
d="M-42 0h222l120 162l60 -162h195l-123 265l221 256h-213l-110 -156l-57 156h-190l111 -249z" />
    <glyph glyph-name="y" unicode="y" 
d="M666 521h-191l-177 -329h-2l-47 329h-183l115 -519q-16 -40 -41.5 -63t-63.5 -23q-26 0 -45.5 5t-36.5 10l-38 -131q26 -8 59.5 -15t81.5 -7q43 0 76.5 11t60.5 31t48.5 48t41.5 63z" />
    <glyph glyph-name="z" unicode="z" horiz-adv-x="500" 
d="M-24 0h453l27 132h-238l286 253l28 136h-442l-27 -132h223l-284 -253z" />
    <glyph glyph-name="braceleft" unicode="{" horiz-adv-x="389" 
d="M463 756h-86q-75 0 -121 -31.5t-61 -106.5l-41 -199q-5 -24 -17 -37t-27.5 -19.5t-32 -8t-29.5 -1.5l-18 -90q8 0 21 -1.5t26 -6.5t22 -14.5t9 -26.5t-7 -48l-30 -145l-6 -31t-3 -24q0 -59 37 -82.5t92 -23.5h86l18 90h-54q-23 0 -32 10t-9 24q0 8 2 20t5 28l31 153
q3 14 5.5 27.5t2.5 21.5q0 24 -9 38t-23 21.5t-31.5 10t-34.5 3.5v2q20 1 41 5.5t40 15t33.5 29t20.5 47.5l41 195q3 13 6.5 24.5t10.5 20.5t19 14.5t30 5.5h54z" />
    <glyph glyph-name="bar" unicode="|" horiz-adv-x="222" 
d="M73 -214h126v1000h-126v-1000z" />
    <glyph glyph-name="braceright" unicode="}" horiz-adv-x="389" 
d="M-44 -140h86q75 0 121 31.5t61 106.5l41 199q5 24 17 37t27.5 19.5t31.5 8t30 1.5l18 90q-8 0 -21 1.5t-26 6.5t-22 14.5t-9 26.5t7 48l30 145l6 31t3 24q0 59 -37 82.5t-92 23.5h-86l-18 -90h54q23 0 32 -10t9 -24q0 -8 -2 -20t-5 -28l-31 -153q-3 -14 -5.5 -27.5
t-2.5 -21.5q0 -24 9 -38t23 -21.5t31.5 -10t34.5 -3.5v-2q-20 -1 -41 -5.5t-40 -15t-33.5 -29t-20.5 -47.5l-41 -195q-3 -13 -6.5 -24.5t-10.5 -20.5t-19 -14.5t-30 -5.5h-54z" />
    <glyph glyph-name="asciitilde" unicode="~" horiz-adv-x="600" 
d="M510 353q-17 -26 -37.5 -47.5t-50.5 -21.5q-24 0 -48.5 10t-51 22t-55 22t-58.5 10q-25 0 -44.5 -7.5t-34.5 -19.5t-26.5 -27.5t-19.5 -31.5l36 -109q17 26 37.5 47.5t50.5 21.5q24 0 48.5 -10t51 -22t55 -22t58.5 -10q25 0 44.5 7.5t34.5 19.5t26.5 27.5t19.5 31.5z" />
    <glyph glyph-name="quotesinglbase" horiz-adv-x="333" 
d="M-30 -109h144l149 271h-178z" />
    <glyph glyph-name="quotesinglbase" unicode="&#x201a;" horiz-adv-x="333" 
d="M-30 -109h144l149 271h-178z" />
    <glyph glyph-name="quotedblbase" 
d="M-2 -109h144l149 271h-178zM233 -109h144l149 271h-178z" />
    <glyph glyph-name="quotedblbase" unicode="&#x201e;" 
d="M-2 -109h144l149 271h-178zM233 -109h144l149 271h-178z" />
    <glyph glyph-name="ellipsis" unicode="&#x85;" horiz-adv-x="1000" 
d="M34 0h169l34 162h-169zM367 0h169l34 162h-169zM700 0h169l34 162h-169z" />
    <glyph glyph-name="ellipsis" unicode="&#x2026;" horiz-adv-x="1000" 
d="M34 0h169l34 162h-169zM367 0h169l34 162h-169zM700 0h169l34 162h-169z" />
    <glyph glyph-name="dagger" 
d="M78 399h174l-83 -399h165l83 399h174l28 132h-174l34 167h-165l-34 -167h-174z" />
    <glyph glyph-name="dagger" unicode="&#x2020;" 
d="M78 399h174l-83 -399h165l83 399h174l28 132h-174l34 167h-165l-34 -167h-174z" />
    <glyph glyph-name="daggerdbl" 
d="M91 442h172l-39 -187h-172l-25 -120h172l-28 -135h165l28 135h172l25 120h-172l39 187h172l25 120h-172l28 136h-165l-28 -136h-172z" />
    <glyph glyph-name="daggerdbl" unicode="&#x2021;" 
d="M91 442h172l-39 -187h-172l-25 -120h172l-28 -135h165l28 135h172l25 120h-172l39 187h172l25 120h-172l28 136h-165l-28 -136h-172z" />
    <glyph glyph-name="perthousand" horiz-adv-x="1000" 
d="M496 72q-17 0 -22 14t-5 25q0 10 3 33.5t10.5 47t19 41.5t29.5 18t24 -11t6 -25q0 -11 -3.5 -34.5t-11.5 -47.5t-20 -42.5t-30 -18.5zM493 -12q42 0 74 17.5t53.5 46.5t32 67t10.5 79q0 31 -7 56t-23 43t-42 28t-64 10q-41 0 -71 -19t-49.5 -49t-29.5 -67.5t-10 -74.5
q0 -59 30.5 -98t95.5 -39zM191 363q42 0 74 17.5t53.5 46.5t32 67t10.5 79q0 31 -7 56t-23 43t-42 28t-64 10q-41 0 -71 -19t-49.5 -49t-29.5 -67.5t-10 -74.5q0 -59 30.5 -98t95.5 -39zM194 447q-17 0 -22 14t-5 25q0 10 3 33.5t10.5 47t19 41.5t29.5 18t24 -11t6 -25
q0 -11 -3.5 -34.5t-11.5 -47.5t-20 -42.5t-30 -18.5zM816 -12q42 0 74 17.5t53.5 46.5t32 67t10.5 79q0 31 -7 56t-23 43t-42 28t-64 10q-41 0 -71 -19t-49.5 -49t-29.5 -67.5t-10 -74.5q0 -59 30.5 -98t95.5 -39zM819 72q-17 0 -22 14t-5 25q0 10 3 33.5t10.5 47t19 41.5
t29.5 18t24 -11t6 -25q0 -11 -3.5 -34.5t-11.5 -47.5t-20 -42.5t-30 -18.5zM23 -22h105l571 742h-104z" />
    <glyph glyph-name="perthousand" unicode="&#x2030;" horiz-adv-x="1000" 
d="M496 72q-17 0 -22 14t-5 25q0 10 3 33.5t10.5 47t19 41.5t29.5 18t24 -11t6 -25q0 -11 -3.5 -34.5t-11.5 -47.5t-20 -42.5t-30 -18.5zM493 -12q42 0 74 17.5t53.5 46.5t32 67t10.5 79q0 31 -7 56t-23 43t-42 28t-64 10q-41 0 -71 -19t-49.5 -49t-29.5 -67.5t-10 -74.5
q0 -59 30.5 -98t95.5 -39zM191 363q42 0 74 17.5t53.5 46.5t32 67t10.5 79q0 31 -7 56t-23 43t-42 28t-64 10q-41 0 -71 -19t-49.5 -49t-29.5 -67.5t-10 -74.5q0 -59 30.5 -98t95.5 -39zM194 447q-17 0 -22 14t-5 25q0 10 3 33.5t10.5 47t19 41.5t29.5 18t24 -11t6 -25
q0 -11 -3.5 -34.5t-11.5 -47.5t-20 -42.5t-30 -18.5zM816 -12q42 0 74 17.5t53.5 46.5t32 67t10.5 79q0 31 -7 56t-23 43t-42 28t-64 10q-41 0 -71 -19t-49.5 -49t-29.5 -67.5t-10 -74.5q0 -59 30.5 -98t95.5 -39zM819 72q-17 0 -22 14t-5 25q0 10 3 33.5t10.5 47t19 41.5
t29.5 18t24 -11t6 -25q0 -11 -3.5 -34.5t-11.5 -47.5t-20 -42.5t-30 -18.5zM23 -22h105l571 742h-104z" />
    <glyph glyph-name="guilsinglleft" horiz-adv-x="389" 
d="M176 65h163l-149 204l199 204h-176l-188 -204z" />
    <glyph glyph-name="guilsinglleft" unicode="&#x2039;" horiz-adv-x="389" 
d="M176 65h163l-149 204l199 204h-176l-188 -204z" />
    <glyph glyph-name="quoteleft" horiz-adv-x="333" 
d="M379 698h-144l-149 -271h178z" />
    <glyph glyph-name="quoteleft" unicode="&#x2018;" horiz-adv-x="333" 
d="M379 698h-144l-149 -271h178z" />
    <glyph glyph-name="quoteright" horiz-adv-x="333" 
d="M83 427h144l149 271h-178z" />
    <glyph glyph-name="quoteright" unicode="&#x2019;" horiz-adv-x="333" 
d="M83 427h144l149 271h-178z" />
    <glyph glyph-name="quotedblleft" 
d="M399 698h-144l-149 -271h178zM634 698h-144l-149 -271h178z" />
    <glyph glyph-name="quotedblleft" unicode="&#x201c;" 
d="M399 698h-144l-149 -271h178zM634 698h-144l-149 -271h178z" />
    <glyph glyph-name="quotedblright" 
d="M341 427h144l149 271h-178zM106 427h144l149 271h-178z" />
    <glyph glyph-name="quotedblright" unicode="&#x201d;" 
d="M341 427h144l149 271h-178zM106 427h144l149 271h-178z" />
    <glyph glyph-name="bullet" horiz-adv-x="500" 
d="M92 349q0 -36 13.5 -68t37.5 -55.5t55.5 -37.5t67.5 -14t68 14t55.5 37.5t37.5 55.5t14 68t-14 67.5t-37.5 55.5t-55.5 37.5t-68 13.5t-67.5 -13.5t-55.5 -37.5t-37.5 -55.5t-13.5 -67.5z" />
    <glyph glyph-name="bullet" unicode="&#x2022;" horiz-adv-x="500" 
d="M92 349q0 -36 13.5 -68t37.5 -55.5t55.5 -37.5t67.5 -14t68 14t55.5 37.5t37.5 55.5t14 68t-14 67.5t-37.5 55.5t-55.5 37.5t-68 13.5t-67.5 -13.5t-55.5 -37.5t-37.5 -55.5t-13.5 -67.5z" />
    <glyph glyph-name="endash" horiz-adv-x="500" 
d="M0 206h500l28 126h-500z" />
    <glyph glyph-name="endash" unicode="&#x2013;" horiz-adv-x="500" 
d="M0 206h500l28 126h-500z" />
    <glyph glyph-name="emdash" horiz-adv-x="1000" 
d="M0 206h1000l28 126h-1000z" />
    <glyph glyph-name="emdash" unicode="&#x2014;" horiz-adv-x="1000" 
d="M0 206h1000l28 126h-1000z" />
    <glyph glyph-name="trademark" horiz-adv-x="1000" 
d="M154 282h110v326h117v90h-344v-90h117v-326zM477 282h110v272h2l88 -272h86l88 272h2v-272h110v416h-156l-86 -242h-2l-86 242h-156v-416z" />
    <glyph glyph-name="trademark" unicode="&#x2122;" horiz-adv-x="1000" 
d="M154 282h110v326h117v90h-344v-90h117v-326zM477 282h110v272h2l88 -272h86l88 272h2v-272h110v416h-156l-86 -242h-2l-86 242h-156v-416z" />
    <glyph glyph-name="guilsinglright" horiz-adv-x="389" 
d="M215 473h-163l147 -204l-199 -204h176l188 204z" />
    <glyph glyph-name="guilsinglright" unicode="&#x203a;" horiz-adv-x="389" 
d="M215 473h-163l147 -204l-199 -204h176l188 204z" />
    <glyph glyph-name="caron" unicode="&#xa1;" horiz-adv-x="278" 
d="M296 599l137 132v12h-124l-87 -78l-62 78h-111v-12l86 -132h161z" />
    <glyph glyph-name="caron" unicode="&#x2c7;" horiz-adv-x="278" 
d="M296 599l137 132v12h-124l-87 -78l-62 78h-111v-12l86 -132h161z" />
    <glyph glyph-name="breve" unicode="&#xa2;" horiz-adv-x="278" 
d="M53 743q0 -36 12.5 -65t34.5 -49.5t52 -31.5t64 -11q166 0 215 157h-88q-5 -16 -16 -29.5t-26 -23t-32 -15t-34 -5.5q-43 0 -69 15t-32 58h-81z" />
    <glyph glyph-name="breve" unicode="&#x2d8;" horiz-adv-x="278" 
d="M53 743q0 -36 12.5 -65t34.5 -49.5t52 -31.5t64 -11q166 0 215 157h-88q-5 -16 -16 -29.5t-26 -23t-32 -15t-34 -5.5q-43 0 -69 15t-32 58h-81z" />
    <glyph glyph-name="currency" unicode="&#xa4;" horiz-adv-x="612" 
d="M46 151l63 -62l57 54q13 -11 30.5 -18.5t36 -13t37.5 -8t36 -2.5q16 0 35.5 2.5t38 8t36 13t30.5 18.5l57 -54l63 62l-58 57q13 13 21.5 30t14 35.5t8 38t2.5 37.5t-2.5 37.5t-8 38t-14 35.5t-21.5 30l58 57l-63 62l-57 -54q-13 10 -30.5 18t-36 13.5t-38 8t-35.5 2.5
q-17 0 -36 -2.5t-37.5 -8t-36 -13.5t-30.5 -18l-57 54l-63 -62l58 -57q-13 -13 -21.5 -30t-14 -35.5t-8 -38t-2.5 -37.5t2.5 -37.5t8 -38t14 -35.5t21.5 -30zM306 227q-51 0 -83.5 34.5t-32.5 87.5t32.5 87.5t83.5 34.5t83.5 -34.5t32.5 -87.5t-32.5 -87.5t-83.5 -34.5z" />
    <glyph glyph-name="section" unicode="&#xa7;" 
d="M595 659q-46 26 -99.5 38.5t-119.5 12.5q-45 0 -87.5 -11.5t-76 -33t-53.5 -52.5t-20 -69q0 -33 15 -58.5t45 -50.5q-53 -15 -87.5 -50t-34.5 -92q0 -39 17.5 -68t44 -51t57 -39.5l57 -33.5t44 -32.5t17.5 -37.5q0 -26 -21.5 -37.5t-71.5 -11.5q-48 0 -91.5 14.5
t-85.5 37.5l-37 -112q51 -29 109 -44.5t116 -15.5q53 0 99 12t80 34.5t53.5 56t19.5 77.5q0 27 -15.5 54.5t-37.5 46.5q57 13 91 52.5t34 100.5q0 35 -19 61.5t-47 47t-61.5 37.5t-61.5 33t-47 32t-19 35q0 29 26 38.5t67 9.5q19 0 41 -4t44.5 -10.5t43 -14.5t35.5 -17z
M221 306q0 32 19 47.5t45 28.5l31.5 -17t40.5 -25t34.5 -30.5t14.5 -32.5q0 -29 -15.5 -45.5t-40.5 -35.5q-11 8 -32.5 20.5t-43 27t-37.5 30.5t-16 32z" />
    <glyph glyph-name="dieresis" unicode="&#xa8;" horiz-adv-x="278" 
d="M424 743h-138l-30 -144h138zM207 743h-138l-30 -144h138z" />
    <glyph glyph-name="copyright" unicode="&#xa9;" horiz-adv-x="800" 
d="M477 292q-8 -27 -23 -41t-49 -14q-38 0 -59 30.5t-21 81.5t21 81t59 30q34 0 49 -14t23 -41h96q-2 71 -46 111t-122 40q-45 0 -81 -16t-61 -43.5t-38.5 -65.5t-13.5 -82q0 -45 13.5 -83t38.5 -65.5t61 -43.5t81 -16q78 0 122 40t46 111h-96zM39 349q0 -75 28.5 -140.5
t77.5 -114.5t114.5 -77.5t140.5 -28.5t140.5 28.5t114.5 77.5t77.5 114.5t28.5 140.5t-28.5 140.5t-77.5 114.5t-114.5 77.5t-140.5 28.5t-140.5 -28.5t-114.5 -77.5t-77.5 -114.5t-28.5 -140.5zM153 349q0 55 19.5 102.5t53 82.5t78.5 54.5t96 19.5t96 -19.5t78.5 -54.5
t53 -82.5t19.5 -102.5q0 -56 -19.5 -103t-53 -82t-78.5 -54.5t-96 -19.5t-96 19.5t-78.5 54.5t-53 82t-19.5 103z" />
    <glyph glyph-name="guillemotleft" unicode="&#xab;" horiz-adv-x="667" 
d="M188 65h163l-161 204l199 204h-176l-188 -204zM454 65h163l-149 204l199 204h-176l-188 -204z" />
    <glyph glyph-name="logicalnot" horiz-adv-x="600" 
d="M62 305h380v-197h126v323h-506v-126z" />
    <glyph glyph-name="registered" unicode="&#xae;" horiz-adv-x="800" 
d="M430 349q37 0 70 14t58 39t39 57.5t14 70.5q0 37 -14 70t-39 57.5t-58 38.5t-70 14t-70 -14t-57.5 -38.5t-38.5 -57.5t-14 -70q0 -38 14 -70.5t38.5 -57.5t57.5 -39t70 -14zM430 400q-26 0 -48 10t-39 27.5t-26.5 41t-9.5 51.5t9.5 51.5t26.5 40.5t39 27t48 10
q25 0 48 -10t39.5 -27t26.5 -40.5t10 -51.5t-10 -51.5t-26.5 -41t-39.5 -27.5t-48 -10zM359 432h48v82h8l43 -82h48l-47 85q24 2 39.5 14t15.5 40q0 33 -19 45.5t-56 12.5h-80v-197zM407 591h25q11 0 22.5 -3t11.5 -14q0 -12 -8 -17t-22 -5h-29v39z" />
    <glyph glyph-name="degree" unicode="&#xb0;" horiz-adv-x="400" 
d="M108 563q0 -30 11.5 -57t31.5 -47t47 -31.5t57 -11.5t57 11.5t47 31.5t31.5 47t11.5 57t-11.5 57t-31.5 47t-47 31.5t-57 11.5t-57 -11.5t-47 -31.5t-31.5 -47t-11.5 -57zM186 563q0 29 20 49t49 20t49 -20t20 -49t-20 -49t-49 -20t-49 20t-20 49z" />
    <glyph glyph-name="plusminus" unicode="&#xb1;" horiz-adv-x="600" 
d="M62 268h190v-112h126v112h190v126h-190v112h-126v-112h-190v-126zM62 0h506v126h-506v-126z" />
    <glyph glyph-name="ogonek" unicode="&#xb2;" horiz-adv-x="278" 
d="M141 1q-24 -11 -48.5 -24.5t-44 -30t-31.5 -36t-12 -43.5q0 -43 24 -65.5t81 -22.5q42 0 74.5 16.5t64.5 60.5l-37 14q-10 -10 -27 -17.5t-37 -7.5q-17 0 -28.5 11.5t-11.5 32.5q0 15 8.5 30t22 29.5t30.5 27.5l33 25h-61z" />
    <glyph glyph-name="ogonek" unicode="&#x2db;" horiz-adv-x="278" 
d="M141 1q-24 -11 -48.5 -24.5t-44 -30t-31.5 -36t-12 -43.5q0 -43 24 -65.5t81 -22.5q42 0 74.5 16.5t64.5 60.5l-37 14q-10 -10 -27 -17.5t-37 -7.5q-17 0 -28.5 11.5t-11.5 32.5q0 15 8.5 30t22 29.5t30.5 27.5l33 25h-61z" />
    <glyph glyph-name="acute" unicode="&#xb4;" horiz-adv-x="278" 
d="M131 611v-12h118l165 122v22h-187z" />
    <glyph glyph-name="mu" unicode="&#xb5;" horiz-adv-x="667" 
d="M660 521h-180l-51 -240q-5 -29 -16 -55t-27.5 -45.5t-39.5 -31t-51 -11.5q-19 -1 -32 4t-21.5 13.5t-12.5 19.5t-4 23q0 20 4 39.5l8 39.5l50 244h-186l-142 -731h179l38 200q5 -1 12 -1.5t13 -0.5q71 0 116.5 26.5t84.5 70.5h2l-14 -85h167q4 35 9.5 68.5t12.5 67.5z
" />
    <glyph glyph-name="mu" unicode="&#x3bc;" horiz-adv-x="667" 
d="M660 521h-180l-51 -240q-5 -29 -16 -55t-27.5 -45.5t-39.5 -31t-51 -11.5q-19 -1 -32 4t-21.5 13.5t-12.5 19.5t-4 23q0 20 4 39.5l8 39.5l50 244h-186l-142 -731h179l38 200q5 -1 12 -1.5t13 -0.5q71 0 116.5 26.5t84.5 70.5h2l-14 -85h167q4 35 9.5 68.5t12.5 67.5z
" />
    <glyph glyph-name="paragraph" unicode="&#xb6;" horiz-adv-x="620" 
d="M435 608h97l-153 -734h120l172 824h-312q-47 0 -98 -8.5t-93 -30t-69.5 -60t-27.5 -98.5q0 -41 14 -70t39 -47t60 -26.5t77 -8.5l-99 -475h120z" />
    <glyph glyph-name="periodcentered" unicode="&#xb7;" horiz-adv-x="306" 
d="M170 179q19 0 36 7.5t29.5 20t20 29.5t7.5 36t-7.5 36t-20 29.5t-29.5 20t-36 7.5t-36 -7.5t-29.5 -20t-20 -29.5t-7.5 -36t7.5 -36t20 -29.5t29.5 -20t36 -7.5z" />
    <glyph glyph-name="periodcentered" unicode="&#x22c5;" horiz-adv-x="306" 
d="M170 179q19 0 36 7.5t29.5 20t20 29.5t7.5 36t-7.5 36t-20 29.5t-29.5 20t-36 7.5t-36 -7.5t-29.5 -20t-20 -29.5t-7.5 -36t7.5 -36t20 -29.5t29.5 -20t36 -7.5z" />
    <glyph glyph-name="cedilla" unicode="&#xb8;" horiz-adv-x="278" 
d="M34 -87l36 -23l18.5 4t18.5 2q14 0 23 -9t9 -32q0 -16 -17.5 -23t-36.5 -7q-22 0 -40.5 7t-37.5 16l-24 -42q28 -15 59.5 -21t69.5 -6q21 0 44 4.5t42 14t31.5 25.5t12.5 40q0 40 -21 59.5t-50 19.5q-18 0 -29.5 -1t-20.5 -5l-2 2l56 63h-72z" />
    <glyph glyph-name="guillemotright" unicode="&#xbb;" horiz-adv-x="667" 
d="M215 473h-163l147 -204l-199 -204h176l188 204zM493 473h-163l147 -204l-199 -204h176l188 204z" />
    <glyph glyph-name="hungarumlaut" unicode="&#xbd;" horiz-adv-x="278" 
d="M94 743l-96 -132v-12h118l165 122v22h-187zM363 743l-96 -132v-12h118l165 122v22h-187z" />
    <glyph glyph-name="hungarumlaut" unicode="&#x2dd;" horiz-adv-x="278" 
d="M94 743l-96 -132v-12h118l165 122v22h-187zM363 743l-96 -132v-12h118l165 122v22h-187z" />
    <glyph glyph-name="Aacute" unicode="&#xc1;" horiz-adv-x="778" 
d="M-41 0h202l83 149h271l19 -149h188l-114 698h-234zM497 281h-180l148 273h2zM401 753v-12h118l165 122v22h-187z" />
    <glyph glyph-name="Acircumflex" unicode="&#xc2;" horiz-adv-x="778" 
d="M-41 0h202l83 149h271l19 -149h188l-114 698h-234zM497 281h-180l148 273h2zM292 753v-12h124l87 78l62 -78h111v12l-86 132h-161z" />
    <glyph glyph-name="Adieresis" unicode="&#xc4;" horiz-adv-x="778" 
d="M-41 0h202l83 149h271l19 -149h188l-114 698h-234zM497 281h-180l148 273h2zM694 885h-138l-30 -144h138zM477 885h-138l-30 -144h138z" />
    <glyph glyph-name="Ccedilla" unicode="&#xc7;" horiz-adv-x="667" 
d="M299 -87l36 -23l18.5 4t18.5 2q14 0 23 -9t9 -32q0 -16 -17.5 -23t-36.5 -7q-22 0 -40.5 7t-37.5 16l-24 -42q28 -15 59.5 -21t69.5 -6q21 0 44 4.5t42 14t31.5 25.5t12.5 40q0 40 -21 59.5t-50 19.5q-18 0 -29.5 -1t-20.5 -5l-2 2l44 50q23 0 47.5 2.5t48 6t44.5 8.5
t37 10l20 150q-37 -19 -81.5 -29t-95.5 -10q-42 0 -77 11t-60.5 33.5t-39.5 56.5t-14 81q0 49 14.5 96.5t46 85t81.5 60t120 22.5q45 0 87 -8t87 -34l44 143q-14 5 -35.5 11.5t-52 12t-70 9.5t-89.5 4q-98 0 -177 -29.5t-134 -82t-84.5 -125.5t-29.5 -160q0 -66 19.5 -121
t57.5 -97t92.5 -68.5t125.5 -34.5z" />
    <glyph glyph-name="Eacute" unicode="&#xc9;" 
d="M15 0h505l27 132h-319l34 158h290l29 132h-291l32 144h307l27 132h-491zM321 753v-12h118l165 122v22h-187z" />
    <glyph glyph-name="Edieresis" unicode="&#xcb;" 
d="M15 0h505l27 132h-319l34 158h290l29 132h-291l32 144h307l27 132h-491zM624 885h-138l-30 -144h138zM407 885h-138l-30 -144h138z" />
    <glyph glyph-name="Iacute" unicode="&#xcd;" horiz-adv-x="333" 
d="M23 0h188l145 698h-188zM177 753v-12h118l165 122v22h-187z" />
    <glyph glyph-name="Icircumflex" unicode="&#xce;" horiz-adv-x="333" 
d="M23 0h188l145 698h-188zM68 753v-12h124l87 78l62 -78h111v12l-86 132h-161z" />
    <glyph glyph-name="Oacute" unicode="&#xd3;" horiz-adv-x="778" 
d="M773 425q0 54 -16.5 105.5t-53.5 91t-96 64t-144 24.5q-101 0 -177.5 -31t-127.5 -88.5t-77 -138.5t-26 -180q0 -54 16.5 -105t53.5 -90.5t96 -64t144 -24.5q101 0 177.5 31t127.5 88.5t77 138t26 179.5zM581 410q0 -44 -11.5 -94t-36.5 -92t-63.5 -70t-92.5 -28
q-36 0 -61 13t-40.5 34.5t-22 51t-6.5 62.5q0 44 11.5 94t36.5 92.5t63.5 70.5t92.5 28q36 0 61 -13t40.5 -35t22 -51.5t6.5 -62.5zM391 753v-12h118l165 122v22h-187z" />
    <glyph glyph-name="Ocircumflex" unicode="&#xd4;" horiz-adv-x="778" 
d="M773 425q0 54 -16.5 105.5t-53.5 91t-96 64t-144 24.5q-101 0 -177.5 -31t-127.5 -88.5t-77 -138.5t-26 -180q0 -54 16.5 -105t53.5 -90.5t96 -64t144 -24.5q101 0 177.5 31t127.5 88.5t77 138t26 179.5zM581 410q0 -44 -11.5 -94t-36.5 -92t-63.5 -70t-92.5 -28
q-36 0 -61 13t-40.5 34.5t-22 51t-6.5 62.5q0 44 11.5 94t36.5 92.5t63.5 70.5t92.5 28q36 0 61 -13t40.5 -35t22 -51.5t6.5 -62.5zM282 753v-12h124l87 78l62 -78h111v12l-86 132h-161z" />
    <glyph glyph-name="Odieresis" unicode="&#xd6;" horiz-adv-x="778" 
d="M773 425q0 54 -16.5 105.5t-53.5 91t-96 64t-144 24.5q-101 0 -177.5 -31t-127.5 -88.5t-77 -138.5t-26 -180q0 -54 16.5 -105t53.5 -90.5t96 -64t144 -24.5q101 0 177.5 31t127.5 88.5t77 138t26 179.5zM581 410q0 -44 -11.5 -94t-36.5 -92t-63.5 -70t-92.5 -28
q-36 0 -61 13t-40.5 34.5t-22 51t-6.5 62.5q0 44 11.5 94t36.5 92.5t63.5 70.5t92.5 28q36 0 61 -13t40.5 -35t22 -51.5t6.5 -62.5zM684 885h-138l-30 -144h138zM467 885h-138l-30 -144h138z" />
    <glyph glyph-name="Uacute" unicode="&#xda;" horiz-adv-x="722" 
d="M765 698h-185l-69 -316l-18.5 -87.5t-27 -83t-45 -61.5t-72.5 -24q-50 0 -74.5 29t-24.5 72q0 12 4 31.5l9 44.5l84 395h-189l-79 -358q-5 -24 -10 -57t-5 -75q0 -62 21.5 -104t59.5 -67.5t89 -37t110 -11.5q95 0 156 29t99 80.5t60 122t39 153.5zM383 753v-12h118
l165 122v22h-187z" />
    <glyph glyph-name="Udieresis" unicode="&#xdc;" horiz-adv-x="722" 
d="M765 698h-185l-69 -316l-18.5 -87.5t-27 -83t-45 -61.5t-72.5 -24q-50 0 -74.5 29t-24.5 72q0 12 4 31.5l9 44.5l84 395h-189l-79 -358q-5 -24 -10 -57t-5 -75q0 -62 21.5 -104t59.5 -67.5t89 -37t110 -11.5q95 0 156 29t99 80.5t60 122t39 153.5zM676 885h-138l-30 -144
h138zM459 885h-138l-30 -144h138z" />
    <glyph glyph-name="germandbls" unicode="&#xdf;" horiz-adv-x="667" 
d="M7 0h181l109 506q5 24 15 48t25 43.5t34.5 32t44.5 12.5q36 0 58.5 -21.5t22.5 -64.5q0 -26 -10 -45.5t-25.5 -32.5t-34.5 -19t-37 -6h-35l-26 -126q24 0 46 -2t38.5 -10.5t26 -25t9.5 -44.5q0 -30 -11.5 -53.5t-29 -39.5t-39.5 -24t-43 -8q-33 0 -61 11l-28 -129
q22 -3 55 -5.5t64 -2.5q64 0 114.5 18t85.5 49.5t54 75t19 94.5q0 57 -35 99.5t-104 58.5v2q88 9 137.5 56.5t49.5 135.5q0 54 -24.5 89t-62.5 55t-84 27.5t-89 7.5q-72 0 -123.5 -16.5t-87.5 -49.5t-58 -83.5t-36 -119.5z" />
    <glyph glyph-name="aacute" unicode="&#xe1;" 
d="M359 0h147q7 59 18.5 110.5l22 95.5t18 81.5t7.5 68.5q0 48 -18 81.5t-48.5 55t-72 31t-87.5 9.5q-61 0 -106 -8t-85 -22l-18 -131q45 23 82.5 32t86.5 9q45 0 70.5 -19.5t25.5 -47.5v-11q0 -5 -2 -10q-19 2 -44.5 3.5t-52.5 1.5q-60 0 -112 -12t-91 -35.5t-61.5 -59.5
t-22.5 -84q0 -76 44.5 -113.5t129.5 -37.5q53 0 99.5 20t75.5 65v2l2 -2zM186 160q0 35 42 55.5t107 18.5q8 0 22.5 -0.5t25.5 -2.5q-10 -53 -44 -88t-92 -35q-29 0 -45 17t-16 35zM298 611v-12h118l165 122v22h-187z" />
    <glyph glyph-name="acircumflex" unicode="&#xe2;" 
d="M359 0h147q7 59 18.5 110.5l22 95.5t18 81.5t7.5 68.5q0 48 -18 81.5t-48.5 55t-72 31t-87.5 9.5q-61 0 -106 -8t-85 -22l-18 -131q45 23 82.5 32t86.5 9q45 0 70.5 -19.5t25.5 -47.5v-11q0 -5 -2 -10q-19 2 -44.5 3.5t-52.5 1.5q-60 0 -112 -12t-91 -35.5t-61.5 -59.5
t-22.5 -84q0 -76 44.5 -113.5t129.5 -37.5q53 0 99.5 20t75.5 65v2l2 -2zM186 160q0 35 42 55.5t107 18.5q8 0 22.5 -0.5t25.5 -2.5q-10 -53 -44 -88t-92 -35q-29 0 -45 17t-16 35zM189 611v-12h124l87 78l62 -78h111v12l-86 132h-161z" />
    <glyph glyph-name="adieresis" unicode="&#xe4;" 
d="M359 0h147q7 59 18.5 110.5l22 95.5t18 81.5t7.5 68.5q0 48 -18 81.5t-48.5 55t-72 31t-87.5 9.5q-61 0 -106 -8t-85 -22l-18 -131q45 23 82.5 32t86.5 9q45 0 70.5 -19.5t25.5 -47.5v-11q0 -5 -2 -10q-19 2 -44.5 3.5t-52.5 1.5q-60 0 -112 -12t-91 -35.5t-61.5 -59.5
t-22.5 -84q0 -76 44.5 -113.5t129.5 -37.5q53 0 99.5 20t75.5 65v2l2 -2zM186 160q0 35 42 55.5t107 18.5q8 0 22.5 -0.5t25.5 -2.5q-10 -53 -44 -88t-92 -35q-29 0 -45 17t-16 35zM591 743h-138l-30 -144h138zM374 743h-138l-30 -144h138z" />
    <glyph glyph-name="ccedilla" unicode="&#xe7;" horiz-adv-x="500" 
d="M164 -87l36 -23l18.5 4t18.5 2q14 0 23 -9t9 -32q0 -16 -17.5 -23t-36.5 -7q-22 0 -40.5 7t-37.5 16l-24 -42q28 -15 59.5 -21t69.5 -6q21 0 44 4.5t42 14t31.5 25.5t12.5 40q0 40 -21 59.5t-50 19.5q-18 0 -29.5 -1t-20.5 -5l-2 2l45 51q47 0 80 5.5t58 13.5l26 135
q-29 -12 -55.5 -17.5t-60.5 -5.5q-29 0 -51.5 9t-39 24.5t-25 36t-8.5 43.5q0 81 44.5 124.5t114.5 43.5q30 0 59 -7.5t57 -20.5l39 125q-40 17 -85.5 26t-78.5 9q-75 0 -137 -24t-106 -65.5t-68.5 -97.5t-24.5 -120q0 -43 13.5 -82t38.5 -70t61 -52t82 -29z" />
    <glyph glyph-name="eacute" unicode="&#xe9;" 
d="M505 144q-38 -18 -82.5 -27t-80.5 -9q-41 0 -68 7.5t-42.5 21t-22 32t-7.5 39.5h369q3 12 5 25.5l4 27t3 25.5t1 20q0 59 -18 102t-50.5 70.5t-76.5 41t-95 13.5q-87 0 -146.5 -31t-96.5 -77t-53 -100t-16 -99q0 -49 17.5 -92.5t51.5 -75.5t84 -51t115 -19q39 0 86.5 7.5
t95.5 21.5zM213 310q5 19 15.5 37.5t27 33t39 23.5t51.5 9q25 0 41.5 -8t27 -22.5t15 -33t4.5 -39.5h-221zM283 611v-12h118l165 122v22h-187z" />
    <glyph glyph-name="edieresis" unicode="&#xeb;" 
d="M505 144q-38 -18 -82.5 -27t-80.5 -9q-41 0 -68 7.5t-42.5 21t-22 32t-7.5 39.5h369q3 12 5 25.5l4 27t3 25.5t1 20q0 59 -18 102t-50.5 70.5t-76.5 41t-95 13.5q-87 0 -146.5 -31t-96.5 -77t-53 -100t-16 -99q0 -49 17.5 -92.5t51.5 -75.5t84 -51t115 -19q39 0 86.5 7.5
t95.5 21.5zM213 310q5 19 15.5 37.5t27 33t39 23.5t51.5 9q25 0 41.5 -8t27 -22.5t15 -33t4.5 -39.5h-221zM581 743h-138l-30 -144h138zM364 743h-138l-30 -144h138z" />
    <glyph glyph-name="iacute" unicode="&#xed;" horiz-adv-x="333" 
d="M26 0h182l108 521h-182zM144 611v-12h118l165 122v22h-187z" />
    <glyph glyph-name="icircumflex" unicode="&#xee;" horiz-adv-x="333" 
d="M26 0h182l108 521h-182zM35 611v-12h124l87 78l62 -78h111v12l-86 132h-161z" />
    <glyph glyph-name="oacute" unicode="&#xf3;" horiz-adv-x="667" 
d="M453 302q0 -89 -37 -138.5t-100 -49.5q-46 -1 -72 31t-26 85q0 31 10 62.5t28 57t44 41.5t59 16q26 0 44 -9t29 -23.5t16 -33.5t5 -39zM639 300q0 49 -17.5 91.5t-51.5 74t-85 49.5t-117 18q-77 0 -139 -22t-105.5 -62.5t-67.5 -97t-24 -125.5q0 -49 15 -92.5t48 -75.5
t84.5 -51t123.5 -19q73 0 134.5 18t106.5 56.5t70 97.5t25 140zM306 611v-12h118l165 122v22h-187z" />
    <glyph glyph-name="ocircumflex" unicode="&#xf4;" horiz-adv-x="667" 
d="M453 302q0 -89 -37 -138.5t-100 -49.5q-46 -1 -72 31t-26 85q0 31 10 62.5t28 57t44 41.5t59 16q26 0 44 -9t29 -23.5t16 -33.5t5 -39zM639 300q0 49 -17.5 91.5t-51.5 74t-85 49.5t-117 18q-77 0 -139 -22t-105.5 -62.5t-67.5 -97t-24 -125.5q0 -49 15 -92.5t48 -75.5
t84.5 -51t123.5 -19q73 0 134.5 18t106.5 56.5t70 97.5t25 140zM197 611v-12h124l87 78l62 -78h111v12l-86 132h-161z" />
    <glyph glyph-name="odieresis" unicode="&#xf6;" horiz-adv-x="667" 
d="M453 302q0 -89 -37 -138.5t-100 -49.5q-46 -1 -72 31t-26 85q0 31 10 62.5t28 57t44 41.5t59 16q26 0 44 -9t29 -23.5t16 -33.5t5 -39zM639 300q0 49 -17.5 91.5t-51.5 74t-85 49.5t-117 18q-77 0 -139 -22t-105.5 -62.5t-67.5 -97t-24 -125.5q0 -49 15 -92.5t48 -75.5
t84.5 -51t123.5 -19q73 0 134.5 18t106.5 56.5t70 97.5t25 140zM599 743h-138l-30 -144h138zM382 743h-138l-30 -144h138z" />
    <glyph glyph-name="divide" unicode="&#xf7;" horiz-adv-x="600" 
d="M62 190h506v126h-506v-126zM221 461q0 -19 7.5 -36t20 -29.5t29.5 -20t36 -7.5t36 7.5t29.5 20t20 29.5t7.5 36t-7.5 36t-20 29.5t-29.5 20t-36 7.5t-36 -7.5t-29.5 -20t-20 -29.5t-7.5 -36zM221 45q0 -19 7.5 -36t20 -29.5t29.5 -20t36 -7.5t36 7.5t29.5 20t20 29.5
t7.5 36t-7.5 36t-20 29.5t-29.5 20t-36 7.5t-36 -7.5t-29.5 -20t-20 -29.5t-7.5 -36z" />
    <glyph glyph-name="uacute" unicode="&#xfa;" horiz-adv-x="667" 
d="M660 521h-180l-51 -240q-5 -29 -16 -55t-27.5 -45.5t-39.5 -31t-51 -11.5q-19 -1 -32 4t-21.5 13.5t-12.5 19.5t-4 23q0 20 4 39.5l8 39.5l50 244h-186l-48 -243l-7 -35.5t-4.5 -27t-2 -23.5t-0.5 -24q0 -38 10.5 -71t31 -57t51 -38t69.5 -14q71 0 116.5 26.5t84.5 70.5
h2l-14 -85h167q4 35 9.5 68.5t12.5 67.5zM311 611v-12h118l165 122v22h-187z" />
    <glyph glyph-name="udieresis" unicode="&#xfc;" horiz-adv-x="667" 
d="M660 521h-180l-51 -240q-5 -29 -16 -55t-27.5 -45.5t-39.5 -31t-51 -11.5q-19 -1 -32 4t-21.5 13.5t-12.5 19.5t-4 23q0 20 4 39.5l8 39.5l50 244h-186l-48 -243l-7 -35.5t-4.5 -27t-2 -23.5t-0.5 -24q0 -38 10.5 -71t31 -57t51 -38t69.5 -14q71 0 116.5 26.5t84.5 70.5
h2l-14 -85h167q4 35 9.5 68.5t12.5 67.5zM604 743h-138l-30 -144h138zM387 743h-138l-30 -144h138z" />
    <glyph glyph-name="dotaccent" unicode="&#xff;" horiz-adv-x="278" 
d="M316 743h-138l-30 -144h138z" />
    <glyph glyph-name="dotaccent" unicode="&#x2d9;" horiz-adv-x="278" 
d="M316 743h-138l-30 -144h138z" />
    <glyph glyph-name="ordfeminine" horiz-adv-x="397" 
d="M154 617q25 10 53 16.5t57 6.5q10 0 21.5 -1.5t22 -5.5t17.5 -11t7 -17q0 -5 -1 -10t-2 -11q-19 1 -38.5 1.5t-48.5 0.5q-20 0 -49.5 -4.5t-57.5 -17.5t-47.5 -36.5t-19.5 -61.5q0 -36 25.5 -61t71.5 -25q40 0 75 12.5t62 44.5h2l-6 -49h105q1 14 2 24.5t3 21.5l23 101
q5 20 8 37t3 34q0 31 -14.5 51t-37 32t-50.5 16.5t-55 4.5q-63 0 -119 -25zM178 486q0 23 21 31.5t53 8.5q21 0 38.5 -0.5t31.5 -1.5q-2 -14 -10 -27t-21.5 -23.5t-30.5 -17t-36 -6.5q-46 0 -46 36z" />
    <glyph glyph-name="ugrave" horiz-adv-x="667" 
d="M660 521h-180l-51 -240q-5 -29 -16 -55t-27.5 -45.5t-39.5 -31t-51 -11.5q-19 -1 -32 4t-21.5 13.5t-12.5 19.5t-4 23q0 20 4 39.5l8 39.5l50 244h-186l-48 -243l-7 -35.5t-4.5 -27t-2 -23.5t-0.5 -24q0 -38 10.5 -71t31 -57t51 -38t69.5 -14q71 0 116.5 26.5t84.5 70.5
h2l-14 -85h167q4 35 9.5 68.5t12.5 67.5zM402 599h118v12l-96 132h-187v-22z" />
    <glyph glyph-name="atilde" 
d="M359 0h147q7 59 18.5 110.5l22 95.5t18 81.5t7.5 68.5q0 48 -18 81.5t-48.5 55t-72 31t-87.5 9.5q-61 0 -106 -8t-85 -22l-18 -131q45 23 82.5 32t86.5 9q45 0 70.5 -19.5t25.5 -47.5v-11q0 -5 -2 -10q-19 2 -44.5 3.5t-52.5 1.5q-60 0 -112 -12t-91 -35.5t-61.5 -59.5
t-22.5 -84q0 -76 44.5 -113.5t129.5 -37.5q53 0 99.5 20t75.5 65v2l2 -2zM186 160q0 35 42 55.5t107 18.5q8 0 22.5 -0.5t25.5 -2.5q-10 -53 -44 -88t-92 -35q-29 0 -45 17t-16 35zM515 743q-7 -39 -50 -39q-14 0 -30 5.5l-35 12.5t-38.5 12.5t-39.5 5.5q-30 0 -52.5 -12
t-38 -32t-24.5 -45.5t-12 -51.5h72q5 19 15.5 29t33.5 10q12 0 28.5 -5.5t35.5 -12.5t38.5 -12.5t39.5 -5.5q31 0 53.5 11.5t38.5 30.5t25 44.5t12 54.5h-72z" />
    <glyph glyph-name="igrave" horiz-adv-x="333" 
d="M26 0h182l108 521h-182zM235 599h118v12l-96 132h-187v-22z" />
    <glyph glyph-name="Idieresis" horiz-adv-x="333" 
d="M23 0h188l145 698h-188zM473 885h-138l-30 -144h138zM256 885h-138l-30 -144h138z" />
    <glyph glyph-name="dotlessi" unicode="&#x131;" horiz-adv-x="333" 
d="M26 0h182l108 521h-182z" />
    <glyph glyph-name="ydieresis" 
d="M666 521h-191l-177 -329h-2l-47 329h-183l115 -519q-16 -40 -41.5 -63t-63.5 -23q-26 0 -45.5 5t-36.5 10l-38 -131q26 -8 59.5 -15t81.5 -7q43 0 76.5 11t60.5 31t48.5 48t41.5 63zM586 743h-138l-30 -144h138zM369 743h-138l-30 -144h138z" />
    <glyph glyph-name="sterling" horiz-adv-x="612" 
d="M-5 0h507l28 132h-226l40 190h151l19 90h-151l10 47q6 28 13 49t18.5 35.5t30 21.5t48.5 7q41 0 76 -4.5t59 -11.5l40 131q-84 23 -167 23q-68 0 -117 -15t-83 -42.5t-55.5 -67.5t-34.5 -90l-21 -83h-84l-21 -90h86l-41 -190h-99z" />
    <glyph glyph-name="ae" horiz-adv-x="889" 
d="M873 208q3 12 5 25.5l4 27t3 25.5t1 20q0 59 -18.5 102t-48.5 70.5t-69 41t-80 13.5q-61 0 -100 -15.5t-70 -41.5q-38 35 -80 46t-87 11q-61 0 -106 -8t-85 -22l-18 -131q45 23 82.5 32t86.5 9q45 0 70.5 -19.5t25.5 -47.5v-11q0 -5 -2 -10q-19 2 -44.5 3.5t-52.5 1.5
q-60 0 -112 -12t-91 -35.5t-61.5 -59.5t-22.5 -84q0 -76 44.5 -113.5t129.5 -37.5q79 0 138 26.5t102 80.5q17 -33 39 -54t47 -32.5t50.5 -16t48.5 -4.5q39 0 86.5 7.5t95.5 21.5l23 127q-38 -18 -82.5 -27t-80.5 -9q-39 0 -64 9.5t-39.5 24t-19.5 32t-4 34.5h356zM175 160
q0 35 42 55.5t107 18.5q8 0 22.5 -0.5t25.5 -2.5q-10 -53 -44 -88t-92 -35q-29 0 -45 17t-16 35zM539 310q2 19 10 37.5t22 33t35.5 23.5t50.5 9q47 0 66 -30.5t19 -72.5h-203z" />
    <glyph glyph-name="radical" unicode="&#x221a;" horiz-adv-x="553" 
d="M564 786h-127l-165 -809l-123 264l-160 -73l45 -97l52 25l150 -310h114z" />
    <glyph glyph-name="Aring" horiz-adv-x="778" 
d="M-41 0h202l83 149h271l19 -149h188l-114 698h-234zM497 281h-180l148 273h2zM388 828q0 -23 9 -43.5t24 -35.5t35.5 -24t43.5 -9t43.5 9t35.5 24t24 35.5t9 43.5t-9 43.5t-24 35.5t-35.5 24t-43.5 9t-43.5 -9t-35.5 -24t-24 -35.5t-9 -43.5zM448 828q0 21 15.5 36.5
t36.5 15.5t36.5 -15.5t15.5 -36.5t-15.5 -36.5t-36.5 -15.5t-36.5 15.5t-15.5 36.5z" />
    <glyph glyph-name="ring" unicode="&#x2da;" horiz-adv-x="278" 
d="M123 692q0 -23 9 -43.5t24 -35.5t35.5 -24t43.5 -9t43.5 9t35.5 24t24 35.5t9 43.5t-9 43.5t-24 35.5t-35.5 24t-43.5 9t-43.5 -9t-35.5 -24t-24 -35.5t-9 -43.5zM183 692q0 21 15.5 36.5t36.5 15.5t36.5 -15.5t15.5 -36.5t-15.5 -36.5t-36.5 -15.5t-36.5 15.5
t-15.5 36.5z" />
    <glyph glyph-name="tilde" unicode="&#x2dc;" horiz-adv-x="278" 
d="M353 743q-7 -39 -50 -39q-14 0 -30 5.5l-35 12.5t-38.5 12.5t-39.5 5.5q-30 0 -52.5 -12t-38 -32t-24.5 -45.5t-12 -51.5h72q5 19 15.5 29t33.5 10q12 0 28.5 -5.5t35.5 -12.5t38.5 -12.5t39.5 -5.5q31 0 53.5 11.5t38.5 30.5t25 44.5t12 54.5h-72z" />
    <glyph glyph-name="ecircumflex" 
d="M505 144q-38 -18 -82.5 -27t-80.5 -9q-41 0 -68 7.5t-42.5 21t-22 32t-7.5 39.5h369q3 12 5 25.5l4 27t3 25.5t1 20q0 59 -18 102t-50.5 70.5t-76.5 41t-95 13.5q-87 0 -146.5 -31t-96.5 -77t-53 -100t-16 -99q0 -49 17.5 -92.5t51.5 -75.5t84 -51t115 -19q39 0 86.5 7.5
t95.5 21.5zM213 310q5 19 15.5 37.5t27 33t39 23.5t51.5 9q25 0 41.5 -8t27 -22.5t15 -33t4.5 -39.5h-221zM174 611v-12h124l87 78l62 -78h111v12l-86 132h-161z" />
    <glyph glyph-name="ucircumflex" horiz-adv-x="667" 
d="M660 521h-180l-51 -240q-5 -29 -16 -55t-27.5 -45.5t-39.5 -31t-51 -11.5q-19 -1 -32 4t-21.5 13.5t-12.5 19.5t-4 23q0 20 4 39.5l8 39.5l50 244h-186l-48 -243l-7 -35.5t-4.5 -27t-2 -23.5t-0.5 -24q0 -38 10.5 -71t31 -57t51 -38t69.5 -14q71 0 116.5 26.5t84.5 70.5
h2l-14 -85h167q4 35 9.5 68.5t12.5 67.5zM202 611v-12h124l87 78l62 -78h111v12l-86 132h-161z" />
    <glyph glyph-name="Ecircumflex" 
d="M15 0h505l27 132h-319l34 158h290l29 132h-291l32 144h307l27 132h-491zM222 753v-12h124l87 78l62 -78h111v12l-86 132h-161z" />
    <glyph glyph-name="aring" 
d="M359 0h147q7 59 18.5 110.5l22 95.5t18 81.5t7.5 68.5q0 48 -18 81.5t-48.5 55t-72 31t-87.5 9.5q-61 0 -106 -8t-85 -22l-18 -131q45 23 82.5 32t86.5 9q45 0 70.5 -19.5t25.5 -47.5v-11q0 -5 -2 -10q-19 2 -44.5 3.5t-52.5 1.5q-60 0 -112 -12t-91 -35.5t-61.5 -59.5
t-22.5 -84q0 -76 44.5 -113.5t129.5 -37.5q53 0 99.5 20t75.5 65v2l2 -2zM186 160q0 35 42 55.5t107 18.5q8 0 22.5 -0.5t25.5 -2.5q-10 -53 -44 -88t-92 -35q-29 0 -45 17t-16 35zM280 692q0 -23 9 -43.5t24 -35.5t35.5 -24t43.5 -9t43.5 9t35.5 24t24 35.5t9 43.5t-9 43.5
t-24 35.5t-35.5 24t-43.5 9t-43.5 -9t-35.5 -24t-24 -35.5t-9 -43.5zM340 692q0 21 15.5 36.5t36.5 15.5t36.5 -15.5t15.5 -36.5t-15.5 -36.5t-36.5 -15.5t-36.5 15.5t-15.5 36.5z" />
    <glyph glyph-name="lessequal" unicode="&#x2264;" horiz-adv-x="600" 
d="M62 278l506 -169v123l-343 106l343 106v123l-506 -171v-118zM62 79v-119h506v119h-506z" />
    <glyph glyph-name="agrave" 
d="M359 0h147q7 59 18.5 110.5l22 95.5t18 81.5t7.5 68.5q0 48 -18 81.5t-48.5 55t-72 31t-87.5 9.5q-61 0 -106 -8t-85 -22l-18 -131q45 23 82.5 32t86.5 9q45 0 70.5 -19.5t25.5 -47.5v-11q0 -5 -2 -10q-19 2 -44.5 3.5t-52.5 1.5q-60 0 -112 -12t-91 -35.5t-61.5 -59.5
t-22.5 -84q0 -76 44.5 -113.5t129.5 -37.5q53 0 99.5 20t75.5 65v2l2 -2zM186 160q0 35 42 55.5t107 18.5q8 0 22.5 -0.5t25.5 -2.5q-10 -53 -44 -88t-92 -35q-29 0 -45 17t-16 35zM389 599h118v12l-96 132h-187v-22z" />
    <glyph glyph-name="Ugrave" horiz-adv-x="722" 
d="M765 698h-185l-69 -316l-18.5 -87.5t-27 -83t-45 -61.5t-72.5 -24q-50 0 -74.5 29t-24.5 72q0 12 4 31.5l9 44.5l84 395h-189l-79 -358q-5 -24 -10 -57t-5 -75q0 -62 21.5 -104t59.5 -67.5t89 -37t110 -11.5q95 0 156 29t99 80.5t60 122t39 153.5zM474 741h118v12
l-96 132h-187v-22z" />
    <glyph glyph-name="questiondown" horiz-adv-x="556" 
d="M439 -28q-37 -17 -79.5 -26t-76.5 -9q-23 0 -42.5 6t-34 15t-22.5 21t-8 24q0 24 13 44.5t33.5 40l44 40t45 45t36.5 54.5t18 70h-142q-10 -30 -31 -53.5t-46 -45l-52 -43t-49 -47.5t-36 -58t-14 -75q0 -46 23.5 -77t60.5 -50.5t82 -28t88 -8.5t84.5 7t83.5 17zM425 521
h-169l-34 -162h169z" />
    <glyph glyph-name="cent" horiz-adv-x="612" 
d="M326 134q-29 14 -46 40.5t-17 58.5q0 78 39.5 120.5t104.5 47.5zM243 -140h71l39 128q42 2 71.5 7t52.5 13l26 135q-28 -11 -53 -16.5t-57 -6.5l83 276q17 -5 32 -10t30 -13l39 125q-32 13 -64 20l39 130h-70l-36 -118q-20 3 -33 3q-75 0 -137 -24t-106 -65.5
t-68.5 -97.5t-24.5 -120q0 -45 14 -84.5t40.5 -71t65 -52t86.5 -26.5z" />
    <glyph glyph-name="fi" unicode="&#xfb01;" horiz-adv-x="778" 
d="M597 606h182l28 132h-182zM471 0h182l108 521h-182zM73 0h180l82 395h132l28 126h-134l7 31q10 44 30.5 64t52.5 20q15 0 29 -4t28 -9l34 123q-29 8 -64.5 12t-69.5 4q-88 0 -142 -47t-71 -128l-14 -66h-109l-28 -126h113z" />
    <glyph glyph-name="oslash" horiz-adv-x="667" 
d="M448 341q3 -9 4 -18.5t1 -20.5q0 -89 -37 -138.5t-100 -49.5q-8 0 -16 1t-16 4zM223 189q-5 22 -5 41q0 31 10 62.5t28 57t44 41.5t59 16q14 0 23 -3zM61 -30l72 -54l64 86q47 -14 106 -14q73 0 134.5 18t106.5 56.5t70 97.5t25 140q0 56 -22 102.5t-66 78.5l56 75
l-72 54l-67 -90q-23 6 -47.5 9.5t-52.5 3.5q-77 0 -139 -22t-105.5 -62.5t-67.5 -97t-24 -125.5q0 -57 19.5 -104.5t62.5 -79.5z" />
    <glyph glyph-name="Ograve" horiz-adv-x="778" 
d="M773 425q0 54 -16.5 105.5t-53.5 91t-96 64t-144 24.5q-101 0 -177.5 -31t-127.5 -88.5t-77 -138.5t-26 -180q0 -54 16.5 -105t53.5 -90.5t96 -64t144 -24.5q101 0 177.5 31t127.5 88.5t77 138t26 179.5zM581 410q0 -44 -11.5 -94t-36.5 -92t-63.5 -70t-92.5 -28
q-36 0 -61 13t-40.5 34.5t-22 51t-6.5 62.5q0 44 11.5 94t36.5 92.5t63.5 70.5t92.5 28q36 0 61 -13t40.5 -35t22 -51.5t6.5 -62.5zM482 741h118v12l-96 132h-187v-22z" />
    <glyph glyph-name="Otilde" horiz-adv-x="778" 
d="M773 425q0 54 -16.5 105.5t-53.5 91t-96 64t-144 24.5q-101 0 -177.5 -31t-127.5 -88.5t-77 -138.5t-26 -180q0 -54 16.5 -105t53.5 -90.5t96 -64t144 -24.5q101 0 177.5 31t127.5 88.5t77 138t26 179.5zM581 410q0 -44 -11.5 -94t-36.5 -92t-63.5 -70t-92.5 -28
q-36 0 -61 13t-40.5 34.5t-22 51t-6.5 62.5q0 44 11.5 94t36.5 92.5t63.5 70.5t92.5 28q36 0 61 -13t40.5 -35t22 -51.5t6.5 -62.5zM613 885q-7 -39 -50 -39q-14 0 -30.5 5.5t-35 12.5t-38 12.5t-39.5 5.5q-30 0 -52.5 -12t-38 -32t-24.5 -45.5t-12 -51.5h72q5 19 15.5 29
t33.5 10q12 0 28.5 -5.5t35.5 -12.5t38.5 -12.5t39.5 -5.5q31 0 53.5 11.5t38.5 30.5t25 44.5t12 54.5h-72z" />
    <glyph glyph-name="fl" unicode="&#xfb02;" horiz-adv-x="778" 
d="M471 0h182l156 750h-182zM73 0h180l82 395h132l28 126h-134l7 31q10 44 30.5 64t52.5 20q15 0 29 -4t28 -9l34 123q-29 8 -64.5 12t-69.5 4q-88 0 -142 -47t-71 -128l-14 -66h-109l-28 -126h113z" />
    <glyph glyph-name="ntilde" horiz-adv-x="667" 
d="M7 0h180l51 240q5 29 16 55t27.5 45.5t39 31t51.5 11.5q37 1 53.5 -18t16.5 -42q0 -20 -4 -39.5l-8 -39.5l-50 -244h186l48 243l7 35.5t4.5 27t2 23.5t0.5 24q0 38 -10.5 71t-31 57t-51 38t-69.5 14q-36 0 -64.5 -7t-52.5 -20t-44.5 -30.5t-39.5 -39.5h-2l14 85h-167
q-4 -35 -9.5 -68.5t-12.5 -67.5zM548 743q-7 -39 -50 -39q-14 0 -30 5.5l-35 12.5t-38.5 12.5t-39.5 5.5q-30 0 -52.5 -12t-38 -32t-24.5 -45.5t-12 -51.5h72q5 19 15.5 29t33.5 10q12 0 28.5 -5.5t35.5 -12.5t38.5 -12.5t39.5 -5.5q31 0 53.5 11.5t38.5 30.5t25 44.5
t12 54.5h-72z" />
    <glyph glyph-name="AE" horiz-adv-x="944" 
d="M-28 0h204l85 149h197l-22 -149h388l28 132h-219l24 158h201l27 132h-211l22 144h237l28 132h-534zM477 281h-136l177 283h2z" />
    <glyph glyph-name="circumflex" unicode="&#x2c6;" horiz-adv-x="278" 
d="M22 611v-12h124l87 78l62 -78h111v12l-86 132h-161z" />
    <glyph glyph-name="Ucircumflex" horiz-adv-x="722" 
d="M765 698h-185l-69 -316l-18.5 -87.5t-27 -83t-45 -61.5t-72.5 -24q-50 0 -74.5 29t-24.5 72q0 12 4 31.5l9 44.5l84 395h-189l-79 -358q-5 -24 -10 -57t-5 -75q0 -62 21.5 -104t59.5 -67.5t89 -37t110 -11.5q95 0 156 29t99 80.5t60 122t39 153.5zM274 753v-12h124l87 78
l62 -78h111v12l-86 132h-161z" />
    <glyph glyph-name="notequal" unicode="&#x2260;" horiz-adv-x="600" 
d="M223 209h-161v-118h102l-52 -103l103 -52l79 155h274v118h-215l55 110h160v118h-100l52 102l-104 53l-78 -155h-276v-118h216z" />
    <glyph glyph-name="summation" unicode="&#x2211;" horiz-adv-x="660" 
d="M623 786h-585v-99l287 -395l-299 -406v-100h609v114h-450l287 393l-270 378h421v115z" />
    <glyph glyph-name="ordmasculine" horiz-adv-x="434" 
d="M194 528q0 18 6.5 36t18.5 31.5t29 22t37 8.5q36 0 48.5 -22t12.5 -53q0 -34 -23.5 -60.5t-65.5 -26.5q-32 0 -47.5 18t-15.5 46zM472 560q0 37 -13.5 65t-37.5 47t-56.5 28.5t-70.5 9.5q-50 0 -91.5 -13t-71.5 -37.5t-46.5 -61t-16.5 -84.5q0 -38 15 -63.5t40 -41.5
t58.5 -22.5t70.5 -6.5q49 0 90 12.5t69.5 36t44.5 56.5t16 75z" />
    <glyph glyph-name="partialdiff" unicode="&#x2202;" horiz-adv-x="564" 
d="M132 577l20.5 15.5t26.5 16t33.5 13t40.5 5.5q12 0 30.5 -3.5t37.5 -16t36.5 -36.5t27.5 -66q11 -41 12 -69.5t1 -47.5q-41 32 -75.5 41.5t-63.5 9.5q-47 0 -87 -16.5t-69 -45.5t-45.5 -70t-16.5 -90q0 -41 13 -82t40 -74t69.5 -53.5t101.5 -20.5q63 0 106 21.5
t71.5 55.5t44.5 76.5t23.5 84t9 77.5t1.5 57q0 111 -27 181.5t-68 110.5t-89 55t-90 15q-32 0 -58 -6t-47.5 -16t-40 -22.5t-34.5 -25.5zM396 290q1 -39 -5.5 -77t-22 -68t-40.5 -48.5t-60 -18.5q-21 0 -41 8t-35 24t-24 41t-9 60q0 27 7 52t22 44t37 30.5t52 11.5
q25 0 45 -7t34.5 -16.5t24.5 -19.5t15 -16z" />
    <glyph glyph-name="Egrave" 
d="M15 0h505l27 132h-319l34 158h290l29 132h-291l32 144h307l27 132h-491zM422 741h118v12l-96 132h-187v-22z" />
    <glyph glyph-name="florin" unicode="&#x192;" horiz-adv-x="612" 
d="M100 314h125l-62 -322q-5 -26 -11.5 -43t-14 -27t-17 -14t-19.5 -4q-21 0 -36.5 6t-25.5 16l-24 -122q8 -5 21.5 -9.5t29.5 -8t33.5 -6t35.5 -2.5q54 0 90.5 21t61 55.5t39 79.5t23.5 93l55 287h121l21 108h-124l11 58q4 22 8.5 41t11.5 33t18 22t28 8q22 0 37.5 -8.5
t26.5 -16.5l24 121q-25 13 -60.5 21.5t-70.5 8.5q-46 0 -79 -17t-56 -45.5t-37 -67t-22 -80.5l-15 -78h-126z" />
    <glyph glyph-name="ograve" horiz-adv-x="667" 
d="M453 302q0 -89 -37 -138.5t-100 -49.5q-46 -1 -72 31t-26 85q0 31 10 62.5t28 57t44 41.5t59 16q26 0 44 -9t29 -23.5t16 -33.5t5 -39zM639 300q0 49 -17.5 91.5t-51.5 74t-85 49.5t-117 18q-77 0 -139 -22t-105.5 -62.5t-67.5 -97t-24 -125.5q0 -49 15 -92.5t48 -75.5
t84.5 -51t123.5 -19q73 0 134.5 18t106.5 56.5t70 97.5t25 140zM397 599h118v12l-96 132h-187v-22z" />
    <glyph glyph-name="egrave" 
d="M505 144q-38 -18 -82.5 -27t-80.5 -9q-41 0 -68 7.5t-42.5 21t-22 32t-7.5 39.5h369q3 12 5 25.5l4 27t3 25.5t1 20q0 59 -18 102t-50.5 70.5t-76.5 41t-95 13.5q-87 0 -146.5 -31t-96.5 -77t-53 -100t-16 -99q0 -49 17.5 -92.5t51.5 -75.5t84 -51t115 -19q39 0 86.5 7.5
t95.5 21.5zM213 310q5 19 15.5 37.5t27 33t39 23.5t51.5 9q25 0 41.5 -8t27 -22.5t15 -33t4.5 -39.5h-221zM374 599h118v12l-96 132h-187v-22z" />
    <glyph glyph-name="Igrave" horiz-adv-x="333" 
d="M23 0h188l145 698h-188zM257 741h118v12l-96 132h-187v-22z" />
    <glyph glyph-name="Ntilde" horiz-adv-x="778" 
d="M13 0h176l97 483h2l146 -483h232l148 698h-176l-98 -484h-2l-143 484h-233zM633 885q-7 -39 -50 -39q-14 0 -30.5 5.5t-35 12.5t-38 12.5t-39.5 5.5q-30 0 -52.5 -12t-38 -32t-24.5 -45.5t-12 -51.5h72q5 19 15.5 29t33.5 10q12 0 28.5 -5.5t35.5 -12.5t38.5 -12.5
t39.5 -5.5q31 0 53.5 11.5t38.5 30.5t25 44.5t12 54.5h-72z" />
    <glyph glyph-name="greaterequal" unicode="&#x2265;" horiz-adv-x="600" 
d="M568 278v118l-506 171v-123l343 -106l-343 -106v-123zM568 79h-506v-119h506v119z" />
    <glyph glyph-name="Oslash" horiz-adv-x="778" 
d="M571 482q5 -16 7.5 -34t2.5 -38q0 -44 -11.5 -94t-36.5 -92t-63.5 -70t-92.5 -28q-35 0 -59 12zM253 227q-6 27 -6 60q0 44 11.5 94t36.5 92.5t63.5 70.5t92.5 28q26 0 50 -8zM55 -42l85 -61l84 114q61 -23 141 -23q101 0 177.5 31t127.5 88.5t77 138t26 179.5
q0 60 -20 115.5t-67 97.5l76 102l-86 61l-82 -111q-55 20 -131 20q-101 0 -177.5 -31t-127.5 -88.5t-77 -138.5t-26 -180q0 -57 18.5 -110.5t61.5 -94.5z" />
    <glyph glyph-name="idieresis" horiz-adv-x="333" 
d="M26 0h182l108 521h-182zM437 743h-138l-30 -144h138zM220 743h-138l-30 -144h138z" />
    <glyph glyph-name="yen" horiz-adv-x="612" 
d="M167 0h180l28 138h141l19 84h-144l7 36l17 24h135l19 84h-96l230 332h-197l-174 -281l-62 281h-186l101 -332h-88l-19 -84h133l7 -24l-7 -36h-138l-19 -84h141z" />
    <glyph glyph-name="Atilde" horiz-adv-x="778" 
d="M-41 0h202l83 149h271l19 -149h188l-114 698h-234zM497 281h-180l148 273h2zM623 885q-7 -39 -50 -39q-14 0 -30.5 5.5t-35 12.5t-38 12.5t-39.5 5.5q-30 0 -52.5 -12t-38 -32t-24.5 -45.5t-12 -51.5h72q5 19 15.5 29t33.5 10q12 0 28.5 -5.5t35.5 -12.5t38.5 -12.5
t39.5 -5.5q31 0 53.5 11.5t38.5 30.5t25 44.5t12 54.5h-72z" />
    <glyph glyph-name="macron" unicode="&#x2c9;" horiz-adv-x="278" 
d="M410 637l18 84h-373l-18 -84h373z" />
    <glyph glyph-name="lozenge" unicode="&#x25ca;" horiz-adv-x="593" 
d="M350 747h-109l-180 -391l180 -391h109l182 391zM411 356l-115 -274l-115 274l115 273z" />
    <glyph glyph-name="exclamdown" horiz-adv-x="444" 
d="M302 292h-138l-124 -469h186zM366 521h-169l-34 -162h169z" />
    <glyph glyph-name="Agrave" horiz-adv-x="778" 
d="M-41 0h202l83 149h271l19 -149h188l-114 698h-234zM497 281h-180l148 273h2zM486 741h118v12l-96 132h-187v-22z" />
    <glyph glyph-name="otilde" horiz-adv-x="667" 
d="M453 302q0 -89 -37 -138.5t-100 -49.5q-46 -1 -72 31t-26 85q0 31 10 62.5t28 57t44 41.5t59 16q26 0 44 -9t29 -23.5t16 -33.5t5 -39zM639 300q0 49 -17.5 91.5t-51.5 74t-85 49.5t-117 18q-77 0 -139 -22t-105.5 -62.5t-67.5 -97t-24 -125.5q0 -49 15 -92.5t48 -75.5
t84.5 -51t123.5 -19q73 0 134.5 18t106.5 56.5t70 97.5t25 140zM528 743q-7 -39 -50 -39q-14 0 -30 5.5l-35 12.5t-38.5 12.5t-39.5 5.5q-30 0 -52.5 -12t-38 -32t-24.5 -45.5t-12 -51.5h72q5 19 15.5 29t33.5 10q12 0 28.5 -5.5t35.5 -12.5t38.5 -12.5t39.5 -5.5
q31 0 53.5 11.5t38.5 30.5t25 44.5t12 54.5h-72z" />
    <glyph glyph-name="space" unicode=" " horiz-adv-x="306" 
 />
    <glyph glyph-name="space" unicode="&#xa0;" horiz-adv-x="306" 
 />
    <glyph glyph-name="OE" unicode="&#x152;" 
d="M628 679q-35 17 -92 24t-122 7q-57 0 -113 -11.5t-100 -38.5t-71 -72t-27 -112q0 -49 20 -80.5t50 -51.5t65.5 -33.5t65.5 -26.5t50 -30t20 -45q0 -27 -15 -43.5t-37.5 -25t-48.5 -11.5t-48 -3q-23 0 -47.5 3t-47.5 8t-43 12.5t-34 16.5l-44 -142q46 -14 104 -25t112 -11
q61 0 121.5 11t109.5 38.5t79.5 74.5t30.5 119q0 53 -20 87t-50 56t-65.5 36t-65.5 27t-50 28t-20 40q0 21 10.5 34t28.5 20.5t42.5 10t52.5 2.5q52 0 89.5 -9.5t64.5 -22.5zM331 753v-12h118l165 122v22h-187z" />
    <glyph glyph-name="oe" unicode="&#x153;" horiz-adv-x="500" 
d="M-4 15q42 -12 100.5 -20t118.5 -7q51 1 95.5 13.5t77.5 36.5t52 60.5t19 84.5q0 33 -16.5 55.5t-41.5 38t-54.5 26.5l-54.5 20.5t-41.5 19.5t-16.5 25q0 13 7.5 22t19.5 14t27 7t30 2q41 0 75 -7.5t69 -21.5l38 118q-49 16 -94 23.5t-79 7.5q-45 0 -92 -9.5t-85 -30
t-62 -53t-24 -78.5q0 -43 16 -70t40 -44t51.5 -27l51.5 -18.5t40 -19t16 -29.5q0 -16 -11.5 -25.5t-28 -14t-33.5 -5.5t-28 -1q-77 0 -146 30zM242 611v-12h118l165 122v22h-187z" />
    <glyph glyph-name="Ydieresis" unicode="&#x178;" horiz-adv-x="500" 
d="M-24 0h453l27 132h-238l286 253l28 136h-442l-27 -132h223l-284 -253zM242 611v-12h118l165 122v22h-187z" />
    <glyph glyph-name="Scaron" 
d="M628 679q-35 17 -92 24t-122 7q-57 0 -113 -11.5t-100 -38.5t-71 -72t-27 -112q0 -49 20 -80.5t50 -51.5t65.5 -33.5t65.5 -26.5t50 -30t20 -45q0 -27 -15 -43.5t-37.5 -25t-48.5 -11.5t-48 -3q-23 0 -47.5 3t-47.5 8t-43 12.5t-34 16.5l-44 -142q46 -14 104 -25t112 -11
q61 0 121.5 11t109.5 38.5t79.5 74.5t30.5 119q0 53 -20 87t-50 56t-65.5 36t-65.5 27t-50 28t-20 40q0 21 10.5 34t28.5 20.5t42.5 10t52.5 2.5q52 0 89.5 -9.5t64.5 -22.5zM506 741l137 132v12h-124l-87 -78l-62 78h-111v-12l86 -132h161z" />
    <glyph glyph-name="Scaron" unicode="&#x160;" 
d="M628 679q-35 17 -92 24t-122 7q-57 0 -113 -11.5t-100 -38.5t-71 -72t-27 -112q0 -49 20 -80.5t50 -51.5t65.5 -33.5t65.5 -26.5t50 -30t20 -45q0 -27 -15 -43.5t-37.5 -25t-48.5 -11.5t-48 -3q-23 0 -47.5 3t-47.5 8t-43 12.5t-34 16.5l-44 -142q46 -14 104 -25t112 -11
q61 0 121.5 11t109.5 38.5t79.5 74.5t30.5 119q0 53 -20 87t-50 56t-65.5 36t-65.5 27t-50 28t-20 40q0 21 10.5 34t28.5 20.5t42.5 10t52.5 2.5q52 0 89.5 -9.5t64.5 -22.5zM506 741l137 132v12h-124l-87 -78l-62 78h-111v-12l86 -132h161z" />
    <glyph glyph-name="Sacute" 
d="M628 679q-35 17 -92 24t-122 7q-57 0 -113 -11.5t-100 -38.5t-71 -72t-27 -112q0 -49 20 -80.5t50 -51.5t65.5 -33.5t65.5 -26.5t50 -30t20 -45q0 -27 -15 -43.5t-37.5 -25t-48.5 -11.5t-48 -3q-23 0 -47.5 3t-47.5 8t-43 12.5t-34 16.5l-44 -142q46 -14 104 -25t112 -11
q61 0 121.5 11t109.5 38.5t79.5 74.5t30.5 119q0 53 -20 87t-50 56t-65.5 36t-65.5 27t-50 28t-20 40q0 21 10.5 34t28.5 20.5t42.5 10t52.5 2.5q52 0 89.5 -9.5t64.5 -22.5zM331 753v-12h118l165 122v22h-187z" />
    <glyph glyph-name="Sacute" unicode="&#x15a;" 
d="M628 679q-35 17 -92 24t-122 7q-57 0 -113 -11.5t-100 -38.5t-71 -72t-27 -112q0 -49 20 -80.5t50 -51.5t65.5 -33.5t65.5 -26.5t50 -30t20 -45q0 -27 -15 -43.5t-37.5 -25t-48.5 -11.5t-48 -3q-23 0 -47.5 3t-47.5 8t-43 12.5t-34 16.5l-44 -142q46 -14 104 -25t112 -11
q61 0 121.5 11t109.5 38.5t79.5 74.5t30.5 119q0 53 -20 87t-50 56t-65.5 36t-65.5 27t-50 28t-20 40q0 21 10.5 34t28.5 20.5t42.5 10t52.5 2.5q52 0 89.5 -9.5t64.5 -22.5zM331 753v-12h118l165 122v22h-187z" />
    <glyph glyph-name="Tcaron" horiz-adv-x="556" 
d="M134 0h189l119 560h174l30 138h-537l-30 -138h174zM462 741l137 132v12h-124l-87 -78l-62 78h-111v-12l86 -132h161z" />
    <glyph glyph-name="Tcaron" unicode="&#x164;" horiz-adv-x="556" 
d="M134 0h189l119 560h174l30 138h-537l-30 -138h174zM462 741l137 132v12h-124l-87 -78l-62 78h-111v-12l86 -132h161z" />
    <glyph glyph-name="Zcaron" 
d="M109 560h301l-396 -412l-32 -148h552l26 138h-319l403 412l31 148h-538zM486 741l137 132v12h-124l-87 -78l-62 78h-111v-12l86 -132h161z" />
    <glyph glyph-name="Zcaron" unicode="&#x17d;" 
d="M109 560h301l-396 -412l-32 -148h552l26 138h-319l403 412l31 148h-538zM486 741l137 132v12h-124l-87 -78l-62 78h-111v-12l86 -132h161z" />
    <glyph glyph-name="Zacute" 
d="M109 560h301l-396 -412l-32 -148h552l26 138h-319l403 412l31 148h-538zM296 753v-12h118l165 122v22h-187z" />
    <glyph glyph-name="Zacute" unicode="&#x179;" 
d="M109 560h301l-396 -412l-32 -148h552l26 138h-319l403 412l31 148h-538zM296 753v-12h118l165 122v22h-187z" />
    <glyph glyph-name="scaron" horiz-adv-x="500" 
d="M-4 15q42 -12 100.5 -20t118.5 -7q51 1 95.5 13.5t77.5 36.5t52 60.5t19 84.5q0 33 -16.5 55.5t-41.5 38t-54.5 26.5l-54.5 20.5t-41.5 19.5t-16.5 25q0 13 7.5 22t19.5 14t27 7t30 2q41 0 75 -7.5t69 -21.5l38 118q-49 16 -94 23.5t-79 7.5q-45 0 -92 -9.5t-85 -30
t-62 -53t-24 -78.5q0 -43 16 -70t40 -44t51.5 -27l51.5 -18.5t40 -19t16 -29.5q0 -16 -11.5 -25.5t-28 -14t-33.5 -5.5t-28 -1q-77 0 -146 30zM407 599l137 132v12h-124l-87 -78l-62 78h-111v-12l86 -132h161z" />
    <glyph glyph-name="scaron" unicode="&#x161;" horiz-adv-x="500" 
d="M-4 15q42 -12 100.5 -20t118.5 -7q51 1 95.5 13.5t77.5 36.5t52 60.5t19 84.5q0 33 -16.5 55.5t-41.5 38t-54.5 26.5l-54.5 20.5t-41.5 19.5t-16.5 25q0 13 7.5 22t19.5 14t27 7t30 2q41 0 75 -7.5t69 -21.5l38 118q-49 16 -94 23.5t-79 7.5q-45 0 -92 -9.5t-85 -30
t-62 -53t-24 -78.5q0 -43 16 -70t40 -44t51.5 -27l51.5 -18.5t40 -19t16 -29.5q0 -16 -11.5 -25.5t-28 -14t-33.5 -5.5t-28 -1q-77 0 -146 30zM407 599l137 132v12h-124l-87 -78l-62 78h-111v-12l86 -132h161z" />
    <glyph glyph-name="sacute" horiz-adv-x="500" 
d="M-4 15q42 -12 100.5 -20t118.5 -7q51 1 95.5 13.5t77.5 36.5t52 60.5t19 84.5q0 33 -16.5 55.5t-41.5 38t-54.5 26.5l-54.5 20.5t-41.5 19.5t-16.5 25q0 13 7.5 22t19.5 14t27 7t30 2q41 0 75 -7.5t69 -21.5l38 118q-49 16 -94 23.5t-79 7.5q-45 0 -92 -9.5t-85 -30
t-62 -53t-24 -78.5q0 -43 16 -70t40 -44t51.5 -27l51.5 -18.5t40 -19t16 -29.5q0 -16 -11.5 -25.5t-28 -14t-33.5 -5.5t-28 -1q-77 0 -146 30zM242 611v-12h118l165 122v22h-187z" />
    <glyph glyph-name="sacute" unicode="&#x15b;" horiz-adv-x="500" 
d="M-4 15q42 -12 100.5 -20t118.5 -7q51 1 95.5 13.5t77.5 36.5t52 60.5t19 84.5q0 33 -16.5 55.5t-41.5 38t-54.5 26.5l-54.5 20.5t-41.5 19.5t-16.5 25q0 13 7.5 22t19.5 14t27 7t30 2q41 0 75 -7.5t69 -21.5l38 118q-49 16 -94 23.5t-79 7.5q-45 0 -92 -9.5t-85 -30
t-62 -53t-24 -78.5q0 -43 16 -70t40 -44t51.5 -27l51.5 -18.5t40 -19t16 -29.5q0 -16 -11.5 -25.5t-28 -14t-33.5 -5.5t-28 -1q-77 0 -146 30zM242 611v-12h118l165 122v22h-187z" />
    <glyph glyph-name="tcaron" horiz-adv-x="474" 
d="M51 395h96l-31 -146q-9 -42 -12.5 -64.5t-3.5 -42.5q0 -41 13 -70t35 -48t52 -27.5t65 -8.5q27 0 55 2.5t57 7.5l20 119l-29 -10t-29 -5q-27 0 -43 16t-16 42q0 19 4.5 40l10.5 50l31 145h131l22 126h-124l36 163l-190 -51l-25 -112h-103zM430 649h72q-9 -26 -35 -39
t-54 -13l-9 -41q64 0 110 27t60 90l17 77h-139z" />
    <glyph glyph-name="tcaron" unicode="&#x165;" horiz-adv-x="474" 
d="M51 395h96l-31 -146q-9 -42 -12.5 -64.5t-3.5 -42.5q0 -41 13 -70t35 -48t52 -27.5t65 -8.5q27 0 55 2.5t57 7.5l20 119l-29 -10t-29 -5q-27 0 -43 16t-16 42q0 19 4.5 40l10.5 50l31 145h131l22 126h-124l36 163l-190 -51l-25 -112h-103zM430 649h72q-9 -26 -35 -39
t-54 -13l-9 -41q64 0 110 27t60 90l17 77h-139z" />
    <glyph glyph-name="zcaron" horiz-adv-x="500" 
d="M-24 0h453l27 132h-238l286 253l28 136h-442l-27 -132h223l-284 -253zM407 599l137 132v12h-124l-87 -78l-62 78h-111v-12l86 -132h161z" />
    <glyph glyph-name="zcaron" unicode="&#x17e;" horiz-adv-x="500" 
d="M-24 0h453l27 132h-238l286 253l28 136h-442l-27 -132h223l-284 -253zM407 599l137 132v12h-124l-87 -78l-62 78h-111v-12l86 -132h161z" />
    <glyph glyph-name="zacute" horiz-adv-x="500" 
d="M-24 0h453l27 132h-238l286 253l28 136h-442l-27 -132h223l-284 -253zM242 611v-12h118l165 122v22h-187z" />
    <glyph glyph-name="zacute" unicode="&#x17a;" horiz-adv-x="500" 
d="M-24 0h453l27 132h-238l286 253l28 136h-442l-27 -132h223l-284 -253zM242 611v-12h118l165 122v22h-187z" />
    <glyph glyph-name="Lslash" unicode="&#xa3;" horiz-adv-x="556" 
d="M15 0h481l29 138h-292l37 181l202 106l23 110l-202 -106l56 269h-189l-79 -381l-73 -38l-23 -109l73 38z" />
    <glyph glyph-name="Lslash" unicode="&#x141;" horiz-adv-x="556" 
d="M15 0h481l29 138h-292l37 181l202 106l23 110l-202 -106l56 269h-189l-79 -381l-73 -38l-23 -109l73 38z" />
    <glyph glyph-name="Aogonek" unicode="&#xa5;" horiz-adv-x="778" 
d="M497 281h-180l148 273h2zM-41 0h202l83 149h271l19 -149h30q-24 -11 -47.5 -24.5t-43 -30t-31.5 -36t-12 -42.5q0 -43 24 -65.5t81 -22.5q42 0 74.5 16.5t64.5 60.5l-37 14q-10 -10 -27 -17.5t-37 -7.5q-17 0 -28.5 11.5t-11.5 32.5q0 15 8.5 30t22 29t30 27l32.5 25h96
l-114 698h-234z" />
    <glyph glyph-name="Aogonek" unicode="&#x104;" horiz-adv-x="778" 
d="M497 281h-180l148 273h2zM-41 0h202l83 149h271l19 -149h30q-24 -11 -47.5 -24.5t-43 -30t-31.5 -36t-12 -42.5q0 -43 24 -65.5t81 -22.5q42 0 74.5 16.5t64.5 60.5l-37 14q-10 -10 -27 -17.5t-37 -7.5q-17 0 -28.5 11.5t-11.5 32.5q0 15 8.5 30t22 29t30 27l32.5 25h96
l-114 698h-234z" />
    <glyph glyph-name="brokenbar" unicode="&#xa6;" horiz-adv-x="222" 
d="M73 -89h126v250h-126v-250zM73 411h126v250h-126v-250z" />
    <glyph glyph-name="Scommaaccent" 
d="M628 679q-35 17 -92 24t-122 7q-57 0 -113 -11.5t-100 -38.5t-71 -72t-27 -112q0 -49 20 -80.5t50 -51.5t65.5 -33.5t65.5 -26.5t50 -30t20 -45q0 -27 -15 -43.5t-37.5 -25t-48.5 -11.5t-48 -3q-23 0 -47.5 3t-47.5 8t-43 12.5t-34 16.5l-44 -142q46 -14 104 -25t112 -11
q61 0 121.5 11t109.5 38.5t79.5 74.5t30.5 119q0 53 -20 87t-50 56t-65.5 36t-65.5 27t-50 28t-20 40q0 21 10.5 34t28.5 20.5t42.5 10t52.5 2.5q52 0 89.5 -9.5t64.5 -22.5zM169 -155h72q-9 -28 -35 -41.5t-54 -13.5l-9 -43q64 0 110 28.5t60 94.5l17 81h-139z" />
    <glyph glyph-name="Zdotaccent" unicode="&#xaf;" 
d="M109 560h301l-396 -412l-32 -148h552l26 138h-319l403 412l31 148h-538zM501 885h-138l-30 -144h138z" />
    <glyph glyph-name="Zdotaccent" unicode="&#x17b;" 
d="M109 560h301l-396 -412l-32 -148h552l26 138h-319l403 412l31 148h-538zM501 885h-138l-30 -144h138z" />
    <glyph glyph-name="lslash" unicode="&#xb3;" horiz-adv-x="333" 
d="M26 0h182l79 384l85 44l21 99l-85 -44l56 267h-182l-78 -374l-86 -45l-22 -101l87 46z" />
    <glyph glyph-name="lslash" unicode="&#x142;" horiz-adv-x="333" 
d="M26 0h182l79 384l85 44l21 99l-85 -44l56 267h-182l-78 -374l-86 -45l-22 -101l87 46z" />
    <glyph glyph-name="aogonek" unicode="&#xb9;" 
d="M186 160q0 35 42 55.5t107 18.5q8 0 22.5 -0.5t25.5 -2.5q-10 -53 -44 -88t-92 -35q-29 0 -45 17t-16 35zM137 372q45 23 82.5 32t86.5 9q45 0 70.5 -19.5t25.5 -47.5v-11q0 -5 -2 -10q-19 2 -44.5 3.5t-52.5 1.5q-60 0 -112 -12t-91 -35.5t-61.5 -59.5t-22.5 -84
q0 -76 44.5 -113.5t129.5 -37.5q53 0 99.5 20t75.5 65v2l2 -2l-8 -73h17q-24 -11 -47.5 -24.5t-43 -30t-31.5 -36t-12 -42.5q0 -43 24 -65.5t81 -22.5q42 0 74.5 16.5t64.5 60.5l-37 14q-10 -10 -27 -17.5t-37 -7.5q-17 0 -28.5 11.5t-11.5 32.5q0 15 8.5 30t22 29t30 27
l32.5 25h68q7 59 18.5 110.5l22 95.5t18 81.5t7.5 68.5q0 48 -18 81.5t-48.5 55t-72 31t-87.5 9.5q-61 0 -106 -8t-85 -22z" />
    <glyph glyph-name="aogonek" unicode="&#x105;" 
d="M186 160q0 35 42 55.5t107 18.5q8 0 22.5 -0.5t25.5 -2.5q-10 -53 -44 -88t-92 -35q-29 0 -45 17t-16 35zM137 372q45 23 82.5 32t86.5 9q45 0 70.5 -19.5t25.5 -47.5v-11q0 -5 -2 -10q-19 2 -44.5 3.5t-52.5 1.5q-60 0 -112 -12t-91 -35.5t-61.5 -59.5t-22.5 -84
q0 -76 44.5 -113.5t129.5 -37.5q53 0 99.5 20t75.5 65v2l2 -2l-8 -73h17q-24 -11 -47.5 -24.5t-43 -30t-31.5 -36t-12 -42.5q0 -43 24 -65.5t81 -22.5q42 0 74.5 16.5t64.5 60.5l-37 14q-10 -10 -27 -17.5t-37 -7.5q-17 0 -28.5 11.5t-11.5 32.5q0 15 8.5 30t22 29t30 27
l32.5 25h68q7 59 18.5 110.5l22 95.5t18 81.5t7.5 68.5q0 48 -18 81.5t-48.5 55t-72 31t-87.5 9.5q-61 0 -106 -8t-85 -22z" />
    <glyph glyph-name="scommaaccent" horiz-adv-x="500" 
d="M-4 15q42 -12 100.5 -20t118.5 -7q51 1 95.5 13.5t77.5 36.5t52 60.5t19 84.5q0 33 -16.5 55.5t-41.5 38t-54.5 26.5l-54.5 20.5t-41.5 19.5t-16.5 25q0 13 7.5 22t19.5 14t27 7t30 2q41 0 75 -7.5t69 -21.5l38 118q-49 16 -94 23.5t-79 7.5q-45 0 -92 -9.5t-85 -30
t-62 -53t-24 -78.5q0 -43 16 -70t40 -44t51.5 -27l51.5 -18.5t40 -19t16 -29.5q0 -16 -11.5 -25.5t-28 -14t-33.5 -5.5t-28 -1q-77 0 -146 30zM119 -155h72q-9 -28 -35 -41.5t-54 -13.5l-9 -43q64 0 110 28.5t60 94.5l17 81h-139z" />
    <glyph glyph-name="Lcaron" unicode="&#xbc;" horiz-adv-x="556" 
d="M15 0h481l29 138h-292l116 560h-189zM398 592h72q-9 -28 -35 -41.5t-54 -13.5l-9 -43q64 0 110 28.5t60 94.5l17 81h-139z" />
    <glyph glyph-name="Lcaron" unicode="&#x13d;" horiz-adv-x="556" 
d="M15 0h481l29 138h-292l116 560h-189zM398 592h72q-9 -28 -35 -41.5t-54 -13.5l-9 -43q64 0 110 28.5t60 94.5l17 81h-139z" />
    <glyph glyph-name="lcaron" unicode="&#xbe;" horiz-adv-x="412" 
d="M26 0h182l156 750h-182zM393 644h72q-9 -28 -35 -41.5t-54 -13.5l-9 -43q64 0 110 28.5t60 94.5l17 81h-139z" />
    <glyph glyph-name="lcaron" unicode="&#x13e;" horiz-adv-x="412" 
d="M26 0h182l156 750h-182zM393 644h72q-9 -28 -35 -41.5t-54 -13.5l-9 -43q64 0 110 28.5t60 94.5l17 81h-139z" />
    <glyph glyph-name="zdotaccent" unicode="&#xbf;" horiz-adv-x="500" 
d="M-24 0h453l27 132h-238l286 253l28 136h-442l-27 -132h223l-284 -253zM427 743h-138l-30 -144h138z" />
    <glyph glyph-name="zdotaccent" unicode="&#x17c;" horiz-adv-x="500" 
d="M-24 0h453l27 132h-238l286 253l28 136h-442l-27 -132h223l-284 -253zM427 743h-138l-30 -144h138z" />
    <glyph glyph-name="Racute" unicode="&#xc0;" horiz-adv-x="667" 
d="M317 566h89q42 -1 64 -17.5t22 -54.5q0 -25 -11 -41.5t-30.5 -26.5t-46 -14t-56.5 -4h-63zM15 0h187l56 276h20q31 0 49.5 -2.5t29 -12.5t16.5 -29.5t13 -53.5l36 -178h186l-50 215q-4 17 -9.5 37.5t-15 39.5t-23.5 32t-35 15v2q40 5 77 16t65 32t44.5 53t16.5 78
q0 65 -27 100.5t-69.5 53t-94.5 21t-102 3.5h-223zM311 753v-12h118l165 122v22h-187z" />
    <glyph glyph-name="Racute" unicode="&#x154;" horiz-adv-x="667" 
d="M317 566h89q42 -1 64 -17.5t22 -54.5q0 -25 -11 -41.5t-30.5 -26.5t-46 -14t-56.5 -4h-63zM15 0h187l56 276h20q31 0 49.5 -2.5t29 -12.5t16.5 -29.5t13 -53.5l36 -178h186l-50 215q-4 17 -9.5 37.5t-15 39.5t-23.5 32t-35 15v2q40 5 77 16t65 32t44.5 53t16.5 78
q0 65 -27 100.5t-69.5 53t-94.5 21t-102 3.5h-223zM311 753v-12h118l165 122v22h-187z" />
    <glyph glyph-name="Abreve" unicode="&#xc3;" horiz-adv-x="778" 
d="M-41 0h202l83 149h271l19 -149h188l-114 698h-234zM497 281h-180l148 273h2zM323 885q0 -36 12.5 -65t34.5 -49.5t52 -31.5t64 -11q166 0 215 157h-88q-5 -16 -16 -29.5t-26 -23t-32 -15t-34 -5.5q-43 0 -69 15t-32 58h-81z" />
    <glyph glyph-name="Abreve" unicode="&#x102;" horiz-adv-x="778" 
d="M-41 0h202l83 149h271l19 -149h188l-114 698h-234zM497 281h-180l148 273h2zM323 885q0 -36 12.5 -65t34.5 -49.5t52 -31.5t64 -11q166 0 215 157h-88q-5 -16 -16 -29.5t-26 -23t-32 -15t-34 -5.5q-43 0 -69 15t-32 58h-81z" />
    <glyph glyph-name="Lacute" unicode="&#xc5;" horiz-adv-x="556" 
d="M15 0h481l29 138h-292l116 560h-189zM167 753v-12h118l165 122v22h-187z" />
    <glyph glyph-name="Lacute" unicode="&#x139;" horiz-adv-x="556" 
d="M15 0h481l29 138h-292l116 560h-189zM167 753v-12h118l165 122v22h-187z" />
    <glyph glyph-name="Cacute" unicode="&#xc6;" horiz-adv-x="667" 
d="M737 673q-14 5 -35.5 11.5t-52 12t-70 9.5t-89.5 4q-98 0 -177 -29.5t-134 -82t-84.5 -125.5t-29.5 -160q0 -72 23.5 -132t69 -102.5t111.5 -66.5t150 -24q24 0 49.5 2t50 6t47 8.5t39.5 10.5l20 150q-37 -19 -81.5 -29t-95.5 -10q-42 0 -77 11t-60.5 33.5t-39.5 56.5
t-14 81q0 49 14.5 96.5t46 85t81.5 60t120 22.5q45 0 87 -8t87 -34zM431 753v-12h118l165 122v22h-187z" />
    <glyph glyph-name="Cacute" unicode="&#x106;" horiz-adv-x="667" 
d="M737 673q-14 5 -35.5 11.5t-52 12t-70 9.5t-89.5 4q-98 0 -177 -29.5t-134 -82t-84.5 -125.5t-29.5 -160q0 -72 23.5 -132t69 -102.5t111.5 -66.5t150 -24q24 0 49.5 2t50 6t47 8.5t39.5 10.5l20 150q-37 -19 -81.5 -29t-95.5 -10q-42 0 -77 11t-60.5 33.5t-39.5 56.5
t-14 81q0 49 14.5 96.5t46 85t81.5 60t120 22.5q45 0 87 -8t87 -34zM431 753v-12h118l165 122v22h-187z" />
    <glyph glyph-name="Ccaron" unicode="&#xc8;" horiz-adv-x="667" 
d="M737 673q-14 5 -35.5 11.5t-52 12t-70 9.5t-89.5 4q-98 0 -177 -29.5t-134 -82t-84.5 -125.5t-29.5 -160q0 -72 23.5 -132t69 -102.5t111.5 -66.5t150 -24q24 0 49.5 2t50 6t47 8.5t39.5 10.5l20 150q-37 -19 -81.5 -29t-95.5 -10q-42 0 -77 11t-60.5 33.5t-39.5 56.5
t-14 81q0 49 14.5 96.5t46 85t81.5 60t120 22.5q45 0 87 -8t87 -34zM580 741l137 132v12h-124l-87 -78l-62 78h-111v-12l86 -132h161z" />
    <glyph glyph-name="Ccaron" unicode="&#x10c;" horiz-adv-x="667" 
d="M737 673q-14 5 -35.5 11.5t-52 12t-70 9.5t-89.5 4q-98 0 -177 -29.5t-134 -82t-84.5 -125.5t-29.5 -160q0 -72 23.5 -132t69 -102.5t111.5 -66.5t150 -24q24 0 49.5 2t50 6t47 8.5t39.5 10.5l20 150q-37 -19 -81.5 -29t-95.5 -10q-42 0 -77 11t-60.5 33.5t-39.5 56.5
t-14 81q0 49 14.5 96.5t46 85t81.5 60t120 22.5q45 0 87 -8t87 -34zM580 741l137 132v12h-124l-87 -78l-62 78h-111v-12l86 -132h161z" />
    <glyph glyph-name="Eogonek" unicode="&#xca;" 
d="M15 0h351q-24 -11 -47.5 -24.5t-43 -30t-31.5 -36t-12 -42.5q0 -43 24 -65.5t81 -22.5q42 0 74.5 16.5t64.5 60.5l-37 14q-10 -10 -27 -17.5t-37 -7.5q-17 0 -28.5 11.5t-11.5 32.5q0 15 8.5 30t22 29t30 27l32.5 25h92l27 132h-319l34 158h290l29 132h-291l32 144h307
l27 132h-491z" />
    <glyph glyph-name="Eogonek" unicode="&#x118;" 
d="M15 0h351q-24 -11 -47.5 -24.5t-43 -30t-31.5 -36t-12 -42.5q0 -43 24 -65.5t81 -22.5q42 0 74.5 16.5t64.5 60.5l-37 14q-10 -10 -27 -17.5t-37 -7.5q-17 0 -28.5 11.5t-11.5 32.5q0 15 8.5 30t22 29t30 27l32.5 25h92l27 132h-319l34 158h290l29 132h-291l32 144h307
l27 132h-491z" />
    <glyph glyph-name="Ecaron" unicode="&#xcc;" 
d="M15 0h505l27 132h-319l34 158h290l29 132h-291l32 144h307l27 132h-491zM496 741l137 132v12h-124l-87 -78l-62 78h-111v-12l86 -132h161z" />
    <glyph glyph-name="Ecaron" unicode="&#x11a;" 
d="M15 0h505l27 132h-319l34 158h290l29 132h-291l32 144h307l27 132h-491zM496 741l137 132v12h-124l-87 -78l-62 78h-111v-12l86 -132h161z" />
    <glyph glyph-name="Dcaron" unicode="&#xcf;" horiz-adv-x="778" 
d="M15 0h301q98 0 180 24t141 75t91.5 130t32.5 189q0 70 -24.5 122.5t-70.5 87.5t-112 52.5t-149 17.5h-242zM321 560h46q43 0 80 -6t64 -23.5t42.5 -47.5t15.5 -78q0 -49 -14 -96.5t-44.5 -85.5t-78.5 -61.5t-117 -23.5h-82zM516 741l137 132v12h-124l-87 -78l-62 78h-111
v-12l86 -132h161z" />
    <glyph glyph-name="Dcaron" unicode="&#x10e;" horiz-adv-x="778" 
d="M15 0h301q98 0 180 24t141 75t91.5 130t32.5 189q0 70 -24.5 122.5t-70.5 87.5t-112 52.5t-149 17.5h-242zM321 560h46q43 0 80 -6t64 -23.5t42.5 -47.5t15.5 -78q0 -49 -14 -96.5t-44.5 -85.5t-78.5 -61.5t-117 -23.5h-82zM516 741l137 132v12h-124l-87 -78l-62 78h-111
v-12l86 -132h161z" />
    <glyph glyph-name="Dcroat" unicode="&#xd0;" horiz-adv-x="778" 
d="M15 0h301q94 0 175.5 24t141.5 72.5t94 122t34 172.5q0 80 -24.5 138t-70.5 95.5t-112 55.5t-149 18h-242l-60 -284h-68l-22 -102h68zM321 560h36q51 0 90.5 -7.5t66.5 -26.5t41 -51t14 -81q0 -119 -68 -187.5t-207 -68.5h-61l36 174h165l22 102h-166z" />
    <glyph glyph-name="Dcroat" unicode="&#x110;" horiz-adv-x="778" 
d="M15 0h301q94 0 175.5 24t141.5 72.5t94 122t34 172.5q0 80 -24.5 138t-70.5 95.5t-112 55.5t-149 18h-242l-60 -284h-68l-22 -102h68zM321 560h36q51 0 90.5 -7.5t66.5 -26.5t41 -51t14 -81q0 -119 -68 -187.5t-207 -68.5h-61l36 174h165l22 102h-166z" />
    <glyph glyph-name="Nacute" unicode="&#xd1;" horiz-adv-x="778" 
d="M13 0h176l97 483h2l146 -483h232l148 698h-176l-98 -484h-2l-143 484h-233zM411 753v-12h118l165 122v22h-187z" />
    <glyph glyph-name="Nacute" unicode="&#x143;" horiz-adv-x="778" 
d="M13 0h176l97 483h2l146 -483h232l148 698h-176l-98 -484h-2l-143 484h-233zM411 753v-12h118l165 122v22h-187z" />
    <glyph glyph-name="Ncaron" unicode="&#xd2;" horiz-adv-x="778" 
d="M13 0h176l97 483h2l146 -483h232l148 698h-176l-98 -484h-2l-143 484h-233zM576 741l137 132v12h-124l-87 -78l-62 78h-111v-12l86 -132h161z" />
    <glyph glyph-name="Ncaron" unicode="&#x147;" horiz-adv-x="778" 
d="M13 0h176l97 483h2l146 -483h232l148 698h-176l-98 -484h-2l-143 484h-233zM576 741l137 132v12h-124l-87 -78l-62 78h-111v-12l86 -132h161z" />
    <glyph glyph-name="Ohungarumlaut" unicode="&#xd5;" horiz-adv-x="778" 
d="M773 425q0 54 -16.5 105.5t-53.5 91t-96 64t-144 24.5q-101 0 -177.5 -31t-127.5 -88.5t-77 -138.5t-26 -180q0 -54 16.5 -105t53.5 -90.5t96 -64t144 -24.5q101 0 177.5 31t127.5 88.5t77 138t26 179.5zM581 410q0 -44 -11.5 -94t-36.5 -92t-63.5 -70t-92.5 -28
q-36 0 -61 13t-40.5 34.5t-22 51t-6.5 62.5q0 44 11.5 94t36.5 92.5t63.5 70.5t92.5 28q36 0 61 -13t40.5 -35t22 -51.5t6.5 -62.5zM354 885l-96 -132v-12h118l165 122v22h-187zM623 885l-96 -132v-12h118l165 122v22h-187z" />
    <glyph glyph-name="Ohungarumlaut" unicode="&#x150;" horiz-adv-x="778" 
d="M773 425q0 54 -16.5 105.5t-53.5 91t-96 64t-144 24.5q-101 0 -177.5 -31t-127.5 -88.5t-77 -138.5t-26 -180q0 -54 16.5 -105t53.5 -90.5t96 -64t144 -24.5q101 0 177.5 31t127.5 88.5t77 138t26 179.5zM581 410q0 -44 -11.5 -94t-36.5 -92t-63.5 -70t-92.5 -28
q-36 0 -61 13t-40.5 34.5t-22 51t-6.5 62.5q0 44 11.5 94t36.5 92.5t63.5 70.5t92.5 28q36 0 61 -13t40.5 -35t22 -51.5t6.5 -62.5zM354 885l-96 -132v-12h118l165 122v22h-187zM623 885l-96 -132v-12h118l165 122v22h-187z" />
    <glyph glyph-name="multiply" unicode="&#xd7;" horiz-adv-x="600" 
d="M229 253l-152 -152l86 -86l152 153l152 -153l86 86l-153 152l153 152l-86 86l-152 -152l-152 152l-86 -86z" />
    <glyph glyph-name="Rcaron" unicode="&#xd8;" horiz-adv-x="667" 
d="M317 566h89q42 -1 64 -17.5t22 -54.5q0 -25 -11 -41.5t-30.5 -26.5t-46 -14t-56.5 -4h-63zM15 0h187l56 276h20q31 0 49.5 -2.5t29 -12.5t16.5 -29.5t13 -53.5l36 -178h186l-50 215q-4 17 -9.5 37.5t-15 39.5t-23.5 32t-35 15v2q40 5 77 16t65 32t44.5 53t16.5 78
q0 65 -27 100.5t-69.5 53t-94.5 21t-102 3.5h-223zM486 741l137 132v12h-124l-87 -78l-62 78h-111v-12l86 -132h161z" />
    <glyph glyph-name="Rcaron" unicode="&#x158;" horiz-adv-x="667" 
d="M317 566h89q42 -1 64 -17.5t22 -54.5q0 -25 -11 -41.5t-30.5 -26.5t-46 -14t-56.5 -4h-63zM15 0h187l56 276h20q31 0 49.5 -2.5t29 -12.5t16.5 -29.5t13 -53.5l36 -178h186l-50 215q-4 17 -9.5 37.5t-15 39.5t-23.5 32t-35 15v2q40 5 77 16t65 32t44.5 53t16.5 78
q0 65 -27 100.5t-69.5 53t-94.5 21t-102 3.5h-223zM486 741l137 132v12h-124l-87 -78l-62 78h-111v-12l86 -132h161z" />
    <glyph glyph-name="Uring" unicode="&#xd9;" horiz-adv-x="722" 
d="M765 698h-185l-69 -316l-18.5 -87.5t-27 -83t-45 -61.5t-72.5 -24q-50 0 -74.5 29t-24.5 72q0 12 4 31.5l9 44.5l84 395h-189l-79 -358q-5 -24 -10 -57t-5 -75q0 -62 21.5 -104t59.5 -67.5t89 -37t110 -11.5q95 0 156 29t99 80.5t60 122t39 153.5zM367 834q0 -23 9 -43.5
t24 -35.5t35.5 -24t43.5 -9t43.5 9t35.5 24t24 35.5t9 43.5t-9 43.5t-24 35.5t-35.5 24t-43.5 9t-43.5 -9t-35.5 -24t-24 -35.5t-9 -43.5zM427 834q0 21 15.5 36.5t36.5 15.5t36.5 -15.5t15.5 -36.5t-15.5 -36.5t-36.5 -15.5t-36.5 15.5t-15.5 36.5z" />
    <glyph glyph-name="Uring" unicode="&#x16e;" horiz-adv-x="722" 
d="M765 698h-185l-69 -316l-18.5 -87.5t-27 -83t-45 -61.5t-72.5 -24q-50 0 -74.5 29t-24.5 72q0 12 4 31.5l9 44.5l84 395h-189l-79 -358q-5 -24 -10 -57t-5 -75q0 -62 21.5 -104t59.5 -67.5t89 -37t110 -11.5q95 0 156 29t99 80.5t60 122t39 153.5zM367 834q0 -23 9 -43.5
t24 -35.5t35.5 -24t43.5 -9t43.5 9t35.5 24t24 35.5t9 43.5t-9 43.5t-24 35.5t-35.5 24t-43.5 9t-43.5 -9t-35.5 -24t-24 -35.5t-9 -43.5zM427 834q0 21 15.5 36.5t36.5 15.5t36.5 -15.5t15.5 -36.5t-15.5 -36.5t-36.5 -15.5t-36.5 15.5t-15.5 36.5z" />
    <glyph glyph-name="Uhungarumlaut" unicode="&#xdb;" horiz-adv-x="722" 
d="M765 698h-185l-69 -316l-18.5 -87.5t-27 -83t-45 -61.5t-72.5 -24q-50 0 -74.5 29t-24.5 72q0 12 4 31.5l9 44.5l84 395h-189l-79 -358q-5 -24 -10 -57t-5 -75q0 -62 21.5 -104t59.5 -67.5t89 -37t110 -11.5q95 0 156 29t99 80.5t60 122t39 153.5zM346 885l-96 -132v-12
h118l165 122v22h-187zM615 885l-96 -132v-12h118l165 122v22h-187z" />
    <glyph glyph-name="Uhungarumlaut" unicode="&#x170;" horiz-adv-x="722" 
d="M765 698h-185l-69 -316l-18.5 -87.5t-27 -83t-45 -61.5t-72.5 -24q-50 0 -74.5 29t-24.5 72q0 12 4 31.5l9 44.5l84 395h-189l-79 -358q-5 -24 -10 -57t-5 -75q0 -62 21.5 -104t59.5 -67.5t89 -37t110 -11.5q95 0 156 29t99 80.5t60 122t39 153.5zM346 885l-96 -132v-12
h118l165 122v22h-187zM615 885l-96 -132v-12h118l165 122v22h-187z" />
    <glyph glyph-name="Yacute" unicode="&#xdd;" horiz-adv-x="722" 
d="M217 0h190l54 258l352 440h-229l-193 -281l-87 281h-196l163 -440zM351 753v-12h118l165 122v22h-187z" />
    <glyph glyph-name="Tcommaaccent" unicode="&#xde;" horiz-adv-x="556" 
d="M134 0h189l119 560h174l30 138h-537l-30 -138h174zM132 -155h72q-9 -28 -35 -41.5t-54 -13.5l-9 -43q64 0 110 28.5t60 94.5l17 81h-139z" />
    <glyph glyph-name="Tcommaaccent" unicode="&#x162;" horiz-adv-x="556" 
d="M134 0h189l119 560h174l30 138h-537l-30 -138h174zM132 -155h72q-9 -28 -35 -41.5t-54 -13.5l-9 -43q64 0 110 28.5t60 94.5l17 81h-139z" />
    <glyph glyph-name="racute" unicode="&#xe0;" horiz-adv-x="444" 
d="M110 521q-4 -35 -9.5 -68.5t-12.5 -67.5l-81 -385h180l51 240q5 29 16 55t27.5 45.5t39 31t51.5 11.5q26 0 46 -4t37 -18l41 159q-18 8 -38 10.5t-38 2.5q-28 0 -52.5 -10t-45 -26.5t-36.5 -38t-27 -44.5h-2l20 107h-167zM214 611v-12h118l165 122v22h-187z" />
    <glyph glyph-name="racute" unicode="&#x155;" horiz-adv-x="444" 
d="M110 521q-4 -35 -9.5 -68.5t-12.5 -67.5l-81 -385h180l51 240q5 29 16 55t27.5 45.5t39 31t51.5 11.5q26 0 46 -4t37 -18l41 159q-18 8 -38 10.5t-38 2.5q-28 0 -52.5 -10t-45 -26.5t-36.5 -38t-27 -44.5h-2l20 107h-167zM214 611v-12h118l165 122v22h-187z" />
    <glyph glyph-name="abreve" unicode="&#xe3;" 
d="M359 0h147q7 59 18.5 110.5l22 95.5t18 81.5t7.5 68.5q0 48 -18 81.5t-48.5 55t-72 31t-87.5 9.5q-61 0 -106 -8t-85 -22l-18 -131q45 23 82.5 32t86.5 9q45 0 70.5 -19.5t25.5 -47.5v-11q0 -5 -2 -10q-19 2 -44.5 3.5t-52.5 1.5q-60 0 -112 -12t-91 -35.5t-61.5 -59.5
t-22.5 -84q0 -76 44.5 -113.5t129.5 -37.5q53 0 99.5 20t75.5 65v2l2 -2zM186 160q0 35 42 55.5t107 18.5q8 0 22.5 -0.5t25.5 -2.5q-10 -53 -44 -88t-92 -35q-29 0 -45 17t-16 35zM220 743q0 -36 12.5 -65t34.5 -49.5t52 -31.5t64 -11q166 0 215 157h-88q-5 -16 -16 -29.5
t-26 -23t-32 -15t-34 -5.5q-43 0 -69 15t-32 58h-81z" />
    <glyph glyph-name="abreve" unicode="&#x103;" 
d="M359 0h147q7 59 18.5 110.5l22 95.5t18 81.5t7.5 68.5q0 48 -18 81.5t-48.5 55t-72 31t-87.5 9.5q-61 0 -106 -8t-85 -22l-18 -131q45 23 82.5 32t86.5 9q45 0 70.5 -19.5t25.5 -47.5v-11q0 -5 -2 -10q-19 2 -44.5 3.5t-52.5 1.5q-60 0 -112 -12t-91 -35.5t-61.5 -59.5
t-22.5 -84q0 -76 44.5 -113.5t129.5 -37.5q53 0 99.5 20t75.5 65v2l2 -2zM186 160q0 35 42 55.5t107 18.5q8 0 22.5 -0.5t25.5 -2.5q-10 -53 -44 -88t-92 -35q-29 0 -45 17t-16 35zM220 743q0 -36 12.5 -65t34.5 -49.5t52 -31.5t64 -11q166 0 215 157h-88q-5 -16 -16 -29.5
t-26 -23t-32 -15t-34 -5.5q-43 0 -69 15t-32 58h-81z" />
    <glyph glyph-name="lacute" unicode="&#xe5;" horiz-adv-x="333" 
d="M26 0h182l156 750h-182zM189 801v-12h118l165 122v22h-187z" />
    <glyph glyph-name="lacute" unicode="&#x13a;" horiz-adv-x="333" 
d="M26 0h182l156 750h-182zM189 801v-12h118l165 122v22h-187z" />
    <glyph glyph-name="cacute" unicode="&#xe6;" horiz-adv-x="500" 
d="M458 143q-29 -12 -55.5 -17.5t-60.5 -5.5q-29 0 -51.5 9t-39 24.5t-25 36t-8.5 43.5q0 81 44.5 124.5t114.5 43.5q30 0 59 -7.5t57 -20.5l39 125q-40 17 -85.5 26t-78.5 9q-75 0 -137 -24t-106 -65.5t-68.5 -97.5t-24.5 -120q0 -49 17 -92.5t49 -75.5t77.5 -51t102.5 -19
q53 0 90 5.5t64 14.5zM287 611v-12h118l165 122v22h-187z" />
    <glyph glyph-name="cacute" unicode="&#x107;" horiz-adv-x="500" 
d="M458 143q-29 -12 -55.5 -17.5t-60.5 -5.5q-29 0 -51.5 9t-39 24.5t-25 36t-8.5 43.5q0 81 44.5 124.5t114.5 43.5q30 0 59 -7.5t57 -20.5l39 125q-40 17 -85.5 26t-78.5 9q-75 0 -137 -24t-106 -65.5t-68.5 -97.5t-24.5 -120q0 -49 17 -92.5t49 -75.5t77.5 -51t102.5 -19
q53 0 90 5.5t64 14.5zM287 611v-12h118l165 122v22h-187z" />
    <glyph glyph-name="ccaron" unicode="&#xe8;" horiz-adv-x="500" 
d="M458 143q-29 -12 -55.5 -17.5t-60.5 -5.5q-29 0 -51.5 9t-39 24.5t-25 36t-8.5 43.5q0 81 44.5 124.5t114.5 43.5q30 0 59 -7.5t57 -20.5l39 125q-40 17 -85.5 26t-78.5 9q-75 0 -137 -24t-106 -65.5t-68.5 -97.5t-24.5 -120q0 -49 17 -92.5t49 -75.5t77.5 -51t102.5 -19
q53 0 90 5.5t64 14.5zM457 599l137 132v12h-124l-87 -78l-62 78h-111v-12l86 -132h161z" />
    <glyph glyph-name="ccaron" unicode="&#x10d;" horiz-adv-x="500" 
d="M458 143q-29 -12 -55.5 -17.5t-60.5 -5.5q-29 0 -51.5 9t-39 24.5t-25 36t-8.5 43.5q0 81 44.5 124.5t114.5 43.5q30 0 59 -7.5t57 -20.5l39 125q-40 17 -85.5 26t-78.5 9q-75 0 -137 -24t-106 -65.5t-68.5 -97.5t-24.5 -120q0 -49 17 -92.5t49 -75.5t77.5 -51t102.5 -19
q53 0 90 5.5t64 14.5zM457 599l137 132v12h-124l-87 -78l-62 78h-111v-12l86 -132h161z" />
    <glyph glyph-name="eogonek" unicode="&#xea;" 
d="M213 310q5 19 15.5 37.5t27 33t39 23.5t51.5 9q25 0 41.5 -8t27 -22.5t15 -33t4.5 -39.5h-221zM571 208q3 12 5 25.5l4 27t3 25.5t1 20q0 59 -18 102t-50.5 70.5t-76.5 41t-95 13.5q-87 0 -146.5 -31t-96.5 -77t-53 -100t-16 -99q0 -48 16.5 -90t48.5 -74t79 -51.5
t109 -21.5q-22 -11 -42.5 -23.5t-36 -27.5t-25 -32.5t-9.5 -38.5q0 -43 24 -65.5t81 -22.5q42 0 74.5 16.5t64.5 60.5l-37 14q-10 -10 -27 -17.5t-37 -7.5q-17 0 -28.5 11.5t-11.5 32.5q0 12 4.5 23t11.5 20.5t13.5 17t11.5 12.5q14 13 31 22t36 11q24 4 49 9t50 13l23 127
q-38 -18 -82.5 -27t-80.5 -9q-41 0 -68 7.5t-42.5 21t-22 32t-7.5 39.5h369z" />
    <glyph glyph-name="eogonek" unicode="&#x119;" 
d="M213 310q5 19 15.5 37.5t27 33t39 23.5t51.5 9q25 0 41.5 -8t27 -22.5t15 -33t4.5 -39.5h-221zM571 208q3 12 5 25.5l4 27t3 25.5t1 20q0 59 -18 102t-50.5 70.5t-76.5 41t-95 13.5q-87 0 -146.5 -31t-96.5 -77t-53 -100t-16 -99q0 -48 16.5 -90t48.5 -74t79 -51.5
t109 -21.5q-22 -11 -42.5 -23.5t-36 -27.5t-25 -32.5t-9.5 -38.5q0 -43 24 -65.5t81 -22.5q42 0 74.5 16.5t64.5 60.5l-37 14q-10 -10 -27 -17.5t-37 -7.5q-17 0 -28.5 11.5t-11.5 32.5q0 12 4.5 23t11.5 20.5t13.5 17t11.5 12.5q14 13 31 22t36 11q24 4 49 9t50 13l23 127
q-38 -18 -82.5 -27t-80.5 -9q-41 0 -68 7.5t-42.5 21t-22 32t-7.5 39.5h369z" />
    <glyph glyph-name="ecaron" unicode="&#xec;" 
d="M505 144q-38 -18 -82.5 -27t-80.5 -9q-41 0 -68 7.5t-42.5 21t-22 32t-7.5 39.5h369q3 12 5 25.5l4 27t3 25.5t1 20q0 59 -18 102t-50.5 70.5t-76.5 41t-95 13.5q-87 0 -146.5 -31t-96.5 -77t-53 -100t-16 -99q0 -49 17.5 -92.5t51.5 -75.5t84 -51t115 -19q39 0 86.5 7.5
t95.5 21.5zM213 310q5 19 15.5 37.5t27 33t39 23.5t51.5 9q25 0 41.5 -8t27 -22.5t15 -33t4.5 -39.5h-221zM453 599l137 132v12h-124l-87 -78l-62 78h-111v-12l86 -132h161z" />
    <glyph glyph-name="ecaron" unicode="&#x11b;" 
d="M505 144q-38 -18 -82.5 -27t-80.5 -9q-41 0 -68 7.5t-42.5 21t-22 32t-7.5 39.5h369q3 12 5 25.5l4 27t3 25.5t1 20q0 59 -18 102t-50.5 70.5t-76.5 41t-95 13.5q-87 0 -146.5 -31t-96.5 -77t-53 -100t-16 -99q0 -49 17.5 -92.5t51.5 -75.5t84 -51t115 -19q39 0 86.5 7.5
t95.5 21.5zM213 310q5 19 15.5 37.5t27 33t39 23.5t51.5 9q25 0 41.5 -8t27 -22.5t15 -33t4.5 -39.5h-221zM453 599l137 132v12h-124l-87 -78l-62 78h-111v-12l86 -132h161z" />
    <glyph glyph-name="dcaron" unicode="&#xef;" horiz-adv-x="772" 
d="M403 0h165q2 16 4 35.5t7 42.5l140 672h-177l-63 -313h-2q-20 42 -66 69t-115 27q-67 0 -116.5 -27.5t-82.5 -73.5t-49 -105.5t-16 -123.5q0 -44 14.5 -83t40.5 -68.5t61.5 -46.5t77.5 -17q37 0 65 6.5t49.5 19t39.5 30t35 39.5h2zM304 126q-43 0 -64.5 29.5t-21.5 77.5
q0 30 9.5 59.5t27 52t42.5 36.5t57 14q22 0 38.5 -9.5t27 -24.5t15.5 -34t5 -38q0 -26 -9.5 -54.5t-27 -52.5t-42.5 -40t-57 -16zM748 644h72q-9 -28 -35 -41.5t-54 -13.5l-9 -43q64 0 110 28.5t60 94.5l17 81h-139z" />
    <glyph glyph-name="dcaron" unicode="&#x10f;" horiz-adv-x="772" 
d="M403 0h165q2 16 4 35.5t7 42.5l140 672h-177l-63 -313h-2q-20 42 -66 69t-115 27q-67 0 -116.5 -27.5t-82.5 -73.5t-49 -105.5t-16 -123.5q0 -44 14.5 -83t40.5 -68.5t61.5 -46.5t77.5 -17q37 0 65 6.5t49.5 19t39.5 30t35 39.5h2zM304 126q-43 0 -64.5 29.5t-21.5 77.5
q0 30 9.5 59.5t27 52t42.5 36.5t57 14q22 0 38.5 -9.5t27 -24.5t15.5 -34t5 -38q0 -26 -9.5 -54.5t-27 -52.5t-42.5 -40t-57 -16zM748 644h72q-9 -28 -35 -41.5t-54 -13.5l-9 -43q64 0 110 28.5t60 94.5l17 81h-139z" />
    <glyph glyph-name="dcroat" unicode="&#xf0;" horiz-adv-x="667" 
d="M304 126q-43 0 -64.5 29.5t-21.5 77.5q0 30 9.5 59.5t27 52t42.5 36.5t57 14q22 0 38.5 -9.5t27 -24.5t15.5 -34t5 -38q0 -26 -9.5 -54.5t-27 -52.5t-42.5 -40t-57 -16zM312 592h198l-31 -155h-2q-20 42 -66 69t-115 27q-67 0 -116.5 -27.5t-82.5 -73.5t-49 -105.5
t-16 -123.5q0 -44 14.5 -83t40.5 -68.5t61.5 -46.5t77.5 -17q37 0 65 6.5t49.5 19t39.5 30t35 39.5h2l-14 -83h165q2 16 4 35.5t7 42.5l108 514h48l18 84h-49l15 74h-177l-15 -74h-197z" />
    <glyph glyph-name="dcroat" unicode="&#x111;" horiz-adv-x="667" 
d="M304 126q-43 0 -64.5 29.5t-21.5 77.5q0 30 9.5 59.5t27 52t42.5 36.5t57 14q22 0 38.5 -9.5t27 -24.5t15.5 -34t5 -38q0 -26 -9.5 -54.5t-27 -52.5t-42.5 -40t-57 -16zM312 592h198l-31 -155h-2q-20 42 -66 69t-115 27q-67 0 -116.5 -27.5t-82.5 -73.5t-49 -105.5
t-16 -123.5q0 -44 14.5 -83t40.5 -68.5t61.5 -46.5t77.5 -17q37 0 65 6.5t49.5 19t39.5 30t35 39.5h2l-14 -83h165q2 16 4 35.5t7 42.5l108 514h48l18 84h-49l15 74h-177l-15 -74h-197z" />
    <glyph glyph-name="nacute" unicode="&#xf1;" horiz-adv-x="667" 
d="M7 0h180l51 240q5 29 16 55t27.5 45.5t39 31t51.5 11.5q37 1 53.5 -18t16.5 -42q0 -20 -4 -39.5l-8 -39.5l-50 -244h186l48 243l7 35.5t4.5 27t2 23.5t0.5 24q0 38 -10.5 71t-31 57t-51 38t-69.5 14q-36 0 -64.5 -7t-52.5 -20t-44.5 -30.5t-39.5 -39.5h-2l14 85h-167
q-4 -35 -9.5 -68.5t-12.5 -67.5zM326 611v-12h118l165 122v22h-187z" />
    <glyph glyph-name="nacute" unicode="&#x144;" horiz-adv-x="667" 
d="M7 0h180l51 240q5 29 16 55t27.5 45.5t39 31t51.5 11.5q37 1 53.5 -18t16.5 -42q0 -20 -4 -39.5l-8 -39.5l-50 -244h186l48 243l7 35.5t4.5 27t2 23.5t0.5 24q0 38 -10.5 71t-31 57t-51 38t-69.5 14q-36 0 -64.5 -7t-52.5 -20t-44.5 -30.5t-39.5 -39.5h-2l14 85h-167
q-4 -35 -9.5 -68.5t-12.5 -67.5zM326 611v-12h118l165 122v22h-187z" />
    <glyph glyph-name="ncaron" unicode="&#xf2;" horiz-adv-x="667" 
d="M7 0h180l51 240q5 29 16 55t27.5 45.5t39 31t51.5 11.5q37 1 53.5 -18t16.5 -42q0 -20 -4 -39.5l-8 -39.5l-50 -244h186l48 243l7 35.5t4.5 27t2 23.5t0.5 24q0 38 -10.5 71t-31 57t-51 38t-69.5 14q-36 0 -64.5 -7t-52.5 -20t-44.5 -30.5t-39.5 -39.5h-2l14 85h-167
q-4 -35 -9.5 -68.5t-12.5 -67.5zM491 599l137 132v12h-124l-87 -78l-62 78h-111v-12l86 -132h161z" />
    <glyph glyph-name="ncaron" unicode="&#x148;" horiz-adv-x="667" 
d="M7 0h180l51 240q5 29 16 55t27.5 45.5t39 31t51.5 11.5q37 1 53.5 -18t16.5 -42q0 -20 -4 -39.5l-8 -39.5l-50 -244h186l48 243l7 35.5t4.5 27t2 23.5t0.5 24q0 38 -10.5 71t-31 57t-51 38t-69.5 14q-36 0 -64.5 -7t-52.5 -20t-44.5 -30.5t-39.5 -39.5h-2l14 85h-167
q-4 -35 -9.5 -68.5t-12.5 -67.5zM491 599l137 132v12h-124l-87 -78l-62 78h-111v-12l86 -132h161z" />
    <glyph glyph-name="ohungarumlaut" unicode="&#xf5;" horiz-adv-x="667" 
d="M453 302q0 -89 -37 -138.5t-100 -49.5q-46 -1 -72 31t-26 85q0 31 10 62.5t28 57t44 41.5t59 16q26 0 44 -9t29 -23.5t16 -33.5t5 -39zM639 300q0 49 -17.5 91.5t-51.5 74t-85 49.5t-117 18q-77 0 -139 -22t-105.5 -62.5t-67.5 -97t-24 -125.5q0 -49 15 -92.5t48 -75.5
t84.5 -51t123.5 -19q73 0 134.5 18t106.5 56.5t70 97.5t25 140zM289 743l-96 -132v-12h118l165 122v22h-187zM558 743l-96 -132v-12h118l165 122v22h-187z" />
    <glyph glyph-name="ohungarumlaut" unicode="&#x151;" horiz-adv-x="667" 
d="M453 302q0 -89 -37 -138.5t-100 -49.5q-46 -1 -72 31t-26 85q0 31 10 62.5t28 57t44 41.5t59 16q26 0 44 -9t29 -23.5t16 -33.5t5 -39zM639 300q0 49 -17.5 91.5t-51.5 74t-85 49.5t-117 18q-77 0 -139 -22t-105.5 -62.5t-67.5 -97t-24 -125.5q0 -49 15 -92.5t48 -75.5
t84.5 -51t123.5 -19q73 0 134.5 18t106.5 56.5t70 97.5t25 140zM289 743l-96 -132v-12h118l165 122v22h-187zM558 743l-96 -132v-12h118l165 122v22h-187z" />
    <glyph glyph-name="rcaron" unicode="&#xf8;" horiz-adv-x="444" 
d="M110 521q-4 -35 -9.5 -68.5t-12.5 -67.5l-81 -385h180l51 240q5 29 16 55t27.5 45.5t39 31t51.5 11.5q26 0 46 -4t37 -18l41 159q-18 8 -38 10.5t-38 2.5q-28 0 -52.5 -10t-45 -26.5t-36.5 -38t-27 -44.5h-2l20 107h-167zM379 599l137 132v12h-124l-87 -78l-62 78h-111
v-12l86 -132h161z" />
    <glyph glyph-name="rcaron" unicode="&#x159;" horiz-adv-x="444" 
d="M110 521q-4 -35 -9.5 -68.5t-12.5 -67.5l-81 -385h180l51 240q5 29 16 55t27.5 45.5t39 31t51.5 11.5q26 0 46 -4t37 -18l41 159q-18 8 -38 10.5t-38 2.5q-28 0 -52.5 -10t-45 -26.5t-36.5 -38t-27 -44.5h-2l20 107h-167zM379 599l137 132v12h-124l-87 -78l-62 78h-111
v-12l86 -132h161z" />
    <glyph glyph-name="uring" unicode="&#xf9;" horiz-adv-x="667" 
d="M660 521h-180l-51 -240q-5 -29 -16 -55t-27.5 -45.5t-39.5 -31t-51 -11.5q-19 -1 -32 4t-21.5 13.5t-12.5 19.5t-4 23q0 20 4 39.5l8 39.5l50 244h-186l-48 -243l-7 -35.5t-4.5 -27t-2 -23.5t-0.5 -24q0 -38 10.5 -71t31 -57t51 -38t69.5 -14q71 0 116.5 26.5t84.5 70.5
h2l-14 -85h167q4 35 9.5 68.5t12.5 67.5zM298 692q0 -23 9 -43.5t24 -35.5t35.5 -24t43.5 -9t43.5 9t35.5 24t24 35.5t9 43.5t-9 43.5t-24 35.5t-35.5 24t-43.5 9t-43.5 -9t-35.5 -24t-24 -35.5t-9 -43.5zM358 692q0 21 15.5 36.5t36.5 15.5t36.5 -15.5t15.5 -36.5
t-15.5 -36.5t-36.5 -15.5t-36.5 15.5t-15.5 36.5z" />
    <glyph glyph-name="uring" unicode="&#x16f;" horiz-adv-x="667" 
d="M660 521h-180l-51 -240q-5 -29 -16 -55t-27.5 -45.5t-39.5 -31t-51 -11.5q-19 -1 -32 4t-21.5 13.5t-12.5 19.5t-4 23q0 20 4 39.5l8 39.5l50 244h-186l-48 -243l-7 -35.5t-4.5 -27t-2 -23.5t-0.5 -24q0 -38 10.5 -71t31 -57t51 -38t69.5 -14q71 0 116.5 26.5t84.5 70.5
h2l-14 -85h167q4 35 9.5 68.5t12.5 67.5zM298 692q0 -23 9 -43.5t24 -35.5t35.5 -24t43.5 -9t43.5 9t35.5 24t24 35.5t9 43.5t-9 43.5t-24 35.5t-35.5 24t-43.5 9t-43.5 -9t-35.5 -24t-24 -35.5t-9 -43.5zM358 692q0 21 15.5 36.5t36.5 15.5t36.5 -15.5t15.5 -36.5
t-15.5 -36.5t-36.5 -15.5t-36.5 15.5t-15.5 36.5z" />
    <glyph glyph-name="uhungarumlaut" unicode="&#xfb;" horiz-adv-x="667" 
d="M660 521h-180l-51 -240q-5 -29 -16 -55t-27.5 -45.5t-39.5 -31t-51 -11.5q-19 -1 -32 4t-21.5 13.5t-12.5 19.5t-4 23q0 20 4 39.5l8 39.5l50 244h-186l-48 -243l-7 -35.5t-4.5 -27t-2 -23.5t-0.5 -24q0 -38 10.5 -71t31 -57t51 -38t69.5 -14q71 0 116.5 26.5t84.5 70.5
h2l-14 -85h167q4 35 9.5 68.5t12.5 67.5zM289 743l-96 -132v-12h118l165 122v22h-187zM558 743l-96 -132v-12h118l165 122v22h-187z" />
    <glyph glyph-name="uhungarumlaut" unicode="&#x171;" horiz-adv-x="667" 
d="M660 521h-180l-51 -240q-5 -29 -16 -55t-27.5 -45.5t-39.5 -31t-51 -11.5q-19 -1 -32 4t-21.5 13.5t-12.5 19.5t-4 23q0 20 4 39.5l8 39.5l50 244h-186l-48 -243l-7 -35.5t-4.5 -27t-2 -23.5t-0.5 -24q0 -38 10.5 -71t31 -57t51 -38t69.5 -14q71 0 116.5 26.5t84.5 70.5
h2l-14 -85h167q4 35 9.5 68.5t12.5 67.5zM289 743l-96 -132v-12h118l165 122v22h-187zM558 743l-96 -132v-12h118l165 122v22h-187z" />
    <glyph glyph-name="yacute" unicode="&#xfd;" 
d="M666 521h-191l-177 -329h-2l-47 329h-183l115 -519q-16 -40 -41.5 -63t-63.5 -23q-26 0 -45.5 5t-36.5 10l-38 -131q26 -8 59.5 -15t81.5 -7q43 0 76.5 11t60.5 31t48.5 48t41.5 63zM283 611v-12h118l165 122v22h-187z" />
    <glyph glyph-name="tcommaaccent" unicode="&#xfe;" horiz-adv-x="444" 
d="M51 395h96l-31 -146q-9 -42 -12.5 -64.5t-3.5 -42.5q0 -41 13 -70t35 -48t52 -27.5t65 -8.5q27 0 55 2.5t57 7.5l20 119l-29 -10t-29 -5q-27 0 -43 16t-16 42q0 19 4.5 40l10.5 50l31 145h131l22 126h-124l36 163l-190 -51l-25 -112h-103zM131 -155h72q-9 -28 -35 -41.5
t-54 -13.5l-9 -43q64 0 110 28.5t60 94.5l17 81h-139z" />
    <glyph glyph-name="tcommaaccent" unicode="&#x163;" horiz-adv-x="444" 
d="M51 395h96l-31 -146q-9 -42 -12.5 -64.5t-3.5 -42.5q0 -41 13 -70t35 -48t52 -27.5t65 -8.5q27 0 55 2.5t57 7.5l20 119l-29 -10t-29 -5q-27 0 -43 16t-16 42q0 19 4.5 40l10.5 50l31 145h131l22 126h-124l36 163l-190 -51l-25 -112h-103zM131 -155h72q-9 -28 -35 -41.5
t-54 -13.5l-9 -43q64 0 110 28.5t60 94.5l17 81h-139z" />
    <glyph glyph-name="onehalf" horiz-adv-x="916" 
d="M122 -22h110l494 742h-110zM105 282h140l87 420h-115l-170 -97l38 -83l83 48zM502 0h338l19 90h-167v2q43 22 80.5 44.5t65.5 47t44 53.5t16 65q0 35 -14 59t-36.5 39t-51.5 21.5t-59 6.5q-42 0 -74.5 -5.5t-61.5 -16.5l-12 -102q23 11 53 19.5t57 8.5q20 0 37.5 -12.5
t17.5 -38.5q0 -17 -13.5 -35.5t-36 -38.5t-51 -40.5l-59.5 -41.5l-79 -53z" />
    <glyph glyph-name="Ncommaaccent" unicode="&#x145;" horiz-adv-x="778" 
d="M13 0h176l97 483h2l146 -483h232l148 698h-176l-98 -484h-2l-143 484h-233zM258 -155h72q-9 -28 -35 -41.5t-54 -13.5l-9 -43q64 0 110 28.5t60 94.5l17 81h-139z" />
    <glyph glyph-name="umacron" unicode="&#x16b;" horiz-adv-x="667" 
d="M660 521h-180l-51 -240q-5 -29 -16 -55t-27.5 -45.5t-39.5 -31t-51 -11.5q-19 -1 -32 4t-21.5 13.5t-12.5 19.5t-4 23q0 20 4 39.5l8 39.5l50 244h-186l-48 -243l-7 -35.5t-4.5 -27t-2 -23.5t-0.5 -24q0 -38 10.5 -71t31 -57t51 -38t69.5 -14q71 0 116.5 26.5t84.5 70.5
h2l-14 -85h167q4 35 9.5 68.5t12.5 67.5zM590 637l18 84h-373l-18 -84h373z" />
    <glyph glyph-name="Delta" unicode="&#x394;" horiz-adv-x="693" 
d="M521 712h-129l-413 -712h675zM427 571l79 -457h-336z" />
    <glyph glyph-name="amacron" unicode="&#x101;" 
d="M359 0h147q7 59 18.5 110.5l22 95.5t18 81.5t7.5 68.5q0 48 -18 81.5t-48.5 55t-72 31t-87.5 9.5q-61 0 -106 -8t-85 -22l-18 -131q45 23 82.5 32t86.5 9q45 0 70.5 -19.5t25.5 -47.5v-11q0 -5 -2 -10q-19 2 -44.5 3.5t-52.5 1.5q-60 0 -112 -12t-91 -35.5t-61.5 -59.5
t-22.5 -84q0 -76 44.5 -113.5t129.5 -37.5q53 0 99.5 20t75.5 65v2l2 -2zM186 160q0 35 42 55.5t107 18.5q8 0 22.5 -0.5t25.5 -2.5q-10 -53 -44 -88t-92 -35q-29 0 -45 17t-16 35zM577 637l18 84h-373l-18 -84h373z" />
    <glyph glyph-name=".363" unicode="&#xe002;" horiz-adv-x="722" 
d="M217 0h190l54 258l352 440h-229l-193 -281l-87 281h-196l163 -440zM652 885h-138l-30 -144h138zM435 885h-138l-30 -144h138z" />
    <glyph glyph-name="scedilla" unicode="&#xba;" horiz-adv-x="500" 
d="M105 -87l36 -23l18.5 4t18.5 2q14 0 23 -9t9 -32q0 -16 -17.5 -23t-36.5 -7q-22 0 -40.5 7t-37.5 16l-24 -42q28 -15 59.5 -21t69.5 -6q21 0 44 4.5t42 14t31.5 25.5t12.5 40q0 40 -21 59.5t-50 19.5q-18 0 -29.5 -1t-20.5 -5l-2 2l46 52q47 3 88 16t71 37t47 59t17 81
q0 33 -16.5 55.5t-41.5 38t-54.5 26.5l-54.5 20.5t-41.5 19.5t-16.5 25q0 13 7.5 22t19.5 14t27 7t30 2q41 0 75 -7.5t69 -21.5l38 118q-49 16 -94 23.5t-79 7.5q-45 0 -92 -9.5t-85 -30t-62 -53t-24 -78.5q0 -43 16 -70t40 -44t51.5 -27l51.5 -18.5t40 -19t16 -29.5
q0 -16 -11.5 -25.5t-28 -14t-33.5 -5.5t-28 -1q-77 0 -146 30l-36 -123q33 -10 77 -17t92 -9z" />
    <glyph glyph-name="scedilla" unicode="&#xf6c2;" horiz-adv-x="500" 
d="M105 -87l36 -23l18.5 4t18.5 2q14 0 23 -9t9 -32q0 -16 -17.5 -23t-36.5 -7q-22 0 -40.5 7t-37.5 16l-24 -42q28 -15 59.5 -21t69.5 -6q21 0 44 4.5t42 14t31.5 25.5t12.5 40q0 40 -21 59.5t-50 19.5q-18 0 -29.5 -1t-20.5 -5l-2 2l46 52q47 3 88 16t71 37t47 59t17 81
q0 33 -16.5 55.5t-41.5 38t-54.5 26.5l-54.5 20.5t-41.5 19.5t-16.5 25q0 13 7.5 22t19.5 14t27 7t30 2q41 0 75 -7.5t69 -21.5l38 118q-49 16 -94 23.5t-79 7.5q-45 0 -92 -9.5t-85 -30t-62 -53t-24 -78.5q0 -43 16 -70t40 -44t51.5 -27l51.5 -18.5t40 -19t16 -29.5
q0 -16 -11.5 -25.5t-28 -14t-33.5 -5.5t-28 -1q-77 0 -146 30l-36 -123q33 -10 77 -17t92 -9z" />
    <glyph glyph-name="scedilla" unicode="&#x15f;" horiz-adv-x="500" 
d="M105 -87l36 -23l18.5 4t18.5 2q14 0 23 -9t9 -32q0 -16 -17.5 -23t-36.5 -7q-22 0 -40.5 7t-37.5 16l-24 -42q28 -15 59.5 -21t69.5 -6q21 0 44 4.5t42 14t31.5 25.5t12.5 40q0 40 -21 59.5t-50 19.5q-18 0 -29.5 -1t-20.5 -5l-2 2l46 52q47 3 88 16t71 37t47 59t17 81
q0 33 -16.5 55.5t-41.5 38t-54.5 26.5l-54.5 20.5t-41.5 19.5t-16.5 25q0 13 7.5 22t19.5 14t27 7t30 2q41 0 75 -7.5t69 -21.5l38 118q-49 16 -94 23.5t-79 7.5q-45 0 -92 -9.5t-85 -30t-62 -53t-24 -78.5q0 -43 16 -70t40 -44t51.5 -27l51.5 -18.5t40 -19t16 -29.5
q0 -16 -11.5 -25.5t-28 -14t-33.5 -5.5t-28 -1q-77 0 -146 30l-36 -123q33 -10 77 -17t92 -9z" />
    <glyph glyph-name="Omacron" unicode="&#x14c;" horiz-adv-x="778" 
d="M773 425q0 54 -16.5 105.5t-53.5 91t-96 64t-144 24.5q-101 0 -177.5 -31t-127.5 -88.5t-77 -138.5t-26 -180q0 -54 16.5 -105t53.5 -90.5t96 -64t144 -24.5q101 0 177.5 31t127.5 88.5t77 138t26 179.5zM581 410q0 -44 -11.5 -94t-36.5 -92t-63.5 -70t-92.5 -28
q-36 0 -61 13t-40.5 34.5t-22 51t-6.5 62.5q0 44 11.5 94t36.5 92.5t63.5 70.5t92.5 28q36 0 61 -13t40.5 -35t22 -51.5t6.5 -62.5zM670 779l18 84h-373l-18 -84h373z" />
    <glyph glyph-name="commaaccent" unicode="&#xf004;" horiz-adv-x="278" 
d="M8 -155h72q-9 -28 -35 -41.5t-54 -13.5l-9 -43q64 0 110 28.5t60 94.5l17 81h-139z" />
    <glyph glyph-name="commaaccent" unicode="&#xf6c3;" horiz-adv-x="278" 
d="M8 -155h72q-9 -28 -35 -41.5t-54 -13.5l-9 -43q64 0 110 28.5t60 94.5l17 81h-139z" />
    <glyph glyph-name=".361" unicode="&#xe000;" horiz-adv-x="963" 
d="M1013 698h-402q-22 0 -44 1l-44 2q-45 3 -89 3q-82 0 -154.5 -30.5t-126.5 -83.5t-85 -124t-31 -153q0 -67 19 -125t57 -101t94.5 -68t130.5 -25q18 0 36 1l35 2q34 3 70 3h402l26 132h-260l31 158h234l26 132h-234l30 144h251zM462 136q-15 -2 -30.5 -3t-35.5 -1
q-82 0 -124.5 40.5t-42.5 121.5q0 54 16 103t46 86.5t72 60t93 22.5q25 0 51.5 -1t46.5 -3z" />
    <glyph glyph-name="Emacron" unicode="&#x112;" 
d="M15 0h505l27 132h-319l34 158h290l29 132h-291l32 144h307l27 132h-491zM610 779l18 84h-373l-18 -84h373z" />
    <glyph glyph-name="uogonek" unicode="&#x173;" horiz-adv-x="667" 
d="M287 521h-186l-48 -243l-7 -35.5t-4.5 -27t-2 -23.5t-0.5 -24q0 -38 10.5 -71t31 -57t51 -38t69.5 -14q71 0 116.5 26.5t84.5 70.5h2l-14 -85h24q-24 -11 -47.5 -24.5t-43 -30t-31.5 -36t-12 -42.5q0 -43 24 -65.5t81 -22.5q42 0 74.5 16.5t64.5 60.5l-37 14
q-10 -10 -27 -17.5t-37 -7.5q-17 0 -28.5 11.5t-11.5 32.5q0 15 8.5 30t22 29t30 27l32.5 25h81q4 35 9.5 68.5t12.5 67.5l81 385h-180l-51 -240q-5 -29 -16 -55t-27.5 -45.5t-39.5 -31t-51 -11.5q-19 -1 -32 4t-21.5 13.5t-12.5 19.5t-4 23q0 20 4 39.5l8 39.5z" />
    <glyph glyph-name="Thorn" 
d="M290 479h55q19 0 36 -3t30.5 -12t21.5 -25t8 -41q0 -31 -11.5 -52t-31 -33.5t-45 -18t-53.5 -5.5h-50zM3 0h186l33 157h95q63 0 119.5 16t98.5 47.5t67 77.5t25 106q0 72 -26.5 113t-69.5 62t-98.5 26.5t-112.5 5.5l19 87h-186z" />
    <glyph glyph-name="Eth" horiz-adv-x="778" 
d="M15 0h301q94 0 175.5 24t141.5 72.5t94 122t34 172.5q0 80 -24.5 138t-70.5 95.5t-112 55.5t-149 18h-242l-60 -284h-68l-22 -102h68zM321 560h36q51 0 90.5 -7.5t66.5 -26.5t41 -51t14 -81q0 -119 -68 -187.5t-207 -68.5h-61l36 174h165l22 102h-166z" />
    <glyph glyph-name="emacron" unicode="&#x113;" 
d="M505 144q-38 -18 -82.5 -27t-80.5 -9q-41 0 -68 7.5t-42.5 21t-22 32t-7.5 39.5h369q3 12 5 25.5l4 27t3 25.5t1 20q0 59 -18 102t-50.5 70.5t-76.5 41t-95 13.5q-87 0 -146.5 -31t-96.5 -77t-53 -100t-16 -99q0 -49 17.5 -92.5t51.5 -75.5t84 -51t115 -19q39 0 86.5 7.5
t95.5 21.5zM213 310q5 19 15.5 37.5t27 33t39 23.5t51.5 9q25 0 41.5 -8t27 -22.5t15 -33t4.5 -39.5h-221zM567 637l18 84h-373l-18 -84h373z" />
    <glyph glyph-name="edotaccent" unicode="&#x117;" 
d="M505 144q-38 -18 -82.5 -27t-80.5 -9q-41 0 -68 7.5t-42.5 21t-22 32t-7.5 39.5h369q3 12 5 25.5l4 27t3 25.5t1 20q0 59 -18 102t-50.5 70.5t-76.5 41t-95 13.5q-87 0 -146.5 -31t-96.5 -77t-53 -100t-16 -99q0 -49 17.5 -92.5t51.5 -75.5t84 -51t115 -19q39 0 86.5 7.5
t95.5 21.5zM213 310q5 19 15.5 37.5t27 33t39 23.5t51.5 9q25 0 41.5 -8t27 -22.5t15 -33t4.5 -39.5h-221zM473 743h-138l-30 -144h138z" />
    <glyph glyph-name="gbreve" unicode="&#x11f;" horiz-adv-x="667" 
d="M32 -189q42 -13 89 -23t115 -10q81 0 137 12.5t94 43t62 81t41 126.5l80 355q10 42 19 73t14 52h-167l-23 -95h-2q-23 57 -71.5 82t-108.5 25q-63 0 -114.5 -23.5t-88 -64t-56.5 -94.5t-20 -114q0 -52 13 -95.5t39.5 -75t66.5 -49t94 -17.5t97 23.5t73 67.5l2 -2
q-11 -50 -25.5 -84.5t-37.5 -55.5t-56 -30.5t-80 -8.5q-82 1 -151 41zM444 301q0 -26 -7.5 -54.5t-24 -52.5t-41.5 -40t-59 -16q-43 0 -68.5 27.5t-25.5 68.5q0 27 7.5 56t23.5 52t40.5 38t58.5 15q48 0 72 -26t24 -68zM248 743q0 -36 12.5 -65t34.5 -49.5t52 -31.5t64 -11
q166 0 215 157h-88q-5 -16 -16 -29.5t-26 -23t-32 -15t-34 -5.5q-43 0 -69 15t-32 58h-81z" />
    <glyph glyph-name="threequarters" horiz-adv-x="916" 
d="M696 0h135l15 71h60l17 90h-59l53 259h-146l-243 -267l-16 -82h200zM131 595q20 8 49 13.5t55 5.5q29 0 48.5 -6.5t19.5 -27.5q0 -13 -7.5 -22t-19 -14.5t-25.5 -8t-27 -2.5h-33t-23 1l-17 -86q10 0 22.5 0.5t28.5 0.5q9 0 20.5 -1t21 -5t16 -11t6.5 -19q0 -11 -7.5 -19
t-19 -13.5t-26.5 -8t-30 -2.5q-33 0 -61 6t-57 18l-22 -94q55 -26 150 -26q36 0 73 6t68 20t50.5 37.5t19.5 59.5q0 38 -25.5 57.5t-69.5 27.5v2q25 2 49 11t42.5 24t29.5 35.5t11 47.5q0 31 -14.5 51.5t-37 33t-51.5 18t-57 5.5q-40 0 -76.5 -4.5t-62.5 -10.5zM731 161h-99
l126 139h2zM222 -22h110l494 742h-110z" />
    <glyph glyph-name="fraction" unicode="&#x2215;" horiz-adv-x="167" 
d="M-192 -22h110l494 742h-110z" />
    <glyph glyph-name="Edotaccent" unicode="&#x116;" 
d="M15 0h505l27 132h-319l34 158h290l29 132h-291l32 144h307l27 132h-491zM516 885h-138l-30 -144h138z" />
    <glyph glyph-name="Amacron" unicode="&#x100;" horiz-adv-x="778" 
d="M-41 0h202l83 149h271l19 -149h188l-114 698h-234zM497 281h-180l148 273h2zM680 779l18 84h-373l-18 -84h373z" />
    <glyph glyph-name="imacron" unicode="&#x12b;" horiz-adv-x="333" 
d="M26 0h182l108 521h-182zM423 637l18 84h-373l-18 -84h373z" />
    <glyph glyph-name="Rcommaaccent" unicode="&#x156;" horiz-adv-x="667" 
d="M317 566h89q42 -1 64 -17.5t22 -54.5q0 -25 -11 -41.5t-30.5 -26.5t-46 -14t-56.5 -4h-63zM15 0h187l56 276h20q31 0 49.5 -2.5t29 -12.5t16.5 -29.5t13 -53.5l36 -178h186l-50 215q-4 17 -9.5 37.5t-15 39.5t-23.5 32t-35 15v2q40 5 77 16t65 32t44.5 53t16.5 78
q0 65 -27 100.5t-69.5 53t-94.5 21t-102 3.5h-223zM213 -155h72q-9 -28 -35 -41.5t-54 -13.5l-9 -43q64 0 110 28.5t60 94.5l17 81h-139z" />
    <glyph glyph-name="Umacron" unicode="&#x16a;" horiz-adv-x="722" 
d="M765 698h-185l-69 -316l-18.5 -87.5t-27 -83t-45 -61.5t-72.5 -24q-50 0 -74.5 29t-24.5 72q0 12 4 31.5l9 44.5l84 395h-189l-79 -358q-5 -24 -10 -57t-5 -75q0 -62 21.5 -104t59.5 -67.5t89 -37t110 -11.5q95 0 156 29t99 80.5t60 122t39 153.5zM662 779l18 84h-373
l-18 -84h373z" />
    <glyph glyph-name="rcommaaccent" unicode="&#x157;" horiz-adv-x="444" 
d="M110 521q-4 -35 -9.5 -68.5t-12.5 -67.5l-81 -385h180l51 240q5 29 16 55t27.5 45.5t39 31t51.5 11.5q26 0 46 -4t37 -18l41 159q-18 8 -38 10.5t-38 2.5q-28 0 -52.5 -10t-45 -26.5t-36.5 -38t-27 -44.5h-2l20 107h-167zM-2 -155h72q-9 -28 -35 -41.5t-54 -13.5l-9 -43
q64 0 110 28.5t60 94.5l17 81h-139z" />
    <glyph glyph-name="Scedilla" unicode="&#xaa;" 
d="M141 -87l36 -23l18.5 4t18.5 2q14 0 23 -9t9 -32q0 -16 -17.5 -23t-36.5 -7q-22 0 -40.5 7t-37.5 16l-24 -42q28 -15 59.5 -21t69.5 -6q21 0 44 4.5t42 14t31.5 25.5t12.5 40q0 40 -21 59.5t-50 19.5q-18 0 -29.5 -1t-20.5 -5l-2 2l46 52q55 3 108 17t94.5 42t66.5 72.5
t25 109.5q0 53 -20 87t-50 56t-65.5 36t-65.5 27t-50 28t-20 40q0 21 10.5 34t28.5 20.5t42.5 10t52.5 2.5q52 0 89.5 -9.5t64.5 -22.5l45 139q-35 17 -92 24t-122 7q-57 0 -113 -11.5t-100 -38.5t-71 -72t-27 -112q0 -49 20 -80.5t50 -51.5t65.5 -33.5t65.5 -26.5t50 -30
t20 -45q0 -27 -15 -43.5t-37.5 -25t-48.5 -11.5t-48 -3q-23 0 -47.5 3t-47.5 8t-43 12.5t-34 16.5l-44 -142q41 -13 91.5 -23t100.5 -12z" />
    <glyph glyph-name="Scedilla" unicode="&#xf6c1;" 
d="M141 -87l36 -23l18.5 4t18.5 2q14 0 23 -9t9 -32q0 -16 -17.5 -23t-36.5 -7q-22 0 -40.5 7t-37.5 16l-24 -42q28 -15 59.5 -21t69.5 -6q21 0 44 4.5t42 14t31.5 25.5t12.5 40q0 40 -21 59.5t-50 19.5q-18 0 -29.5 -1t-20.5 -5l-2 2l46 52q55 3 108 17t94.5 42t66.5 72.5
t25 109.5q0 53 -20 87t-50 56t-65.5 36t-65.5 27t-50 28t-20 40q0 21 10.5 34t28.5 20.5t42.5 10t52.5 2.5q52 0 89.5 -9.5t64.5 -22.5l45 139q-35 17 -92 24t-122 7q-57 0 -113 -11.5t-100 -38.5t-71 -72t-27 -112q0 -49 20 -80.5t50 -51.5t65.5 -33.5t65.5 -26.5t50 -30
t20 -45q0 -27 -15 -43.5t-37.5 -25t-48.5 -11.5t-48 -3q-23 0 -47.5 3t-47.5 8t-43 12.5t-34 16.5l-44 -142q41 -13 91.5 -23t100.5 -12z" />
    <glyph glyph-name="Scedilla" unicode="&#x15e;" 
d="M141 -87l36 -23l18.5 4t18.5 2q14 0 23 -9t9 -32q0 -16 -17.5 -23t-36.5 -7q-22 0 -40.5 7t-37.5 16l-24 -42q28 -15 59.5 -21t69.5 -6q21 0 44 4.5t42 14t31.5 25.5t12.5 40q0 40 -21 59.5t-50 19.5q-18 0 -29.5 -1t-20.5 -5l-2 2l46 52q55 3 108 17t94.5 42t66.5 72.5
t25 109.5q0 53 -20 87t-50 56t-65.5 36t-65.5 27t-50 28t-20 40q0 21 10.5 34t28.5 20.5t42.5 10t52.5 2.5q52 0 89.5 -9.5t64.5 -22.5l45 139q-35 17 -92 24t-122 7q-57 0 -113 -11.5t-100 -38.5t-71 -72t-27 -112q0 -49 20 -80.5t50 -51.5t65.5 -33.5t65.5 -26.5t50 -30
t20 -45q0 -27 -15 -43.5t-37.5 -25t-48.5 -11.5t-48 -3q-23 0 -47.5 3t-47.5 8t-43 12.5t-34 16.5l-44 -142q41 -13 91.5 -23t100.5 -12z" />
    <glyph glyph-name="eth" horiz-adv-x="667" 
d="M218 230q0 26 10 53t29 48.5t44.5 35.5t57.5 14q27 0 45.5 -9.5t29 -24.5t15 -33t4.5 -35q0 -36 -9.5 -66t-27.5 -52t-43.5 -34.5t-56.5 -12.5q-55 0 -76.5 31t-21.5 85zM192 614l39 -63l125 45q29 -29 53 -66.5t38 -84.5h-2q-17 18 -32.5 29.5t-32.5 19t-36 10.5t-42 3
q-52 0 -100.5 -19t-86 -56t-60.5 -91.5t-23 -124.5q0 -53 20.5 -95t57.5 -71.5t87.5 -45.5t110.5 -16q73 0 133.5 22t104.5 67.5t68.5 116t24.5 166.5q0 44 -10 85t-27 77.5t-40 69.5t-49 61l99 35l-40 64l-118 -43q-29 25 -58 44t-56 33l-128 -82q18 -10 39 -23t43 -30z
" />
    <glyph glyph-name="Uogonek" unicode="&#x172;" horiz-adv-x="722" 
d="M157 698l-79 -358q-5 -24 -10 -57t-5 -75q0 -61 21.5 -103t58.5 -68t87 -37.5t108 -11.5q-21 -11 -41 -23t-35.5 -27t-25 -32.5t-9.5 -38.5q0 -43 24 -65.5t81 -22.5q42 0 74.5 16.5t64.5 60.5l-37 14q-10 -10 -27 -17.5t-37 -7.5q-17 0 -28.5 11.5t-11.5 32.5
q0 23 19 45.5t44 42.5q20 17 53 23q62 13 103.5 46t69.5 81.5t45.5 111t32.5 134.5l68 325h-185l-69 -316l-18.5 -87.5t-27 -83t-45 -61.5t-72.5 -24q-50 0 -74.5 29t-24.5 72q0 12 4 31.5l9 44.5l84 395h-189z" />
    <glyph glyph-name="Gbreve" unicode="&#x11e;" horiz-adv-x="778" 
d="M761 676q-57 15 -113 24.5t-120 9.5q-122 0 -209.5 -29.5t-143.5 -82t-83 -125.5t-27 -160q0 -72 23.5 -132t69 -102.5t111.5 -66.5t150 -24q22 0 53 2t64.5 5.5t66.5 9.5t59 14l83 389h-293l-27 -132h111l-31 -138q-39 -12 -74 -12q-36 0 -67.5 11t-55 33.5t-37.5 56.5
t-14 81q0 49 14.5 96.5t46 85t81.5 60t120 22.5q61 0 108.5 -9t93.5 -29zM350 885q0 -36 12.5 -65t34.5 -49.5t52 -31.5t64 -11q166 0 215 157h-88q-5 -16 -16 -29.5t-26 -23t-32 -15t-34 -5.5q-43 0 -69 15t-32 58h-81z" />
    <glyph glyph-name="onesuperior" horiz-adv-x="398" 
d="M156 282h140l87 420h-115l-170 -97l38 -83l83 48z" />
    <glyph glyph-name="iogonek" unicode="&#x12f;" horiz-adv-x="333" 
d="M152 606h182l28 132h-182zM26 0h41q-24 -11 -47.5 -24.5t-43 -30t-31.5 -36t-12 -42.5q0 -43 24 -65.5t81 -22.5q42 0 74.5 16.5t64.5 60.5l-37 14q-10 -10 -27 -17.5t-37 -7.5q-17 0 -28.5 11.5t-11.5 32.5q0 15 8.5 29.5t22 29t30 27.5l32.5 25h79l108 521h-182z" />
    <glyph glyph-name="threesuperior" horiz-adv-x="398" 
d="M131 595q20 8 49 13.5t55 5.5q29 0 48.5 -6.5t19.5 -27.5q0 -13 -7.5 -22t-19 -14.5t-25.5 -8t-27 -2.5h-33t-23 1l-17 -86q10 0 22.5 0.5t28.5 0.5q9 0 20.5 -1t21 -5t16 -11t6.5 -19q0 -11 -7.5 -19t-19 -13.5t-26.5 -8t-30 -2.5q-33 0 -61 6t-57 18l-22 -94
q55 -26 150 -26q36 0 73 6t68 20t50.5 37.5t19.5 59.5q0 38 -25.5 57.5t-69.5 27.5v2q25 2 49 11t42.5 24t29.5 35.5t11 47.5q0 31 -14.5 51.5t-37 33t-51.5 18t-57 5.5q-40 0 -76.5 -4.5t-62.5 -10.5z" />
    <glyph glyph-name="Lcommaaccent" unicode="&#x13b;" horiz-adv-x="556" 
d="M15 0h481l29 138h-292l116 560h-189zM157 -155h72q-9 -28 -35 -41.5t-54 -13.5l-9 -43q64 0 110 28.5t60 94.5l17 81h-139z" />
    <glyph glyph-name="thorn" horiz-adv-x="667" 
d="M-55 -210h182l66 297q29 -49 68.5 -74t99.5 -25q70 0 122 27.5t85.5 73.5t50 105.5t16.5 123.5q0 44 -12.5 83t-36.5 68.5t-60.5 46.5t-84.5 17q-51 0 -92.5 -19.5t-75.5 -55.5h-2l65 292h-177zM227 232q0 26 9.5 54.5t27 52.5t42.5 40t57 16q43 0 64.5 -29.5t21.5 -77.5
q0 -30 -9.5 -59.5t-27 -52t-42.5 -36.5t-57 -14q-23 0 -39 9t-26.5 24t-15.5 34t-5 39z" />
    <glyph glyph-name="Iogonek" unicode="&#x12e;" horiz-adv-x="333" 
d="M23 0h44q-24 -11 -47.5 -24.5t-43 -30t-31.5 -36t-12 -42.5q0 -43 24 -65.5t81 -22.5q42 0 74.5 16.5t64.5 60.5l-37 14q-10 -10 -27 -17.5t-37 -7.5q-17 0 -28.5 11.5t-11.5 32.5q0 15 8.5 29.5t22 29t30 27.5l32.5 25h82l145 698h-188z" />
    <glyph glyph-name="minus" unicode="&#x2212;" horiz-adv-x="600" 
d="M62 190h506v126h-506v-126z" />
    <glyph glyph-name=".362" unicode="&#xe001;" horiz-adv-x="944" 
d="M862 144q-38 -18 -82.5 -27t-80.5 -9q-39 0 -64 9.5t-39.5 24t-19.5 32t-4 34.5h356q3 12 5 25.5l4 27t3 25.5t1 20q0 59 -18.5 102t-48.5 70.5t-69 41t-80 13.5q-36 0 -64.5 -6t-51.5 -16.5t-41.5 -24.5t-34.5 -29q-17 22 -40.5 36.5t-49 23.5t-51 12.5t-46.5 3.5
q-56 0 -112 -16.5t-101 -53.5t-73 -95t-28 -142q0 -49 17 -92.5t49 -75.5t77.5 -51t102.5 -19q59 0 114.5 15.5t99.5 51.5q34 -35 77.5 -51t87.5 -16q39 0 86.5 7.5t95.5 21.5zM202 230q0 36 9.5 68t27 56t41 38.5t52.5 14.5q46 0 69 -26.5t23 -86.5q0 -83 -36 -131.5
t-96 -48.5q-48 1 -69 31.5t-21 84.5zM594 310q2 19 10 37.5t22 33t35.5 23.5t50.5 9q47 0 66 -30.5t19 -72.5h-203z" />
    <glyph glyph-name="ncommaaccent" unicode="&#x146;" horiz-adv-x="667" 
d="M7 0h180l51 240q5 29 16 55t27.5 45.5t39 31t51.5 11.5q37 1 53.5 -18t16.5 -42q0 -20 -4 -39.5l-8 -39.5l-50 -244h186l48 243l7 35.5t4.5 27t2 23.5t0.5 24q0 38 -10.5 71t-31 57t-51 38t-69.5 14q-36 0 -64.5 -7t-52.5 -20t-44.5 -30.5t-39.5 -39.5h-2l14 85h-167
q-4 -35 -9.5 -68.5t-12.5 -67.5zM191 -155h72q-9 -28 -35 -41.5t-54 -13.5l-9 -43q64 0 110 28.5t60 94.5l17 81h-139z" />
    <glyph glyph-name="gcommaaccent" unicode="&#x123;" horiz-adv-x="667" 
d="M32 -189q42 -13 89 -23t115 -10q81 0 137 12.5t94 43t62 81t41 126.5l80 355q10 42 19 73t14 52h-167l-23 -95h-2q-23 57 -71.5 82t-108.5 25q-63 0 -114.5 -23.5t-88 -64t-56.5 -94.5t-20 -114q0 -52 13 -95.5t39.5 -75t66.5 -49t94 -17.5t97 23.5t73 67.5l2 -2
q-11 -50 -25.5 -84.5t-37.5 -55.5t-56 -30.5t-80 -8.5q-82 1 -151 41zM444 301q0 -26 -7.5 -54.5t-24 -52.5t-41.5 -40t-59 -16q-43 0 -68.5 27.5t-25.5 68.5q0 27 7.5 56t23.5 52t40.5 38t58.5 15q48 0 72 -26t24 -68zM496 704h-72q9 28 35 41.5t54 13.5l9 43
q-64 0 -110 -28.5t-60 -94.5l-17 -81h139z" />
    <glyph glyph-name="twosuperior" horiz-adv-x="398" 
d="M36 282h338l19 90h-167v2q43 22 80.5 44.5t65.5 47t44 53.5t16 65q0 35 -14 59t-36.5 39t-51.5 21.5t-59 6.5q-42 0 -74.5 -5.5t-61.5 -16.5l-12 -102q23 11 53 19.5t57 8.5q20 0 37.5 -12.5t17.5 -38.5q0 -17 -13.5 -35.5t-36 -38.5t-51 -40.5l-59.5 -41.5l-79 -53z" />
    <glyph glyph-name="lcommaaccent" unicode="&#x13c;" horiz-adv-x="333" 
d="M26 0h182l156 750h-182zM17 -155h72q-9 -28 -35 -41.5t-54 -13.5l-9 -43q64 0 110 28.5t60 94.5l17 81h-139z" />
    <glyph glyph-name="Imacron" unicode="&#x12a;" horiz-adv-x="333" 
d="M23 0h188l145 698h-188zM460 779l18 84h-373l-18 -84h373z" />
    <glyph glyph-name="Idotaccent" unicode="&#x130;" horiz-adv-x="333" 
d="M23 0h188l145 698h-188zM366 885h-138l-30 -144h138z" />
    <glyph glyph-name="Kcommaaccent" unicode="&#x136;" horiz-adv-x="722" 
d="M15 0h188l67 317h2l172 -317h215l-206 359l332 339h-241l-252 -285h-2l60 285h-188zM230 -155h72q-9 -28 -35 -41.5t-54 -13.5l-9 -43q64 0 110 28.5t60 94.5l17 81h-139z" />
    <glyph glyph-name="onequarter" horiz-adv-x="916" 
d="M699 161h-99l126 139h2zM664 0h135l15 71h60l17 90h-59l53 259h-146l-243 -267l-16 -82h200zM144 -22h110l494 742h-110zM105 282h140l87 420h-115l-170 -97l38 -83l83 48z" />
    <glyph glyph-name="Gcommaaccent" unicode="&#x122;" horiz-adv-x="778" 
d="M761 676q-57 15 -113 24.5t-120 9.5q-122 0 -209.5 -29.5t-143.5 -82t-83 -125.5t-27 -160q0 -72 23.5 -132t69 -102.5t111.5 -66.5t150 -24q22 0 53 2t64.5 5.5t66.5 9.5t59 14l83 389h-293l-27 -132h111l-31 -138q-39 -12 -74 -12q-36 0 -67.5 11t-55 33.5t-37.5 56.5
t-14 81q0 49 14.5 96.5t46 85t81.5 60t120 22.5q61 0 108.5 -9t93.5 -29zM298 -155h72q-9 -28 -35 -41.5t-54 -13.5l-9 -43q64 0 110 28.5t60 94.5l17 81h-139z" />
    <glyph glyph-name="omacron" unicode="&#x14d;" horiz-adv-x="667" 
d="M453 302q0 -89 -37 -138.5t-100 -49.5q-46 -1 -72 31t-26 85q0 31 10 62.5t28 57t44 41.5t59 16q26 0 44 -9t29 -23.5t16 -33.5t5 -39zM639 300q0 49 -17.5 91.5t-51.5 74t-85 49.5t-117 18q-77 0 -139 -22t-105.5 -62.5t-67.5 -97t-24 -125.5q0 -49 15 -92.5t48 -75.5
t84.5 -51t123.5 -19q73 0 134.5 18t106.5 56.5t70 97.5t25 140zM585 637l18 84h-373l-18 -84h373z" />
    <glyph glyph-name="kcommaaccent" unicode="&#x137;" 
d="M7 0h183l55 258h2l107 -258h200l-135 270l215 251h-205l-173 -219h-2l96 448h-182zM175 -155h72q-9 -28 -35 -41.5t-54 -13.5l-9 -43q64 0 110 28.5t60 94.5l17 81h-139z" />
    <glyph glyph-name=".E003h" unicode="&#xe003;" horiz-adv-x="600" 
d="M62 305h380v-197h126v323h-506v-126z" />
    </font>
</defs>
</svg>
