<?xml version="1.0" standalone="no"?>
<!DOCTYPE svg PUBLIC "-//W3C//DTD SVG 1.1//EN" "http://www.w3.org/Graphics/SVG/1.1/DTD/svg11.dtd" >
<svg>
<metadata>
Created by FontForge 20090622 at Wed Jun 10 18:44:40 2015
 By deploy user
Copyright (c) 1988, 1990, 1995 Adobe Systems Incorporated.  All Rights Reserved.Frutiger is a registered trademark of Linotype AG and/or its subsidiaries.
</metadata>
<defs>
<font id="FrutigerCE-Light" horiz-adv-x="556" >
  <font-face 
    font-family="Frutiger CE 45 Light"
    font-weight="300"
    font-stretch="normal"
    units-per-em="1000"
    panose-1="2 0 4 3 4 0 0 2 0 4"
    ascent="800"
    descent="-200"
    x-height="510"
    cap-height="698"
    bbox="-152 -216 1000 930"
    underline-thickness="50"
    underline-position="-75"
    unicode-range="U+0020-U+FB02"
  />
<missing-glyph horiz-adv-x="278" 
 />
    <glyph glyph-name=".notdef" horiz-adv-x="278" 
 />
    <glyph glyph-name="exclam" unicode="!" horiz-adv-x="389" 
d="M235 698h-81l12 -529h57zM154 0h81v84h-81v-84z" />
    <glyph glyph-name="quotedbl" unicode="&#x22;" 
d="M179 480h63v218h-63v-218zM314 480h63v218h-63v-218z" />
    <glyph glyph-name="numbersign" unicode="#" 
d="M107 0h61l31 219h130l-31 -219h61l31 219h104v54h-96l21 152h103v54h-96l31 219h-61l-31 -219h-130l31 219h-61l-31 -219h-114v-54h107l-22 -152h-111v-54h104zM337 273h-130l21 152h130z" />
    <glyph glyph-name="dollar" unicode="$" 
d="M308 307q42 -25 69.5 -52t27.5 -64q0 -57 -27 -89.5t-70 -44.5v250zM257 413q-44 24 -73.5 51t-29.5 66q0 26 8.5 46t22.5 34t32.5 22.5t39.5 12.5v-232zM257 771v-65q-37 -6 -68.5 -21t-54.5 -37.5t-36 -53t-13 -66.5t15 -64t39.5 -51t55.5 -41.5l62 -35.5v-287
q-4 -1 -9 -1q-49 0 -86 10.5t-68 30.5l-7 -71q28 -12 67.5 -21t90.5 -9q8 0 12 1v-78h51v83q33 7 63 22t53 38.5t36.5 56t13.5 74.5q0 39 -14.5 69t-38 53.5t-53 42t-60.5 35.5v265q35 -1 68 -7t56 -19l11 63q-35 14 -72 18.5t-63 4.5v61h-51z" />
    <glyph glyph-name="percent" unicode="%" horiz-adv-x="1000" 
d="M579 180q0 -40 9 -74.5t28.5 -59.5t49 -39t71.5 -14t71.5 14t49 39t28.5 59.5t9 74.5t-9 74.5t-28.5 59.5t-49 39t-71.5 14t-71.5 -14t-49 -39t-28.5 -59.5t-9 -74.5zM642 180q0 23 4.5 47t15 43t29 31t46.5 12t46.5 -12t29 -31t15 -43t4.5 -47t-4.5 -47t-15 -43t-29 -31
t-46.5 -12t-46.5 12t-29 31t-15 43t-4.5 47zM105 518q0 -40 9 -74.5t28.5 -59.5t49 -39t71.5 -14t71.5 14t49 39t28.5 59.5t9 74.5t-9 74.5t-28.5 59.5t-49 39t-71.5 14t-71.5 -14t-49 -39t-28.5 -59.5t-9 -74.5zM168 518q0 23 4.5 47t15 43t29 31t46.5 12t46.5 -12t29 -31
t15 -43t4.5 -47t-4.5 -47t-15 -43t-29 -31t-46.5 -12t-46.5 12t-29 31t-15 43t-4.5 47zM264 -22h58l413 742h-58z" />
    <glyph glyph-name="ampersand" unicode="&#x26;" horiz-adv-x="667" 
d="M308 376l61.5 32t54 37.5t38 50.5t14.5 70q0 37 -14 64t-37 45t-52.5 26.5t-60.5 8.5q-35 0 -68.5 -9.5t-60 -29t-43 -48t-16.5 -65.5q0 -26 8 -49.5t21 -44.5t29.5 -40.5l32.5 -37.5q-35 -14 -65 -32t-52.5 -43t-35 -56.5t-12.5 -71.5q0 -51 19 -87.5t51 -60.5
t73.5 -35.5t85.5 -11.5q62 0 115.5 22t96.5 70l74 -78h88l-119 129q39 53 58.5 118.5t19.5 133.5h-60q0 -57 -13.5 -110.5t-46.5 -101.5zM453 123q-30 -37 -77 -59t-95 -22q-32 0 -61 9t-51.5 27t-36 45t-13.5 63q0 29 11 54t29.5 45.5t42 36t48.5 25.5zM193 554
q0 25 9.5 44.5t25.5 32t37 19t43 6.5q45 0 72 -25.5t27 -75.5q0 -31 -12.5 -53t-32 -38.5t-43.5 -28.5l-47 -23l-28.5 32.5t-25.5 34t-18 36t-7 39.5z" />
    <glyph glyph-name="quotesingle" unicode="'" horiz-adv-x="278" 
d="M108 480h63v218h-63v-218z" />
    <glyph glyph-name="parenleft" unicode="(" horiz-adv-x="278" 
d="M255 -140l-54 106t-48.5 109.5t-34.5 113.5t-13 119t13 119t34.5 113.5t48.5 109l54 106.5h-42q-33 -51 -63.5 -104t-54.5 -108.5t-38.5 -114t-14.5 -121.5t14.5 -121.5t38.5 -114t54.5 -108.5t63.5 -104h42z" />
    <glyph glyph-name="parenright" unicode=")" horiz-adv-x="278" 
d="M23 756l54 -106.5t48.5 -109t34.5 -113.5t13 -119t-13 -119t-34.5 -113.5t-48.5 -109.5l-54 -106h42q33 51 63.5 104t54.5 108.5t38.5 114t14.5 121.5t-14.5 121.5t-38.5 114t-54.5 108.5t-63.5 104h-42z" />
    <glyph glyph-name="asterisk" unicode="*" 
d="M249 698l7 -153l-147 56l-17 -58l147 -42l-94 -119l49 -38l84 131l86 -131l50 38l-97 119l147 42l-19 58l-145 -56l7 153h-58z" />
    <glyph glyph-name="plus" unicode="+" horiz-adv-x="600" 
d="M46 219h219v-219h69v219h219v69h-219v219h-69v-219h-219v-69z" />
    <glyph glyph-name="comma" unicode="," horiz-adv-x="278" 
d="M54 -134h63l79 218h-84z" />
    <glyph glyph-name="hyphen" unicode="-" horiz-adv-x="333" 
d="M41 235h251v69h-251v-69z" />
    <glyph glyph-name="hyphen" unicode="&#xad;" horiz-adv-x="333" 
d="M41 235h251v69h-251v-69z" />
    <glyph glyph-name="period" unicode="." horiz-adv-x="278" 
d="M98 0h81v84h-81v-84z" />
    <glyph glyph-name="slash" unicode="/" horiz-adv-x="278" 
d="M-31 -12h69l271 722h-69z" />
    <glyph glyph-name="zero" unicode="0" 
d="M278 645q54 0 86 -30t48.5 -74.5t21 -96.5t4.5 -95q0 -44 -4.5 -95.5t-21 -96t-48.5 -74.5t-86 -30t-86 30t-48.5 74.5t-21 96t-4.5 95.5q0 43 4.5 95t21 96.5t48.5 74.5t86 30zM278 705q-70 0 -114.5 -32.5t-70 -84t-35 -115t-9.5 -124.5q0 -55 8 -117.5t32 -115.5
t69 -88t120 -35t120 35t69 88t32 115.5t8 117.5q0 61 -9.5 124.5t-35 115t-70 84t-114.5 32.5z" />
    <glyph glyph-name="one" unicode="1" 
d="M123 566l38 -45l113 99v-620h69v698h-62z" />
    <glyph glyph-name="two" unicode="2" 
d="M50 0h419v60h-334l126 138l68 77.5t61.5 82.5t45 83.5t17.5 80.5q0 47 -15.5 81.5t-43 57t-64.5 33.5t-79 11q-43 0 -90.5 -14t-85.5 -33l12 -63q42 24 81 37t87 13q26 0 48.5 -9.5t39 -26t26 -39.5t9.5 -51q0 -32 -14.5 -67t-38 -71t-54 -72.5l-61.5 -71.5l-160 -177
v-60z" />
    <glyph glyph-name="three" unicode="3" 
d="M150 332h64q28 0 61.5 -4t62 -17.5t48 -39.5t19.5 -71q0 -40 -16 -68t-42 -45.5t-58 -25.5t-63 -8q-38 0 -81.5 7t-86.5 27l-8 -66q42 -16 84.5 -22t87.5 -6q52 0 98 13.5t80.5 39.5t54 63t19.5 85q0 35 -9.5 65t-28 52.5t-45.5 36t-62 15.5v2q64 16 104.5 59.5
t40.5 107.5q0 46 -18.5 79t-49.5 54t-71 30.5t-83 9.5q-44 0 -87.5 -9t-81.5 -23l6 -65q37 17 75.5 27t80.5 10q28 0 56.5 -6.5t51.5 -20.5t37.5 -35.5t14.5 -50.5q0 -49 -23.5 -77t-59 -42t-77 -17.5t-77.5 -3.5h-18v-60z" />
    <glyph glyph-name="four" unicode="4" 
d="M356 221h-270l268 408h2v-408zM23 161h333v-161h69v161h103v60h-103v477h-88l-314 -469v-68z" />
    <glyph glyph-name="five" unicode="5" 
d="M458 698h-357l-7 -351q38 11 72.5 16.5t78.5 5.5q89 0 132 -38.5t43 -119.5q0 -41 -16 -70.5t-42.5 -49t-59.5 -29t-67 -9.5q-37 0 -76.5 9t-72.5 27v-71q35 -14 73 -19.5t76 -5.5q56 0 102.5 14.5t80.5 43.5t52.5 72.5t18.5 101.5q0 97 -58.5 150.5t-160.5 53.5
q-41 0 -65 -4.5t-41 -10.5l5 224h289v60z" />
    <glyph glyph-name="six" unicode="6" 
d="M279 -7q54 0 96 17t71.5 47t45 72.5t15.5 93.5q0 65 -21 107t-53 67t-70.5 34.5t-72.5 9.5q-49 0 -93 -20.5t-71 -65.5h-2q0 53 11.5 105.5t39 94t73 66.5t113.5 24q30 0 61.5 -6t53.5 -16l6 66q-28 7 -55.5 11.5t-56.5 4.5q-89 0 -149 -30t-97 -81.5t-53 -121
t-16 -148.5q0 -62 9 -121t33.5 -106t68.5 -75.5t113 -28.5zM290 381q73 0 110.5 -43t37.5 -120q0 -35 -10 -65.5t-30 -52.5t-49.5 -34.5t-67.5 -12.5q-39 0 -67 15t-46.5 39.5t-27.5 55.5t-9 63q0 69 42 112t117 43z" />
    <glyph glyph-name="seven" unicode="7" 
d="M138 0h76l270 638v60h-426v-60h358z" />
    <glyph glyph-name="eight" unicode="8" 
d="M68 542q0 -35 11.5 -62.5t31 -49t44.5 -38t52 -29.5q-34 -12 -63.5 -27.5t-51 -37t-34 -50.5t-12.5 -69q0 -48 20.5 -83t53.5 -58t74.5 -34t83.5 -11t83.5 10t74.5 32t53.5 57.5t20.5 86.5q0 41 -12.5 70t-35 50t-52.5 36t-66 28q25 13 50.5 31t46 40t33.5 49t13 59
q0 43 -17.5 73.5t-46.5 50.5t-66.5 29.5t-78.5 9.5q-32 0 -68.5 -9t-68 -28.5t-52.5 -50.5t-21 -75zM441 185q0 -36 -14 -61t-37 -41t-52 -23t-60 -7q-30 0 -59 8.5t-52.5 25t-37.5 40t-14 52.5q0 36 14 61t37 42t52.5 30l59.5 25l52.5 -25t53 -30.5t41 -40.5t16.5 -56z
M137 536q0 27 12 47.5t31.5 34t45 20.5t52.5 7q24 0 49 -6.5t45.5 -20t33 -34t12.5 -48.5q0 -27 -13 -49t-33.5 -40t-45 -32.5t-48.5 -26.5q-21 10 -46 23.5t-46 31t-35 40.5t-14 53z" />
    <glyph glyph-name="nine" unicode="9" 
d="M277 705q-54 0 -96 -17t-71.5 -47t-45 -72.5t-15.5 -93.5q0 -65 21 -107t53 -67t70 -34.5t73 -9.5q49 0 93 20.5t71 65.5h2q0 -53 -11.5 -105.5t-39 -94t-73 -66.5t-113.5 -24q-30 0 -61.5 6t-53.5 16l-6 -66q28 -7 55.5 -11.5t56.5 -4.5q88 0 148.5 30t97.5 81.5t53 121
t16 148.5q0 61 -9 120.5t-33.5 106.5t-68.5 75.5t-113 28.5zM266 317q-73 0 -110.5 43t-37.5 120q0 35 10 65.5t30 52.5t49.5 34.5t67.5 12.5q39 0 67 -15t46.5 -39.5t27.5 -55.5t9 -63q0 -69 -42 -112t-117 -43z" />
    <glyph glyph-name="colon" unicode=":" horiz-adv-x="278" 
d="M179 510h-81v-84h81v84zM98 0h81v84h-81v-84z" />
    <glyph glyph-name="semicolon" unicode=";" horiz-adv-x="278" 
d="M54 -134h63l79 218h-84zM179 510h-81v-84h81v84z" />
    <glyph glyph-name="semicolon" unicode="&#x37e;" horiz-adv-x="278" 
d="M54 -134h63l79 218h-84zM179 510h-81v-84h81v84z" />
    <glyph glyph-name="less" unicode="&#x3c;" horiz-adv-x="600" 
d="M553 514l-507 -230v-62l507 -230v66l-430 195l430 195v66z" />
    <glyph glyph-name="equal" unicode="=" horiz-adv-x="600" 
d="M46 319h507v69h-507v-69zM46 118h507v69h-507v-69z" />
    <glyph glyph-name="greater" unicode="&#x3e;" horiz-adv-x="600" 
d="M47 -8l507 230v62l-507 230v-66l431 -195l-431 -195v-66z" />
    <glyph glyph-name="question" unicode="?" horiz-adv-x="500" 
d="M89 622q32 11 65.5 19.5t74.5 8.5q54 0 90 -31.5t36 -87.5q0 -40 -12 -68.5t-30.5 -52t-40 -45t-40 -47t-30.5 -58.5t-12 -78v-13h63v15q0 40 12.5 70t31.5 54.5t41.5 47t41.5 47.5t31.5 56t12.5 72q0 46 -15.5 80t-42 56t-61 32.5t-73.5 10.5q-37 0 -74 -7t-72 -18z
M182 0h81v84h-81v-84z" />
    <glyph glyph-name="at" unicode="@" horiz-adv-x="800" 
d="M266 290q0 45 15.5 82.5t38.5 65t50.5 42.5t51.5 15q13 0 27.5 -4t26 -14.5t19 -28t7.5 -43.5q0 -31 -12 -68t-33.5 -68.5t-52 -53t-66.5 -21.5q-32 0 -51 25t-21 71zM616 538h-63l-21 -60q-17 41 -46 59t-64 18q-52 0 -94.5 -24t-73 -62.5t-47 -87t-16.5 -97.5
q0 -31 10 -58t28 -47.5t42.5 -32.5t54.5 -12q25 0 44 5.5t33.5 14t25.5 19.5t20 22h2q12 -61 79 -61q31 0 70.5 19t74 54t58 86t23.5 115q0 74 -31 130.5t-81 94.5t-113.5 57.5t-129.5 19.5q-90 0 -157.5 -31t-113 -81.5t-68 -115.5t-22.5 -133t22.5 -132.5t68 -115.5
t113 -82t157.5 -31q108 0 193 45t132 126h-61q-42 -51 -110.5 -81t-153.5 -30q-63 0 -117 22.5t-93.5 63t-62 95.5t-22.5 121q0 65 22.5 120t62 95t93.5 62.5t117 22.5q57 0 109 -16t92 -47t64 -76t24 -103q0 -44 -12.5 -82.5t-33 -68t-47 -46.5t-54.5 -17q-12 0 -17 7
t-5 16q0 21 10 49z" />
    <glyph glyph-name="A" unicode="A" horiz-adv-x="667" 
d="M13 0h67l75 187h352l75 -187h72l-277 698h-78zM484 247h-303l152 385z" />
    <glyph glyph-name="B" unicode="B" 
d="M80 0h139q54 0 103 9.5t86 33t58.5 61.5t21.5 95q0 69 -41 111.5t-107 54.5v2q127 25 127 159q0 50 -18.5 83.5t-49.5 53t-70.5 27.5t-82.5 8h-166v-698zM149 333h61q38 0 75.5 -4t67 -18t48 -41.5t18.5 -73.5q0 -42 -18 -68.5t-46.5 -41.5t-63.5 -20.5t-70 -5.5h-72v273
zM151 638h95q22 0 48.5 -4t49.5 -16t38.5 -34.5t15.5 -60.5q0 -42 -16.5 -67.5t-41.5 -39.5t-55 -18.5t-57 -4.5h-77v245z" />
    <glyph glyph-name="C" unicode="C" horiz-adv-x="667" 
d="M569 684q-14 7 -34.5 12t-43.5 8t-45 4.5t-37 1.5q-81 0 -146 -26.5t-111 -74.5t-70.5 -114.5t-24.5 -145.5q0 -81 24 -147.5t69.5 -114t110.5 -73.5t148 -26q16 0 38 1.5t44.5 5t43 9t34.5 14.5l-4 60q-15 -9 -35 -15t-41 -9t-42 -4.5t-38 -1.5q-69 0 -122 22.5
t-88.5 62t-54 95t-18.5 121.5q0 65 19 120t55 95.5t88.5 63t120.5 22.5q37 0 80 -6.5t76 -23.5z" />
    <glyph glyph-name="D" unicode="D" horiz-adv-x="667" 
d="M149 638h101q58 0 110 -14.5t90 -47.5t60.5 -87.5t22.5 -134.5t-23.5 -136t-66 -91t-103 -51t-134.5 -16h-57v578zM80 0h122q87 0 160 19t126.5 61t83.5 108.5t30 161.5q0 76 -19.5 140t-61.5 110.5t-108 72t-160 25.5h-173v-698z" />
    <glyph glyph-name="E" unicode="E" horiz-adv-x="500" 
d="M86 0h354v60h-285v269h259v60h-259v249h273v60h-342v-698z" />
    <glyph glyph-name="F" unicode="F" horiz-adv-x="444" 
d="M77 0h69v329h251v60h-251v249h263v60h-332v-698z" />
    <glyph glyph-name="G" unicode="G" horiz-adv-x="722" 
d="M564 73q-12 -8 -31 -12.5t-39.5 -7.5t-41 -4t-36.5 -1q-69 0 -122 22.5t-88.5 62t-54 95t-18.5 121.5q0 65 19 120t55 95.5t88.5 63t120.5 22.5q46 0 92 -7t87 -30l8 64q-18 9 -42 15.5t-49.5 10t-50.5 5.5t-45 2q-81 0 -146 -26.5t-111 -74.5t-70.5 -114.5t-24.5 -145.5
q0 -81 24 -147.5t69.5 -114t110.5 -73.5t148 -26q58 0 110.5 10t106.5 33v347h-231v-60h162v-245z" />
    <glyph glyph-name="H" unicode="H" horiz-adv-x="667" 
d="M88 0h69v329h353v-329h69v698h-69v-309h-353v309h-69v-698z" />
    <glyph glyph-name="I" unicode="I" horiz-adv-x="222" 
d="M77 0h69v698h-69v-698z" />
    <glyph glyph-name="J" unicode="J" horiz-adv-x="333" 
d="M250 698h-69v-520q0 -26 -5 -49.5t-17 -41.5t-31.5 -28.5t-48.5 -10.5q-15 0 -33 3t-32 10v-61q16 -6 35.5 -9t36.5 -3q43 0 74.5 15t51 41t29 61t9.5 75v518z" />
    <glyph glyph-name="K" unicode="K" horiz-adv-x="611" 
d="M95 0h69v349l338 -349h95l-367 369l338 329h-90l-314 -313v313h-69v-698z" />
    <glyph glyph-name="L" unicode="L" horiz-adv-x="444" 
d="M80 0h349v60h-280v638h-69v-698z" />
    <glyph glyph-name="M" unicode="M" horiz-adv-x="889" 
d="M86 0h69v629h2l262 -629h59l254 629h2v-629h69v698h-99l-256 -614l-255 614h-107v-698z" />
    <glyph glyph-name="N" unicode="N" horiz-adv-x="667" 
d="M77 0h69v602h2l349 -602h93v698h-69v-614h-2l-355 614h-87v-698z" />
    <glyph glyph-name="O" unicode="O" horiz-adv-x="722" 
d="M54 349q1 -80 20.5 -146.5t58 -114t96 -74t132.5 -26.5t132.5 26.5t96 74t58 114t20.5 146.5q1 71 -17.5 136t-56.5 115t-96 80t-137 30t-137 -30t-96 -80t-56.5 -115t-17.5 -136zM361 650q61 0 106 -26t74.5 -69t43.5 -97t14 -109q0 -56 -14 -109.5t-43.5 -96.5
t-74.5 -69t-106 -26q-62 0 -106.5 26t-74 69t-43.5 96.5t-14 109.5q0 55 14 109t43.5 97t74 69t106.5 26z" />
    <glyph glyph-name="P" unicode="P" horiz-adv-x="500" 
d="M86 0h69v302h96q47 0 87.5 12.5t70.5 37.5t47.5 62t17.5 86q0 99 -59 148.5t-157 49.5h-172v-698zM155 638h112q66 0 102 -36t36 -102q0 -47 -17 -74.5t-45 -41.5t-64.5 -18t-75.5 -4h-48v276z" />
    <glyph glyph-name="Q" unicode="Q" horiz-adv-x="722" 
d="M634 -130l-147 142q88 36 133.5 125t47.5 212q1 71 -17.5 136t-56.5 115t-96 80t-137 30t-137 -30t-96 -80t-56.5 -115t-17.5 -136q1 -80 20.5 -146.5t58 -114t96 -74t132.5 -26.5h15t14 1q8 1 14.5 1.5t13.5 2.5l124 -123h92zM361 650q61 0 106 -26t74.5 -69t43.5 -97
t14 -109q0 -56 -14 -109.5t-43.5 -96.5t-74.5 -69t-106 -26q-62 0 -106.5 26t-74 69t-43.5 96.5t-14 109.5q0 55 14 109t43.5 97t74 69t106.5 26z" />
    <glyph glyph-name="R" unicode="R" 
d="M157 638h71q36 0 68 -3t56 -15t38 -36t14 -67q0 -36 -16 -60.5t-41 -39.5t-56 -21.5t-61 -6.5h-73v249zM88 0h69v329h57q25 0 43.5 -2t34 -11t29.5 -27.5t29 -52.5l101 -236h76l-119 270q-8 18 -15.5 32t-17 25t-23 17.5t-34.5 9.5v2q32 4 60.5 17t49.5 34t33 48.5
t12 61.5q0 96 -56 138.5t-149 42.5h-180v-698z" />
    <glyph glyph-name="S" unicode="S" horiz-adv-x="500" 
d="M60 18q28 -12 67.5 -21t90.5 -9q40 0 81 11t74 34.5t53.5 61t20.5 90.5q0 51 -23.5 86.5t-59.5 62.5t-77 47.5t-77 42t-59.5 46.5t-23.5 60q0 34 13.5 57t35 37t48.5 20t54 6q35 0 69.5 -6.5t57.5 -19.5l11 63q-36 14 -73.5 18.5t-63.5 4.5q-46 0 -86.5 -12.5
t-70.5 -36.5t-47 -57.5t-17 -75.5q0 -46 23.5 -79t59.5 -59t77 -47.5t77 -44t59.5 -48t23.5 -59.5q0 -37 -12.5 -64t-34 -44.5t-50 -26t-60.5 -8.5q-49 0 -86 10.5t-68 30.5z" />
    <glyph glyph-name="T" unicode="T" horiz-adv-x="500" 
d="M216 0h69v638h206v60h-481v-60h206v-638z" />
    <glyph glyph-name="U" unicode="U" horiz-adv-x="667" 
d="M587 698h-69v-454q0 -43 -11.5 -79t-35 -62t-58 -40.5t-79.5 -14.5t-79.5 14.5t-58 40.5t-35 62t-11.5 79v454h-69v-454q0 -77 25 -127t63 -78.5t82.5 -39.5t82.5 -11t82.5 11t82.5 39.5t63 78.5t25 127v454z" />
    <glyph glyph-name="V" unicode="V" horiz-adv-x="611" 
d="M605 698h-68l-233 -629l-225 629h-73l260 -698h74z" />
    <glyph glyph-name="W" unicode="W" horiz-adv-x="944" 
d="M935 698h-66l-175 -620h-2l-176 620h-83l-179 -620h-2l-172 620h-71l200 -698h83l180 620h2l177 -620h82z" />
    <glyph glyph-name="X" unicode="X" horiz-adv-x="611" 
d="M7 0h79l221 318l213 -318h84l-254 367l235 331h-77l-198 -282l-196 282h-81l234 -331z" />
    <glyph glyph-name="Y" unicode="Y" horiz-adv-x="611" 
d="M271 0h69v296l259 402h-75l-219 -341l-213 341h-80l259 -402v-296z" />
    <glyph glyph-name="Z" unicode="Z" horiz-adv-x="500" 
d="M21 0h449v60h-374l362 578v60h-428v-60h355l-364 -578v-60z" />
    <glyph glyph-name="bracketleft" unicode="[" horiz-adv-x="278" 
d="M69 -140h162v48h-99v800h99v48h-162v-896z" />
    <glyph glyph-name="backslash" unicode="\" horiz-adv-x="278" 
d="M38 710h-69l271 -722h69z" />
    <glyph glyph-name="bracketright" unicode="]" horiz-adv-x="278" 
d="M209 756h-162v-48h99v-800h-99v-48h162v896z" />
    <glyph glyph-name="asciicircum" unicode="^" horiz-adv-x="600" 
d="M50 265h71l179 364l179 -364h71l-218 433h-64z" />
    <glyph glyph-name="underscore" unicode="_" horiz-adv-x="500" 
d="M0 -125h500v50h-500v-50z" />
    <glyph glyph-name="grave" unicode="`" horiz-adv-x="222" 
d="M75 736h-79l126 -144h46z" />
    <glyph glyph-name="a" unicode="a" horiz-adv-x="500" 
d="M372 0h62q-4 26 -4.5 51t-0.5 56v225q0 100 -42 145t-137 45q-17 0 -37 -3t-40.5 -7.5t-39 -11t-33.5 -13.5v-61q35 23 72.5 32.5t77.5 9.5q64 0 90 -32.5t26 -98.5v-26h-12q-50 0 -105 -4t-101.5 -21.5t-77 -53.5t-30.5 -100q0 -17 6 -42t24 -47.5t51 -38.5t87 -16
q24 0 48 6t46 18t39.5 29.5t28.5 40.5h2v-82zM366 226q0 -21 -3 -52t-17 -60.5t-45 -50.5t-86 -21q-44 0 -75 21t-31 71q0 42 22 66.5t56.5 37t77 16t83.5 3.5h18v-31z" />
    <glyph glyph-name="b" unicode="b" 
d="M73 0h63v81h2q26 -49 65 -71t94 -22q52 0 91.5 20.5t66 56.5t39.5 84.5t13 105.5q0 58 -11.5 107t-37 84.5t-65.5 55.5t-96 20q-38 0 -66 -12t-47.5 -28t-31 -32.5t-14.5 -25.5h-2v326h-63v-750zM438 255q0 -37 -6.5 -75t-24 -68.5t-46.5 -50t-74 -19.5q-42 0 -71 20
t-46.5 51.5t-25.5 69t-8 72.5t7.5 72.5t25 69t46.5 51.5t72 20q45 0 74 -19.5t46.5 -50t24 -68.5t6.5 -75z" />
    <glyph glyph-name="c" unicode="c" horiz-adv-x="444" 
d="M416 502q-14 5 -45.5 12.5t-77.5 7.5q-57 0 -103.5 -19.5t-79.5 -55t-51 -84.5t-18 -108q0 -53 15 -101.5t45.5 -85.5t76 -58.5t107.5 -21.5q36 0 67.5 3.5t63.5 14.5l-6 59q-29 -11 -57 -17t-58 -6q-43 0 -77.5 17t-58.5 46t-36.5 67.5t-12.5 82.5q0 46 12.5 85.5
t37 67.5t60.5 44t82 16q26 0 54.5 -7.5t54.5 -18.5z" />
    <glyph glyph-name="d" unicode="d" 
d="M483 750h-63v-326h-2q-3 9 -14.5 25.5t-31 32.5t-48 28t-65.5 12q-56 0 -96 -20t-65.5 -55.5t-37 -84.5t-11.5 -107q0 -57 13 -105.5t39.5 -84.5t65.5 -56.5t92 -20.5q55 0 94 22t65 71h2v-81h63v750zM118 255q0 37 6.5 75t24 68.5t46.5 50t74 19.5q42 0 71 -20
t46.5 -51.5t25.5 -69t8 -72.5t-8 -72.5t-25.5 -69t-46.5 -51.5t-71 -20q-45 0 -74 19.5t-46.5 50t-24 68.5t-6.5 75z" />
    <glyph glyph-name="e" unicode="e" horiz-adv-x="500" 
d="M421 80q-11 -7 -28.5 -14t-37 -12t-40 -8.5t-37.5 -3.5q-41 0 -72.5 15.5t-52.5 41.5t-32 61.5t-11 76.5h349v32q0 51 -11.5 97t-36 80.5t-63 55t-92.5 20.5q-48 0 -88 -20t-68 -55t-43.5 -84.5t-15.5 -107.5q0 -57 12.5 -106t40 -85t72 -56t107.5 -20q35 0 75 7t73 21
v64zM110 291q0 31 10.5 63t30 57t47 41t62.5 16t60 -15t40.5 -40t22.5 -57t7 -65h-280z" />
    <glyph glyph-name="f" unicode="f" horiz-adv-x="333" 
d="M122 0h63v456h115v54h-115v44v50t6.5 50t22.5 38.5t48 15.5q14 0 27 -3t23 -8l4 55q-9 5 -26.5 7.5t-32.5 2.5q-49 0 -76.5 -18.5t-40.5 -49t-15.5 -69t-2.5 -78.5v-37h-103v-54h103v-456z" />
    <glyph glyph-name="g" unicode="g" 
d="M118 255q0 37 6.5 75t24 68.5t46.5 50t74 19.5q43 0 72 -16t46.5 -44.5t25 -67.5t7.5 -85q0 -35 -8 -70.5t-26.5 -64.5t-48 -47.5t-72.5 -18.5q-40 0 -68 17.5t-45.5 45.5t-25.5 64t-8 74zM483 510h-63v-58h-2q-18 23 -35.5 36.5t-36.5 21t-40.5 10t-46.5 2.5
q-56 0 -96 -20t-65.5 -55.5t-37 -84.5t-11.5 -107q0 -42 10.5 -87.5t35.5 -82.5t66.5 -61t102.5 -24q49 0 89 22t66 78h2q0 -54 -4.5 -101.5t-22.5 -83.5t-53 -56.5t-96 -20.5q-42 0 -81.5 10.5t-68.5 25.5l-5 -63q20 -6 61.5 -16.5t92.5 -10.5q66 0 111.5 20.5t74 55.5
t41 82t12.5 100v468z" />
    <glyph glyph-name="h" unicode="h" 
d="M79 0h63v273q0 33 8 68t25.5 63t46.5 46t71 18q39 0 63 -13.5t36.5 -36t17 -52t4.5 -62.5v-304h63v305q0 47 -8 87t-27.5 69t-53.5 45t-85 16q-57 0 -98 -28t-61 -70h-2v326h-63v-750z" />
    <glyph glyph-name="i" unicode="i" horiz-adv-x="222" 
d="M79 0h63v510h-63v-510zM142 710h-63v-84h63v84z" />
    <glyph glyph-name="j" unicode="j" horiz-adv-x="222" 
d="M-28 -211q8 -2 21.5 -3.5t33.5 -1.5q34 0 56.5 11t35.5 30.5t18 45.5t5 57v582h-63v-574q0 -20 -2 -37.5t-8.5 -31t-20.5 -21.5t-38 -8q-9 0 -20 2t-18 4v-55zM142 710h-63v-84h63v84z" />
    <glyph glyph-name="k" unicode="k" horiz-adv-x="500" 
d="M79 0h63v262l252 -262h87l-279 284l249 226h-81l-228 -209v449h-63v-750z" />
    <glyph glyph-name="l" unicode="l" horiz-adv-x="222" 
d="M79 0h63v750h-63v-750z" />
    <glyph glyph-name="m" unicode="m" horiz-adv-x="833" 
d="M758 0v351q0 37 -10.5 68.5t-31 54t-50.5 35.5t-69 13q-60 0 -103 -31.5t-60 -76.5h-2q-6 33 -21.5 54t-35 33t-40.5 16.5t-38 4.5q-41 0 -68 -10.5t-45 -26t-28.5 -32.5t-17.5 -30l-2 1v86h-61q3 -31 3.5 -61t0.5 -59v-390h63v282q0 48 11.5 83t31 58t44 34t50.5 11
q30 0 51 -10t33.5 -27.5t18 -41t5.5 -50.5v-339h63v282q0 48 11.5 83t31 58t44 34t50.5 11q30 0 51 -10t33.5 -27.5t18 -41t5.5 -50.5v-339h63z" />
    <glyph glyph-name="n" unicode="n" 
d="M79 0h63v282q0 32 7.5 65t25 60t46.5 44t72 17q65 0 93 -43t28 -115v-310h63v326q0 42 -9.5 78t-30.5 62t-54 41t-80 15q-40 0 -67.5 -9.5t-46.5 -24.5t-31 -33.5t-20 -35.5h-2v91h-61q3 -31 3.5 -61t0.5 -59v-390z" />
    <glyph glyph-name="o" unicode="o" 
d="M40 255q0 -52 14 -100.5t43 -85.5t74 -59t107 -22t107 22t74 59t43 85.5t14 100.5t-14 100.5t-43 85.5t-74 59t-107 22t-107 -22t-74 -59t-43 -85.5t-14 -100.5zM109 255q0 44 11 83t32.5 68t53 45.5t72.5 16.5t72.5 -16.5t53 -45.5t32.5 -68t11 -83t-11 -83t-32.5 -68
t-53 -45.5t-72.5 -16.5t-72.5 16.5t-53 45.5t-32.5 68t-11 83z" />
    <glyph glyph-name="p" unicode="p" 
d="M73 -210h63v297h2q23 -50 61 -74.5t98 -24.5q52 0 91.5 20.5t66 56.5t39.5 84.5t13 105.5q0 58 -11.5 107t-37 84.5t-65.5 55.5t-96 20q-41 0 -69 -12.5t-47 -29.5t-30 -35l-17 -28h-2l4 93h-63v-720zM438 255q0 -37 -6.5 -75t-24 -68.5t-46.5 -50t-74 -19.5
q-42 0 -71 20t-46.5 51.5t-25.5 69t-8 72.5t8 72.5t25.5 69t46.5 51.5t71 20q45 0 74 -19.5t46.5 -50t24 -68.5t6.5 -75z" />
    <glyph glyph-name="q" unicode="q" 
d="M483 510h-63v-83h-2q-5 7 -15 22.5t-28.5 31.5t-47 28.5t-68.5 12.5q-56 0 -96 -20t-65.5 -55.5t-37 -84.5t-11.5 -107q0 -57 13 -105.5t39.5 -84.5t65.5 -56.5t92 -20.5q60 0 98 24.5t61 74.5h2v-297h63v720zM118 255q0 37 6.5 75t24 68.5t46.5 50t74 19.5q42 0 71 -20
t46.5 -51.5t25.5 -69t8 -72.5t-8 -72.5t-25.5 -69t-46.5 -51.5t-71 -20q-45 0 -74 19.5t-46.5 50t-24 68.5t-6.5 75z" />
    <glyph glyph-name="r" unicode="r" horiz-adv-x="333" 
d="M79 0h63v252q0 34 6 70.5t20 66t38.5 48.5t62.5 19q26 0 46 -6v66q-8 2 -20.5 4t-23.5 2q-24 0 -44.5 -9t-37 -24.5t-28.5 -35.5t-21 -41h-2v98h-63q1 -14 2 -25.5t1.5 -24.5t0.5 -28v-36v-396z" />
    <glyph glyph-name="s" unicode="s" horiz-adv-x="389" 
d="M34 12q34 -14 70 -19t73 -5q29 0 60.5 7.5t57.5 24.5t43 44.5t17 68.5q0 42 -18.5 70t-46.5 48t-60.5 34t-60.5 28t-46.5 30t-18.5 40q0 49 30.5 67t79.5 18q26 0 57 -6.5t56 -17.5l6 55q-34 13 -70 18t-56 5q-32 0 -61.5 -7.5t-53 -24t-37.5 -43t-14 -64.5
q0 -37 18 -61.5t45.5 -42t59 -31.5t59 -29.5t45.5 -35.5t18 -50q0 -22 -9 -39t-25 -28.5t-36.5 -17.5t-42.5 -6q-37 0 -70.5 9t-62.5 23z" />
    <glyph glyph-name="t" unicode="t" horiz-adv-x="333" 
d="M299 510h-116v145l-63 -22v-123h-100v-54h100v-298q0 -35 2.5 -66t13.5 -54t34.5 -36.5t65.5 -13.5q23 0 44.5 4.5t32.5 9.5l-4 52q-14 -5 -27 -8.5t-31 -3.5q-38 0 -53 24.5t-15 59.5v330h116v54z" />
    <glyph glyph-name="u" unicode="u" 
d="M477 510h-63v-282q0 -32 -7.5 -65t-25 -60t-46.5 -44t-72 -17q-65 0 -93 43t-28 115v310h-63v-326q0 -42 9.5 -78t30.5 -62t54 -41t80 -15q40 0 67.5 9.5t46.5 24.5t31 33.5t20 35.5h2v-91h61q-3 31 -3.5 61t-0.5 59v390z" />
    <glyph glyph-name="v" unicode="v" horiz-adv-x="444" 
d="M435 510h-66l-148 -441h-2l-141 441h-69l173 -510h74z" />
    <glyph glyph-name="w" unicode="w" horiz-adv-x="778" 
d="M771 510h-63l-141 -441h-2l-135 441h-76l-142 -441h-2l-134 441h-69l164 -510h76l139 441h2l139 -441h76z" />
    <glyph glyph-name="x" unicode="x" horiz-adv-x="444" 
d="M8 0h73l143 220l134 -220h78l-175 270l158 240h-72l-123 -190l-121 190h-78l162 -240z" />
    <glyph glyph-name="y" unicode="y" horiz-adv-x="444" 
d="M435 510h-66l-147 -425h-2l-142 425h-69l181 -516l-13 -45q-15 -50 -33.5 -80.5t-58.5 -30.5q-17 0 -27.5 2.5t-19.5 5.5l-6 -54q34 -8 68 -8q27 0 47 12t36 31.5t27.5 45t20.5 51.5z" />
    <glyph glyph-name="z" unicode="z" horiz-adv-x="444" 
d="M32 0h380v54h-307l307 402v54h-368v-54h295l-307 -403v-53z" />
    <glyph glyph-name="braceleft" unicode="{" horiz-adv-x="278" 
d="M273 756h-55q-43 0 -72.5 -31.5t-29.5 -89.5v-168q0 -28 -4.5 -52.5t-14 -43t-24.5 -29t-35 -10.5v-48q20 0 35 -10.5t24.5 -28.5t14 -42t4.5 -51v-170q0 -58 29.5 -90t71.5 -32h56v48h-50q-24 0 -34 28.5t-10 65.5v162q0 37 -10 63.5t-23.5 43.5t-27.5 25.5t-23 10.5v2
q9 2 23 11t27.5 25.5t23.5 42.5t10 62v165q0 36 10 64.5t34 28.5h50v48z" />
    <glyph glyph-name="bar" unicode="|" horiz-adv-x="222" 
d="M77 -214h69v1000h-69v-1000z" />
    <glyph glyph-name="braceright" unicode="}" horiz-adv-x="278" 
d="M5 -140h55q43 0 72.5 31.5t29.5 89.5v168q0 28 4.5 52.5t14 43t24.5 29t35 10.5v48q-20 0 -35 10.5t-24.5 28.5t-14 42t-4.5 51v170q0 58 -29.5 90t-71.5 32h-56v-48h50q24 0 34 -28.5t10 -65.5v-162q0 -38 10 -64t23.5 -43t27.5 -25.5t23 -10.5v-2q-9 -2 -23 -11
t-27.5 -25.5t-23.5 -42.5t-10 -62v-165q0 -36 -10 -64.5t-34 -28.5h-50v-48z" />
    <glyph glyph-name="asciitilde" unicode="~" horiz-adv-x="600" 
d="M495 324q-17 -27 -37.5 -50t-50.5 -23q-20 0 -45 11.5l-54 25.5q-28 14 -57 25t-57 11q-25 0 -44.5 -8.5t-34.5 -21.5t-26.5 -29t-19.5 -32l36 -51q17 27 37.5 50t50.5 23q20 0 45 -11l54 -25t57.5 -25.5t56.5 -11.5q25 0 44.5 8.5t34.5 21.5t26.5 29t19.5 32z" />
    <glyph glyph-name="quotesinglbase" horiz-adv-x="278" 
d="M72 -134h57l77 218h-75z" />
    <glyph glyph-name="quotesinglbase" unicode="&#x201a;" horiz-adv-x="278" 
d="M72 -134h57l77 218h-75z" />
    <glyph glyph-name="quotedblbase" 
d="M123 -134h58l76 218h-75zM299 -134h57l77 218h-75z" />
    <glyph glyph-name="quotedblbase" unicode="&#x201e;" 
d="M123 -134h58l76 218h-75zM299 -134h57l77 218h-75z" />
    <glyph glyph-name="ellipsis" unicode="&#x85;" horiz-adv-x="1000" 
d="M127 0h81v84h-81v-84zM460 0h81v84h-81v-84zM793 0h81v84h-81v-84z" />
    <glyph glyph-name="ellipsis" unicode="&#x2026;" horiz-adv-x="1000" 
d="M127 0h81v84h-81v-84zM460 0h81v84h-81v-84zM793 0h81v84h-81v-84z" />
    <glyph glyph-name="dagger" 
d="M246 0h63v456h176v54h-176v188h-63v-188h-175v-54h175v-456z" />
    <glyph glyph-name="dagger" unicode="&#x2020;" 
d="M246 0h63v456h176v54h-176v188h-63v-188h-175v-54h175v-456z" />
    <glyph glyph-name="daggerdbl" 
d="M71 188h175v-188h63v188h176v54h-176v214h176v54h-176v188h-63v-188h-175v-54h175v-214h-175v-54z" />
    <glyph glyph-name="daggerdbl" unicode="&#x2021;" 
d="M71 188h175v-188h63v188h176v54h-176v214h176v54h-176v188h-63v-188h-175v-54h175v-214h-175v-54z" />
    <glyph glyph-name="perthousand" horiz-adv-x="1000" 
d="M42 528q0 -35 5.5 -67t20.5 -56.5t40.5 -39t65.5 -14.5t65.5 14.5t40.5 39t20.5 56.5t5.5 67t-5.5 67t-20.5 56.5t-40.5 39t-65.5 14.5t-65.5 -14.5t-40.5 -39t-20.5 -56.5t-5.5 -67zM105 528q0 19 1 41.5t7.5 42t20.5 32.5t40 13t40 -13t20.5 -32.5t7.5 -42t1 -41.5
t-1 -41.5t-7.5 -42t-20.5 -32.5t-40 -13t-40 13t-20.5 32.5t-7.5 42t-1 41.5zM380 170q0 -32 5 -63.5t19 -57t40 -41t68 -15.5t68 15.5t40 41t19 57t5 63.5t-5 63.5t-19 57t-40 41t-68 15.5t-68 -15.5t-40 -41t-19 -57t-5 -63.5zM443 170q0 19 1 41.5t7.5 42t20.5 32.5
t40 13t40 -13t20.5 -32.5t7.5 -42t1 -41.5t-1 -41.5t-7.5 -42t-20.5 -32.5t-40 -13t-40 13t-20.5 32.5t-7.5 42t-1 41.5zM694 170q0 -32 5 -63.5t19 -57t40 -41t68 -15.5t68 15.5t40 41t19 57t5 63.5t-5 63.5t-19 57t-40 41t-68 15.5t-68 -15.5t-40 -41t-19 -57t-5 -63.5z
M757 170q0 19 1 41.5t7.5 42t20.5 32.5t40 13t40 -13t20.5 -32.5t7.5 -42t1 -41.5t-1 -41.5t-7.5 -42t-20.5 -32.5t-40 -13t-40 13t-20.5 32.5t-7.5 42t-1 41.5zM108 -22h58l413 742h-58z" />
    <glyph glyph-name="perthousand" unicode="&#x2030;" horiz-adv-x="1000" 
d="M42 528q0 -35 5.5 -67t20.5 -56.5t40.5 -39t65.5 -14.5t65.5 14.5t40.5 39t20.5 56.5t5.5 67t-5.5 67t-20.5 56.5t-40.5 39t-65.5 14.5t-65.5 -14.5t-40.5 -39t-20.5 -56.5t-5.5 -67zM105 528q0 19 1 41.5t7.5 42t20.5 32.5t40 13t40 -13t20.5 -32.5t7.5 -42t1 -41.5
t-1 -41.5t-7.5 -42t-20.5 -32.5t-40 -13t-40 13t-20.5 32.5t-7.5 42t-1 41.5zM380 170q0 -32 5 -63.5t19 -57t40 -41t68 -15.5t68 15.5t40 41t19 57t5 63.5t-5 63.5t-19 57t-40 41t-68 15.5t-68 -15.5t-40 -41t-19 -57t-5 -63.5zM443 170q0 19 1 41.5t7.5 42t20.5 32.5
t40 13t40 -13t20.5 -32.5t7.5 -42t1 -41.5t-1 -41.5t-7.5 -42t-20.5 -32.5t-40 -13t-40 13t-20.5 32.5t-7.5 42t-1 41.5zM694 170q0 -32 5 -63.5t19 -57t40 -41t68 -15.5t68 15.5t40 41t19 57t5 63.5t-5 63.5t-19 57t-40 41t-68 15.5t-68 -15.5t-40 -41t-19 -57t-5 -63.5z
M757 170q0 19 1 41.5t7.5 42t20.5 32.5t40 13t40 -13t20.5 -32.5t7.5 -42t1 -41.5t-1 -41.5t-7.5 -42t-20.5 -32.5t-40 -13t-40 13t-20.5 32.5t-7.5 42t-1 41.5zM108 -22h58l413 742h-58z" />
    <glyph glyph-name="guilsinglleft" horiz-adv-x="278" 
d="M238 474h-59l-140 -205l140 -205h59l-133 205z" />
    <glyph glyph-name="guilsinglleft" unicode="&#x2039;" horiz-adv-x="278" 
d="M238 474h-59l-140 -205l140 -205h59l-133 205z" />
    <glyph glyph-name="quoteleft" horiz-adv-x="278" 
d="M206 698h-57l-77 -218h75z" />
    <glyph glyph-name="quoteleft" unicode="&#x2018;" horiz-adv-x="278" 
d="M206 698h-57l-77 -218h75z" />
    <glyph glyph-name="quoteright" horiz-adv-x="278" 
d="M72 480h57l77 218h-75z" />
    <glyph glyph-name="quoteright" unicode="&#x2019;" horiz-adv-x="278" 
d="M72 480h57l77 218h-75z" />
    <glyph glyph-name="quotedblleft" 
d="M257 698h-57l-77 -218h75zM433 698h-57l-77 -218h75z" />
    <glyph glyph-name="quotedblleft" unicode="&#x201c;" 
d="M257 698h-57l-77 -218h75zM433 698h-57l-77 -218h75z" />
    <glyph glyph-name="quotedblright" 
d="M299 480h57l77 218h-75zM123 480h57l77 218h-75z" />
    <glyph glyph-name="quotedblright" unicode="&#x201d;" 
d="M299 480h57l77 218h-75zM123 480h57l77 218h-75z" />
    <glyph glyph-name="bullet" horiz-adv-x="500" 
d="M76 349q0 -36 13.5 -67.5t37.5 -55.5t55.5 -37.5t67.5 -13.5t68 13.5t55.5 37.5t37.5 55.5t14 67.5t-14 68t-37.5 55.5t-55.5 37.5t-68 14t-67.5 -14t-55.5 -37.5t-37.5 -55.5t-13.5 -68z" />
    <glyph glyph-name="bullet" unicode="&#x2022;" horiz-adv-x="500" 
d="M76 349q0 -36 13.5 -67.5t37.5 -55.5t55.5 -37.5t67.5 -13.5t68 13.5t55.5 37.5t37.5 55.5t14 67.5t-14 68t-37.5 55.5t-55.5 37.5t-68 14t-67.5 -14t-55.5 -37.5t-37.5 -55.5t-13.5 -68z" />
    <glyph glyph-name="endash" horiz-adv-x="500" 
d="M0 242h500v54h-500v-54z" />
    <glyph glyph-name="endash" unicode="&#x2013;" horiz-adv-x="500" 
d="M0 242h500v54h-500v-54z" />
    <glyph glyph-name="emdash" horiz-adv-x="1000" 
d="M0 242h1000v54h-1000v-54z" />
    <glyph glyph-name="emdash" unicode="&#x2014;" horiz-adv-x="1000" 
d="M0 242h1000v54h-1000v-54z" />
    <glyph glyph-name="trademark" horiz-adv-x="990" 
d="M195 284h63v366h131v48h-325v-48h131v-366zM478 284h63v360h2l137 -360h43l138 360h2v-360h63v414h-102l-122 -319l-122 319h-102v-414z" />
    <glyph glyph-name="trademark" unicode="&#x2122;" horiz-adv-x="990" 
d="M195 284h63v366h131v48h-325v-48h131v-366zM478 284h63v360h2l137 -360h43l138 360h2v-360h63v414h-102l-122 -319l-122 319h-102v-414z" />
    <glyph glyph-name="guilsinglright" horiz-adv-x="278" 
d="M40 64h59l140 205l-140 205h-59l133 -205z" />
    <glyph glyph-name="guilsinglright" unicode="&#x203a;" horiz-adv-x="278" 
d="M40 64h59l140 205l-140 205h-59l133 -205z" />
    <glyph glyph-name="caron" unicode="&#xa1;" horiz-adv-x="222" 
d="M245 736h-46l-88 -102l-88 102h-46l93 -144h82z" />
    <glyph glyph-name="caron" unicode="&#x2c7;" horiz-adv-x="222" 
d="M245 736h-46l-88 -102l-88 102h-46l93 -144h82z" />
    <glyph glyph-name="breve" unicode="&#xa2;" horiz-adv-x="222" 
d="M-12 719q7 -51 38.5 -83.5t84.5 -32.5t84.5 32.5t38.5 83.5h-30q-9 -32 -36 -44t-57 -12t-57 12t-36 44h-30z" />
    <glyph glyph-name="breve" unicode="&#x2d8;" horiz-adv-x="222" 
d="M-12 719q7 -51 38.5 -83.5t84.5 -32.5t84.5 32.5t38.5 83.5h-30q-9 -32 -36 -44t-57 -12t-57 12t-36 44h-30z" />
    <glyph glyph-name="currency" unicode="&#xa4;" 
d="M27 141l43 -43l57 56q31 -27 70 -40t81 -13q43 0 82.5 13.5t69.5 39.5l54 -56l45 43l-54 55q26 32 38.5 71.5t12.5 81.5q0 41 -12.5 80.5t-38.5 70.5l54 55l-45 45l-54 -56q-32 26 -71 39.5t-81 13.5q-40 0 -80 -13.5t-71 -39.5l-57 56l-43 -45l57 -55
q-29 -32 -41.5 -71.5t-12.5 -79.5q0 -86 54 -153zM278 161q-38 -2 -70.5 12t-56.5 39.5t-38 60.5t-14 76q0 37 13.5 70.5t37.5 59t57 41t71 17.5q39 0 72 -15.5t57 -41.5t37 -60t13 -71q0 -38 -13 -72t-36.5 -59.5t-56.5 -41t-73 -15.5z" />
    <glyph glyph-name="section" unicode="&#xa7;" 
d="M421 688q-23 8 -61 15t-84 7q-30 0 -62 -8t-58.5 -26t-43.5 -46.5t-17 -69.5q0 -39 22 -65t53 -44l7 -4l-9 -8q-15 -13 -29 -27t-25 -30t-18 -34t-7 -38q0 -45 23 -73.5t57 -48.5t74.5 -34t74.5 -29.5t57 -35t23 -50.5q0 -27 -12.5 -47t-32 -32.5t-43.5 -19t-46 -6.5
q-42 0 -83 8t-79 25l-7 -59q81 -28 169 -28q24 0 59 7t67 25.5t54.5 49.5t22.5 79q0 42 -23.5 71.5t-54.5 46.5l28.5 29.5t24 30.5t16.5 34.5t6 41.5q0 43 -22 71t-55.5 48t-72.5 34.5t-72.5 31t-55.5 37.5t-22 54q0 23 13.5 39.5t33.5 26.5t43 14.5t41 4.5q16 0 34 -2.5
t34 -6.5t29.5 -8.5t21.5 -8.5zM313 382q18 -8 33.5 -16.5t27 -20t18.5 -26.5t7 -36q0 -24 -10.5 -43t-27.5 -36l-21 -21l-117 51q-30 13 -47.5 33.5t-17.5 46.5q0 19 7 36.5t16.5 31t20 23.5t17.5 14l7 4z" />
    <glyph glyph-name="dieresis" unicode="&#xa8;" horiz-adv-x="222" 
d="M159 624h75v84h-75v-84zM-12 624h75v84h-75v-84z" />
    <glyph glyph-name="copyright" unicode="&#xa9;" horiz-adv-x="800" 
d="M108 349q0 65 22 121t61.5 97.5t93 65t116.5 23.5q62 0 115.5 -23.5t92.5 -65t61 -97.5t22 -121t-22 -121t-61 -97.5t-92.5 -65t-115.5 -23.5q-63 0 -116.5 23.5t-93 65t-61.5 97.5t-22 121zM530 280q-8 -46 -38.5 -74t-78.5 -28q-34 0 -61.5 14t-46.5 37.5t-29 54.5
t-10 66q0 37 9.5 68.5t28 54t45.5 35.5t62 13q48 0 79 -26.5t40 -70.5h60q-11 75 -61 113t-119 38q-50 0 -89.5 -17t-67 -47t-42 -71.5t-14.5 -90.5q0 -48 15.5 -89t43.5 -71t68 -47.5t89 -17.5q66 0 114.5 42t63.5 114h-61zM39 349q0 -75 28.5 -140.5t77.5 -114.5
t114.5 -77.5t140.5 -28.5t140.5 28.5t114.5 77.5t77.5 114.5t28.5 140.5t-28.5 140.5t-77.5 114.5t-114.5 77.5t-140.5 28.5t-140.5 -28.5t-114.5 -77.5t-77.5 -114.5t-28.5 -140.5z" />
    <glyph glyph-name="guillemotleft" unicode="&#xab;" 
d="M290 474h-59l-140 -205l140 -205h59l-133 205zM465 474h-59l-140 -205l140 -205h59l-133 205z" />
    <glyph glyph-name="logicalnot" horiz-adv-x="600" 
d="M46 319h438v-205h69v274h-507v-69z" />
    <glyph glyph-name="registered" unicode="&#xae;" horiz-adv-x="800" 
d="M220 530q0 -38 14 -70.5t38.5 -57.5t57.5 -39t70 -14t70 14t58 39t39 57.5t14 70.5q0 37 -14 70t-39 57.5t-58 38.5t-70 14t-70 -14t-57.5 -38.5t-38.5 -57.5t-14 -70zM254 530q0 32 11 60t31 48.5t46.5 32.5t58.5 12q31 0 57.5 -12t46 -32.5t30.5 -48.5t11 -60
q0 -33 -11 -61t-30.5 -48.5t-46 -32.5t-57.5 -12q-32 0 -58.5 12t-46.5 32.5t-31 48.5t-11 61zM331 424h35v94h29l59 -94h36l-60 94q25 0 40 16t15 42q0 60 -73 60h-81v-212zM366 609h41q17 0 30 -6.5t13 -24.5q0 -21 -11.5 -27t-31.5 -6h-41v64z" />
    <glyph glyph-name="degree" unicode="&#xb0;" horiz-adv-x="400" 
d="M200 657q46 0 76.5 -26.5t30.5 -74.5q0 -21 -9 -39.5t-24 -32t-34 -21.5t-40 -8t-40 8t-34 21.5t-24 32t-9 39.5q0 48 30.5 74.5t76.5 26.5zM200 705q-32 0 -60.5 -11t-50.5 -30.5t-34.5 -47t-12.5 -60.5t12.5 -60.5t34.5 -47t50.5 -30.5t60.5 -11t60.5 11t50.5 30.5
t34.5 47t12.5 60.5t-12.5 60.5t-34.5 47t-50.5 30.5t-60.5 11z" />
    <glyph glyph-name="plusminus" unicode="&#xb1;" horiz-adv-x="600" 
d="M46 269h219v-169h69v169h219v69h-219v169h-69v-169h-219v-69zM46 0h507v69h-507v-69z" />
    <glyph glyph-name="ogonek" unicode="&#xb2;" horiz-adv-x="222" 
d="M254 -136q-10 -17 -25 -27t-35 -10q-26 0 -39 13.5t-13 36.5q0 13 3.5 26t13 28t26.5 32t43 38h-28l-33.5 -21t-40 -30t-33.5 -39t-14 -47q0 -18 8 -31.5t20.5 -22.5t28 -14t31.5 -5q22 0 39.5 6.5t30 16.5t20 21.5t11.5 20.5z" />
    <glyph glyph-name="ogonek" unicode="&#x2db;" horiz-adv-x="222" 
d="M254 -136q-10 -17 -25 -27t-35 -10q-26 0 -39 13.5t-13 36.5q0 13 3.5 26t13 28t26.5 32t43 38h-28l-33.5 -21t-40 -30t-33.5 -39t-14 -47q0 -18 8 -31.5t20.5 -22.5t28 -14t31.5 -5q22 0 39.5 6.5t30 16.5t20 21.5t11.5 20.5z" />
    <glyph glyph-name="acute" unicode="&#xb4;" horiz-adv-x="222" 
d="M53 592h46l126 144h-79z" />
    <glyph glyph-name="mu" unicode="&#xb5;" 
d="M79 -210h63v227q26 -16 53.5 -22.5t57.5 -6.5q40 0 67.5 9.5t46.5 24.5t31 33.5t20 35.5h2v-91h61q-3 31 -3.5 61t-0.5 59v390h-63v-282q0 -32 -7.5 -65t-25 -60t-46.5 -44t-72 -17q-65 0 -93 43t-28 115v310h-63v-720z" />
    <glyph glyph-name="mu" unicode="&#x3bc;" 
d="M79 -210h63v227q26 -16 53.5 -22.5t57.5 -6.5q40 0 67.5 9.5t46.5 24.5t31 33.5t20 35.5h2v-91h61q-3 31 -3.5 61t-0.5 59v390h-63v-282q0 -32 -7.5 -65t-25 -60t-46.5 -44t-72 -17q-65 0 -93 43t-28 115v310h-63v-720z" />
    <glyph glyph-name="paragraph" unicode="&#xb6;" horiz-adv-x="600" 
d="M256 -108h63v752h134v-752h63v806h-240q-105 0 -166.5 -47.5t-61.5 -144.5q0 -39 15.5 -73t43 -59t66 -39.5t83.5 -14.5v-428z" />
    <glyph glyph-name="periodcentered" unicode="&#xb7;" horiz-adv-x="278" 
d="M92 311q0 -23 15.5 -35.5t32.5 -11.5q17 -1 32 11.5t15 35.5t-15 35.5t-32 12.5t-32.5 -12.5t-15.5 -35.5z" />
    <glyph glyph-name="periodcentered" unicode="&#x22c5;" horiz-adv-x="278" 
d="M92 311q0 -23 15.5 -35.5t32.5 -11.5q17 -1 32 11.5t15 35.5t-15 35.5t-32 12.5t-32.5 -12.5t-15.5 -35.5z" />
    <glyph glyph-name="cedilla" unicode="&#xb8;" horiz-adv-x="222" 
d="M75 -84q19 4 42 4q17 0 27.5 -10t10.5 -27q0 -19 -14.5 -28t-37.5 -9q-14 0 -27.5 3.5t-25.5 8t-21.5 9.5t-14.5 8l-7 -37l13 -4.5t24.5 -7.5t31 -7t32.5 -3q17 0 36.5 2.5t36 10t27 21t10.5 35.5q0 32 -21.5 48.5t-51.5 16.5q-8 0 -17 -1t-16 -2l19 54h-27z" />
    <glyph glyph-name="guillemotright" unicode="&#xbb;" 
d="M266 64h59l140 205l-140 205h-59l133 -205zM91 64h59l140 205l-140 205h-59l133 -205z" />
    <glyph glyph-name="hungarumlaut" unicode="&#xbd;" horiz-adv-x="222" 
d="M138 592h46l126 144h-79zM-32 592h46l126 144h-79z" />
    <glyph glyph-name="hungarumlaut" unicode="&#x2dd;" horiz-adv-x="222" 
d="M138 592h46l126 144h-79zM-32 592h46l126 144h-79z" />
    <glyph glyph-name="Aacute" unicode="&#xc1;" horiz-adv-x="667" 
d="M13 0h67l75 187h352l75 -187h72l-277 698h-78zM484 247h-303l152 385zM280 742h46l126 144h-79z" />
    <glyph glyph-name="Acircumflex" unicode="&#xc2;" horiz-adv-x="667" 
d="M13 0h67l75 187h352l75 -187h72l-277 698h-78zM484 247h-303l152 385zM204 742h46l88 102l88 -102h46l-93 144h-82z" />
    <glyph glyph-name="Adieresis" unicode="&#xc4;" horiz-adv-x="667" 
d="M13 0h67l75 187h352l75 -187h72l-277 698h-78zM484 247h-303l152 385zM386 774h75v84h-75v-84zM215 774h75v84h-75v-84z" />
    <glyph glyph-name="Ccedilla" unicode="&#xc7;" horiz-adv-x="667" 
d="M340 -84q19 4 42 4q17 0 27.5 -10t10.5 -27q0 -19 -14.5 -28t-37.5 -9q-14 0 -27.5 3.5t-25.5 8t-21.5 9.5t-14.5 8l-7 -37l13 -4.5t24.5 -7.5t31 -7t32.5 -3q17 0 36.5 2.5t36 10t27 21t10.5 35.5q0 32 -21.5 48.5t-51.5 16.5q-8 0 -17 -1t-16 -2l15 42q5 -1 9 -1h8
q16 0 38 1.5t44.5 5t43 9t34.5 14.5l-4 60q-15 -9 -35 -15t-41 -9t-42 -4.5t-38 -1.5q-69 0 -122 22.5t-88.5 62t-54 95t-18.5 121.5q0 65 19 120t55 95.5t88.5 63t120.5 22.5q37 0 80 -6.5t76 -23.5l4 64q-14 7 -34.5 12t-43.5 8t-45 4.5t-37 1.5q-81 0 -146 -26.5
t-111 -74.5t-70.5 -114.5t-24.5 -145.5q0 -76 21 -139t60.5 -109.5t97 -75t130.5 -34.5z" />
    <glyph glyph-name="Eacute" unicode="&#xc9;" horiz-adv-x="500" 
d="M86 0h354v60h-285v269h259v60h-259v249h273v60h-342v-698zM213 742h46l126 144h-79z" />
    <glyph glyph-name="Edieresis" unicode="&#xcb;" horiz-adv-x="500" 
d="M86 0h354v60h-285v269h259v60h-259v249h273v60h-342v-698zM319 774h75v84h-75v-84zM148 774h75v84h-75v-84z" />
    <glyph glyph-name="Iacute" unicode="&#xcd;" horiz-adv-x="222" 
d="M77 0h69v698h-69v-698zM53 742h46l126 144h-79z" />
    <glyph glyph-name="Icircumflex" unicode="&#xce;" horiz-adv-x="222" 
d="M77 0h69v698h-69v-698zM-23 742h46l88 102l88 -102h46l-93 144h-82z" />
    <glyph glyph-name="Oacute" unicode="&#xd3;" horiz-adv-x="722" 
d="M54 349q1 -80 20.5 -146.5t58 -114t96 -74t132.5 -26.5t132.5 26.5t96 74t58 114t20.5 146.5q1 71 -17.5 136t-56.5 115t-96 80t-137 30t-137 -30t-96 -80t-56.5 -115t-17.5 -136zM361 650q61 0 106 -26t74.5 -69t43.5 -97t14 -109q0 -56 -14 -109.5t-43.5 -96.5
t-74.5 -69t-106 -26q-62 0 -106.5 26t-74 69t-43.5 96.5t-14 109.5q0 55 14 109t43.5 97t74 69t106.5 26zM303 742h46l126 144h-79z" />
    <glyph glyph-name="Ocircumflex" unicode="&#xd4;" horiz-adv-x="722" 
d="M54 349q1 -80 20.5 -146.5t58 -114t96 -74t132.5 -26.5t132.5 26.5t96 74t58 114t20.5 146.5q1 71 -17.5 136t-56.5 115t-96 80t-137 30t-137 -30t-96 -80t-56.5 -115t-17.5 -136zM361 650q61 0 106 -26t74.5 -69t43.5 -97t14 -109q0 -56 -14 -109.5t-43.5 -96.5
t-74.5 -69t-106 -26q-62 0 -106.5 26t-74 69t-43.5 96.5t-14 109.5q0 55 14 109t43.5 97t74 69t106.5 26zM227 742h46l88 102l88 -102h46l-93 144h-82z" />
    <glyph glyph-name="Odieresis" unicode="&#xd6;" horiz-adv-x="722" 
d="M54 349q1 -80 20.5 -146.5t58 -114t96 -74t132.5 -26.5t132.5 26.5t96 74t58 114t20.5 146.5q1 71 -17.5 136t-56.5 115t-96 80t-137 30t-137 -30t-96 -80t-56.5 -115t-17.5 -136zM361 650q61 0 106 -26t74.5 -69t43.5 -97t14 -109q0 -56 -14 -109.5t-43.5 -96.5
t-74.5 -69t-106 -26q-62 0 -106.5 26t-74 69t-43.5 96.5t-14 109.5q0 55 14 109t43.5 97t74 69t106.5 26zM409 774h75v84h-75v-84zM238 774h75v84h-75v-84z" />
    <glyph glyph-name="Uacute" unicode="&#xda;" horiz-adv-x="667" 
d="M587 698h-69v-454q0 -43 -11.5 -79t-35 -62t-58 -40.5t-79.5 -14.5t-79.5 14.5t-58 40.5t-35 62t-11.5 79v454h-69v-454q0 -77 25 -127t63 -78.5t82.5 -39.5t82.5 -11t82.5 11t82.5 39.5t63 78.5t25 127v454zM276 742h46l126 144h-79z" />
    <glyph glyph-name="Udieresis" unicode="&#xdc;" horiz-adv-x="667" 
d="M587 698h-69v-454q0 -43 -11.5 -79t-35 -62t-58 -40.5t-79.5 -14.5t-79.5 14.5t-58 40.5t-35 62t-11.5 79v454h-69v-454q0 -77 25 -127t63 -78.5t82.5 -39.5t82.5 -11t82.5 11t82.5 39.5t63 78.5t25 127v454zM382 774h75v84h-75v-84zM211 774h75v84h-75v-84z" />
    <glyph glyph-name="germandbls" unicode="&#xdf;" 
d="M79 0h63v520q0 56 11.5 92.5t30 57.5t43.5 29.5t52 8.5q57 0 88.5 -38.5t31.5 -95.5q0 -35 -11 -63t-30 -48t-46 -31t-58 -11h-18v-54h10q43 0 78.5 -7.5t60.5 -25t38.5 -47t13.5 -73.5q0 -36 -9.5 -67t-28.5 -53t-46 -34.5t-63 -12.5q-21 0 -43.5 3.5t-38.5 13.5l-4 -59
q20 -8 45 -10t40 -2q51 0 91 16.5t68 46t43 70.5t15 89q0 80 -43.5 129t-128.5 56v2q63 14 98.5 60t35.5 114q0 87 -51.5 136.5t-137.5 49.5q-51 0 -88.5 -16t-62.5 -45.5t-37 -70t-12 -88.5v-542z" />
    <glyph glyph-name="aacute" unicode="&#xe1;" horiz-adv-x="500" 
d="M372 0h62q-4 26 -4.5 51t-0.5 56v225q0 100 -42 145t-137 45q-17 0 -37 -3t-40.5 -7.5t-39 -11t-33.5 -13.5v-61q35 23 72.5 32.5t77.5 9.5q64 0 90 -32.5t26 -98.5v-26h-12q-50 0 -105 -4t-101.5 -21.5t-77 -53.5t-30.5 -100q0 -17 6 -42t24 -47.5t51 -38.5t87 -16
q24 0 48 6t46 18t39.5 29.5t28.5 40.5h2v-82zM366 226q0 -21 -3 -52t-17 -60.5t-45 -50.5t-86 -21q-44 0 -75 21t-31 71q0 42 22 66.5t56.5 37t77 16t83.5 3.5h18v-31zM202 592h46l126 144h-79z" />
    <glyph glyph-name="acircumflex" unicode="&#xe2;" horiz-adv-x="500" 
d="M372 0h62q-4 26 -4.5 51t-0.5 56v225q0 100 -42 145t-137 45q-17 0 -37 -3t-40.5 -7.5t-39 -11t-33.5 -13.5v-61q35 23 72.5 32.5t77.5 9.5q64 0 90 -32.5t26 -98.5v-26h-12q-50 0 -105 -4t-101.5 -21.5t-77 -53.5t-30.5 -100q0 -17 6 -42t24 -47.5t51 -38.5t87 -16
q24 0 48 6t46 18t39.5 29.5t28.5 40.5h2v-82zM366 226q0 -21 -3 -52t-17 -60.5t-45 -50.5t-86 -21q-44 0 -75 21t-31 71q0 42 22 66.5t56.5 37t77 16t83.5 3.5h18v-31zM126 592h46l88 102l88 -102h46l-93 144h-82z" />
    <glyph glyph-name="adieresis" unicode="&#xe4;" horiz-adv-x="500" 
d="M372 0h62q-4 26 -4.5 51t-0.5 56v225q0 100 -42 145t-137 45q-17 0 -37 -3t-40.5 -7.5t-39 -11t-33.5 -13.5v-61q35 23 72.5 32.5t77.5 9.5q64 0 90 -32.5t26 -98.5v-26h-12q-50 0 -105 -4t-101.5 -21.5t-77 -53.5t-30.5 -100q0 -17 6 -42t24 -47.5t51 -38.5t87 -16
q24 0 48 6t46 18t39.5 29.5t28.5 40.5h2v-82zM366 226q0 -21 -3 -52t-17 -60.5t-45 -50.5t-86 -21q-44 0 -75 21t-31 71q0 42 22 66.5t56.5 37t77 16t83.5 3.5h18v-31zM308 624h75v84h-75v-84zM137 624h75v84h-75v-84z" />
    <glyph glyph-name="ccedilla" unicode="&#xe7;" horiz-adv-x="444" 
d="M225 -84q19 4 42 4q17 0 27.5 -10t10.5 -27q0 -19 -14.5 -28t-37.5 -9q-14 0 -27.5 3.5t-25.5 8t-21.5 9.5t-14.5 8l-7 -37l13 -4.5t24.5 -7.5t31 -7t32.5 -3q17 0 36.5 2.5t36 10t27 21t10.5 35.5q0 32 -21.5 48.5t-51.5 16.5q-8 0 -17 -1t-16 -2l15 41h8q36 0 67.5 3.5
t63.5 14.5l-6 59q-29 -11 -57 -17t-58 -6q-43 0 -77.5 17t-58.5 46t-36.5 67.5t-12.5 82.5q0 46 12.5 85.5t37 67.5t60.5 44t82 16q26 0 54.5 -7.5t54.5 -18.5l5 60q-14 5 -45.5 12.5t-77.5 7.5q-57 0 -103.5 -19.5t-79.5 -55t-51 -84.5t-18 -108q0 -50 13 -95t39 -81
t65.5 -59t92.5 -29z" />
    <glyph glyph-name="eacute" unicode="&#xe9;" horiz-adv-x="500" 
d="M421 80q-11 -7 -28.5 -14t-37 -12t-40 -8.5t-37.5 -3.5q-41 0 -72.5 15.5t-52.5 41.5t-32 61.5t-11 76.5h349v32q0 51 -11.5 97t-36 80.5t-63 55t-92.5 20.5q-48 0 -88 -20t-68 -55t-43.5 -84.5t-15.5 -107.5q0 -57 12.5 -106t40 -85t72 -56t107.5 -20q35 0 75 7t73 21
v64zM110 291q0 31 10.5 63t30 57t47 41t62.5 16t60 -15t40.5 -40t22.5 -57t7 -65h-280zM212 592h46l126 144h-79z" />
    <glyph glyph-name="edieresis" unicode="&#xeb;" horiz-adv-x="500" 
d="M421 80q-11 -7 -28.5 -14t-37 -12t-40 -8.5t-37.5 -3.5q-41 0 -72.5 15.5t-52.5 41.5t-32 61.5t-11 76.5h349v32q0 51 -11.5 97t-36 80.5t-63 55t-92.5 20.5q-48 0 -88 -20t-68 -55t-43.5 -84.5t-15.5 -107.5q0 -57 12.5 -106t40 -85t72 -56t107.5 -20q35 0 75 7t73 21
v64zM110 291q0 31 10.5 63t30 57t47 41t62.5 16t60 -15t40.5 -40t22.5 -57t7 -65h-280zM313 624h75v84h-75v-84zM142 624h75v84h-75v-84z" />
    <glyph glyph-name="iacute" unicode="&#xed;" horiz-adv-x="222" 
d="M79 0h63v510h-63v-510zM53 592h46l126 144h-79z" />
    <glyph glyph-name="icircumflex" unicode="&#xee;" horiz-adv-x="222" 
d="M79 0h63v510h-63v-510zM-23 592h46l88 102l88 -102h46l-93 144h-82z" />
    <glyph glyph-name="oacute" unicode="&#xf3;" 
d="M40 255q0 -52 14 -100.5t43 -85.5t74 -59t107 -22t107 22t74 59t43 85.5t14 100.5t-14 100.5t-43 85.5t-74 59t-107 22t-107 -22t-74 -59t-43 -85.5t-14 -100.5zM109 255q0 44 11 83t32.5 68t53 45.5t72.5 16.5t72.5 -16.5t53 -45.5t32.5 -68t11 -83t-11 -83t-32.5 -68
t-53 -45.5t-72.5 -16.5t-72.5 16.5t-53 45.5t-32.5 68t-11 83zM220 592h46l126 144h-79z" />
    <glyph glyph-name="ocircumflex" unicode="&#xf4;" 
d="M40 255q0 -52 14 -100.5t43 -85.5t74 -59t107 -22t107 22t74 59t43 85.5t14 100.5t-14 100.5t-43 85.5t-74 59t-107 22t-107 -22t-74 -59t-43 -85.5t-14 -100.5zM109 255q0 44 11 83t32.5 68t53 45.5t72.5 16.5t72.5 -16.5t53 -45.5t32.5 -68t11 -83t-11 -83t-32.5 -68
t-53 -45.5t-72.5 -16.5t-72.5 16.5t-53 45.5t-32.5 68t-11 83zM144 592h46l88 102l88 -102h46l-93 144h-82z" />
    <glyph glyph-name="odieresis" unicode="&#xf6;" 
d="M40 255q0 -52 14 -100.5t43 -85.5t74 -59t107 -22t107 22t74 59t43 85.5t14 100.5t-14 100.5t-43 85.5t-74 59t-107 22t-107 -22t-74 -59t-43 -85.5t-14 -100.5zM109 255q0 44 11 83t32.5 68t53 45.5t72.5 16.5t72.5 -16.5t53 -45.5t32.5 -68t11 -83t-11 -83t-32.5 -68
t-53 -45.5t-72.5 -16.5t-72.5 16.5t-53 45.5t-32.5 68t-11 83zM326 624h75v84h-75v-84zM155 624h75v84h-75v-84z" />
    <glyph glyph-name="divide" unicode="&#xf7;" horiz-adv-x="600" 
d="M46 219h507v69h-507v-69zM236 450q0 -26 19 -45t45 -19t45 20t19 44q0 26 -19 45t-45 19t-45 -19t-19 -45zM236 57q0 -26 19 -45t45 -19t45 20t19 44q0 26 -19 45t-45 19t-45 -19t-19 -45z" />
    <glyph glyph-name="uacute" unicode="&#xfa;" 
d="M477 510h-63v-282q0 -32 -7.5 -65t-25 -60t-46.5 -44t-72 -17q-65 0 -93 43t-28 115v310h-63v-326q0 -42 9.5 -78t30.5 -62t54 -41t80 -15q40 0 67.5 9.5t46.5 24.5t31 33.5t20 35.5h2v-91h61q-3 31 -3.5 61t-0.5 59v390zM220 592h46l126 144h-79z" />
    <glyph glyph-name="udieresis" unicode="&#xfc;" 
d="M477 510h-63v-282q0 -32 -7.5 -65t-25 -60t-46.5 -44t-72 -17q-65 0 -93 43t-28 115v310h-63v-326q0 -42 9.5 -78t30.5 -62t54 -41t80 -15q40 0 67.5 9.5t46.5 24.5t31 33.5t20 35.5h2v-91h61q-3 31 -3.5 61t-0.5 59v390zM332 624h75v84h-75v-84zM161 624h75v84h-75v-84z
" />
    <glyph glyph-name="dotaccent" unicode="&#xff;" horiz-adv-x="222" 
d="M74 624h75v84h-75v-84z" />
    <glyph glyph-name="dotaccent" unicode="&#x2d9;" horiz-adv-x="222" 
d="M74 624h75v84h-75v-84z" />
    <glyph glyph-name="ordfeminine" horiz-adv-x="325" 
d="M242 396h50q-2 17 -2.5 32t-0.5 33v135q0 55 -27.5 84.5t-88.5 29.5q-32 0 -58.5 -6.5t-45.5 -13.5v-46q23 13 47.5 18.5t50.5 5.5q25 0 39.5 -6.5t21.5 -16t8.5 -20.5t1.5 -20v-15h-8q-33 0 -69.5 -2.5t-66.5 -13.5t-50 -33t-20 -62q0 -41 26 -66t89 -25q32 0 61 15
t40 41h2v-48zM238 530q0 -11 -1 -28.5t-10 -34t-28 -28t-55 -9.5q-29 0 -49 12.5t-20 41.5q0 20 14 32.5t36 19.5t49 9.5t52 2.5h12v-18z" />
    <glyph glyph-name="ugrave" 
d="M477 510h-63v-282q0 -32 -7.5 -65t-25 -60t-46.5 -44t-72 -17q-65 0 -93 43t-28 115v310h-63v-326q0 -42 9.5 -78t30.5 -62t54 -41t80 -15q40 0 67.5 9.5t46.5 24.5t31 33.5t20 35.5h2v-91h61q-3 31 -3.5 61t-0.5 59v390zM257 736h-79l126 -144h46z" />
    <glyph glyph-name="atilde" horiz-adv-x="500" 
d="M372 0h62q-4 26 -4.5 51t-0.5 56v225q0 100 -42 145t-137 45q-17 0 -37 -3t-40.5 -7.5t-39 -11t-33.5 -13.5v-61q35 23 72.5 32.5t77.5 9.5q64 0 90 -32.5t26 -98.5v-26h-12q-50 0 -105 -4t-101.5 -21.5t-77 -53.5t-30.5 -100q0 -17 6 -42t24 -47.5t51 -38.5t87 -16
q24 0 48 6t46 18t39.5 29.5t28.5 40.5h2v-82zM366 226q0 -21 -3 -52t-17 -60.5t-45 -50.5t-86 -21q-44 0 -75 21t-31 71q0 42 22 66.5t56.5 37t77 16t83.5 3.5h18v-31zM158 615q7 18 15.5 27t28.5 9q10 0 21.5 -3.5t25.5 -8.5t29.5 -9t32.5 -4q9 0 22 3.5t25 13t22 27
t14 44.5h-37q-5 -17 -19 -25.5t-30 -8.5q-6 0 -18 4l-26 9t-30 8.5t-31 3.5q-18 0 -31.5 -8t-23.5 -21t-16.5 -29t-9.5 -32h36z" />
    <glyph glyph-name="igrave" horiz-adv-x="222" 
d="M79 0h63v510h-63v-510zM75 736h-79l126 -144h46z" />
    <glyph glyph-name="Idieresis" horiz-adv-x="222" 
d="M77 0h69v698h-69v-698zM159 774h75v84h-75v-84zM-12 774h75v84h-75v-84z" />
    <glyph glyph-name="dotlessi" unicode="&#x131;" horiz-adv-x="222" 
d="M79 0h63v510h-63v-510z" />
    <glyph glyph-name="ydieresis" horiz-adv-x="444" 
d="M276 624h75v84h-75v-84zM105 624h75v84h-75v-84zM435 510h-66l-147 -425h-2l-142 425h-69l181 -516l-13 -45q-15 -50 -33.5 -80.5t-58.5 -30.5q-17 0 -27.5 2.5t-19.5 5.5l-6 -54q34 -8 68 -8q27 0 47 12t36 31.5t27.5 45t20.5 51.5z" />
    <glyph glyph-name="sterling" 
d="M67 0h418v60h-246v287h166v54h-166v43q0 34 4.5 70t20 65t45 47.5t80.5 18.5q38 0 63 -7.5t39 -15.5l10 62q-13 7 -43 14t-69 7q-66 0 -108.5 -22t-67 -57.5t-34 -81.5t-9.5 -94v-49h-91v-54h91v-287h-103v-60z" />
    <glyph glyph-name="ae" horiz-adv-x="833" 
d="M372 210q0 -35 -8 -65.5t-25.5 -53.5t-46.5 -36t-71 -13q-19 0 -38 5t-34 15.5t-24.5 26t-9.5 35.5q0 42 25.5 65t62.5 33.5t77 12.5t70 2h22v-27zM749 80q-11 -7 -28.5 -14t-37 -12t-40 -8.5t-37.5 -3.5q-44 0 -75.5 13t-51.5 36.5t-29 55t-9 67.5v23h346v32
q0 51 -11.5 97t-36 80.5t-63 55t-92.5 20.5q-51 0 -94.5 -25t-70.5 -67q-25 53 -65.5 72.5t-97.5 19.5q-17 0 -37 -3t-40.5 -7.5t-39 -11t-33.5 -13.5v-61q35 23 72.5 32.5t78.5 9.5q35 0 57.5 -11.5t35 -31.5t17.5 -47.5t5 -59.5v-27h-44q-38 0 -86.5 -3.5t-92 -19.5
t-73.5 -49.5t-30 -94.5q0 -68 46 -102t122 -34q24 0 49.5 4.5t50 16t48.5 31.5t45 51q19 -45 67 -74t127 -29q35 0 75 7t73 21v64zM441 291q0 33 10.5 65t29.5 56.5t46.5 40t60.5 15.5q35 0 60 -15t40.5 -40t22.5 -57t7 -65h-277z" />
    <glyph glyph-name="radical" unicode="&#x221a;" horiz-adv-x="493" 
d="M502 786h-63l-188 -916l-159 332l-100 -48l24 -50l46 22l164 -340h66z" />
    <glyph glyph-name="Aring" horiz-adv-x="667" 
d="M13 0h67l75 187h352l75 -187h72l-277 698h-78zM484 247h-303l152 385zM242 809q0 -41 27 -68t69 -27q41 0 68.5 27t27.5 68q0 40 -27.5 67.5t-68.5 27.5q-42 0 -69 -27.5t-27 -67.5zM278 809q0 25 18 42t42 17q26 0 43 -17t17 -42q0 -26 -17 -42.5t-43 -16.5
q-24 0 -42 16.5t-18 42.5z" />
    <glyph glyph-name="ring" unicode="&#x2da;" horiz-adv-x="222" 
d="M15 668q0 -41 27 -68t69 -27q41 0 68.5 27t27.5 68q0 40 -27.5 67.5t-68.5 27.5q-42 0 -69 -27.5t-27 -67.5zM51 668q0 25 18 42t42 17q26 0 43 -17t17 -42q0 -26 -17 -42.5t-43 -16.5q-24 0 -42 16.5t-18 42.5z" />
    <glyph glyph-name="tilde" unicode="&#x2dc;" horiz-adv-x="222" 
d="M9 615q7 18 15.5 27t28.5 9q10 0 21.5 -3.5t25.5 -8.5t29.5 -9t32.5 -4q9 0 22 3.5t25 13t22 27t14 44.5h-37q-5 -17 -19 -25.5t-30 -8.5q-6 0 -18 4l-26 9t-30 8.5t-31 3.5q-18 0 -31.5 -8t-23.5 -21t-16.5 -29t-9.5 -32h36z" />
    <glyph glyph-name="ecircumflex" horiz-adv-x="500" 
d="M421 80q-11 -7 -28.5 -14t-37 -12t-40 -8.5t-37.5 -3.5q-41 0 -72.5 15.5t-52.5 41.5t-32 61.5t-11 76.5h349v32q0 51 -11.5 97t-36 80.5t-63 55t-92.5 20.5q-48 0 -88 -20t-68 -55t-43.5 -84.5t-15.5 -107.5q0 -57 12.5 -106t40 -85t72 -56t107.5 -20q35 0 75 7t73 21
v64zM110 291q0 31 10.5 63t30 57t47 41t62.5 16t60 -15t40.5 -40t22.5 -57t7 -65h-280zM131 592h46l88 102l88 -102h46l-93 144h-82z" />
    <glyph glyph-name="ucircumflex" 
d="M477 510h-63v-282q0 -32 -7.5 -65t-25 -60t-46.5 -44t-72 -17q-65 0 -93 43t-28 115v310h-63v-326q0 -42 9.5 -78t30.5 -62t54 -41t80 -15q40 0 67.5 9.5t46.5 24.5t31 33.5t20 35.5h2v-91h61q-3 31 -3.5 61t-0.5 59v390zM149 592h46l88 102l88 -102h46l-93 144h-82z" />
    <glyph glyph-name="Ecircumflex" horiz-adv-x="500" 
d="M86 0h354v60h-285v269h259v60h-259v249h273v60h-342v-698zM137 742h46l88 102l88 -102h46l-93 144h-82z" />
    <glyph glyph-name="aring" horiz-adv-x="500" 
d="M372 0h62q-4 26 -4.5 51t-0.5 56v225q0 100 -42 145t-137 45q-17 0 -37 -3t-40.5 -7.5t-39 -11t-33.5 -13.5v-61q35 23 72.5 32.5t77.5 9.5q64 0 90 -32.5t26 -98.5v-26h-12q-50 0 -105 -4t-101.5 -21.5t-77 -53.5t-30.5 -100q0 -17 6 -42t24 -47.5t51 -38.5t87 -16
q24 0 48 6t46 18t39.5 29.5t28.5 40.5h2v-82zM366 226q0 -21 -3 -52t-17 -60.5t-45 -50.5t-86 -21q-44 0 -75 21t-31 71q0 42 22 66.5t56.5 37t77 16t83.5 3.5h18v-31zM164 668q0 -41 27 -68t69 -27q41 0 68.5 27t27.5 68q0 40 -27.5 67.5t-68.5 27.5q-42 0 -69 -27.5
t-27 -67.5zM200 668q0 25 18 42t42 17q26 0 43 -17t17 -42q0 -26 -17 -42.5t-43 -16.5q-24 0 -42 16.5t-18 42.5z" />
    <glyph glyph-name="lessequal" unicode="&#x2264;" horiz-adv-x="600" 
d="M47 263l506 -188v65l-423 155l423 157v65l-506 -189v-65zM47 32v-59h506v59h-506z" />
    <glyph glyph-name="agrave" horiz-adv-x="500" 
d="M372 0h62q-4 26 -4.5 51t-0.5 56v225q0 100 -42 145t-137 45q-17 0 -37 -3t-40.5 -7.5t-39 -11t-33.5 -13.5v-61q35 23 72.5 32.5t77.5 9.5q64 0 90 -32.5t26 -98.5v-26h-12q-50 0 -105 -4t-101.5 -21.5t-77 -53.5t-30.5 -100q0 -17 6 -42t24 -47.5t51 -38.5t87 -16
q24 0 48 6t46 18t39.5 29.5t28.5 40.5h2v-82zM366 226q0 -21 -3 -52t-17 -60.5t-45 -50.5t-86 -21q-44 0 -75 21t-31 71q0 42 22 66.5t56.5 37t77 16t83.5 3.5h18v-31zM229 736h-79l126 -144h46z" />
    <glyph glyph-name="Ugrave" horiz-adv-x="667" 
d="M587 698h-69v-454q0 -43 -11.5 -79t-35 -62t-58 -40.5t-79.5 -14.5t-79.5 14.5t-58 40.5t-35 62t-11.5 79v454h-69v-454q0 -77 25 -127t63 -78.5t82.5 -39.5t82.5 -11t82.5 11t82.5 39.5t63 78.5t25 127v454zM298 886h-79l126 -144h46z" />
    <glyph glyph-name="questiondown" horiz-adv-x="500" 
d="M411 -112q-32 -11 -65.5 -19.5t-74.5 -8.5q-54 0 -90 31.5t-36 87.5q0 40 12 68.5t30.5 52t40 45t40 47t30.5 58t12 78.5v13h-63v-15q0 -40 -12.5 -70t-31.5 -54.5t-41.5 -47t-41.5 -47.5t-31.5 -56t-12.5 -72q0 -47 15.5 -80.5t42 -55.5t61 -32.5t73.5 -10.5q37 0 74 7
t72 18zM318 510h-81v-84h81v84z" />
    <glyph glyph-name="cent" 
d="M239 83q-34 29 -52.5 74t-18.5 98q0 46 12.5 85.5t37 67.5t60.5 44t82 16q4 0 7 -1zM407 588l-22 -68q-8 2 -17 2h-17q-57 0 -103.5 -19.5t-79.5 -55t-51 -84.5t-18 -108q0 -75 29.5 -139t89.5 -97l-37 -110h47l31 93q20 -8 40.5 -11t43.5 -3q36 0 67.5 3.5t63.5 14.5
l-6 59q-29 -11 -57 -17t-58 -6q-39 0 -75 17l134 402q15 -4 29 -8.5t28 -10.5l5 60q-7 2 -18 5.5t-27 6.5l25 74h-47z" />
    <glyph glyph-name="fi" unicode="&#xfb01;" 
d="M403 0h63v510h-63v-510zM466 730h-63v-84h63v84zM122 0h63v456h115v54h-115v44v50t6.5 50t22.5 38.5t48 15.5q14 0 27 -3t23 -8l4 55q-9 5 -26.5 7.5t-32.5 2.5q-49 0 -76.5 -18.5t-40.5 -49t-15.5 -69t-2.5 -78.5v-37h-103v-54h103v-456z" />
    <glyph glyph-name="oslash" 
d="M139 127q-30 54 -30 128q0 44 11 83t32.5 68t53 45.5t72.5 16.5q35 0 64 -13t51 -36zM419 380q28 -52 28 -125q0 -44 -11 -83t-32.5 -68t-53 -45.5t-72.5 -16.5q-68 0 -112 47zM502 545l-68 -79q-27 26 -66 41t-90 15q-62 0 -107 -22t-74 -59t-43 -85.5t-14 -100.5
q0 -51 13 -97t41 -83l-75 -86l35 -29l70 81q29 -25 67 -39t87 -14q62 0 107 22t74 59t43 85.5t14 100.5q0 50 -12.5 96t-39.5 81l73 84z" />
    <glyph glyph-name="Ograve" horiz-adv-x="722" 
d="M54 349q1 -80 20.5 -146.5t58 -114t96 -74t132.5 -26.5t132.5 26.5t96 74t58 114t20.5 146.5q1 71 -17.5 136t-56.5 115t-96 80t-137 30t-137 -30t-96 -80t-56.5 -115t-17.5 -136zM361 650q61 0 106 -26t74.5 -69t43.5 -97t14 -109q0 -56 -14 -109.5t-43.5 -96.5
t-74.5 -69t-106 -26q-62 0 -106.5 26t-74 69t-43.5 96.5t-14 109.5q0 55 14 109t43.5 97t74 69t106.5 26zM325 886h-79l126 -144h46z" />
    <glyph glyph-name="Otilde" horiz-adv-x="722" 
d="M54 349q1 -80 20.5 -146.5t58 -114t96 -74t132.5 -26.5t132.5 26.5t96 74t58 114t20.5 146.5q1 71 -17.5 136t-56.5 115t-96 80t-137 30t-137 -30t-96 -80t-56.5 -115t-17.5 -136zM361 650q61 0 106 -26t74.5 -69t43.5 -97t14 -109q0 -56 -14 -109.5t-43.5 -96.5
t-74.5 -69t-106 -26q-62 0 -106.5 26t-74 69t-43.5 96.5t-14 109.5q0 55 14 109t43.5 97t74 69t106.5 26zM259 765q7 18 15.5 27t28.5 9q10 0 21.5 -3.5t25.5 -8.5t29.5 -9t32.5 -4q9 0 22 3.5t25 13t22 27t14 44.5h-37q-5 -17 -19 -25.5t-30 -8.5q-6 0 -18 4l-26 9t-30 8.5
t-31 3.5q-18 0 -31.5 -8t-23.5 -21t-16.5 -29t-9.5 -32h36z" />
    <glyph glyph-name="fl" unicode="&#xfb02;" 
d="M403 0h63v750h-63v-750zM122 0h63v456h115v54h-115v44v50t6.5 50t22.5 38.5t48 15.5q14 0 27 -3t23 -8l4 55q-9 5 -26.5 7.5t-32.5 2.5q-49 0 -76.5 -18.5t-40.5 -49t-15.5 -69t-2.5 -78.5v-37h-103v-54h103v-456z" />
    <glyph glyph-name="ntilde" 
d="M79 0h63v282q0 32 7.5 65t25 60t46.5 44t72 17q65 0 93 -43t28 -115v-310h63v326q0 42 -9.5 78t-30.5 62t-54 41t-80 15q-40 0 -67.5 -9.5t-46.5 -24.5t-31 -33.5t-20 -35.5h-2v91h-61q3 -31 3.5 -61t0.5 -59v-390zM191 615q7 18 15.5 27t28.5 9q10 0 21.5 -3.5
t25.5 -8.5t29.5 -9t32.5 -4q9 0 22 3.5t25 13t22 27t14 44.5h-37q-5 -17 -19 -25.5t-30 -8.5q-6 0 -18 4l-26 9t-30 8.5t-31 3.5q-18 0 -31.5 -8t-23.5 -21t-16.5 -29t-9.5 -32h36z" />
    <glyph glyph-name="AE" horiz-adv-x="889" 
d="M477 247h-248l246 397h2v-397zM0 0h76l116 187h286v-187h351v60h-283v269h257v60h-257v249h271v60h-381z" />
    <glyph glyph-name="circumflex" unicode="&#x2c6;" horiz-adv-x="222" 
d="M-23 592h46l88 102l88 -102h46l-93 144h-82z" />
    <glyph glyph-name="Ucircumflex" horiz-adv-x="667" 
d="M587 698h-69v-454q0 -43 -11.5 -79t-35 -62t-58 -40.5t-79.5 -14.5t-79.5 14.5t-58 40.5t-35 62t-11.5 79v454h-69v-454q0 -77 25 -127t63 -78.5t82.5 -39.5t82.5 -11t82.5 11t82.5 39.5t63 78.5t25 127v454zM200 742h46l88 102l88 -102h46l-93 144h-82z" />
    <glyph glyph-name="notequal" unicode="&#x2260;" horiz-adv-x="600" 
d="M230 179h-183v-59h151l-62 -116l52 -28l76 144h289v59h-257l69 131h188v60h-157l64 119l-52 28l-77 -147h-284v-60h251z" />
    <glyph glyph-name="summation" unicode="&#x2211;" horiz-adv-x="604" 
d="M566 786h-527v-56l315 -441l-328 -447v-56h552v61h-472l327 442l-309 435h442v62z" />
    <glyph glyph-name="ordmasculine" horiz-adv-x="361" 
d="M23 548q0 -32 9 -61t28.5 -51t49 -35t71.5 -13q41 0 71 13.5t49 36t28 51t9 59.5q0 33 -9 62.5t-28 51.5t-49 35t-71 13q-42 0 -71.5 -13t-49 -35.5t-28.5 -52t-9 -61.5zM74 548q0 24 7.5 45.5t21 38t33.5 26.5t45 10t45 -10t33.5 -26.5t20.5 -38t7 -45.5
q0 -51 -27.5 -84.5t-78.5 -33.5t-79 33.5t-28 84.5z" />
    <glyph glyph-name="partialdiff" unicode="&#x2202;" horiz-adv-x="496" 
d="M101 620q19 15 45 30t67 15q12 0 30 -3t37.5 -12.5t39 -28.5t35.5 -51q15 -30 23 -64t11 -65.5t2.5 -58t-0.5 -41.5q-42 50 -87 67t-79 17t-68.5 -12t-62.5 -38t-45.5 -66.5t-17.5 -96.5q0 -49 15 -90t41.5 -71t63 -46.5t79.5 -16.5q37 0 65 11t47.5 25.5t31 29
t16.5 21.5q30 45 47.5 113t17.5 174q0 84 -14.5 143.5t-37.5 99.5t-51.5 63t-55.5 35t-50 15t-36 3q-30 0 -53.5 -6.5t-41.5 -16t-30.5 -19.5l-19.5 -16zM386 278q-3 -61 -17 -105.5t-35 -74t-48 -43.5t-55 -14q-23 0 -47.5 10t-44.5 31t-33 52.5t-13 75.5q0 43 13 73.5
t33 49.5t44.5 27.5t47.5 8.5q13 0 31 -3.5t38.5 -13.5t42.5 -28t43 -46z" />
    <glyph glyph-name="Egrave" horiz-adv-x="500" 
d="M86 0h354v60h-285v269h259v60h-259v249h273v60h-342v-698zM235 886h-79l126 -144h46z" />
    <glyph glyph-name="florin" unicode="&#x192;" 
d="M458 419h-115l18 92q9 42 19 69t22.5 43t28 22t33.5 6q14 0 28.5 -4t27.5 -9l13 50q-15 8 -31 12.5t-33 4.5q-46 0 -76.5 -17t-50 -44.5t-30.5 -62.5t-18 -71l-17 -91h-122v-54h111l-67 -352q-7 -38 -15 -70t-21 -55.5t-32 -36.5t-47 -13q-11 0 -21.5 3.5t-21.5 5.5
l-16 -53q10 -3 26.5 -6.5t31.5 -3.5q42 0 71 13t49 40t33.5 68t24.5 97l71 363h126v54z" />
    <glyph glyph-name="ograve" 
d="M40 255q0 -52 14 -100.5t43 -85.5t74 -59t107 -22t107 22t74 59t43 85.5t14 100.5t-14 100.5t-43 85.5t-74 59t-107 22t-107 -22t-74 -59t-43 -85.5t-14 -100.5zM109 255q0 44 11 83t32.5 68t53 45.5t72.5 16.5t72.5 -16.5t53 -45.5t32.5 -68t11 -83t-11 -83t-32.5 -68
t-53 -45.5t-72.5 -16.5t-72.5 16.5t-53 45.5t-32.5 68t-11 83zM242 736h-79l126 -144h46z" />
    <glyph glyph-name="egrave" horiz-adv-x="500" 
d="M421 80q-11 -7 -28.5 -14t-37 -12t-40 -8.5t-37.5 -3.5q-41 0 -72.5 15.5t-52.5 41.5t-32 61.5t-11 76.5h349v32q0 51 -11.5 97t-36 80.5t-63 55t-92.5 20.5q-48 0 -88 -20t-68 -55t-43.5 -84.5t-15.5 -107.5q0 -57 12.5 -106t40 -85t72 -56t107.5 -20q35 0 75 7t73 21
v64zM110 291q0 31 10.5 63t30 57t47 41t62.5 16t60 -15t40.5 -40t22.5 -57t7 -65h-280zM229 736h-79l126 -144h46z" />
    <glyph glyph-name="Igrave" horiz-adv-x="222" 
d="M77 0h69v698h-69v-698zM75 886h-79l126 -144h46z" />
    <glyph glyph-name="Ntilde" horiz-adv-x="667" 
d="M77 0h69v602h2l349 -602h93v698h-69v-614h-2l-355 614h-87v-698zM249 765q7 18 15.5 27t28.5 9q10 0 21.5 -3.5t25.5 -8.5t29.5 -9t32.5 -4q9 0 22 3.5t25 13t22 27t14 44.5h-37q-5 -17 -19 -25.5t-30 -8.5q-6 0 -18 4l-26 9t-30 8.5t-31 3.5q-18 0 -31.5 -8t-23.5 -21
t-16.5 -29t-9.5 -32h36z" />
    <glyph glyph-name="greaterequal" unicode="&#x2265;" horiz-adv-x="600" 
d="M553 263v65l-506 189v-65l424 -157l-424 -155v-65zM553 32h-506v-59h506v59z" />
    <glyph glyph-name="Oslash" horiz-adv-x="722" 
d="M166 169q-22 39 -32.5 85.5t-10.5 94.5q0 55 14 109t43.5 97t74 69t106.5 26q53 0 93 -19.5t69 -53.5zM554 534q23 -41 34 -88.5t11 -96.5q0 -56 -14 -109.5t-43.5 -96.5t-74.5 -69t-106 -26q-54 0 -95 20.5t-70 55.5zM654 727l-86 -98q-38 38 -89.5 59.5t-117.5 21.5
q-79 0 -137 -30t-96 -80t-56.5 -115t-17.5 -136q1 -72 16.5 -132t46.5 -105l-88 -101l39 -33l81 93q37 -40 90 -61.5t122 -21.5q75 0 132.5 26.5t96 74t58 114t20.5 146.5q1 68 -15.5 130t-50.5 110l91 105z" />
    <glyph glyph-name="idieresis" horiz-adv-x="222" 
d="M79 0h63v510h-63v-510zM159 624h75v84h-75v-84zM-12 624h75v84h-75v-84z" />
    <glyph glyph-name="yen" 
d="M244 0h69v175h144v48h-144v75l3 6h141v48h-114l194 346h-71l-188 -337l-183 337h-76l195 -346h-114v-48h141l3 -6v-75h-144v-48h144v-175z" />
    <glyph glyph-name="Atilde" horiz-adv-x="667" 
d="M13 0h67l75 187h352l75 -187h72l-277 698h-78zM484 247h-303l152 385zM236 765q7 18 15.5 27t28.5 9q10 0 21.5 -3.5t25.5 -8.5t29.5 -9t32.5 -4q9 0 22 3.5t25 13t22 27t14 44.5h-37q-5 -17 -19 -25.5t-30 -8.5q-6 0 -18 4l-26 9t-30 8.5t-31 3.5q-18 0 -31.5 -8
t-23.5 -21t-16.5 -29t-9.5 -32h36z" />
    <glyph glyph-name="macron" unicode="&#x2c9;" horiz-adv-x="222" 
d="M-11 634h244v54h-244v-54z" />
    <glyph glyph-name="lozenge" unicode="&#x25ca;" horiz-adv-x="593" 
d="M327 747h-63l-169 -391l169 -391h63l170 391zM433 356l-137 -325l-136 325l136 325z" />
    <glyph glyph-name="exclamdown" horiz-adv-x="389" 
d="M154 -188h81l-12 529h-57zM235 510h-81v-84h81v84z" />
    <glyph glyph-name="Agrave" horiz-adv-x="667" 
d="M13 0h67l75 187h352l75 -187h72l-277 698h-78zM484 247h-303l152 385zM302 886h-79l126 -144h46z" />
    <glyph glyph-name="otilde" 
d="M40 255q0 -52 14 -100.5t43 -85.5t74 -59t107 -22t107 22t74 59t43 85.5t14 100.5t-14 100.5t-43 85.5t-74 59t-107 22t-107 -22t-74 -59t-43 -85.5t-14 -100.5zM109 255q0 44 11 83t32.5 68t53 45.5t72.5 16.5t72.5 -16.5t53 -45.5t32.5 -68t11 -83t-11 -83t-32.5 -68
t-53 -45.5t-72.5 -16.5t-72.5 16.5t-53 45.5t-32.5 68t-11 83zM176 615q7 18 15.5 27t28.5 9q10 0 21.5 -3.5t25.5 -8.5t29.5 -9t32.5 -4q9 0 22 3.5t25 13t22 27t14 44.5h-37q-5 -17 -19 -25.5t-30 -8.5q-6 0 -18 4l-26 9t-30 8.5t-31 3.5q-18 0 -31.5 -8t-23.5 -21
t-16.5 -29t-9.5 -32h36z" />
    <glyph glyph-name="space" unicode=" " horiz-adv-x="278" 
 />
    <glyph glyph-name="space" unicode="&#xa0;" horiz-adv-x="278" 
 />
    <glyph glyph-name="OE" unicode="&#x152;" horiz-adv-x="500" 
d="M60 18q28 -12 67.5 -21t90.5 -9q40 0 81 11t74 34.5t53.5 61t20.5 90.5q0 51 -23.5 86.5t-59.5 62.5t-77 47.5t-77 42t-59.5 46.5t-23.5 60q0 34 13.5 57t35 37t48.5 20t54 6q35 0 69.5 -6.5t57.5 -19.5l11 63q-36 14 -73.5 18.5t-63.5 4.5q-46 0 -86.5 -12.5
t-70.5 -36.5t-47 -57.5t-17 -75.5q0 -46 23.5 -79t59.5 -59t77 -47.5t77 -44t59.5 -48t23.5 -59.5q0 -37 -12.5 -64t-34 -44.5t-50 -26t-60.5 -8.5q-49 0 -86 10.5t-68 30.5zM227 742h46l126 144h-79z" />
    <glyph glyph-name="oe" unicode="&#x153;" horiz-adv-x="389" 
d="M34 12q34 -14 70 -19t73 -5q29 0 60.5 7.5t57.5 24.5t43 44.5t17 68.5q0 42 -18.5 70t-46.5 48t-60.5 34t-60.5 28t-46.5 30t-18.5 40q0 49 30.5 67t79.5 18q26 0 57 -6.5t56 -17.5l6 55q-34 13 -70 18t-56 5q-32 0 -61.5 -7.5t-53 -24t-37.5 -43t-14 -64.5
q0 -37 18 -61.5t45.5 -42t59 -31.5t59 -29.5t45.5 -35.5t18 -50q0 -22 -9 -39t-25 -28.5t-36.5 -17.5t-42.5 -6q-37 0 -70.5 9t-62.5 23zM152 592h46l126 144h-79z" />
    <glyph glyph-name="Ydieresis" unicode="&#x178;" horiz-adv-x="444" 
d="M32 0h380v54h-307l307 402v54h-368v-54h295l-307 -403v-53zM170 592h46l126 144h-79z" />
    <glyph glyph-name="Scaron" horiz-adv-x="500" 
d="M60 18q28 -12 67.5 -21t90.5 -9q40 0 81 11t74 34.5t53.5 61t20.5 90.5q0 51 -23.5 86.5t-59.5 62.5t-77 47.5t-77 42t-59.5 46.5t-23.5 60q0 34 13.5 57t35 37t48.5 20t54 6q35 0 69.5 -6.5t57.5 -19.5l11 63q-36 14 -73.5 18.5t-63.5 4.5q-46 0 -86.5 -12.5
t-70.5 -36.5t-47 -57.5t-17 -75.5q0 -46 23.5 -79t59.5 -59t77 -47.5t77 -44t59.5 -48t23.5 -59.5q0 -37 -12.5 -64t-34 -44.5t-50 -26t-60.5 -8.5q-49 0 -86 10.5t-68 30.5zM402 886h-46l-88 -102l-88 102h-46l93 -144h82z" />
    <glyph glyph-name="Scaron" unicode="&#x160;" horiz-adv-x="500" 
d="M60 18q28 -12 67.5 -21t90.5 -9q40 0 81 11t74 34.5t53.5 61t20.5 90.5q0 51 -23.5 86.5t-59.5 62.5t-77 47.5t-77 42t-59.5 46.5t-23.5 60q0 34 13.5 57t35 37t48.5 20t54 6q35 0 69.5 -6.5t57.5 -19.5l11 63q-36 14 -73.5 18.5t-63.5 4.5q-46 0 -86.5 -12.5
t-70.5 -36.5t-47 -57.5t-17 -75.5q0 -46 23.5 -79t59.5 -59t77 -47.5t77 -44t59.5 -48t23.5 -59.5q0 -37 -12.5 -64t-34 -44.5t-50 -26t-60.5 -8.5q-49 0 -86 10.5t-68 30.5zM402 886h-46l-88 -102l-88 102h-46l93 -144h82z" />
    <glyph glyph-name="Sacute" horiz-adv-x="500" 
d="M60 18q28 -12 67.5 -21t90.5 -9q40 0 81 11t74 34.5t53.5 61t20.5 90.5q0 51 -23.5 86.5t-59.5 62.5t-77 47.5t-77 42t-59.5 46.5t-23.5 60q0 34 13.5 57t35 37t48.5 20t54 6q35 0 69.5 -6.5t57.5 -19.5l11 63q-36 14 -73.5 18.5t-63.5 4.5q-46 0 -86.5 -12.5
t-70.5 -36.5t-47 -57.5t-17 -75.5q0 -46 23.5 -79t59.5 -59t77 -47.5t77 -44t59.5 -48t23.5 -59.5q0 -37 -12.5 -64t-34 -44.5t-50 -26t-60.5 -8.5q-49 0 -86 10.5t-68 30.5zM227 742h46l126 144h-79z" />
    <glyph glyph-name="Sacute" unicode="&#x15a;" horiz-adv-x="500" 
d="M60 18q28 -12 67.5 -21t90.5 -9q40 0 81 11t74 34.5t53.5 61t20.5 90.5q0 51 -23.5 86.5t-59.5 62.5t-77 47.5t-77 42t-59.5 46.5t-23.5 60q0 34 13.5 57t35 37t48.5 20t54 6q35 0 69.5 -6.5t57.5 -19.5l11 63q-36 14 -73.5 18.5t-63.5 4.5q-46 0 -86.5 -12.5
t-70.5 -36.5t-47 -57.5t-17 -75.5q0 -46 23.5 -79t59.5 -59t77 -47.5t77 -44t59.5 -48t23.5 -59.5q0 -37 -12.5 -64t-34 -44.5t-50 -26t-60.5 -8.5q-49 0 -86 10.5t-68 30.5zM227 742h46l126 144h-79z" />
    <glyph glyph-name="Tcaron" horiz-adv-x="500" 
d="M216 0h69v638h206v60h-481v-60h206v-638zM384 886h-46l-88 -102l-88 102h-46l93 -144h82z" />
    <glyph glyph-name="Tcaron" unicode="&#x164;" horiz-adv-x="500" 
d="M216 0h69v638h206v60h-481v-60h206v-638zM384 886h-46l-88 -102l-88 102h-46l93 -144h82z" />
    <glyph glyph-name="Zcaron" horiz-adv-x="500" 
d="M21 0h449v60h-374l362 578v60h-428v-60h355l-364 -578v-60zM395 886h-46l-88 -102l-88 102h-46l93 -144h82z" />
    <glyph glyph-name="Zcaron" unicode="&#x17d;" horiz-adv-x="500" 
d="M21 0h449v60h-374l362 578v60h-428v-60h355l-364 -578v-60zM395 886h-46l-88 -102l-88 102h-46l93 -144h82z" />
    <glyph glyph-name="Zacute" horiz-adv-x="500" 
d="M21 0h449v60h-374l362 578v60h-428v-60h355l-364 -578v-60zM208 742h46l126 144h-79z" />
    <glyph glyph-name="Zacute" unicode="&#x179;" horiz-adv-x="500" 
d="M21 0h449v60h-374l362 578v60h-428v-60h355l-364 -578v-60zM208 742h46l126 144h-79z" />
    <glyph glyph-name="scaron" horiz-adv-x="389" 
d="M34 12q34 -14 70 -19t73 -5q29 0 60.5 7.5t57.5 24.5t43 44.5t17 68.5q0 42 -18.5 70t-46.5 48t-60.5 34t-60.5 28t-46.5 30t-18.5 40q0 49 30.5 67t79.5 18q26 0 57 -6.5t56 -17.5l6 55q-34 13 -70 18t-56 5q-32 0 -61.5 -7.5t-53 -24t-37.5 -43t-14 -64.5
q0 -37 18 -61.5t45.5 -42t59 -31.5t59 -29.5t45.5 -35.5t18 -50q0 -22 -9 -39t-25 -28.5t-36.5 -17.5t-42.5 -6q-37 0 -70.5 9t-62.5 23zM344 736h-46l-88 -102l-88 102h-46l93 -144h82z" />
    <glyph glyph-name="scaron" unicode="&#x161;" horiz-adv-x="389" 
d="M34 12q34 -14 70 -19t73 -5q29 0 60.5 7.5t57.5 24.5t43 44.5t17 68.5q0 42 -18.5 70t-46.5 48t-60.5 34t-60.5 28t-46.5 30t-18.5 40q0 49 30.5 67t79.5 18q26 0 57 -6.5t56 -17.5l6 55q-34 13 -70 18t-56 5q-32 0 -61.5 -7.5t-53 -24t-37.5 -43t-14 -64.5
q0 -37 18 -61.5t45.5 -42t59 -31.5t59 -29.5t45.5 -35.5t18 -50q0 -22 -9 -39t-25 -28.5t-36.5 -17.5t-42.5 -6q-37 0 -70.5 9t-62.5 23zM344 736h-46l-88 -102l-88 102h-46l93 -144h82z" />
    <glyph glyph-name="sacute" horiz-adv-x="389" 
d="M34 12q34 -14 70 -19t73 -5q29 0 60.5 7.5t57.5 24.5t43 44.5t17 68.5q0 42 -18.5 70t-46.5 48t-60.5 34t-60.5 28t-46.5 30t-18.5 40q0 49 30.5 67t79.5 18q26 0 57 -6.5t56 -17.5l6 55q-34 13 -70 18t-56 5q-32 0 -61.5 -7.5t-53 -24t-37.5 -43t-14 -64.5
q0 -37 18 -61.5t45.5 -42t59 -31.5t59 -29.5t45.5 -35.5t18 -50q0 -22 -9 -39t-25 -28.5t-36.5 -17.5t-42.5 -6q-37 0 -70.5 9t-62.5 23zM152 592h46l126 144h-79z" />
    <glyph glyph-name="sacute" unicode="&#x15b;" horiz-adv-x="389" 
d="M34 12q34 -14 70 -19t73 -5q29 0 60.5 7.5t57.5 24.5t43 44.5t17 68.5q0 42 -18.5 70t-46.5 48t-60.5 34t-60.5 28t-46.5 30t-18.5 40q0 49 30.5 67t79.5 18q26 0 57 -6.5t56 -17.5l6 55q-34 13 -70 18t-56 5q-32 0 -61.5 -7.5t-53 -24t-37.5 -43t-14 -64.5
q0 -37 18 -61.5t45.5 -42t59 -31.5t59 -29.5t45.5 -35.5t18 -50q0 -22 -9 -39t-25 -28.5t-36.5 -17.5t-42.5 -6q-37 0 -70.5 9t-62.5 23zM152 592h46l126 144h-79z" />
    <glyph glyph-name="tcaron" horiz-adv-x="333" 
d="M299 510h-116v145l-63 -22v-123h-100v-54h100v-298q0 -35 2.5 -66t13.5 -54t34.5 -36.5t65.5 -13.5q23 0 44.5 4.5t32.5 9.5l-4 52q-14 -5 -27 -8.5t-31 -3.5q-38 0 -53 24.5t-15 59.5v330h116v54zM228 636h39q-2 -25 -14 -36t-27 -11v-34q34 0 55.5 23t21.5 78v64h-75
v-84z" />
    <glyph glyph-name="tcaron" unicode="&#x165;" horiz-adv-x="333" 
d="M299 510h-116v145l-63 -22v-123h-100v-54h100v-298q0 -35 2.5 -66t13.5 -54t34.5 -36.5t65.5 -13.5q23 0 44.5 4.5t32.5 9.5l-4 52q-14 -5 -27 -8.5t-31 -3.5q-38 0 -53 24.5t-15 59.5v330h116v54zM228 636h39q-2 -25 -14 -36t-27 -11v-34q34 0 55.5 23t21.5 78v64h-75
v-84z" />
    <glyph glyph-name="zcaron" horiz-adv-x="444" 
d="M32 0h380v54h-307l307 402v54h-368v-54h295l-307 -403v-53zM364 736h-46l-88 -102l-88 102h-46l93 -144h82z" />
    <glyph glyph-name="zcaron" unicode="&#x17e;" horiz-adv-x="444" 
d="M32 0h380v54h-307l307 402v54h-368v-54h295l-307 -403v-53zM364 736h-46l-88 -102l-88 102h-46l93 -144h82z" />
    <glyph glyph-name="zacute" horiz-adv-x="444" 
d="M32 0h380v54h-307l307 402v54h-368v-54h295l-307 -403v-53zM170 592h46l126 144h-79z" />
    <glyph glyph-name="zacute" unicode="&#x17a;" horiz-adv-x="444" 
d="M32 0h380v54h-307l307 402v54h-368v-54h295l-307 -403v-53zM170 592h46l126 144h-79z" />
    <glyph glyph-name="Lslash" unicode="&#xa3;" horiz-adv-x="444" 
d="M80 311l-72 -51v-69l72 51v-242h349v60h-280v231l175 124v68l-175 -123v338h-69v-387z" />
    <glyph glyph-name="Lslash" unicode="&#x141;" horiz-adv-x="444" 
d="M80 311l-72 -51v-69l72 51v-242h349v60h-280v231l175 124v68l-175 -123v338h-69v-387z" />
    <glyph glyph-name="Aogonek" unicode="&#xa5;" horiz-adv-x="667" 
d="M484 247h-303l152 385zM13 0h67l75 187h352l75 -187h3q-14 -8 -34 -21t-39 -30t-32.5 -38.5t-13.5 -46.5q0 -18 8 -31.5t20.5 -22.5t28 -14t31.5 -5q22 0 39.5 6.5t30 16.5t20 21.5t11.5 20.5l-14 8q-10 -17 -25 -27t-35 -10q-26 0 -39 13.5t-13 36.5q0 13 3.5 26t13 28
t26 32t42.5 37h40l-277 698h-78z" />
    <glyph glyph-name="Aogonek" unicode="&#x104;" horiz-adv-x="667" 
d="M484 247h-303l152 385zM13 0h67l75 187h352l75 -187h3q-14 -8 -34 -21t-39 -30t-32.5 -38.5t-13.5 -46.5q0 -18 8 -31.5t20.5 -22.5t28 -14t31.5 -5q22 0 39.5 6.5t30 16.5t20 21.5t11.5 20.5l-14 8q-10 -17 -25 -27t-35 -10q-26 0 -39 13.5t-13 36.5q0 13 3.5 26t13 28
t26 32t42.5 37h40l-277 698h-78z" />
    <glyph glyph-name="brokenbar" unicode="&#xa6;" horiz-adv-x="222" 
d="M77 -89h69v250h-69v-250zM77 411h69v250h-69v-250z" />
    <glyph glyph-name="Scommaaccent" horiz-adv-x="500" 
d="M60 18q28 -12 67.5 -21t90.5 -9q40 0 81 11t74 34.5t53.5 61t20.5 90.5q0 51 -23.5 86.5t-59.5 62.5t-77 47.5t-77 42t-59.5 46.5t-23.5 60q0 34 13.5 57t35 37t48.5 20t54 6q35 0 69.5 -6.5t57.5 -19.5l11 63q-36 14 -73.5 18.5t-63.5 4.5q-46 0 -86.5 -12.5
t-70.5 -36.5t-47 -57.5t-17 -75.5q0 -46 23.5 -79t59.5 -59t77 -47.5t77 -44t59.5 -48t23.5 -59.5q0 -37 -12.5 -64t-34 -44.5t-50 -26t-60.5 -8.5q-49 0 -86 10.5t-68 30.5zM202 -134h39q-2 -25 -14 -36t-27 -11v-34q34 0 55.5 23t21.5 78v64h-75v-84z" />
    <glyph glyph-name="Zdotaccent" unicode="&#xaf;" horiz-adv-x="500" 
d="M21 0h449v60h-374l362 578v60h-428v-60h355l-364 -578v-60zM224 774h75v84h-75v-84z" />
    <glyph glyph-name="Zdotaccent" unicode="&#x17b;" horiz-adv-x="500" 
d="M21 0h449v60h-374l362 578v60h-428v-60h355l-364 -578v-60zM224 774h75v84h-75v-84z" />
    <glyph glyph-name="lslash" unicode="&#xb3;" horiz-adv-x="222" 
d="M79 0h63v392l66 53v69l-66 -53v289h-63v-339l-66 -53v-69l66 53v-342z" />
    <glyph glyph-name="lslash" unicode="&#x142;" horiz-adv-x="222" 
d="M79 0h63v392l66 53v69l-66 -53v289h-63v-339l-66 -53v-69l66 53v-342z" />
    <glyph glyph-name="aogonek" unicode="&#xb9;" horiz-adv-x="500" 
d="M366 226q0 -21 -3 -52t-17 -60.5t-45 -50.5t-86 -21q-44 0 -75 21t-31 71q0 42 22 66.5t56.5 37t77 16t83.5 3.5h18v-31zM100 426q35 23 72.5 32.5t77.5 9.5q64 0 90 -32.5t26 -98.5v-26h-12q-50 0 -105 -4t-101.5 -21.5t-77 -53.5t-30.5 -100q0 -17 6 -42t24 -47.5
t51 -38.5t87 -16q24 0 48 6t46 18t39.5 29.5t28.5 40.5h2v-82h15q-14 -8 -34 -21t-39 -30t-32.5 -38.5t-13.5 -46.5q0 -18 8 -31.5t20.5 -22.5t28 -14t31.5 -5q22 0 39.5 6.5t30 16.5t20 21.5t11.5 20.5l-14 8q-10 -17 -25 -27t-35 -10q-26 0 -39 13.5t-13 36.5q0 13 3.5 26
t13 28t26 32t42.5 37h18q-4 26 -4.5 51t-0.5 56v225q0 100 -42 145t-137 45q-17 0 -37 -3t-40.5 -7.5t-39 -11t-33.5 -13.5v-61z" />
    <glyph glyph-name="aogonek" unicode="&#x105;" horiz-adv-x="500" 
d="M366 226q0 -21 -3 -52t-17 -60.5t-45 -50.5t-86 -21q-44 0 -75 21t-31 71q0 42 22 66.5t56.5 37t77 16t83.5 3.5h18v-31zM100 426q35 23 72.5 32.5t77.5 9.5q64 0 90 -32.5t26 -98.5v-26h-12q-50 0 -105 -4t-101.5 -21.5t-77 -53.5t-30.5 -100q0 -17 6 -42t24 -47.5
t51 -38.5t87 -16q24 0 48 6t46 18t39.5 29.5t28.5 40.5h2v-82h15q-14 -8 -34 -21t-39 -30t-32.5 -38.5t-13.5 -46.5q0 -18 8 -31.5t20.5 -22.5t28 -14t31.5 -5q22 0 39.5 6.5t30 16.5t20 21.5t11.5 20.5l-14 8q-10 -17 -25 -27t-35 -10q-26 0 -39 13.5t-13 36.5q0 13 3.5 26
t13 28t26 32t42.5 37h18q-4 26 -4.5 51t-0.5 56v225q0 100 -42 145t-137 45q-17 0 -37 -3t-40.5 -7.5t-39 -11t-33.5 -13.5v-61z" />
    <glyph glyph-name="scommaaccent" horiz-adv-x="389" 
d="M34 12q34 -14 70 -19t73 -5q29 0 60.5 7.5t57.5 24.5t43 44.5t17 68.5q0 42 -18.5 70t-46.5 48t-60.5 34t-60.5 28t-46.5 30t-18.5 40q0 49 30.5 67t79.5 18q26 0 57 -6.5t56 -17.5l6 55q-34 13 -70 18t-56 5q-32 0 -61.5 -7.5t-53 -24t-37.5 -43t-14 -64.5
q0 -37 18 -61.5t45.5 -42t59 -31.5t59 -29.5t45.5 -35.5t18 -50q0 -22 -9 -39t-25 -28.5t-36.5 -17.5t-42.5 -6q-37 0 -70.5 9t-62.5 23zM147 -134h39q-2 -25 -14 -36t-27 -11v-34q34 0 55.5 23t21.5 78v64h-75v-84z" />
    <glyph glyph-name="Lcaron" unicode="&#xbc;" horiz-adv-x="444" 
d="M80 0h349v60h-280v638h-69v-698zM253 614h39q-2 -25 -14 -36t-27 -11v-34q34 0 55.5 23t21.5 78v64h-75v-84z" />
    <glyph glyph-name="Lcaron" unicode="&#x13d;" horiz-adv-x="444" 
d="M80 0h349v60h-280v638h-69v-698zM253 614h39q-2 -25 -14 -36t-27 -11v-34q34 0 55.5 23t21.5 78v64h-75v-84z" />
    <glyph glyph-name="lcaron" unicode="&#xbe;" horiz-adv-x="273" 
d="M79 0h63v750h-63v-750zM198 666h39q-2 -25 -14 -36t-27 -11v-34q34 0 55.5 23t21.5 78v64h-75v-84z" />
    <glyph glyph-name="lcaron" unicode="&#x13e;" horiz-adv-x="273" 
d="M79 0h63v750h-63v-750zM198 666h39q-2 -25 -14 -36t-27 -11v-34q34 0 55.5 23t21.5 78v64h-75v-84z" />
    <glyph glyph-name="zdotaccent" unicode="&#xbf;" horiz-adv-x="444" 
d="M32 0h380v54h-307l307 402v54h-368v-54h295l-307 -403v-53zM200 624h75v84h-75v-84z" />
    <glyph glyph-name="zdotaccent" unicode="&#x17c;" horiz-adv-x="444" 
d="M32 0h380v54h-307l307 402v54h-368v-54h295l-307 -403v-53zM200 624h75v84h-75v-84z" />
    <glyph glyph-name="Racute" unicode="&#xc0;" 
d="M157 638h71q36 0 68 -3t56 -15t38 -36t14 -67q0 -36 -16 -60.5t-41 -39.5t-56 -21.5t-61 -6.5h-73v249zM88 0h69v329h57q25 0 43.5 -2t34 -11t29.5 -27.5t29 -52.5l101 -236h76l-119 270q-8 18 -15.5 32t-17 25t-23 17.5t-34.5 9.5v2q32 4 60.5 17t49.5 34t33 48.5
t12 61.5q0 96 -56 138.5t-149 42.5h-180v-698zM223 742h46l126 144h-79z" />
    <glyph glyph-name="Racute" unicode="&#x154;" 
d="M157 638h71q36 0 68 -3t56 -15t38 -36t14 -67q0 -36 -16 -60.5t-41 -39.5t-56 -21.5t-61 -6.5h-73v249zM88 0h69v329h57q25 0 43.5 -2t34 -11t29.5 -27.5t29 -52.5l101 -236h76l-119 270q-8 18 -15.5 32t-17 25t-23 17.5t-34.5 9.5v2q32 4 60.5 17t49.5 34t33 48.5
t12 61.5q0 96 -56 138.5t-149 42.5h-180v-698zM223 742h46l126 144h-79z" />
    <glyph glyph-name="Abreve" unicode="&#xc3;" horiz-adv-x="667" 
d="M13 0h67l75 187h352l75 -187h72l-277 698h-78zM484 247h-303l152 385zM215 869q7 -51 38.5 -83.5t84.5 -32.5t84.5 32.5t38.5 83.5h-30q-9 -32 -36 -44t-57 -12t-57 12t-36 44h-30z" />
    <glyph glyph-name="Abreve" unicode="&#x102;" horiz-adv-x="667" 
d="M13 0h67l75 187h352l75 -187h72l-277 698h-78zM484 247h-303l152 385zM215 869q7 -51 38.5 -83.5t84.5 -32.5t84.5 32.5t38.5 83.5h-30q-9 -32 -36 -44t-57 -12t-57 12t-36 44h-30z" />
    <glyph glyph-name="Lacute" unicode="&#xc5;" horiz-adv-x="444" 
d="M80 0h349v60h-280v638h-69v-698zM78 742h46l126 144h-79z" />
    <glyph glyph-name="Lacute" unicode="&#x139;" horiz-adv-x="444" 
d="M80 0h349v60h-280v638h-69v-698zM78 742h46l126 144h-79z" />
    <glyph glyph-name="Cacute" unicode="&#xc6;" horiz-adv-x="667" 
d="M569 684q-14 7 -34.5 12t-43.5 8t-45 4.5t-37 1.5q-81 0 -146 -26.5t-111 -74.5t-70.5 -114.5t-24.5 -145.5q0 -81 24 -147.5t69.5 -114t110.5 -73.5t148 -26q16 0 38 1.5t44.5 5t43 9t34.5 14.5l-4 60q-15 -9 -35 -15t-41 -9t-42 -4.5t-38 -1.5q-69 0 -122 22.5
t-88.5 62t-54 95t-18.5 121.5q0 65 19 120t55 95.5t88.5 63t120.5 22.5q37 0 80 -6.5t76 -23.5zM341 742h46l126 144h-79z" />
    <glyph glyph-name="Cacute" unicode="&#x106;" horiz-adv-x="667" 
d="M569 684q-14 7 -34.5 12t-43.5 8t-45 4.5t-37 1.5q-81 0 -146 -26.5t-111 -74.5t-70.5 -114.5t-24.5 -145.5q0 -81 24 -147.5t69.5 -114t110.5 -73.5t148 -26q16 0 38 1.5t44.5 5t43 9t34.5 14.5l-4 60q-15 -9 -35 -15t-41 -9t-42 -4.5t-38 -1.5q-69 0 -122 22.5
t-88.5 62t-54 95t-18.5 121.5q0 65 19 120t55 95.5t88.5 63t120.5 22.5q37 0 80 -6.5t76 -23.5zM341 742h46l126 144h-79z" />
    <glyph glyph-name="Ccaron" unicode="&#xc8;" horiz-adv-x="667" 
d="M569 684q-14 7 -34.5 12t-43.5 8t-45 4.5t-37 1.5q-81 0 -146 -26.5t-111 -74.5t-70.5 -114.5t-24.5 -145.5q0 -81 24 -147.5t69.5 -114t110.5 -73.5t148 -26q16 0 38 1.5t44.5 5t43 9t34.5 14.5l-4 60q-15 -9 -35 -15t-41 -9t-42 -4.5t-38 -1.5q-69 0 -122 22.5
t-88.5 62t-54 95t-18.5 121.5q0 65 19 120t55 95.5t88.5 63t120.5 22.5q37 0 80 -6.5t76 -23.5zM533 886h-46l-88 -102l-88 102h-46l93 -144h82z" />
    <glyph glyph-name="Ccaron" unicode="&#x10c;" horiz-adv-x="667" 
d="M569 684q-14 7 -34.5 12t-43.5 8t-45 4.5t-37 1.5q-81 0 -146 -26.5t-111 -74.5t-70.5 -114.5t-24.5 -145.5q0 -81 24 -147.5t69.5 -114t110.5 -73.5t148 -26q16 0 38 1.5t44.5 5t43 9t34.5 14.5l-4 60q-15 -9 -35 -15t-41 -9t-42 -4.5t-38 -1.5q-69 0 -122 22.5
t-88.5 62t-54 95t-18.5 121.5q0 65 19 120t55 95.5t88.5 63t120.5 22.5q37 0 80 -6.5t76 -23.5zM533 886h-46l-88 -102l-88 102h-46l93 -144h82z" />
    <glyph glyph-name="Eogonek" unicode="&#xca;" horiz-adv-x="500" 
d="M86 0h257q-14 -8 -34 -21t-39 -30t-32.5 -38.5t-13.5 -46.5q0 -18 8 -31.5t20.5 -22.5t28 -14t31.5 -5q22 0 39.5 6.5t30 16.5t20 21.5t11.5 20.5l-14 8q-10 -17 -25 -27t-35 -10q-26 0 -39 13.5t-13 36.5q0 13 3.5 26t13 28t26 32t42.5 37h68v60h-285v269h259v60h-259
v249h273v60h-342v-698z" />
    <glyph glyph-name="Eogonek" unicode="&#x118;" horiz-adv-x="500" 
d="M86 0h257q-14 -8 -34 -21t-39 -30t-32.5 -38.5t-13.5 -46.5q0 -18 8 -31.5t20.5 -22.5t28 -14t31.5 -5q22 0 39.5 6.5t30 16.5t20 21.5t11.5 20.5l-14 8q-10 -17 -25 -27t-35 -10q-26 0 -39 13.5t-13 36.5q0 13 3.5 26t13 28t26 32t42.5 37h68v60h-285v269h259v60h-259
v249h273v60h-342v-698z" />
    <glyph glyph-name="Ecaron" unicode="&#xcc;" horiz-adv-x="500" 
d="M86 0h354v60h-285v269h259v60h-259v249h273v60h-342v-698zM405 886h-46l-88 -102l-88 102h-46l93 -144h82z" />
    <glyph glyph-name="Ecaron" unicode="&#x11a;" horiz-adv-x="500" 
d="M86 0h354v60h-285v269h259v60h-259v249h273v60h-342v-698zM405 886h-46l-88 -102l-88 102h-46l93 -144h82z" />
    <glyph glyph-name="Dcaron" unicode="&#xcf;" horiz-adv-x="667" 
d="M149 638h101q58 0 110 -14.5t90 -47.5t60.5 -87.5t22.5 -134.5t-23.5 -136t-66 -91t-103 -51t-134.5 -16h-57v578zM80 0h122q87 0 160 19t126.5 61t83.5 108.5t30 161.5q0 76 -19.5 140t-61.5 110.5t-108 72t-160 25.5h-173v-698zM440 886h-46l-88 -102l-88 102h-46
l93 -144h82z" />
    <glyph glyph-name="Dcaron" unicode="&#x10e;" horiz-adv-x="667" 
d="M149 638h101q58 0 110 -14.5t90 -47.5t60.5 -87.5t22.5 -134.5t-23.5 -136t-66 -91t-103 -51t-134.5 -16h-57v578zM80 0h122q87 0 160 19t126.5 61t83.5 108.5t30 161.5q0 76 -19.5 140t-61.5 110.5t-108 72t-160 25.5h-173v-698zM440 886h-46l-88 -102l-88 102h-46
l93 -144h82z" />
    <glyph glyph-name="Dcroat" unicode="&#xd0;" horiz-adv-x="667" 
d="M80 389h-69v-60h69v-329h122q87 0 160 19t126.5 61t83.5 108.5t30 161.5q0 93 -27.5 159t-80 108t-127.5 61.5t-169 19.5h-118v-309zM149 638h46q76 0 138.5 -13t107 -45t68.5 -87t24 -139q0 -80 -23.5 -136t-66 -91t-103 -51t-134.5 -16h-57v269h213v60h-213v249z" />
    <glyph glyph-name="Dcroat" unicode="&#x110;" horiz-adv-x="667" 
d="M80 389h-69v-60h69v-329h122q87 0 160 19t126.5 61t83.5 108.5t30 161.5q0 93 -27.5 159t-80 108t-127.5 61.5t-169 19.5h-118v-309zM149 638h46q76 0 138.5 -13t107 -45t68.5 -87t24 -139q0 -80 -23.5 -136t-66 -91t-103 -51t-134.5 -16h-57v269h213v60h-213v249z" />
    <glyph glyph-name="Nacute" unicode="&#xd1;" horiz-adv-x="667" 
d="M77 0h69v602h2l349 -602h93v698h-69v-614h-2l-355 614h-87v-698zM293 742h46l126 144h-79z" />
    <glyph glyph-name="Nacute" unicode="&#x143;" horiz-adv-x="667" 
d="M77 0h69v602h2l349 -602h93v698h-69v-614h-2l-355 614h-87v-698zM293 742h46l126 144h-79z" />
    <glyph glyph-name="Ncaron" unicode="&#xd2;" horiz-adv-x="667" 
d="M77 0h69v602h2l349 -602h93v698h-69v-614h-2l-355 614h-87v-698zM485 886h-46l-88 -102l-88 102h-46l93 -144h82z" />
    <glyph glyph-name="Ncaron" unicode="&#x147;" horiz-adv-x="667" 
d="M77 0h69v602h2l349 -602h93v698h-69v-614h-2l-355 614h-87v-698zM485 886h-46l-88 -102l-88 102h-46l93 -144h82z" />
    <glyph glyph-name="Ohungarumlaut" unicode="&#xd5;" horiz-adv-x="722" 
d="M54 349q1 -80 20.5 -146.5t58 -114t96 -74t132.5 -26.5t132.5 26.5t96 74t58 114t20.5 146.5q1 71 -17.5 136t-56.5 115t-96 80t-137 30t-137 -30t-96 -80t-56.5 -115t-17.5 -136zM361 650q61 0 106 -26t74.5 -69t43.5 -97t14 -109q0 -56 -14 -109.5t-43.5 -96.5
t-74.5 -69t-106 -26q-62 0 -106.5 26t-74 69t-43.5 96.5t-14 109.5q0 55 14 109t43.5 97t74 69t106.5 26zM403 742h46l126 144h-79zM233 742h46l126 144h-79z" />
    <glyph glyph-name="Ohungarumlaut" unicode="&#x150;" horiz-adv-x="722" 
d="M54 349q1 -80 20.5 -146.5t58 -114t96 -74t132.5 -26.5t132.5 26.5t96 74t58 114t20.5 146.5q1 71 -17.5 136t-56.5 115t-96 80t-137 30t-137 -30t-96 -80t-56.5 -115t-17.5 -136zM361 650q61 0 106 -26t74.5 -69t43.5 -97t14 -109q0 -56 -14 -109.5t-43.5 -96.5
t-74.5 -69t-106 -26q-62 0 -106.5 26t-74 69t-43.5 96.5t-14 109.5q0 55 14 109t43.5 97t74 69t106.5 26zM403 742h46l126 144h-79zM233 742h46l126 144h-79z" />
    <glyph glyph-name="multiply" unicode="&#xd7;" horiz-adv-x="600" 
d="M252 257l-181 -181l49 -50l181 182l179 -182l50 50l-180 181l180 180l-50 49l-179 -181l-181 181l-49 -49z" />
    <glyph glyph-name="Rcaron" unicode="&#xd8;" 
d="M157 638h71q36 0 68 -3t56 -15t38 -36t14 -67q0 -36 -16 -60.5t-41 -39.5t-56 -21.5t-61 -6.5h-73v249zM88 0h69v329h57q25 0 43.5 -2t34 -11t29.5 -27.5t29 -52.5l101 -236h76l-119 270q-8 18 -15.5 32t-17 25t-23 17.5t-34.5 9.5v2q32 4 60.5 17t49.5 34t33 48.5
t12 61.5q0 96 -56 138.5t-149 42.5h-180v-698zM404 886h-46l-88 -102l-88 102h-46l93 -144h82z" />
    <glyph glyph-name="Rcaron" unicode="&#x158;" 
d="M157 638h71q36 0 68 -3t56 -15t38 -36t14 -67q0 -36 -16 -60.5t-41 -39.5t-56 -21.5t-61 -6.5h-73v249zM88 0h69v329h57q25 0 43.5 -2t34 -11t29.5 -27.5t29 -52.5l101 -236h76l-119 270q-8 18 -15.5 32t-17 25t-23 17.5t-34.5 9.5v2q32 4 60.5 17t49.5 34t33 48.5
t12 61.5q0 96 -56 138.5t-149 42.5h-180v-698zM404 886h-46l-88 -102l-88 102h-46l93 -144h82z" />
    <glyph glyph-name="Uring" unicode="&#xd9;" horiz-adv-x="667" 
d="M587 698h-69v-454q0 -43 -11.5 -79t-35 -62t-58 -40.5t-79.5 -14.5t-79.5 14.5t-58 40.5t-35 62t-11.5 79v454h-69v-454q0 -77 25 -127t63 -78.5t82.5 -39.5t82.5 -11t82.5 11t82.5 39.5t63 78.5t25 127v454zM238 818q0 -41 27 -68t69 -27q41 0 68.5 27t27.5 68
q0 40 -27.5 67.5t-68.5 27.5q-42 0 -69 -27.5t-27 -67.5zM274 818q0 25 18 42t42 17q26 0 43 -17t17 -42q0 -26 -17 -42.5t-43 -16.5q-24 0 -42 16.5t-18 42.5z" />
    <glyph glyph-name="Uring" unicode="&#x16e;" horiz-adv-x="667" 
d="M587 698h-69v-454q0 -43 -11.5 -79t-35 -62t-58 -40.5t-79.5 -14.5t-79.5 14.5t-58 40.5t-35 62t-11.5 79v454h-69v-454q0 -77 25 -127t63 -78.5t82.5 -39.5t82.5 -11t82.5 11t82.5 39.5t63 78.5t25 127v454zM238 818q0 -41 27 -68t69 -27q41 0 68.5 27t27.5 68
q0 40 -27.5 67.5t-68.5 27.5q-42 0 -69 -27.5t-27 -67.5zM274 818q0 25 18 42t42 17q26 0 43 -17t17 -42q0 -26 -17 -42.5t-43 -16.5q-24 0 -42 16.5t-18 42.5z" />
    <glyph glyph-name="Uhungarumlaut" unicode="&#xdb;" horiz-adv-x="667" 
d="M587 698h-69v-454q0 -43 -11.5 -79t-35 -62t-58 -40.5t-79.5 -14.5t-79.5 14.5t-58 40.5t-35 62t-11.5 79v454h-69v-454q0 -77 25 -127t63 -78.5t82.5 -39.5t82.5 -11t82.5 11t82.5 39.5t63 78.5t25 127v454zM371 742h46l126 144h-79zM201 742h46l126 144h-79z" />
    <glyph glyph-name="Uhungarumlaut" unicode="&#x170;" horiz-adv-x="667" 
d="M587 698h-69v-454q0 -43 -11.5 -79t-35 -62t-58 -40.5t-79.5 -14.5t-79.5 14.5t-58 40.5t-35 62t-11.5 79v454h-69v-454q0 -77 25 -127t63 -78.5t82.5 -39.5t82.5 -11t82.5 11t82.5 39.5t63 78.5t25 127v454zM371 742h46l126 144h-79zM201 742h46l126 144h-79z" />
    <glyph glyph-name="Yacute" unicode="&#xdd;" horiz-adv-x="611" 
d="M271 0h69v296l259 402h-75l-219 -341l-213 341h-80l259 -402v-296zM256 742h46l126 144h-79z" />
    <glyph glyph-name="Tcommaaccent" unicode="&#xde;" horiz-adv-x="500" 
d="M216 0h69v638h206v60h-481v-60h206v-638zM213 -134h39q-2 -25 -14 -36t-27 -11v-34q34 0 55.5 23t21.5 78v64h-75v-84z" />
    <glyph glyph-name="Tcommaaccent" unicode="&#x162;" horiz-adv-x="500" 
d="M216 0h69v638h206v60h-481v-60h206v-638zM213 -134h39q-2 -25 -14 -36t-27 -11v-34q34 0 55.5 23t21.5 78v64h-75v-84z" />
    <glyph glyph-name="racute" unicode="&#xe0;" horiz-adv-x="333" 
d="M79 0h63v252q0 34 6 70.5t20 66t38.5 48.5t62.5 19q26 0 46 -6v66q-8 2 -20.5 4t-23.5 2q-24 0 -44.5 -9t-37 -24.5t-28.5 -35.5t-21 -41h-2v98h-63q1 -14 2 -25.5t1.5 -24.5t0.5 -28v-36v-396zM139 592h46l126 144h-79z" />
    <glyph glyph-name="racute" unicode="&#x155;" horiz-adv-x="333" 
d="M79 0h63v252q0 34 6 70.5t20 66t38.5 48.5t62.5 19q26 0 46 -6v66q-8 2 -20.5 4t-23.5 2q-24 0 -44.5 -9t-37 -24.5t-28.5 -35.5t-21 -41h-2v98h-63q1 -14 2 -25.5t1.5 -24.5t0.5 -28v-36v-396zM139 592h46l126 144h-79z" />
    <glyph glyph-name="abreve" unicode="&#xe3;" horiz-adv-x="500" 
d="M372 0h62q-4 26 -4.5 51t-0.5 56v225q0 100 -42 145t-137 45q-17 0 -37 -3t-40.5 -7.5t-39 -11t-33.5 -13.5v-61q35 23 72.5 32.5t77.5 9.5q64 0 90 -32.5t26 -98.5v-26h-12q-50 0 -105 -4t-101.5 -21.5t-77 -53.5t-30.5 -100q0 -17 6 -42t24 -47.5t51 -38.5t87 -16
q24 0 48 6t46 18t39.5 29.5t28.5 40.5h2v-82zM366 226q0 -21 -3 -52t-17 -60.5t-45 -50.5t-86 -21q-44 0 -75 21t-31 71q0 42 22 66.5t56.5 37t77 16t83.5 3.5h18v-31zM137 719q7 -51 38.5 -83.5t84.5 -32.5t84.5 32.5t38.5 83.5h-30q-9 -32 -36 -44t-57 -12t-57 12t-36 44
h-30z" />
    <glyph glyph-name="abreve" unicode="&#x103;" horiz-adv-x="500" 
d="M372 0h62q-4 26 -4.5 51t-0.5 56v225q0 100 -42 145t-137 45q-17 0 -37 -3t-40.5 -7.5t-39 -11t-33.5 -13.5v-61q35 23 72.5 32.5t77.5 9.5q64 0 90 -32.5t26 -98.5v-26h-12q-50 0 -105 -4t-101.5 -21.5t-77 -53.5t-30.5 -100q0 -17 6 -42t24 -47.5t51 -38.5t87 -16
q24 0 48 6t46 18t39.5 29.5t28.5 40.5h2v-82zM366 226q0 -21 -3 -52t-17 -60.5t-45 -50.5t-86 -21q-44 0 -75 21t-31 71q0 42 22 66.5t56.5 37t77 16t83.5 3.5h18v-31zM137 719q7 -51 38.5 -83.5t84.5 -32.5t84.5 32.5t38.5 83.5h-30q-9 -32 -36 -44t-57 -12t-57 12t-36 44
h-30z" />
    <glyph glyph-name="lacute" unicode="&#xe5;" horiz-adv-x="222" 
d="M79 0h63v750h-63v-750zM53 786h46l126 144h-79z" />
    <glyph glyph-name="lacute" unicode="&#x13a;" horiz-adv-x="222" 
d="M79 0h63v750h-63v-750zM53 786h46l126 144h-79z" />
    <glyph glyph-name="cacute" unicode="&#xe6;" horiz-adv-x="444" 
d="M416 502q-14 5 -45.5 12.5t-77.5 7.5q-57 0 -103.5 -19.5t-79.5 -55t-51 -84.5t-18 -108q0 -53 15 -101.5t45.5 -85.5t76 -58.5t107.5 -21.5q36 0 67.5 3.5t63.5 14.5l-6 59q-29 -11 -57 -17t-58 -6q-43 0 -77.5 17t-58.5 46t-36.5 67.5t-12.5 82.5q0 46 12.5 85.5
t37 67.5t60.5 44t82 16q26 0 54.5 -7.5t54.5 -18.5zM224 592h46l126 144h-79z" />
    <glyph glyph-name="cacute" unicode="&#x107;" horiz-adv-x="444" 
d="M416 502q-14 5 -45.5 12.5t-77.5 7.5q-57 0 -103.5 -19.5t-79.5 -55t-51 -84.5t-18 -108q0 -53 15 -101.5t45.5 -85.5t76 -58.5t107.5 -21.5q36 0 67.5 3.5t63.5 14.5l-6 59q-29 -11 -57 -17t-58 -6q-43 0 -77.5 17t-58.5 46t-36.5 67.5t-12.5 82.5q0 46 12.5 85.5
t37 67.5t60.5 44t82 16q26 0 54.5 -7.5t54.5 -18.5zM224 592h46l126 144h-79z" />
    <glyph glyph-name="ccaron" unicode="&#xe8;" horiz-adv-x="444" 
d="M416 502q-14 5 -45.5 12.5t-77.5 7.5q-57 0 -103.5 -19.5t-79.5 -55t-51 -84.5t-18 -108q0 -53 15 -101.5t45.5 -85.5t76 -58.5t107.5 -21.5q36 0 67.5 3.5t63.5 14.5l-6 59q-29 -11 -57 -17t-58 -6q-43 0 -77.5 17t-58.5 46t-36.5 67.5t-12.5 82.5q0 46 12.5 85.5
t37 67.5t60.5 44t82 16q26 0 54.5 -7.5t54.5 -18.5zM416 736h-46l-88 -102l-88 102h-46l93 -144h82z" />
    <glyph glyph-name="ccaron" unicode="&#x10d;" horiz-adv-x="444" 
d="M416 502q-14 5 -45.5 12.5t-77.5 7.5q-57 0 -103.5 -19.5t-79.5 -55t-51 -84.5t-18 -108q0 -53 15 -101.5t45.5 -85.5t76 -58.5t107.5 -21.5q36 0 67.5 3.5t63.5 14.5l-6 59q-29 -11 -57 -17t-58 -6q-43 0 -77.5 17t-58.5 46t-36.5 67.5t-12.5 82.5q0 46 12.5 85.5
t37 67.5t60.5 44t82 16q26 0 54.5 -7.5t54.5 -18.5zM416 736h-46l-88 -102l-88 102h-46l93 -144h82z" />
    <glyph glyph-name="eogonek" unicode="&#xea;" horiz-adv-x="500" 
d="M110 291q0 31 10.5 63t30 57t47 41t62.5 16t60 -15t40.5 -40t22.5 -57t7 -65h-280zM459 237v32q0 51 -11.5 97t-36 80.5t-63 55t-92.5 20.5q-48 0 -88 -20t-68 -55t-43.5 -84.5t-15.5 -107.5q0 -57 12.5 -106t40 -85t72 -56t107.5 -20q8 0 14.5 0.5t12.5 0.5l20 3
q-14 -9 -31.5 -21.5t-33.5 -28t-26.5 -35t-10.5 -41.5q0 -18 8 -31.5t20.5 -22.5t28 -14t31.5 -5q22 0 39.5 6.5t30 16.5t20 21.5t11.5 20.5l-14 8q-10 -17 -25 -27t-35 -10q-26 0 -39 13.5t-13 36.5q0 12 3.5 25t12.5 27.5t24.5 31t40.5 36.5q30 6 59 17v64
q-11 -7 -28.5 -14t-37 -12t-40 -8.5t-37.5 -3.5q-41 0 -72.5 15.5t-52.5 41.5t-32 61.5t-11 76.5h349z" />
    <glyph glyph-name="eogonek" unicode="&#x119;" horiz-adv-x="500" 
d="M110 291q0 31 10.5 63t30 57t47 41t62.5 16t60 -15t40.5 -40t22.5 -57t7 -65h-280zM459 237v32q0 51 -11.5 97t-36 80.5t-63 55t-92.5 20.5q-48 0 -88 -20t-68 -55t-43.5 -84.5t-15.5 -107.5q0 -57 12.5 -106t40 -85t72 -56t107.5 -20q8 0 14.5 0.5t12.5 0.5l20 3
q-14 -9 -31.5 -21.5t-33.5 -28t-26.5 -35t-10.5 -41.5q0 -18 8 -31.5t20.5 -22.5t28 -14t31.5 -5q22 0 39.5 6.5t30 16.5t20 21.5t11.5 20.5l-14 8q-10 -17 -25 -27t-35 -10q-26 0 -39 13.5t-13 36.5q0 12 3.5 25t12.5 27.5t24.5 31t40.5 36.5q30 6 59 17v64
q-11 -7 -28.5 -14t-37 -12t-40 -8.5t-37.5 -3.5q-41 0 -72.5 15.5t-52.5 41.5t-32 61.5t-11 76.5h349z" />
    <glyph glyph-name="ecaron" unicode="&#xec;" horiz-adv-x="500" 
d="M421 80q-11 -7 -28.5 -14t-37 -12t-40 -8.5t-37.5 -3.5q-41 0 -72.5 15.5t-52.5 41.5t-32 61.5t-11 76.5h349v32q0 51 -11.5 97t-36 80.5t-63 55t-92.5 20.5q-48 0 -88 -20t-68 -55t-43.5 -84.5t-15.5 -107.5q0 -57 12.5 -106t40 -85t72 -56t107.5 -20q35 0 75 7t73 21
v64zM110 291q0 31 10.5 63t30 57t47 41t62.5 16t60 -15t40.5 -40t22.5 -57t7 -65h-280zM399 736h-46l-88 -102l-88 102h-46l93 -144h82z" />
    <glyph glyph-name="ecaron" unicode="&#x11b;" horiz-adv-x="500" 
d="M421 80q-11 -7 -28.5 -14t-37 -12t-40 -8.5t-37.5 -3.5q-41 0 -72.5 15.5t-52.5 41.5t-32 61.5t-11 76.5h349v32q0 51 -11.5 97t-36 80.5t-63 55t-92.5 20.5q-48 0 -88 -20t-68 -55t-43.5 -84.5t-15.5 -107.5q0 -57 12.5 -106t40 -85t72 -56t107.5 -20q35 0 75 7t73 21
v64zM110 291q0 31 10.5 63t30 57t47 41t62.5 16t60 -15t40.5 -40t22.5 -57t7 -65h-280zM399 736h-46l-88 -102l-88 102h-46l93 -144h82z" />
    <glyph glyph-name="dcaron" unicode="&#xef;" horiz-adv-x="614" 
d="M483 750h-63v-326h-2q-3 9 -14.5 25.5t-31 32.5t-48 28t-65.5 12q-56 0 -96 -20t-65.5 -55.5t-37 -84.5t-11.5 -107q0 -57 13 -105.5t39.5 -84.5t65.5 -56.5t92 -20.5q55 0 94 22t65 71h2v-81h63v750zM118 255q0 37 6.5 75t24 68.5t46.5 50t74 19.5q42 0 71 -20
t46.5 -51.5t25.5 -69t8 -72.5t-8 -72.5t-25.5 -69t-46.5 -51.5t-71 -20q-45 0 -74 19.5t-46.5 50t-24 68.5t-6.5 75zM539 666h39q-2 -25 -14 -36t-27 -11v-34q34 0 55.5 23t21.5 78v64h-75v-84z" />
    <glyph glyph-name="dcaron" unicode="&#x10f;" horiz-adv-x="614" 
d="M483 750h-63v-326h-2q-3 9 -14.5 25.5t-31 32.5t-48 28t-65.5 12q-56 0 -96 -20t-65.5 -55.5t-37 -84.5t-11.5 -107q0 -57 13 -105.5t39.5 -84.5t65.5 -56.5t92 -20.5q55 0 94 22t65 71h2v-81h63v750zM118 255q0 37 6.5 75t24 68.5t46.5 50t74 19.5q42 0 71 -20
t46.5 -51.5t25.5 -69t8 -72.5t-8 -72.5t-25.5 -69t-46.5 -51.5t-71 -20q-45 0 -74 19.5t-46.5 50t-24 68.5t-6.5 75zM539 666h39q-2 -25 -14 -36t-27 -11v-34q34 0 55.5 23t21.5 78v64h-75v-84z" />
    <glyph glyph-name="dcroat" unicode="&#xf0;" 
d="M118 255q0 37 6.5 75t24 68.5t46.5 50t74 19.5q42 0 71 -20t46.5 -51.5t25.5 -69t8 -72.5t-8 -72.5t-25.5 -69t-46.5 -51.5t-71 -20q-45 0 -74 19.5t-46.5 50t-24 68.5t-6.5 75zM249 598h171v-174h-2q-3 9 -14.5 25.5t-31 32.5t-48 28t-65.5 12q-56 0 -96 -20
t-65.5 -55.5t-37 -84.5t-11.5 -107q0 -57 13 -105.5t39.5 -84.5t65.5 -56.5t92 -20.5q55 0 94 22t65 71h2v-81h63v598h50v54h-50v98h-63v-98h-171v-54z" />
    <glyph glyph-name="dcroat" unicode="&#x111;" 
d="M118 255q0 37 6.5 75t24 68.5t46.5 50t74 19.5q42 0 71 -20t46.5 -51.5t25.5 -69t8 -72.5t-8 -72.5t-25.5 -69t-46.5 -51.5t-71 -20q-45 0 -74 19.5t-46.5 50t-24 68.5t-6.5 75zM249 598h171v-174h-2q-3 9 -14.5 25.5t-31 32.5t-48 28t-65.5 12q-56 0 -96 -20
t-65.5 -55.5t-37 -84.5t-11.5 -107q0 -57 13 -105.5t39.5 -84.5t65.5 -56.5t92 -20.5q55 0 94 22t65 71h2v-81h63v598h50v54h-50v98h-63v-98h-171v-54z" />
    <glyph glyph-name="nacute" unicode="&#xf1;" 
d="M79 0h63v282q0 32 7.5 65t25 60t46.5 44t72 17q65 0 93 -43t28 -115v-310h63v326q0 42 -9.5 78t-30.5 62t-54 41t-80 15q-40 0 -67.5 -9.5t-46.5 -24.5t-31 -33.5t-20 -35.5h-2v91h-61q3 -31 3.5 -61t0.5 -59v-390zM240 592h46l126 144h-79z" />
    <glyph glyph-name="nacute" unicode="&#x144;" 
d="M79 0h63v282q0 32 7.5 65t25 60t46.5 44t72 17q65 0 93 -43t28 -115v-310h63v326q0 42 -9.5 78t-30.5 62t-54 41t-80 15q-40 0 -67.5 -9.5t-46.5 -24.5t-31 -33.5t-20 -35.5h-2v91h-61q3 -31 3.5 -61t0.5 -59v-390zM240 592h46l126 144h-79z" />
    <glyph glyph-name="ncaron" unicode="&#xf2;" 
d="M79 0h63v282q0 32 7.5 65t25 60t46.5 44t72 17q65 0 93 -43t28 -115v-310h63v326q0 42 -9.5 78t-30.5 62t-54 41t-80 15q-40 0 -67.5 -9.5t-46.5 -24.5t-31 -33.5t-20 -35.5h-2v91h-61q3 -31 3.5 -61t0.5 -59v-390zM427 736h-46l-88 -102l-88 102h-46l93 -144h82z" />
    <glyph glyph-name="ncaron" unicode="&#x148;" 
d="M79 0h63v282q0 32 7.5 65t25 60t46.5 44t72 17q65 0 93 -43t28 -115v-310h63v326q0 42 -9.5 78t-30.5 62t-54 41t-80 15q-40 0 -67.5 -9.5t-46.5 -24.5t-31 -33.5t-20 -35.5h-2v91h-61q3 -31 3.5 -61t0.5 -59v-390zM427 736h-46l-88 -102l-88 102h-46l93 -144h82z" />
    <glyph glyph-name="ohungarumlaut" unicode="&#xf5;" 
d="M40 255q0 -52 14 -100.5t43 -85.5t74 -59t107 -22t107 22t74 59t43 85.5t14 100.5t-14 100.5t-43 85.5t-74 59t-107 22t-107 -22t-74 -59t-43 -85.5t-14 -100.5zM109 255q0 44 11 83t32.5 68t53 45.5t72.5 16.5t72.5 -16.5t53 -45.5t32.5 -68t11 -83t-11 -83t-32.5 -68
t-53 -45.5t-72.5 -16.5t-72.5 16.5t-53 45.5t-32.5 68t-11 83zM325 592h46l126 144h-79zM155 592h46l126 144h-79z" />
    <glyph glyph-name="ohungarumlaut" unicode="&#x151;" 
d="M40 255q0 -52 14 -100.5t43 -85.5t74 -59t107 -22t107 22t74 59t43 85.5t14 100.5t-14 100.5t-43 85.5t-74 59t-107 22t-107 -22t-74 -59t-43 -85.5t-14 -100.5zM109 255q0 44 11 83t32.5 68t53 45.5t72.5 16.5t72.5 -16.5t53 -45.5t32.5 -68t11 -83t-11 -83t-32.5 -68
t-53 -45.5t-72.5 -16.5t-72.5 16.5t-53 45.5t-32.5 68t-11 83zM325 592h46l126 144h-79zM155 592h46l126 144h-79z" />
    <glyph glyph-name="rcaron" unicode="&#xf8;" horiz-adv-x="333" 
d="M79 0h63v252q0 34 6 70.5t20 66t38.5 48.5t62.5 19q26 0 46 -6v66q-8 2 -20.5 4t-23.5 2q-24 0 -44.5 -9t-37 -24.5t-28.5 -35.5t-21 -41h-2v98h-63q1 -14 2 -25.5t1.5 -24.5t0.5 -28v-36v-396zM323 736h-46l-88 -102l-88 102h-46l93 -144h82z" />
    <glyph glyph-name="rcaron" unicode="&#x159;" horiz-adv-x="333" 
d="M79 0h63v252q0 34 6 70.5t20 66t38.5 48.5t62.5 19q26 0 46 -6v66q-8 2 -20.5 4t-23.5 2q-24 0 -44.5 -9t-37 -24.5t-28.5 -35.5t-21 -41h-2v98h-63q1 -14 2 -25.5t1.5 -24.5t0.5 -28v-36v-396zM323 736h-46l-88 -102l-88 102h-46l93 -144h82z" />
    <glyph glyph-name="uring" unicode="&#xf9;" 
d="M477 510h-63v-282q0 -32 -7.5 -65t-25 -60t-46.5 -44t-72 -17q-65 0 -93 43t-28 115v310h-63v-326q0 -42 9.5 -78t30.5 -62t54 -41t80 -15q40 0 67.5 9.5t46.5 24.5t31 33.5t20 35.5h2v-91h61q-3 31 -3.5 61t-0.5 59v390zM190 668q0 -41 27 -68t69 -27q41 0 68.5 27
t27.5 68q0 40 -27.5 67.5t-68.5 27.5q-42 0 -69 -27.5t-27 -67.5zM226 668q0 25 18 42t42 17q26 0 43 -17t17 -42q0 -26 -17 -42.5t-43 -16.5q-24 0 -42 16.5t-18 42.5z" />
    <glyph glyph-name="uring" unicode="&#x16f;" 
d="M477 510h-63v-282q0 -32 -7.5 -65t-25 -60t-46.5 -44t-72 -17q-65 0 -93 43t-28 115v310h-63v-326q0 -42 9.5 -78t30.5 -62t54 -41t80 -15q40 0 67.5 9.5t46.5 24.5t31 33.5t20 35.5h2v-91h61q-3 31 -3.5 61t-0.5 59v390zM190 668q0 -41 27 -68t69 -27q41 0 68.5 27
t27.5 68q0 40 -27.5 67.5t-68.5 27.5q-42 0 -69 -27.5t-27 -67.5zM226 668q0 25 18 42t42 17q26 0 43 -17t17 -42q0 -26 -17 -42.5t-43 -16.5q-24 0 -42 16.5t-18 42.5z" />
    <glyph glyph-name="uhungarumlaut" unicode="&#xfb;" 
d="M477 510h-63v-282q0 -32 -7.5 -65t-25 -60t-46.5 -44t-72 -17q-65 0 -93 43t-28 115v310h-63v-326q0 -42 9.5 -78t30.5 -62t54 -41t80 -15q40 0 67.5 9.5t46.5 24.5t31 33.5t20 35.5h2v-91h61q-3 31 -3.5 61t-0.5 59v390zM320 592h46l126 144h-79zM150 592h46l126 144
h-79z" />
    <glyph glyph-name="uhungarumlaut" unicode="&#x171;" 
d="M477 510h-63v-282q0 -32 -7.5 -65t-25 -60t-46.5 -44t-72 -17q-65 0 -93 43t-28 115v310h-63v-326q0 -42 9.5 -78t30.5 -62t54 -41t80 -15q40 0 67.5 9.5t46.5 24.5t31 33.5t20 35.5h2v-91h61q-3 31 -3.5 61t-0.5 59v390zM320 592h46l126 144h-79zM150 592h46l126 144
h-79z" />
    <glyph glyph-name="yacute" unicode="&#xfd;" horiz-adv-x="444" 
d="M174 592h46l126 144h-79zM435 510h-66l-147 -425h-2l-142 425h-69l181 -516l-13 -45q-15 -50 -33.5 -80.5t-58.5 -30.5q-17 0 -27.5 2.5t-19.5 5.5l-6 -54q34 -8 68 -8q27 0 47 12t36 31.5t27.5 45t20.5 51.5z" />
    <glyph glyph-name="tcommaaccent" unicode="&#xfe;" horiz-adv-x="333" 
d="M299 510h-116v145l-63 -22v-123h-100v-54h100v-298q0 -35 2.5 -66t13.5 -54t34.5 -36.5t65.5 -13.5q23 0 44.5 4.5t32.5 9.5l-4 52q-14 -5 -27 -8.5t-31 -3.5q-38 0 -53 24.5t-15 59.5v330h116v54zM173 -134h39q-2 -25 -14 -36t-27 -11v-34q34 0 55.5 23t21.5 78v64h-75
v-84z" />
    <glyph glyph-name="tcommaaccent" unicode="&#x163;" horiz-adv-x="333" 
d="M299 510h-116v145l-63 -22v-123h-100v-54h100v-298q0 -35 2.5 -66t13.5 -54t34.5 -36.5t65.5 -13.5q23 0 44.5 4.5t32.5 9.5l-4 52q-14 -5 -27 -8.5t-31 -3.5q-38 0 -53 24.5t-15 59.5v330h116v54zM173 -134h39q-2 -25 -14 -36t-27 -11v-34q34 0 55.5 23t21.5 78v64h-75
v-84z" />
    <glyph glyph-name="onehalf" horiz-adv-x="834" 
d="M117 -22h57l443 742h-57zM214 705h-52l-103 -80l22 -33l76 58v-366h57v421zM503 0h272v48h-197l74 65l40.5 39t38.5 44.5t28.5 50.5t11.5 58t-10.5 53t-28.5 36t-43 20.5t-53 6.5q-29 0 -60 -7.5t-57 -20.5l8 -50q26 14 52.5 22t56.5 8q32 0 55 -18.5t23 -52.5
q0 -20 -8.5 -40.5t-23 -42t-33.5 -42.5t-40 -41l-106 -95v-41z" />
    <glyph glyph-name="Ncommaaccent" unicode="&#x145;" horiz-adv-x="667" 
d="M77 0h69v602h2l349 -602h93v698h-69v-614h-2l-355 614h-87v-698zM291 -134h39q-2 -25 -14 -36t-27 -11v-34q34 0 55.5 23t21.5 78v64h-75v-84z" />
    <glyph glyph-name="umacron" unicode="&#x16b;" 
d="M477 510h-63v-282q0 -32 -7.5 -65t-25 -60t-46.5 -44t-72 -17q-65 0 -93 43t-28 115v310h-63v-326q0 -42 9.5 -78t30.5 -62t54 -41t80 -15q40 0 67.5 9.5t46.5 24.5t31 33.5t20 35.5h2v-91h61q-3 31 -3.5 61t-0.5 59v390zM156 634h244v54h-244v-54z" />
    <glyph glyph-name="Delta" unicode="&#x394;" horiz-adv-x="670" 
d="M370 712h-73l-282 -712h642zM332 644l229 -582h-454z" />
    <glyph glyph-name="amacron" unicode="&#x101;" horiz-adv-x="500" 
d="M372 0h62q-4 26 -4.5 51t-0.5 56v225q0 100 -42 145t-137 45q-17 0 -37 -3t-40.5 -7.5t-39 -11t-33.5 -13.5v-61q35 23 72.5 32.5t77.5 9.5q64 0 90 -32.5t26 -98.5v-26h-12q-50 0 -105 -4t-101.5 -21.5t-77 -53.5t-30.5 -100q0 -17 6 -42t24 -47.5t51 -38.5t87 -16
q24 0 48 6t46 18t39.5 29.5t28.5 40.5h2v-82zM366 226q0 -21 -3 -52t-17 -60.5t-45 -50.5t-86 -21q-44 0 -75 21t-31 71q0 42 22 66.5t56.5 37t77 16t83.5 3.5h18v-31zM138 634h244v54h-244v-54z" />
    <glyph glyph-name=".363" unicode="&#xe002;" horiz-adv-x="611" 
d="M271 0h69v296l259 402h-75l-219 -341l-213 341h-80l259 -402v-296zM353 774h75v84h-75v-84zM182 774h75v84h-75v-84z" />
    <glyph glyph-name="scedilla" unicode="&#xba;" horiz-adv-x="389" 
d="M333 499q-34 13 -70 18t-56 5q-32 0 -61.5 -7.5t-53 -24t-37.5 -43t-14 -64.5q0 -37 18 -61.5t45.5 -42t59 -31.5t59 -29.5t45.5 -35.5t18 -50q0 -22 -9 -39t-25 -28.5t-36.5 -17.5t-42.5 -6q-37 0 -70.5 9t-62.5 23l-6 -62q29 -12 60.5 -17t63.5 -6l-25 -73q19 4 42 4
q17 0 27.5 -10t10.5 -27q0 -19 -14.5 -28t-37.5 -9q-14 0 -27.5 3.5t-25.5 8t-21.5 9.5t-14.5 8l-7 -37l13 -4.5t24.5 -7.5t31 -7t32.5 -3q17 0 36.5 2.5t36 10t27 21t10.5 35.5q0 32 -21.5 48.5t-51.5 16.5q-8 0 -17 -1t-16 -2l15 42q28 1 58.5 9t55 25t40.5 44t16 66
q0 42 -18.5 70t-46.5 48t-60.5 34t-60.5 28t-46.5 30t-18.5 40q0 49 30.5 67t79.5 18q26 0 57 -6.5t56 -17.5z" />
    <glyph glyph-name="scedilla" unicode="&#xf6c2;" horiz-adv-x="389" 
d="M333 499q-34 13 -70 18t-56 5q-32 0 -61.5 -7.5t-53 -24t-37.5 -43t-14 -64.5q0 -37 18 -61.5t45.5 -42t59 -31.5t59 -29.5t45.5 -35.5t18 -50q0 -22 -9 -39t-25 -28.5t-36.5 -17.5t-42.5 -6q-37 0 -70.5 9t-62.5 23l-6 -62q29 -12 60.5 -17t63.5 -6l-25 -73q19 4 42 4
q17 0 27.5 -10t10.5 -27q0 -19 -14.5 -28t-37.5 -9q-14 0 -27.5 3.5t-25.5 8t-21.5 9.5t-14.5 8l-7 -37l13 -4.5t24.5 -7.5t31 -7t32.5 -3q17 0 36.5 2.5t36 10t27 21t10.5 35.5q0 32 -21.5 48.5t-51.5 16.5q-8 0 -17 -1t-16 -2l15 42q28 1 58.5 9t55 25t40.5 44t16 66
q0 42 -18.5 70t-46.5 48t-60.5 34t-60.5 28t-46.5 30t-18.5 40q0 49 30.5 67t79.5 18q26 0 57 -6.5t56 -17.5z" />
    <glyph glyph-name="scedilla" unicode="&#x15f;" horiz-adv-x="389" 
d="M333 499q-34 13 -70 18t-56 5q-32 0 -61.5 -7.5t-53 -24t-37.5 -43t-14 -64.5q0 -37 18 -61.5t45.5 -42t59 -31.5t59 -29.5t45.5 -35.5t18 -50q0 -22 -9 -39t-25 -28.5t-36.5 -17.5t-42.5 -6q-37 0 -70.5 9t-62.5 23l-6 -62q29 -12 60.5 -17t63.5 -6l-25 -73q19 4 42 4
q17 0 27.5 -10t10.5 -27q0 -19 -14.5 -28t-37.5 -9q-14 0 -27.5 3.5t-25.5 8t-21.5 9.5t-14.5 8l-7 -37l13 -4.5t24.5 -7.5t31 -7t32.5 -3q17 0 36.5 2.5t36 10t27 21t10.5 35.5q0 32 -21.5 48.5t-51.5 16.5q-8 0 -17 -1t-16 -2l15 42q28 1 58.5 9t55 25t40.5 44t16 66
q0 42 -18.5 70t-46.5 48t-60.5 34t-60.5 28t-46.5 30t-18.5 40q0 49 30.5 67t79.5 18q26 0 57 -6.5t56 -17.5z" />
    <glyph glyph-name="Omacron" unicode="&#x14c;" horiz-adv-x="722" 
d="M54 349q1 -80 20.5 -146.5t58 -114t96 -74t132.5 -26.5t132.5 26.5t96 74t58 114t20.5 146.5q1 71 -17.5 136t-56.5 115t-96 80t-137 30t-137 -30t-96 -80t-56.5 -115t-17.5 -136zM361 650q61 0 106 -26t74.5 -69t43.5 -97t14 -109q0 -56 -14 -109.5t-43.5 -96.5
t-74.5 -69t-106 -26q-62 0 -106.5 26t-74 69t-43.5 96.5t-14 109.5q0 55 14 109t43.5 97t74 69t106.5 26zM239 784h244v54h-244v-54z" />
    <glyph glyph-name="commaaccent" unicode="&#xf004;" horiz-adv-x="222" 
d="M63 -134h39q-2 -25 -14 -36t-27 -11v-34q34 0 55.5 23t21.5 78v64h-75v-84z" />
    <glyph glyph-name="commaaccent" unicode="&#xf6c3;" horiz-adv-x="222" 
d="M63 -134h39q-2 -25 -14 -36t-27 -11v-34q34 0 55.5 23t21.5 78v64h-75v-84z" />
    <glyph glyph-name=".361" unicode="&#xe000;" horiz-adv-x="889" 
d="M817 698h-318q-21 0 -42 1t-42 3l-42 2t-42 1q-75 0 -127.5 -31t-85.5 -81.5t-48.5 -114t-15.5 -129.5t15.5 -129.5t48.5 -114t85.5 -81.5t127.5 -31q21 0 42 1t42 3l42 2t42 1h330v60h-283v269h257v60h-257v249h271v60zM477 60l-58 -4t-69 -2q-9 0 -29 1.5t-45 9.5
t-52 26t-49.5 50.5t-37 83t-14.5 124.5t14.5 124.5t37 83t49.5 50.5t52 26t45.5 9.5t28.5 1.5q39 0 69 -2l58 -4v-578z" />
    <glyph glyph-name="Emacron" unicode="&#x112;" horiz-adv-x="500" 
d="M86 0h354v60h-285v269h259v60h-259v249h273v60h-342v-698zM149 784h244v54h-244v-54z" />
    <glyph glyph-name="uogonek" unicode="&#x173;" 
d="M142 510h-63v-326q0 -42 9.5 -78t30.5 -62t54 -41t80 -15q40 0 67.5 9.5t46.5 24.5t31 33.5t20 35.5h2v-91h21q-14 -8 -34 -21t-39 -30t-32.5 -38.5t-13.5 -46.5q0 -18 8 -31.5t20.5 -22.5t28 -14t31.5 -5q22 0 39.5 6.5t30 16.5t20 21.5t11.5 20.5l-14 8
q-10 -17 -25 -27t-35 -10q-26 0 -39 13.5t-13 36.5q0 13 3.5 26t13 28t26 32t42.5 37h11q-3 31 -3.5 61t-0.5 59v390h-63v-282q0 -32 -7.5 -65t-25 -60t-46.5 -44t-72 -17q-65 0 -93 43t-28 115v310z" />
    <glyph glyph-name="Thorn" horiz-adv-x="500" 
d="M86 0h69v172h96q47 0 87.5 12.5t70.5 37.5t47.5 62t17.5 86q0 99 -59 148.5t-157 49.5h-103v130h-69v-698zM155 508h112q66 0 102 -36t36 -102q0 -47 -17 -74.5t-45 -41.5t-64.5 -18t-75.5 -4h-48v276z" />
    <glyph glyph-name="Eth" horiz-adv-x="667" 
d="M80 389h-69v-60h69v-329h122q87 0 160 19t126.5 61t83.5 108.5t30 161.5q0 93 -27.5 159t-80 108t-127.5 61.5t-169 19.5h-118v-309zM149 638h46q76 0 138.5 -13t107 -45t68.5 -87t24 -139q0 -80 -23.5 -136t-66 -91t-103 -51t-134.5 -16h-57v269h213v60h-213v249z" />
    <glyph glyph-name="emacron" unicode="&#x113;" horiz-adv-x="500" 
d="M421 80q-11 -7 -28.5 -14t-37 -12t-40 -8.5t-37.5 -3.5q-41 0 -72.5 15.5t-52.5 41.5t-32 61.5t-11 76.5h349v32q0 51 -11.5 97t-36 80.5t-63 55t-92.5 20.5q-48 0 -88 -20t-68 -55t-43.5 -84.5t-15.5 -107.5q0 -57 12.5 -106t40 -85t72 -56t107.5 -20q35 0 75 7t73 21
v64zM110 291q0 31 10.5 63t30 57t47 41t62.5 16t60 -15t40.5 -40t22.5 -57t7 -65h-280zM143 634h244v54h-244v-54z" />
    <glyph glyph-name="edotaccent" unicode="&#x117;" horiz-adv-x="500" 
d="M421 80q-11 -7 -28.5 -14t-37 -12t-40 -8.5t-37.5 -3.5q-41 0 -72.5 15.5t-52.5 41.5t-32 61.5t-11 76.5h349v32q0 51 -11.5 97t-36 80.5t-63 55t-92.5 20.5q-48 0 -88 -20t-68 -55t-43.5 -84.5t-15.5 -107.5q0 -57 12.5 -106t40 -85t72 -56t107.5 -20q35 0 75 7t73 21
v64zM110 291q0 31 10.5 63t30 57t47 41t62.5 16t60 -15t40.5 -40t22.5 -57t7 -65h-280zM228 624h75v84h-75v-84z" />
    <glyph glyph-name="gbreve" unicode="&#x11f;" 
d="M118 255q0 37 6.5 75t24 68.5t46.5 50t74 19.5q43 0 72 -16t46.5 -44.5t25 -67.5t7.5 -85q0 -35 -8 -70.5t-26.5 -64.5t-48 -47.5t-72.5 -18.5q-40 0 -68 17.5t-45.5 45.5t-25.5 64t-8 74zM483 510h-63v-58h-2q-18 23 -35.5 36.5t-36.5 21t-40.5 10t-46.5 2.5
q-56 0 -96 -20t-65.5 -55.5t-37 -84.5t-11.5 -107q0 -42 10.5 -87.5t35.5 -82.5t66.5 -61t102.5 -24q49 0 89 22t66 78h2q0 -54 -4.5 -101.5t-22.5 -83.5t-53 -56.5t-96 -20.5q-42 0 -81.5 10.5t-68.5 25.5l-5 -63q20 -6 61.5 -16.5t92.5 -10.5q66 0 111.5 20.5t74 55.5
t41 82t12.5 100v468zM161 719q7 -51 38.5 -83.5t84.5 -32.5t84.5 32.5t38.5 83.5h-30q-9 -32 -36 -44t-57 -12t-57 12t-36 44h-30z" />
    <glyph glyph-name="threequarters" horiz-adv-x="834" 
d="M669 139h-162l160 213h2v-213zM450 91h219v-91h57v91h56v48h-56v282h-68l-208 -281v-49zM207 -22h58l443 742h-58zM118 476h28q17 0 41 -1t45.5 -8t36.5 -22t14 -43q0 -18 -9 -32.5t-23.5 -24t-33.5 -15t-39 -5.5q-31 0 -60.5 4.5t-59.5 16.5l-5 -52q29 -10 57.5 -13.5
t62.5 -3.5q29 0 58.5 7t53.5 21t39.5 36.5t15.5 54.5q0 42 -24.5 72t-72.5 32v2q42 9 68.5 34.5t26.5 63.5q0 28 -13 48t-34 33t-47 18.5t-51 5.5q-12 0 -28 -1t-32 -3.5t-31.5 -6t-27.5 -8.5l4 -52q23 11 49 17t54 6q13 0 30 -1.5t32.5 -8t26.5 -18.5t11 -33
q0 -24 -15 -38.5t-36.5 -22t-44.5 -9.5t-39 -2h-28v-48z" />
    <glyph glyph-name="fraction" unicode="&#x2215;" horiz-adv-x="167" 
d="M-152 -22h57l413 742h-57z" />
    <glyph glyph-name="Edotaccent" unicode="&#x116;" horiz-adv-x="500" 
d="M86 0h354v60h-285v269h259v60h-259v249h273v60h-342v-698zM234 774h75v84h-75v-84z" />
    <glyph glyph-name="Amacron" unicode="&#x100;" horiz-adv-x="667" 
d="M13 0h67l75 187h352l75 -187h72l-277 698h-78zM484 247h-303l152 385zM216 784h244v54h-244v-54z" />
    <glyph glyph-name="imacron" unicode="&#x12b;" horiz-adv-x="222" 
d="M79 0h63v510h-63v-510zM-11 634h244v54h-244v-54z" />
    <glyph glyph-name="Rcommaaccent" unicode="&#x156;" 
d="M157 638h71q36 0 68 -3t56 -15t38 -36t14 -67q0 -36 -16 -60.5t-41 -39.5t-56 -21.5t-61 -6.5h-73v249zM88 0h69v329h57q25 0 43.5 -2t34 -11t29.5 -27.5t29 -52.5l101 -236h76l-119 270q-8 18 -15.5 32t-17 25t-23 17.5t-34.5 9.5v2q32 4 60.5 17t49.5 34t33 48.5
t12 61.5q0 96 -56 138.5t-149 42.5h-180v-698zM250 -134h39q-2 -25 -14 -36t-27 -11v-34q34 0 55.5 23t21.5 78v64h-75v-84z" />
    <glyph glyph-name="Umacron" unicode="&#x16a;" horiz-adv-x="667" 
d="M587 698h-69v-454q0 -43 -11.5 -79t-35 -62t-58 -40.5t-79.5 -14.5t-79.5 14.5t-58 40.5t-35 62t-11.5 79v454h-69v-454q0 -77 25 -127t63 -78.5t82.5 -39.5t82.5 -11t82.5 11t82.5 39.5t63 78.5t25 127v454zM212 784h244v54h-244v-54z" />
    <glyph glyph-name="rcommaaccent" unicode="&#x157;" horiz-adv-x="333" 
d="M79 0h63v252q0 34 6 70.5t20 66t38.5 48.5t62.5 19q26 0 46 -6v66q-8 2 -20.5 4t-23.5 2q-24 0 -44.5 -9t-37 -24.5t-28.5 -35.5t-21 -41h-2v98h-63q1 -14 2 -25.5t1.5 -24.5t0.5 -28v-36v-396zM73 -134h39q-2 -25 -14 -36t-27 -11v-34q34 0 55.5 23t21.5 78v64h-75v-84z
" />
    <glyph glyph-name="Scedilla" unicode="&#xaa;" horiz-adv-x="500" 
d="M194 -84q19 4 42 4q17 0 27.5 -10t10.5 -27q0 -19 -14.5 -28t-37.5 -9q-14 0 -27.5 3.5t-25.5 8t-21.5 9.5t-14.5 8l-7 -37l13 -4.5t24.5 -7.5t31 -7t32.5 -3q17 0 36.5 2.5t36 10t27 21t10.5 35.5q0 32 -21.5 48.5t-51.5 16.5q-8 0 -17 -1t-16 -2l15 43q37 3 73.5 15.5
t64.5 36.5t45.5 59.5t17.5 83.5q0 51 -23.5 86.5t-59.5 62.5t-77 47.5t-77 42t-59.5 46.5t-23.5 60q0 34 13.5 57t35 37t48.5 20t54 6q35 0 69.5 -6.5t57.5 -19.5l11 63q-36 14 -73.5 18.5t-63.5 4.5q-46 0 -86.5 -12.5t-70.5 -36.5t-47 -57.5t-17 -75.5q0 -46 23.5 -79
t59.5 -59t77 -47.5t77 -44t59.5 -48t23.5 -59.5q0 -37 -12.5 -64t-34 -44.5t-50 -26t-60.5 -8.5q-49 0 -86 10.5t-68 30.5l-7 -71q28 -12 67.5 -21t90.5 -9h1z" />
    <glyph glyph-name="Scedilla" unicode="&#xf6c1;" horiz-adv-x="500" 
d="M194 -84q19 4 42 4q17 0 27.5 -10t10.5 -27q0 -19 -14.5 -28t-37.5 -9q-14 0 -27.5 3.5t-25.5 8t-21.5 9.5t-14.5 8l-7 -37l13 -4.5t24.5 -7.5t31 -7t32.5 -3q17 0 36.5 2.5t36 10t27 21t10.5 35.5q0 32 -21.5 48.5t-51.5 16.5q-8 0 -17 -1t-16 -2l15 43q37 3 73.5 15.5
t64.5 36.5t45.5 59.5t17.5 83.5q0 51 -23.5 86.5t-59.5 62.5t-77 47.5t-77 42t-59.5 46.5t-23.5 60q0 34 13.5 57t35 37t48.5 20t54 6q35 0 69.5 -6.5t57.5 -19.5l11 63q-36 14 -73.5 18.5t-63.5 4.5q-46 0 -86.5 -12.5t-70.5 -36.5t-47 -57.5t-17 -75.5q0 -46 23.5 -79
t59.5 -59t77 -47.5t77 -44t59.5 -48t23.5 -59.5q0 -37 -12.5 -64t-34 -44.5t-50 -26t-60.5 -8.5q-49 0 -86 10.5t-68 30.5l-7 -71q28 -12 67.5 -21t90.5 -9h1z" />
    <glyph glyph-name="Scedilla" unicode="&#x15e;" horiz-adv-x="500" 
d="M194 -84q19 4 42 4q17 0 27.5 -10t10.5 -27q0 -19 -14.5 -28t-37.5 -9q-14 0 -27.5 3.5t-25.5 8t-21.5 9.5t-14.5 8l-7 -37l13 -4.5t24.5 -7.5t31 -7t32.5 -3q17 0 36.5 2.5t36 10t27 21t10.5 35.5q0 32 -21.5 48.5t-51.5 16.5q-8 0 -17 -1t-16 -2l15 43q37 3 73.5 15.5
t64.5 36.5t45.5 59.5t17.5 83.5q0 51 -23.5 86.5t-59.5 62.5t-77 47.5t-77 42t-59.5 46.5t-23.5 60q0 34 13.5 57t35 37t48.5 20t54 6q35 0 69.5 -6.5t57.5 -19.5l11 63q-36 14 -73.5 18.5t-63.5 4.5q-46 0 -86.5 -12.5t-70.5 -36.5t-47 -57.5t-17 -75.5q0 -46 23.5 -79
t59.5 -59t77 -47.5t77 -44t59.5 -48t23.5 -59.5q0 -37 -12.5 -64t-34 -44.5t-50 -26t-60.5 -8.5q-49 0 -86 10.5t-68 30.5l-7 -71q28 -12 67.5 -21t90.5 -9h1z" />
    <glyph glyph-name="eth" 
d="M109 255q0 44 11 83t32.5 68t53 45.5t72.5 16.5t72.5 -16.5t53 -45.5t32.5 -68t11 -83t-11 -83t-32.5 -68t-53 -45.5t-72.5 -16.5t-72.5 16.5t-53 45.5t-32.5 68t-11 83zM212 564l108 67q43 -35 73 -82t44 -106h-2q-31 38 -70 58.5t-87 20.5q-62 0 -107 -22t-74 -59
t-43 -85.5t-14 -100.5t14 -100.5t43 -85.5t74 -59t107 -22q122 0 180 79.5t58 228.5q0 115 -33 210.5t-107 159.5l93 57l-30 42l-107 -66q-37 23 -82 39t-100 24l-12 -48q76 -15 135 -51l-91 -57z" />
    <glyph glyph-name="Uogonek" unicode="&#x172;" horiz-adv-x="667" 
d="M150 698h-69v-454q0 -77 25 -127t63 -78.5t82.5 -39.5t82.5 -11h12t13 1q6 1 12.5 1.5t13.5 1.5q-14 -9 -29 -21t-27 -26.5t-19.5 -31t-7.5 -34.5t8 -31.5t20.5 -22.5t28 -14t31.5 -5q22 0 39.5 6.5t30 16.5t20 21.5t11.5 20.5l-14 8q-10 -17 -25 -27t-35 -10
q-26 0 -39 13.5t-13 36.5q0 21 9.5 40t23.5 35t31.5 29t34.5 22q25 12 47.5 31t39 46.5t26.5 64.5t10 84v454h-69v-454q0 -43 -11.5 -79t-35 -62t-58 -40.5t-79.5 -14.5t-79.5 14.5t-58 40.5t-35 62t-11.5 79v454z" />
    <glyph glyph-name="Gbreve" unicode="&#x11e;" horiz-adv-x="722" 
d="M564 73q-12 -8 -31 -12.5t-39.5 -7.5t-41 -4t-36.5 -1q-69 0 -122 22.5t-88.5 62t-54 95t-18.5 121.5q0 65 19 120t55 95.5t88.5 63t120.5 22.5q46 0 92 -7t87 -30l8 64q-18 9 -42 15.5t-49.5 10t-50.5 5.5t-45 2q-81 0 -146 -26.5t-111 -74.5t-70.5 -114.5t-24.5 -145.5
q0 -81 24 -147.5t69.5 -114t110.5 -73.5t148 -26q58 0 110.5 10t106.5 33v347h-231v-60h162v-245zM283 869q7 -51 38.5 -83.5t84.5 -32.5t84.5 32.5t38.5 83.5h-30q-9 -32 -36 -44t-57 -12t-57 12t-36 44h-30z" />
    <glyph glyph-name="onesuperior" horiz-adv-x="361" 
d="M232 705h-52l-103 -80l22 -33l76 58v-366h57v421z" />
    <glyph glyph-name="iogonek" unicode="&#x12f;" horiz-adv-x="222" 
d="M142 710h-63v-84h63v84zM79 0h19q-14 -8 -34 -21t-39 -30t-32.5 -38.5t-13.5 -46.5q0 -18 8 -31.5t20.5 -22.5t28 -14t31.5 -5q22 0 39.5 6.5t30 16.5t20 21.5t11.5 20.5l-14 8q-10 -17 -25 -27t-35 -10q-26 0 -39 13.5t-13 36.5q0 13 3.5 26t13 27.5t26 31.5t42.5 38h15
v510h-63v-510z" />
    <glyph glyph-name="threesuperior" horiz-adv-x="361" 
d="M99 476h28q17 0 41 -1t45.5 -8t36.5 -22t14 -43q0 -18 -9 -32.5t-23.5 -24t-33.5 -15t-39 -5.5q-31 0 -60.5 4.5t-59.5 16.5l-5 -52q29 -10 57.5 -13.5t62.5 -3.5q29 0 58.5 7t53.5 21t39.5 36.5t15.5 54.5q0 42 -24.5 72t-72.5 32v2q42 9 68.5 34.5t26.5 63.5
q0 28 -13 48t-34 33t-47 18.5t-51 5.5q-12 0 -28 -1t-32 -3.5t-31.5 -6t-27.5 -8.5l4 -52q23 11 49 17t54 6q13 0 30 -1.5t32.5 -8t26.5 -18.5t11 -33q0 -24 -15 -38.5t-36.5 -22t-44.5 -9.5t-39 -2h-28v-48z" />
    <glyph glyph-name="Lcommaaccent" unicode="&#x13b;" horiz-adv-x="444" 
d="M80 0h349v60h-280v638h-69v-698zM221 -134h39q-2 -25 -14 -36t-27 -11v-34q34 0 55.5 23t21.5 78v64h-75v-84z" />
    <glyph glyph-name="thorn" 
d="M73 -210h63v303h2q23 -54 61 -79.5t98 -25.5q52 0 91.5 20.5t66 56.5t39.5 84.5t13 105.5q0 58 -11.5 107t-37 84.5t-65.5 55.5t-96 20q-41 0 -69 -12.5t-46.5 -29.5t-29 -35t-14.5 -28h-2v333h-63v-960zM438 255q0 -37 -6.5 -75t-24 -68.5t-46.5 -50t-74 -19.5
q-42 0 -71 20t-46.5 51.5t-25.5 69t-8 72.5t8 72.5t25.5 69t46.5 51.5t71 20q45 0 74 -19.5t46.5 -50t24 -68.5t6.5 -75z" />
    <glyph glyph-name="Iogonek" unicode="&#x12e;" horiz-adv-x="222" 
d="M77 0h31q-14 -8 -34 -21t-39 -30t-32.5 -38.5t-13.5 -46.5q0 -18 8 -31.5t20.5 -22.5t28 -14t31.5 -5q22 0 39.5 6.5t30 16.5t20 21.5t11.5 20.5l-14 8q-10 -17 -25 -27t-35 -10q-26 0 -39 13.5t-13 36.5q0 13 3.5 26t13 27.5t26 31.5t42.5 38h9v698h-69v-698z" />
    <glyph glyph-name="minus" unicode="&#x2212;" horiz-adv-x="600" 
d="M46 219h507v69h-507v-69z" />
    <glyph glyph-name=".362" unicode="&#xe001;" horiz-adv-x="889" 
d="M503 291q0 78 39 127.5t111 49.5q33 0 57.5 -15t40.5 -40t24 -57t8 -65h-280zM852 237v34q0 49 -11.5 94t-36 80t-63 56t-92.5 21q-65 0 -110 -28t-73 -82q-27 59 -77 84.5t-115 25.5q-62 0 -107 -22t-74 -59t-43 -85.5t-14 -100.5t14 -100.5t43 -85.5t74 -59t107 -22
q72 0 120.5 28.5t75.5 75.5q26 -48 73.5 -76t122.5 -28q35 0 75 7t73 21v64q-11 -7 -28.5 -14t-37 -12t-40 -8.5t-37.5 -3.5q-41 0 -72.5 15.5t-52.5 41.5t-32 61.5t-11 76.5h349zM105 255q0 44 11 83t32.5 68t53 45.5t72.5 16.5q48 0 79 -18t49 -48t25 -68.5t7 -78.5
q0 -44 -7.5 -82.5t-25.5 -67.5t-49 -46t-78 -17q-41 0 -72.5 16.5t-53 45.5t-32.5 68t-11 83z" />
    <glyph glyph-name="ncommaaccent" unicode="&#x146;" 
d="M79 0h63v282q0 32 7.5 65t25 60t46.5 44t72 17q65 0 93 -43t28 -115v-310h63v326q0 42 -9.5 78t-30.5 62t-54 41t-80 15q-40 0 -67.5 -9.5t-46.5 -24.5t-31 -33.5t-20 -35.5h-2v91h-61q3 -31 3.5 -61t0.5 -59v-390zM244 -134h39q-2 -25 -14 -36t-27 -11v-34q34 0 55.5 23
t21.5 78v64h-75v-84z" />
    <glyph glyph-name="gcommaaccent" unicode="&#x123;" 
d="M118 255q0 37 6.5 75t24 68.5t46.5 50t74 19.5q43 0 72 -16t46.5 -44.5t25 -67.5t7.5 -85q0 -35 -8 -70.5t-26.5 -64.5t-48 -47.5t-72.5 -18.5q-40 0 -68 17.5t-45.5 45.5t-25.5 64t-8 74zM483 510h-63v-58h-2q-18 23 -35.5 36.5t-36.5 21t-40.5 10t-46.5 2.5
q-56 0 -96 -20t-65.5 -55.5t-37 -84.5t-11.5 -107q0 -42 10.5 -87.5t35.5 -82.5t66.5 -61t102.5 -24q49 0 89 22t66 78h2q0 -54 -4.5 -101.5t-22.5 -83.5t-53 -56.5t-96 -20.5q-42 0 -81.5 10.5t-68.5 25.5l-5 -63q20 -6 61.5 -16.5t92.5 -10.5q66 0 111.5 20.5t74 55.5
t41 82t12.5 100v468zM323 675h-39q2 25 14 36t27 11v34q-34 0 -55.5 -23t-21.5 -78v-64h75v84z" />
    <glyph glyph-name="twosuperior" horiz-adv-x="361" 
d="M45 284h272v48h-197l74 65l40.5 39t38.5 44.5t28.5 50.5t11.5 58t-10.5 53t-28.5 36t-43 20.5t-53 6.5q-29 0 -60 -7.5t-57 -20.5l8 -50q26 14 52.5 22t56.5 8q32 0 55 -18.5t23 -52.5q0 -20 -8.5 -40.5t-23 -42t-33.5 -42.5t-40 -41l-106 -95v-41z" />
    <glyph glyph-name="lcommaaccent" unicode="&#x13c;" horiz-adv-x="222" 
d="M79 0h63v750h-63v-750zM73 -134h39q-2 -25 -14 -36t-27 -11v-34q34 0 55.5 23t21.5 78v64h-75v-84z" />
    <glyph glyph-name="Imacron" unicode="&#x12a;" horiz-adv-x="222" 
d="M77 0h69v698h-69v-698zM-11 784h244v54h-244v-54z" />
    <glyph glyph-name="Idotaccent" unicode="&#x130;" horiz-adv-x="222" 
d="M77 0h69v698h-69v-698zM74 774h75v84h-75v-84z" />
    <glyph glyph-name="Kcommaaccent" unicode="&#x136;" horiz-adv-x="611" 
d="M95 0h69v349l338 -349h95l-367 369l338 329h-90l-314 -313v313h-69v-698zM273 -134h39q-2 -25 -14 -36t-27 -11v-34q34 0 55.5 23t21.5 78v64h-75v-84z" />
    <glyph glyph-name="onequarter" horiz-adv-x="834" 
d="M650 139h-162l160 213h2v-213zM431 91h219v-91h57v91h56v48h-56v282h-68l-208 -281v-49zM130 -22h57l443 742h-57zM226 705h-52l-103 -80l22 -33l76 58v-366h57v421z" />
    <glyph glyph-name="Gcommaaccent" unicode="&#x122;" horiz-adv-x="722" 
d="M564 73q-12 -8 -31 -12.5t-39.5 -7.5t-41 -4t-36.5 -1q-69 0 -122 22.5t-88.5 62t-54 95t-18.5 121.5q0 65 19 120t55 95.5t88.5 63t120.5 22.5q46 0 92 -7t87 -30l8 64q-18 9 -42 15.5t-49.5 10t-50.5 5.5t-45 2q-81 0 -146 -26.5t-111 -74.5t-70.5 -114.5t-24.5 -145.5
q0 -81 24 -147.5t69.5 -114t110.5 -73.5t148 -26q58 0 110.5 10t106.5 33v347h-231v-60h162v-245zM363 -134h39q-2 -25 -14 -36t-27 -11v-34q34 0 55.5 23t21.5 78v64h-75v-84z" />
    <glyph glyph-name="omacron" unicode="&#x14d;" 
d="M40 255q0 -52 14 -100.5t43 -85.5t74 -59t107 -22t107 22t74 59t43 85.5t14 100.5t-14 100.5t-43 85.5t-74 59t-107 22t-107 -22t-74 -59t-43 -85.5t-14 -100.5zM109 255q0 44 11 83t32.5 68t53 45.5t72.5 16.5t72.5 -16.5t53 -45.5t32.5 -68t11 -83t-11 -83t-32.5 -68
t-53 -45.5t-72.5 -16.5t-72.5 16.5t-53 45.5t-32.5 68t-11 83zM156 634h244v54h-244v-54z" />
    <glyph glyph-name="kcommaaccent" unicode="&#x137;" horiz-adv-x="500" 
d="M79 0h63v262l252 -262h87l-279 284l249 226h-81l-228 -209v449h-63v-750zM212 -134h39q-2 -25 -14 -36t-27 -11v-34q34 0 55.5 23t21.5 78v64h-75v-84z" />
    <glyph glyph-name=".E003h" unicode="&#xe003;" horiz-adv-x="600" 
d="M46 319h438v-205h69v274h-507v-69z" />
    </font>
</defs>
</svg>
