<?xml version="1.0" standalone="no"?>
<!DOCTYPE svg PUBLIC "-//W3C//DTD SVG 1.1//EN" "http://www.w3.org/Graphics/SVG/1.1/DTD/svg11.dtd" >
<svg>
<metadata>
Created by FontForge 20090622 at Wed Jun 10 18:45:47 2015
 By deploy user
The digitally encoded machine readable software for producing the Typefaces licensed to you is copyrighted (c) 1991, 2001 Linotype Library GmbH or its affiliated Linotype-Hell companies.  All rights reserved.  This software is now the property of Heidelberger Druckmaschinen AG and its licensors and may not be reproduced, used, displayed, modified, disclosed or transferred without the express written approval of Heidelberger Druckmaschinen AG.
</metadata>
<defs>
<font id="FrutigerLT-BoldCn" horiz-adv-x="500" >
  <font-face 
    font-family="Frutiger LT 47 LightCn"
    font-weight="700"
    font-stretch="normal"
    units-per-em="1000"
    panose-1="2 0 8 3 5 0 0 2 0 4"
    ascent="800"
    descent="-200"
    x-height="515"
    cap-height="698"
    bbox="-112 -250 1000 940"
    underline-thickness="50"
    underline-position="-75"
    unicode-range="U+0020-U+2122"
  />
<missing-glyph 
d="M442 8v496h-384v-496h384zM50 512h400v-512h-400v512z" />
    <glyph glyph-name=".notdef" 
d="M442 8v496h-384v-496h384zM50 512h400v-512h-400v512z" />
    <glyph glyph-name=".null" horiz-adv-x="0" 
 />
    <glyph glyph-name="nonmarkingreturn" horiz-adv-x="260" 
 />
    <glyph glyph-name="space" unicode=" " horiz-adv-x="260" 
 />
    <glyph glyph-name="dollar" unicode="$" horiz-adv-x="520" 
d="M279 298l8 -3q21 -9 35.5 -17.5t23.5 -20.5t12.5 -29t3.5 -42q0 -38 -20.5 -67.5t-62.5 -35.5v215zM233 -95h46v87q86 5 138.5 60t52.5 164q0 60 -30 103t-96 68l-60 23v207q45 -1 80 -13t63 -31l7 105q-18 8 -56 18.5t-94 11.5v79h-46v-81q-39 -3 -73 -17.5t-59.5 -39
t-40.5 -60t-15 -81.5q0 -34 10.5 -60.5t29.5 -48t45.5 -37.5t57.5 -29l40 -16v-236q-47 2 -87 17t-72 37l-8 -114q23 -10 63 -19.5t104 -11.5v-85zM238 429q-24 11 -39 23.5t-23.5 26t-11 26.5t-2.5 25q0 13 3.5 26.5t12.5 25.5t23.5 21t36.5 12v-186z" />
    <glyph glyph-name="percent" unicode="%" horiz-adv-x="833" 
d="M140 510q0 128 57 128t57 -128t-57 -128t-57 128zM52 510q0 -95 37.5 -146.5t107.5 -51.5t107.5 51.5t37.5 146.5t-37.5 146.5t-107.5 51.5t-107.5 -51.5t-37.5 -146.5zM579 188q0 128 57 128t57 -128t-57 -128t-57 128zM491 188q0 -95 37.5 -146.5t107.5 -51.5
t107.5 51.5t37.5 146.5t-37.5 146.5t-107.5 51.5t-107.5 -51.5t-37.5 -146.5zM221 -34h78l316 766h-78z" />
    <glyph glyph-name="ampersand" unicode="&#x26;" horiz-adv-x="648" 
d="M362 560q0 -22 -8.5 -40t-21 -33.5t-28 -27.5t-30.5 -22l-21 23.5t-20.5 27t-16 31t-6.5 35.5q0 35 22.5 55.5t54.5 20.5t53.5 -18t21.5 -52zM384 137q-18 -23 -44.5 -38t-59.5 -15q-17 0 -36.5 7t-36 21.5t-27 35.5t-10.5 50q0 49 22 77t51 46zM492 0h136l-110 140
q22 27 38 59t26 65t14.5 65t4.5 59h-112q0 -38 -7.5 -81t-30.5 -78l-110 143q18 12 40.5 29.5t42 40t33 51t13.5 63.5q0 26 -9.5 53t-30.5 49t-55 36t-82 14q-53 0 -89 -15.5t-59 -39.5t-33 -52t-10 -52q0 -27 6.5 -48.5t17 -40t24 -34.5l26.5 -32q-17 -8 -39.5 -23.5
t-42.5 -39.5t-34 -58t-14 -80q0 -40 13.5 -77t42 -65t71.5 -44.5t102 -16.5q33 0 57.5 5.5t43.5 15.5t34.5 23.5t31.5 29.5z" />
    <glyph glyph-name="quotesingle" unicode="'" horiz-adv-x="260" 
d="M80 502h100v248h-100v-248z" />
    <glyph glyph-name="parenleft" unicode="(" horiz-adv-x="296" 
d="M278 -168q-55 101 -90.5 216.5t-35.5 231.5t35.5 231.5t90.5 216.5h-96l-50.5 -99t-44 -103t-31.5 -114t-12 -132t12 -132t31.5 -114t44 -103.5l50.5 -98.5h96z" />
    <glyph glyph-name="parenright" unicode=")" horiz-adv-x="296" 
d="M18 728q55 -101 90.5 -216.5t35.5 -231.5t-35.5 -231.5t-90.5 -216.5h96l50 98.5t44.5 103.5t31.5 114t12 132t-12 132t-31.5 114t-44.5 103l-50 99h-96z" />
    <glyph glyph-name="asterisk" unicode="*" horiz-adv-x="519" 
d="M123 403l78 -53l60 118l60 -118l78 53l-87 103l125 30l-30 89l-114 -58l16 131h-96l17 -131l-116 58l-31 -89l126 -30z" />
    <glyph glyph-name="plus" unicode="+" horiz-adv-x="600" 
d="M256 0h88v209h209v88h-209v209h-88v-209h-209v-88h209v-209z" />
    <glyph glyph-name="comma" unicode="," horiz-adv-x="260" 
d="M70 128l-52 -248h96l76 248h-120z" />
    <glyph glyph-name="hyphen" unicode="&#xad;" horiz-adv-x="315" 
d="M42 233h231v102h-231v-102z" />
    <glyph glyph-name="hyphen" unicode="&#x2010;" horiz-adv-x="315" 
d="M42 233h231v102h-231v-102z" />
    <glyph glyph-name="period" unicode="." horiz-adv-x="260" 
d="M70 0h120v130h-120v-130z" />
    <glyph glyph-name="slash" unicode="/" horiz-adv-x="278" 
d="M8 -10h84l178 718h-88z" />
    <glyph glyph-name="zero" unicode="0" horiz-adv-x="520" 
d="M164 349q0 58 4 106.5t14.5 83.5t29.5 55t48 20q30 0 48.5 -20t29 -55t14.5 -83.5t4 -106.5t-4 -106.5t-14.5 -84t-29 -55t-48.5 -19.5q-29 0 -48 19.5t-29.5 55t-14.5 84t-4 106.5zM40 349q0 -65 9 -129t33.5 -115t67 -83t110.5 -32t111 32t67 83t33 115t9 129
q0 64 -9 128.5t-33 115.5t-67 83t-111 32t-110.5 -32t-67 -83t-33.5 -115.5t-9 -128.5z" />
    <glyph glyph-name="one" unicode="1" horiz-adv-x="520" 
d="M234 0h124v698h-106l-170 -148l59 -86l93 87v-551z" />
    <glyph glyph-name="two" unicode="2" horiz-adv-x="520" 
d="M62 0h396v102h-254l25 27q44 48 84 97.5t71 99.5t49 99.5t18 96.5q0 38 -10.5 72t-34.5 59.5t-62.5 40t-93.5 14.5q-66 0 -107.5 -13t-65.5 -27l11 -115l21.5 16t29 17.5t38.5 14t51 5.5q42 0 68.5 -27t26.5 -77q0 -39 -18.5 -81t-48 -85t-67 -87l-75.5 -87l-52 -59v-103
z" />
    <glyph glyph-name="three" unicode="3" horiz-adv-x="520" 
d="M50 20q33 -11 73.5 -20.5t92.5 -9.5q48 0 91.5 13t77 39t53.5 65t20 92q0 47 -14 76.5t-35 48t-47 28t-50 16.5v2q17 2 40 10.5t44 26.5t36 48t15 77q0 43 -15.5 75.5t-43 55t-66 34t-84.5 11.5q-60 0 -101 -10.5t-67 -18.5l7 -107q32 15 66.5 24.5t66.5 9.5
q22 0 42 -5.5t36 -17t25.5 -29t9.5 -41.5q0 -33 -14 -53.5t-37 -32t-52 -16t-59 -4.5h-21v-97q21 3 51 3q24 0 48 -5t43.5 -17t31.5 -32.5t12 -50.5q0 -55 -36.5 -85.5t-91.5 -30.5q-51 0 -86 12.5t-55 22.5z" />
    <glyph glyph-name="four" unicode="4" horiz-adv-x="520" 
d="M296 239h-174l172 331h2v-331zM296 0h116v145h78v94h-78v459h-140l-242 -437v-116h266v-145z" />
    <glyph glyph-name="five" unicode="5" horiz-adv-x="520" 
d="M79 698v-362l44.5 13.5t71.5 8.5q37 0 63.5 -10.5t43.5 -28.5t25.5 -41.5t8.5 -49.5q0 -60 -34.5 -98t-97.5 -38q-44 0 -74 10t-56 24l-8 -107q25 -8 66 -18.5t95 -10.5t98 16.5t74.5 48t47.5 76.5t17 103q0 51 -15.5 91t-41.5 67.5t-61.5 42t-75.5 14.5q-28 0 -47 -2.5
t-32 -6.5v160h241v98h-353z" />
    <glyph glyph-name="six" unicode="6" horiz-adv-x="520" 
d="M172 216q0 60 22.5 95.5t67.5 35.5q48 0 69 -37t21 -94q0 -62 -21 -97t-69 -35q-47 0 -68.5 35t-21.5 97zM444 684q-18 7 -49.5 15.5t-79.5 8.5q-80 0 -132.5 -32.5t-83.5 -86.5t-43 -125t-12 -148q0 -68 10.5 -127t36.5 -103.5t69.5 -70t110.5 -25.5q49 0 87.5 16
t64.5 46t39.5 72t13.5 94q0 57 -15.5 99.5t-41 71t-59 42.5t-70.5 14q-51 0 -80.5 -20.5t-47.5 -49.5l-2 2q1 32 8 72.5t24 76t48 60t82 24.5q42 0 69.5 -11t45.5 -19z" />
    <glyph glyph-name="seven" unicode="7" horiz-adv-x="520" 
d="M111 0h138l209 586v112h-396v-102h276z" />
    <glyph glyph-name="eight" unicode="8" horiz-adv-x="520" 
d="M164 185q0 40 16 67t49 50l24 17l26 -16q42 -24 59.5 -48.5t17.5 -65.5q0 -48 -24 -78t-72 -30q-47 0 -71.5 29.5t-24.5 74.5zM40 184q0 -41 15 -76.5t43.5 -61.5t68.5 -41t91 -15q47 0 87.5 12t70.5 36.5t47 62t17 87.5q0 61 -31.5 102t-76.5 65l-26 14q51 26 82.5 68.5
t31.5 100.5q0 42 -16.5 73.5t-44 53t-63.5 32.5t-74 11q-44 0 -81 -12t-64 -35.5t-42 -58t-15 -79.5q0 -61 29.5 -98.5t81.5 -63.5l-35 -17q-41 -20 -68.5 -61t-27.5 -99zM176 521q0 45 24.5 70.5t61.5 25.5q44 0 63 -24t19 -67q0 -23 -7 -41t-18.5 -32.5t-24.5 -26
l-25 -21.5q-17 10 -33.5 21.5t-30 25t-21.5 30.5t-8 39z" />
    <glyph glyph-name="nine" unicode="9" horiz-adv-x="520" 
d="M168 482q0 62 21 97t69 35q47 0 68.5 -35t21.5 -97q0 -60 -22.5 -95.5t-67.5 -35.5q-48 0 -69 37t-21 94zM76 14q18 -7 49.5 -15.5t79.5 -8.5q80 0 132.5 32.5t83 86.5t43 125t12.5 148q0 67 -10.5 126.5t-36.5 104t-69.5 70t-110.5 25.5q-50 0 -88 -16t-64 -46
t-39.5 -72t-13.5 -94q0 -57 15.5 -99.5t41 -71t59 -42.5t70.5 -14q51 0 80.5 20.5t47.5 49.5l2 -2q-2 -32 -8.5 -72.5t-23.5 -76t-48 -60t-82 -24.5q-42 0 -69.5 11t-45.5 19z" />
    <glyph glyph-name="colon" unicode=":" horiz-adv-x="260" 
d="M70 0h120v130h-120v-130zM70 385h120v130h-120v-130z" />
    <glyph glyph-name="semicolon" unicode=";" horiz-adv-x="260" 
d="M18 -120h96l76 248h-120zM70 385h120v130h-120v-130z" />
    <glyph glyph-name="less" unicode="&#x3c;" horiz-adv-x="600" 
d="M553 515l-506 -223v-78l506 -222v88l-394 173l394 174v88z" />
    <glyph glyph-name="equal" unicode="=" horiz-adv-x="600" 
d="M47 314h506v88h-506v-88zM47 104h506v88h-506v-88z" />
    <glyph glyph-name="greater" unicode="&#x3e;" horiz-adv-x="600" 
d="M47 -8l506 222v78l-506 223v-88l394 -174l-394 -173v-88z" />
    <glyph glyph-name="question" unicode="?" horiz-adv-x="463" 
d="M173 204h108v14q0 39 21.5 75.5t47.5 75.5q26 38 47.5 80t21.5 91q0 37 -13.5 68t-39 53t-63 34.5t-85.5 12.5q-54 0 -94.5 -10.5t-55.5 -16.5l6 -109q15 10 47 22t68 12q42 0 72 -25.5t30 -75.5q0 -35 -18 -66.5t-40 -62.5q-23 -32 -41.5 -64t-18.5 -68v-40zM167 0h120
v126h-120v-126z" />
    <glyph glyph-name="at" unicode="@" horiz-adv-x="800" 
d="M280 308q0 31 10 59t26.5 49.5t38.5 34t47 12.5q43 0 66.5 -23.5t23.5 -59.5q0 -26 -9.5 -54.5t-27 -52t-42 -38.5t-54.5 -15q-35 0 -57 24.5t-22 63.5zM646 148q-37 -42 -96 -65t-127 -23q-64 0 -118.5 18.5t-94.5 54.5t-62.5 89.5t-22.5 124.5q0 61 21 114t59 92.5
t91 62t118 22.5q55 0 104.5 -15.5t86.5 -46t58.5 -75.5t21.5 -103q0 -38 -11.5 -72t-29 -59.5t-38.5 -40t-41 -14.5q-26 0 -26 25q0 9 3.5 22.5l6.5 24.5l67 247h-74l-16 -52q-20 37 -51 52.5t-66 15.5q-42 0 -81.5 -18.5t-69.5 -51.5t-48 -79.5t-18 -102.5q0 -34 9.5 -63
t26.5 -50.5t41.5 -33.5t54.5 -12q42 0 74.5 17.5t53.5 38.5h2q2 -29 19.5 -42.5t40.5 -13.5q29 0 71 16.5t80.5 51t66 86.5t27.5 123q0 67 -27.5 121.5t-74 93t-109.5 59.5t-133 21q-78 0 -146 -25.5t-119 -72.5t-80 -113.5t-29 -147.5q0 -86 29 -152.5t80 -112.5t120 -70
t149 -24q92 0 172 41.5t129 116.5h-74z" />
    <glyph glyph-name="A" unicode="A" horiz-adv-x="611" 
d="M211 266l96 326h2l88 -326h-186zM473 0h132l-225 698h-140l-234 -698h128l50 168h240z" />
    <glyph glyph-name="B" unicode="B" horiz-adv-x="556" 
d="M198 604h63q46 0 74.5 -24.5t28.5 -69.5q0 -43 -26 -73.5t-74 -30.5h-66v198zM198 312h67q59 0 85 -30.5t26 -76.5q0 -49 -27.5 -78t-79.5 -29h-71v214zM74 0h213q46 0 86 13t69 37.5t45.5 61t16.5 84.5q0 44 -13 74t-32.5 49t-43 29t-43.5 15v2q17 6 37.5 16.5t38 28.5
t29 46t11.5 70q0 89 -50.5 130.5t-159.5 41.5h-204v-698z" />
    <glyph glyph-name="C" unicode="C" horiz-adv-x="556" 
d="M511 132q-22 -16 -53.5 -26t-78.5 -10q-40 0 -75.5 14t-62.5 44.5t-43 78.5t-16 116t16 116t43 78.5t62.5 44.5t75.5 14q49 0 80.5 -14t51.5 -24l7 115q-20 8 -60.5 18.5t-94.5 10.5q-78 0 -137.5 -27.5t-99 -75.5t-60 -114t-20.5 -142q0 -77 20.5 -142.5t60.5 -113.5
t100 -75.5t140 -27.5q48 0 89.5 7t61.5 18z" />
    <glyph glyph-name="D" unicode="D" horiz-adv-x="630" 
d="M68 0h182q73 0 134 21.5t105.5 65t69.5 109t25 153.5q0 174 -84.5 261.5t-249.5 87.5h-182v-698zM196 600h43q54 0 93.5 -17.5t65 -50.5t38 -79.5t12.5 -103.5t-12.5 -103.5t-38 -79.5t-65 -50.5t-93.5 -17.5h-43v502z" />
    <glyph glyph-name="E" unicode="E" 
d="M74 0h377v102h-249v206h226v102h-226v186h239v102h-367v-698z" />
    <glyph glyph-name="F" unicode="F" horiz-adv-x="463" 
d="M74 0h128v304h215v102h-215v190h225v102h-353v-698z" />
    <glyph glyph-name="G" unicode="G" horiz-adv-x="648" 
d="M352 293h106v-188q-13 -5 -32 -9t-42 -4q-49 0 -87 18t-63.5 51.5t-38.5 81t-13 106.5q0 54 13.5 101t40 81.5t65.5 54.5t90 20q48 0 89 -12t72 -31l7 115q-20 9 -65 19.5t-105 10.5q-84 0 -148 -27t-107.5 -75t-65.5 -113.5t-22 -143.5t22 -143.5t65.5 -113.5t107.5 -75
t148 -27q69 0 115.5 11t73.5 25v365h-226v-98z" />
    <glyph glyph-name="H" unicode="H" horiz-adv-x="611" 
d="M74 0h128v308h207v-308h128v698h-128v-284h-207v284h-128v-698z" />
    <glyph glyph-name="I" unicode="I" horiz-adv-x="278" 
d="M75 0h128v698h-128v-698z" />
    <glyph glyph-name="J" unicode="J" horiz-adv-x="352" 
d="M158 698v-493q0 -21 -3.5 -39t-12.5 -32t-24.5 -22t-38.5 -8q-20 0 -34 4t-25 9v-110q17 -8 43 -12.5t49 -4.5q35 0 66.5 12t55.5 38t38 66.5t14 97.5v494h-128z" />
    <glyph glyph-name="K" unicode="K" horiz-adv-x="574" 
d="M74 0h128v328h3l210 -328h155l-256 369l237 329h-147l-199 -296h-3v296h-128v-698z" />
    <glyph glyph-name="L" unicode="L" horiz-adv-x="444" 
d="M68 0h358v102h-230v596h-128v-698z" />
    <glyph glyph-name="M" unicode="M" horiz-adv-x="815" 
d="M626 0h116v698h-185l-147 -521h-2l-144 521h-191v-698h116v582h2l167 -582h91l175 582h2v-582z" />
    <glyph glyph-name="N" unicode="N" horiz-adv-x="648" 
d="M73 0h116v544h2l231 -544h153v698h-116v-548h-2l-232 548h-152v-698z" />
    <glyph glyph-name="O" unicode="O" horiz-adv-x="648" 
d="M178 349q0 72 11.5 122t31 80.5t46.5 44.5t57 14t57 -14t46.5 -44.5t31 -80.5t11.5 -122t-11.5 -122t-31 -80.5t-46.5 -44.5t-57 -14t-57 14t-46.5 44.5t-31 80.5t-11.5 122zM46 349q0 -94 23 -162t61.5 -111.5t89 -64.5t104.5 -21t104.5 21t89 64.5t61.5 111.5t23 162
t-23 162t-61.5 111.5t-89 64.5t-104.5 21t-104.5 -21t-89 -64.5t-61.5 -111.5t-23 -162z" />
    <glyph glyph-name="P" unicode="P" horiz-adv-x="519" 
d="M196 371v229h48q60 0 87.5 -28.5t27.5 -85.5t-27.5 -86t-87.5 -29h-48zM68 0h128v273h72q109 0 164 56.5t55 156.5t-55 156t-164 56h-200v-698z" />
    <glyph glyph-name="Q" unicode="Q" horiz-adv-x="648" 
d="M178 349q0 72 11.5 122t31 80.5t46.5 44.5t57 14t57 -14t46.5 -44.5t31 -80.5t11.5 -122t-11.5 -122t-31 -80.5t-46.5 -44.5t-57 -14t-57 14t-46.5 44.5t-31 80.5t-11.5 122zM444 -133h147l-138 156q32 18 59.5 47t47.5 69.5t31 92.5t11 117q0 94 -23 162t-61.5 111.5
t-89 64.5t-104.5 21t-104.5 -21t-89 -64.5t-61.5 -111.5t-23 -162t23 -162t61.5 -111.5t89 -64.5t104.5 -21h22z" />
    <glyph glyph-name="R" unicode="R" horiz-adv-x="556" 
d="M68 0h128v300h29q35 0 59.5 -15.5t37.5 -57.5l69 -227h136l-91 266q-8 24 -17.5 39.5t-19.5 24t-20 12t-20 5.5v3q59 9 97 52t38 112q0 48 -15 82.5t-42.5 57t-66 33.5t-84.5 11h-218v-698zM196 394v206h52q54 0 84 -20t30 -80q0 -54 -31.5 -80t-82.5 -26h-52z" />
    <glyph glyph-name="S" unicode="S" 
d="M58 21q52 -31 159 -31q50 0 92.5 13t74 39t49.5 65.5t18 92.5q0 37 -7.5 64.5t-22.5 49t-37.5 39.5t-53.5 35l-75 42q-15 8 -28 16.5t-23.5 19t-16.5 24.5t-6 34q0 36 24.5 59t72.5 23q45 0 76.5 -10.5t54.5 -19.5l6 107q-15 5 -52.5 15t-93.5 10q-44 0 -84 -12t-70 -36
t-48 -59.5t-18 -82.5q0 -68 31 -111t83 -72l65 -36q23 -13 40 -24t28.5 -23t17 -26t5.5 -33q0 -26 -8.5 -45t-23.5 -31.5t-34 -18.5t-40 -6q-51 0 -90 15.5t-58 27.5z" />
    <glyph glyph-name="T" unicode="T" horiz-adv-x="481" 
d="M177 0h128v596h155v102h-439v-102h156v-596z" />
    <glyph glyph-name="U" unicode="U" horiz-adv-x="611" 
d="M68 698v-452q0 -69 18.5 -117.5t51 -79.5t75.5 -45t93 -14q49 0 92 14t75.5 45t51 79.5t18.5 117.5v452h-128v-452q0 -87 -27 -120.5t-82 -33.5q-56 0 -83 33.5t-27 120.5v452h-128z" />
    <glyph glyph-name="V" unicode="V" horiz-adv-x="574" 
d="M218 0h135l213 698h-132l-145 -538h-2l-141 538h-138z" />
    <glyph glyph-name="W" unicode="W" horiz-adv-x="833" 
d="M522 0h153l144 698h-116l-102 -538h-2l-104 538h-156l-105 -538h-2l-98 538h-120l141 -698h151l110 572h2z" />
    <glyph glyph-name="X" unicode="X" horiz-adv-x="574" 
d="M422 0h146l-202 370l188 328h-137l-129 -225l-110 225h-147l183 -328l-208 -370h141l145 260z" />
    <glyph glyph-name="Y" unicode="Y" horiz-adv-x="556" 
d="M214 0h128v277l206 421h-138l-128 -279l-136 279h-138l206 -418v-280z" />
    <glyph glyph-name="Z" unicode="Z" 
d="M36 0h428v102h-282l278 490v106h-416v-102h267l-275 -484v-112z" />
    <glyph glyph-name="bracketleft" unicode="[" horiz-adv-x="296" 
d="M74 -168h182v78h-86v740h86v78h-182v-896z" />
    <glyph glyph-name="backslash" unicode="\" horiz-adv-x="278" 
d="M186 -10h84l-174 718h-88z" />
    <glyph glyph-name="bracketright" unicode="]" horiz-adv-x="296" 
d="M40 -168h182v896h-182v-78h86v-740h-86v-78z" />
    <glyph glyph-name="asciicircum" unicode="^" horiz-adv-x="600" 
d="M60 294h88l152 313l152 -313h88l-198 404h-84z" />
    <glyph glyph-name="underscore" unicode="_" 
d="M0 -125h500v50h-500v-50z" />
    <glyph glyph-name="grave" unicode="`" horiz-adv-x="222" 
d="M-10 716l102 -144h78l-64 144h-116z" />
    <glyph glyph-name="a" unicode="a" 
d="M88 385q9 7 23.5 16t33 16.5t40 12.5t44.5 5q27 0 45 -8t29.5 -21.5t16.5 -31.5t5 -37v-19h-25q-59 0 -108.5 -7.5t-85.5 -27.5t-56.5 -54t-20.5 -86q0 -36 13 -64t34 -47.5t49 -29.5t58 -10q55 0 88 23t56 55h2q0 -19 1 -37t6 -33h112q-2 15 -4.5 39t-2.5 52v225
q0 48 -8.5 86.5t-30 65.5t-60 41t-98.5 14q-59 0 -98 -13t-65 -25zM325 223q0 -69 -22.5 -108t-78.5 -39q-36 0 -57.5 22t-21.5 57q0 56 44.5 76.5t124.5 20.5h11v-29z" />
    <glyph glyph-name="b" unicode="b" horiz-adv-x="537" 
d="M58 750v-662q0 -28 -1 -51t-3 -37h116q2 11 3 32.5t1 47.5h3q7 -17 18.5 -32.5t27.5 -28t38.5 -20t52.5 -7.5q48 0 82.5 21.5t56 57.5t32 84t10.5 102q0 127 -47 196.5t-131 69.5q-28 0 -49.5 -7t-38 -19t-27.5 -26.5t-18 -29.5h-2v309h-124zM182 259q0 37 5.5 69t17 55
t29.5 36t44 13q52 0 72.5 -46.5t20.5 -123.5q0 -90 -18.5 -134.5t-72.5 -44.5q-27 0 -46 14t-30.5 38t-16.5 56t-5 68z" />
    <glyph glyph-name="c" unicode="c" horiz-adv-x="426" 
d="M399 111q-13 -8 -39 -16.5t-49 -8.5q-36 0 -62.5 13t-44 36t-26 54t-8.5 67q0 83 32 128t103 45q26 0 48 -8.5t39 -16.5l7 98q-17 7 -48 14t-60 7q-65 0 -112 -21t-77.5 -57t-45 -84.5t-14.5 -103.5t14 -103t43.5 -84t75 -57t109.5 -21q38 0 69 6.5t53 14.5z" />
    <glyph glyph-name="d" unicode="d" horiz-adv-x="537" 
d="M355 750v-309h-2q-7 15 -18 29.5t-27.5 26.5t-38 19t-49.5 7q-84 0 -131 -69.5t-47 -196.5q0 -54 10.5 -102t32 -84t56 -57.5t82.5 -21.5q30 0 52.5 7.5t38.5 20t27 28t19 32.5h3q0 -26 1 -47.5t3 -32.5h116q-2 14 -3 37t-1 51v662h-124zM166 262q0 77 20.5 123.5
t72.5 46.5q25 0 43.5 -13t30 -36t17 -55t5.5 -69q0 -36 -5 -68t-16.5 -56t-30.5 -38t-46 -14q-54 0 -72.5 44.5t-18.5 134.5z" />
    <glyph glyph-name="e" unicode="e" 
d="M428 123q-17 -13 -47.5 -26.5t-87.5 -13.5q-72 0 -101.5 37.5t-29.5 103.5h298v24q0 79 -16.5 131.5t-45 84.5t-65.5 45.5t-79 13.5q-49 0 -88.5 -21t-67 -58t-42 -86.5t-14.5 -107.5q0 -52 14 -99t43 -82t74 -56t107 -21q56 0 95 12.5t59 20.5zM162 302q0 25 5 50
t16.5 44t29 31t41.5 12q86 0 86 -137h-178z" />
    <glyph glyph-name="f" unicode="f" horiz-adv-x="333" 
d="M96 0h124v424h94v91h-94v89q0 29 16 46.5t43 17.5q14 0 26 -2.5t23 -5.5l5 90q-18 4 -41 8t-48 4q-42 0 -70.5 -12t-46 -31.5t-24.5 -45t-7 -53.5v-105h-86v-91h86v-424z" />
    <glyph glyph-name="g" unicode="g" horiz-adv-x="537" 
d="M170 263q0 79 20.5 122t69.5 44q45 1 72.5 -41.5t27.5 -123.5q0 -88 -25 -130.5t-84 -42.5q-16 0 -30.5 10t-26 31t-18 53.5t-6.5 77.5zM65 -190q23 -8 69 -20t108 -12q71 0 117 20.5t73 57t37.5 87.5t10.5 111v380q0 20 1 40.5t3 40.5h-112q-1 -20 -2.5 -40t-1.5 -40h-4
q-10 17 -22 33t-28 28t-37 19.5t-49 7.5q-51 0 -86 -22t-57.5 -58.5t-32.5 -85t-10 -101.5q0 -78 18 -128t45 -78.5t58.5 -39t58.5 -10.5q30 0 52.5 8t38.5 20.5t26.5 28t18.5 30.5h2v-49q0 -30 -5 -59.5t-19.5 -52t-41 -36.5t-70.5 -14q-49 0 -89.5 16t-62.5 28z" />
    <glyph glyph-name="h" unicode="h" horiz-adv-x="519" 
d="M56 0h124v300q0 25 4.5 47t15 38.5t27.5 26t41 9.5q38 0 54.5 -26t16.5 -86v-309h124v332q0 39 -7.5 73.5t-25 61t-46.5 41.5t-73 15q-29 0 -49.5 -7t-35 -18t-25 -24t-18.5 -25h-3v301h-124v-750z" />
    <glyph glyph-name="i" unicode="i" horiz-adv-x="260" 
d="M68 0h124v515h-124v-515zM66 612h128v122h-128v-122z" />
    <glyph glyph-name="j" unicode="j" horiz-adv-x="260" 
d="M68 515v-556q0 -30 -3 -47t-9 -26t-14.5 -11.5t-18.5 -2.5q-11 0 -20 2t-17 4l-4 -94q15 -2 34.5 -4t41.5 -2q40 0 66 12t41 37t21 63t6 89v536h-124zM66 612h128v122h-128v-122z" />
    <glyph glyph-name="k" unicode="k" 
d="M56 0h124v251h3l156 -251h144l-198 282l181 233h-132l-151 -206h-3v441h-124v-750z" />
    <glyph glyph-name="l" unicode="l" horiz-adv-x="260" 
d="M68 0h124v750h-124v-750z" />
    <glyph glyph-name="m" unicode="m" horiz-adv-x="778" 
d="M53 0h124v312q0 21 5.5 41t16 35t26 24t36.5 9q35 0 50.5 -24t15.5 -72v-325h124v312q0 21 5.5 41t16 35t26 24t36.5 9q35 0 50.5 -24t15.5 -72v-325h124v318q0 47 -7.5 85t-24.5 64.5t-45.5 41t-70.5 14.5q-29 0 -50.5 -8t-38 -20t-28.5 -26.5t-21 -27.5l-14.5 24.5
t-23.5 27t-37 21.5t-55 9q-27 0 -48 -8.5t-36.5 -21t-27 -28.5t-18.5 -31h-2q0 20 -1.5 40.5t-2.5 40.5h-124q2 -14 3 -35t1 -49v-431z" />
    <glyph glyph-name="n" unicode="n" horiz-adv-x="519" 
d="M56 0h124v300q0 25 4.5 47t15 38.5t27.5 26t41 9.5q38 0 54.5 -26t16.5 -86v-309h124v332q0 39 -7.5 73.5t-25 61t-46.5 41.5t-73 15q-32 0 -54.5 -9t-38.5 -22.5t-26.5 -28.5t-17.5 -27h1h-3q0 20 -1.5 39.5t-2.5 39.5h-116q2 -17 3 -39t1 -46v-430z" />
    <glyph glyph-name="o" unicode="o" horiz-adv-x="537" 
d="M170 258q0 32 4 64t15.5 57t30.5 40.5t49 15.5t49 -15.5t30 -40.5t15 -57t4 -64t-4 -64t-15 -57.5t-30 -41t-49 -15.5t-49 15.5t-30.5 41t-15.5 57.5t-4 64zM42 258q0 -81 20.5 -132.5t53.5 -81.5t73.5 -41t79.5 -11t79.5 11t73 41t53 81.5t20.5 132.5q0 79 -20.5 130
t-53 81t-73 42t-79.5 12t-79.5 -12t-73.5 -42t-53.5 -81t-20.5 -130z" />
    <glyph glyph-name="p" unicode="p" horiz-adv-x="537" 
d="M58 -216h124v290h2q7 -15 18 -29.5t27.5 -26.5t38 -19t49.5 -7q84 0 131 69.5t47 196.5q0 54 -10.5 102t-32 84t-56 57.5t-82.5 21.5q-30 0 -52.5 -7.5t-38.5 -20t-27.5 -28.5t-18.5 -32h-3q0 26 -1 47.5t-3 32.5h-116q2 -14 3 -37t1 -51v-643zM182 256q0 36 5 68
t16.5 56t30.5 38t46 14q54 0 72.5 -44.5t18.5 -134.5q0 -77 -20.5 -123.5t-72.5 -46.5q-26 0 -44 13t-29.5 36t-17 54.5t-5.5 69.5z" />
    <glyph glyph-name="q" unicode="q" horiz-adv-x="537" 
d="M355 -216h124v643q0 28 1 51t3 37h-116q-2 -11 -3 -32.5t-1 -47.5h-3q-8 16 -19 32t-27 28.5t-38.5 20t-52.5 7.5q-48 0 -82.5 -21.5t-56 -57.5t-32 -84t-10.5 -102q0 -127 47 -196.5t131 -69.5q28 0 49.5 7t38 19t27.5 26.5t18 29.5h2v-290zM166 253q0 90 18.5 134.5
t72.5 44.5q27 0 46 -14t30.5 -38t16.5 -56t5 -68q0 -38 -5.5 -69.5t-17 -54.5t-30 -36t-43.5 -13q-52 0 -72.5 46.5t-20.5 123.5z" />
    <glyph glyph-name="r" unicode="r" horiz-adv-x="352" 
d="M60 0h124v282q0 36 9.5 60.5t25 39t34.5 21t38 6.5q17 0 35 -5v116l-10 2t-11 1q-29 0 -51 -10.5t-38 -25.5t-26 -33t-16 -33h-2q0 23 -1.5 47t-2.5 47h-112q2 -17 3 -39t1 -46v-430z" />
    <glyph glyph-name="s" unicode="s" horiz-adv-x="407" 
d="M36 17q20 -8 57.5 -16.5t85.5 -8.5q42 0 77 10.5t60.5 30t40 47.5t14.5 64q0 22 -6 39.5t-18 32.5t-30 29t-42 29l-61 39q-27 17 -42.5 31t-15.5 35q0 23 16.5 36.5t54.5 13.5q34 0 60 -7t49 -16l7 96q-9 3 -44 12t-85 9q-41 0 -74 -13t-56 -33.5t-35.5 -46.5t-12.5 -53
q0 -30 9.5 -52.5t25.5 -39t35 -29l39 -24.5l51 -30q34 -20 44.5 -35t10.5 -30q0 -30 -23 -40.5t-57 -10.5q-22 0 -42 4t-37 10t-30 11.5l-20 8.5z" />
    <glyph glyph-name="t" unicode="t" horiz-adv-x="352" 
d="M102 515h-82v-91h82v-282q0 -81 37.5 -115.5t106.5 -34.5q28 0 48.5 5t34.5 12v88q-7 -4 -18.5 -7.5t-28.5 -3.5q-27 0 -41.5 14.5t-14.5 56.5v267h103v91h-103v144l-124 -38v-106z" />
    <glyph glyph-name="u" unicode="u" horiz-adv-x="519" 
d="M463 515h-124v-295q0 -25 -4 -47.5t-14 -40t-26 -28t-41 -10.5q-39 0 -56.5 26t-17.5 86v309h-124v-332q0 -39 7.5 -73.5t25 -61t46.5 -41.5t73 -15q30 0 52 8t38 21t27 28.5t20 29.5l-1 1l3 -1q0 -20 1.5 -39.5t2.5 -39.5h116q-2 17 -3 39t-1 46v430z" />
    <glyph glyph-name="v" unicode="v" horiz-adv-x="481" 
d="M167 0h146l158 515h-120l-106 -397h-2l-105 397h-128z" />
    <glyph glyph-name="w" unicode="w" horiz-adv-x="741" 
d="M464 0h135l137 515h-120l-83 -401h-2l-85 401h-141l-87 -401h-2l-83 401h-128l139 -515h136l90 401h2z" />
    <glyph glyph-name="x" unicode="x" horiz-adv-x="463" 
d="M2 0h132l95 191l95 -191h137l-155 278l143 237h-128l-85 -165l-81 165h-140l142 -237z" />
    <glyph glyph-name="y" unicode="y" horiz-adv-x="463" 
d="M133 515h-128l171 -520l-9 -44q-12 -40 -26.5 -58t-42.5 -17q-14 0 -25 3t-22 7l-7 -95q14 -5 34 -9t45 -4q31 0 55 9.5t41.5 26t30 39t20.5 49.5l188 613h-120l-99 -389h-2z" />
    <glyph glyph-name="z" unicode="z" horiz-adv-x="407" 
d="M28 0h351v94h-223l216 315v106h-337v-94h213l-220 -314v-107z" />
    <glyph glyph-name="braceleft" unicode="{" horiz-adv-x="333" 
d="M313 -168v70h-45q-15 0 -25 6.5t-15.5 17.5t-7.5 24.5t-2 27.5v178q0 36 -10 59.5t-24 37t-29 19.5t-25 7v2q10 2 25 8.5t29 20.5t24 36t10 55v181q0 14 2 27.5t7.5 24.5t15.5 17.5t25 6.5h45v70h-78q-21 0 -41.5 -8t-36 -24t-25.5 -39.5t-10 -54.5v-187q0 -24 -8 -42.5
t-20.5 -31t-28 -19.5t-31.5 -7v-70q16 0 31.5 -7t28 -20t20.5 -33t8 -45v-182q0 -31 10 -54.5t25.5 -39.5t36 -24t41.5 -8h78z" />
    <glyph glyph-name="bar" unicode="|" horiz-adv-x="222" 
d="M67 -250h88v1000h-88v-1000z" />
    <glyph glyph-name="braceright" unicode="}" horiz-adv-x="333" 
d="M20 -168h78q21 0 41.5 8t36 24t25.5 39.5t10 54.5v187q0 24 8 42.5t20.5 31t28 19.5t31.5 7v70q-16 0 -31.5 7t-28 20t-20.5 32.5t-8 45.5v182q0 31 -10 54.5t-25.5 39.5t-36 24t-41.5 8h-78v-70h45q15 0 25 -6.5t15.5 -17.5t7.5 -24.5t2 -27.5v-178q0 -36 10 -59.5
t24 -37t29 -19.5t25 -7v-2q-10 -2 -25 -8.5t-29 -20.5t-24 -36t-10 -55v-181q0 -14 -2 -27.5t-7.5 -24.5t-15.5 -17.5t-25 -6.5h-45v-70z" />
    <glyph glyph-name="asciitilde" unicode="~" horiz-adv-x="600" 
d="M495 333q-17 -26 -37.5 -48.5t-50.5 -22.5q-24 0 -51 10.5l-55 22.5q-28 13 -55 23t-52 10t-44.5 -8t-34.5 -20t-26 -27t-20 -30l36 -70q17 26 37.5 48.5t50.5 22.5q25 0 51 -10t53 -23q27 -12 54.5 -22.5t54.5 -10.5q25 0 44.5 8.5t34.5 21.5t26 28l20 27z" />
    <glyph glyph-name="Euro" horiz-adv-x="520" 
d="M521 676q-38 18 -73 25t-77 7q-57 0 -103.5 -21t-81 -56.5t-57 -83t-32.5 -99.5h-73l-14 -60h80q-3 -39 0 -78h-66l-14 -60h87q10 -55 33 -102.5t58.5 -82.5t82.5 -55t107 -20q33 0 63.5 4t62.5 14l-6 117q-21 -12 -49.5 -17.5t-51.5 -5.5q-32 0 -58 11.5t-46.5 32
t-35 47.5t-23.5 57h198l13 60h-222q-2 20 -2 39t2 39h236l14 60h-240q8 31 22 59t34 48t46.5 32t59.5 12q22 0 53 -7t50 -21z" />
    <glyph glyph-name="Euro" unicode="&#x20ac;" horiz-adv-x="520" 
d="M521 676q-38 18 -73 25t-77 7q-57 0 -103.5 -21t-81 -56.5t-57 -83t-32.5 -99.5h-73l-14 -60h80q-3 -39 0 -78h-66l-14 -60h87q10 -55 33 -102.5t58.5 -82.5t82.5 -55t107 -20q33 0 63.5 4t62.5 14l-6 117q-21 -12 -49.5 -17.5t-51.5 -5.5q-32 0 -58 11.5t-46.5 32
t-35 47.5t-23.5 57h198l13 60h-222q-2 20 -2 39t2 39h236l14 60h-240q8 31 22 59t34 48t46.5 32t59.5 12q22 0 53 -7t50 -21z" />
    <glyph glyph-name="quotesinglbase" unicode="&#x201a;" horiz-adv-x="260" 
d="M84 128l-52 -248h96l76 248h-120z" />
    <glyph glyph-name="florin" unicode="&#x192;" horiz-adv-x="520" 
d="M112 331h91l-61 -359q-3 -20 -7 -38t-11 -31.5t-18.5 -22t-29.5 -8.5q-11 0 -22.5 4t-24.5 10l-11 -90q14 -6 34.5 -12t47.5 -6q74 0 112.5 54.5t55.5 156.5l55 342h91l11 78h-90l19 113q9 48 23 73t44 25q17 0 28 -6t19 -11l12 87q-11 5 -35 11.5t-56 6.5
q-38 0 -64 -14.5t-44 -39.5t-28.5 -58t-16.5 -69l-21 -118h-92z" />
    <glyph glyph-name="quotedblbase" unicode="&#x201e;" horiz-adv-x="519" 
d="M314 128l-52 -248h96l76 248h-120zM137 128l-52 -248h96l76 248h-120z" />
    <glyph glyph-name="ellipsis" unicode="&#x2026;" horiz-adv-x="1000" 
d="M107 0h120v130h-120v-130zM440 0h120v130h-120v-130zM773 0h120v130h-120v-130z" />
    <glyph glyph-name="dagger" unicode="&#x2020;" horiz-adv-x="520" 
d="M206 0h108v429h139v94h-139v175h-108v-175h-139v-94h139v-429z" />
    <glyph glyph-name="daggerdbl" unicode="&#x2021;" horiz-adv-x="520" 
d="M209 0h102v155h142v88h-142v212h142v88h-142v155h-102v-155h-142v-88h142v-212h-142v-88h142v-155z" />
    <glyph glyph-name="circumflex" unicode="&#x2c6;" horiz-adv-x="222" 
d="M-33 572h88l55 87l54 -87h91l-89 144h-108z" />
    <glyph glyph-name="perthousand" unicode="&#x2030;" horiz-adv-x="926" 
d="M771 60q-29 0 -38 28.5t-9 89.5t9 89.5t38 28.5t38 -28.5t9 -89.5t-9 -89.5t-38 -28.5zM771 -10q66 0 93.5 49t27.5 139t-27.5 139t-93.5 49t-93.5 -49t-27.5 -139t27.5 -139t93.5 -49zM481 60q-29 0 -38 28.5t-9 89.5t9 89.5t38 28.5t38 -28.5t9 -89.5t-9 -89.5
t-38 -28.5zM481 -10q66 0 93.5 49t27.5 139t-27.5 139t-93.5 49t-93.5 -49t-27.5 -139t27.5 -139t93.5 -49zM155 402q-29 0 -38 28.5t-9 89.5t9 89.5t38 28.5t38 -28.5t9 -89.5t-9 -89.5t-38 -28.5zM155 332q66 0 93.5 49t27.5 139t-27.5 139t-93.5 49t-93.5 -49t-27.5 -139
t27.5 -139t93.5 -49zM149 -22h62l276 742h-62z" />
    <glyph glyph-name="Scaron" unicode="&#x160;" 
d="M58 21q52 -31 159 -31q50 0 92.5 13t74 39t49.5 65.5t18 92.5q0 37 -7.5 64.5t-22.5 49t-37.5 39.5t-53.5 35l-75 42q-15 8 -28 16.5t-23.5 19t-16.5 24.5t-6 34q0 36 24.5 59t72.5 23q45 0 76.5 -10.5t54.5 -19.5l6 107q-15 5 -52.5 15t-93.5 10q-44 0 -84 -12t-70 -36
t-48 -59.5t-18 -82.5q0 -68 31 -111t83 -72l65 -36q23 -13 40 -24t28.5 -23t17 -26t5.5 -33q0 -26 -8.5 -45t-23.5 -31.5t-34 -18.5t-40 -6q-51 0 -90 15.5t-58 27.5zM195 731h108l91 144h-88l-55 -87l-54 87h-91z" />
    <glyph glyph-name="guilsinglleft" unicode="&#x2039;" horiz-adv-x="296" 
d="M144 52h100l-98 207l98 207h-100l-106 -207z" />
    <glyph glyph-name="OE" unicode="&#x152;" horiz-adv-x="833" 
d="M551 102v206h214v102h-214v186h228v102h-287q-17 0 -35 1l-35 2q-36 3 -71 3q-77 0 -134.5 -26.5t-95.5 -74t-56.5 -113t-18.5 -142.5q0 -68 13.5 -131.5t46.5 -113t88 -79.5t138 -30q17 0 32.5 1l31.5 2q33 3 63 3h330v102h-238zM423 102q-15 -5 -33.5 -7.5t-35.5 -2.5
q-53 0 -86 21t-52.5 56t-26.5 82t-7 98t7 98t25 82t49.5 56t81.5 21q19 0 39 -2.5t39 -7.5v-494z" />
    <glyph glyph-name="Zcaron" 
d="M36 0h428v102h-282l278 490v106h-416v-102h267l-275 -484v-112zM195 731h108l91 144h-88l-55 -87l-54 87h-91z" />
    <glyph glyph-name="Zcaron" unicode="&#x17d;" 
d="M36 0h428v102h-282l278 490v106h-416v-102h267l-275 -484v-112zM195 731h108l91 144h-88l-55 -87l-54 87h-91z" />
    <glyph glyph-name="quoteleft" unicode="&#x2018;" horiz-adv-x="260" 
d="M44 502h120l52 248h-96z" />
    <glyph glyph-name="quoteright" unicode="&#x2019;" horiz-adv-x="260" 
d="M96 750l-52 -248h96l76 248h-120z" />
    <glyph glyph-name="quotedblleft" unicode="&#x201c;" horiz-adv-x="519" 
d="M85 502h120l52 248h-96zM262 502h120l52 248h-96z" />
    <glyph glyph-name="quotedblright" unicode="&#x201d;" horiz-adv-x="519" 
d="M314 750l-52 -248h96l76 248h-120zM137 750l-52 -248h96l76 248h-120z" />
    <glyph glyph-name="bullet" unicode="&#x2022;" 
d="M75 349q0 -36 13.5 -68t37.5 -56t56 -37.5t68 -13.5t68 13.5t56 37.5t37.5 56t13.5 68t-13.5 68t-37.5 56t-56 37.5t-68 13.5t-68 -13.5t-56 -37.5t-37.5 -56t-13.5 -68z" />
    <glyph glyph-name="endash" unicode="&#x2013;" 
d="M0 240h500v88h-500v-88z" />
    <glyph glyph-name="emdash" unicode="&#x2014;" horiz-adv-x="1000" 
d="M0 240h1000v88h-1000v-88z" />
    <glyph glyph-name="tilde" unicode="&#x2dc;" horiz-adv-x="222" 
d="M19 583q0 16 9 27.5t28 11.5q13 0 27 -5.5l28 -11.5l28 -11.5t29 -5.5q28 0 46 14t28.5 33.5t14.5 39t4 30.5h-62q0 -15 -7 -27t-22 -12q-11 0 -24 5.5l-27.5 11.5t-30.5 11.5t-33 5.5q-28 -1 -46.5 -14.5t-29 -32t-14.5 -38t-4 -32.5h58z" />
    <glyph glyph-name="trademark" unicode="&#x2122;" horiz-adv-x="1000" 
d="M179 282h78v342h127v74h-332v-74h127v-342zM860 282h78v416h-120l-107 -281l-109 281h-120v-416h78v318h2l117 -318h62l117 318h2v-318z" />
    <glyph glyph-name="scaron" unicode="&#x161;" horiz-adv-x="407" 
d="M36 17q20 -8 57.5 -16.5t85.5 -8.5q42 0 77 10.5t60.5 30t40 47.5t14.5 64q0 22 -6 39.5t-18 32.5t-30 29t-42 29l-61 39q-27 17 -42.5 31t-15.5 35q0 23 16.5 36.5t54.5 13.5q34 0 60 -7t49 -16l7 96q-9 3 -44 12t-85 9q-41 0 -74 -13t-56 -33.5t-35.5 -46.5t-12.5 -53
q0 -30 9.5 -52.5t25.5 -39t35 -29l39 -24.5l51 -30q34 -20 44.5 -35t10.5 -30q0 -30 -23 -40.5t-57 -10.5q-22 0 -42 4t-37 10t-30 11.5l-20 8.5zM149 572h108l91 144h-88l-55 -87l-54 87h-91z" />
    <glyph glyph-name="guilsinglright" unicode="&#x203a;" horiz-adv-x="296" 
d="M152 466h-100l98 -207l-98 -207h100l106 207z" />
    <glyph glyph-name="oe" unicode="&#x153;" horiz-adv-x="815" 
d="M749 123q-17 -13 -47.5 -26.5t-87.5 -13.5q-72 0 -101.5 37.5t-29.5 103.5h298v24q0 79 -16.5 131.5t-45 84.5t-65.5 45.5t-79 13.5q-103 0 -150 -93q-12 27 -30 45t-39 28.5t-43.5 15t-43.5 4.5q-39 0 -79.5 -12t-73.5 -42t-53.5 -81t-20.5 -130q0 -81 20.5 -132.5
t53.5 -81.5t73.5 -41t79.5 -11q25 0 49.5 6t46.5 18t38.5 29t25.5 38q9 -15 22.5 -31.5t34 -29.5t49 -21.5t66.5 -8.5q56 0 95 12.5t59 20.5zM483 302q0 25 5 50t16.5 44t29 31t41.5 12q86 0 86 -137h-178zM170 258q0 32 4 64t15.5 57t30.5 40.5t49 15.5t49 -15.5t30 -40.5
t15 -57t4 -64t-4 -64t-15 -57.5t-30 -41t-49 -15.5t-49 15.5t-30.5 41t-15.5 57.5t-4 64z" />
    <glyph glyph-name="zcaron" horiz-adv-x="407" 
d="M28 0h351v94h-223l216 315v106h-337v-94h213l-220 -314v-107zM149 572h108l91 144h-88l-55 -87l-54 87h-91z" />
    <glyph glyph-name="zcaron" unicode="&#x17e;" horiz-adv-x="407" 
d="M28 0h351v94h-223l216 315v106h-337v-94h213l-220 -314v-107zM149 572h108l91 144h-88l-55 -87l-54 87h-91z" />
    <glyph glyph-name="Ydieresis" unicode="&#x178;" horiz-adv-x="556" 
d="M214 0h128v277l206 421h-138l-128 -279l-136 279h-138l206 -418v-280zM146 762h96v110h-96v-110zM314 762h96v110h-96v-110z" />
    <glyph glyph-name="exclamdown" unicode="&#xa1;" horiz-adv-x="370" 
d="M233 309h-96l-16 -492h128zM245 515h-120v-126h120v126z" />
    <glyph glyph-name="cent" unicode="&#xa2;" horiz-adv-x="520" 
d="M267 110q-31 22 -46 60t-15 86q0 75 26 120t83 53zM231 -128h50l18 120q35 0 72 4.5t71 16.5l-7 98q-13 -8 -39 -16.5t-49 -8.5q-18 0 -33 4l51 337q18 -3 34 -10l29 -13l7 98q-10 4 -24.5 9t-32.5 8l18 118h-50l-17 -114h-2q-65 0 -112 -21t-77.5 -57t-45 -84.5
t-14.5 -103.5q0 -47 10 -89t31 -75.5t53.5 -58t77.5 -34.5z" />
    <glyph glyph-name="sterling" unicode="&#xa3;" horiz-adv-x="520" 
d="M54 0h412v98h-225v234h155v78h-155v55q0 31 4.5 58t16.5 47.5t33 32t54 11.5q34 0 57 -5.5t52 -17.5l8 99q-29 7 -61 12.5t-64 5.5q-71 0 -113.5 -22.5t-65 -58t-30 -78.5t-7.5 -83v-56h-71v-78h71v-234h-71v-98z" />
    <glyph glyph-name="currency" unicode="&#xa4;" horiz-adv-x="520" 
d="M20 159l50 -50l52 52q29 -22 64.5 -34t73.5 -12q39 0 74 12t64 34l52 -52l50 50l-52 52q22 29 34 64t12 74t-12 74t-34 64l52 52l-50 50l-52 -52q-29 22 -64 34t-74 12q-38 0 -73.5 -12t-64.5 -34l-52 52l-50 -50l52 -52q-22 -28 -34 -63.5t-12 -74.5t12 -74t34 -64z
M260 189q-33 0 -61.5 12.5t-49.5 34.5t-33 51t-12 62t12 62t33 51t49.5 34.5t61.5 12.5t61.5 -12.5t49.5 -34.5t33 -51t12 -62t-12 -62t-33 -51t-49.5 -34.5t-61.5 -12.5z" />
    <glyph glyph-name="yen" unicode="&#xa5;" horiz-adv-x="520" 
d="M200 0h120v146h152v74h-152v76h152v74h-116l155 328h-128l-123 -279l-123 279h-128l157 -328h-118v-74h152v-76h-152v-74h152v-146z" />
    <glyph glyph-name="brokenbar" unicode="&#xa6;" horiz-adv-x="222" 
d="M67 -175h88v350h-88v-350zM67 325h88v350h-88v-350z" />
    <glyph glyph-name="section" unicode="&#xa7;" horiz-adv-x="519" 
d="M418 679q-17 8 -56.5 18.5t-93.5 10.5q-43 0 -76 -11.5t-55.5 -31t-34 -45t-11.5 -54.5q0 -44 20.5 -77t46.5 -54q-12 -7 -27 -19t-29 -29t-23.5 -37.5t-9.5 -44.5q0 -50 28 -83.5t70 -59.5l67 -41q37 -23 57 -42t20 -49q0 -33 -25 -50.5t-60 -17.5q-22 0 -43 5t-40 11.5
t-34.5 14l-25.5 12.5l-11 -98q9 -4 24.5 -10t36.5 -12t46.5 -10t53.5 -4q52 0 90 13.5t63 36t37 52t12 61.5q0 44 -20.5 72.5t-42.5 44.5q13 13 27 28.5t25.5 34t18.5 39.5t7 45q0 29 -10 51t-26.5 38.5t-37 30t-42.5 25.5l-53 31q-35 20 -54.5 39.5t-19.5 44.5
q0 26 20 42.5t53 16.5q42 0 73 -11.5t54 -22.5zM264 374q21 -12 36 -23t24 -22t13.5 -24.5t4.5 -30.5q0 -29 -10.5 -46.5t-24.5 -34.5l-55 30q-32 18 -53.5 42t-21.5 53q0 16 3.5 28.5t9.5 22t13.5 17l14.5 14.5z" />
    <glyph glyph-name="dieresis" unicode="&#xa8;" horiz-adv-x="222" 
d="M-21 603h96v110h-96v-110zM147 603h96v110h-96v-110z" />
    <glyph glyph-name="copyright" unicode="&#xa9;" horiz-adv-x="800" 
d="M508 285q-5 -40 -31.5 -62.5t-67.5 -22.5q-30 0 -53.5 11.5t-39.5 31.5t-24.5 47.5t-8.5 60.5q0 31 8 57.5t23.5 46t38.5 30.5t54 11q39 0 66 -21.5t35 -57.5h74q-4 38 -19.5 66t-39.5 46.5t-54 27.5t-63 9q-48 0 -85.5 -16.5t-63 -45.5t-39 -69t-13.5 -86
q0 -47 13.5 -87t39.5 -69t64 -46t87 -17q31 0 61 10t53.5 29.5t39 48.5t19.5 67h-74zM41 349q0 -74 28 -139.5t77 -114.5t114.5 -77t139.5 -28t139.5 28t114 77t77 114.5t28.5 139.5t-28.5 139.5t-77 114t-114 77t-139.5 28.5t-139.5 -28.5t-114.5 -77t-77 -114t-28 -139.5z
M125 349q0 59 21.5 111t58.5 90.5t87 61t108 22.5t108 -22.5t87 -61t58.5 -90.5t21.5 -111t-21.5 -111t-58.5 -90.5t-87 -61t-108 -22.5t-108 22.5t-87 61t-58.5 90.5t-21.5 111z" />
    <glyph glyph-name="ordfeminine" unicode="&#xaa;" horiz-adv-x="352" 
d="M79 625q11 9 36 17t55 8q32 0 46 -15t14 -36v-11h-14q-39 0 -72.5 -5.5t-58 -18t-38.5 -33.5t-14 -51q0 -22 9 -38.5t23.5 -27.5t34 -16.5t40.5 -5.5q37 0 58 12.5t36 31.5h3q0 -11 1 -21.5t3 -18.5h78q-2 11 -3.5 23.5t-1.5 29.5v135q0 29 -5.5 52t-20 39t-39.5 24.5
t-63 8.5q-43 0 -69 -7.5t-43 -15.5zM230 528q0 -38 -14.5 -60t-48.5 -22q-23 0 -36.5 11t-13.5 32q0 14 9 24t24 16.5t34 9.5t39 3h7v-14z" />
    <glyph glyph-name="guillemotleft" unicode="&#xab;" horiz-adv-x="519" 
d="M345 52h100l-98 207l98 207h-100l-106 -207zM168 52h100l-98 207l98 207h-100l-106 -207z" />
    <glyph glyph-name="logicalnot" unicode="&#xac;" horiz-adv-x="600" 
d="M465 104h88v298h-506v-88h418v-210z" />
    <glyph glyph-name="registered" unicode="&#xae;" horiz-adv-x="800" 
d="M482 147h88l-109 166q51 8 78 38t27 83q0 34 -8.5 57t-28 37.5t-50.5 21t-76 6.5h-144v-409h78v163h42zM337 490h76q36 0 55.5 -10t19.5 -43q0 -38 -20 -49.5t-53 -11.5h-78v114zM41 349q0 -74 28 -139.5t77 -114.5t114.5 -77t139.5 -28t139.5 28t114 77t77 114.5
t28.5 139.5t-28.5 139.5t-77 114t-114 77t-139.5 28.5t-139.5 -28.5t-114.5 -77t-77 -114t-28 -139.5zM125 349q0 59 21.5 111t58.5 90.5t87 61t108 22.5t108 -22.5t87 -61t58.5 -90.5t21.5 -111t-21.5 -111t-58.5 -90.5t-87 -61t-108 -22.5t-108 22.5t-87 61t-58.5 90.5
t-21.5 111z" />
    <glyph glyph-name="macron" unicode="&#xaf;" horiz-adv-x="222" 
d="M-28 609h278v74h-278v-74z" />
    <glyph glyph-name="degree" unicode="&#xb0;" horiz-adv-x="400" 
d="M57 565q0 -30 11 -56t30.5 -45.5t45.5 -30.5t56 -11t56 11t45.5 30.5t30.5 45.5t11 56t-11 56t-30.5 45.5t-45.5 30.5t-56 11t-56 -11t-45.5 -30.5t-30.5 -45.5t-11 -56zM127 565q0 30 21.5 51.5t51.5 21.5t51.5 -21.5t21.5 -51.5t-21.5 -51.5t-51.5 -21.5t-51.5 21.5
t-21.5 51.5z" />
    <glyph glyph-name="plusminus" unicode="&#xb1;" horiz-adv-x="600" 
d="M256 124h88v147h209v88h-209v147h-88v-147h-209v-88h209v-147zM47 0h506v88h-506v-88z" />
    <glyph glyph-name="twosuperior" unicode="&#xb2;" horiz-adv-x="338" 
d="M37 282h262v74h-149l7 8q28 27 54.5 56.5t46 59t31.5 59t12 57.5q0 23 -7 43.5t-22.5 35.5t-41 24t-62.5 9q-47 0 -74 -8t-43 -16l7 -74q12 7 32 17.5t55 10.5q27 0 43.5 -16.5t16.5 -46.5q0 -20 -12 -43t-31.5 -47t-44 -50l-48.5 -52l-32 -34v-67z" />
    <glyph glyph-name="threesuperior" unicode="&#xb3;" horiz-adv-x="338" 
d="M30 296q23 -7 50.5 -12.5t63.5 -5.5q32 0 61 7.5t51 23.5t35 39t13 55q0 28 -9 45.5t-23.5 28.5t-31.5 16.5t-33 9.5v2q11 1 26 6t29 16t23.5 29t9.5 46q0 52 -38 79t-98 27q-42 0 -69.5 -6.5t-45.5 -11.5l6 -69q21 9 43.5 15t44.5 6q28 0 48.5 -12.5t20.5 -38.5
q0 -20 -9 -32t-21.5 -19.5t-26.5 -10t-24 -2.5q-22 0 -35 5v-67q12 4 35 4q15 0 29.5 -2.5t26 -9.5t19 -18.5t7.5 -29.5q0 -29 -22 -47t-57 -18q-33 0 -56 7.5t-38 13.5z" />
    <glyph glyph-name="acute" unicode="&#xb4;" horiz-adv-x="222" 
d="M52 572h78l102 144h-116z" />
    <glyph glyph-name="mu" unicode="&#xb5;" horiz-adv-x="519" 
d="M56 -216h124v220q15 -12 37 -12q24 0 44 8t35.5 20.5t27.5 28t21 30.5l-1 1l3 -1q0 -20 1.5 -39.5t2.5 -39.5h116q-2 17 -3 39t-1 46v430h-124v-295q0 -25 -4 -47.5t-14 -40t-26 -28t-41 -10.5q-39 0 -56.5 26t-17.5 86v309h-124v-731z" />
    <glyph glyph-name="paragraph" unicode="&#xb6;" horiz-adv-x="600" 
d="M416 -119h96v817h-258q-41 0 -79.5 -10t-67.5 -32t-46.5 -57.5t-17.5 -86.5q0 -46 15 -80t39.5 -56t55 -32.5t61.5 -10.5v-452h96v743h106v-743z" />
    <glyph glyph-name="periodcentered" unicode="&#xb7;" horiz-adv-x="259" 
d="M53 284q0 -32 22.5 -54.5t54.5 -22.5t54.5 22.5t22.5 54.5t-22.5 54.5t-54.5 22.5t-54.5 -22.5t-22.5 -54.5z" />
    <glyph glyph-name="periodcentered" unicode="&#x22c5;" horiz-adv-x="259" 
d="M53 284q0 -32 22.5 -54.5t54.5 -22.5t54.5 22.5t22.5 54.5t-22.5 54.5t-54.5 22.5t-54.5 -22.5t-22.5 -54.5z" />
    <glyph glyph-name="periodcentered" unicode="&#x2219;" horiz-adv-x="259" 
d="M53 284q0 -32 22.5 -54.5t54.5 -22.5t54.5 22.5t22.5 54.5t-22.5 54.5t-54.5 22.5t-54.5 -22.5t-22.5 -54.5z" />
    <glyph glyph-name="cedilla" unicode="&#xb8;" horiz-adv-x="222" 
d="M6 -202q15 -8 44 -14t61 -6q18 0 38 5.5t36 17t26.5 28.5t10.5 41q0 32 -22.5 53t-64.5 21q-13 0 -22 -2t-17 -4l20 62h-44l-31 -88l18 -17q7 3 16 5t23 2q20 0 33 -10t13 -27q0 -18 -13.5 -29.5t-38.5 -11.5q-23 0 -39 4.5t-31 9.5z" />
    <glyph glyph-name="onesuperior" unicode="&#xb9;" horiz-adv-x="338" 
d="M152 282h88v419h-80l-112 -89l44 -56l60 53v-327z" />
    <glyph glyph-name="ordmasculine" unicode="&#xba;" horiz-adv-x="352" 
d="M112 550q0 19 3 37.5t10.5 32t19.5 22t31 8.5t31 -8.5t19.5 -22t10.5 -32t3 -37.5q0 -20 -3 -38t-10.5 -31.5t-19.5 -22t-31 -8.5t-31 8.5t-19.5 22t-10.5 31.5t-3 38zM24 550q0 -47 14 -77.5t36 -48.5t49 -25t53 -7t53 7t49 25t36 48.5t14 77.5t-14 77.5t-36 48.5
t-49 25t-53 7t-53 -7t-49 -25t-36 -48.5t-14 -77.5z" />
    <glyph glyph-name="guillemotright" unicode="&#xbb;" horiz-adv-x="519" 
d="M351 466h-100l98 -207l-98 -207h100l106 207zM174 466h-100l98 -207l-98 -207h100l106 207z" />
    <glyph glyph-name="onequarter" unicode="&#xbc;" horiz-adv-x="778" 
d="M613 149h-113l111 192h2v-192zM613 0h84v83h51v66h-51v270h-108l-155 -262v-74h179v-83zM176 -34h78l313 766h-78zM134 282h88v419h-80l-112 -89l44 -56l60 53v-327z" />
    <glyph glyph-name="onehalf" unicode="&#xbd;" horiz-adv-x="778" 
d="M171 -34h78l313 766h-78zM134 282h88v419h-80l-112 -89l44 -56l60 53v-327zM484 -1h262v74h-149l7 8q28 27 54.5 56.5t46 59t31.5 59t12 57.5q0 23 -7 43.5t-22.5 35.5t-41 24t-62.5 9q-47 0 -74 -8t-43 -16l7 -74q12 7 32 17.5t55 10.5q27 0 43.5 -16.5t16.5 -46.5
q0 -20 -12 -43t-31.5 -47t-44 -50l-48.5 -52l-32 -34v-67z" />
    <glyph glyph-name="threequarters" unicode="&#xbe;" horiz-adv-x="778" 
d="M613 149h-113l111 192h2v-192zM613 0h84v83h51v66h-51v270h-108l-155 -262v-74h179v-83zM199 -34h78l313 766h-78zM30 296q23 -7 50.5 -12.5t63.5 -5.5q32 0 61 7.5t51 23.5t35 39t13 55q0 28 -9 45.5t-23.5 28.5t-31.5 16.5t-33 9.5v2q11 1 26 6t29 16t23.5 29t9.5 46
q0 52 -38 79t-98 27q-42 0 -69.5 -6.5t-45.5 -11.5l6 -69q21 9 43.5 15t44.5 6q28 0 48.5 -12.5t20.5 -38.5q0 -20 -9 -32t-21.5 -19.5t-26.5 -10t-24 -2.5q-22 0 -35 5v-67q12 4 35 4q15 0 29.5 -2.5t26 -9.5t19 -18.5t7.5 -29.5q0 -29 -22 -47t-57 -18q-33 0 -56 7.5
t-38 13.5z" />
    <glyph glyph-name="questiondown" unicode="&#xbf;" horiz-adv-x="463" 
d="M290 311h-108v-14q0 -39 -21.5 -75.5t-47.5 -75.5q-26 -38 -47.5 -80t-21.5 -91q0 -37 13.5 -68t39 -53t63 -34.5t85.5 -12.5q54 0 94.5 10.5t55.5 16.5l-6 109q-15 -10 -47 -22t-68 -12q-42 0 -72 25.5t-30 75.5q0 35 18 66.5t40 62.5q23 32 41.5 64t18.5 68v40z
M296 515h-120v-126h120v126z" />
    <glyph glyph-name="Agrave" unicode="&#xc0;" horiz-adv-x="611" 
d="M211 266l96 326h2l88 -326h-186zM473 0h132l-225 698h-140l-234 -698h128l50 168h240zM185 875l102 -144h78l-64 144h-116z" />
    <glyph glyph-name="Aacute" unicode="&#xc1;" horiz-adv-x="611" 
d="M211 266l96 326h2l88 -326h-186zM473 0h132l-225 698h-140l-234 -698h128l50 168h240zM247 731h78l102 144h-116z" />
    <glyph glyph-name="Acircumflex" unicode="&#xc2;" horiz-adv-x="611" 
d="M211 266l96 326h2l88 -326h-186zM473 0h132l-225 698h-140l-234 -698h128l50 168h240zM162 731h88l55 87l54 -87h91l-89 144h-108z" />
    <glyph glyph-name="Atilde" unicode="&#xc3;" horiz-adv-x="611" 
d="M211 266l96 326h2l88 -326h-186zM473 0h132l-225 698h-140l-234 -698h128l50 168h240zM214 742q0 16 9 27.5t28 11.5q13 0 27 -5.5l28 -11.5l28 -11.5t29 -5.5q28 0 46 14t28.5 33.5t14.5 39t4 30.5h-62q0 -15 -7 -27t-22 -12q-11 0 -24 5.5l-27.5 11.5t-30.5 11.5
t-33 5.5q-28 -1 -46.5 -14.5t-29 -32t-14.5 -38t-4 -32.5h58z" />
    <glyph glyph-name="Adieresis" unicode="&#xc4;" horiz-adv-x="611" 
d="M211 266l96 326h2l88 -326h-186zM473 0h132l-225 698h-140l-234 -698h128l50 168h240zM174 762h96v110h-96v-110zM342 762h96v110h-96v-110z" />
    <glyph glyph-name="Aring" unicode="&#xc5;" horiz-adv-x="611" 
d="M211 266l96 326h2l88 -326h-186zM473 0h132l-225 698h-140l-234 -698h128l50 168h240zM207 833q0 -22 8.5 -41.5t23 -34t34 -23t41.5 -8.5t41.5 8.5t34 23t23 34t8.5 41.5t-8.5 41.5t-23 34t-34 23t-41.5 8.5t-41.5 -8.5t-34 -23t-23 -34t-8.5 -41.5zM257 833q0 23 17 40
t40 17t40 -17t17 -40t-17 -40t-40 -17t-40 17t-17 40z" />
    <glyph glyph-name="AE" unicode="&#xc6;" horiz-adv-x="833" 
d="M425 266h-162l159 344h3v-344zM425 0h354v102h-234v206h212v102h-212v186h225v102h-429l-333 -698h136l77 168h204v-168z" />
    <glyph glyph-name="Ccedilla" unicode="&#xc7;" horiz-adv-x="556" 
d="M511 132q-22 -16 -53.5 -26t-78.5 -10q-40 0 -75.5 14t-62.5 44.5t-43 78.5t-16 116t16 116t43 78.5t62.5 44.5t75.5 14q49 0 80.5 -14t51.5 -24l7 115q-20 8 -60.5 18.5t-94.5 10.5q-78 0 -137.5 -27.5t-99 -75.5t-60 -114t-20.5 -142q0 -68 16 -127.5t48 -106
t79.5 -77.5t110.5 -42l-30 -84l18 -17q7 3 16 5t23 2q20 0 33 -10t13 -27q0 -18 -13.5 -29.5t-38.5 -11.5q-23 0 -39 4.5t-31 9.5l-16 -40q15 -8 44 -14t61 -6q18 0 38 5.5t36 17t26.5 28.5t10.5 41q0 32 -22.5 53t-64.5 21q-13 0 -22 -2t-17 -4l17 53q6 -1 12 -1h13
q48 0 89.5 7t61.5 18z" />
    <glyph glyph-name="Egrave" unicode="&#xc8;" 
d="M74 0h377v102h-249v206h226v102h-226v186h239v102h-367v-698zM139 875l102 -144h78l-64 144h-116z" />
    <glyph glyph-name="Eacute" unicode="&#xc9;" 
d="M74 0h377v102h-249v206h226v102h-226v186h239v102h-367v-698zM201 731h78l102 144h-116z" />
    <glyph glyph-name="Ecircumflex" unicode="&#xca;" 
d="M74 0h377v102h-249v206h226v102h-226v186h239v102h-367v-698zM116 731h88l55 87l54 -87h91l-89 144h-108z" />
    <glyph glyph-name="Edieresis" unicode="&#xcb;" 
d="M74 0h377v102h-249v206h226v102h-226v186h239v102h-367v-698zM128 762h96v110h-96v-110zM296 762h96v110h-96v-110z" />
    <glyph glyph-name="Igrave" unicode="&#xcc;" horiz-adv-x="278" 
d="M75 0h128v698h-128v-698zM18 875l102 -144h78l-64 144h-116z" />
    <glyph glyph-name="Iacute" unicode="&#xcd;" horiz-adv-x="278" 
d="M75 0h128v698h-128v-698zM80 731h78l102 144h-116z" />
    <glyph glyph-name="Icircumflex" unicode="&#xce;" horiz-adv-x="278" 
d="M75 0h128v698h-128v-698zM-5 731h88l55 87l54 -87h91l-89 144h-108z" />
    <glyph glyph-name="Idieresis" unicode="&#xcf;" horiz-adv-x="278" 
d="M75 0h128v698h-128v-698zM7 762h96v110h-96v-110zM175 762h96v110h-96v-110z" />
    <glyph glyph-name="Eth" unicode="&#xd0;" horiz-adv-x="630" 
d="M68 0h182q73 0 134 21.5t105.5 65t69.5 109t25 153.5q0 174 -84.5 261.5t-249.5 87.5h-182v-296h-68v-84h68v-318zM196 600h43q54 0 93.5 -17.5t65 -50.5t38 -79.5t12.5 -103.5t-12.5 -103.5t-38 -79.5t-65 -50.5t-93.5 -17.5h-43v220h130v84h-130v198z" />
    <glyph glyph-name="Ntilde" unicode="&#xd1;" horiz-adv-x="648" 
d="M73 0h116v544h2l231 -544h153v698h-116v-548h-2l-232 548h-152v-698zM232 742q0 16 9 27.5t28 11.5q13 0 27 -5.5l28 -11.5l28 -11.5t29 -5.5q28 0 46 14t28.5 33.5t14.5 39t4 30.5h-62q0 -15 -7 -27t-22 -12q-11 0 -24 5.5l-27.5 11.5t-30.5 11.5t-33 5.5
q-28 -1 -46.5 -14.5t-29 -32t-14.5 -38t-4 -32.5h58z" />
    <glyph glyph-name="Ograve" unicode="&#xd2;" horiz-adv-x="648" 
d="M178 349q0 72 11.5 122t31 80.5t46.5 44.5t57 14t57 -14t46.5 -44.5t31 -80.5t11.5 -122t-11.5 -122t-31 -80.5t-46.5 -44.5t-57 -14t-57 14t-46.5 44.5t-31 80.5t-11.5 122zM46 349q0 -94 23 -162t61.5 -111.5t89 -64.5t104.5 -21t104.5 21t89 64.5t61.5 111.5t23 162
t-23 162t-61.5 111.5t-89 64.5t-104.5 21t-104.5 -21t-89 -64.5t-61.5 -111.5t-23 -162zM203 875l102 -144h78l-64 144h-116z" />
    <glyph glyph-name="Oacute" unicode="&#xd3;" horiz-adv-x="648" 
d="M178 349q0 72 11.5 122t31 80.5t46.5 44.5t57 14t57 -14t46.5 -44.5t31 -80.5t11.5 -122t-11.5 -122t-31 -80.5t-46.5 -44.5t-57 -14t-57 14t-46.5 44.5t-31 80.5t-11.5 122zM46 349q0 -94 23 -162t61.5 -111.5t89 -64.5t104.5 -21t104.5 21t89 64.5t61.5 111.5t23 162
t-23 162t-61.5 111.5t-89 64.5t-104.5 21t-104.5 -21t-89 -64.5t-61.5 -111.5t-23 -162zM265 731h78l102 144h-116z" />
    <glyph glyph-name="Ocircumflex" unicode="&#xd4;" horiz-adv-x="648" 
d="M178 349q0 72 11.5 122t31 80.5t46.5 44.5t57 14t57 -14t46.5 -44.5t31 -80.5t11.5 -122t-11.5 -122t-31 -80.5t-46.5 -44.5t-57 -14t-57 14t-46.5 44.5t-31 80.5t-11.5 122zM46 349q0 -94 23 -162t61.5 -111.5t89 -64.5t104.5 -21t104.5 21t89 64.5t61.5 111.5t23 162
t-23 162t-61.5 111.5t-89 64.5t-104.5 21t-104.5 -21t-89 -64.5t-61.5 -111.5t-23 -162zM180 731h88l55 87l54 -87h91l-89 144h-108z" />
    <glyph glyph-name="Otilde" unicode="&#xd5;" horiz-adv-x="648" 
d="M178 349q0 72 11.5 122t31 80.5t46.5 44.5t57 14t57 -14t46.5 -44.5t31 -80.5t11.5 -122t-11.5 -122t-31 -80.5t-46.5 -44.5t-57 -14t-57 14t-46.5 44.5t-31 80.5t-11.5 122zM46 349q0 -94 23 -162t61.5 -111.5t89 -64.5t104.5 -21t104.5 21t89 64.5t61.5 111.5t23 162
t-23 162t-61.5 111.5t-89 64.5t-104.5 21t-104.5 -21t-89 -64.5t-61.5 -111.5t-23 -162zM232 742q0 16 9 27.5t28 11.5q13 0 27 -5.5l28 -11.5l28 -11.5t29 -5.5q28 0 46 14t28.5 33.5t14.5 39t4 30.5h-62q0 -15 -7 -27t-22 -12q-11 0 -24 5.5l-27.5 11.5t-30.5 11.5
t-33 5.5q-28 -1 -46.5 -14.5t-29 -32t-14.5 -38t-4 -32.5h58z" />
    <glyph glyph-name="Odieresis" unicode="&#xd6;" horiz-adv-x="648" 
d="M178 349q0 72 11.5 122t31 80.5t46.5 44.5t57 14t57 -14t46.5 -44.5t31 -80.5t11.5 -122t-11.5 -122t-31 -80.5t-46.5 -44.5t-57 -14t-57 14t-46.5 44.5t-31 80.5t-11.5 122zM46 349q0 -94 23 -162t61.5 -111.5t89 -64.5t104.5 -21t104.5 21t89 64.5t61.5 111.5t23 162
t-23 162t-61.5 111.5t-89 64.5t-104.5 21t-104.5 -21t-89 -64.5t-61.5 -111.5t-23 -162zM192 762h96v110h-96v-110zM360 762h96v110h-96v-110z" />
    <glyph glyph-name="multiply" unicode="&#xd7;" horiz-adv-x="600" 
d="M238 253l-170 -170l62 -62l170 171l170 -171l62 62l-170 170l170 170l-62 62l-170 -170l-170 170l-62 -62z" />
    <glyph glyph-name="Oslash" unicode="&#xd8;" horiz-adv-x="648" 
d="M191 222q-6 25 -9.5 57t-3.5 70q0 72 11.5 122t31 80.5t46.5 44.5t57 14q35 0 64 -17.5t49 -59.5zM25 13l40 -31l71 89q38 -42 86.5 -61.5t101.5 -19.5q54 0 104.5 21t89 64.5t61.5 111.5t23 162q0 76 -15.5 134.5t-42.5 102.5l79 99l-40 31l-71 -89q-38 42 -86.5 61.5
t-101.5 19.5q-54 0 -104.5 -21t-89 -64.5t-61.5 -111.5t-23 -162q0 -77 15.5 -135.5t42.5 -101.5zM457 476q13 -51 13 -127q0 -72 -11.5 -122t-31 -80.5t-46.5 -44.5t-57 -14q-35 0 -64 18t-49 60z" />
    <glyph glyph-name="Ugrave" unicode="&#xd9;" horiz-adv-x="611" 
d="M68 698v-452q0 -69 18.5 -117.5t51 -79.5t75.5 -45t93 -14q49 0 92 14t75.5 45t51 79.5t18.5 117.5v452h-128v-452q0 -87 -27 -120.5t-82 -33.5q-56 0 -83 33.5t-27 120.5v452h-128zM185 875l102 -144h78l-64 144h-116z" />
    <glyph glyph-name="Uacute" unicode="&#xda;" horiz-adv-x="611" 
d="M68 698v-452q0 -69 18.5 -117.5t51 -79.5t75.5 -45t93 -14q49 0 92 14t75.5 45t51 79.5t18.5 117.5v452h-128v-452q0 -87 -27 -120.5t-82 -33.5q-56 0 -83 33.5t-27 120.5v452h-128zM247 731h78l102 144h-116z" />
    <glyph glyph-name="Ucircumflex" unicode="&#xdb;" horiz-adv-x="611" 
d="M68 698v-452q0 -69 18.5 -117.5t51 -79.5t75.5 -45t93 -14q49 0 92 14t75.5 45t51 79.5t18.5 117.5v452h-128v-452q0 -87 -27 -120.5t-82 -33.5q-56 0 -83 33.5t-27 120.5v452h-128zM162 731h88l55 87l54 -87h91l-89 144h-108z" />
    <glyph glyph-name="Udieresis" unicode="&#xdc;" horiz-adv-x="611" 
d="M68 698v-452q0 -69 18.5 -117.5t51 -79.5t75.5 -45t93 -14q49 0 92 14t75.5 45t51 79.5t18.5 117.5v452h-128v-452q0 -87 -27 -120.5t-82 -33.5q-56 0 -83 33.5t-27 120.5v452h-128zM174 762h96v110h-96v-110zM342 762h96v110h-96v-110z" />
    <glyph glyph-name="Yacute" unicode="&#xdd;" horiz-adv-x="556" 
d="M214 0h128v277l206 421h-138l-128 -279l-136 279h-138l206 -418v-280zM219 731h78l102 144h-116z" />
    <glyph glyph-name="Thorn" unicode="&#xde;" horiz-adv-x="519" 
d="M196 489h48q60 0 87.5 -28.5t27.5 -85.5t-27.5 -86t-87.5 -29h-48v229zM68 0h128v162h72q109 0 164 56.5t55 156.5t-55 156t-164 56h-72v111h-128v-698z" />
    <glyph glyph-name="germandbls" unicode="&#xdf;" horiz-adv-x="537" 
d="M56 0h120v561q0 53 20.5 81.5t63.5 28.5q42 0 63 -29.5t21 -77.5q0 -43 -11.5 -68t-27.5 -37.5t-34 -15.5t-31 -3v-94q16 0 37 -3.5t40 -17t32.5 -41t13.5 -75.5q0 -54 -21.5 -88.5t-72.5 -34.5q-11 0 -20.5 2.5t-14.5 5.5l-6 -91q9 -6 25 -8.5t35 -2.5q52 0 90.5 16
t63.5 45t37 70.5t12 91.5q0 36 -10.5 68t-29 56.5t-45 40t-58.5 18.5v2q16 6 36.5 15.5t38 28.5t29.5 49.5t12 78.5q0 41 -12 75.5t-37 60t-62 40t-87 14.5q-48 0 -86.5 -13t-66 -40.5t-42.5 -69.5t-15 -99v-540z" />
    <glyph glyph-name="agrave" unicode="&#xe0;" 
d="M88 385q9 7 23.5 16t33 16.5t40 12.5t44.5 5q27 0 45 -8t29.5 -21.5t16.5 -31.5t5 -37v-19h-25q-59 0 -108.5 -7.5t-85.5 -27.5t-56.5 -54t-20.5 -86q0 -36 13 -64t34 -47.5t49 -29.5t58 -10q55 0 88 23t56 55h2q0 -19 1 -37t6 -33h112q-2 15 -4.5 39t-2.5 52v225
q0 48 -8.5 86.5t-30 65.5t-60 41t-98.5 14q-59 0 -98 -13t-65 -25zM325 223q0 -69 -22.5 -108t-78.5 -39q-36 0 -57.5 22t-21.5 57q0 56 44.5 76.5t124.5 20.5h11v-29zM129 716l102 -144h78l-64 144h-116z" />
    <glyph glyph-name="aacute" unicode="&#xe1;" 
d="M88 385q9 7 23.5 16t33 16.5t40 12.5t44.5 5q27 0 45 -8t29.5 -21.5t16.5 -31.5t5 -37v-19h-25q-59 0 -108.5 -7.5t-85.5 -27.5t-56.5 -54t-20.5 -86q0 -36 13 -64t34 -47.5t49 -29.5t58 -10q55 0 88 23t56 55h2q0 -19 1 -37t6 -33h112q-2 15 -4.5 39t-2.5 52v225
q0 48 -8.5 86.5t-30 65.5t-60 41t-98.5 14q-59 0 -98 -13t-65 -25zM325 223q0 -69 -22.5 -108t-78.5 -39q-36 0 -57.5 22t-21.5 57q0 56 44.5 76.5t124.5 20.5h11v-29zM191 572h78l102 144h-116z" />
    <glyph glyph-name="acircumflex" unicode="&#xe2;" 
d="M88 385q9 7 23.5 16t33 16.5t40 12.5t44.5 5q27 0 45 -8t29.5 -21.5t16.5 -31.5t5 -37v-19h-25q-59 0 -108.5 -7.5t-85.5 -27.5t-56.5 -54t-20.5 -86q0 -36 13 -64t34 -47.5t49 -29.5t58 -10q55 0 88 23t56 55h2q0 -19 1 -37t6 -33h112q-2 15 -4.5 39t-2.5 52v225
q0 48 -8.5 86.5t-30 65.5t-60 41t-98.5 14q-59 0 -98 -13t-65 -25zM325 223q0 -69 -22.5 -108t-78.5 -39q-36 0 -57.5 22t-21.5 57q0 56 44.5 76.5t124.5 20.5h11v-29zM106 572h88l55 87l54 -87h91l-89 144h-108z" />
    <glyph glyph-name="atilde" unicode="&#xe3;" 
d="M88 385q9 7 23.5 16t33 16.5t40 12.5t44.5 5q27 0 45 -8t29.5 -21.5t16.5 -31.5t5 -37v-19h-25q-59 0 -108.5 -7.5t-85.5 -27.5t-56.5 -54t-20.5 -86q0 -36 13 -64t34 -47.5t49 -29.5t58 -10q55 0 88 23t56 55h2q0 -19 1 -37t6 -33h112q-2 15 -4.5 39t-2.5 52v225
q0 48 -8.5 86.5t-30 65.5t-60 41t-98.5 14q-59 0 -98 -13t-65 -25zM325 223q0 -69 -22.5 -108t-78.5 -39q-36 0 -57.5 22t-21.5 57q0 56 44.5 76.5t124.5 20.5h11v-29zM158 583q0 16 9 27.5t28 11.5q13 0 27 -5.5l28 -11.5l28 -11.5t29 -5.5q28 0 46 14t28.5 33.5t14.5 39
t4 30.5h-62q0 -15 -7 -27t-22 -12q-11 0 -24 5.5l-27.5 11.5t-30.5 11.5t-33 5.5q-28 -1 -46.5 -14.5t-29 -32t-14.5 -38t-4 -32.5h58z" />
    <glyph glyph-name="adieresis" unicode="&#xe4;" 
d="M88 385q9 7 23.5 16t33 16.5t40 12.5t44.5 5q27 0 45 -8t29.5 -21.5t16.5 -31.5t5 -37v-19h-25q-59 0 -108.5 -7.5t-85.5 -27.5t-56.5 -54t-20.5 -86q0 -36 13 -64t34 -47.5t49 -29.5t58 -10q55 0 88 23t56 55h2q0 -19 1 -37t6 -33h112q-2 15 -4.5 39t-2.5 52v225
q0 48 -8.5 86.5t-30 65.5t-60 41t-98.5 14q-59 0 -98 -13t-65 -25zM325 223q0 -69 -22.5 -108t-78.5 -39q-36 0 -57.5 22t-21.5 57q0 56 44.5 76.5t124.5 20.5h11v-29zM118 603h96v110h-96v-110zM286 603h96v110h-96v-110z" />
    <glyph glyph-name="aring" unicode="&#xe5;" 
d="M88 385q9 7 23.5 16t33 16.5t40 12.5t44.5 5q27 0 45 -8t29.5 -21.5t16.5 -31.5t5 -37v-19h-25q-59 0 -108.5 -7.5t-85.5 -27.5t-56.5 -54t-20.5 -86q0 -36 13 -64t34 -47.5t49 -29.5t58 -10q55 0 88 23t56 55h2q0 -19 1 -37t6 -33h112q-2 15 -4.5 39t-2.5 52v225
q0 48 -8.5 86.5t-30 65.5t-60 41t-98.5 14q-59 0 -98 -13t-65 -25zM325 223q0 -69 -22.5 -108t-78.5 -39q-36 0 -57.5 22t-21.5 57q0 56 44.5 76.5t124.5 20.5h11v-29zM163 664q0 -22 8.5 -41.5t23 -34t34 -23t41.5 -8.5t41.5 8.5t34 23t23 34t8.5 41.5t-8.5 41.5t-23 34
t-34 23t-41.5 8.5t-41.5 -8.5t-34 -23t-23 -34t-8.5 -41.5zM213 664q0 23 17 40t40 17t40 -17t17 -40t-17 -40t-40 -17t-40 17t-17 40z" />
    <glyph glyph-name="ae" unicode="&#xe6;" horiz-adv-x="776" 
d="M440 302q0 25 5 50t16 44t28.5 31t41.5 12q86 0 86 -137h-177zM99 385q9 7 23.5 16t32.5 16.5t39 12.5t44 5t39 -8t26.5 -21.5t15.5 -30.5t5 -35v-22h-23q-56 0 -103.5 -7.5t-83 -27.5t-55.5 -54t-20 -86q0 -36 13 -64t34 -47.5t49 -29.5t58 -10q67 0 105.5 26t69.5 74h2
q18 -48 62 -74t123 -26q56 0 95 12.5t59 20.5l-6 98q-17 -13 -47.5 -26.5t-87.5 -13.5q-69 0 -98 37.5t-30 103.5h297v24q0 79 -16.5 131.5t-45 84.5t-65.5 45.5t-79 13.5q-49 0 -82 -18.5t-55 -51.5q-38 70 -139 70q-59 0 -98 -13t-65 -25zM324 223q0 -69 -21.5 -108
t-69.5 -39q-35 0 -56.5 22t-21.5 57q0 28 11 46.5t31.5 30t48 16t60.5 4.5h18v-29z" />
    <glyph glyph-name="ccedilla" unicode="&#xe7;" horiz-adv-x="426" 
d="M399 111q-13 -8 -39 -16.5t-49 -8.5q-36 0 -62.5 13t-44 36t-26 54t-8.5 67q0 83 32 128t103 45q26 0 48 -8.5t39 -16.5l7 98q-17 7 -48 14t-60 7q-65 0 -112 -21t-77.5 -57t-45 -84.5t-14.5 -103.5q0 -49 11 -92.5t34.5 -78.5t60 -58.5t87.5 -31.5l-30 -84l18 -17
q7 3 16 5t23 2q20 0 33 -10t13 -27q0 -18 -13.5 -29.5t-38.5 -11.5q-23 0 -39 4.5t-31 9.5l-16 -40q15 -8 44 -14t61 -6q18 0 38 5.5t36 17t26.5 28.5t10.5 41q0 32 -22.5 53t-64.5 21q-13 0 -22 -2t-17 -4l18 54h6q38 0 69 6.5t53 14.5z" />
    <glyph glyph-name="egrave" unicode="&#xe8;" 
d="M428 123q-17 -13 -47.5 -26.5t-87.5 -13.5q-72 0 -101.5 37.5t-29.5 103.5h298v24q0 79 -16.5 131.5t-45 84.5t-65.5 45.5t-79 13.5q-49 0 -88.5 -21t-67 -58t-42 -86.5t-14.5 -107.5q0 -52 14 -99t43 -82t74 -56t107 -21q56 0 95 12.5t59 20.5zM162 302q0 25 5 50
t16.5 44t29 31t41.5 12q86 0 86 -137h-178zM129 716l102 -144h78l-64 144h-116z" />
    <glyph glyph-name="eacute" unicode="&#xe9;" 
d="M428 123q-17 -13 -47.5 -26.5t-87.5 -13.5q-72 0 -101.5 37.5t-29.5 103.5h298v24q0 79 -16.5 131.5t-45 84.5t-65.5 45.5t-79 13.5q-49 0 -88.5 -21t-67 -58t-42 -86.5t-14.5 -107.5q0 -52 14 -99t43 -82t74 -56t107 -21q56 0 95 12.5t59 20.5zM162 302q0 25 5 50
t16.5 44t29 31t41.5 12q86 0 86 -137h-178zM191 572h78l102 144h-116z" />
    <glyph glyph-name="ecircumflex" unicode="&#xea;" 
d="M428 123q-17 -13 -47.5 -26.5t-87.5 -13.5q-72 0 -101.5 37.5t-29.5 103.5h298v24q0 79 -16.5 131.5t-45 84.5t-65.5 45.5t-79 13.5q-49 0 -88.5 -21t-67 -58t-42 -86.5t-14.5 -107.5q0 -52 14 -99t43 -82t74 -56t107 -21q56 0 95 12.5t59 20.5zM162 302q0 25 5 50
t16.5 44t29 31t41.5 12q86 0 86 -137h-178zM106 572h88l55 87l54 -87h91l-89 144h-108z" />
    <glyph glyph-name="edieresis" unicode="&#xeb;" 
d="M428 123q-17 -13 -47.5 -26.5t-87.5 -13.5q-72 0 -101.5 37.5t-29.5 103.5h298v24q0 79 -16.5 131.5t-45 84.5t-65.5 45.5t-79 13.5q-49 0 -88.5 -21t-67 -58t-42 -86.5t-14.5 -107.5q0 -52 14 -99t43 -82t74 -56t107 -21q56 0 95 12.5t59 20.5zM162 302q0 25 5 50
t16.5 44t29 31t41.5 12q86 0 86 -137h-178zM118 603h96v110h-96v-110zM286 603h96v110h-96v-110z" />
    <glyph glyph-name="igrave" unicode="&#xec;" horiz-adv-x="260" 
d="M68 0h124v515h-124v-515zM9 716l102 -144h78l-64 144h-116z" />
    <glyph glyph-name="iacute" unicode="&#xed;" horiz-adv-x="260" 
d="M68 0h124v515h-124v-515zM71 572h78l102 144h-116z" />
    <glyph glyph-name="icircumflex" unicode="&#xee;" horiz-adv-x="260" 
d="M68 0h124v515h-124v-515zM-14 572h88l55 87l54 -87h91l-89 144h-108z" />
    <glyph glyph-name="idieresis" unicode="&#xef;" horiz-adv-x="260" 
d="M68 0h124v515h-124v-515zM-2 603h96v110h-96v-110zM166 603h96v110h-96v-110z" />
    <glyph glyph-name="eth" unicode="&#xf0;" horiz-adv-x="537" 
d="M170 258q0 32 4 64t15.5 57t30.5 40.5t49 15.5t49 -15.5t30 -40.5t15 -57t4 -64t-4 -64t-15 -57.5t-30 -41t-49 -15.5t-49 15.5t-30.5 41t-15.5 57.5t-4 64zM143 634l33 -38l86 44q11 -9 25 -27.5t27.5 -41t25 -47t16.5 -46.5l-2 -2q-14 19 -35.5 33t-59.5 14
q-36 0 -74 -12t-70 -42t-52.5 -81t-20.5 -130q0 -81 20.5 -132.5t53.5 -81.5t73.5 -41t79.5 -11t79.5 11t73 42.5t53 88.5t20.5 148q0 96 -15 164.5t-37.5 116t-47.5 76.5t-45 47l74 38l-33 38l-84 -43q-20 14 -42.5 25.5t-42.5 17.5l-79 -49q16 -5 38 -15.5t39 -23.5z" />
    <glyph glyph-name="ntilde" unicode="&#xf1;" horiz-adv-x="519" 
d="M56 0h124v300q0 25 4.5 47t15 38.5t27.5 26t41 9.5q38 0 54.5 -26t16.5 -86v-309h124v332q0 39 -7.5 73.5t-25 61t-46.5 41.5t-73 15q-32 0 -54.5 -9t-38.5 -22.5t-26.5 -28.5t-17.5 -27h1h-3q0 20 -1.5 39.5t-2.5 39.5h-116q2 -17 3 -39t1 -46v-430zM168 583
q0 16 9 27.5t28 11.5q13 0 27 -5.5l28 -11.5l28 -11.5t29 -5.5q28 0 46 14t28.5 33.5t14.5 39t4 30.5h-62q0 -15 -7 -27t-22 -12q-11 0 -24 5.5l-27.5 11.5t-30.5 11.5t-33 5.5q-28 -1 -46.5 -14.5t-29 -32t-14.5 -38t-4 -32.5h58z" />
    <glyph glyph-name="ograve" unicode="&#xf2;" horiz-adv-x="537" 
d="M170 258q0 32 4 64t15.5 57t30.5 40.5t49 15.5t49 -15.5t30 -40.5t15 -57t4 -64t-4 -64t-15 -57.5t-30 -41t-49 -15.5t-49 15.5t-30.5 41t-15.5 57.5t-4 64zM42 258q0 -81 20.5 -132.5t53.5 -81.5t73.5 -41t79.5 -11t79.5 11t73 41t53 81.5t20.5 132.5q0 79 -20.5 130
t-53 81t-73 42t-79.5 12t-79.5 -12t-73.5 -42t-53.5 -81t-20.5 -130zM148 716l102 -144h78l-64 144h-116z" />
    <glyph glyph-name="oacute" unicode="&#xf3;" horiz-adv-x="537" 
d="M170 258q0 32 4 64t15.5 57t30.5 40.5t49 15.5t49 -15.5t30 -40.5t15 -57t4 -64t-4 -64t-15 -57.5t-30 -41t-49 -15.5t-49 15.5t-30.5 41t-15.5 57.5t-4 64zM42 258q0 -81 20.5 -132.5t53.5 -81.5t73.5 -41t79.5 -11t79.5 11t73 41t53 81.5t20.5 132.5q0 79 -20.5 130
t-53 81t-73 42t-79.5 12t-79.5 -12t-73.5 -42t-53.5 -81t-20.5 -130zM210 572h78l102 144h-116z" />
    <glyph glyph-name="ocircumflex" unicode="&#xf4;" horiz-adv-x="537" 
d="M170 258q0 32 4 64t15.5 57t30.5 40.5t49 15.5t49 -15.5t30 -40.5t15 -57t4 -64t-4 -64t-15 -57.5t-30 -41t-49 -15.5t-49 15.5t-30.5 41t-15.5 57.5t-4 64zM42 258q0 -81 20.5 -132.5t53.5 -81.5t73.5 -41t79.5 -11t79.5 11t73 41t53 81.5t20.5 132.5q0 79 -20.5 130
t-53 81t-73 42t-79.5 12t-79.5 -12t-73.5 -42t-53.5 -81t-20.5 -130zM125 572h88l55 87l54 -87h91l-89 144h-108z" />
    <glyph glyph-name="otilde" unicode="&#xf5;" horiz-adv-x="537" 
d="M170 258q0 32 4 64t15.5 57t30.5 40.5t49 15.5t49 -15.5t30 -40.5t15 -57t4 -64t-4 -64t-15 -57.5t-30 -41t-49 -15.5t-49 15.5t-30.5 41t-15.5 57.5t-4 64zM42 258q0 -81 20.5 -132.5t53.5 -81.5t73.5 -41t79.5 -11t79.5 11t73 41t53 81.5t20.5 132.5q0 79 -20.5 130
t-53 81t-73 42t-79.5 12t-79.5 -12t-73.5 -42t-53.5 -81t-20.5 -130zM177 583q0 16 9 27.5t28 11.5q13 0 27 -5.5l28 -11.5l28 -11.5t29 -5.5q28 0 46 14t28.5 33.5t14.5 39t4 30.5h-62q0 -15 -7 -27t-22 -12q-11 0 -24 5.5l-27.5 11.5t-30.5 11.5t-33 5.5
q-28 -1 -46.5 -14.5t-29 -32t-14.5 -38t-4 -32.5h58z" />
    <glyph glyph-name="odieresis" unicode="&#xf6;" horiz-adv-x="537" 
d="M170 258q0 32 4 64t15.5 57t30.5 40.5t49 15.5t49 -15.5t30 -40.5t15 -57t4 -64t-4 -64t-15 -57.5t-30 -41t-49 -15.5t-49 15.5t-30.5 41t-15.5 57.5t-4 64zM42 258q0 -81 20.5 -132.5t53.5 -81.5t73.5 -41t79.5 -11t79.5 11t73 41t53 81.5t20.5 132.5q0 79 -20.5 130
t-53 81t-73 42t-79.5 12t-79.5 -12t-73.5 -42t-53.5 -81t-20.5 -130zM137 603h96v110h-96v-110zM305 603h96v110h-96v-110z" />
    <glyph glyph-name="divide" unicode="&#xf7;" horiz-adv-x="600" 
d="M47 209h506v88h-506v-88zM223 460q0 -32 22.5 -54.5t54.5 -22.5t54.5 22.5t22.5 54.5t-22.5 54.5t-54.5 22.5t-54.5 -22.5t-22.5 -54.5zM223 46q0 -32 22.5 -54.5t54.5 -22.5t54.5 22.5t22.5 54.5t-22.5 54.5t-54.5 22.5t-54.5 -22.5t-22.5 -54.5z" />
    <glyph glyph-name="oslash" unicode="&#xf8;" horiz-adv-x="537" 
d="M177 179q-4 19 -5.5 39t-1.5 40q0 32 4 64t15.5 57t30.5 40.5t49 15.5q27 0 45 -13t29 -34zM42 8l36 -28l46 58q31 -26 69 -36t76 -10q39 0 79.5 11t73 41t53 81.5t20.5 132.5q0 64 -14 109.5t-37 75.5l51 64l-36 28l-47 -59q-32 26 -69 36.5t-74 10.5q-39 0 -79.5 -12
t-73.5 -42t-53.5 -81t-20.5 -130q0 -64 13.5 -109.5t36.5 -77.5zM360 336q4 -18 5.5 -38t1.5 -40q0 -32 -4 -64t-15 -57.5t-30 -41t-49 -15.5q-27 0 -45 13t-29 34z" />
    <glyph glyph-name="ugrave" unicode="&#xf9;" horiz-adv-x="519" 
d="M463 515h-124v-295q0 -25 -4 -47.5t-14 -40t-26 -28t-41 -10.5q-39 0 -56.5 26t-17.5 86v309h-124v-332q0 -39 7.5 -73.5t25 -61t46.5 -41.5t73 -15q30 0 52 8t38 21t27 28.5t20 29.5l-1 1l3 -1q0 -20 1.5 -39.5t2.5 -39.5h116q-2 17 -3 39t-1 46v430zM139 716l102 -144
h78l-64 144h-116z" />
    <glyph glyph-name="uacute" unicode="&#xfa;" horiz-adv-x="519" 
d="M463 515h-124v-295q0 -25 -4 -47.5t-14 -40t-26 -28t-41 -10.5q-39 0 -56.5 26t-17.5 86v309h-124v-332q0 -39 7.5 -73.5t25 -61t46.5 -41.5t73 -15q30 0 52 8t38 21t27 28.5t20 29.5l-1 1l3 -1q0 -20 1.5 -39.5t2.5 -39.5h116q-2 17 -3 39t-1 46v430zM201 572h78
l102 144h-116z" />
    <glyph glyph-name="ucircumflex" unicode="&#xfb;" horiz-adv-x="519" 
d="M463 515h-124v-295q0 -25 -4 -47.5t-14 -40t-26 -28t-41 -10.5q-39 0 -56.5 26t-17.5 86v309h-124v-332q0 -39 7.5 -73.5t25 -61t46.5 -41.5t73 -15q30 0 52 8t38 21t27 28.5t20 29.5l-1 1l3 -1q0 -20 1.5 -39.5t2.5 -39.5h116q-2 17 -3 39t-1 46v430zM116 572h88l55 87
l54 -87h91l-89 144h-108z" />
    <glyph glyph-name="udieresis" unicode="&#xfc;" horiz-adv-x="519" 
d="M463 515h-124v-295q0 -25 -4 -47.5t-14 -40t-26 -28t-41 -10.5q-39 0 -56.5 26t-17.5 86v309h-124v-332q0 -39 7.5 -73.5t25 -61t46.5 -41.5t73 -15q30 0 52 8t38 21t27 28.5t20 29.5l-1 1l3 -1q0 -20 1.5 -39.5t2.5 -39.5h116q-2 17 -3 39t-1 46v430zM128 603h96v110
h-96v-110zM296 603h96v110h-96v-110z" />
    <glyph glyph-name="yacute" unicode="&#xfd;" horiz-adv-x="463" 
d="M133 515h-128l171 -520l-9 -44q-12 -40 -26.5 -58t-42.5 -17q-14 0 -25 3t-22 7l-7 -95q14 -5 34 -9t45 -4q31 0 55 9.5t41.5 26t30 39t20.5 49.5l188 613h-120l-99 -389h-2zM173 572h78l102 144h-116z" />
    <glyph glyph-name="thorn" unicode="&#xfe;" horiz-adv-x="537" 
d="M58 -216h124v290h2q7 -15 18 -29.5t27.5 -26.5t38 -19t49.5 -7q84 0 131 69.5t47 196.5q0 54 -10.5 102t-32 84t-56 57.5t-82.5 21.5q-27 0 -48 -7.5t-37 -20t-27 -28.5t-18 -32h-2v315h-124v-966zM182 256q0 36 5 68t16.5 56t30.5 38t46 14q54 0 72.5 -44.5t18.5 -134.5
q0 -77 -20.5 -123.5t-72.5 -46.5q-26 0 -44 13t-29.5 36t-17 54.5t-5.5 69.5z" />
    <glyph glyph-name="ydieresis" unicode="&#xff;" horiz-adv-x="463" 
d="M133 515h-128l171 -520l-9 -44q-12 -40 -26.5 -58t-42.5 -17q-14 0 -25 3t-22 7l-7 -95q14 -5 34 -9t45 -4q31 0 55 9.5t41.5 26t30 39t20.5 49.5l188 613h-120l-99 -389h-2zM100 603h96v110h-96v-110zM268 603h96v110h-96v-110z" />
    <glyph glyph-name="exclam" unicode="!" horiz-adv-x="370" 
d="M137 206h96l16 492h-128zM125 0h120v126h-120v-126z" />
    <glyph glyph-name="fraction" horiz-adv-x="167" 
d="M-112 -34h78l313 766h-78z" />
    <glyph glyph-name="breve" horiz-adv-x="222" 
d="M-20 708q0 -13 3.5 -35.5t16.5 -44.5t39.5 -38t71.5 -16t71.5 16t39.5 38t16.5 44.5t3.5 35.5h-58q0 -9 -4.5 -21t-13.5 -22.5t-23 -17.5t-32 -7t-32 7t-23 17.5t-13.5 22.5t-4.5 21h-58z" />
    <glyph glyph-name="dotaccent" horiz-adv-x="222" 
d="M63 603h96v110h-96v-110z" />
    <glyph glyph-name="ring" horiz-adv-x="222" 
d="M4 664q0 -22 8.5 -41.5t23 -34t34 -23t41.5 -8.5t41.5 8.5t34 23t23 34t8.5 41.5t-8.5 41.5t-23 34t-34 23t-41.5 8.5t-41.5 -8.5t-34 -23t-23 -34t-8.5 -41.5zM54 664q0 23 17 40t40 17t40 -17t17 -40t-17 -40t-40 -17t-40 17t-17 40z" />
    <glyph glyph-name="hungarumlaut" horiz-adv-x="222" 
d="M-48 572h78l102 144h-116zM120 572h78l102 144h-116z" />
    <glyph glyph-name="ogonek" horiz-adv-x="222" 
d="M237 -169q-19 -7 -41 -7t-37 14.5t-15 40.5q0 23 14.5 54.5t47.5 66.5h-42l-33 -23.5t-30.5 -27.5t-22 -33t-8.5 -40q0 -26 8.5 -44.5t22 -30.5t31.5 -17.5t38 -5.5q23 0 42 4t35 10z" />
    <glyph glyph-name="caron" horiz-adv-x="222" 
d="M56 572h108l91 144h-88l-55 -87l-54 87h-91z" />
    <glyph glyph-name="Lslash" horiz-adv-x="444" 
d="M68 0h358v102h-230v257l126 115v94l-126 -115v245h-128v-362l-68 -62v-94l68 62v-242z" />
    <glyph glyph-name="dotlessi" horiz-adv-x="260" 
d="M68 0h124v515h-124v-515z" />
    <glyph glyph-name="lslash" horiz-adv-x="278" 
d="M77 0h124v394l77 84v98l-77 -84v258h-124v-394l-77 -84v-98l77 84v-258z" />
    <glyph glyph-name="minus" horiz-adv-x="600" 
d="M47 209h506v88h-506v-88z" />
    <glyph glyph-name="nonbreakingspace" unicode="&#xa0;" horiz-adv-x="260" 
 />
    <glyph glyph-name="fi" horiz-adv-x="574" 
d="M96 0h124v424h94v91h-94v89q0 29 16 46.5t43 17.5q14 0 26 -2.5t23 -5.5l5 90q-18 4 -41 8t-48 4q-42 0 -70.5 -12t-46 -31.5t-24.5 -45t-7 -53.5v-105h-86v-91h86v-424zM383 0h124v515h-124v-515zM381 612h128v122h-128v-122z" />
    <glyph glyph-name="fl" horiz-adv-x="574" 
d="M96 0h124v424h94v91h-94v89q0 29 16 46.5t43 17.5q14 0 26 -2.5t23 -5.5l5 90q-18 4 -41 8t-48 4q-42 0 -70.5 -12t-46 -31.5t-24.5 -45t-7 -53.5v-105h-86v-91h86v-424zM383 0h124v750h-124v-750z" />
    <glyph glyph-name="hyphenminus" unicode="-" horiz-adv-x="315" 
d="M42 233h231v102h-231v-102z" />
    <glyph glyph-name="quotedbl" unicode="&#x22;" horiz-adv-x="519" 
d="M291 502h100v248h-100v-248zM128 502h100v248h-100v-248z" />
    <glyph glyph-name="numbersign" unicode="#" horiz-adv-x="520" 
d="M270 0h78l29 206h104v78h-93l18 130h104v78h-93l29 206h-78l-29 -206h-118l29 206h-78l-29 -206h-105v-78h94l-18 -130h-104v-78h93l-29 -206h78l29 206h118zM310 284h-118l18 130h118z" />
    </font>
</defs>
</svg>
