<?xml version="1.0" standalone="no"?>
<!DOCTYPE svg PUBLIC "-//W3C//DTD SVG 1.1//EN" "http://www.w3.org/Graphics/SVG/1.1/DTD/svg11.dtd" >
<svg>
<metadata>
Created by FontForge 20090622 at Thu Sep 13 17:42:02 2018
 By deploy user
Digitized data copyright The Monotype Corporation 1991-1995. All rights reserved. Book Antiqua&#226;&#132;&#162; is a trademark of The Monotype Corporation which may be registered in certain jurisdictions.
</metadata>
<defs>
<font id="BookAntiqua-Bold" horiz-adv-x="1024" >
  <font-face 
    font-family="Book Antiqua"
    font-weight="700"
    font-stretch="normal"
    units-per-em="2048"
    panose-1="2 4 7 2 5 3 5 3 3 4"
    ascent="1638"
    descent="-410"
    x-height="944"
    cap-height="1396"
    bbox="-274 -691 2443 2092"
    underline-thickness="119"
    underline-position="-209"
    unicode-range="U+0020-U+F108"
  />
<missing-glyph horiz-adv-x="1536" 
d="M256 0v1280h1024v-1280h-1024zM288 32h960v1216h-960v-1216z" />
    <glyph glyph-name=".notdef" horiz-adv-x="1536" 
d="M256 0v1280h1024v-1280h-1024zM288 32h960v1216h-960v-1216z" />
    <glyph glyph-name="glyph1" horiz-adv-x="0" 
 />
    <glyph glyph-name="glyph2" horiz-adv-x="512" 
 />
    <glyph glyph-name="space" unicode=" " horiz-adv-x="512" 
 />
    <glyph glyph-name="exclam" unicode="!" horiz-adv-x="569" 
d="M340 1389h106q-2 -151 -42 -409q-36 -234 -78 -549l-76 -43l-13 9q-22 205 -78 602q-25 178 -26 299q115 55 207 91zM283 293q66 0 112.5 -46.5t46.5 -113.5q0 -66 -46.5 -113t-112.5 -47t-113 47t-47 113t47 113t113 47z" />
    <glyph glyph-name="quotedbl" unicode="&#x22;" horiz-adv-x="823" 
d="M532 841l-48 336q-6 47 -6 82q0 77 31 117.5t80 40.5q48 0 79.5 -40t31.5 -115q0 -38 -7 -85l-47 -336q-7 -51 -58 -51q-49 0 -56 51zM177 841l-48 336q-6 46 -6 86q0 74 31.5 114t79.5 40t79.5 -40t31.5 -112q0 -42 -7 -88l-47 -336q-7 -51 -58 -51q-49 0 -56 51z" />
    <glyph glyph-name="numbersign" unicode="#" horiz-adv-x="1241" 
d="M1070 598v-154h-217l-65 -444h-158l65 444h-220l-65 -444h-156l66 444h-213v154h237l34 219h-214v154h236l62 416h152l-60 -416h219l61 416h157l-61 -416h191v-154h-214l-30 -219h193zM751 817h-220l-31 -219h217z" />
    <glyph glyph-name="dollar" unicode="$" 
d="M72 399h88l9 -163q57 -67 120.5 -98t161.5 -36v493q-166 18 -241.5 60t-116 116.5t-40.5 192.5q0 190 100.5 298.5t297.5 134.5q-2 53 -8 143l59 -1l54 1q-7 -74 -7 -143q100 -1 176.5 -17t164.5 -54l4 -21q-24 -124 -29 -279h-86l-7 162q-44 48 -93.5 70.5t-129.5 28.5
v-440q180 -28 259.5 -72t121 -119t41.5 -187q0 -122 -51.5 -223t-137.5 -161.5t-233 -86.5q-1 -106 4 -203h-110q7 110 8 197q-113 0 -200 18t-179 59l-17 25q17 125 17 305zM451 1284q-91 -20 -133 -68q-56 -63 -56 -155q0 -93 63 -149q43 -38 126 -51v423zM549 112
q94 27 140 77q63 69 63 173q0 88 -48 142t-155 73v-465z" />
    <glyph glyph-name="percent" unicode="%" horiz-adv-x="1821" 
d="M70 971q0 239 82.5 341.5t233.5 102.5q145 0 214.5 -88.5t69.5 -321.5q0 -243 -81.5 -348.5t-227.5 -105.5q-94 0 -161.5 43t-98.5 123.5t-31 253.5zM244 1048q0 -261 44 -358q27 -61 87 -61q58 0 89.5 57t31.5 239q0 258 -43 352q-27 60 -88 60q-58 0 -89.5 -55
t-31.5 -234zM465 -67q47 76 117 217l562 1122q57 114 78 186q57 -7 86 -7l48 1q-52 -82 -118 -214l-561 -1127l-52 -107q-11 -26 -26 -73l-74 4zM1151 405q0 239 82.5 341.5t233.5 102.5q145 0 214.5 -88.5t69.5 -321.5q0 -243 -81.5 -348.5t-227.5 -105.5q-94 0 -161.5 43
t-98.5 123.5t-31 253.5zM1325 482q0 -261 44 -358q27 -61 87 -61q58 0 89.5 57t31.5 239q0 258 -43 352q-27 60 -88 60q-58 0 -89.5 -55t-31.5 -234z" />
    <glyph glyph-name="ampersand" unicode="&#x26;" horiz-adv-x="1706" 
d="M1662 257l32 -66q-102 -101 -187 -202q-65 -16 -120 -16q-178 0 -371 142q-101 -77 -197.5 -109.5t-215.5 -32.5q-215 0 -342 116t-127 286q0 119 65.5 210t253.5 190q-67 146 -67 255q0 62 13 101q7 22 40 58l72 79q82 92 123 111q77 36 151 36q60 0 115 -29.5t83 -79.5
t28 -116q0 -107 -73 -192.5t-251 -200.5q158 -244 415 -464q39 58 53 99t14 91q0 73 -41 149h-50q-38 1 -125 -5l-11 16q38 56 66 123q163 -7 295 -7q207 0 338 17l14 -10q-28 -74 -35 -144l-13 -12q-196 15 -287 17q13 -41 13 -74q0 -153 -142 -316q170 -99 320 -99
q24 0 42 9q52 27 109 70zM643 883q109 72 151.5 136.5t42.5 127.5q0 40 -16 72.5t-48 51.5t-58 19q-44 0 -90 -37.5t-46 -118.5q0 -112 64 -251zM494 692q-112 -72 -112 -206q0 -147 109 -261t244 -114q94 0 195 68q-141 116 -238.5 231t-197.5 282z" />
    <glyph glyph-name="quotesingle" unicode="'" horiz-adv-x="465" 
d="M175 841l-48 336q-6 46 -6 86q0 74 31.5 114t79.5 40t79.5 -40t31.5 -112q0 -42 -7 -88l-47 -336q-7 -51 -58 -51q-49 0 -56 51z" />
    <glyph glyph-name="parenleft" unicode="(" horiz-adv-x="682" 
d="M643 -411l-51 -62q-151 125 -247 271t-146 322t-50 390t50 390t146 322t247 271l51 -62q-90 -124 -133.5 -230.5t-63.5 -252.5t-20 -438q0 -298 20 -440.5t63.5 -249.5t133.5 -231z" />
    <glyph glyph-name="parenright" unicode=")" horiz-adv-x="682" 
d="M39 -411q90 124 133.5 231t63.5 252t20 438q0 299 -20 440.5t-63.5 249t-133.5 231.5l51 62q151 -124 247 -270t146 -322t50 -391t-50 -391t-146 -322t-247 -270z" />
    <glyph glyph-name="asterisk" unicode="*" horiz-adv-x="909" 
d="M469 669l-34 15q-9 161 -22 298l-206 -215l-36 6q-34 79 -82 153l8 18q168 56 282 104l-282 121l-8 17q65 95 95 155h34l204 -234l29 292l18 13q93 -32 189 -45l10 -30q-58 -81 -173 -262l293 64l10 -9q8 -84 23 -174l-23 -23q-167 44 -315 72l163 -249l-7 -14
q-100 -36 -170 -73z" />
    <glyph glyph-name="plus" unicode="+" horiz-adv-x="1241" 
d="M111 601v187h416v416h187v-416h416v-187h-416v-417h-187v417h-416z" />
    <glyph glyph-name="comma" unicode="," horiz-adv-x="512" 
d="M13 -352l-33 34q73 128 117 268t53 261q160 23 274 70l37 -34q-129 -287 -301 -532q-53 -27 -147 -67z" />
    <glyph glyph-name="hyphen" unicode="-" horiz-adv-x="682" 
d="M24 379l-14 19q40 87 66 209q185 -7 302 -7q123 0 281 7l14 -20q-37 -91 -70 -208q-166 6 -297 6q-134 0 -282 -6z" />
    <glyph glyph-name="hyphen" unicode="&#xad;" horiz-adv-x="682" 
d="M24 379l-14 19q40 87 66 209q185 -7 302 -7q123 0 281 7l14 -20q-37 -91 -70 -208q-166 6 -297 6q-134 0 -282 -6z" />
    <glyph glyph-name="period" unicode="." horiz-adv-x="512" 
d="M256 293q66 0 112.5 -46.5t46.5 -113.5q0 -66 -46.5 -113t-112.5 -47t-113 47t-47 113t46.5 113t113.5 47z" />
    <glyph glyph-name="slash" unicode="/" horiz-adv-x="606" 
d="M-259 -420q48 93 118 267l562 1383q42 105 50 130q12 36 26 98q130 -8 153 -8l85 1q-53 -104 -118 -263l-561 -1388l-52 -133q-11 -32 -25 -89l-133 4z" />
    <glyph glyph-name="zero" unicode="0" 
d="M55 673q0 290 57.5 441.5t166 226t257.5 74.5q147 0 241 -64t143 -201t49 -419q0 -291 -59 -449.5t-163 -233.5t-250 -75q-141 0 -243 70t-150.5 204t-48.5 426zM303 804q0 -318 29 -471t84 -209q42 -42 104 -42q95 0 142 88q59 108 59 422q0 383 -56 569
q-43 146 -161 146q-95 0 -148 -95.5t-53 -407.5z" />
    <glyph glyph-name="one" unicode="1" 
d="M122 -7l-10 12v60l10 12q192 17 216 27q19 8 27 25q13 28 18 197q8 289 8 512q0 293 -6 326q-4 18 -19 18q-9 0 -28 -8l-275 -126l-13 8q-8 73 -21 122l8 15q376 108 624 209l26 -15q-13 -139 -19.5 -379t-6.5 -581q0 -233 13 -290q6 -26 23 -35q25 -14 203 -25l12 -12
v-60l-12 -12l-124 3q-188 4 -254 4q-184 0 -400 -7z" />
    <glyph glyph-name="two" unicode="2" 
d="M37 -10v112l206 201q254 248 328 378.5t74 252.5t-60 187t-164 65q-77 0 -135.5 -34t-72.5 -67q-6 -15 -43 -170h-84q33 201 41 353q78 77 166.5 112t200.5 35q198 0 313 -107.5t115 -277.5q0 -137 -90 -275t-499 -507l6 -13h235q260 0 402 13l11 -13q-10 -86 -10 -129
q0 -44 10 -106l-11 -10q-195 10 -446 10q-186 0 -493 -10z" />
    <glyph glyph-name="three" unicode="3" 
d="M48 348l71 18q56 -150 137 -213t189 -63q113 0 185 76.5t72 200.5t-74 198t-203 74q-48 0 -117 -16l-14 14q20 59 42 157q41 -4 61 -4q111 0 179.5 62.5t68.5 157.5q0 84 -55.5 137t-149.5 53q-64 0 -119 -23t-73 -46t-58 -140l-79 5q48 171 65 318q79 54 158 77.5
t174 23.5q178 0 275 -83t97 -216q0 -98 -50.5 -170.5t-180.5 -139.5q120 -14 179.5 -51t95.5 -107.5t36 -160.5q0 -229 -211 -384q-177 -130 -398 -130q-66 0 -129.5 15t-124.5 44q-19 149 -49 316z" />
    <glyph glyph-name="four" unicode="4" 
d="M521 352q-290 0 -507 -5l-4 27l-10 60q91 212 239.5 472.5t285.5 445.5q102 17 256 50l22 -20q-9 -141 -14 -293l-15 -570q111 0 185 3l6 -15l-1 -32l-2 -60l1 -63l-4 -8q-89 8 -185 8l-1 -46q0 -175 15 -195q21 -26 171 -36l10 -6v-72l-10 -7q-192 10 -329 10
q-77 0 -132 -2l-221 -8l-9 9v76l9 8q171 10 190 16q28 9 36 34q10 31 18 219zM521 519l15 684q-64 -83 -187.5 -299t-197.5 -385q105 -3 174 -3z" />
    <glyph glyph-name="five" unicode="5" 
d="M31 309v8l65 21q81 -147 157 -197.5t176 -50.5q117 0 189 80t72 217q0 139 -75 218t-203 79q-61 0 -113 -18.5t-121 -68.5l-41 23q19 251 19 411q0 201 -17 358l14 12q222 -12 409 -12q179 0 321 11l11 -21q-11 -66 -11 -113q0 -27 4 -100l-15 -14q-184 7 -365 7
q-121 0 -241 -4l-11 -331q72 43 130.5 59t133.5 16q201 0 310 -103.5t109 -283.5q0 -219 -171 -379t-426 -160q-66 0 -127.5 12.5t-117.5 37.5q-22 133 -65 286z" />
    <glyph glyph-name="six" unicode="6" 
d="M332 706q115 118 159 139q60 30 150 30q144 0 234 -103.5t90 -288.5q0 -227 -135 -375q-123 -135 -319 -135q-133 0 -236 66.5t-159.5 190.5t-56.5 329q0 271 95 452t273.5 291.5t384.5 112.5l86 -75l-33 -35q-59 10 -89 10q-98 0 -201.5 -70t-163.5 -193t-79 -346z
M513 694q-90 0 -138.5 -55.5t-48.5 -176.5q0 -207 57.5 -293.5t150.5 -86.5q81 0 132 69t51 215q0 174 -60 258q-51 70 -144 70z" />
    <glyph glyph-name="seven" unicode="7" 
d="M1033 1394v-96q-206 -353 -383 -731.5t-243 -574.5q-81 8 -121 8q-45 0 -116 -8l-10 30l192.5 314l271.5 466l180 319l-10 16l-203 1l-179 1q-154 0 -186 -12q-18 -7 -28 -29q-17 -39 -32 -199l-8 -9l-82 7q7 113 7 266q0 98 -7 225l16 17q292 -17 601 -17q141 0 340 6z
" />
    <glyph glyph-name="eight" unicode="8" 
d="M291 691q-111 58 -160 137t-49 188q0 172 123 285.5t325 113.5q176 0 268.5 -84t92.5 -228q0 -88 -43 -156.5t-157 -140.5q129 -51 185 -120q76 -93 76 -240q0 -202 -138 -337.5t-354 -135.5q-187 0 -301 106t-114 270q0 119 53.5 198t192.5 144zM592 846q63 49 94 108
t31 128q0 105 -59 165t-161 60q-95 0 -150.5 -53.5t-55.5 -137.5q0 -79 55.5 -136.5t245.5 -133.5zM379 650q-76 -64 -109 -132.5t-33 -150.5q0 -124 75 -204.5t184 -80.5q97 0 162 69.5t65 175.5q0 64 -27.5 116.5t-81.5 90.5t-235 116z" />
    <glyph glyph-name="nine" unicode="9" 
d="M689 693q-112 -117 -158 -139q-61 -30 -151 -30q-143 0 -233 103.5t-90 288.5q0 222 129 360.5t326 138.5q135 0 238 -66t158.5 -187t55.5 -328q0 -282 -91 -464t-264 -295.5t-399 -125.5l-85 67l24 38q61 -7 85 -7q112 0 216 70t162.5 197.5t76.5 378.5zM515 705
q84 0 132.5 56t48.5 179q0 198 -57.5 282.5t-150.5 84.5q-83 0 -133 -67t-50 -209q0 -174 61 -257q50 -69 149 -69z" />
    <glyph glyph-name="colon" unicode=":" horiz-adv-x="512" 
d="M256 966q66 0 112.5 -46.5t46.5 -112.5t-47 -113t-112 -47q-66 0 -113 47t-47 113t46.5 112.5t113.5 46.5zM256 293q66 0 112.5 -46.5t46.5 -113.5q0 -66 -46.5 -113t-112.5 -47t-113 47t-47 113t46.5 113t113.5 47z" />
    <glyph glyph-name="semicolon" unicode=";" horiz-adv-x="512" 
d="M306 966q66 0 112.5 -46.5t46.5 -112.5t-47 -113t-112 -47q-66 0 -113 47t-47 113t46.5 112.5t113.5 46.5zM13 -352l-34 29q68 119 115 266t55 268q159 23 274 70l37 -34q-127 -284 -301 -532q-56 -29 -146 -67z" />
    <glyph glyph-name="semicolon" unicode="&#x37e;" horiz-adv-x="512" 
d="M306 966q66 0 112.5 -46.5t46.5 -112.5t-47 -113t-112 -47q-66 0 -113 47t-47 113t46.5 112.5t113.5 46.5zM13 -352l-34 29q68 119 115 266t55 268q159 23 274 70l37 -34q-127 -284 -301 -532q-56 -29 -146 -67z" />
    <glyph glyph-name="less" unicode="&#x3c;" horiz-adv-x="1241" 
d="M1130 350v-206l-1019 464v173l1019 464v-207l-761 -344z" />
    <glyph glyph-name="equal" unicode="=" horiz-adv-x="1241" 
d="M111 788v187h1019v-187h-1019zM111 414v187h1019v-187h-1019z" />
    <glyph glyph-name="greater" unicode="&#x3e;" horiz-adv-x="1241" 
d="M111 1038v207l1019 -464v-173l-1019 -464v206l761 344z" />
    <glyph glyph-name="question" unicode="?" horiz-adv-x="909" 
d="M149 1027l-62 8l-10 16q42 127 66 265q72 53 144 76t165 23q177 0 279.5 -90t102.5 -224q0 -89 -45 -167t-173 -178q-155 -121 -188 -165.5t-33 -89.5q0 -32 23 -79l-69 -31q-54 80 -54 152q0 49 24.5 101t110.5 157q79 97 103 149.5t24 102.5q0 75 -51 121.5t-143 46.5
q-46 0 -78 -10.5t-70 -40.5q-23 -41 -66 -143zM383 293q67 0 113.5 -46.5t46.5 -113.5q0 -66 -47 -113t-113 -47t-113 47t-47 113t47 113t113 47z" />
    <glyph glyph-name="at" unicode="@" horiz-adv-x="1530" 
d="M1302 363h132q-60 -109 -116 -166q-101 -102 -228.5 -160t-275.5 -58q-201 0 -372 95t-264 254t-93 354q0 200 95 368t259 263.5t358 95.5q275 0 475 -179q173 -155 173 -391q0 -153 -61 -270t-183 -198.5t-211 -81.5q-59 0 -97 38t-51 130q-66 -88 -105 -115
q-60 -43 -132 -43q-106 0 -184 81.5t-78 204.5q0 117 59.5 221.5t162 168t202.5 63.5q67 0 109 -35t59 -106l32 123h195l-149 -556l-3 -10q-8 -24 -8 -42q0 -28 12 -42t31 -14q41 0 103 54q83 70 136.5 189.5t53.5 228.5q0 183 -153.5 323.5t-376.5 140.5q-176 0 -315.5 -77
t-219 -216.5t-79.5 -308.5q0 -166 78.5 -300.5t226 -214.5t325.5 -80q97 0 178.5 28.5t156 85.5t143.5 154zM896 821q0 81 -28.5 118.5t-70.5 37.5q-47 0 -101 -48t-106 -181.5t-52 -238.5q0 -73 30 -111t71 -38q56 0 118.5 68t100.5 195.5t38 197.5z" />
    <glyph glyph-name="A" unicode="A" horiz-adv-x="1593" 
d="M63 84q94 5 116 19q15 10 47 76q61 130 156 361l354 867h147l452 -1074q88 -209 108.5 -229t126.5 -27v-84q-163 7 -308 7q-173 0 -329 -7v84q119 5 137.5 13.5t18.5 30.5q0 19 -42 130l-66 171q-124 2 -277 2q-133 0 -242 -2l-44 -115q-18 -47 -44 -140q-6 -21 -6 -38
q0 -23 19.5 -32.5t140.5 -19.5v-84q-98 7 -244 7q-139 0 -221 -7v91zM719 1053l-211 -513q92 -5 203 -5q116 0 222 5z" />
    <glyph glyph-name="B" unicode="B" horiz-adv-x="1366" 
d="M154 -7v47q57 34 87 62q12 138 12 610q0 342 -10 484q-5 77 -21 90q-22 20 -152 26v84l192 -4l147 -3q67 0 198 5q127 5 182 5q222 0 318 -74.5t96 -203.5q0 -133 -95 -217t-268 -120v-8q178 -18 250 -54t116 -112t44 -173q0 -119 -72.5 -225t-192 -162t-336.5 -56
q-43 0 -129 3q-80 3 -131 3q-57 0 -235 -7zM537 818h52q169 0 237.5 61t68.5 191q0 114 -55.5 168t-182.5 54q-47 0 -115 -8q-6 -307 -6 -376zM539 107q58 -15 109 -15q142 0 218 81.5t76 239.5q0 103 -34.5 168.5t-95 97.5t-172.5 32l-101 -1v-26l-2 -259l2 -262v-56z" />
    <glyph glyph-name="C" unicode="C" horiz-adv-x="1479" 
d="M1391 210l25 -23q-26 -50 -46 -102q-116 -61 -223.5 -86.5t-247.5 -25.5q-262 0 -443 92t-278.5 259t-97.5 383q0 311 220.5 509.5t608.5 198.5q129 0 255.5 -23t251.5 -70l7 -15q-18 -54 -25 -104q-13 -87 -20 -216h-84q-6 158 -12 173.5t-55 53t-132.5 61t-184.5 23.5
q-240 0 -381.5 -148t-141.5 -412q0 -286 170 -463q157 -164 431 -164q106 0 198.5 22t204.5 77z" />
    <glyph glyph-name="D" unicode="D" horiz-adv-x="1706" 
d="M142 -7v51q69 40 98 60q14 176 14 659q0 209 -4.5 349.5t-13.5 160.5q-4 10 -13 15q-15 8 -147 24v85q151 -5 347 -5l493 5q269 0 408.5 -68t221.5 -208t82 -340q0 -257 -128 -443t-312 -265t-393 -79l-379 6q-91 0 -274 -7zM547 116q84 -14 172 -14q223 0 340 64
t189.5 209.5t72.5 357.5q0 279 -144 425q-127 130 -415 130q-62 0 -215 -10l-8 -624q0 -394 8 -538z" />
    <glyph glyph-name="E" unicode="E" horiz-adv-x="1251" 
d="M138 -7v54q53 24 97 56q20 156 20 656q0 341 -7 452q-3 59 -20.5 74.5t-148.5 26.5v84q236 -9 373 -9l551 6q87 0 157 -7l7 -11q-22 -109 -32 -290h-79q-5 146 -11.5 156t-45.5 19q-83 18 -254 18q-84 0 -196 -7q-13 -309 -15 -492q107 -7 201 -7q139 0 167 9q17 6 24 29
q6 18 14 126h86q-5 -169 -5 -220l5 -225h-86q-7 131 -18 151q-6 12 -27 17q-50 11 -225 11q-55 0 -129 -6q-2 -53 -2 -108q0 -286 10 -440l198 -3q169 0 309 18q25 92 48 209h83q-23 -176 -27 -338q-91 -10 -175 -10q-55 0 -217 4q-151 4 -278 4q-167 0 -352 -7z" />
    <glyph glyph-name="F" unicode="F" horiz-adv-x="1139" 
d="M74 -7v84q127 1 148 19q16 12 19 71q12 195 12 450q0 189 -5 405.5t-17 249.5q-6 15 -17 21q-17 11 -140 18v84q175 -5 301 -5q184 0 386 5q133 4 224 4q65 0 124 -4l10 -21q-21 -127 -26 -299h-84l-8 107q-3 51 -13.5 62.5t-74 23.5t-181.5 12q-87 0 -184 -9
q-11 -169 -11 -239l2 -215l-1 -46q60 -2 145 -2q153 0 184 7q16 4 23 16q11 21 18 125h86q-3 -88 -3 -175q0 -82 3 -261h-86q-8 130 -19 152q-6 12 -25 17q-48 13 -195 13l-131 -2l4 -384q4 -139 14 -161q7 -14 21 -21q20 -10 167 -18v-84q-160 7 -300 7q-124 0 -370 -7z
" />
    <glyph glyph-name="G" unicode="G" horiz-adv-x="1706" 
d="M999 486v81q182 -4 325 -4q132 0 285 4v-64q-44 -14 -84 -33q-12 -101 -12 -172q0 -51 12 -202q-198 -72 -331.5 -97.5t-276.5 -25.5q-386 0 -604.5 200.5t-218.5 519.5q0 328 223 525t640 197q147 0 282 -23t257 -70l9 -15q-29 -127 -43 -316h-84q-1 95 -13 168
q-64 74 -164.5 111t-237.5 37q-257 0 -409.5 -156t-152.5 -427q0 -289 160.5 -465.5t395.5 -176.5q125 0 266 61q8 77 8 146q0 154 -18 170t-214 27z" />
    <glyph glyph-name="H" unicode="H" horiz-adv-x="1706" 
d="M70 -7v84q131 6 148.5 17.5t23.5 47.5q10 55 10 277l-1 547q-1 277 -10 302q-5 15 -17 23q-20 13 -154 21v84q200 -7 317 -7q185 0 338 7v-84q-123 -8 -145 -18q-13 -6 -19 -18q-10 -19 -14 -116q-6 -144 -6 -292v-83q104 -5 330 -5q201 0 296 5q1 325 -7 432
q-4 57 -21 70q-23 19 -156 25v84q249 -7 337 -7q151 0 319 7v-84q-128 -8 -149 -19q-12 -6 -18 -18q-9 -21 -13 -163q-7 -218 -7 -353l6 -454q2 -154 9 -177t23 -32.5t149 -18.5v-84l-111 3q-125 4 -196 4q-148 0 -349 -7v84q134 6 152.5 21.5t22.5 81.5q7 113 9 482
q-112 4 -249 4q-215 0 -377 -4v-66q0 -262 7 -393q5 -88 24 -102.5t153 -23.5v-84l-118 3q-112 4 -200 4z" />
    <glyph glyph-name="I" unicode="I" horiz-adv-x="797" 
d="M72 -7v84q138 7 156 23t22 79q7 132 7 492q0 138 -4 400q-2 179 -8 196.5t-21 25.5q-22 11 -152 19v84q206 -8 315 -8q188 0 340 8v-84q-136 -8 -153.5 -21.5t-22.5 -62.5q-9 -96 -9 -389q0 -390 3 -543.5t18 -182.5q6 -13 25.5 -20.5t138.5 -15.5v-84l-118 3
q-112 4 -200 4z" />
    <glyph glyph-name="J" unicode="J" horiz-adv-x="797" 
d="M53 1312v84q200 -8 322 -8q177 0 358 8v-84q-32 0 -115 -9q-34 -4 -45.5 -13t-15.5 -25q-9 -30 -10 -220l-2 -406l-3 -306q-2 -248 -8 -297q-16 -123 -86.5 -227t-197.5 -186q-96 -61 -186 -61q-30 0 -73 13q5 69 5 93q0 25 -5 90l24 11q63 -70 143 -70q40 0 61 22.5
t27 126.5q10 161 10 403l-2 772q0 198 -9 236q-6 24 -23.5 33.5t-168.5 19.5z" />
    <glyph glyph-name="K" unicode="K" horiz-adv-x="1593" 
d="M72 -7v84q122 9 137 16q11 5 16 13q10 14 16 60q11 79 12 292l1 377q0 180 -5.5 301t-15.5 141q-6 13 -20 20q-21 10 -141 15v84q180 -7 321 -7q169 0 320 7v-84q-126 -9 -145.5 -22t-23.5 -63q-5 -63 -6 -504h14q101 81 291 271.5t294 317.5l1 37l-1 37l9 10
q109 -7 186 -7q81 0 182 7v-84l-57 -6q-68 -7 -88 -15q-40 -18 -107 -74q-100 -83 -253 -228l-178 -168l92 -113q163 -200 389 -454q130 -146 156 -161q18 -10 95 -16v-84l-53 2l-178 5q-72 0 -186 -7q-81 104 -274 333q-144 172 -275 312q-17 18 -24 21q-6 2 -12 2
q-15 0 -21 -12q-3 -8 -3 -80l4 -303q2 -133 11 -153q6 -14 20 -20q20 -9 141 -16v-84q-148 7 -328 7q-91 0 -313 -7z" />
    <glyph glyph-name="L" unicode="L" horiz-adv-x="1251" 
d="M136 -7v52q55 26 104 61q13 271 13 565q0 231 -5 436q-3 146 -14 168q-5 13 -20.5 19.5t-145.5 17.5v84q193 -5 358 -5q160 0 303 5v-84q-138 -9 -159 -24q-13 -9 -18.5 -36.5t-8.5 -323.5l-6 -487q0 -137 7 -317q131 -7 194 -7q189 0 318 29q26 91 51 217h88
q-22 -143 -39 -355q-95 -14 -175 -14l-362 4l-162 2q-112 1 -321 -7z" />
    <glyph glyph-name="M" unicode="M" horiz-adv-x="2048" 
d="M63 -8v84l60 4q73 4 91.5 25t21.5 142q7 247 7 535q0 153 -2 348q-2 118 -14 144q-6 13 -22 21t-142 17v84q121 -3 237 -3q135 0 260 3l112 -252l363 -755q340 684 476 1007q120 -5 228 -5q127 0 245 5v-84q-131 -8 -148 -23t-22 -92q-8 -126 -8 -479q0 -178 4 -376
t14 -224q7 -15 20 -23t140 -19v-84q-162 8 -289 8q-128 0 -348 -8v84l59 2q70 3 87.5 19.5t22.5 87t5 332.5v604l-393 -810q-98 -206 -153 -336h-68q-75 172 -201 435l-346 711v-136q0 -564 6 -777q3 -86 23 -106t149 -26v-84q-102 8 -204 8q-152 0 -271 -8z" />
    <glyph glyph-name="N" unicode="N" horiz-adv-x="1706" 
d="M68 -7v84q122 5 143 16q14 8 21 26q11 24 14 169q6 240 6 362l-2 423q0 168 -11 194q-6 15 -19 22q-20 12 -152 23v84q158 -5 234 -5q84 0 191 5l520 -638q193 -230 333 -380v396q0 225 -6 388q-4 97 -16 119q-6 12 -22 17t-140 14v84q109 -5 217 -5q148 0 268 5v-84
q-112 -7 -135 -16q-13 -5 -21 -14t-12 -23q-7 -24 -8 -154l-3 -400l-2 -403q0 -162 7 -324l-13 -14q-121 22 -171 29l-621 716q-184 218 -297 367v-389q0 -159 5 -383q3 -165 14 -190q4 -11 15 -17q19 -11 144 -20v-84q-162 7 -232 7q-58 0 -249 -7z" />
    <glyph glyph-name="O" unicode="O" horiz-adv-x="1706" 
d="M841 -27q-369 0 -565 189.5t-196 521.5q0 232 95 394.5t263.5 249.5t433.5 87q255 0 417 -83.5t249.5 -232t87.5 -364.5q0 -234 -96 -404.5t-270.5 -264t-418.5 -93.5zM879 82q201 0 320.5 148.5t119.5 451.5q0 318 -137 488q-111 137 -342 137q-216 0 -334.5 -143
t-118.5 -440q0 -214 65 -362.5t165.5 -214t261.5 -65.5z" />
    <glyph glyph-name="P" unicode="P" horiz-adv-x="1251" 
d="M78 -7v84q119 9 135 19q12 6 18 21q10 25 14.5 207t4.5 353q0 319 -6.5 456t-21 153t-86.5 21l-58 5v84l113 -4q105 -3 167 -3q85 0 274 6q102 4 150 4q179 0 264.5 -34t130 -103t44.5 -172q0 -186 -131.5 -311.5t-334.5 -125.5q-26 0 -55 4t-62 11q-17 36 -36 70l23 25
q22 -5 40.5 -8t33.5 -3q101 0 165 69.5t64 194.5q0 139 -66 207.5t-194 68.5q-52 0 -122 -14q-11 -308 -11 -522q0 -72 8 -459q3 -153 10 -176q5 -17 19 -24q22 -11 170 -20v-84q-177 7 -298 7q-54 0 -366 -7z" />
    <glyph glyph-name="Q" unicode="Q" horiz-adv-x="1706" 
d="M529 -273l-47 45l67 55q110 89 242 147q-323 0 -517 191.5t-194 518.5q0 232 95 394.5t263 249.5t433 87q254 0 416 -83.5t249.5 -232t87.5 -364.5q0 -230 -93 -399t-252.5 -258t-438.5 -104q76 -10 142 -29l261 -88q117 -38 186 -52q42 -8 77 -8q43 0 79.5 9.5
t108.5 42.5v-60l-116 -81q-83 -57 -114 -72q-21 -9 -49 -9q-67 0 -151.5 17.5t-275.5 82.5q-139 47 -192 58.5t-90 11.5q-43 0 -80 -13.5t-97 -56.5zM878 90q201 0 320 147.5t119 448.5q0 316 -137 484q-111 137 -341 137q-216 0 -334 -142t-118 -437q0 -213 65 -360.5
t165 -212.5t261 -65z" />
    <glyph glyph-name="R" unicode="R" horiz-adv-x="1479" 
d="M72 -7v84q116 10 133 19q11 6 16 19q10 24 14 162q5 214 5 337q0 166 -4 422q-4 191 -19 234q-4 13 -16 20q-16 10 -129 22v84q207 -8 267 -8l501 9q163 0 237.5 -31.5t118 -101t43.5 -163.5q0 -120 -69.5 -210.5t-241.5 -160.5l213 -321l166 -246q47 -60 70 -72.5
t75 -13.5v-77l-59 -1q-254 -2 -327 -6l-260 403l-206 313q9 17 15 36q40 -5 59 -5q93 0 183 75t90 214q0 121 -71 188t-213 67q-45 0 -122 -7l-7 -295l-9 -374q0 -127 10 -325q8 -149 16 -167q6 -13 22 -21q21 -12 136 -18v-84q-180 7 -319 7q-148 0 -318 -7z" />
    <glyph glyph-name="S" unicode="S" horiz-adv-x="1251" 
d="M143 416h88q1 -148 9.5 -173.5t57.5 -67t127 -67.5t160 -26q141 0 225.5 75t84.5 187q0 103 -56 158q-57 55 -216 78q-236 34 -318.5 74t-130 120t-47.5 192q0 188 132.5 318.5t423.5 130.5q114 0 202.5 -17t177.5 -56l10 -24q-16 -63 -22.5 -114t-11.5 -176h-87
q-5 154 -15 173q-19 33 -96.5 69.5t-177.5 36.5q-137 0 -212.5 -66.5t-75.5 -171.5q0 -64 31 -111.5t86.5 -70t238.5 -51.5q166 -25 225 -49q97 -39 147 -119t50 -202q0 -212 -162 -352.5t-443 -140.5q-125 0 -227 24t-211 79q18 70 24 127q8 79 9 213z" />
    <glyph glyph-name="T" unicode="T" horiz-adv-x="1366" 
d="M343 -7v84q57 0 119 10q29 5 41 16.5t18 42.5q7 43 12 316q3 194 3 396q0 397 -2.5 404.5t-70.5 7.5q-139 0 -239 -8q-58 -5 -65.5 -10t-11.5 -17.5t-17 -175.5h-86q2 191 -11 329l11 8q315 -14 613 -14q297 0 665 14l11 -16q-19 -137 -27 -321h-83q-9 167 -18 181
q-7 11 -32 15q-80 13 -318 13q-20 0 -24 -6q-4 -7 -4 -53l-6 -672q0 -292 5 -358.5t24 -80.5q13 -9 157 -21v-84q-147 7 -312 7q-217 0 -352 -7z" />
    <glyph glyph-name="U" unicode="U" horiz-adv-x="1593" 
d="M57 1312v84q204 -7 358 -7q98 0 277 7v-84q-92 0 -130 -16q-13 -5 -21 -17q-11 -14 -15 -47q-6 -56 -10 -322q-3 -185 -3 -376q0 -157 36 -230.5t105 -109.5q100 -51 218 -51q161 0 246 53t114 146t29 407l-1 370q-1 125 -12 150q-6 14 -21 21q-24 14 -146 22v84
q129 -7 238 -7q94 0 231 7v-84q-99 0 -123.5 -22t-29.5 -114q-11 -224 -12 -507q0 -181 -5 -237q-11 -138 -67 -235.5t-186 -160.5t-323 -63q-201 0 -334 60t-189 151.5t-56 268.5l5 450q0 54 -5 275q-2 69 -15 94q-8 14 -24.5 22t-128.5 18z" />
    <glyph glyph-name="V" unicode="V" horiz-adv-x="1593" 
d="M14 1312v84q190 -7 348 -7q140 0 307 7v-84q-116 -8 -138.5 -18.5t-22.5 -33.5q0 -29 84 -236l283 -690l226 558q125 308 125 370q0 23 -21.5 33t-145.5 17v84q183 -7 245 -7q65 0 232 7v-84q-101 -10 -117 -24q-24 -19 -116 -230l-307 -736q-94 -218 -134 -349h-146
l-354 848q-122 290 -171 393q-28 61 -48.5 74.5t-128.5 23.5z" />
    <glyph glyph-name="W" unicode="W" horiz-adv-x="2048" 
d="M-33 1312v85q166 -8 293 -8q134 0 309 8v-85q-106 -4 -128.5 -16t-22.5 -41q0 -34 63 -326l113 -522l256 531q150 311 215 459h89l416 -1039l168 621q54 201 54 277q0 32 -21 42.5t-141 13.5v85q185 -8 235 -8q61 0 216 8v-85q-82 -7 -105.5 -25.5t-45.5 -89.5
q-36 -109 -179 -627l-157 -584h-190l-400 1011l-257 -541q-120 -254 -213 -470h-143l-167 750l-106 468q-16 70 -35 84.5t-116 23.5z" />
    <glyph glyph-name="X" unicode="X" horiz-adv-x="1366" 
d="M31 -7v84q90 6 110.5 18t94.5 107l337 449q-158 277 -252.5 425t-141.5 179q-25 17 -61 17q-22 0 -65 -7l-9 82l374 75q61 -44 98.5 -93t140.5 -239l106 -195l245 356q63 91 94 145q55 -8 101 -8q57 0 133 8v-82q-84 -6 -104 -18q-27 -15 -96 -104l-310 -405l66 -120
q172 -312 241 -420q92 -142 109.5 -154t93.5 -16v-84q-114 7 -217 7q-92 0 -180 -7q-38 62 -105 184l-199 364l-196 -282q-35 -53 -165 -266q-78 7 -116 7q-39 0 -127 -7z" />
    <glyph glyph-name="Y" unicode="Y" horiz-adv-x="1366" 
d="M399 -7v84q103 0 143 18q24 11 31 46q2 10 9 195l1 73q0 135 -13 169q-22 56 -154 265.5t-202 299t-118 117.5q-17 10 -44 10l-48 -2v79q166 29 328 70q53 -25 88 -59q51 -51 141.5 -199.5t229.5 -428.5l82 140q112 190 295 527h163v-50q-53 -63 -197 -288
q-226 -354 -252 -415q-16 -39 -16 -155q0 -235 10 -331q5 -51 26.5 -64t156.5 -17v-84q-146 7 -297 7q-166 0 -363 -7z" />
    <glyph glyph-name="Z" unicode="Z" horiz-adv-x="1366" 
d="M49 -7v79q333 420 848 1191l-248 3q-199 0 -307 -10q-47 -4 -59 -17t-25 -108l-11 -70h-81q0 70 4 168l2 64q0 41 -6 94l13 9q212 -11 379 -11q631 0 732 2v-71q-451 -603 -848 -1198q205 -7 380 -7q184 0 287 15q31 5 41 17q13 16 44 152l11 51h85q-24 -144 -34 -353
q-60 -5 -119 -5l-754 12q-80 0 -334 -7z" />
    <glyph glyph-name="bracketleft" unicode="[" horiz-adv-x="682" 
d="M150 1451l8 7q138 -6 234 -6q106 0 253 6v-92q-170 -9 -200 -26q-11 -6 -16 -19q-12 -30 -17 -271q-4 -223 -4 -536q0 -311 4.5 -548t16.5 -267q5 -13 17 -20q31 -17 199 -26v-91q-149 6 -249 6q-105 0 -238 -6l-8 7q24 264 24 945q0 673 -24 937z" />
    <glyph glyph-name="backslash" unicode="\" horiz-adv-x="1241" 
d="M1201 -428l-126 2q-21 0 -113 -4q-14 53 -29 92q-9 25 -57 131l-622 1394q-72 159 -130 264l115 -1q25 0 123 8q16 -58 32 -105q8 -21 55 -124l621 -1388q79 -175 131 -269z" />
    <glyph glyph-name="bracketright" unicode="]" horiz-adv-x="682" 
d="M532 1451q-24 -265 -24 -937q0 -680 24 -945l-8 -7q-154 7 -239 7q-84 0 -248 -7v91q168 9 200 26q11 6 17 20q12 30 16 274q5 230 5 541q0 313 -5 545.5t-16 261.5q-6 13 -17 19q-30 17 -200 26v92q112 -4 280 -4q121 0 207 4z" />
    <glyph glyph-name="asciicircum" unicode="^" horiz-adv-x="1241" 
d="M330 573h-219l405 816h209l406 -816h-219l-291 565z" />
    <glyph glyph-name="underscore" unicode="_" 
d="M-12 -154h1048v-102h-1048v102z" />
    <glyph glyph-name="grave" unicode="`" horiz-adv-x="682" 
d="M486 1053l-247 131q-104 56 -122.5 76t-18.5 51q0 33 23.5 55.5t61.5 22.5q31 0 58.5 -16t110.5 -96l232 -224h-98z" />
    <glyph glyph-name="a" unicode="a" 
d="M979 77v-83l-77 3q-61 3 -122 3q-94 0 -178 -6l-10 11l10 138l-209 -157q-56 -13 -99 -13q-106 0 -164 63t-58 184q0 149 79 210q102 80 451 143q-2 118 -41 171q-55 73 -170 73q-27 0 -55.5 -6.5t-57.5 -20.5l-45 -107l-69 17l2 45l-1 44l-1 40q153 95 220 119
q49 18 136 18q118 0 192 -35.5t108 -96.5t34 -178q0 -49 -4 -175q-4 -130 -4 -209q0 -125 7 -152q4 -16 19.5 -25t106.5 -18zM602 487q-176 -38 -229 -82.5t-53 -119.5q0 -61 34 -96t86 -35q79 0 162 89v244z" />
    <glyph glyph-name="b" unicode="b" horiz-adv-x="1251" 
d="M240 -27l-48 19q19 242 19 669q0 193 -3 298l-6 257q0 59 -10 78q-7 13 -25 18q-13 4 -118 8v72q55 0 175 23.5t180 48.5l44 17q19 0 19 -24l-3 -105q-2 -54 -7 -567l121 101q57 48 102.5 64t109.5 16q168 0 269.5 -107t101.5 -280q0 -85 -28 -175.5t-69.5 -148
t-107.5 -101.5q-83 -53 -141 -97q-69 -52 -116 -68t-115 -16q-67 0 -125 17t-131 62q-24 -18 -88 -79zM457 681v-459q37 -55 89 -83t118 -28q107 0 173 85.5t66 259.5q0 164 -67.5 247.5t-176.5 83.5q-58 0 -108.5 -26.5t-93.5 -79.5z" />
    <glyph glyph-name="c" unicode="c" horiz-adv-x="909" 
d="M787 606h-83q-7 119 -17 137q-13 28 -58.5 51t-114.5 23q-106 0 -154.5 -60.5t-48.5 -217.5q0 -199 91 -307.5t234 -108.5q52 0 95.5 9t79.5 26l17 -22q-22 -48 -41 -97q-66 -33 -134.5 -49.5t-138.5 -16.5q-218 0 -339.5 120.5t-121.5 342.5q0 82 16 148.5t43.5 113
t60.5 75.5q20 16 172 111q89 56 129.5 69t108.5 13q60 0 117 -9t111 -27l17 -18q-36 -167 -41 -306z" />
    <glyph glyph-name="d" unicode="d" horiz-adv-x="1251" 
d="M813 923v173q0 161 -7 187q-5 19 -19.5 26.5t-135.5 10.5v72q239 26 401 96l26 -24q-10 -161 -12 -305l-7 -785q0 -197 7 -240q4 -27 19.5 -37.5t122.5 -19.5v-83q-122 6 -238 6q-84 0 -157 -6l-17 12q12 101 17 163q-68 -51 -217 -175q-57 -21 -107 -21
q-166 0 -276.5 123.5t-110.5 328.5q0 100 22.5 181.5t53 122.5t122.5 105q125 87 182.5 109.5t125.5 22.5q49 0 100 -10.5t105 -32.5zM813 709q-47 67 -107 100t-133 33q-103 0 -158 -73.5t-55 -246.5q0 -178 67.5 -266t172.5 -88q71 0 131.5 41t71 75t10.5 258v167z" />
    <glyph glyph-name="e" unicode="e" 
d="M893 188l29 -29l-45 -96q-72 -45 -154.5 -67.5t-175.5 -22.5q-218 0 -343.5 126.5t-125.5 355.5q0 145 37 240q30 77 98.5 128t158 97t196.5 46q164 0 271 -91.5t107 -294.5q0 -25 -3 -76l-164 -30q-76 -5 -220 -5h-217q15 -172 103 -259t224 -87q57 0 113 16.5t111 48.5
zM335 575q90 -8 180 -8q79 0 166 8l1 47q0 123 -45 179.5t-122 56.5q-54 0 -93 -26.5t-58 -74.5t-29 -182z" />
    <glyph glyph-name="f" unicode="f" horiz-adv-x="797" 
d="M13 -6v83l62 5q61 3 76.5 19t19.5 83q8 140 8 335l-2 241q-99 -5 -164 -10v52l96 49l17 8l10 5l29 15v94q1 113 26.5 163.5t136.5 150.5q150 136 187 159q64 41 154 41q28 0 58 -5.5t62 -16.5q-17 -117 -28 -248l-39 -8q-44 42 -87 62.5t-85 20.5q-55 0 -83 -24.5
t-34.5 -82t-6.5 -306.5h102q83 0 170 16l12 -16q-16 -58 -26 -124q-59 5 -111 5h-147q0 -433 6 -565q3 -75 22 -91q24 -21 178 -27v-83q-147 6 -283 6t-336 -6z" />
    <glyph glyph-name="g" unicode="g" horiz-adv-x="1139" 
d="M1092 764h-166q14 -49 14 -91q0 -184 -131.5 -274t-307.5 -90q-28 0 -82 4q-46 -27 -58.5 -43t-12.5 -36q0 -48 67 -58q37 -6 406 -6q124 0 171.5 -21.5t78.5 -76.5t31 -142q0 -201 -159 -337t-430 -136q-230 0 -343 80.5t-113 205.5q0 72 35 120q16 22 110 76l72 41
q-81 16 -108 42.5t-27 75.5q0 53 39 130l33 21q57 37 108 80q-115 41 -166 111t-51 176q0 153 118 251.5t331 98.5q105 0 185 -21q59 -16 118 -57q220 -1 287 7l17 -21q-27 -38 -66 -110zM360 680q0 -150 44.5 -211t127.5 -61q76 0 118 53.5t42 167.5q0 125 -43.5 182
t-122.5 57q-76 0 -121 -49.5t-45 -138.5zM384 -32q-84 -62 -109.5 -103t-25.5 -94q0 -96 75 -155.5t221 -59.5q105 0 179 33t111 91t37 129q0 65 -30 110q-22 31 -60.5 40t-222.5 9h-175z" />
    <glyph glyph-name="h" unicode="h" horiz-adv-x="1251" 
d="M47 -6v83q108 6 124 15q10 6 15 18q10 25 11 183l2 368q0 293 -6 534q-2 91 -18 106.5t-128 18.5v72q61 0 176 23t188 53q30 13 35 13q15 0 15 -19v-7q-3 -24 -3 -74l-7 -321q-2 -117 -1 -270l132 112q42 35 63 43q53 21 124 21q157 0 232 -78q74 -78 74 -247l-5 -396
q0 -106 8 -131q5 -15 23.5 -24t112.5 -13v-83q-123 6 -219 6q-90 0 -185 -6l-13 17q20 194 20 381q0 256 -30 317q-40 77 -144 77q-62 0 -110 -29t-66.5 -68.5t-18.5 -148.5l4 -307q1 -104 10 -124q5 -10 16 -15q22 -11 130 -17v-83q-115 6 -241 6q-182 0 -320 -6z" />
    <glyph glyph-name="i" unicode="i" horiz-adv-x="682" 
d="M342 1444q64 0 109.5 -45.5t45.5 -110.5q0 -64 -45.5 -109.5t-110.5 -45.5q-64 0 -109.5 45.5t-45.5 109.5q0 65 45.5 110.5t110.5 45.5zM63 -6v83q113 4 130.5 14t22.5 56q8 63 8 278q0 93 -3 172l-3 117q0 58 -12.5 71.5t-67.5 15.5l-75 3v77q241 18 397 85l25 -20
q-14 -191 -14 -556q0 -211 7 -255q5 -31 18.5 -40t131.5 -18v-83q-181 6 -280 6q-53 0 -285 -6z" />
    <glyph glyph-name="j" unicode="j" horiz-adv-x="682" 
d="M342 1444q64 0 109.5 -45.5t45.5 -110.5q0 -64 -45.5 -109.5t-110.5 -45.5q-64 0 -109.5 45.5t-45.5 109.5t45.5 110t110.5 46zM22 -533l-24 73l11 10q40 -5 54 -5q44 0 79 39q47 52 61 184.5t14 518.5q0 179 -5 382q-2 91 -11 111q-6 11 -18.5 15t-129.5 9v77
q195 21 320 56l97 29q13 0 13 -14l-1 -26q-14 -230 -15 -548q0 -325 -5 -391q-11 -167 -62 -282t-141 -179t-176 -64q-22 0 -61 5z" />
    <glyph glyph-name="k" unicode="k" horiz-adv-x="1251" 
d="M49 -6v83q107 4 125 14q9 6 14 18q8 22 11 200.5t3 371.5q0 156 -5 401q-4 178 -9.5 197.5t-21.5 29t-117 11.5v72q134 13 217.5 31.5t152.5 49.5q19 8 27 8q15 0 15 -27l-2 -43q-4 -74 -7 -563l-2 -280l2 -55q211 179 436 432q71 -5 127 -5q67 0 142 5v-82
q-111 -6 -134 -13.5t-68 -42.5t-251 -218l144 -163q248 -282 293 -319q29 -25 81 -30v-83q-112 6 -206 6q-73 0 -144 -6q-99 131 -198 243q-135 153 -222 236v-161q0 -140 12 -190q5 -22 20 -30.5t122 -14.5v-83q-193 6 -258 6q-63 0 -299 -6z" />
    <glyph glyph-name="l" unicode="l" horiz-adv-x="682" 
d="M57 1334v58q142 19 224 39t177 57l26 -22q-15 -357 -15 -997q0 -129 4 -261q2 -84 9.5 -97.5t24 -21.5t119.5 -12v-83l-105 3q-98 3 -165 3l-299 -6v83l74 4q50 2 64.5 18.5t17.5 125.5q5 151 5 429l-1 427q-1 195 -11 220q-4 12 -15 18q-18 11 -134 15z" />
    <glyph glyph-name="m" unicode="m" horiz-adv-x="1821" 
d="M61 -6v83q104 4 118.5 13.5t18.5 34.5q8 49 8 232q0 385 -10 417q-8 27 -70 28l-65 2v77q123 13 210 32.5t157 47.5q14 5 21 5q14 0 14 -25q0 -19 -3 -51q-2 -14 -2 -50v-36l164 123q52 39 158 39q107 0 170 -41.5t96 -132.5l170 135q49 39 137 39q157 0 231 -77t74 -250
l-2 -83q-4 -138 -4 -246q0 -143 9 -185q6 -23 20.5 -32.5t112.5 -15.5v-83q-125 6 -218 6q-90 0 -187 -6l-12 19q27 215 27 420q0 243 -37.5 303.5t-132.5 60.5q-62 0 -109 -31t-62 -71q-10 -28 -10 -175q0 -264 7 -365q3 -45 18.5 -57.5t127.5 -20.5v-83q-131 6 -257 6
q-157 0 -282 -6v83q99 0 116 28.5t17 250.5q0 253 -10 315t-48.5 94t-106.5 32q-50 0 -91 -23t-69 -65q-16 -23 -16 -71l1 -38q3 -28 3 -157l-1 -118q0 -170 6 -201q3 -20 16.5 -29t109.5 -18v-83q-120 6 -263 6q-50 0 -270 -6z" />
    <glyph glyph-name="n" unicode="n" horiz-adv-x="1251" 
d="M57 -6v83q109 6 123 17.5t17 51.5q6 101 6 356q0 126 -3 217q-2 56 -8 66q-5 8 -16 12t-119 7v77q54 0 168.5 23t192.5 53l27 9q14 0 14 -23l-1 -9q-3 -28 -3 -144l155 130q29 25 60 34q44 12 107 12q106 0 173.5 -36.5t99 -101t31.5 -200.5q0 -60 -3 -139
q-5 -162 -5 -280q0 -67 11 -93q8 -18 22.5 -24t109.5 -15v-83l-123 4l-79 2l-206 -6l-11 13q26 190 26 390q0 254 -31 313q-40 76 -146 76q-68 0 -118 -34.5t-65 -73.5q-7 -16 -7 -101q0 -362 3 -414.5t17 -64.5q18 -15 134 -21v-83q-174 6 -294 6q-71 0 -259 -6z" />
    <glyph glyph-name="o" unicode="o" horiz-adv-x="1139" 
d="M82 469q0 237 111 356q133 141 384 141q250 0 365 -113t115 -357q0 -251 -132.5 -387t-368.5 -136q-232 0 -353 127t-121 369zM359 538q0 -266 68 -379q53 -87 159 -87q93 0 143.5 74t50.5 269q0 268 -62 371q-51 82 -159 82q-93 0 -146.5 -75t-53.5 -255z" />
    <glyph glyph-name="p" unicode="p" horiz-adv-x="1251" 
d="M53 804v77q176 16 291 50l107 35q14 0 14 -24q0 -20 -4 -56l-3 -94l162 128q51 41 170 41q169 0 271 -104.5t102 -281.5q0 -89 -25.5 -175t-60.5 -137t-123 -119q-151 -121 -180 -138q-57 -33 -137 -33q-45 0 -90 11t-89 33l4 -305q4 -110 23 -128.5t148 -18.5v-82
q-155 7 -270 7q-220 0 -310 -7v82q106 3 122 12q10 6 15 19q9 24 13 205q6 254 6 378l-2 397q-1 175 -11 200q-5 13 -15 19q-18 9 -128 9zM458 213q45 -57 98 -86t115 -29q103 0 168.5 88t65.5 284q0 158 -67 239.5t-171 81.5q-52 0 -104.5 -25t-104.5 -75v-478z" />
    <glyph glyph-name="q" unicode="q" horiz-adv-x="1251" 
d="M614 -517v82q51 4 76 5q54 1 70 13q11 7 17 25.5t9 208.5l4 343q-75 -54 -136 -106l-72 -61q-53 -20 -103 -20q-172 0 -281.5 118.5t-109.5 324.5q0 104 23.5 187t54 122.5t129 106.5t206.5 110q60 24 128 24q76 0 150.5 -21.5t148.5 -65.5q49 45 104 87l43 -21
q-19 -104 -24 -184q-11 -183 -11 -536q0 -435 3 -540q2 -82 19 -98t136 -22v-82q-159 7 -278 7q-162 0 -306 -7zM790 282v445q-45 58 -99 86.5t-118 28.5q-115 0 -171 -84t-56 -248q0 -168 68.5 -255t171.5 -87q56 0 112 30t92 84z" />
    <glyph glyph-name="r" unicode="r" horiz-adv-x="797" 
d="M21 -6v83q101 5 116 12q12 6 19 19q11 24 13 106q4 146 4 266q0 231 -6 274q-3 25 -18 35.5t-128 14.5v77q202 19 289 47l103 38q14 0 14 -19l-1 -14q-4 -63 -4 -181q51 49 113 124q46 56 80 73t91 17q32 0 65 -11q-9 -100 -12 -272l-45 -16q-23 39 -50.5 54.5
t-71.5 15.5q-60 0 -103 -31t-55 -71q-8 -30 -8 -204q0 -253 7 -295q4 -28 19 -38q23 -15 151 -21v-83l-112 3q-107 3 -185 3q-74 0 -172 -3z" />
    <glyph glyph-name="s" unicode="s" horiz-adv-x="909" 
d="M180 319q5 -129 13 -144q22 -41 82.5 -72t140.5 -31q98 0 146.5 40t48.5 106q0 57 -35 90t-150 58q-174 38 -226.5 66.5t-83.5 84.5t-31 134q0 92 46 163t132.5 111.5t228.5 40.5q148 0 275 -48q-14 -81 -19 -252h-79q-6 108 -17 127q-15 29 -57 49q-58 27 -124 27
q-84 0 -130.5 -37.5t-46.5 -94.5q0 -53 42 -84q42 -32 200 -61q109 -20 151 -37q70 -30 106.5 -87.5t36.5 -145.5q0 -169 -131 -259t-312 -90q-60 0 -133 14t-159 41l-15 17q12 87 15 274h85z" />
    <glyph glyph-name="t" unicode="t" horiz-adv-x="682" 
d="M23 797l133 87q-2 177 -9 310q136 42 257 102l30 -23q-22 -145 -30 -389q46 -7 91 -7q102 0 183 13l9 -6l-9 -36q-15 -56 -22 -103q-117 9 -172 9q-41 0 -80 -5q-2 -101 -2 -178q0 -336 20 -382t95 -46q22 0 47.5 5t54.5 14l17 -38q-60 -67 -117 -139q-37 -6 -68 -9
t-57 -3q-84 0 -140.5 29t-82 75t-25.5 137q0 48 5 252q5 179 5 283l-51 2q-32 0 -82 -6v52z" />
    <glyph glyph-name="u" unicode="u" horiz-adv-x="1251" 
d="M39 804v77q160 15 299 57l99 35q18 0 18 -23l-4 -59q-17 -230 -17 -444q0 -138 14 -183.5t50.5 -70.5t97.5 -25q71 0 124.5 39t66 86t12.5 268q0 177 -6 207q-4 16 -14 22q-15 8 -136 14v77q205 23 301 54l106 38q17 0 17 -21l-2 -27q-17 -174 -17 -631q0 -140 8 -176
q5 -17 16 -24q16 -9 126 -17v-83q-115 6 -228 6q-92 0 -171 -6l-9 18q5 50 9 157q-93 -75 -180 -165q-71 -31 -140 -31q-92 0 -160 37t-100.5 96.5t-32.5 167.5l2 109q3 101 3 164q0 178 -7 213q-5 23 -21 32.5t-124 11.5z" />
    <glyph glyph-name="v" unicode="v" horiz-adv-x="1139" 
d="M4 863v82l257 -5q130 0 278 5v-82q-93 -3 -110.5 -11t-17.5 -27q0 -12 10 -47l60 -167l133 -346l131 307q91 213 91 251q0 21 -16.5 28.5t-115.5 11.5v82q131 -5 213 -5q89 0 191 5v-82q-80 -3 -100 -20.5t-115.5 -223t-270.5 -625.5h-176q-66 181 -198 513
q-87 217 -117 284q-20 43 -38 55t-89 17z" />
    <glyph glyph-name="w" unicode="w" horiz-adv-x="1706" 
d="M8 863v82q124 -6 314 -6q138 0 247 6v-82l-65 -3q-52 -1 -65.5 -10t-13.5 -28q0 -11 35 -150l98 -361l200 441q69 152 94 219h106q68 -187 283 -660l89 267q67 203 67 239q0 23 -19 33q-14 7 -125 13v82q142 -5 221 -5q86 0 195 5v-82q-78 -3 -96 -13q-13 -8 -24 -28
q-29 -51 -135 -355q-76 -220 -152 -473h-164q-112 285 -273 629q-174 -355 -281 -629h-165q-43 182 -132 490.5t-104 337.5q-9 17 -21 24q-19 11 -114 17z" />
    <glyph glyph-name="x" unicode="x" 
d="M27 -6v83q76 8 105 28q44 33 162 184l107 135q-151 229 -241 309q-46 41 -105 41l-28 -1v64q71 36 174 110q27 19 44 19q44 0 109 -49q43 -32 118 -144l96 -142q109 141 218 314q43 -5 83 -5q54 0 114 5v-82q-56 -6 -82 -19.5t-68 -61.5l-204 -240l107 -160
q131 -197 167 -229t95 -36v-63q-108 -38 -231 -93h-31q-48 31 -80 70q-41 53 -193 299q-147 -195 -232 -336q-78 6 -111 6q-38 0 -93 -6z" />
    <glyph glyph-name="y" unicode="y" horiz-adv-x="1139" 
d="M4 863v82q230 -7 294 -7q89 0 251 7v-82q-93 -4 -110.5 -13.5t-17.5 -31.5q0 -30 98 -277l109 -276l93 218q125 293 125 338q0 21 -17.5 29.5t-107.5 12.5v82l63 -3q101 -4 134 -4q36 0 188 7v-82q-49 0 -80 -15q-13 -7 -23 -22q-16 -22 -126 -276l-186 -426l-173 -394
q-59 -121 -105.5 -169.5t-101.5 -72t-123 -23.5t-144 34q24 99 35 193l27 9q59 -66 137 -66q66 0 109 43t134 249l-223 566l-123 304q-16 37 -34.5 48.5t-101.5 17.5z" />
    <glyph glyph-name="z" unicode="z" 
d="M201 659h-85q9 117 9 219l-1 58l12 8q306 -7 375 -7q199 0 441 7v-70q-325 -421 -559 -765l180 -1q235 0 262 16.5t43 138.5l7 56h88q-17 -130 -21 -311l-10 -14q-94 -3 -140 -3l-162 3q-248 6 -303 6l-300 -6v70q101 121 238 305l336 465h-183q-129 0 -163 -6
q-24 -4 -33.5 -16.5t-20.5 -79.5z" />
    <glyph glyph-name="braceleft" unicode="{" horiz-adv-x="635" 
d="M261 506q93 -25 130.5 -76.5t37.5 -158.5v-508q0 -50 21 -99q15 -35 48 -61t93 -41q-175 2 -218 11q-91 20 -132 73.5t-41 175.5v492q0 85 -33 124q-44 51 -123 68q156 41 156 190v529q0 140 91 191q73 42 300 42l-22 -7q-53 -17 -81 -42.5t-41 -57.5q-18 -47 -18 -96
v-530q0 -66 -17 -107t-49.5 -67t-101.5 -45z" />
    <glyph glyph-name="bar" unicode="|" horiz-adv-x="1241" 
d="M520 -425v1883h201v-1883h-201z" />
    <glyph glyph-name="braceright" unicode="}" horiz-adv-x="635" 
d="M374 514q-94 25 -131 76.5t-37 157.5v509q0 50 -21 99q-16 35 -49 61t-92 41q174 -2 219 -12q91 -20 131.5 -73.5t40.5 -174.5v-493q0 -84 38.5 -129t117.5 -62q-156 -41 -156 -191v-528q0 -141 -83 -187t-308 -46l21 7q69 22 105 68t36 128v529q0 67 17 107.5t49.5 66.5
t101.5 46z" />
    <glyph glyph-name="asciitilde" unicode="~" horiz-adv-x="1241" 
d="M1108 855h57q-6 -156 -81 -239.5t-188 -83.5q-53 0 -112.5 17t-262.5 102q-146 61 -211 61q-144 0 -176 -179h-58q7 161 80 242t180 81q55 0 111 -16q104 -30 272 -103q93 -40 145 -55q31 -9 67 -9q72 0 120 47.5t57 134.5z" />
    <glyph glyph-name="Adieresis" unicode="&#xc4;" horiz-adv-x="1593" 
d="M63 84q94 5 116 19q15 10 47 76q61 130 156 361l354 867h147l452 -1074q88 -209 108.5 -229t126.5 -27v-84q-163 7 -308 7q-173 0 -329 -7v84q119 5 137.5 13.5t18.5 30.5q0 19 -42 130l-66 171q-124 2 -277 2q-133 0 -242 -2l-44 -115q-18 -47 -44 -140q-6 -21 -6 -38
q0 -23 19.5 -32.5t140.5 -19.5v-84q-98 7 -244 7q-139 0 -221 -7v91zM719 1053l-211 -513q92 -5 203 -5q116 0 222 5zM595 1740q50 0 85.5 -35.5t35.5 -85.5q0 -51 -35.5 -86.5t-85.5 -35.5t-85.5 35.5t-35.5 86.5q0 50 35.5 85.5t85.5 35.5zM1019 1740q50 0 85 -35.5
t35 -85.5q0 -51 -35.5 -86.5t-84.5 -35.5q-50 0 -85.5 35.5t-35.5 86.5q0 50 35.5 85.5t85.5 35.5z" />
    <glyph glyph-name="Aring" unicode="&#xc5;" horiz-adv-x="1593" 
d="M63 84q94 5 116 19q15 10 47 76q61 130 156 361l354 867h147l452 -1074q88 -209 108.5 -229t126.5 -27v-84q-163 7 -308 7q-173 0 -329 -7v84q119 5 137.5 13.5t18.5 30.5q0 19 -42 130l-66 171q-124 2 -277 2q-133 0 -242 -2l-44 -115q-18 -47 -44 -140q-6 -21 -6 -38
q0 -23 19.5 -32.5t140.5 -19.5v-84q-98 7 -244 7q-139 0 -221 -7v91zM719 1053l-211 -513q92 -5 203 -5q116 0 222 5zM817 1891q82 0 140 -58.5t58 -141.5t-58.5 -141t-140.5 -58q-83 0 -141.5 58t-58.5 141q0 84 58.5 142t142.5 58zM816 1813q-51 0 -86.5 -35.5
t-35.5 -86.5q0 -50 35.5 -86t86.5 -36q50 0 86 36t36 86q0 51 -36 86.5t-86 35.5z" />
    <glyph glyph-name="Ccedilla" unicode="&#xc7;" horiz-adv-x="1479" 
d="M1391 210l25 -23q-26 -50 -46 -102q-116 -61 -223.5 -86.5t-247.5 -25.5q-262 0 -443 92t-278.5 259t-97.5 383q0 311 220.5 509.5t608.5 198.5q129 0 255.5 -23t251.5 -70l7 -15q-18 -54 -25 -104q-13 -87 -20 -216h-84q-6 158 -12 173.5t-55 53t-132.5 61t-184.5 23.5
q-240 0 -381.5 -148t-141.5 -412q0 -286 170 -463q157 -164 431 -164q106 0 198.5 22t204.5 77zM912 0l-53 -125q39 6 65 6q83 0 129.5 -42.5t46.5 -107.5q0 -81 -72 -140.5t-198 -59.5q-110 0 -228 50l37 71q116 -43 185 -43q61 0 94 29.5t33 75.5q0 42 -29 69t-82 27
q-29 0 -65 -13l-20 15l85 188h72z" />
    <glyph glyph-name="Eacute" unicode="&#xc9;" horiz-adv-x="1251" 
d="M138 -7v54q53 24 97 56q20 156 20 656q0 341 -7 452q-3 59 -20.5 74.5t-148.5 26.5v84q236 -9 373 -9l551 6q87 0 157 -7l7 -11q-22 -109 -32 -290h-79q-5 146 -11.5 156t-45.5 19q-83 18 -254 18q-84 0 -196 -7q-13 -309 -15 -492q107 -7 201 -7q139 0 167 9q17 6 24 29
q6 18 14 126h86q-5 -169 -5 -220l5 -225h-86q-7 131 -18 151q-6 12 -27 17q-50 11 -225 11q-55 0 -129 -6q-2 -53 -2 -108q0 -286 10 -440l198 -3q169 0 309 18q25 92 48 209h83q-23 -176 -27 -338q-91 -10 -175 -10q-55 0 -217 4q-151 4 -278 4q-167 0 -352 -7zM582 1494
h-99l232 224q82 79 110.5 95.5t59.5 16.5q38 0 61.5 -22.5t23.5 -56.5q0 -30 -19.5 -51t-122.5 -75z" />
    <glyph glyph-name="Ntilde" unicode="&#xd1;" horiz-adv-x="1706" 
d="M68 -7v84q122 5 143 16q14 8 21 26q11 24 14 169q6 240 6 362l-2 423q0 168 -11 194q-6 15 -19 22q-20 12 -152 23v84q158 -5 234 -5q84 0 191 5l520 -638q193 -230 333 -380v396q0 225 -6 388q-4 97 -16 119q-6 12 -22 17t-140 14v84q109 -5 217 -5q148 0 268 5v-84
q-112 -7 -135 -16q-13 -5 -21 -14t-12 -23q-7 -24 -8 -154l-3 -400l-2 -403q0 -162 7 -324l-13 -14q-121 22 -171 29l-621 716q-184 218 -297 367v-389q0 -159 5 -383q3 -165 14 -190q4 -11 15 -17q19 -11 144 -20v-84q-162 7 -232 7q-58 0 -249 -7zM575 1541h-73
q66 233 240 233q39 0 81 -9.5t143 -47.5q79 -29 115 -29q43 0 68 18t51 76h66q-60 -231 -232 -231q-68 0 -184 46q-98 40 -147 40q-46 0 -75.5 -20.5t-52.5 -75.5z" />
    <glyph glyph-name="Odieresis" unicode="&#xd6;" horiz-adv-x="1706" 
d="M841 -27q-369 0 -565 189.5t-196 521.5q0 232 95 394.5t263.5 249.5t433.5 87q255 0 417 -83.5t249.5 -232t87.5 -364.5q0 -234 -96 -404.5t-270.5 -264t-418.5 -93.5zM879 82q201 0 320.5 148.5t119.5 451.5q0 318 -137 488q-111 137 -342 137q-216 0 -334.5 -143
t-118.5 -440q0 -214 65 -362.5t165.5 -214t261.5 -65.5zM641 1740q50 0 85.5 -35.5t35.5 -85.5q0 -51 -35.5 -86.5t-85.5 -35.5t-85.5 35.5t-35.5 86.5q0 50 35.5 85.5t85.5 35.5zM1065 1740q50 0 85 -35.5t35 -85.5q0 -51 -35.5 -86.5t-84.5 -35.5q-50 0 -85.5 35.5
t-35.5 86.5q0 50 35.5 85.5t85.5 35.5z" />
    <glyph glyph-name="Udieresis" unicode="&#xdc;" horiz-adv-x="1593" 
d="M57 1312v84q204 -7 358 -7q98 0 277 7v-84q-92 0 -130 -16q-13 -5 -21 -17q-11 -14 -15 -47q-6 -56 -10 -322q-3 -185 -3 -376q0 -157 36 -230.5t105 -109.5q100 -51 218 -51q161 0 246 53t114 146t29 407l-1 370q-1 125 -12 150q-6 14 -21 21q-24 14 -146 22v84
q129 -7 238 -7q94 0 231 7v-84q-99 0 -123.5 -22t-29.5 -114q-11 -224 -12 -507q0 -181 -5 -237q-11 -138 -67 -235.5t-186 -160.5t-323 -63q-201 0 -334 60t-189 151.5t-56 268.5l5 450q0 54 -5 275q-2 69 -15 94q-8 14 -24.5 22t-128.5 18zM659 1740q50 0 85.5 -35.5
t35.5 -85.5q0 -51 -35.5 -86.5t-85.5 -35.5t-85.5 35.5t-35.5 86.5q0 50 35.5 85.5t85.5 35.5zM1083 1740q50 0 85 -35.5t35 -85.5q0 -51 -35.5 -86.5t-84.5 -35.5q-50 0 -85.5 35.5t-35.5 86.5q0 50 35.5 85.5t85.5 35.5z" />
    <glyph glyph-name="aacute" unicode="&#xe1;" 
d="M979 77v-83l-77 3q-61 3 -122 3q-94 0 -178 -6l-10 11l10 138l-209 -157q-56 -13 -99 -13q-106 0 -164 63t-58 184q0 149 79 210q102 80 451 143q-2 118 -41 171q-55 73 -170 73q-27 0 -55.5 -6.5t-57.5 -20.5l-45 -107l-69 17l2 45l-1 44l-1 40q153 95 220 119
q49 18 136 18q118 0 192 -35.5t108 -96.5t34 -178q0 -49 -4 -175q-4 -130 -4 -209q0 -125 7 -152q4 -16 19.5 -25t106.5 -18zM602 487q-176 -38 -229 -82.5t-53 -119.5q0 -61 34 -96t86 -35q79 0 162 89v244zM368 1053h-99l232 224q82 79 110.5 95.5t59.5 16.5
q38 0 61.5 -22.5t23.5 -56.5q0 -30 -19.5 -51t-122.5 -75z" />
    <glyph glyph-name="agrave" unicode="&#xe0;" 
d="M979 77v-83l-77 3q-61 3 -122 3q-94 0 -178 -6l-10 11l10 138l-209 -157q-56 -13 -99 -13q-106 0 -164 63t-58 184q0 149 79 210q102 80 451 143q-2 118 -41 171q-55 73 -170 73q-27 0 -55.5 -6.5t-57.5 -20.5l-45 -107l-69 17l2 45l-1 44l-1 40q153 95 220 119
q49 18 136 18q118 0 192 -35.5t108 -96.5t34 -178q0 -49 -4 -175q-4 -130 -4 -209q0 -125 7 -152q4 -16 19.5 -25t106.5 -18zM602 487q-176 -38 -229 -82.5t-53 -119.5q0 -61 34 -96t86 -35q79 0 162 89v244zM617 1053l-247 131q-104 56 -122.5 76t-18.5 51q0 33 23.5 55.5
t61.5 22.5q31 0 58.5 -16t110.5 -96l232 -224h-98z" />
    <glyph glyph-name="acircumflex" unicode="&#xe2;" 
d="M979 77v-83l-77 3q-61 3 -122 3q-94 0 -178 -6l-10 11l10 138l-209 -157q-56 -13 -99 -13q-106 0 -164 63t-58 184q0 149 79 210q102 80 451 143q-2 118 -41 171q-55 73 -170 73q-27 0 -55.5 -6.5t-57.5 -20.5l-45 -107l-69 17l2 45l-1 44l-1 40q153 95 220 119
q49 18 136 18q118 0 192 -35.5t108 -96.5t34 -178q0 -49 -4 -175q-4 -130 -4 -209q0 -125 7 -152q4 -16 19.5 -25t106.5 -18zM602 487q-176 -38 -229 -82.5t-53 -119.5q0 -61 34 -96t86 -35q79 0 162 89v244zM189 1049l276 342h117l254 -342h-83l-232 199l-245 -199h-87z
" />
    <glyph glyph-name="adieresis" unicode="&#xe4;" 
d="M979 77v-83l-77 3q-61 3 -122 3q-94 0 -178 -6l-10 11l10 138l-209 -157q-56 -13 -99 -13q-106 0 -164 63t-58 184q0 149 79 210q102 80 451 143q-2 118 -41 171q-55 73 -170 73q-27 0 -55.5 -6.5t-57.5 -20.5l-45 -107l-69 17l2 45l-1 44l-1 40q153 95 220 119
q49 18 136 18q118 0 192 -35.5t108 -96.5t34 -178q0 -49 -4 -175q-4 -130 -4 -209q0 -125 7 -152q4 -16 19.5 -25t106.5 -18zM602 487q-176 -38 -229 -82.5t-53 -119.5q0 -61 34 -96t86 -35q79 0 162 89v244zM301 1299q50 0 85.5 -35.5t35.5 -85.5q0 -51 -35.5 -86.5
t-85.5 -35.5t-85.5 35.5t-35.5 86.5q0 50 35.5 85.5t85.5 35.5zM725 1299q50 0 85 -35.5t35 -85.5q0 -51 -35.5 -86.5t-84.5 -35.5q-50 0 -85.5 35.5t-35.5 86.5q0 50 35.5 85.5t85.5 35.5z" />
    <glyph glyph-name="atilde" unicode="&#xe3;" 
d="M979 77v-83l-77 3q-61 3 -122 3q-94 0 -178 -6l-10 11l10 138l-209 -157q-56 -13 -99 -13q-106 0 -164 63t-58 184q0 149 79 210q102 80 451 143q-2 118 -41 171q-55 73 -170 73q-27 0 -55.5 -6.5t-57.5 -20.5l-45 -107l-69 17l2 45l-1 44l-1 40q153 95 220 119
q49 18 136 18q118 0 192 -35.5t108 -96.5t34 -178q0 -49 -4 -175q-4 -130 -4 -209q0 -125 7 -152q4 -16 19.5 -25t106.5 -18zM602 487q-176 -38 -229 -82.5t-53 -119.5q0 -61 34 -96t86 -35q79 0 162 89v244zM204 1100h-73q66 233 240 233q39 0 81 -9.5t143 -47.5
q79 -29 115 -29q43 0 68 18t51 76h66q-60 -231 -232 -231q-68 0 -184 46q-98 40 -147 40q-46 0 -75.5 -20.5t-52.5 -75.5z" />
    <glyph glyph-name="aring" unicode="&#xe5;" 
d="M979 77v-83l-77 3q-61 3 -122 3q-94 0 -178 -6l-10 11l10 138l-209 -157q-56 -13 -99 -13q-106 0 -164 63t-58 184q0 149 79 210q102 80 451 143q-2 118 -41 171q-55 73 -170 73q-27 0 -55.5 -6.5t-57.5 -20.5l-45 -107l-69 17l2 45l-1 44l-1 40q153 95 220 119
q49 18 136 18q118 0 192 -35.5t108 -96.5t34 -178q0 -49 -4 -175q-4 -130 -4 -209q0 -125 7 -152q4 -16 19.5 -25t106.5 -18zM602 487q-176 -38 -229 -82.5t-53 -119.5q0 -61 34 -96t86 -35q79 0 162 89v244zM513 1450q82 0 140 -58.5t58 -141.5t-58.5 -141t-140.5 -58
q-83 0 -141.5 58t-58.5 141q0 84 58.5 142t142.5 58zM512 1372q-51 0 -86.5 -35.5t-35.5 -86.5q0 -50 35.5 -86t86.5 -36q50 0 86 36t36 86q0 51 -36 86.5t-86 35.5z" />
    <glyph glyph-name="ccedilla" unicode="&#xe7;" horiz-adv-x="909" 
d="M787 606h-83q-7 119 -17 137q-13 28 -58.5 51t-114.5 23q-106 0 -154.5 -60.5t-48.5 -217.5q0 -199 91 -307.5t234 -108.5q52 0 95.5 9t79.5 26l17 -22q-22 -48 -41 -97q-66 -33 -134.5 -49.5t-138.5 -16.5q-218 0 -339.5 120.5t-121.5 342.5q0 82 16 148.5t43.5 113
t60.5 75.5q20 16 172 111q89 56 129.5 69t108.5 13q60 0 117 -9t111 -27l17 -18q-36 -167 -41 -306zM522 0l-53 -125q39 6 65 6q83 0 129.5 -42.5t46.5 -107.5q0 -81 -72 -140.5t-198 -59.5q-110 0 -228 50l37 71q116 -43 185 -43q61 0 94 29.5t33 75.5q0 42 -29 69t-82 27
q-29 0 -65 -13l-20 15l85 188h72z" />
    <glyph glyph-name="eacute" unicode="&#xe9;" 
d="M893 188l29 -29l-45 -96q-72 -45 -154.5 -67.5t-175.5 -22.5q-218 0 -343.5 126.5t-125.5 355.5q0 145 37 240q30 77 98.5 128t158 97t196.5 46q164 0 271 -91.5t107 -294.5q0 -25 -3 -76l-164 -30q-76 -5 -220 -5h-217q15 -172 103 -259t224 -87q57 0 113 16.5t111 48.5
zM335 575q90 -8 180 -8q79 0 166 8l1 47q0 123 -45 179.5t-122 56.5q-54 0 -93 -26.5t-58 -74.5t-29 -182zM367 1053h-99l232 224q82 79 110.5 95.5t59.5 16.5q38 0 61.5 -22.5t23.5 -56.5q0 -30 -19.5 -51t-122.5 -75z" />
    <glyph glyph-name="egrave" unicode="&#xe8;" 
d="M893 188l29 -29l-45 -96q-72 -45 -154.5 -67.5t-175.5 -22.5q-218 0 -343.5 126.5t-125.5 355.5q0 145 37 240q30 77 98.5 128t158 97t196.5 46q164 0 271 -91.5t107 -294.5q0 -25 -3 -76l-164 -30q-76 -5 -220 -5h-217q15 -172 103 -259t224 -87q57 0 113 16.5t111 48.5
zM335 575q90 -8 180 -8q79 0 166 8l1 47q0 123 -45 179.5t-122 56.5q-54 0 -93 -26.5t-58 -74.5t-29 -182zM656 1053l-247 131q-104 56 -122.5 76t-18.5 51q0 33 23.5 55.5t61.5 22.5q31 0 58.5 -16t110.5 -96l232 -224h-98z" />
    <glyph glyph-name="ecircumflex" unicode="&#xea;" 
d="M893 188l29 -29l-45 -96q-72 -45 -154.5 -67.5t-175.5 -22.5q-218 0 -343.5 126.5t-125.5 355.5q0 145 37 240q30 77 98.5 128t158 97t196.5 46q164 0 271 -91.5t107 -294.5q0 -25 -3 -76l-164 -30q-76 -5 -220 -5h-217q15 -172 103 -259t224 -87q57 0 113 16.5t111 48.5
zM335 575q90 -8 180 -8q79 0 166 8l1 47q0 123 -45 179.5t-122 56.5q-54 0 -93 -26.5t-58 -74.5t-29 -182zM189 1049l276 342h117l254 -342h-83l-232 199l-245 -199h-87z" />
    <glyph glyph-name="edieresis" unicode="&#xeb;" 
d="M893 188l29 -29l-45 -96q-72 -45 -154.5 -67.5t-175.5 -22.5q-218 0 -343.5 126.5t-125.5 355.5q0 145 37 240q30 77 98.5 128t158 97t196.5 46q164 0 271 -91.5t107 -294.5q0 -25 -3 -76l-164 -30q-76 -5 -220 -5h-217q15 -172 103 -259t224 -87q57 0 113 16.5t111 48.5
zM335 575q90 -8 180 -8q79 0 166 8l1 47q0 123 -45 179.5t-122 56.5q-54 0 -93 -26.5t-58 -74.5t-29 -182zM329 1299q50 0 85.5 -35.5t35.5 -85.5q0 -51 -35.5 -86.5t-85.5 -35.5t-85.5 35.5t-35.5 86.5q0 50 35.5 85.5t85.5 35.5zM753 1299q50 0 85 -35.5t35 -85.5
q0 -51 -35.5 -86.5t-84.5 -35.5q-50 0 -85.5 35.5t-35.5 86.5q0 50 35.5 85.5t85.5 35.5z" />
    <glyph glyph-name="iacute" unicode="&#xed;" horiz-adv-x="682" 
d="M63 -6v83q113 4 130.5 14t22.5 56q8 63 8 278q0 93 -3 172l-3 117q0 58 -12.5 71.5t-67.5 15.5l-75 3v77q241 18 397 85l25 -20q-14 -191 -14 -556q0 -211 7 -255q5 -31 18.5 -40t131.5 -18v-83q-181 6 -280 6q-53 0 -285 -6zM196 1053h-99l232 224q82 79 110.5 95.5
t59.5 16.5q38 0 61.5 -22.5t23.5 -56.5q0 -30 -19.5 -51t-122.5 -75z" />
    <glyph glyph-name="igrave" unicode="&#xec;" horiz-adv-x="682" 
d="M63 -6v83q113 4 130.5 14t22.5 56q8 63 8 278q0 93 -3 172l-3 117q0 58 -12.5 71.5t-67.5 15.5l-75 3v77q241 18 397 85l25 -20q-14 -191 -14 -556q0 -211 7 -255q5 -31 18.5 -40t131.5 -18v-83q-181 6 -280 6q-53 0 -285 -6zM485 1053l-247 131q-104 56 -122.5 76
t-18.5 51q0 33 23.5 55.5t61.5 22.5q31 0 58.5 -16t110.5 -96l232 -224h-98z" />
    <glyph glyph-name="icircumflex" unicode="&#xee;" horiz-adv-x="682" 
d="M63 -6v83q113 4 130.5 14t22.5 56q8 63 8 278q0 93 -3 172l-3 117q0 58 -12.5 71.5t-67.5 15.5l-75 3v77q241 18 397 85l25 -20q-14 -191 -14 -556q0 -211 7 -255q5 -31 18.5 -40t131.5 -18v-83q-181 6 -280 6q-53 0 -285 -6zM18 1049l276 342h117l254 -342h-83l-232 199
l-245 -199h-87z" />
    <glyph glyph-name="idieresis" unicode="&#xef;" horiz-adv-x="682" 
d="M63 -6v83q113 4 130.5 14t22.5 56q8 63 8 278q0 93 -3 172l-3 117q0 58 -12.5 71.5t-67.5 15.5l-75 3v77q241 18 397 85l25 -20q-14 -191 -14 -556q0 -211 7 -255q5 -31 18.5 -40t131.5 -18v-83q-181 6 -280 6q-53 0 -285 -6zM129 1299q50 0 85.5 -35.5t35.5 -85.5
q0 -51 -35.5 -86.5t-85.5 -35.5t-85.5 35.5t-35.5 86.5q0 50 35.5 85.5t85.5 35.5zM553 1299q50 0 85 -35.5t35 -85.5q0 -51 -35.5 -86.5t-84.5 -35.5q-50 0 -85.5 35.5t-35.5 86.5q0 50 35.5 85.5t85.5 35.5z" />
    <glyph glyph-name="ntilde" unicode="&#xf1;" horiz-adv-x="1251" 
d="M57 -6v83q109 6 123 17.5t17 51.5q6 101 6 356q0 126 -3 217q-2 56 -8 66q-5 8 -16 12t-119 7v77q54 0 168.5 23t192.5 53l27 9q14 0 14 -23l-1 -9q-3 -28 -3 -144l155 130q29 25 60 34q44 12 107 12q106 0 173.5 -36.5t99 -101t31.5 -200.5q0 -60 -3 -139
q-5 -162 -5 -280q0 -67 11 -93q8 -18 22.5 -24t109.5 -15v-83l-123 4l-79 2l-206 -6l-11 13q26 190 26 390q0 254 -31 313q-40 76 -146 76q-68 0 -118 -34.5t-65 -73.5q-7 -16 -7 -101q0 -362 3 -414.5t17 -64.5q18 -15 134 -21v-83q-174 6 -294 6q-71 0 -259 -6zM317 1100
h-73q66 233 240 233q39 0 81 -9.5t143 -47.5q79 -29 115 -29q43 0 68 18t51 76h66q-60 -231 -232 -231q-68 0 -184 46q-98 40 -147 40q-46 0 -75.5 -20.5t-52.5 -75.5z" />
    <glyph glyph-name="oacute" unicode="&#xf3;" horiz-adv-x="1139" 
d="M82 469q0 237 111 356q133 141 384 141q250 0 365 -113t115 -357q0 -251 -132.5 -387t-368.5 -136q-232 0 -353 127t-121 369zM359 538q0 -266 68 -379q53 -87 159 -87q93 0 143.5 74t50.5 269q0 268 -62 371q-51 82 -159 82q-93 0 -146.5 -75t-53.5 -255zM425 1053h-99
l232 224q82 79 110.5 95.5t59.5 16.5q38 0 61.5 -22.5t23.5 -56.5q0 -30 -19.5 -51t-122.5 -75z" />
    <glyph glyph-name="ograve" unicode="&#xf2;" horiz-adv-x="1139" 
d="M82 469q0 237 111 356q133 141 384 141q250 0 365 -113t115 -357q0 -251 -132.5 -387t-368.5 -136q-232 0 -353 127t-121 369zM359 538q0 -266 68 -379q53 -87 159 -87q93 0 143.5 74t50.5 269q0 268 -62 371q-51 82 -159 82q-93 0 -146.5 -75t-53.5 -255zM714 1053
l-247 131q-104 56 -122.5 76t-18.5 51q0 33 23.5 55.5t61.5 22.5q31 0 58.5 -16t110.5 -96l232 -224h-98z" />
    <glyph glyph-name="ocircumflex" unicode="&#xf4;" horiz-adv-x="1139" 
d="M82 469q0 237 111 356q133 141 384 141q250 0 365 -113t115 -357q0 -251 -132.5 -387t-368.5 -136q-232 0 -353 127t-121 369zM359 538q0 -266 68 -379q53 -87 159 -87q93 0 143.5 74t50.5 269q0 268 -62 371q-51 82 -159 82q-93 0 -146.5 -75t-53.5 -255zM246 1049
l276 342h117l254 -342h-83l-232 199l-245 -199h-87z" />
    <glyph glyph-name="odieresis" unicode="&#xf6;" horiz-adv-x="1139" 
d="M82 469q0 237 111 356q133 141 384 141q250 0 365 -113t115 -357q0 -251 -132.5 -387t-368.5 -136q-232 0 -353 127t-121 369zM359 538q0 -266 68 -379q53 -87 159 -87q93 0 143.5 74t50.5 269q0 268 -62 371q-51 82 -159 82q-93 0 -146.5 -75t-53.5 -255zM358 1299
q50 0 85.5 -35.5t35.5 -85.5q0 -51 -35.5 -86.5t-85.5 -35.5t-85.5 35.5t-35.5 86.5q0 50 35.5 85.5t85.5 35.5zM782 1299q50 0 85 -35.5t35 -85.5q0 -51 -35.5 -86.5t-84.5 -35.5q-50 0 -85.5 35.5t-35.5 86.5q0 50 35.5 85.5t85.5 35.5z" />
    <glyph glyph-name="otilde" unicode="&#xf5;" horiz-adv-x="1139" 
d="M82 469q0 237 111 356q133 141 384 141q250 0 365 -113t115 -357q0 -251 -132.5 -387t-368.5 -136q-232 0 -353 127t-121 369zM359 538q0 -266 68 -379q53 -87 159 -87q93 0 143.5 74t50.5 269q0 268 -62 371q-51 82 -159 82q-93 0 -146.5 -75t-53.5 -255zM261 1100h-73
q66 233 240 233q39 0 81 -9.5t143 -47.5q79 -29 115 -29q43 0 68 18t51 76h66q-60 -231 -232 -231q-68 0 -184 46q-98 40 -147 40q-46 0 -75.5 -20.5t-52.5 -75.5z" />
    <glyph glyph-name="uacute" unicode="&#xfa;" horiz-adv-x="1251" 
d="M39 804v77q160 15 299 57l99 35q18 0 18 -23l-4 -59q-17 -230 -17 -444q0 -138 14 -183.5t50.5 -70.5t97.5 -25q71 0 124.5 39t66 86t12.5 268q0 177 -6 207q-4 16 -14 22q-15 8 -136 14v77q205 23 301 54l106 38q17 0 17 -21l-2 -27q-17 -174 -17 -631q0 -140 8 -176
q5 -17 16 -24q16 -9 126 -17v-83q-115 6 -228 6q-92 0 -171 -6l-9 18q5 50 9 157q-93 -75 -180 -165q-71 -31 -140 -31q-92 0 -160 37t-100.5 96.5t-32.5 167.5l2 109q3 101 3 164q0 178 -7 213q-5 23 -21 32.5t-124 11.5zM481 1053h-99l232 224q82 79 110.5 95.5t59.5 16.5
q38 0 61.5 -22.5t23.5 -56.5q0 -30 -19.5 -51t-122.5 -75z" />
    <glyph glyph-name="ugrave" unicode="&#xf9;" horiz-adv-x="1251" 
d="M39 804v77q160 15 299 57l99 35q18 0 18 -23l-4 -59q-17 -230 -17 -444q0 -138 14 -183.5t50.5 -70.5t97.5 -25q71 0 124.5 39t66 86t12.5 268q0 177 -6 207q-4 16 -14 22q-15 8 -136 14v77q205 23 301 54l106 38q17 0 17 -21l-2 -27q-17 -174 -17 -631q0 -140 8 -176
q5 -17 16 -24q16 -9 126 -17v-83q-115 6 -228 6q-92 0 -171 -6l-9 18q5 50 9 157q-93 -75 -180 -165q-71 -31 -140 -31q-92 0 -160 37t-100.5 96.5t-32.5 167.5l2 109q3 101 3 164q0 178 -7 213q-5 23 -21 32.5t-124 11.5zM770 1053l-247 131q-104 56 -122.5 76t-18.5 51
q0 33 23.5 55.5t61.5 22.5q31 0 58.5 -16t110.5 -96l232 -224h-98z" />
    <glyph glyph-name="ucircumflex" unicode="&#xfb;" horiz-adv-x="1251" 
d="M39 804v77q160 15 299 57l99 35q18 0 18 -23l-4 -59q-17 -230 -17 -444q0 -138 14 -183.5t50.5 -70.5t97.5 -25q71 0 124.5 39t66 86t12.5 268q0 177 -6 207q-4 16 -14 22q-15 8 -136 14v77q205 23 301 54l106 38q17 0 17 -21l-2 -27q-17 -174 -17 -631q0 -140 8 -176
q5 -17 16 -24q16 -9 126 -17v-83q-115 6 -228 6q-92 0 -171 -6l-9 18q5 50 9 157q-93 -75 -180 -165q-71 -31 -140 -31q-92 0 -160 37t-100.5 96.5t-32.5 167.5l2 109q3 101 3 164q0 178 -7 213q-5 23 -21 32.5t-124 11.5zM302 1049l276 342h117l254 -342h-83l-232 199
l-245 -199h-87z" />
    <glyph glyph-name="udieresis" unicode="&#xfc;" horiz-adv-x="1251" 
d="M39 804v77q160 15 299 57l99 35q18 0 18 -23l-4 -59q-17 -230 -17 -444q0 -138 14 -183.5t50.5 -70.5t97.5 -25q71 0 124.5 39t66 86t12.5 268q0 177 -6 207q-4 16 -14 22q-15 8 -136 14v77q205 23 301 54l106 38q17 0 17 -21l-2 -27q-17 -174 -17 -631q0 -140 8 -176
q5 -17 16 -24q16 -9 126 -17v-83q-115 6 -228 6q-92 0 -171 -6l-9 18q5 50 9 157q-93 -75 -180 -165q-71 -31 -140 -31q-92 0 -160 37t-100.5 96.5t-32.5 167.5l2 109q3 101 3 164q0 178 -7 213q-5 23 -21 32.5t-124 11.5zM414 1299q50 0 85.5 -35.5t35.5 -85.5
q0 -51 -35.5 -86.5t-85.5 -35.5t-85.5 35.5t-35.5 86.5q0 50 35.5 85.5t85.5 35.5zM838 1299q50 0 85 -35.5t35 -85.5q0 -51 -35.5 -86.5t-84.5 -35.5q-50 0 -85.5 35.5t-35.5 86.5q0 50 35.5 85.5t85.5 35.5z" />
    <glyph glyph-name="dagger" unicode="&#x2020;" 
d="M644 1397l12 -10q-20 -190 -30 -446q188 3 333 20l12 -13q-10 -52 -10 -97q0 -43 10 -97l-12 -15q-124 15 -333 19l10 -691q6 -269 12 -356q4 -62 15 -139l-12 -14q-75 10 -139 10t-139 -10l-12 14q11 74 14 125q7 104 14 410l9 651q-209 -4 -333 -19l-12 15q10 54 10 97
q0 45 -10 97l12 13q145 -17 333 -20q-11 275 -30 446l13 10q65 -10 131 -10t132 10z" />
    <glyph glyph-name="degree" unicode="&#xb0;" horiz-adv-x="819" 
d="M721 1099q0 -133 -92.5 -225t-223.5 -92q-132 0 -223.5 92t-91.5 227q0 130 93.5 222t223.5 92t222 -92t92 -224zM604 1097q0 85 -57 143t-139 58q-84 0 -142.5 -58.5t-58.5 -140.5q0 -81 59 -140.5t141 -59.5q81 0 139 58.5t58 139.5z" />
    <glyph glyph-name="cent" unicode="&#xa2;" 
d="M594 1038v-661q35 -6 67 -6q97 0 166 39l19 -21q-21 -46 -39 -93q-60 -32 -104 -46t-109 -21q0 -99 5 -199h-108q6 105 7 199q-183 13 -287 127.5t-104 318.5q0 76 14 138t38.5 106.5t50.5 69.5t139 95.5t149 85.5q0 49 -7 162h111q-8 -83 -8 -145l24 1q111 0 215 -42
l13 -17q-35 -163 -39 -291h-79q-7 108 -14 127.5t-36 40.5t-84 32zM498 1037q-73 -13 -108 -70.5t-35 -195.5q0 -125 39 -215t104 -137v618z" />
    <glyph glyph-name="sterling" unicode="&#xa3;" 
d="M904 375h86q-13 -141 -13 -277l1 -79q-46 -42 -118 -42q-58 0 -128 12t-235 57q-176 48 -258 48l-58 -2q-58 -74 -98 -115h-46v163q55 45 125 78q30 106 40 190t10 247l-160 -1l-21 20q11 43 14 97q64 -5 167 -6q0 213 25 286.5t115.5 143.5t223.5 145q109 61 226 61
q102 0 192 -44q-22 -143 -30 -290h-78q-5 116 -13 135t-44 36q-51 26 -112 26q-70 0 -121 -40.5t-73.5 -121t-39.5 -337.5l111 -1q132 0 214 7l22 -26q-10 -30 -22 -91q-75 3 -174 3l-163 -2q-19 -118 -66 -219.5t-142 -217.5q109 6 166 6q99 0 313 -14q74 -5 99 -5
q28 0 36.5 10t14.5 63z" />
    <glyph glyph-name="section" unicode="&#xa7;" 
d="M840 248q44 -36 66 -85t22 -110q0 -125 -67.5 -240t-184 -180t-247.5 -65q-147 0 -346 99q26 167 26 371l28 -1l61 -1q26 0 70 2l-2 -79l-2 -63l2 -68q44 -42 105.5 -66t119.5 -24q69 0 127.5 28t87.5 75.5t29 104.5t-36 97t-146 79l-310 115q-96 44 -142 106t-46 146
q0 153 138 272q-57 65 -73 104t-16 99q0 176 139 313.5t318 137.5q118 0 311 -57q-16 -201 -17 -381l-95 3l-64 -1q9 111 9 190q-69 66 -196 66q-95 0 -153.5 -52.5t-58.5 -127.5q0 -45 25 -82t83 -64q26 -12 280 -95q128 -41 178.5 -77.5t78.5 -92t28 -127.5
q0 -161 -130 -269zM312 695q-48 -59 -48 -126q0 -51 40 -88q39 -38 190.5 -86.5t225.5 -82.5q40 67 40 125q0 60 -44 99.5t-219 95.5q-120 39 -185 63z" />
    <glyph glyph-name="bullet" unicode="&#x2022;" horiz-adv-x="1241" 
d="M621 1026q122 0 208.5 -86.5t86.5 -208.5t-86.5 -208.5t-208.5 -86.5t-208.5 86.5t-86.5 208.5t86.5 208.5t208.5 86.5z" />
    <glyph glyph-name="paragraph" unicode="&#xb6;" horiz-adv-x="1313" 
d="M744 1310v-1786h-104v903q-203 9 -317.5 67t-177.5 167.5t-63 257.5q0 158 66 252q88 128 209 176q104 42 418 42h456v-46h-45q-62 0 -94 -19.5t-47 -56.5q-10 -25 -10 -135v-1608h-102v1786h-189z" />
    <glyph glyph-name="germandbls" unicode="&#xdf;" horiz-adv-x="1251" 
d="M51 -6v83l63 3q69 2 79 30q16 42 16 372q0 97 -4 277h-148v43q86 50 148 92q1 136 5 161q11 72 47.5 128.5t117.5 120.5q132 105 207 139t163 34q156 0 238 -78.5t82 -222.5q0 -65 -11.5 -131.5t-52.5 -213.5l-26 -18q-58 41 -111 41q-49 0 -76.5 -24.5t-27.5 -61.5
q0 -35 27 -62.5t197 -122.5q101 -56 135 -107t34 -124q0 -100 -60.5 -176t-149 -139.5t-187.5 -63.5q-42 0 -85 9.5t-87 28.5l-7 -17q-125 6 -249 6q-126 0 -277 -6zM672 241v-101q28 -29 63 -43.5t77 -14.5q63 0 97.5 32.5t34.5 87.5q0 48 -29 84.5t-138 100.5
q-108 64 -150 115.5t-42 131.5q0 56 18 96t80 107q76 82 97 94q43 26 120 26q8 41 11.5 73.5t3.5 56.5q0 124 -59 188t-169 64q-79 0 -131.5 -33.5t-74 -92t-21.5 -212.5l-4 -550q0 -258 3 -303t20 -57t105 -16q7 52 17 156z" />
    <glyph glyph-name="registered" unicode="&#xae;" horiz-adv-x="1530" 
d="M766 1409q191 0 357 -96t261.5 -261.5t95.5 -357.5t-95 -357.5t-261.5 -261.5t-357.5 -96q-192 0 -358 96t-261.5 261.5t-95.5 357.5t95.5 357.5t262 261.5t357.5 96zM766 1301q-161 0 -301 -81.5t-220.5 -222t-80.5 -303.5q0 -162 80.5 -303t220.5 -222t301 -81
t300.5 81t220.5 221.5t81 303.5q0 164 -80.5 304t-220.5 221.5t-301 81.5zM436 1054v44h339q162 0 225 -53t63 -138q0 -78 -60 -136q-44 -44 -145 -66q45 -10 78 -46t85 -145.5t72 -126.5t54 -16v-41h-128q-28 0 -54 14q-17 9 -36 38.5t-55 114.5q-55 133 -79.5 157
t-76.5 24h-51v-229q0 -45 6 -57t19 -17q9 -4 64 -4v-41h-322v41q66 0 78 9.5t12 55.5v548q0 50 -10.5 59t-77.5 11zM667 729q27 -3 41 -3q111 0 158 41.5t47 124.5q0 80 -42.5 119.5t-149.5 39.5q-35 0 -43 -8q-11 -12 -11 -44v-270z" />
    <glyph glyph-name="copyright" unicode="&#xa9;" horiz-adv-x="1530" 
d="M765 1409q191 0 357 -96t261.5 -262t95.5 -358t-95.5 -358t-261.5 -262t-357 -96q-192 0 -358 96t-261.5 262t-95.5 358t95.5 358t261.5 262t358 96zM765 1303q-161 0 -300.5 -81.5t-220.5 -222.5t-81 -304q0 -164 81 -305.5t220.5 -222.5t300.5 -81q160 0 300 81.5
t221 222.5t81 304q0 164 -81 305t-220.5 222.5t-300.5 81.5zM1068 1032v-209h-67q-4 52 -32 100t-70 71.5t-95 23.5q-106 0 -175 -80.5t-69 -224.5q0 -162 76.5 -254.5t187.5 -92.5q61 0 115.5 29.5t82.5 75.5l16 25l54 -21q-18 -47 -64.5 -91t-116.5 -69.5t-149 -25.5
q-111 0 -197 49.5t-134.5 141.5t-48.5 207q0 178 112 289t295 111q58 0 154.5 -20.5t124.5 -34.5z" />
    <glyph glyph-name="trademark" unicode="&#x2122;" horiz-adv-x="2044" 
d="M856 1389q-5 -48 -5 -79l5 -136h-72q-4 86 -37 113t-141 27l-55 -1v-618q0 -33 7 -44t22 -15l92 -5v-62h-427v62q91 1 111 14t20 56v612l-49 1q-116 0 -153 -31.5t-37 -108.5h-73q13 118 12 215h780zM1980 1389v-57q-70 -1 -78 -5q-22 -10 -22 -45v-574q0 -44 16 -57.5
t84 -19.5v-62h-377v62q68 2 85.5 16.5t17.5 58.5v558l-282 -695h-25l-301 695v-554q0 -36 7 -48q9 -15 28 -23q14 -6 64 -8v-62h-277v62q71 0 84 12q19 17 19 72v567q0 33 -14 43q-9 7 -72 7v57h300l225 -521l218 521h300z" />
    <glyph glyph-name="acute" unicode="&#xb4;" horiz-adv-x="682" 
d="M196 1053h-99l232 224q82 79 110.5 95.5t59.5 16.5q38 0 61.5 -22.5t23.5 -56.5q0 -30 -19.5 -51t-122.5 -75z" />
    <glyph glyph-name="dieresis" unicode="&#xa8;" horiz-adv-x="682" 
d="M129 1299q50 0 85.5 -35.5t35.5 -85.5q0 -51 -35.5 -86.5t-85.5 -35.5t-85.5 35.5t-35.5 86.5q0 50 35.5 85.5t85.5 35.5zM553 1299q50 0 85 -35.5t35 -85.5q0 -51 -35.5 -86.5t-84.5 -35.5q-50 0 -85.5 35.5t-35.5 86.5q0 50 35.5 85.5t85.5 35.5z" />
    <glyph glyph-name="notequal" unicode="&#x2260;" horiz-adv-x="1124" 
d="M339 414h-287v187h370l82 187h-452v187h534l194 440h198l-194 -440h287v-187h-369l-82 -187h451v-187h-534l-194 -441h-198z" />
    <glyph glyph-name="AE" unicode="&#xc6;" horiz-adv-x="2048" 
d="M18 -7v84q79 3 101.5 14.5t48.5 50.5l161 261l444 736q66 115 66 131t-17.5 22t-178.5 15v88q202 -8 546 -8l591 6q74 0 145 -6l9 -11q-19 -132 -30 -293h-78q-10 138 -18.5 151.5t-42.5 21.5q-88 18 -250 18q-65 0 -193 -6l-9 -282l-4 -211l166 -1q162 0 191 7
q17 4 22 15q10 17 19 140h86q-4 -128 -4 -235q0 -104 4 -212h-86q-6 136 -16 151q-9 13 -44 17q-46 5 -338 9q1 -341 13 -548q147 -8 219 -8q152 0 285 21q28 88 54 209h84q-24 -147 -39 -338q-117 -10 -217 -10l-445 8q-267 0 -362 -7v55q46 21 105 60q18 184 18 326
l-252 2l-283 -2l-111 -190q-53 -90 -53 -123q0 -20 19.5 -28.5t144.5 -15.5v-84q-154 7 -236 7q-87 0 -235 -7zM1024 546v678q0 44 -17 44q-8 0 -18 -11q-20 -22 -74 -112l-362 -599l262 -3q73 0 209 3z" />
    <glyph glyph-name="Oslash" unicode="&#xd8;" horiz-adv-x="1706" 
d="M225 218q-76 98 -111 208.5t-35 256.5q0 233 95.5 395.5t263.5 249.5t434 87q159 0 276 -31.5t214 -97.5l209 197l82 -86l-201 -188q174 -178 174 -474q0 -347 -211.5 -554.5t-578.5 -207.5q-168 0 -308.5 45.5t-219.5 115.5l-204 -191l-80 86zM432 412l772 726
q-60 88 -146.5 128.5t-218.5 40.5q-215 0 -334 -143t-119 -440q0 -178 46 -312zM1262 1030l-779 -732q63 -111 155.5 -163.5t223.5 -52.5q216 0 336.5 147t120.5 453q0 200 -57 348z" />
    <glyph glyph-name="infinity" unicode="&#x221e;" horiz-adv-x="1460" 
d="M654 667q65 149 143.5 213t226.5 64q162 0 272.5 -117t110.5 -300q0 -204 -133 -327q-101 -93 -216 -93q-86 0 -159 53.5t-178 232.5q-66 -128 -143.5 -180.5t-180.5 -52.5q-145 0 -244 103.5t-99 265.5t91 264.5t216 102.5q88 0 153.5 -46t139.5 -183zM750 464
q73 -152 145.5 -207.5t166.5 -55.5q124 0 206 89.5t82 236.5q0 145 -86 242t-196 97q-63 0 -111 -29t-91 -97q-30 -49 -110 -261zM625 590q-53 119 -118 166.5t-149 47.5q-106 0 -177.5 -75t-71.5 -199q0 -130 69.5 -211t160.5 -81q81 0 146 62.5t129 255.5z" />
    <glyph glyph-name="plusminus" unicode="&#xb1;" horiz-adv-x="1124" 
d="M52 745v187h416v417h187v-417h416v-187h-416v-416h-187v416h-416zM52 24v187h1019v-187h-1019z" />
    <glyph glyph-name="lessequal" unicode="&#x2264;" horiz-adv-x="1124" 
d="M1071 481v-207l-1019 464v173l1019 464v-206l-761 -344zM52 0v187h1019v-187h-1019z" />
    <glyph glyph-name="greaterequal" unicode="&#x2265;" horiz-adv-x="1124" 
d="M52 481l761 344l-761 344v206l1019 -464v-173l-1019 -464v207zM1071 0h-1019v187h1019v-187z" />
    <glyph glyph-name="yen" unicode="&#xa5;" 
d="M701 730h306v-109h-354q-6 -61 -6 -100l1 -101h359v-109h-359q4 -156 13 -186q6 -20 21 -28q21 -10 137 -15v-89q-119 7 -271 7q-186 0 -322 -7v83q110 5 135 22q18 13 23 52l5 161h-372v109h374q0 95 -6 128.5t-25 72.5h-343v109h286q-121 223 -206 356.5t-139 171.5
q-18 12 -44 12l-42 -2v76q31 6 199 46q54 13 95 25q64 -40 88 -68q44 -51 122 -195t202 -422l191 364l149 301h147v-45q-38 -49 -62 -89l-153 -265q-111 -190 -149 -266z" />
    <glyph glyph-name="mu1" unicode="&#xb5;" horiz-adv-x="1180" 
d="M1151 139v-56l-265 -98q-10 -4 -20 -4q-35 0 -63.5 44t-28.5 130q-78 -100 -151.5 -141t-153.5 -41q-64 0 -110.5 29t-103.5 114q3 -79 10 -126.5t28 -125.5q24 -87 24 -126q0 -53 -31.5 -82.5t-91.5 -29.5q-61 0 -93 31.5t-32 88.5q0 37 16 114q71 343 71 758v310h233
v-577q0 -131 33 -174q42 -56 124 -56q61 0 114.5 28.5t113.5 103.5v675h232v-675q0 -81 16 -104.5t54 -23.5q34 0 75 14z" />
    <glyph glyph-name="partialdiff" unicode="&#x2202;" horiz-adv-x="1012" 
d="M371 1150h-42q51 144 141 214t207 70q92 0 159 -42.5t101 -121t34 -229.5q0 -338 -97 -597.5t-237 -380.5q-99 -86 -242 -86q-96 0 -165.5 38t-110 113t-40.5 165q0 150 89.5 305t228.5 245.5t269 90.5q164 0 236 -150q8 82 8 127q0 164 -106 257q-75 66 -207 66
q-80 0 -130.5 -19.5t-95.5 -64.5zM886 691q-63 192 -214 192q-68 0 -141.5 -66t-134.5 -245.5t-61 -359.5q0 -95 29 -131.5t90 -36.5q68 0 128 47q96 74 180 235.5t124 364.5z" />
    <glyph glyph-name="summation" unicode="&#x2211;" horiz-adv-x="1460" 
d="M1356 -543h-1313v37l669 984l-669 972v37h1278l27 -337h-40q-15 136 -76 196t-173 60h-740l572 -828l-639 -944h818q87 0 166 31q51 21 85.5 68t58.5 147l40 -8z" />
    <glyph glyph-name="product" unicode="&#x220f;" horiz-adv-x="1685" 
d="M1240 1409h-795v-1759q0 -84 37 -119.5t125 -35.5h36v-38h-597v38h35q93 0 128 37.5t35 117.5v1644q0 84 -37 119.5t-126 35.5h-35v38h1594v-38h-35q-92 0 -127 -37.5t-35 -117.5v-1644q0 -84 37 -119.5t125 -35.5h35v-38h-597v38h35q93 0 127.5 37.5t34.5 117.5v1759z
" />
    <glyph glyph-name="pi" unicode="&#xf010;" horiz-adv-x="1124" 
d="M1039 935v-207h-215q-36 -305 -36 -424q0 -90 22.5 -124t64.5 -34q99 0 118 170h37q-7 -203 -81 -286q-51 -58 -130 -58q-85 0 -138 76.5t-53 254.5q0 76 7 172l28 253h-198q-27 -396 -49 -509q-30 -152 -89 -213q-33 -34 -78 -34t-75.5 30t-30.5 72q0 53 56 152
q54 97 68 167q29 148 33 335q-94 0 -137 -24.5t-74 -91.5h-37q37 123 90.5 200t100.5 100t164 23h632z" />
    <glyph glyph-name="integral" unicode="&#x222b;" horiz-adv-x="561" 
d="M200 895q0 226 16 529q10 201 53 310q26 64 73 96.5t93 32.5q49 0 87 -33t38 -74q0 -46 -26.5 -75t-65.5 -29q-35 0 -76 36q-23 20 -40 20q-18 0 -29 -14.5t-11 -49.5q0 -41 9 -145q37 -411 37 -663q0 -70 -15 -569q-9 -305 -84 -410q-55 -77 -141 -77q-52 0 -85 34
t-33 87q0 44 25.5 71.5t64.5 27.5q40 0 70 -33q28 -31 48 -31q17 0 28 14.5t11 46.5q0 42 -9 120q-38 318 -38 778z" />
    <glyph glyph-name="ordfeminine" unicode="&#xaa;" horiz-adv-x="897" 
d="M745 840v-51l-128 2l-118 -2l-2 30l5 63l-135 -102q-36 -6 -62 -6q-70 0 -107 40t-37 117q0 97 57.5 142t283.5 86q-2 84 -36 121t-99 37q-18 0 -36.5 -4.5t-37.5 -14.5l-29 -69l-46 10l4 84q80 57 135 79q35 13 93 13q111 0 163 -49q52 -50 52 -155l-3 -113
q-3 -84 -3 -132q0 -96 9.5 -108.5t76.5 -17.5zM502 1104q-111 -26 -144 -55t-33 -79q0 -41 21.5 -64t54.5 -23q46 0 101 63l1 73z" />
    <glyph glyph-name="ordmasculine" unicode="&#xba;" horiz-adv-x="999" 
d="M186 1089q0 162 82 244t237 82q160 0 234 -75t74 -234q0 -165 -86 -253.5t-242 -88.5q-144 0 -221.5 83t-77.5 242zM360 1134q0 -174 40 -239.5t110 -65.5q61 0 95 49t34 175q0 177 -37.5 238t-110.5 61q-61 0 -96 -49.5t-35 -168.5z" />
    <glyph glyph-name="Ohm" unicode="&#x2126;" horiz-adv-x="1573" 
d="M617 359l34 -359h-619v377h36q3 -56 16 -77q21 -32 48.5 -44.5t94.5 -11.5h328l-7 69q-168 38 -262 105.5t-149 176t-55 230.5q0 216 160 374q191 188 544 188q352 0 543 -187q161 -158 161 -375q0 -122 -55 -230.5t-149 -176t-262 -105.5l-7 -69h328q69 0 91 10
q32 15 52 46q13 21 16 77h36v-377h-619l34 359q88 36 129 122q54 116 54 323q0 188 -42.5 289t-126.5 158.5t-183 57.5t-181.5 -56t-126.5 -157.5t-44 -282.5q0 -215 54 -331q40 -87 129 -123z" />
    <glyph glyph-name="ae" unicode="&#xe6;" horiz-adv-x="1593" 
d="M253 684l-73 8l2 38l-1 28l-2 33l1 29l85 50q113 65 157 78q60 18 134 18q80 0 146 -26.5t123 -83.5q65 59 134.5 84.5t158.5 25.5q178 0 283 -104.5t105 -271.5q0 -32 -5 -86l-148 -34q-86 -7 -274 -7h-181q4 -151 78 -235q93 -105 247 -105q55 0 110 15.5t110 46.5
l26 -28q-37 -69 -55 -106q-82 -44 -150.5 -61t-156.5 -17q-144 0 -238.5 46.5t-162.5 145.5q-89 -53 -204 -148q-54 -44 -161 -44q-115 0 -183.5 66.5t-68.5 173.5q0 69 27.5 129.5t61 86.5t149.5 60.5t319 68.5q-4 110 -26 157t-71 74.5t-118 27.5q-34 0 -71 -10t-77 -31z
M896 568q104 -5 185 -5q70 0 157 5q-4 124 -24 179t-58 83t-88 28q-79 0 -123.5 -61t-48.5 -229zM646 463q-180 -23 -239.5 -67t-59.5 -120q0 -62 34 -97.5t94 -35.5q46 0 82 20q51 27 79 62q10 13 10 54v184z" />
    <glyph glyph-name="oslash" unicode="&#xf8;" horiz-adv-x="1139" 
d="M163 152q-81 125 -81 322q0 242 122 362q133 130 371 130q210 0 327 -80l154 154l69 -71l-152 -151q84 -111 84 -325q0 -250 -133 -385t-375 -135q-207 0 -322 104l-153 -152l-68 70zM369 356l374 372q-43 140 -184 140q-94 0 -147 -75.5t-53 -261.5q0 -85 10 -175z
M768 615l-375 -373q49 -170 193 -170q93 0 144 74t51 267q0 94 -13 202z" />
    <glyph glyph-name="questiondown" unicode="&#xbf;" horiz-adv-x="909" 
d="M527 647q-65 0 -112 46.5t-47 113.5q0 66 46.5 112.5t113.5 46.5q66 0 112.5 -46.5t46.5 -112.5t-46.5 -113t-113.5 -47zM762 -87l62 -9l10 -16q-43 -131 -66 -264q-73 -54 -145 -76.5t-164 -22.5q-177 0 -279.5 90t-102.5 224q0 89 45 167t173 177q156 122 188 166.5
t32 89.5q0 32 -23 79l70 30q54 -80 54 -152q0 -48 -24.5 -100t-110.5 -157q-80 -97 -104 -149.5t-24 -102.5q0 -75 51.5 -121.5t143.5 -46.5q46 0 78 10.5t70 39.5q21 38 66 144z" />
    <glyph glyph-name="exclamdown" unicode="&#xa1;" horiz-adv-x="569" 
d="M287 966q66 0 113 -46.5t47 -112.5t-47 -113t-113 -47t-113 47t-47 113t46.5 112.5t113.5 46.5zM230 -449h-106q1 146 50 462l70 496l76 42l13 -8q22 -206 77 -591q26 -188 27 -310q-121 -58 -207 -91z" />
    <glyph glyph-name="logicalnot" unicode="&#xac;" horiz-adv-x="1241" 
d="M943 414v374h-832v187h1019v-561h-187z" />
    <glyph glyph-name="radical" unicode="&#x221a;" horiz-adv-x="1124" 
d="M1050 1869h74l-312 -1947l-496 1021l-198 -91l-34 64l301 151l405 -823z" />
    <glyph glyph-name="florin" unicode="&#x192;" 
d="M57 -45q33 -53 58.5 -70.5t57.5 -17.5q64 0 90.5 56.5t62.5 264.5l118 684q-35 -2 -98 -8l-23 -2l-60 -6l10 57q87 26 190 70q25 158 58.5 225.5t113.5 137.5q125 112 226 166q56 30 106 30q30 0 74 -16q-22 -69 -22 -121q0 -27 5 -63l-58 -22q-24 33 -41 42.5t-44 9.5
q-55 0 -85 -37q-22 -29 -50 -183l-31 -171l51 -1q68 0 165 10l30 -32q-11 -29 -30 -89q-53 5 -236 6l-94 -546q-37 -217 -66 -280.5t-111 -138.5q-122 -113 -219 -163q-58 -30 -126 -30q-42 0 -97 17q26 68 26 133q0 23 -3 63z" />
    <glyph glyph-name="approxequal" unicode="&#x2248;" horiz-adv-x="1124" 
d="M1049 1036h57q-6 -156 -81 -239.5t-188 -83.5q-53 0 -112.5 17t-262.5 102q-146 61 -211 61q-144 0 -176 -179h-58q7 161 80 242t180 81q55 0 111 -16q104 -30 272 -103q93 -40 145 -55q31 -9 67 -9q72 0 120 47.5t57 134.5zM1049 674h57q-6 -156 -81 -239.5t-188 -83.5
q-53 0 -112.5 17t-262.5 102q-146 61 -211 61q-144 0 -176 -179h-58q7 161 80 242t180 81q55 0 111 -16q104 -30 272 -103q93 -40 145 -55q31 -9 67 -9q72 0 120 47.5t57 134.5z" />
    <glyph glyph-name="increment" unicode="&#x2206;" horiz-adv-x="1253" 
d="M1226 0h-1200l628 1387zM990 82l-399 967l-440 -967h839z" />
    <glyph glyph-name="guillemotleft" unicode="&#xab;" 
d="M887 97q-200 203 -395 373v53q173 153 395 380l58 -44l-224 -368l224 -351zM477 97q-206 208 -397 373v52q166 147 397 380l57 -43l-225 -368l225 -351z" />
    <glyph glyph-name="guillemotright" unicode="&#xbb;" 
d="M137 97l-57 43l224 351l-224 368l57 44q222 -226 396 -380v-53q-200 -174 -396 -373zM548 97l-57 43l224 351l-224 368l57 43q222 -225 397 -380v-52q-198 -171 -397 -373z" />
    <glyph glyph-name="ellipsis" unicode="&#x2026;" horiz-adv-x="2048" 
d="M406 293q66 0 112.5 -46.5t46.5 -113.5q0 -66 -46.5 -113t-112.5 -47t-113 47t-47 113t46.5 113t113.5 47zM1024 293q66 0 113 -47t47 -113t-47 -113t-113 -47t-112.5 47t-46.5 113q0 67 46.5 113.5t112.5 46.5zM1643 293q66 0 113 -46.5t47 -113.5q0 -66 -47 -113
t-113 -47t-113 47t-47 113t46.5 113t113.5 47z" />
    <glyph glyph-name="nbspace" unicode="&#xa0;" horiz-adv-x="512" 
 />
    <glyph glyph-name="Agrave" unicode="&#xc0;" horiz-adv-x="1593" 
d="M63 84q94 5 116 19q15 10 47 76q61 130 156 361l354 867h147l452 -1074q88 -209 108.5 -229t126.5 -27v-84q-163 7 -308 7q-173 0 -329 -7v84q119 5 137.5 13.5t18.5 30.5q0 19 -42 130l-66 171q-124 2 -277 2q-133 0 -242 -2l-44 -115q-18 -47 -44 -140q-6 -21 -6 -38
q0 -23 19.5 -32.5t140.5 -19.5v-84q-98 7 -244 7q-139 0 -221 -7v91zM719 1053l-211 -513q92 -5 203 -5q116 0 222 5zM941 1494l-247 131q-104 56 -122.5 76t-18.5 51q0 33 23.5 55.5t61.5 22.5q31 0 58.5 -16t110.5 -96l232 -224h-98z" />
    <glyph glyph-name="Atilde" unicode="&#xc3;" horiz-adv-x="1593" 
d="M63 84q94 5 116 19q15 10 47 76q61 130 156 361l354 867h147l452 -1074q88 -209 108.5 -229t126.5 -27v-84q-163 7 -308 7q-173 0 -329 -7v84q119 5 137.5 13.5t18.5 30.5q0 19 -42 130l-66 171q-124 2 -277 2q-133 0 -242 -2l-44 -115q-18 -47 -44 -140q-6 -21 -6 -38
q0 -23 19.5 -32.5t140.5 -19.5v-84q-98 7 -244 7q-139 0 -221 -7v91zM719 1053l-211 -513q92 -5 203 -5q116 0 222 5zM538 1541h-73q66 233 240 233q39 0 81 -9.5t143 -47.5q79 -29 115 -29q43 0 68 18t51 76h66q-60 -231 -232 -231q-68 0 -184 46q-98 40 -147 40
q-46 0 -75.5 -20.5t-52.5 -75.5z" />
    <glyph glyph-name="Otilde" unicode="&#xd5;" horiz-adv-x="1706" 
d="M841 -27q-369 0 -565 189.5t-196 521.5q0 232 95 394.5t263.5 249.5t433.5 87q255 0 417 -83.5t249.5 -232t87.5 -364.5q0 -234 -96 -404.5t-270.5 -264t-418.5 -93.5zM879 82q201 0 320.5 148.5t119.5 451.5q0 318 -137 488q-111 137 -342 137q-216 0 -334.5 -143
t-118.5 -440q0 -214 65 -362.5t165.5 -214t261.5 -65.5zM544 1541h-73q66 233 240 233q39 0 81 -9.5t143 -47.5q79 -29 115 -29q43 0 68 18t51 76h66q-60 -231 -232 -231q-68 0 -184 46q-98 40 -147 40q-46 0 -75.5 -20.5t-52.5 -75.5z" />
    <glyph glyph-name="OE" unicode="&#x152;" horiz-adv-x="2048" 
d="M1900 338h86q-17 -173 -25 -328l-12 -13q-108 -5 -196 -5l-484 8q-93 0 -215 -12q-154 -15 -245 -15q-245 0 -396 84t-242 251.5t-91 401.5q0 235 84 384t248 235t414 86q95 0 255 -16q127 -12 218 -12q60 0 247 6q210 6 268 6q69 0 158 -5v-17q-16 -114 -23 -294h-85
q-2 137 -14 157q-7 13 -39 19q-92 17 -271 17q-69 0 -155 -5q-10 -256 -10 -493q91 -4 142 -4q154 0 187 8q16 4 22 16q9 19 15 140h92q-7 -140 -7 -209q0 -40 7 -242h-92l-2 59q-2 78 -12.5 92.5t-38.5 19.5q-39 6 -199 6l-110 -1q-3 -129 -3 -236l3 -306q147 -11 195 -11
q130 0 290 27q19 80 36 201zM1082 141q10 147 10 549q0 308 -10 530q-68 43 -128.5 60.5t-135.5 17.5q-206 0 -318.5 -135.5t-112.5 -428.5q0 -332 133 -504q113 -148 317 -148q141 0 245 59z" />
    <glyph glyph-name="oe" unicode="&#x153;" horiz-adv-x="1706" 
d="M1574 184l30 -31l-50 -98q-74 -41 -154 -61.5t-166 -20.5q-116 0 -193.5 30.5t-140.5 97.5q-75 -70 -151.5 -99t-186.5 -29q-238 0 -360.5 129t-122.5 376q0 238 127.5 363t380.5 125q121 0 198 -24.5t153 -87.5q86 65 154 88.5t152 23.5q123 0 208 -45t123 -120
q51 -101 51 -225q0 -24 -3 -68l-144 -33q-117 -10 -244 -10h-209q5 -163 93 -252.5t238 -89.5q54 0 108.5 15.5t108.5 45.5zM779 425q0 262 -57 352.5t-162 90.5q-97 0 -151 -78t-54 -287q0 -234 71 -345q55 -87 156 -87q96 0 146.5 74t50.5 280zM1020 568q143 -6 217 -6
q59 0 127 6q0 125 -19 179.5t-57 82.5t-91 28q-90 0 -138 -81q-35 -61 -39 -209z" />
    <glyph glyph-name="endash" unicode="&#x2013;" 
d="M69 379l-14 19q40 87 66 209q185 -7 445 -7q233 0 389 7l15 -20q-36 -88 -71 -208q-165 6 -435 6q-248 0 -395 -6z" />
    <glyph glyph-name="emdash" unicode="&#x2014;" horiz-adv-x="2048" 
d="M316 379l-14 19q40 86 66 209q185 -7 687 -7q520 0 678 7l14 -20q-37 -91 -70 -208q-165 6 -679 6q-533 0 -682 -6z" />
    <glyph glyph-name="quotedblleft" unicode="&#x201c;" 
d="M900 1481l36 -28q-113 -250 -140 -527q-149 -23 -263 -65l-27 30q132 290 274 531q87 44 120 59zM480 1481l36 -28q-61 -137 -89 -246q-37 -141 -51 -281q-148 -23 -263 -65l-27 30q133 291 274 531q92 47 120 59z" />
    <glyph glyph-name="quotedblright" unicode="&#x201d;" 
d="M543 861l-37 28q62 138 90 246q37 144 50 281q149 23 263 65l27 -30q-134 -295 -274 -531q-92 -47 -119 -59zM122 861l-36 28q113 252 140 527q148 22 263 65l27 -30q-130 -286 -274 -531q-89 -46 -120 -59z" />
    <glyph glyph-name="quoteleft" unicode="&#x2018;" horiz-adv-x="569" 
d="M88 883l-34 29q110 211 161 300t130 212q56 26 137 57l32 -32q-125 -253 -155 -499q-167 -28 -271 -67z" />
    <glyph glyph-name="quoteright" unicode="&#x2019;" horiz-adv-x="569" 
d="M481 1481l33 -30q-110 -212 -160.5 -300.5t-129.5 -211.5q-59 -27 -138 -56l-32 31q125 253 156 500q168 28 271 67z" />
    <glyph glyph-name="divide" unicode="&#xf7;" horiz-adv-x="1124" 
d="M562 1169q57 0 97.5 -40t40.5 -97t-40.5 -97t-97.5 -40t-98 40t-41 97t40.5 97t98.5 40zM52 601v187h1019v-187h-1019zM562 494q57 0 97.5 -40.5t40.5 -97.5q0 -56 -40.5 -96.5t-97.5 -40.5q-58 0 -98.5 40t-40.5 97t40.5 97.5t98.5 40.5z" />
    <glyph glyph-name="lozenge" unicode="&#x25ca;" horiz-adv-x="1012" 
d="M549 1422l418 -713l-418 -709h-111l-391 709l391 713h111zM495 1325l-340 -616l340 -615l359 615z" />
    <glyph glyph-name="ydieresis" unicode="&#xff;" horiz-adv-x="1139" 
d="M4 863v82q230 -7 294 -7q89 0 251 7v-82q-93 -4 -110.5 -13.5t-17.5 -31.5q0 -30 98 -277l109 -276l93 218q125 293 125 338q0 21 -17.5 29.5t-107.5 12.5v82l63 -3q101 -4 134 -4q36 0 188 7v-82q-49 0 -80 -15q-13 -7 -23 -22q-16 -22 -126 -276l-186 -426l-173 -394
q-59 -121 -105.5 -169.5t-101.5 -72t-123 -23.5t-144 34q24 99 35 193l27 9q59 -66 137 -66q66 0 109 43t134 249l-223 566l-123 304q-16 37 -34.5 48.5t-101.5 17.5zM358 1299q50 0 85.5 -35.5t35.5 -85.5q0 -51 -35.5 -86.5t-85.5 -35.5t-85.5 35.5t-35.5 86.5
q0 50 35.5 85.5t85.5 35.5zM782 1299q50 0 85 -35.5t35 -85.5q0 -51 -35.5 -86.5t-84.5 -35.5q-50 0 -85.5 35.5t-35.5 86.5q0 50 35.5 85.5t85.5 35.5z" />
    <glyph glyph-name="Ydieresis" unicode="&#x178;" horiz-adv-x="1366" 
d="M399 -7v84q103 0 143 18q24 11 31 46q2 10 9 195l1 73q0 135 -13 169q-22 56 -154 265.5t-202 299t-118 117.5q-17 10 -44 10l-48 -2v79q166 29 328 70q53 -25 88 -59q51 -51 141.5 -199.5t229.5 -428.5l82 140q112 190 295 527h163v-50q-53 -63 -197 -288
q-226 -354 -252 -415q-16 -39 -16 -155q0 -235 10 -331q5 -51 26.5 -64t156.5 -17v-84q-146 7 -297 7q-166 0 -363 -7zM571 1740q50 0 85.5 -35.5t35.5 -85.5q0 -51 -35.5 -86.5t-85.5 -35.5t-85.5 35.5t-35.5 86.5q0 50 35.5 85.5t85.5 35.5zM995 1740q50 0 85 -35.5
t35 -85.5q0 -51 -35.5 -86.5t-84.5 -35.5q-50 0 -85.5 35.5t-35.5 86.5q0 50 35.5 85.5t85.5 35.5z" />
    <glyph glyph-name="fraction" unicode="&#x2044;" horiz-adv-x="342" 
d="M-274 -67q47 76 117 217l562 1122q57 114 78 186q57 -7 86 -7l48 1q-52 -82 -118 -214l-561 -1127l-52 -107q-11 -26 -26 -73l-74 4z" />
    <glyph glyph-name="fraction" unicode="&#x2215;" horiz-adv-x="342" 
d="M-274 -67q47 76 117 217l562 1122q57 114 78 186q57 -7 86 -7l48 1q-52 -82 -118 -214l-561 -1127l-52 -107q-11 -26 -26 -73l-74 4z" />
    <glyph glyph-name="Euro" unicode="&#x20ac;" 
d="M984 191l-46 -102q-148 -116 -312 -116q-222 0 -370 150q-143 154 -179 410h-91l-10 9l24 88l10 10h57q-1 24 -1 48q0 20 2 59h-82l-10 9l24 88l10 10h68q37 256 171 400q150 161 394 161q172 0 326 -85l13 -15l-26.5 -110t-15.5 -115l-9 -10h-59l-10 11q-2 74 -11 128
q-77 87 -208 87q-130 0 -213 -126q-78 -119 -91 -326h508l10 -10l-24 -87l-10 -10h-488v-107h453l10 -10l-24 -87l-10 -10h-424q17 -197 112.5 -318.5t234.5 -121.5q88 0 157 37q34 18 115 84z" />
    <glyph glyph-name="guilsinglleft" unicode="&#x2039;" horiz-adv-x="797" 
d="M568 90q-206 208 -396 373v53q172 152 396 379l57 -43l-224 -368l224 -351z" />
    <glyph glyph-name="guilsinglright" unicode="&#x203a;" horiz-adv-x="797" 
d="M229 97l-57 43l224 351l-224 368l57 43q229 -231 396 -380v-52q-191 -166 -396 -373z" />
    <glyph glyph-name="fi" unicode="&#xf001;" horiz-adv-x="1251" 
d="M-27 -6v83l62 5q61 3 76.5 19t19.5 83q8 140 8 335l-2 241q-99 -5 -164 -10v52l96 49l17 8l10 5l29 15v94q1 113 26.5 163.5t136.5 150.5q150 136 187 159q64 41 154 41q28 0 58 -5.5t62 -16.5q-17 -117 -28 -248l-39 -8q-44 42 -87 62.5t-85 20.5q-55 0 -83 -24.5
t-34.5 -82t-6.5 -306.5h102q83 0 170 16l12 -16q-16 -58 -26 -124q-59 5 -111 5h-147q0 -433 6 -565q3 -75 22 -91q24 -21 178 -27v-83q-147 6 -283 6t-336 -6zM983 1444q64 0 109.5 -45.5t45.5 -110.5q0 -64 -45.5 -109.5t-110.5 -45.5q-64 0 -109.5 45.5t-45.5 109.5
q0 65 45.5 110.5t110.5 45.5zM704 -6v83q113 4 130.5 14t22.5 56q8 63 8 278q0 93 -3 172l-3 117q0 58 -12.5 71.5t-67.5 15.5l-75 3v77q241 18 397 85l25 -20q-14 -191 -14 -556q0 -211 7 -255q5 -31 18.5 -40t131.5 -18v-83q-181 6 -280 6q-53 0 -285 -6z" />
    <glyph glyph-name="fi" unicode="&#xfb01;" horiz-adv-x="1251" 
d="M-27 -6v83l62 5q61 3 76.5 19t19.5 83q8 140 8 335l-2 241q-99 -5 -164 -10v52l96 49l17 8l10 5l29 15v94q1 113 26.5 163.5t136.5 150.5q150 136 187 159q64 41 154 41q28 0 58 -5.5t62 -16.5q-17 -117 -28 -248l-39 -8q-44 42 -87 62.5t-85 20.5q-55 0 -83 -24.5
t-34.5 -82t-6.5 -306.5h102q83 0 170 16l12 -16q-16 -58 -26 -124q-59 5 -111 5h-147q0 -433 6 -565q3 -75 22 -91q24 -21 178 -27v-83q-147 6 -283 6t-336 -6zM983 1444q64 0 109.5 -45.5t45.5 -110.5q0 -64 -45.5 -109.5t-110.5 -45.5q-64 0 -109.5 45.5t-45.5 109.5
q0 65 45.5 110.5t110.5 45.5zM704 -6v83q113 4 130.5 14t22.5 56q8 63 8 278q0 93 -3 172l-3 117q0 58 -12.5 71.5t-67.5 15.5l-75 3v77q241 18 397 85l25 -20q-14 -191 -14 -556q0 -211 7 -255q5 -31 18.5 -40t131.5 -18v-83q-181 6 -280 6q-53 0 -285 -6z" />
    <glyph glyph-name="fl" unicode="&#xf002;" horiz-adv-x="1251" 
d="M-63 -6v83l62 5q61 3 76.5 19t19.5 83q8 140 8 335l-2 241q-99 -5 -164 -10v52l96 49l17 8l10 5l29 15v94q1 113 26.5 163.5t136.5 150.5q150 136 187 159q64 41 154 41q28 0 58 -5.5t62 -16.5q-17 -117 -28 -248l-39 -8q-44 42 -87 62.5t-85 20.5q-55 0 -83 -24.5
t-34.5 -82t-6.5 -306.5h102q83 0 170 16l12 -16q-16 -58 -26 -124q-59 5 -111 5h-147q0 -433 6 -565q3 -75 22 -91q24 -21 178 -27v-83q-147 6 -283 6t-336 -6zM734 1334v58q142 19 224 39t177 57l26 -22q-15 -357 -15 -997q0 -129 4 -261q2 -84 9.5 -97.5t24 -21.5
t119.5 -12v-83l-105 3q-98 3 -165 3l-299 -6v83l74 4q50 2 64.5 18.5t17.5 125.5q5 151 5 429l-1 427q-1 195 -11 220q-4 12 -15 18q-18 11 -134 15z" />
    <glyph glyph-name="fl" unicode="&#xfb02;" horiz-adv-x="1251" 
d="M-63 -6v83l62 5q61 3 76.5 19t19.5 83q8 140 8 335l-2 241q-99 -5 -164 -10v52l96 49l17 8l10 5l29 15v94q1 113 26.5 163.5t136.5 150.5q150 136 187 159q64 41 154 41q28 0 58 -5.5t62 -16.5q-17 -117 -28 -248l-39 -8q-44 42 -87 62.5t-85 20.5q-55 0 -83 -24.5
t-34.5 -82t-6.5 -306.5h102q83 0 170 16l12 -16q-16 -58 -26 -124q-59 5 -111 5h-147q0 -433 6 -565q3 -75 22 -91q24 -21 178 -27v-83q-147 6 -283 6t-336 -6zM734 1334v58q142 19 224 39t177 57l26 -22q-15 -357 -15 -997q0 -129 4 -261q2 -84 9.5 -97.5t24 -21.5
t119.5 -12v-83l-105 3q-98 3 -165 3l-299 -6v83l74 4q50 2 64.5 18.5t17.5 125.5q5 151 5 429l-1 427q-1 195 -11 220q-4 12 -15 18q-18 11 -134 15z" />
    <glyph glyph-name="daggerdbl" unicode="&#x2021;" 
d="M638 1396l10 -13q-31 -171 -38 -361q177 3 342 20l10 -13q-9 -56 -9 -98q0 -37 9 -88l-15 -14q-132 15 -337 22q3 -139 23 -374q-20 -235 -23 -375q215 8 337 22l15 -13q-9 -51 -9 -89q0 -42 9 -97l-10 -13q-160 16 -342 20q7 -190 38 -362l-10 -12q-64 10 -126 10
t-126 -10l-9 12q30 175 38 362q-182 -4 -342 -20l-10 13q9 55 9 97q0 38 -9 89l15 13q122 -14 337 -22q-4 140 -24 375q20 235 24 374q-206 -7 -337 -22l-15 14q9 51 9 88q0 42 -9 98l10 13q164 -17 342 -20q-8 187 -38 361l9 13q64 -9 126 -9q63 0 126 9z" />
    <glyph glyph-name="periodcentered" unicode="&#x2219;" horiz-adv-x="512" 
d="M256 639q66 0 112.5 -46.5t46.5 -113.5q0 -66 -46.5 -113t-112.5 -47t-113 47t-47 113t47 113t113 47z" />
    <glyph glyph-name="quotesinglbase" unicode="&#x201a;" horiz-adv-x="682" 
d="M558 278l33 -29l-159 -297q-54 -95 -131 -215q-62 -28 -138 -56l-32 31q125 250 156 499q170 29 271 67z" />
    <glyph glyph-name="quotedblbase" unicode="&#x201e;" 
d="M543 -327l-37 28q114 251 140 527q149 22 263 64l27 -29q-134 -296 -274 -532q-85 -44 -119 -58zM122 -327l-36 28q113 251 140 527q148 22 263 64l27 -29q-130 -286 -274 -532q-82 -42 -120 -58z" />
    <glyph glyph-name="perthousand" unicode="&#x2030;" horiz-adv-x="2048" 
d="M-3 971q0 239 82.5 341.5t233.5 102.5q145 0 214.5 -88.5t69.5 -321.5q0 -243 -81.5 -348.5t-227.5 -105.5q-94 0 -161.5 43t-98.5 123.5t-31 253.5zM171 1048q0 -261 44 -358q27 -61 87 -61q58 0 89.5 57t31.5 239q0 258 -43 352q-27 60 -88 60q-58 0 -89.5 -55
t-31.5 -234zM241 -67q47 76 117 217l562 1122q57 114 78 186q57 -7 86 -7l48 1q-52 -82 -118 -214l-561 -1127l-52 -107q-11 -26 -26 -73l-74 4zM776 405q0 239 82.5 341.5t233.5 102.5q145 0 214.5 -88.5t69.5 -321.5q0 -243 -81.5 -348.5t-227.5 -105.5q-94 0 -161.5 43
t-98.5 123.5t-31 253.5zM950 482q0 -261 44 -358q27 -61 87 -61q58 0 89.5 57t31.5 239q0 258 -43 352q-27 60 -88 60q-58 0 -89.5 -55t-31.5 -234zM1451 405q0 239 82.5 341.5t233.5 102.5q145 0 214.5 -88.5t69.5 -321.5q0 -243 -81.5 -348.5t-227.5 -105.5
q-94 0 -161.5 43t-98.5 123.5t-31 253.5zM1625 482q0 -261 44 -358q27 -61 87 -61q58 0 89.5 57t31.5 239q0 258 -43 352q-27 60 -88 60q-58 0 -89.5 -55t-31.5 -234z" />
    <glyph glyph-name="Acircumflex" unicode="&#xc2;" horiz-adv-x="1593" 
d="M63 84q94 5 116 19q15 10 47 76q61 130 156 361l354 867h147l452 -1074q88 -209 108.5 -229t126.5 -27v-84q-163 7 -308 7q-173 0 -329 -7v84q119 5 137.5 13.5t18.5 30.5q0 19 -42 130l-66 171q-124 2 -277 2q-133 0 -242 -2l-44 -115q-18 -47 -44 -140q-6 -21 -6 -38
q0 -23 19.5 -32.5t140.5 -19.5v-84q-98 7 -244 7q-139 0 -221 -7v91zM719 1053l-211 -513q92 -5 203 -5q116 0 222 5zM493 1490l276 342h117l254 -342h-83l-232 199l-245 -199h-87z" />
    <glyph glyph-name="Ecircumflex" unicode="&#xca;" horiz-adv-x="1251" 
d="M138 -7v54q53 24 97 56q20 156 20 656q0 341 -7 452q-3 59 -20.5 74.5t-148.5 26.5v84q236 -9 373 -9l551 6q87 0 157 -7l7 -11q-22 -109 -32 -290h-79q-5 146 -11.5 156t-45.5 19q-83 18 -254 18q-84 0 -196 -7q-13 -309 -15 -492q107 -7 201 -7q139 0 167 9q17 6 24 29
q6 18 14 126h86q-5 -169 -5 -220l5 -225h-86q-7 131 -18 151q-6 12 -27 17q-50 11 -225 11q-55 0 -129 -6q-2 -53 -2 -108q0 -286 10 -440l198 -3q169 0 309 18q25 92 48 209h83q-23 -176 -27 -338q-91 -10 -175 -10q-55 0 -217 4q-151 4 -278 4q-167 0 -352 -7zM363 1490
l276 342h117l254 -342h-83l-232 199l-245 -199h-87z" />
    <glyph glyph-name="Aacute" unicode="&#xc1;" horiz-adv-x="1593" 
d="M63 84q94 5 116 19q15 10 47 76q61 130 156 361l354 867h147l452 -1074q88 -209 108.5 -229t126.5 -27v-84q-163 7 -308 7q-173 0 -329 -7v84q119 5 137.5 13.5t18.5 30.5q0 19 -42 130l-66 171q-124 2 -277 2q-133 0 -242 -2l-44 -115q-18 -47 -44 -140q-6 -21 -6 -38
q0 -23 19.5 -32.5t140.5 -19.5v-84q-98 7 -244 7q-139 0 -221 -7v91zM719 1053l-211 -513q92 -5 203 -5q116 0 222 5zM652 1494h-99l232 224q82 79 110.5 95.5t59.5 16.5q38 0 61.5 -22.5t23.5 -56.5q0 -30 -19.5 -51t-122.5 -75z" />
    <glyph glyph-name="Edieresis" unicode="&#xcb;" horiz-adv-x="1251" 
d="M138 -7v54q53 24 97 56q20 156 20 656q0 341 -7 452q-3 59 -20.5 74.5t-148.5 26.5v84q236 -9 373 -9l551 6q87 0 157 -7l7 -11q-22 -109 -32 -290h-79q-5 146 -11.5 156t-45.5 19q-83 18 -254 18q-84 0 -196 -7q-13 -309 -15 -492q107 -7 201 -7q139 0 167 9q17 6 24 29
q6 18 14 126h86q-5 -169 -5 -220l5 -225h-86q-7 131 -18 151q-6 12 -27 17q-50 11 -225 11q-55 0 -129 -6q-2 -53 -2 -108q0 -286 10 -440l198 -3q169 0 309 18q25 92 48 209h83q-23 -176 -27 -338q-91 -10 -175 -10q-55 0 -217 4q-151 4 -278 4q-167 0 -352 -7zM434 1740
q50 0 85.5 -35.5t35.5 -85.5q0 -51 -35.5 -86.5t-85.5 -35.5t-85.5 35.5t-35.5 86.5q0 50 35.5 85.5t85.5 35.5zM858 1740q50 0 85 -35.5t35 -85.5q0 -51 -35.5 -86.5t-84.5 -35.5q-50 0 -85.5 35.5t-35.5 86.5q0 50 35.5 85.5t85.5 35.5z" />
    <glyph glyph-name="Egrave" unicode="&#xc8;" horiz-adv-x="1251" 
d="M138 -7v54q53 24 97 56q20 156 20 656q0 341 -7 452q-3 59 -20.5 74.5t-148.5 26.5v84q236 -9 373 -9l551 6q87 0 157 -7l7 -11q-22 -109 -32 -290h-79q-5 146 -11.5 156t-45.5 19q-83 18 -254 18q-84 0 -196 -7q-13 -309 -15 -492q107 -7 201 -7q139 0 167 9q17 6 24 29
q6 18 14 126h86q-5 -169 -5 -220l5 -225h-86q-7 131 -18 151q-6 12 -27 17q-50 11 -225 11q-55 0 -129 -6q-2 -53 -2 -108q0 -286 10 -440l198 -3q169 0 309 18q25 92 48 209h83q-23 -176 -27 -338q-91 -10 -175 -10q-55 0 -217 4q-151 4 -278 4q-167 0 -352 -7zM771 1494
l-247 131q-104 56 -122.5 76t-18.5 51q0 33 23.5 55.5t61.5 22.5q31 0 58.5 -16t110.5 -96l232 -224h-98z" />
    <glyph glyph-name="Iacute" unicode="&#xcd;" horiz-adv-x="797" 
d="M72 -7v84q138 7 156 23t22 79q7 132 7 492q0 138 -4 400q-2 179 -8 196.5t-21 25.5q-22 11 -152 19v84q206 -8 315 -8q188 0 340 8v-84q-136 -8 -153.5 -21.5t-22.5 -62.5q-9 -96 -9 -389q0 -390 3 -543.5t18 -182.5q6 -13 25.5 -20.5t138.5 -15.5v-84l-118 3
q-112 4 -200 4zM254 1494h-99l232 224q82 79 110.5 95.5t59.5 16.5q38 0 61.5 -22.5t23.5 -56.5q0 -30 -19.5 -51t-122.5 -75z" />
    <glyph glyph-name="Icircumflex" unicode="&#xce;" horiz-adv-x="797" 
d="M72 -7v84q138 7 156 23t22 79q7 132 7 492q0 138 -4 400q-2 179 -8 196.5t-21 25.5q-22 11 -152 19v84q206 -8 315 -8q188 0 340 8v-84q-136 -8 -153.5 -21.5t-22.5 -62.5q-9 -96 -9 -389q0 -390 3 -543.5t18 -182.5q6 -13 25.5 -20.5t138.5 -15.5v-84l-118 3
q-112 4 -200 4zM75 1490l276 342h117l254 -342h-83l-232 199l-245 -199h-87z" />
    <glyph glyph-name="Idieresis" unicode="&#xcf;" horiz-adv-x="797" 
d="M72 -7v84q138 7 156 23t22 79q7 132 7 492q0 138 -4 400q-2 179 -8 196.5t-21 25.5q-22 11 -152 19v84q206 -8 315 -8q188 0 340 8v-84q-136 -8 -153.5 -21.5t-22.5 -62.5q-9 -96 -9 -389q0 -390 3 -543.5t18 -182.5q6 -13 25.5 -20.5t138.5 -15.5v-84l-118 3
q-112 4 -200 4zM187 1740q50 0 85.5 -35.5t35.5 -85.5q0 -51 -35.5 -86.5t-85.5 -35.5t-85.5 35.5t-35.5 86.5q0 50 35.5 85.5t85.5 35.5zM611 1740q50 0 85 -35.5t35 -85.5q0 -51 -35.5 -86.5t-84.5 -35.5q-50 0 -85.5 35.5t-35.5 86.5q0 50 35.5 85.5t85.5 35.5z" />
    <glyph glyph-name="Igrave" unicode="&#xcc;" horiz-adv-x="797" 
d="M72 -7v84q138 7 156 23t22 79q7 132 7 492q0 138 -4 400q-2 179 -8 196.5t-21 25.5q-22 11 -152 19v84q206 -8 315 -8q188 0 340 8v-84q-136 -8 -153.5 -21.5t-22.5 -62.5q-9 -96 -9 -389q0 -390 3 -543.5t18 -182.5q6 -13 25.5 -20.5t138.5 -15.5v-84l-118 3
q-112 4 -200 4zM543 1494l-247 131q-104 56 -122.5 76t-18.5 51q0 33 23.5 55.5t61.5 22.5q31 0 58.5 -16t110.5 -96l232 -224h-98z" />
    <glyph glyph-name="Oacute" unicode="&#xd3;" horiz-adv-x="1706" 
d="M841 -27q-369 0 -565 189.5t-196 521.5q0 232 95 394.5t263.5 249.5t433.5 87q255 0 417 -83.5t249.5 -232t87.5 -364.5q0 -234 -96 -404.5t-270.5 -264t-418.5 -93.5zM879 82q201 0 320.5 148.5t119.5 451.5q0 318 -137 488q-111 137 -342 137q-216 0 -334.5 -143
t-118.5 -440q0 -214 65 -362.5t165.5 -214t261.5 -65.5zM709 1494h-99l232 224q82 79 110.5 95.5t59.5 16.5q38 0 61.5 -22.5t23.5 -56.5q0 -30 -19.5 -51t-122.5 -75z" />
    <glyph glyph-name="Ocircumflex" unicode="&#xd4;" horiz-adv-x="1706" 
d="M841 -27q-369 0 -565 189.5t-196 521.5q0 232 95 394.5t263.5 249.5t433.5 87q255 0 417 -83.5t249.5 -232t87.5 -364.5q0 -234 -96 -404.5t-270.5 -264t-418.5 -93.5zM879 82q201 0 320.5 148.5t119.5 451.5q0 318 -137 488q-111 137 -342 137q-216 0 -334.5 -143
t-118.5 -440q0 -214 65 -362.5t165.5 -214t261.5 -65.5zM530 1490l276 342h117l254 -342h-83l-232 199l-245 -199h-87z" />
    <glyph glyph-name="apple" unicode="&#xf000;" horiz-adv-x="1617" 
 />
    <glyph glyph-name="Ograve" unicode="&#xd2;" horiz-adv-x="1706" 
d="M841 -27q-369 0 -565 189.5t-196 521.5q0 232 95 394.5t263.5 249.5t433.5 87q255 0 417 -83.5t249.5 -232t87.5 -364.5q0 -234 -96 -404.5t-270.5 -264t-418.5 -93.5zM879 82q201 0 320.5 148.5t119.5 451.5q0 318 -137 488q-111 137 -342 137q-216 0 -334.5 -143
t-118.5 -440q0 -214 65 -362.5t165.5 -214t261.5 -65.5zM998 1494l-247 131q-104 56 -122.5 76t-18.5 51q0 33 23.5 55.5t61.5 22.5q31 0 58.5 -16t110.5 -96l232 -224h-98z" />
    <glyph glyph-name="Uacute" unicode="&#xda;" horiz-adv-x="1593" 
d="M57 1312v84q204 -7 358 -7q98 0 277 7v-84q-92 0 -130 -16q-13 -5 -21 -17q-11 -14 -15 -47q-6 -56 -10 -322q-3 -185 -3 -376q0 -157 36 -230.5t105 -109.5q100 -51 218 -51q161 0 246 53t114 146t29 407l-1 370q-1 125 -12 150q-6 14 -21 21q-24 14 -146 22v84
q129 -7 238 -7q94 0 231 7v-84q-99 0 -123.5 -22t-29.5 -114q-11 -224 -12 -507q0 -181 -5 -237q-11 -138 -67 -235.5t-186 -160.5t-323 -63q-201 0 -334 60t-189 151.5t-56 268.5l5 450q0 54 -5 275q-2 69 -15 94q-8 14 -24.5 22t-128.5 18zM752 1494h-99l232 224
q82 79 110.5 95.5t59.5 16.5q38 0 61.5 -22.5t23.5 -56.5q0 -30 -19.5 -51t-122.5 -75z" />
    <glyph glyph-name="Ucircumflex" unicode="&#xdb;" horiz-adv-x="1593" 
d="M57 1312v84q204 -7 358 -7q98 0 277 7v-84q-92 0 -130 -16q-13 -5 -21 -17q-11 -14 -15 -47q-6 -56 -10 -322q-3 -185 -3 -376q0 -157 36 -230.5t105 -109.5q100 -51 218 -51q161 0 246 53t114 146t29 407l-1 370q-1 125 -12 150q-6 14 -21 21q-24 14 -146 22v84
q129 -7 238 -7q94 0 231 7v-84q-99 0 -123.5 -22t-29.5 -114q-11 -224 -12 -507q0 -181 -5 -237q-11 -138 -67 -235.5t-186 -160.5t-323 -63q-201 0 -334 60t-189 151.5t-56 268.5l5 450q0 54 -5 275q-2 69 -15 94q-8 14 -24.5 22t-128.5 18zM518 1490l276 342h117l254 -342
h-83l-232 199l-245 -199h-87z" />
    <glyph glyph-name="Ugrave" unicode="&#xd9;" horiz-adv-x="1593" 
d="M57 1312v84q204 -7 358 -7q98 0 277 7v-84q-92 0 -130 -16q-13 -5 -21 -17q-11 -14 -15 -47q-6 -56 -10 -322q-3 -185 -3 -376q0 -157 36 -230.5t105 -109.5q100 -51 218 -51q161 0 246 53t114 146t29 407l-1 370q-1 125 -12 150q-6 14 -21 21q-24 14 -146 22v84
q129 -7 238 -7q94 0 231 7v-84q-99 0 -123.5 -22t-29.5 -114q-11 -224 -12 -507q0 -181 -5 -237q-11 -138 -67 -235.5t-186 -160.5t-323 -63q-201 0 -334 60t-189 151.5t-56 268.5l5 450q0 54 -5 275q-2 69 -15 94q-8 14 -24.5 22t-128.5 18zM941 1494l-247 131
q-104 56 -122.5 76t-18.5 51q0 33 23.5 55.5t61.5 22.5q31 0 58.5 -16t110.5 -96l232 -224h-98z" />
    <glyph glyph-name="dotlessi" unicode="&#x131;" horiz-adv-x="682" 
d="M63 -6v83q113 4 130.5 14t22.5 56q8 63 8 278q0 93 -3 172l-3 117q0 58 -12.5 71.5t-67.5 15.5l-75 3v77q241 18 397 85l25 -20q-14 -191 -14 -556q0 -211 7 -255q5 -31 18.5 -40t131.5 -18v-83q-181 6 -280 6q-53 0 -285 -6z" />
    <glyph glyph-name="circumflex" unicode="&#x2c6;" horiz-adv-x="682" 
d="M18 1049l276 342h117l254 -342h-83l-232 199l-245 -199h-87z" />
    <glyph glyph-name="tilde" unicode="&#x2dc;" horiz-adv-x="682" 
d="M32 1100h-73q66 233 240 233q39 0 81 -9.5t143 -47.5q79 -29 115 -29q43 0 68 18t51 76h66q-60 -231 -232 -231q-68 0 -184 46q-98 40 -147 40q-46 0 -75.5 -20.5t-52.5 -75.5z" />
    <glyph glyph-name="macron" unicode="&#x2c9;" horiz-adv-x="682" 
d="M671 1165h-661v123h661v-123z" />
    <glyph glyph-name="breve" unicode="&#x2d8;" horiz-adv-x="682" 
d="M32 1384h63q18 -87 62 -129q67 -63 184 -63q115 0 180 60q47 44 66 132h63q-10 -119 -48 -186t-106 -105t-155 -38q-142 0 -228 96q-68 77 -81 233z" />
    <glyph glyph-name="dotaccent" unicode="&#x2d9;" horiz-adv-x="682" 
d="M341 1354q50 0 85.5 -36t35.5 -86t-35.5 -86t-85.5 -36t-85.5 36t-35.5 86t35.5 86t85.5 36z" />
    <glyph glyph-name="ring" unicode="&#x2da;" horiz-adv-x="682" 
d="M341 1450q82 0 140 -58.5t58 -141.5t-58.5 -141t-140.5 -58q-83 0 -141.5 58t-58.5 141q0 84 58.5 142t142.5 58zM340 1372q-51 0 -86.5 -35.5t-35.5 -86.5q0 -50 35.5 -86t86.5 -36q50 0 86 36t36 86q0 51 -36 86.5t-86 35.5z" />
    <glyph glyph-name="cedilla" unicode="&#xb8;" horiz-adv-x="682" 
d="M402 0l-53 -125q39 6 65 6q83 0 129.5 -42.5t46.5 -107.5q0 -81 -72 -140.5t-198 -59.5q-110 0 -228 50l37 71q116 -43 185 -43q61 0 94 29.5t33 75.5q0 42 -29 69t-82 27q-29 0 -65 -13l-20 15l85 188h72z" />
    <glyph glyph-name="hungarumlaut" unicode="&#x2dd;" horiz-adv-x="682" 
d="M382 1047h-96l227 245q65 72 89.5 86.5t51.5 14.5q34 0 57.5 -22t23.5 -54q0 -27 -19 -50t-106 -78zM37 1047h-90l188 241q55 70 81 87.5t58 17.5q36 0 57 -19t21 -50q0 -27 -17.5 -49t-108.5 -90z" />
    <glyph glyph-name="ogonek" unicode="&#x2db;" horiz-adv-x="682" 
d="M522 0q-110 -47 -166 -115.5t-56 -138.5q0 -65 35.5 -105.5t90.5 -40.5q32 0 59 14t68 57l39 -38q-128 -157 -270 -157q-86 0 -141 53t-55 132q0 97 76 189t223 150h97z" />
    <glyph glyph-name="caron" unicode="&#x2c7;" horiz-adv-x="682" 
d="M665 1391l-277 -342h-117l-253 342h83l232 -200l245 200h87z" />
    <glyph glyph-name="Lslash" unicode="&#x141;" horiz-adv-x="1252" 
d="M540 759l-4 -319q0 -135 7 -316q131 -7 194 -7q190 0 318 29q26 91 51 217h89q-22 -143 -40 -355q-95 -14 -175 -14l-362 4l-162 2q-111 1 -321 -7v52q55 26 105 61q12 268 11 457l-192 -132v124l192 132l-2 346q-3 207 -14 239q-5 13 -17 20q-17 9 -151 20v84
q193 -5 358 -5q160 0 304 5v-84q-139 -9 -161 -25q-14 -10 -18 -41q-5 -45 -9 -358l329 227v-130z" />
    <glyph glyph-name="lslash" unicode="&#x142;" horiz-adv-x="682" 
d="M218 739l-1 377q-2 163 -11 186q-4 12 -15 18q-19 10 -134 14v58q142 19 224 39t177 57l26 -22q-7 -170 -12 -507l152 132v-130l-153 -132l-2 -293q0 -283 6 -392q3 -38 22.5 -50.5t128.5 -16.5v-83l-105 3q-98 3 -165 3l-299 -6v83l74 4q50 2 64 18t18 115.5t4 396.5
l-164 -141v127z" />
    <glyph glyph-name="Scaron" unicode="&#x160;" horiz-adv-x="1251" 
d="M143 416h88q1 -148 9.5 -173.5t57.5 -67t127 -67.5t160 -26q141 0 225.5 75t84.5 187q0 103 -56 158q-57 55 -216 78q-236 34 -318.5 74t-130 120t-47.5 192q0 188 132.5 318.5t423.5 130.5q114 0 202.5 -17t177.5 -56l10 -24q-16 -63 -22.5 -114t-11.5 -176h-87
q-5 154 -15 173q-19 33 -96.5 69.5t-177.5 36.5q-137 0 -212.5 -66.5t-75.5 -171.5q0 -64 31 -111.5t86.5 -70t238.5 -51.5q166 -25 225 -49q97 -39 147 -119t50 -202q0 -212 -162 -352.5t-443 -140.5q-125 0 -227 24t-211 79q18 70 24 127q8 79 9 213zM949 1832l-277 -342
h-117l-253 342h83l232 -200l245 200h87z" />
    <glyph glyph-name="scaron" unicode="&#x161;" horiz-adv-x="909" 
d="M180 319q5 -129 13 -144q22 -41 82.5 -72t140.5 -31q98 0 146.5 40t48.5 106q0 57 -35 90t-150 58q-174 38 -226.5 66.5t-83.5 84.5t-31 134q0 92 46 163t132.5 111.5t228.5 40.5q148 0 275 -48q-14 -81 -19 -252h-79q-6 108 -17 127q-15 29 -57 49q-58 27 -124 27
q-84 0 -130.5 -37.5t-46.5 -94.5q0 -53 42 -84q42 -32 200 -61q109 -20 151 -37q70 -30 106.5 -87.5t36.5 -145.5q0 -169 -131 -259t-312 -90q-60 0 -133 14t-159 41l-15 17q12 87 15 274h85zM779 1391l-277 -342h-117l-253 342h83l232 -200l245 200h87z" />
    <glyph glyph-name="Zcaron" unicode="&#x17d;" horiz-adv-x="1366" 
d="M49 -7v79q333 420 848 1191l-248 3q-199 0 -307 -10q-47 -4 -59 -17t-25 -108l-11 -70h-81q0 70 4 168l2 64q0 41 -6 94l13 9q212 -11 379 -11q631 0 732 2v-71q-451 -603 -848 -1198q205 -7 380 -7q184 0 287 15q31 5 41 17q13 16 44 152l11 51h85q-24 -144 -34 -353
q-60 -5 -119 -5l-754 12q-80 0 -334 -7zM1047 1832l-277 -342h-117l-253 342h83l232 -200l245 200h87z" />
    <glyph glyph-name="zcaron" unicode="&#x17e;" 
d="M201 659h-85q9 117 9 219l-1 58l12 8q306 -7 375 -7q199 0 441 7v-70q-325 -421 -559 -765l180 -1q235 0 262 16.5t43 138.5l7 56h88q-17 -130 -21 -311l-10 -14q-94 -3 -140 -3l-162 3q-248 6 -303 6l-300 -6v70q101 121 238 305l336 465h-183q-129 0 -163 -6
q-24 -4 -33.5 -16.5t-20.5 -79.5zM836 1391l-277 -342h-117l-253 342h83l232 -200l245 200h87z" />
    <glyph glyph-name="brokenbar" unicode="&#xa6;" horiz-adv-x="1241" 
d="M521 1458h201v-811l-201 -96v907zM521 387l201 96v-908h-201v812z" />
    <glyph glyph-name="Eth" unicode="&#xd0;" horiz-adv-x="1706" 
d="M254 677h-178v109h177l-4 333q-4 134 -13 155q-4 9 -13 14q-15 8 -147 24v85q151 -5 347 -5l493 5q269 0 408.5 -68t221.5 -208t82 -340q0 -257 -128 -443t-312 -265t-393 -79l-379 6q-91 0 -274 -7v51q69 40 98 60q14 177 14 521v52zM539 677v-22q0 -395 8 -539
q84 -14 172 -14q223 0 340 64t189.5 209.5t72.5 357.5q0 279 -144 425q-127 130 -415 130q-62 0 -215 -10l-7 -492h396v-109h-397z" />
    <glyph glyph-name="eth" unicode="&#xf0;" horiz-adv-x="1139" 
d="M513 1240l-220 -143l-54 83l189 123q-80 51 -225 101l24 81q180 -34 312 -98l232 151l54 -83l-189 -124q222 -151 321.5 -346t99.5 -484q0 -180 -60 -293t-171 -174t-278 -61q-225 0 -345.5 127.5t-120.5 371.5q0 167 51 268.5t154 163.5t224 62q122 0 229 -84
q-36 124 -88.5 205t-138.5 153zM359 538q0 -266 68 -379q53 -87 159 -87q93 0 143.5 74t50.5 267q0 270 -62 373q-51 82 -160 82q-92 0 -145.5 -75t-53.5 -255z" />
    <glyph glyph-name="Yacute" unicode="&#xdd;" horiz-adv-x="1366" 
d="M399 -7v84q103 0 143 18q24 11 31 46q2 10 9 195l1 73q0 135 -13 169q-22 56 -154 265.5t-202 299t-118 117.5q-17 10 -44 10l-48 -2v79q166 29 328 70q53 -25 88 -59q51 -51 141.5 -199.5t229.5 -428.5l82 140q112 190 295 527h163v-50q-53 -63 -197 -288
q-226 -354 -252 -415q-16 -39 -16 -155q0 -235 10 -331q5 -51 26.5 -64t156.5 -17v-84q-146 7 -297 7q-166 0 -363 -7zM688 1494h-99l232 224q82 79 110.5 95.5t59.5 16.5q38 0 61.5 -22.5t23.5 -56.5q0 -30 -19.5 -51t-122.5 -75z" />
    <glyph glyph-name="yacute" unicode="&#xfd;" horiz-adv-x="1139" 
d="M4 863v82q230 -7 294 -7q89 0 251 7v-82q-93 -4 -110.5 -13.5t-17.5 -31.5q0 -30 98 -277l109 -276l93 218q125 293 125 338q0 21 -17.5 29.5t-107.5 12.5v82l63 -3q101 -4 134 -4q36 0 188 7v-82q-49 0 -80 -15q-13 -7 -23 -22q-16 -22 -126 -276l-186 -426l-173 -394
q-59 -121 -105.5 -169.5t-101.5 -72t-123 -23.5t-144 34q24 99 35 193l27 9q59 -66 137 -66q66 0 109 43t134 249l-223 566l-123 304q-16 37 -34.5 48.5t-101.5 17.5zM475 1053h-99l232 224q82 79 110.5 95.5t59.5 16.5q38 0 61.5 -22.5t23.5 -56.5q0 -30 -19.5 -51
t-122.5 -75z" />
    <glyph glyph-name="Thorn" unicode="&#xde;" horiz-adv-x="1251" 
d="M550 408q2 -216 12 -268q6 -32 20 -41q20 -13 151 -22v-84l-118 3q-112 4 -200 4l-337 -7v84q135 6 153 19t24 57q8 60 8 340l-2 501q-2 246 -7 267t-20 30q-21 13 -156 21v84q208 -8 315 -8l202 4q91 1 138 4v-84q-123 -8 -145 -18q-16 -8 -22 -26q-11 -30 -13 -162
q182 6 245 6q216 0 319.5 -73t103.5 -236q0 -185 -131.5 -310.5t-334.5 -125.5q-93 0 -205 41zM550 505q100 -41 157 -41q94 0 157.5 70.5t63.5 198.5q0 134 -65.5 203t-193.5 69q-58 0 -119 -13l-2 -263z" />
    <glyph glyph-name="thorn" unicode="&#xfe;" horiz-adv-x="1251" 
d="M53 1325v77q175 16 292 50l106 36q14 0 14 -29l-10 -325l4 -301l-1 -41l162 128q51 41 170 41q169 0 271 -104.5t102 -281.5q0 -89 -25.5 -175t-60.5 -137t-123 -119q-151 -121 -180 -137q-57 -34 -138 -34q-44 0 -88.5 11t-89.5 33q1 -306 8 -374q5 -49 20 -60
q24 -18 147 -18v-82q-154 7 -272 7q-218 0 -308 -7v82q104 3 118.5 10.5t19.5 24.5q9 28 13.5 252.5t4.5 513.5l-2 574q-1 322 -11 356q-4 13 -13 19q-15 9 -130 10zM458 213q45 -57 98 -86t115 -29q103 0 168.5 88t65.5 284q0 158 -67 239.5t-171 81.5q-52 0 -104.5 -25
t-104.5 -75v-478z" />
    <glyph glyph-name="minus" unicode="&#x2212;" horiz-adv-x="1241" 
d="M111 601v187h1019v-187h-1019z" />
    <glyph glyph-name="multiply" unicode="&#xd7;" horiz-adv-x="1241" 
d="M186 997l132 132l303 -303l303 303l132 -132l-303 -303l303 -303l-132 -132l-303 303l-303 -303l-132 132l303 303z" />
    <glyph glyph-name="onesuperior" unicode="&#xb9;" horiz-adv-x="739" 
d="M117 562l-10 11v41l10 12q138 10 148 18.5t14 58.5q8 121 8 399l-3 138q0 21 -9 21q-6 0 -13 -3l-180 -74l-14 8q-6 45 -15 77l8 14q240 63 405 125l23 -13q-16 -174 -16 -573q0 -161 13 -177q9 -12 135 -19l12 -12v-41l-12 -11l-250 3q-108 0 -254 -3z" />
    <glyph glyph-name="twosuperior" unicode="&#xb2;" horiz-adv-x="739" 
d="M59 559v77l134 121q162 146 208.5 222t46.5 146q0 67 -36 104t-100 37q-43 0 -78 -17t-46 -35q-6 -10 -31 -108h-68q23 126 28 219q49 45 109.5 67.5t132.5 22.5q132 0 207 -66.5t75 -167.5q0 -82 -57 -164t-317 -298h143q166 0 260 7l12 -12q-7 -54 -7 -79q0 -27 7 -65
l-12 -11q-144 6 -281 6q-128 0 -330 -6z" />
    <glyph glyph-name="threesuperior" unicode="&#xb3;" horiz-adv-x="739" 
d="M65 784l58 13q36 -87 87 -123.5t120 -36.5q72 0 116 43.5t44 111.5t-45.5 110t-126.5 42q-33 0 -80 -11l-15 14q13 38 29 103l49 -3q66 0 107 35.5t41 88.5q0 47 -33 77t-92 30q-68 0 -110 -33q-15 -12 -45 -94l-65 4q33 111 45 199q50 31 104.5 46t113.5 15
q119 0 182.5 -51.5t63.5 -131.5q0 -57 -29.5 -99.5t-99.5 -79.5q89 -12 134.5 -62.5t45.5 -130.5q0 -119 -114 -214t-282 -95q-42 0 -84.5 9t-85.5 27q-13 97 -33 197z" />
    <glyph glyph-name="onehalf" unicode="&#xbd;" horiz-adv-x="1823" 
d="M118 562l-10 11v41l10 12q138 10 148 18.5t14 58.5q8 121 8 399l-3 138q0 21 -9 21q-6 0 -13 -3l-180 -74l-14 8q-6 45 -15 77l8 14q240 63 405 125l23 -13q-16 -174 -16 -573q0 -161 13 -177q9 -12 135 -19l12 -12v-41l-12 -11l-250 3q-108 0 -254 -3zM466 -67
q47 76 117 217l562 1122q57 114 78 186q57 -7 86 -7l48 1q-52 -82 -118 -214l-561 -1127l-52 -107q-11 -26 -26 -73l-74 4zM1142 -6v77l134 121q162 146 208.5 222t46.5 146q0 67 -36 104t-100 37q-43 0 -78 -17t-46 -35q-6 -10 -31 -108h-68q23 126 28 219
q49 45 109.5 67.5t132.5 22.5q132 0 207 -66.5t75 -167.5q0 -82 -57 -164t-317 -298h143q166 0 260 7l12 -12q-7 -54 -7 -79q0 -27 7 -65l-12 -11q-144 6 -281 6q-128 0 -330 -6z" />
    <glyph glyph-name="onequarter" unicode="&#xbc;" horiz-adv-x="1821" 
d="M117 562l-10 11v41l10 12q138 10 148 18.5t14 58.5q8 121 8 399l-3 138q0 21 -9 21q-6 0 -13 -3l-180 -74l-14 8q-6 45 -15 77l8 14q240 63 405 125l23 -13q-16 -174 -16 -573q0 -161 13 -177q9 -12 135 -19l12 -12v-41l-12 -11l-250 3q-108 0 -254 -3zM499 -67
q47 76 117 217l562 1122q57 114 78 186q57 -7 86 -7l48 1q-52 -82 -118 -214l-561 -1127l-52 -107q-11 -26 -26 -73l-74 4zM1452 208l-324 -3l-11 59q64 136 159.5 289t180.5 259q74 11 170 30l19 -16q-13 -200 -19 -505q61 0 116 2l7 -15l-2 -56l1 -38l-6 -12q-49 5 -116 6
q-1 -120 9 -132t105 -17l11 -7v-50l-11 -8q-132 6 -213 6l-229 -6l-10 9v52l10 8q114 6 126 10.5t15 13.5q7 16 12 121zM1452 321l10 379q-139 -192 -229 -379l103 -2z" />
    <glyph glyph-name="threequarters" unicode="&#xbe;" horiz-adv-x="1821" 
d="M65 784l58 13q36 -87 87 -123.5t120 -36.5q72 0 116 43.5t44 111.5t-45.5 110t-126.5 42q-33 0 -80 -11l-15 14q13 38 29 103l49 -3q66 0 107 35.5t41 88.5q0 47 -33 77t-92 30q-68 0 -110 -33q-15 -12 -45 -94l-65 4q33 111 45 199q50 31 104.5 46t113.5 15
q119 0 182.5 -51.5t63.5 -131.5q0 -57 -29.5 -99.5t-99.5 -79.5q89 -12 134.5 -62.5t45.5 -130.5q0 -119 -114 -214t-282 -95q-42 0 -84.5 9t-85.5 27q-13 97 -33 197zM493 -67q47 76 117 217l562 1122q57 114 78 186q57 -7 86 -7l48 1q-52 -82 -118 -214l-561 -1127
l-52 -107q-11 -26 -26 -73l-74 4zM1452 208l-324 -3l-11 59q64 136 159.5 289t180.5 259q74 11 170 30l19 -16q-13 -200 -19 -505q61 0 116 2l7 -15l-2 -56l1 -38l-6 -12q-49 5 -116 6q-1 -120 9 -132t105 -17l11 -7v-50l-11 -8q-132 6 -213 6l-229 -6l-10 9v52l10 8
q114 6 126 10.5t15 13.5q7 16 12 121zM1452 321l10 379q-139 -192 -229 -379l103 -2z" />
    <glyph glyph-name="franc" unicode="&#x20a3;" horiz-adv-x="1139" 
d="M541 306q3 -157 13 -184q6 -19 25.5 -28t164.5 -17v-84q-160 7 -300 7q-124 0 -370 -7v84q113 1 142 14q13 7 18.5 25t12.5 190h-173v109h176l3 302q0 159 -6 370q-5 158 -17 188q-5 13 -17 19q-17 10 -139 17v84q175 -5 301 -5q184 0 386 5q133 4 224 4q65 0 124 -4
l10 -21q-21 -127 -26 -299h-84l-8 107q-3 51 -13.5 62.5t-74 23.5t-181.5 12q-87 0 -184 -9q-11 -169 -11 -239l2 -215l-1 -46q60 -2 145 -2q153 0 184 7q16 4 23 16q11 21 18 125h86q-3 -88 -3 -175q0 -82 3 -261h-86q-8 130 -19 152q-6 12 -25 17q-48 13 -195 13l-131 -2
l2 -246h231v-109h-230z" />
    <glyph glyph-name="Gbreve" unicode="&#x11e;" horiz-adv-x="1706" 
d="M999 486v81q182 -4 325 -4q132 0 285 4v-64q-44 -14 -84 -33q-12 -101 -12 -172q0 -51 12 -202q-198 -72 -331.5 -97.5t-276.5 -25.5q-386 0 -604.5 200.5t-218.5 519.5q0 328 223 525t640 197q147 0 282 -23t257 -70l9 -15q-29 -127 -43 -316h-84q-1 95 -13 168
q-64 74 -164.5 111t-237.5 37q-257 0 -409.5 -156t-152.5 -427q0 -289 160.5 -465.5t395.5 -176.5q125 0 266 61q8 77 8 146q0 154 -18 170t-214 27zM640 1825h63q18 -87 62 -129q67 -63 184 -63q115 0 180 60q47 44 66 132h63q-10 -119 -48 -186t-106 -105t-155 -38
q-142 0 -228 96q-68 77 -81 233z" />
    <glyph glyph-name="gbreve" unicode="&#x11f;" horiz-adv-x="1139" 
d="M1092 764h-166q14 -49 14 -91q0 -184 -131.5 -274t-307.5 -90q-28 0 -82 4q-46 -27 -58.5 -43t-12.5 -36q0 -48 67 -58q37 -6 406 -6q124 0 171.5 -21.5t78.5 -76.5t31 -142q0 -201 -159 -337t-430 -136q-230 0 -343 80.5t-113 205.5q0 72 35 120q16 22 110 76l72 41
q-81 16 -108 42.5t-27 75.5q0 53 39 130l33 21q57 37 108 80q-115 41 -166 111t-51 176q0 153 118 251.5t331 98.5q105 0 185 -21q59 -16 118 -57q220 -1 287 7l17 -21q-27 -38 -66 -110zM360 680q0 -150 44.5 -211t127.5 -61q76 0 118 53.5t42 167.5q0 125 -43.5 182
t-122.5 57q-76 0 -121 -49.5t-45 -138.5zM384 -32q-84 -62 -109.5 -103t-25.5 -94q0 -96 75 -155.5t221 -59.5q105 0 179 33t111 91t37 129q0 65 -30 110q-22 31 -60.5 40t-222.5 9h-175zM236 1384h63q18 -87 62 -129q67 -63 184 -63q115 0 180 60q47 44 66 132h63
q-10 -119 -48 -186t-106 -105t-155 -38q-142 0 -228 96q-68 77 -81 233z" />
    <glyph glyph-name="Idot" unicode="&#x130;" horiz-adv-x="797" 
d="M72 -7v84q138 7 156 23t22 79q7 132 7 492q0 138 -4 400q-2 179 -8 196.5t-21 25.5q-22 11 -152 19v84q206 -8 315 -8q188 0 340 8v-84q-136 -8 -153.5 -21.5t-22.5 -62.5q-9 -96 -9 -389q0 -390 3 -543.5t18 -182.5q6 -13 25.5 -20.5t138.5 -15.5v-84l-118 3
q-112 4 -200 4zM411 1795q50 0 85.5 -36t35.5 -86t-35.5 -86t-85.5 -36t-85.5 36t-35.5 86t35.5 86t85.5 36z" />
    <glyph glyph-name="Scedilla" unicode="&#x15e;" horiz-adv-x="1251" 
d="M143 416h88q1 -148 9.5 -173.5t57.5 -67t127 -67.5t160 -26q141 0 225.5 75t84.5 187q0 103 -56 158q-57 55 -216 78q-236 34 -318.5 74t-130 120t-47.5 192q0 188 132.5 318.5t423.5 130.5q114 0 202.5 -17t177.5 -56l10 -24q-16 -63 -22.5 -114t-11.5 -176h-87
q-5 154 -15 173q-19 33 -96.5 69.5t-177.5 36.5q-137 0 -212.5 -66.5t-75.5 -171.5q0 -64 31 -111.5t86.5 -70t238.5 -51.5q166 -25 225 -49q97 -39 147 -119t50 -202q0 -212 -162 -352.5t-443 -140.5q-125 0 -227 24t-211 79q18 70 24 127q8 79 9 213zM622 0l-53 -125
q39 6 65 6q83 0 129.5 -42.5t46.5 -107.5q0 -81 -72 -140.5t-198 -59.5q-110 0 -228 50l37 71q116 -43 185 -43q61 0 94 29.5t33 75.5q0 42 -29 69t-82 27q-29 0 -65 -13l-20 15l85 188h72z" />
    <glyph glyph-name="scedilla" unicode="&#x15f;" horiz-adv-x="909" 
d="M180 319q5 -129 13 -144q22 -41 82.5 -72t140.5 -31q98 0 146.5 40t48.5 106q0 57 -35 90t-150 58q-174 38 -226.5 66.5t-83.5 84.5t-31 134q0 92 46 163t132.5 111.5t228.5 40.5q148 0 275 -48q-14 -81 -19 -252h-79q-6 108 -17 127q-15 29 -57 49q-58 27 -124 27
q-84 0 -130.5 -37.5t-46.5 -94.5q0 -53 42 -84q42 -32 200 -61q109 -20 151 -37q70 -30 106.5 -87.5t36.5 -145.5q0 -169 -131 -259t-312 -90q-60 0 -133 14t-159 41l-15 17q12 87 15 274h85zM482 0l-53 -125q39 6 65 6q83 0 129.5 -42.5t46.5 -107.5q0 -81 -72 -140.5
t-198 -59.5q-110 0 -228 50l37 71q116 -43 185 -43q61 0 94 29.5t33 75.5q0 42 -29 69t-82 27q-29 0 -65 -13l-20 15l85 188h72z" />
    <glyph glyph-name="Cacute" unicode="&#x106;" horiz-adv-x="1479" 
d="M1391 210l25 -23q-26 -50 -46 -102q-116 -61 -223.5 -86.5t-247.5 -25.5q-262 0 -443 92t-278.5 259t-97.5 383q0 311 220.5 509.5t608.5 198.5q129 0 255.5 -23t251.5 -70l7 -15q-18 -54 -25 -104q-13 -87 -20 -216h-84q-6 158 -12 173.5t-55 53t-132.5 61t-184.5 23.5
q-240 0 -381.5 -148t-141.5 -412q0 -286 170 -463q157 -164 431 -164q106 0 198.5 22t204.5 77zM812 1494h-99l232 224q82 79 110.5 95.5t59.5 16.5q38 0 61.5 -22.5t23.5 -56.5q0 -30 -19.5 -51t-122.5 -75z" />
    <glyph glyph-name="cacute" unicode="&#x107;" horiz-adv-x="909" 
d="M787 606h-83q-7 119 -17 137q-13 28 -58.5 51t-114.5 23q-106 0 -154.5 -60.5t-48.5 -217.5q0 -199 91 -307.5t234 -108.5q52 0 95.5 9t79.5 26l17 -22q-22 -48 -41 -97q-66 -33 -134.5 -49.5t-138.5 -16.5q-218 0 -339.5 120.5t-121.5 342.5q0 82 16 148.5t43.5 113
t60.5 75.5q20 16 172 111q89 56 129.5 69t108.5 13q60 0 117 -9t111 -27l17 -18q-36 -167 -41 -306zM431 1053h-99l232 224q82 79 110.5 95.5t59.5 16.5q38 0 61.5 -22.5t23.5 -56.5q0 -30 -19.5 -51t-122.5 -75z" />
    <glyph glyph-name="Ccaron" unicode="&#x10c;" horiz-adv-x="1479" 
d="M1391 210l25 -23q-26 -50 -46 -102q-116 -61 -223.5 -86.5t-247.5 -25.5q-262 0 -443 92t-278.5 259t-97.5 383q0 311 220.5 509.5t608.5 198.5q129 0 255.5 -23t251.5 -70l7 -15q-18 -54 -25 -104q-13 -87 -20 -216h-84q-6 158 -12 173.5t-55 53t-132.5 61t-184.5 23.5
q-240 0 -381.5 -148t-141.5 -412q0 -286 170 -463q157 -164 431 -164q106 0 198.5 22t204.5 77zM1244 1832l-277 -342h-117l-253 342h83l232 -200l245 200h87z" />
    <glyph glyph-name="ccaron" unicode="&#x10d;" horiz-adv-x="909" 
d="M787 606h-83q-7 119 -17 137q-13 28 -58.5 51t-114.5 23q-106 0 -154.5 -60.5t-48.5 -217.5q0 -199 91 -307.5t234 -108.5q52 0 95.5 9t79.5 26l17 -22q-22 -48 -41 -97q-66 -33 -134.5 -49.5t-138.5 -16.5q-218 0 -339.5 120.5t-121.5 342.5q0 82 16 148.5t43.5 113
t60.5 75.5q20 16 172 111q89 56 129.5 69t108.5 13q60 0 117 -9t111 -27l17 -18q-36 -167 -41 -306zM851 1391l-277 -342h-117l-253 342h83l232 -200l245 200h87z" />
    <glyph glyph-name="dmacron" unicode="&#x111;" horiz-adv-x="1251" 
d="M1066 1095l-7 -721q0 -197 7 -240q4 -27 19.5 -37.5t122.5 -19.5v-83q-122 6 -238 6q-84 0 -157 -6l-17 12q12 101 17 163q-68 -51 -217 -175q-57 -21 -107 -21q-166 0 -276.5 123.5t-110.5 328.5q0 100 22.5 181.5t53 122.5t122.5 105q125 87 182.5 109.5t125.5 22.5
q49 0 100 -10.5t105 -32.5v172h-356v97h355q0 81 -9 101q-6 13 -22.5 18.5t-129.5 8.5v72q239 26 401 96l26 -24q-10 -161 -11 -272h141v-97h-142zM813 709q-47 67 -107 100t-133 33q-103 0 -158 -73.5t-55 -246.5q0 -178 67.5 -266t172.5 -88q71 0 131.5 41t71 75t10.5 258
v167z" />
    <glyph glyph-name="overscore" unicode="&#xaf;" 
d="M-12 1645h1048v-103h-1048v103z" />
    <glyph glyph-name="middot" unicode="&#xb7;" horiz-adv-x="682" 
d="M685 863q50 0 85.5 -36t35.5 -86t-35.5 -86t-85.5 -36t-85.5 36t-35.5 86t35.5 86t85.5 36z" />
    <glyph glyph-name="foursuperior" unicode="&#xf003;" horiz-adv-x="739" 
d="M377 773l-324 -3l-11 59q64 136 159.5 289t180.5 259q74 11 170 30l19 -16q-13 -200 -19 -505q61 0 116 2l7 -15l-2 -56l1 -38l-6 -12q-49 5 -116 6q-1 -120 9 -132t105 -17l11 -7v-50l-11 -8q-132 6 -213 6l-229 -6l-10 9v52l10 8q114 6 126 10.5t15 13.5q7 16 12 121z
M377 886l10 379q-139 -192 -229 -379l103 -2z" />
    <glyph glyph-name="Abreve" unicode="&#x102;" horiz-adv-x="1593" 
d="M63 84q94 5 116 19q15 10 47 76q61 130 156 361l354 867h147l452 -1074q88 -209 108.5 -229t126.5 -27v-84q-163 7 -308 7q-173 0 -329 -7v84q119 5 137.5 13.5t18.5 30.5q0 19 -42 130l-66 171q-124 2 -277 2q-133 0 -242 -2l-44 -115q-18 -47 -44 -140q-6 -21 -6 -38
q0 -23 19.5 -32.5t140.5 -19.5v-84q-98 7 -244 7q-139 0 -221 -7v91zM719 1053l-211 -513q92 -5 203 -5q116 0 222 5zM492 1822h63q18 -87 62 -129q67 -63 184 -63q115 0 180 60q47 44 66 132h63q-10 -119 -48 -186t-106 -105t-155 -38q-142 0 -228 96q-68 77 -81 233z" />
    <glyph glyph-name="abreve" unicode="&#x103;" 
d="M979 77v-83l-77 3q-61 3 -122 3q-94 0 -178 -6l-10 11l10 138l-209 -157q-56 -13 -99 -13q-106 0 -164 63t-58 184q0 149 79 210q102 80 451 143q-2 118 -41 171q-55 73 -170 73q-27 0 -55.5 -6.5t-57.5 -20.5l-45 -107l-69 17l2 45l-1 44l-1 40q153 95 220 119
q49 18 136 18q118 0 192 -35.5t108 -96.5t34 -178q0 -49 -4 -175q-4 -130 -4 -209q0 -125 7 -152q4 -16 19.5 -25t106.5 -18zM602 487q-176 -38 -229 -82.5t-53 -119.5q0 -61 34 -96t86 -35q79 0 162 89v244zM187 1384h63q18 -87 62 -129q67 -63 184 -63q115 0 180 60
q47 44 66 132h63q-10 -119 -48 -186t-106 -105t-155 -38q-142 0 -228 96q-68 77 -81 233z" />
    <glyph glyph-name="Aogonek" unicode="&#x104;" horiz-adv-x="1593" 
d="M63 84q94 5 116 19q15 10 47 76q61 130 156 361l354 867h147l452 -1074q88 -209 108.5 -229t126.5 -27v-84q-163 7 -308 7q-173 0 -329 -7v84q119 5 137.5 13.5t18.5 30.5q0 19 -42 130l-66 171q-124 2 -277 2q-133 0 -242 -2l-44 -115q-18 -47 -44 -140q-6 -21 -6 -38
q0 -23 19.5 -32.5t140.5 -19.5v-84q-98 7 -244 7q-139 0 -221 -7v91zM719 1053l-211 -513q92 -5 203 -5q116 0 222 5zM1422 0q-110 -47 -166 -115.5t-56 -138.5q0 -65 35.5 -105.5t90.5 -40.5q32 0 59 14t68 57l39 -38q-128 -157 -270 -157q-86 0 -141 53t-55 132
q0 97 76 189t223 150h97z" />
    <glyph glyph-name="aogonek" unicode="&#x105;" 
d="M979 77v-83l-77 3q-61 3 -122 3q-94 0 -178 -6l-10 11l10 138l-209 -157q-56 -13 -99 -13q-106 0 -164 63t-58 184q0 149 79 210q102 80 451 143q-2 118 -41 171q-55 73 -170 73q-27 0 -55.5 -6.5t-57.5 -20.5l-45 -107l-69 17l2 45l-1 44l-1 40q153 95 220 119
q49 18 136 18q118 0 192 -35.5t108 -96.5t34 -178q0 -49 -4 -175q-4 -130 -4 -209q0 -125 7 -152q4 -16 19.5 -25t106.5 -18zM602 487q-176 -38 -229 -82.5t-53 -119.5q0 -61 34 -96t86 -35q79 0 162 89v244zM922 0q-110 -47 -166 -115.5t-56 -138.5q0 -65 35.5 -105.5
t90.5 -40.5q32 0 59 14t68 57l39 -38q-128 -157 -270 -157q-86 0 -141 53t-55 132q0 97 76 189t223 150h97z" />
    <glyph glyph-name="Dcaron" unicode="&#x10e;" horiz-adv-x="1706" 
d="M142 -7v51q69 40 98 60q14 176 14 659q0 209 -4.5 349.5t-13.5 160.5q-4 10 -13 15q-15 8 -147 24v85q151 -5 347 -5l493 5q269 0 408.5 -68t221.5 -208t82 -340q0 -257 -128 -443t-312 -265t-393 -79l-379 6q-91 0 -274 -7zM547 116q84 -14 172 -14q223 0 340 64
t189.5 209.5t72.5 357.5q0 279 -144 425q-127 130 -415 130q-62 0 -215 -10l-8 -624q0 -394 8 -538zM1176 1829l-277 -342h-117l-253 342h83l232 -200l245 200h87z" />
    <glyph glyph-name="dcaron" unicode="&#x10f;" horiz-adv-x="1511" 
d="M1489 1488l25 -21q-118 -215 -218 -358q-40 -18 -103 -40l-24 22q98 184 117 350q134 20 203 47zM813 923q1 334 -16 370q-12 24 -135 27v72q49 0 174.5 22.5t206.5 61.5q11 5 19 5q14 0 14 -18q0 -7 -3 -82q-2 -51 -2 -132l-12 -883q0 -240 15.5 -261.5t133.5 -27.5v-83
q-107 6 -238 6q-93 0 -157 -6l-16 12q12 103 16 163q-63 -47 -217 -175q-52 -21 -107 -21q-169 0 -278 125.5t-109 326.5q0 114 33 215t108.5 153.5l166.5 112.5t198 60q102 0 205 -43zM813 709q-94 133 -240 133q-213 0 -213 -320q0 -184 70 -269t171 -85q73 0 134 44
t69.5 79t8.5 251v167z" />
    <glyph glyph-name="Dslash" unicode="&#x110;" horiz-adv-x="1706" 
d="M254 677h-178v109h177l-4 333q-4 134 -13 155q-4 9 -13 14q-15 8 -147 24v85q151 -5 347 -5l493 5q269 0 408.5 -68t221.5 -208t82 -340q0 -257 -128 -443t-312 -265t-393 -79l-379 6q-91 0 -274 -7v51q69 40 98 60q14 177 14 521v52zM539 677v-22q0 -395 8 -539
q84 -14 172 -14q223 0 340 64t189.5 209.5t72.5 357.5q0 279 -144 425q-127 130 -415 130q-62 0 -215 -10l-7 -492h396v-109h-397z" />
    <glyph glyph-name="Eogonek" unicode="&#x118;" horiz-adv-x="1251" 
d="M138 -7v54q53 24 97 56q20 156 20 656q0 341 -7 452q-3 59 -20.5 74.5t-148.5 26.5v84q236 -9 373 -9l551 6q87 0 157 -7l7 -11q-22 -109 -32 -290h-79q-5 146 -11.5 156t-45.5 19q-83 18 -254 18q-84 0 -196 -7q-13 -309 -15 -492q107 -7 201 -7q139 0 167 9q17 6 24 29
q6 18 14 126h86q-5 -169 -5 -220l5 -225h-86q-7 131 -18 151q-6 12 -27 17q-50 11 -225 11q-55 0 -129 -6q-2 -53 -2 -108q0 -286 10 -440l198 -3q169 0 309 18q25 92 48 209h83q-23 -176 -27 -338q-91 -10 -175 -10q-55 0 -217 4q-151 4 -278 4q-167 0 -352 -7zM1096 0
q-110 -47 -166 -115.5t-56 -138.5q0 -65 35.5 -105.5t90.5 -40.5q32 0 59 14t68 57l39 -38q-128 -157 -270 -157q-86 0 -141 53t-55 132q0 97 76 189t223 150h97z" />
    <glyph glyph-name="eogonek" unicode="&#x119;" 
d="M893 188l29 -29l-45 -96q-72 -45 -154.5 -67.5t-175.5 -22.5q-218 0 -343.5 126.5t-125.5 355.5q0 145 37 240q30 77 98.5 128t158 97t196.5 46q164 0 271 -91.5t107 -294.5q0 -25 -3 -76l-164 -30q-76 -5 -220 -5h-217q15 -172 103 -259t224 -87q57 0 113 16.5t111 48.5
zM335 575q90 -8 180 -8q79 0 166 8l1 47q0 123 -45 179.5t-122 56.5q-54 0 -93 -26.5t-58 -74.5t-29 -182zM672 0q-110 -47 -166 -115.5t-56 -138.5q0 -65 35.5 -105.5t90.5 -40.5q32 0 59 14t68 57l39 -38q-128 -157 -270 -157q-86 0 -141 53t-55 132q0 97 76 189t223 150
h97z" />
    <glyph glyph-name="Ecaron" unicode="&#x11a;" horiz-adv-x="1251" 
d="M138 -7v54q53 24 97 56q20 156 20 656q0 341 -7 452q-3 59 -20.5 74.5t-148.5 26.5v84q236 -9 373 -9l551 6q87 0 157 -7l7 -11q-22 -109 -32 -290h-79q-5 146 -11.5 156t-45.5 19q-83 18 -254 18q-84 0 -196 -7q-13 -309 -15 -492q107 -7 201 -7q139 0 167 9q17 6 24 29
q6 18 14 126h86q-5 -169 -5 -220l5 -225h-86q-7 131 -18 151q-6 12 -27 17q-50 11 -225 11q-55 0 -129 -6q-2 -53 -2 -108q0 -286 10 -440l198 -3q169 0 309 18q25 92 48 209h83q-23 -176 -27 -338q-91 -10 -175 -10q-55 0 -217 4q-151 4 -278 4q-167 0 -352 -7zM1011 1829
l-277 -342h-117l-253 342h83l232 -200l245 200h87z" />
    <glyph glyph-name="ecaron" unicode="&#x11b;" 
d="M893 188l29 -29l-45 -96q-72 -45 -154.5 -67.5t-175.5 -22.5q-218 0 -343.5 126.5t-125.5 355.5q0 145 37 240q30 77 98.5 128t158 97t196.5 46q164 0 271 -91.5t107 -294.5q0 -25 -3 -76l-164 -30q-76 -5 -220 -5h-217q15 -172 103 -259t224 -87q57 0 113 16.5t111 48.5
zM335 575q90 -8 180 -8q79 0 166 8l1 47q0 123 -45 179.5t-122 56.5q-54 0 -93 -26.5t-58 -74.5t-29 -182zM872 1391l-277 -342h-117l-253 342h83l232 -200l245 200h87z" />
    <glyph glyph-name="IJ" unicode="&#x132;" horiz-adv-x="1593" 
d="M72 -7v84q137 6 155.5 22t24 116.5t5.5 529.5q0 106 -3 306t-9.5 217.5t-25.5 26.5t-147 17v84q208 -8 300 -8q201 0 355 8v-84q-142 -5 -164 -29t-22 -452q0 -436 4.5 -572.5t23 -154t158.5 -27.5v-84q-3 0 -59 2q-168 5 -259 5q-42 0 -337 -7zM850 1312v84
q200 -8 324 -8q175 0 356 8v-84q-171 0 -178 -46t-10 -627l-4 -394q-2 -181 -13.5 -251.5t-55.5 -147t-128 -151.5t-152.5 -104t-127.5 -29q-32 0 -73 13q5 68 5 93q0 27 -5 90l25 11q58 -70 143 -70q46 0 66.5 32t25.5 252t5 326l-1 681q0 231 -8 263.5t-29 40.5t-165 18z
" />
    <glyph glyph-name="ij" unicode="&#x133;" horiz-adv-x="1364" 
d="M341 1444q63 0 109.5 -44.5t46.5 -111.5q0 -64 -46 -109.5t-110 -45.5t-109.5 45.5t-45.5 109.5q0 66 46 111t109 45zM1045 1444q63 0 109 -45.5t46 -110.5t-46 -110t-110 -45t-109.5 45.5t-45.5 109.5q0 66 46 111t110 45zM725 -533l-24 73l11 10q38 -5 55 -5
q52 0 92 56t50.5 200.5t10.5 485.5q0 168 -3 319t-10.5 167.5t-20 21t-130.5 9.5v77q252 25 396 81q12 4 21 4q13 0 13 -14q0 -9 -1 -26q-15 -213 -15 -548q0 -320 -8 -439t-59 -234t-140.5 -179t-176.5 -64q-21 0 -61 5zM71 805v72q56 0 180 24t201 60q11 5 19 5
q14 0 14 -18q0 -5 -3 -82q-8 -431 -8 -562q0 -137 4 -168t18.5 -41.5t131.5 -17.5v-83q-181 6 -280 6q-56 0 -285 -6v83q109 4 126.5 12t25 43t7.5 273q0 285 -6 330.5t-23.5 55.5t-121.5 14z" />
    <glyph glyph-name="Lacute" unicode="&#x139;" horiz-adv-x="1251" 
d="M136 -7v52q55 26 104 61q13 271 13 565q0 231 -5 436q-3 146 -14 168q-5 13 -20.5 19.5t-145.5 17.5v84q193 -5 358 -5q160 0 303 5v-84q-138 -9 -159 -24q-13 -9 -18.5 -36.5t-8.5 -323.5l-6 -487q0 -137 7 -317q131 -7 194 -7q189 0 318 29q26 91 51 217h88
q-22 -143 -39 -355q-95 -14 -175 -14l-362 4l-162 2q-112 1 -321 -7zM387 1491h-99l232 224q82 79 110.5 95.5t59.5 16.5q38 0 61.5 -22.5t23.5 -56.5q0 -30 -19.5 -51t-122.5 -75z" />
    <glyph glyph-name="lacute" unicode="&#x13a;" horiz-adv-x="682" 
d="M57 1330v58q142 19 224 39t177 57l26 -22q-15 -357 -15 -997q0 -129 4 -261q2 -84 9.5 -97.5t24 -21.5t119.5 -12v-83l-105 3q-98 3 -165 3l-299 -6v83l74 4q50 2 64.5 18.5t17.5 125.5q5 151 5 429l-1 427q-1 195 -11 220q-4 12 -15 18q-18 11 -134 15zM197 1510h-99
l232 224q82 79 110.5 95.5t59.5 16.5q38 0 61.5 -22.5t23.5 -56.5q0 -30 -19.5 -51t-122.5 -75z" />
    <glyph glyph-name="Lcaron" unicode="&#x13d;" horiz-adv-x="1251" 
d="M136 -7v52q55 26 104 61q13 271 13 565q0 231 -5 436q-3 146 -14 168q-5 13 -20.5 19.5t-145.5 17.5v84q193 -5 358 -5q160 0 303 5v-84q-138 -9 -159 -24q-13 -9 -18.5 -36.5t-8.5 -323.5l-6 -487q0 -137 7 -317q131 -7 194 -7q189 0 318 29q26 91 51 217h88
q-22 -143 -39 -355q-95 -14 -175 -14l-362 4l-162 2q-112 1 -321 -7zM1142 1481l33 -30q-110 -212 -160.5 -300.5t-129.5 -211.5q-59 -27 -138 -56l-32 31q125 253 156 500q168 28 271 67z" />
    <glyph glyph-name="lcaron" unicode="&#x13e;" horiz-adv-x="920" 
d="M898 1488l25 -21q-118 -215 -218 -358q-40 -18 -103 -40l-24 22q98 184 117 350q134 20 203 47zM66 1392q57 0 180.5 23.5t201.5 60.5q10 5 18 5q14 0 14 -18q0 -8 -3 -82q-8 -186 -8 -848q0 -398 14 -427t143 -29v-83q-15 0 -105 3q-98 3 -166 3q-65 0 -298 -6v83
q110 6 123.5 11.5t22 25.5t12.5 175t4 406q0 229 -4.5 410t-20.5 196.5t-128 18.5v72z" />
    <glyph glyph-name="Ldot" unicode="&#x13f;" horiz-adv-x="1251" 
d="M136 -7v52q55 26 104 61q13 271 13 565q0 231 -5 436q-3 146 -14 168q-5 13 -20.5 19.5t-145.5 17.5v84q193 -5 358 -5q160 0 303 5v-84q-138 -9 -159 -24q-13 -9 -18.5 -36.5t-8.5 -323.5l-6 -487q0 -137 7 -317q131 -7 194 -7q189 0 318 29q26 91 51 217h88
q-22 -143 -39 -355q-95 -14 -175 -14l-362 4l-162 2q-112 1 -321 -7zM892 928q50 0 85.5 -36t35.5 -86t-35.5 -86t-85.5 -36t-85.5 36t-35.5 86t35.5 86t85.5 36z" />
    <glyph glyph-name="ldot" unicode="&#x140;" horiz-adv-x="809" 
d="M57 1334v58q142 19 224 39t177 57l26 -22q-15 -357 -15 -997q0 -129 4 -261q2 -84 9.5 -97.5t24 -21.5t119.5 -12v-83l-105 3q-98 3 -165 3l-299 -6v83l74 4q50 2 64.5 18.5t17.5 125.5q5 151 5 429l-1 427q-1 195 -11 220q-4 12 -15 18q-18 11 -134 15zM670 916
q50 0 85.5 -36t35.5 -86t-35.5 -86t-85.5 -36t-85.5 36t-35.5 86t35.5 86t85.5 36z" />
    <glyph glyph-name="Nacute" unicode="&#x143;" horiz-adv-x="1706" 
d="M68 -7v84q122 5 143 16q14 8 21 26q11 24 14 169q6 240 6 362l-2 423q0 168 -11 194q-6 15 -19 22q-20 12 -152 23v84q158 -5 234 -5q84 0 191 5l520 -638q193 -230 333 -380v396q0 225 -6 388q-4 97 -16 119q-6 12 -22 17t-140 14v84q109 -5 217 -5q148 0 268 5v-84
q-112 -7 -135 -16q-13 -5 -21 -14t-12 -23q-7 -24 -8 -154l-3 -400l-2 -403q0 -162 7 -324l-13 -14q-121 22 -171 29l-621 716q-184 218 -297 367v-389q0 -159 5 -383q3 -165 14 -190q4 -11 15 -17q19 -11 144 -20v-84q-162 7 -232 7q-58 0 -249 -7zM773 1491h-99l232 224
q82 79 110.5 95.5t59.5 16.5q38 0 61.5 -22.5t23.5 -56.5q0 -30 -19.5 -51t-122.5 -75z" />
    <glyph glyph-name="nacute" unicode="&#x144;" horiz-adv-x="1251" 
d="M57 -6v83q109 6 123 17.5t17 51.5q6 101 6 356q0 126 -3 217q-2 56 -8 66q-5 8 -16 12t-119 7v77q54 0 168.5 23t192.5 53l27 9q14 0 14 -23l-1 -9q-3 -28 -3 -144l155 130q29 25 60 34q44 12 107 12q106 0 173.5 -36.5t99 -101t31.5 -200.5q0 -60 -3 -139
q-5 -162 -5 -280q0 -67 11 -93q8 -18 22.5 -24t109.5 -15v-83l-123 4l-79 2l-206 -6l-11 13q26 190 26 390q0 254 -31 313q-40 76 -146 76q-68 0 -118 -34.5t-65 -73.5q-7 -16 -7 -101q0 -362 3 -414.5t17 -64.5q18 -15 134 -21v-83q-174 6 -294 6q-71 0 -259 -6zM492 1053
h-99l232 224q82 79 110.5 95.5t59.5 16.5q38 0 61.5 -22.5t23.5 -56.5q0 -30 -19.5 -51t-122.5 -75z" />
    <glyph glyph-name="Ncaron" unicode="&#x147;" horiz-adv-x="1706" 
d="M68 -7v84q122 5 143 16q14 8 21 26q11 24 14 169q6 240 6 362l-2 423q0 168 -11 194q-6 15 -19 22q-20 12 -152 23v84q158 -5 234 -5q84 0 191 5l520 -638q193 -230 333 -380v396q0 225 -6 388q-4 97 -16 119q-6 12 -22 17t-140 14v84q109 -5 217 -5q148 0 268 5v-84
q-112 -7 -135 -16q-13 -5 -21 -14t-12 -23q-7 -24 -8 -154l-3 -400l-2 -403q0 -162 7 -324l-13 -14q-121 22 -171 29l-621 716q-184 218 -297 367v-389q0 -159 5 -383q3 -165 14 -190q4 -11 15 -17q19 -11 144 -20v-84q-162 7 -232 7q-58 0 -249 -7zM1181 1829l-277 -342
h-117l-253 342h83l232 -200l245 200h87z" />
    <glyph glyph-name="ncaron" unicode="&#x148;" horiz-adv-x="1251" 
d="M57 -6v83q109 6 123 17.5t17 51.5q6 101 6 356q0 126 -3 217q-2 56 -8 66q-5 8 -16 12t-119 7v77q54 0 168.5 23t192.5 53l27 9q14 0 14 -23l-1 -9q-3 -28 -3 -144l155 130q29 25 60 34q44 12 107 12q106 0 173.5 -36.5t99 -101t31.5 -200.5q0 -60 -3 -139
q-5 -162 -5 -280q0 -67 11 -93q8 -18 22.5 -24t109.5 -15v-83l-123 4l-79 2l-206 -6l-11 13q26 190 26 390q0 254 -31 313q-40 76 -146 76q-68 0 -118 -34.5t-65 -73.5q-7 -16 -7 -101q0 -362 3 -414.5t17 -64.5q18 -15 134 -21v-83q-174 6 -294 6q-71 0 -259 -6zM960 1391
l-277 -342h-117l-253 342h83l232 -200l245 200h87z" />
    <glyph glyph-name="napostrophe" unicode="&#x149;" horiz-adv-x="1664" 
d="M470 -6v83q109 6 123 17.5t17 51.5q6 101 6 356q0 126 -3 217q-2 56 -8 66q-5 8 -16 12t-119 7v77q54 0 168.5 23t192.5 53l27 9q14 0 14 -23l-1 -9q-3 -28 -3 -144l155 130q29 25 60 34q44 12 107 12q106 0 173.5 -36.5t99 -101t31.5 -200.5q0 -60 -3 -139
q-5 -162 -5 -280q0 -67 11 -93q8 -18 22.5 -24t109.5 -15v-83l-123 4l-79 2l-206 -6l-11 13q26 190 26 390q0 254 -31 313q-40 76 -146 76q-68 0 -118 -34.5t-65 -73.5q-7 -16 -7 -101q0 -362 3 -414.5t17 -64.5q18 -15 134 -21v-83q-174 6 -294 6q-71 0 -259 -6zM481 1481
l33 -30q-110 -212 -160.5 -300.5t-129.5 -211.5q-59 -27 -138 -56l-32 31q125 253 156 500q168 28 271 67z" />
    <glyph glyph-name="Odblacute" unicode="&#x150;" horiz-adv-x="1706" 
d="M841 -27q-369 0 -565 189.5t-196 521.5q0 232 95 394.5t263.5 249.5t433.5 87q255 0 417 -83.5t249.5 -232t87.5 -364.5q0 -234 -96 -404.5t-270.5 -264t-418.5 -93.5zM879 82q201 0 320.5 148.5t119.5 451.5q0 318 -137 488q-111 137 -342 137q-216 0 -334.5 -143
t-118.5 -440q0 -214 65 -362.5t165.5 -214t261.5 -65.5zM1054 1488h-96l227 245q65 72 89.5 86.5t51.5 14.5q34 0 57.5 -22t23.5 -54q0 -27 -19 -50t-106 -78zM709 1488h-90l188 241q55 70 81 87.5t58 17.5q36 0 57 -19t21 -50q0 -27 -17.5 -49t-108.5 -90z" />
    <glyph glyph-name="odblacute" unicode="&#x151;" horiz-adv-x="1139" 
d="M82 469q0 237 111 356q133 141 384 141q250 0 365 -113t115 -357q0 -251 -132.5 -387t-368.5 -136q-232 0 -353 127t-121 369zM359 538q0 -266 68 -379q53 -87 159 -87q93 0 143.5 74t50.5 269q0 268 -62 371q-51 82 -159 82q-93 0 -146.5 -75t-53.5 -255zM761 1047h-96
l227 245q65 72 89.5 86.5t51.5 14.5q34 0 57.5 -22t23.5 -54q0 -27 -19 -50t-106 -78zM416 1047h-90l188 241q55 70 81 87.5t58 17.5q36 0 57 -19t21 -50q0 -27 -17.5 -49t-108.5 -90z" />
    <glyph glyph-name="Racute" unicode="&#x154;" horiz-adv-x="1479" 
d="M72 -7v84q116 10 133 19q11 6 16 19q10 24 14 162q5 214 5 337q0 166 -4 422q-4 191 -19 234q-4 13 -16 20q-16 10 -129 22v84q207 -8 267 -8l501 9q163 0 237.5 -31.5t118 -101t43.5 -163.5q0 -120 -69.5 -210.5t-241.5 -160.5l213 -321l166 -246q47 -60 70 -72.5
t75 -13.5v-77l-59 -1q-254 -2 -327 -6l-260 403l-206 313q9 17 15 36q40 -5 59 -5q93 0 183 75t90 214q0 121 -71 188t-213 67q-45 0 -122 -7l-7 -295l-9 -374q0 -127 10 -325q8 -149 16 -167q6 -13 22 -21q21 -12 136 -18v-84q-180 7 -319 7q-148 0 -318 -7zM564 1491h-99
l232 224q82 79 110.5 95.5t59.5 16.5q38 0 61.5 -22.5t23.5 -56.5q0 -30 -19.5 -51t-122.5 -75z" />
    <glyph glyph-name="racute" unicode="&#x155;" horiz-adv-x="797" 
d="M21 -6v83q101 5 116 12q12 6 19 19q11 24 13 106q4 146 4 266q0 231 -6 274q-3 25 -18 35.5t-128 14.5v77q202 19 289 47l103 38q14 0 14 -19l-1 -14q-4 -63 -4 -181q51 49 113 124q46 56 80 73t91 17q32 0 65 -11q-9 -100 -12 -272l-45 -16q-23 39 -50.5 54.5
t-71.5 15.5q-60 0 -103 -31t-55 -71q-8 -30 -8 -204q0 -253 7 -295q4 -28 19 -38q23 -15 151 -21v-83l-112 3q-107 3 -185 3q-74 0 -172 -3zM356 1053h-99l232 224q82 79 110.5 95.5t59.5 16.5q38 0 61.5 -22.5t23.5 -56.5q0 -30 -19.5 -51t-122.5 -75z" />
    <glyph glyph-name="Rcaron" unicode="&#x158;" horiz-adv-x="1479" 
d="M72 -7v84q116 10 133 19q11 6 16 19q10 24 14 162q5 214 5 337q0 166 -4 422q-4 191 -19 234q-4 13 -16 20q-16 10 -129 22v84q207 -8 267 -8l501 9q163 0 237.5 -31.5t118 -101t43.5 -163.5q0 -120 -69.5 -210.5t-241.5 -160.5l213 -321l166 -246q47 -60 70 -72.5
t75 -13.5v-77l-59 -1q-254 -2 -327 -6l-260 403l-206 313q9 17 15 36q40 -5 59 -5q93 0 183 75t90 214q0 121 -71 188t-213 67q-45 0 -122 -7l-7 -295l-9 -374q0 -127 10 -325q8 -149 16 -167q6 -13 22 -21q21 -12 136 -18v-84q-180 7 -319 7q-148 0 -318 -7zM1006 1829
l-277 -342h-117l-253 342h83l232 -200l245 200h87z" />
    <glyph glyph-name="rcaron" unicode="&#x159;" horiz-adv-x="797" 
d="M21 -6v83q101 5 116 12q12 6 19 19q11 24 13 106q4 146 4 266q0 231 -6 274q-3 25 -18 35.5t-128 14.5v77q202 19 289 47l103 38q14 0 14 -19l-1 -14q-4 -63 -4 -181q51 49 113 124q46 56 80 73t91 17q32 0 65 -11q-9 -100 -12 -272l-45 -16q-23 39 -50.5 54.5
t-71.5 15.5q-60 0 -103 -31t-55 -71q-8 -30 -8 -204q0 -253 7 -295q4 -28 19 -38q23 -15 151 -21v-83l-112 3q-107 3 -185 3q-74 0 -172 -3zM765 1391l-277 -342h-117l-253 342h83l232 -200l245 200h87z" />
    <glyph glyph-name="Sacute" unicode="&#x15a;" horiz-adv-x="1251" 
d="M143 416h88q1 -148 9.5 -173.5t57.5 -67t127 -67.5t160 -26q141 0 225.5 75t84.5 187q0 103 -56 158q-57 55 -216 78q-236 34 -318.5 74t-130 120t-47.5 192q0 188 132.5 318.5t423.5 130.5q114 0 202.5 -17t177.5 -56l10 -24q-16 -63 -22.5 -114t-11.5 -176h-87
q-5 154 -15 173q-19 33 -96.5 69.5t-177.5 36.5q-137 0 -212.5 -66.5t-75.5 -171.5q0 -64 31 -111.5t86.5 -70t238.5 -51.5q166 -25 225 -49q97 -39 147 -119t50 -202q0 -212 -162 -352.5t-443 -140.5q-125 0 -227 24t-211 79q18 70 24 127q8 79 9 213zM487 1491h-99
l232 224q82 79 110.5 95.5t59.5 16.5q38 0 61.5 -22.5t23.5 -56.5q0 -30 -19.5 -51t-122.5 -75z" />
    <glyph glyph-name="sacute" unicode="&#x15b;" horiz-adv-x="909" 
d="M179 319q5 -129 13 -144q22 -41 82.5 -72t140.5 -31q98 0 146.5 40t48.5 106q0 57 -35 90t-150 58q-174 38 -226.5 66.5t-83.5 84.5t-31 134q0 92 46 163t132.5 111.5t228.5 40.5q148 0 275 -48q-14 -81 -19 -252h-79q-6 108 -17 127q-15 29 -57 49q-58 27 -124 27
q-84 0 -130.5 -37.5t-46.5 -94.5q0 -53 42 -84q42 -32 200 -61q109 -20 151 -37q70 -30 106.5 -87.5t36.5 -145.5q0 -169 -131 -259t-312 -90q-60 0 -133 14t-159 41l-15 17q12 87 15 274h85zM310 1053h-99l232 224q82 79 110.5 95.5t59.5 16.5q38 0 61.5 -22.5t23.5 -56.5
q0 -30 -19.5 -51t-122.5 -75z" />
    <glyph glyph-name="Tcedilla" unicode="&#x162;" horiz-adv-x="1366" 
d="M343 -7v84q71 0 111 8.5t52 21.5t18 59.5t9 297t3 540.5q0 258 -2.5 262t-71.5 4q-97 0 -198.5 -5.5t-112 -15.5t-21.5 -190h-86q0 47 -1 116t-3 115t-7 98l11 8q296 -14 608 -14q318 0 670 14l11 -16q-19 -136 -27 -321h-83q-8 172 -18 185t-128.5 18.5t-191.5 5.5h-35
q-16 0 -20 -8t-4 -52l2 -81l-8 -564q0 -304 5 -377t21 -85t161 -24v-84q-128 7 -312 7q-234 0 -352 -7zM494 -542l-24 23q110 175 124 351q122 16 201 47l27 -22q-97 -197 -220 -355q-41 -19 -108 -44z" />
    <glyph glyph-name="tcedilla" unicode="&#x163;" horiz-adv-x="682" 
d="M-9 797l164 87q0 148 -9 310q136 40 258 102l29 -23q-22 -141 -29 -394h102q92 0 170 17l12 -17q-18 -61 -26 -123q-97 4 -111 4h-147q-2 -118 -2 -189q0 -314 15.5 -371t99.5 -57q47 0 101 19l18 -38q-60 -66 -118 -139q-70 -12 -124 -12q-100 0 -174.5 49.5
t-74.5 187.5q0 53 6 256l2 116l2 92v86q-100 -4 -164 -10v47zM164 -542l-24 23q110 175 125 351q121 16 200 47l27 -22q-97 -197 -220 -355q-40 -19 -108 -44z" />
    <glyph glyph-name="Tcaron" unicode="&#x164;" horiz-adv-x="1366" 
d="M343 -7v84q57 0 119 10q29 5 41 16.5t18 42.5q7 43 12 316q3 194 3 396q0 397 -2.5 404.5t-70.5 7.5q-139 0 -239 -8q-58 -5 -65.5 -10t-11.5 -17.5t-17 -175.5h-86q2 191 -11 329l11 8q315 -14 613 -14q297 0 665 14l11 -16q-19 -137 -27 -321h-83q-9 167 -18 181
q-7 11 -32 15q-80 13 -318 13q-20 0 -24 -6q-4 -7 -4 -53l-6 -672q0 -292 5 -358.5t24 -80.5q13 -9 157 -21v-84q-147 7 -312 7q-217 0 -352 -7zM1019 1829l-277 -342h-117l-253 342h83l232 -200l245 200h87z" />
    <glyph glyph-name="tcaron" unicode="&#x165;" horiz-adv-x="860" 
d="M851 1488l26 -21q-119 -215 -218 -358q-41 -18 -104 -40l-24 22q99 184 117 350q135 20 203 47zM-9 797l164 87q0 148 -9 310q136 40 258 102l29 -23q-22 -141 -29 -394h102q92 0 170 17l12 -17q-18 -61 -26 -123q-97 4 -111 4h-147q-2 -118 -2 -189q0 -314 15.5 -371
t99.5 -57q47 0 101 19l18 -38q-60 -66 -118 -139q-70 -12 -124 -12q-100 0 -174.5 49.5t-74.5 187.5q0 53 6 256l2 116l2 92v86q-100 -4 -164 -10v47z" />
    <glyph glyph-name="Uring" unicode="&#x16e;" horiz-adv-x="1593" 
d="M57 1312v84q204 -7 358 -7q98 0 277 7v-84q-92 0 -130 -16q-13 -5 -21 -17q-11 -14 -15 -47q-6 -56 -10 -322q-3 -185 -3 -376q0 -157 36 -230.5t105 -109.5q100 -51 218 -51q161 0 246 53t114 146t29 407l-1 370q-1 125 -12 150q-6 14 -21 21q-24 14 -146 22v84
q129 -7 238 -7q94 0 231 7v-84q-99 0 -123.5 -22t-29.5 -114q-11 -224 -12 -507q0 -181 -5 -237q-11 -138 -67 -235.5t-186 -160.5t-323 -63q-201 0 -334 60t-189 151.5t-56 268.5l5 450q0 54 -5 275q-2 69 -15 94q-8 14 -24.5 22t-128.5 18zM859 1895q82 0 140 -58.5
t58 -141.5t-58.5 -141t-140.5 -58q-83 0 -141.5 58t-58.5 141q0 84 58.5 142t142.5 58zM858 1817q-51 0 -86.5 -35.5t-35.5 -86.5q0 -50 35.5 -86t86.5 -36q50 0 86 36t36 86q0 51 -36 86.5t-86 35.5z" />
    <glyph glyph-name="uring" unicode="&#x16f;" horiz-adv-x="1251" 
d="M39 804v77q160 15 299 57l99 35q18 0 18 -23l-4 -59q-17 -230 -17 -444q0 -138 14 -183.5t50.5 -70.5t97.5 -25q71 0 124.5 39t66 86t12.5 268q0 177 -6 207q-4 16 -14 22q-15 8 -136 14v77q205 23 301 54l106 38q17 0 17 -21l-2 -27q-17 -174 -17 -631q0 -140 8 -176
q5 -17 16 -24q16 -9 126 -17v-83q-115 6 -228 6q-92 0 -171 -6l-9 18q5 50 9 157q-93 -75 -180 -165q-71 -31 -140 -31q-92 0 -160 37t-100.5 96.5t-32.5 167.5l2 109q3 101 3 164q0 178 -7 213q-5 23 -21 32.5t-124 11.5zM621 1457q82 0 140 -58.5t58 -141.5t-58.5 -141
t-140.5 -58q-83 0 -141.5 58t-58.5 141q0 84 58.5 142t142.5 58zM620 1379q-51 0 -86.5 -35.5t-35.5 -86.5q0 -50 35.5 -86t86.5 -36q50 0 86 36t36 86q0 51 -36 86.5t-86 35.5z" />
    <glyph glyph-name="Udblacute" unicode="&#x170;" horiz-adv-x="1593" 
d="M57 1312v84q204 -7 358 -7q98 0 277 7v-84q-92 0 -130 -16q-13 -5 -21 -17q-11 -14 -15 -47q-6 -56 -10 -322q-3 -185 -3 -376q0 -157 36 -230.5t105 -109.5q100 -51 218 -51q161 0 246 53t114 146t29 407l-1 370q-1 125 -12 150q-6 14 -21 21q-24 14 -146 22v84
q129 -7 238 -7q94 0 231 7v-84q-99 0 -123.5 -22t-29.5 -114q-11 -224 -12 -507q0 -181 -5 -237q-11 -138 -67 -235.5t-186 -160.5t-323 -63q-201 0 -334 60t-189 151.5t-56 268.5l5 450q0 54 -5 275q-2 69 -15 94q-8 14 -24.5 22t-128.5 18zM982 1488h-96l227 245
q65 72 89.5 86.5t51.5 14.5q34 0 57.5 -22t23.5 -54q0 -27 -19 -50t-106 -78zM637 1488h-90l188 241q55 70 81 87.5t58 17.5q36 0 57 -19t21 -50q0 -27 -17.5 -49t-108.5 -90z" />
    <glyph glyph-name="udblacute" unicode="&#x171;" horiz-adv-x="1251" 
d="M39 804v77q160 15 299 57l99 35q18 0 18 -23l-4 -59q-17 -230 -17 -444q0 -138 14 -183.5t50.5 -70.5t97.5 -25q71 0 124.5 39t66 86t12.5 268q0 177 -6 207q-4 16 -14 22q-15 8 -136 14v77q205 23 301 54l106 38q17 0 17 -21l-2 -27q-17 -174 -17 -631q0 -140 8 -176
q5 -17 16 -24q16 -9 126 -17v-83q-115 6 -228 6q-92 0 -171 -6l-9 18q5 50 9 157q-93 -75 -180 -165q-71 -31 -140 -31q-92 0 -160 37t-100.5 96.5t-32.5 167.5l2 109q3 101 3 164q0 178 -7 213q-5 23 -21 32.5t-124 11.5zM782 1047h-96l227 245q65 72 89.5 86.5t51.5 14.5
q34 0 57.5 -22t23.5 -54q0 -27 -19 -50t-106 -78zM437 1047h-90l188 241q55 70 81 87.5t58 17.5q36 0 57 -19t21 -50q0 -27 -17.5 -49t-108.5 -90z" />
    <glyph glyph-name="Zacute" unicode="&#x179;" horiz-adv-x="1366" 
d="M49 -7v79q333 420 848 1191l-248 3q-199 0 -307 -10q-47 -4 -59 -17t-25 -108l-11 -70h-81q0 70 4 168l2 64q0 41 -6 94l13 9q212 -11 379 -11q631 0 732 2v-71q-451 -603 -848 -1198q205 -7 380 -7q184 0 287 15q31 5 41 17q13 16 44 152l11 51h85q-24 -144 -34 -353
q-60 -5 -119 -5l-754 12q-80 0 -334 -7zM575 1491h-99l232 224q82 79 110.5 95.5t59.5 16.5q38 0 61.5 -22.5t23.5 -56.5q0 -30 -19.5 -51t-122.5 -75z" />
    <glyph glyph-name="zacute" unicode="&#x17a;" 
d="M201 659h-85q9 117 9 219l-1 58l12 8q306 -7 375 -7q199 0 441 7v-70q-325 -421 -559 -765l180 -1q235 0 262 16.5t43 138.5l7 56h88q-17 -130 -21 -311l-10 -14q-94 -3 -140 -3l-162 3q-248 6 -303 6l-300 -6v70q101 121 238 305l336 465h-183q-129 0 -163 -6
q-24 -4 -33.5 -16.5t-20.5 -79.5zM409 1053h-99l232 224q82 79 110.5 95.5t59.5 16.5q38 0 61.5 -22.5t23.5 -56.5q0 -30 -19.5 -51t-122.5 -75z" />
    <glyph glyph-name="Zdot" unicode="&#x17b;" horiz-adv-x="1366" 
d="M49 -7v79q333 420 848 1191l-248 3q-199 0 -307 -10q-47 -4 -59 -17t-25 -108l-11 -70h-81q0 70 4 168l2 64q0 41 -6 94l13 9q212 -11 379 -11q631 0 732 2v-71q-451 -603 -848 -1198q205 -7 380 -7q184 0 287 15q31 5 41 17q13 16 44 152l11 51h85q-24 -144 -34 -353
q-60 -5 -119 -5l-754 12q-80 0 -334 -7zM724 1792q50 0 85.5 -36t35.5 -86t-35.5 -86t-85.5 -36t-85.5 36t-35.5 86t35.5 86t85.5 36z" />
    <glyph glyph-name="zdot" unicode="&#x17c;" 
d="M201 659h-85q9 117 9 219l-1 58l12 8q306 -7 375 -7q199 0 441 7v-70q-325 -421 -559 -765l180 -1q235 0 262 16.5t43 138.5l7 56h88q-17 -130 -21 -311l-10 -14q-94 -3 -140 -3l-162 3q-248 6 -303 6l-300 -6v70q101 121 238 305l336 465h-183q-129 0 -163 -6
q-24 -4 -33.5 -16.5t-20.5 -79.5zM541 1354q50 0 85.5 -36t35.5 -86t-35.5 -86t-85.5 -36t-85.5 36t-35.5 86t35.5 86t85.5 36z" />
    <glyph glyph-name="noGamma" unicode="&#xf100;" horiz-adv-x="1323" 
d="M1273 1356v-359h-36q-20 106 -61.5 172t-84.5 84.5t-126 18.5h-396v-1083q0 -83 35.5 -118t135.5 -35h53v-36h-741v36h48q91 0 122.5 36.5t31.5 136.5v953q0 105 -40.5 131.5t-132.5 26.5h-29v36h1221z" />
    <glyph glyph-name="noTheta" unicode="&#xf101;" horiz-adv-x="1621" 
d="M1541 671q0 -298 -199.5 -500t-531.5 -202q-200 0 -360 78.5t-265 242.5t-105 389q0 211 99 375.5t268.5 248.5t360.5 84q220 0 402.5 -107t256.5 -273.5t74 -335.5zM1189 664q0 310 -104 480t-274 170q-164 0 -272 -160.5t-108 -472.5q0 -281 99.5 -460.5t276.5 -179.5
q173 0 277.5 167.5t104.5 455.5zM634 427h-36v508h36q0 -74 37 -105t139 -31q101 0 138.5 29t37.5 107h37v-508h-37q0 133 -145 133q-102 0 -134.5 -10t-52.5 -41t-20 -82z" />
    <glyph glyph-name="noPhi" unicode="&#xf102;" horiz-adv-x="1647" 
d="M523 0v36q75 -1 108 32t34 115q-310 14 -447.5 159.5t-137.5 336.5q0 205 146.5 344t438.5 148q2 15 2 23q0 60 -33.5 92t-110.5 34v36h601v-36q-77 -2 -110 -33.5t-33 -92.5q0 -8 1 -23q292 -9 438.5 -148t146.5 -344q0 -147 -78 -263.5t-193 -167.5t-314 -65
q1 -83 34.5 -115.5t107.5 -31.5v-36h-601zM665 1097q-124 4 -197 -93.5t-73 -334.5q0 -235 79.5 -323t190.5 -88v839zM982 259q12 -1 17 -1q88 0 171 82t83 342q0 415 -271 415v-838z" />
    <glyph glyph-name="noalpha" unicode="&#xf103;" horiz-adv-x="1138" 
d="M767 935h274l-94 -439l-7 -27l-10 -42q-25 -112 -50 -178q9 -53 37.5 -88.5t58.5 -35.5q82 0 87 150h37q-2 -181 -39.5 -242t-89.5 -61q-93 0 -130 202q-112 -202 -345 -202q-182 0 -298 129.5t-116 335.5q0 212 111.5 369t277.5 157q161 0 252 -223zM696 615
q-60 173 -105.5 220t-96.5 47q-63 0 -90 -85t-27 -387q0 -228 25.5 -297.5t76.5 -69.5q41 0 78 46.5t81 252.5z" />
    <glyph glyph-name="nodelta" unicode="&#xf104;" horiz-adv-x="1037" 
d="M489 837q-26 31 -66 68q-100 92 -146 155t-46 140q0 92 75 139.5t194 47.5q145 0 241 -44.5t96 -123.5q0 -43 -29.5 -66.5t-68.5 -23.5q-68 0 -147 93q-77 90 -161 90q-58 0 -95.5 -31t-37.5 -72q0 -91 214 -216q171 -99 249.5 -162.5t136.5 -175.5t58 -227
q0 -187 -132.5 -321.5t-319.5 -134.5q-172 0 -297 121t-125 317q0 116 51 198t126.5 135t229.5 94zM532 783q-93 -36 -130.5 -115t-37.5 -270q0 -229 39.5 -292.5t104.5 -63.5q162 0 162 329q0 246 -138 412z" />
    <glyph glyph-name="noepsilon" unicode="&#xf105;" horiz-adv-x="928" 
d="M414 489q-146 21 -216.5 93t-70.5 148q0 93 93.5 163t293.5 70q166 0 240.5 -48.5t74.5 -116.5q0 -44 -30.5 -71t-79.5 -27q-48 0 -78 24t-30 51q0 17 9 48q4 13 4 24q0 46 -101 46q-143 0 -143 -185q0 -106 28 -141.5t105 -35.5q23 0 43 2q50 5 67 5q20 0 36 -12t16 -29
q0 -37 -52 -37q-23 0 -49 2q-36 3 -59 3q-140 0 -140 -213q0 -211 147 -211q46 0 79.5 21.5t33.5 47.5q0 13 -6 41q-3 16 -3 31q0 41 28.5 67t77.5 26q53 0 83.5 -31.5t30.5 -77.5q0 -74 -88 -134t-247 -60q-182 0 -305.5 75t-123.5 191q0 60 44.5 117.5t112 85.5t175.5 48z
" />
    <glyph glyph-name="nosigma" unicode="&#xf106;" horiz-adv-x="1145" 
d="M1102 935v-208h-393q264 -145 264 -375q0 -162 -126.5 -271t-303.5 -109q-196 0 -328.5 153t-132.5 351q0 210 154.5 334.5t443.5 124.5h422zM614 727q-254 -7 -254 -266q0 -160 55.5 -289.5t136.5 -129.5q66 0 105 83t39 230q0 205 -82 372z" />
    <glyph glyph-name="notau" unicode="&#xf107;" horiz-adv-x="897" 
d="M826 935v-209h-284q-31 -332 -31 -422q0 -72 29 -114.5t75 -42.5q103 0 124 168h34q-6 -189 -71 -266t-152 -77q-84 0 -143 73.5t-59 259.5q0 124 31 421q-39 2 -55 2q-93 0 -136.5 -27t-77.5 -95h-39q65 179 119 240.5t95 75t176 13.5h365z" />
    <glyph glyph-name="nophi" unicode="&#xf108;" horiz-adv-x="1253" 
d="M704 -428h-160v402q-98 0 -210 59t-182 181t-70 265q0 209 130 347.5t308 136.5v-36q-92 -30 -131.5 -135t-39.5 -318q0 -224 59.5 -330t135.5 -107v628q0 163 67.5 230.5t168.5 67.5q136 0 263.5 -128.5t127.5 -339.5q0 -206 -127.5 -359.5t-339.5 -161.5v-402zM704 37
q70 3 133.5 102t63.5 336q0 184 -41.5 279t-102.5 95q-31 0 -42 -45.5t-11 -213.5v-553z" />
    <glyph glyph-name="underscoredbl" unicode="&#x2017;" 
d="M-12 -125h1048v-103h-1048v103zM-12 -328h1048v-103h-1048v103z" />
    <glyph glyph-name="minute" unicode="&#x2032;" horiz-adv-x="465" 
d="M162 749h-48l-31 383q-2 23 -2 46q0 126 58 181.5t128 55.5q55 0 88 -34t33 -89q0 -43 -53 -160z" />
    <glyph glyph-name="second" unicode="&#x2033;" horiz-adv-x="823" 
d="M137 749h-49l-30 384q-2 25 -2 50q0 126 59.5 179t126.5 53q54 0 87 -33.5t33 -88.5q0 -42 -53 -161zM546 749h-49l-28 383q-2 34 -2 67q0 113 59.5 164.5t126.5 51.5q60 0 89.5 -37t29.5 -86q0 -35 -56 -160z" />
    <glyph glyph-name="exclamdbl" unicode="&#x203c;" horiz-adv-x="1194" 
d="M340 1389h106q-2 -151 -42 -409q-36 -233 -78 -549q-38 -20 -76 -43l-13 9q-19 190 -69 533q-35 245 -35 368q115 55 207 91zM965 1389h106q-2 -151 -42 -409q-36 -233 -77 -549q-39 -20 -77 -43l-13 9q-19 190 -68 533q-35 245 -35 368q114 55 206 91zM283 293
q64 0 111.5 -45t47.5 -115q0 -67 -47.5 -113.5t-111.5 -46.5q-66 0 -113 47t-47 113q0 68 47.5 114t112.5 46zM908 293q64 0 112 -45t48 -115q0 -67 -47.5 -113.5t-112.5 -46.5q-66 0 -113 47t-47 113t47 113t113 47z" />
    <glyph glyph-name="nsuperior" unicode="&#x207f;" horiz-adv-x="874" 
d="M66 821v69q82 4 85 10q0 5 2 11q5 15 5 168q0 194 -3 203q-1 5 -1 6v4q0 6 -88 8v64q134 9 233 44q19 7 26 7q21 0 21 -23l-3 -66l78 61q36 28 111 28q73 0 121.5 -25.5t66.5 -67.5t18 -119q0 -36 -2 -80q-3 -98 -3 -163q0 -53 8 -59t82 -11v-69q-12 0 -48 1q-81 3 -93 3
l-136 -4l-14 16q17 112 17 238q0 143 -20.5 178.5t-78.5 35.5q-51 0 -78.5 -27.5t-27.5 -53.5v-79l2 -133l-1 -51q0 -20 2 -30q2 -8 3 -10q1 -10 91 -15v-69q-2 0 -33 1q-84 3 -171 3q-42 0 -171 -4z" />
    <glyph glyph-name="peseta" unicode="&#x20a7;" horiz-adv-x="2521" 
d="M1804 882q108 84 300 84q158 0 276 -48q-20 -112 -20 -252h-78q-6 97 -13.5 120t-58.5 52.5t-125 29.5q-86 0 -132.5 -37t-46.5 -94q0 -52 37.5 -83.5t205.5 -61.5q109 -20 165 -44t92.5 -81t36.5 -144q0 -165 -128.5 -257.5t-318.5 -92.5q-129 0 -305 59q10 45 13 88
q-42 -40 -117 -135q-70 -12 -124 -12q-249 0 -249 234q0 56 6 259q4 172 4 233q0 238 -4 369q-11 -187 -144 -301t-321 -114q-56 0 -117 15q-17 37 -36 70l23 25q41 -11 73 -11q95 0 162.5 66t67.5 198q0 276 -260 276q-56 0 -122 -14q-11 -299 -11 -535q0 -620 24.5 -640
t182.5 -26v-84q-164 7 -296 7q-65 0 -368 -7v84q126 9 143.5 25t23 170t5.5 403q0 331 -6.5 462.5t-20 148t-87.5 21.5q-19 1 -58 5v84q223 -7 280 -7q86 0 219 4q154 6 210 6q210 0 300.5 -53t119.5 -154q143 42 266 104l29 -23q-21 -135 -29 -389q117 -8 226 -8
q61 0 105 6zM1714 754q-33 1 -60 1q-66 0 -181 -6q-2 -91 -2 -178q0 -314 15.5 -371t97.5 -57q60 0 120 26l4 150h85q4 -123 14 -151.5t71.5 -62t151.5 -33.5q94 0 144 40t50 104q0 66 -40 96.5t-145 53.5q-154 33 -211 58t-94 83t-37 144q0 51 17 103z" />
    <glyph glyph-name="afii61248" unicode="&#x2105;" horiz-adv-x="1607" 
d="M324 -67q39 62 117 217l562 1122q63 128 78 186q61 -7 92 -7q13 0 41 1q-44 -69 -117 -214l-561 -1127q-67 -134 -79 -180l-73 4q-24 0 -60 -2zM564 1182h-77q-4 72 -8.5 86t-31 28.5t-70.5 14.5q-72 0 -95 -43t-23 -120q0 -109 51.5 -178t145.5 -69q68 0 116 25l18 -23
q-15 -32 -27 -63q-87 -44 -186 -44q-141 0 -224 74t-83 215q0 79 26.5 139t88.5 94.5t110.5 65.5t125.5 31q74 0 149 -22l6 -2l14 -15q-24 -107 -26 -194zM890 298q0 142 82 223t247 81q154 0 236.5 -66t82.5 -227q0 -162 -91 -243.5t-243 -81.5q-314 0 -314 314zM1091 331
q0 -274 133 -274q113 0 113 202q0 123 -25.5 197t-102.5 74q-118 0 -118 -199z" />
    <glyph glyph-name="afii61289" unicode="&#x2113;" horiz-adv-x="823" 
d="M41 341l140 150l1 503q0 240 91.5 340.5t211.5 100.5q97 0 166 -60t69 -166q0 -85 -41 -187.5t-217 -310.5v-377q0 -121 26 -170.5t83 -49.5q112 0 153 189h51q-67 -325 -318 -325q-109 0 -192.5 78.5t-83.5 248.5v108l-103 -107zM462 785q196 229 196 408q0 138 -83 138
q-60 0 -86.5 -69.5t-26.5 -231.5v-245z" />
    <glyph glyph-name="arrowleft" unicode="&#x2190;" horiz-adv-x="2048" 
d="M492 876h76q-81 -170 -195 -309h1595v-101h-1595q102 -102 198 -309h-78q-223 253 -414 341v45q177 71 413 333z" />
    <glyph glyph-name="arrowup" unicode="&#x2191;" 
d="M153 1050q262 236 333 413h46q87 -192 340 -415v-77q-207 96 -309 197v-1597h-101v1597q-139 -114 -309 -195v77z" />
    <glyph glyph-name="arrowright" unicode="&#x2192;" horiz-adv-x="2048" 
d="M1555 876q237 -262 413 -333v-45q-191 -88 -414 -341h-77q95 207 197 309h-1595v101h1595q-114 139 -195 309h76z" />
    <glyph glyph-name="arrowdown" unicode="&#x2193;" 
d="M153 -16v76q170 -81 309 -195v1598h101v-1598q102 102 309 197v-77q-253 -223 -340 -414h-46q-71 176 -333 413z" />
    <glyph glyph-name="arrowboth" unicode="&#x2194;" horiz-adv-x="2048" 
d="M1968 540v-45q-181 -79 -406 -337h-80q69 172 194 311h-1305q125 -139 194 -311h-80q-224 258 -406 337v45q182 79 406 338h80q-69 -172 -194 -311h1305q-125 139 -194 311h80q225 -259 406 -338z" />
    <glyph glyph-name="arrowupdn" unicode="&#x2195;" 
d="M489 1463h45q79 -182 337 -407v-80q-171 69 -311 195v-1306q140 126 311 194v-79q-258 -225 -337 -407h-45q-79 182 -337 407v79q171 -68 311 -194v1306q-140 -126 -311 -195v80q258 225 337 407z" />
    <glyph glyph-name="arrowupdnbse" unicode="&#x21a8;" 
d="M489 1463h45q79 -182 337 -407v-80q-171 69 -311 195v-1306q140 126 311 194v-79q-258 -225 -337 -407h-45q-79 182 -337 407v79q171 -68 311 -194v1306q-140 -126 -311 -195v80q258 225 337 407zM154 -522h717v-98h-717v98z" />
    <glyph glyph-name="orthogonal" unicode="&#x221f;" horiz-adv-x="2005" 
d="M362 1279h100v-1179h1181v-100h-1281v1279z" />
    <glyph glyph-name="intersection" unicode="&#x2229;" horiz-adv-x="1206" 
d="M239 0h-110v621l2 238q1 116 18.5 209t58.5 169t106 135.5t139.5 89.5t149.5 30q118 0 225 -68.5t165 -174t71.5 -224t13.5 -404.5v-621h-110v628q0 243 -10 348.5t-52 190t-127.5 139.5t-175.5 55t-174.5 -55t-126 -137t-52.5 -189.5t-11 -351.5v-628z" />
    <glyph glyph-name="equivalence" unicode="&#x2261;" horiz-adv-x="1241" 
d="M111 1017v187h1019v-187h-1019zM111 601v187h1019v-187h-1019zM111 184v187h1019v-187h-1019z" />
    <glyph glyph-name="H22073" unicode="&#x25a1;" horiz-adv-x="1237" 
d="M146 944h944v-944h-944v944zM222 868v-792h792v792h-792z" />
    <glyph glyph-name="H18543" unicode="&#x25aa;" horiz-adv-x="726" 
d="M594 909v-464h-463v463z" />
    <glyph glyph-name="H18551" unicode="&#x25ab;" horiz-adv-x="726" 
d="M594 909v-464h-463v463zM518 833l-311 -1v-311h311v312z" />
    <glyph glyph-name="H18533" unicode="&#x25cf;" horiz-adv-x="1237" 
d="M619 1018q181 0 310.5 -129t129.5 -311t-129 -311.5t-311 -129.5t-311.5 129.5t-129.5 311.5q0 189 131.5 314.5t309.5 125.5z" />
    <glyph glyph-name="openbullet" unicode="&#x25e6;" horiz-adv-x="726" 
d="M363 928q101 0 176 -72t75 -179q0 -104 -73.5 -177.5t-177.5 -73.5t-177.5 73.5t-73.5 177.5t74 177.5t177 73.5zM363 852q-71 0 -123 -50t-52 -125q0 -73 51.5 -124t123.5 -51t123.5 51t51.5 124q0 74 -52 124.5t-123 50.5z" />
    <glyph glyph-name="commaaccent" unicode="&#xf004;" horiz-adv-x="682" 
d="M123 -691l-30 31q136 239 153 476q147 20 246 63l33 -30q-119 -266 -270 -479q-44 -23 -132 -61z" />
    <glyph glyph-name="Amacron" unicode="&#x100;" horiz-adv-x="1593" 
d="M63 84q94 5 116 19q15 10 47 76q61 130 156 361l354 867h147l452 -1074q88 -209 108.5 -229t126.5 -27v-84q-163 7 -308 7q-173 0 -329 -7v84q119 5 137.5 13.5t18.5 30.5q0 19 -42 130l-66 171q-124 2 -277 2q-133 0 -242 -2l-44 -115q-18 -47 -44 -140q-6 -21 -6 -38
q0 -23 19.5 -32.5t140.5 -19.5v-84q-98 7 -244 7q-139 0 -221 -7v91zM719 1053l-211 -513q92 -5 203 -5q116 0 222 5zM1147 1607h-661v123h661v-123z" />
    <glyph glyph-name="amacron" unicode="&#x101;" 
d="M979 77v-83l-77 3q-61 3 -122 3q-94 0 -178 -6l-10 11l10 138l-209 -157q-56 -13 -99 -13q-106 0 -164 63t-58 184q0 149 79 210q102 80 451 143q-2 118 -41 171q-55 73 -170 73q-27 0 -55.5 -6.5t-57.5 -20.5l-45 -107l-69 17l2 45l-1 44l-1 40q153 95 220 119
q49 18 136 18q118 0 192 -35.5t108 -96.5t34 -178q0 -49 -4 -175q-4 -130 -4 -209q0 -125 7 -152q4 -16 19.5 -25t106.5 -18zM602 487q-176 -38 -229 -82.5t-53 -119.5q0 -61 34 -96t86 -35q79 0 162 89v244zM856 1165h-661v123h661v-123z" />
    <glyph glyph-name="Ccircumflex" unicode="&#x108;" horiz-adv-x="1479" 
d="M1391 210l25 -23q-26 -50 -46 -102q-116 -61 -223.5 -86.5t-247.5 -25.5q-262 0 -443 92t-278.5 259t-97.5 383q0 311 220.5 509.5t608.5 198.5q129 0 255.5 -23t251.5 -70l7 -15q-18 -54 -25 -104q-13 -87 -20 -216h-84q-6 158 -12 173.5t-55 53t-132.5 61t-184.5 23.5
q-240 0 -381.5 -148t-141.5 -412q0 -286 170 -463q157 -164 431 -164q106 0 198.5 22t204.5 77zM503 1490l276 342h117l254 -342h-83l-232 199l-245 -199h-87z" />
    <glyph glyph-name="ccircumflex" unicode="&#x109;" horiz-adv-x="909" 
d="M787 606h-83q-7 119 -17 137q-13 28 -58.5 51t-114.5 23q-106 0 -154.5 -60.5t-48.5 -217.5q0 -199 91 -307.5t234 -108.5q52 0 95.5 9t79.5 26l17 -22q-22 -48 -41 -97q-66 -33 -134.5 -49.5t-138.5 -16.5q-218 0 -339.5 120.5t-121.5 342.5q0 82 16 148.5t43.5 113
t60.5 75.5q20 16 172 111q89 56 129.5 69t108.5 13q60 0 117 -9t111 -27l17 -18q-36 -167 -41 -306zM177 1049l276 342h117l254 -342h-83l-232 199l-245 -199h-87z" />
    <glyph glyph-name="Cdot" unicode="&#x10a;" horiz-adv-x="1479" 
d="M1391 210l25 -23q-26 -50 -46 -102q-116 -61 -223.5 -86.5t-247.5 -25.5q-262 0 -443 92t-278.5 259t-97.5 383q0 311 220.5 509.5t608.5 198.5q129 0 255.5 -23t251.5 -70l7 -15q-18 -54 -25 -104q-13 -87 -20 -216h-84q-6 158 -12 173.5t-55 53t-132.5 61t-184.5 23.5
q-240 0 -381.5 -148t-141.5 -412q0 -286 170 -463q157 -164 431 -164q106 0 198.5 22t204.5 77zM839 1795q50 0 85.5 -36t35.5 -86t-35.5 -86t-85.5 -36t-85.5 36t-35.5 86t35.5 86t85.5 36z" />
    <glyph glyph-name="cdot" unicode="&#x10b;" horiz-adv-x="909" 
d="M809 606h-83q-7 119 -17 137q-13 28 -58.5 51t-114.5 23q-106 0 -154.5 -60.5t-48.5 -217.5q0 -199 91 -307.5t234 -108.5q52 0 95.5 9t79.5 26l17 -22q-22 -48 -41 -97q-66 -33 -134.5 -49.5t-138.5 -16.5q-218 0 -339.5 120.5t-121.5 342.5q0 82 16 148.5t43.5 113
t60.5 75.5q20 16 172 111q89 56 129.5 69t108.5 13q60 0 117 -9t111 -27l17 -18q-36 -167 -41 -306zM525 1354q50 0 85.5 -36t35.5 -86t-35.5 -86t-85.5 -36t-85.5 36t-35.5 86t35.5 86t85.5 36z" />
    <glyph glyph-name="Emacron" unicode="&#x112;" horiz-adv-x="1251" 
d="M138 -7v54q53 24 97 56q20 156 20 656q0 341 -7 452q-3 59 -20.5 74.5t-148.5 26.5v84q236 -9 373 -9l551 6q87 0 157 -7l7 -11q-22 -109 -32 -290h-79q-5 146 -11.5 156t-45.5 19q-83 18 -254 18q-84 0 -196 -7q-13 -309 -15 -492q107 -7 201 -7q139 0 167 9q17 6 24 29
q6 18 14 126h86q-5 -169 -5 -220l5 -225h-86q-7 131 -18 151q-6 12 -27 17q-50 11 -225 11q-55 0 -129 -6q-2 -53 -2 -108q0 -286 10 -440l198 -3q169 0 309 18q25 92 48 209h83q-23 -176 -27 -338q-91 -10 -175 -10q-55 0 -217 4q-151 4 -278 4q-167 0 -352 -7zM964 1607
h-661v123h661v-123z" />
    <glyph glyph-name="emacron" unicode="&#x113;" 
d="M893 188l29 -29l-45 -96q-72 -45 -154.5 -67.5t-175.5 -22.5q-218 0 -343.5 126.5t-125.5 355.5q0 145 37 240q30 77 98.5 128t158 97t196.5 46q164 0 271 -91.5t107 -294.5q0 -25 -3 -76l-164 -30q-76 -5 -220 -5h-217q15 -172 103 -259t224 -87q57 0 113 16.5t111 48.5
zM335 575q90 -8 180 -8q79 0 166 8l1 47q0 123 -45 179.5t-122 56.5q-54 0 -93 -26.5t-58 -74.5t-29 -182zM842 1165h-661v123h661v-123z" />
    <glyph glyph-name="Ebreve" unicode="&#x114;" horiz-adv-x="1251" 
d="M138 -7v54q53 24 97 56q20 156 20 656q0 341 -7 452q-3 59 -20.5 74.5t-148.5 26.5v84q236 -9 373 -9l551 6q87 0 157 -7l7 -11q-22 -109 -32 -290h-79q-5 146 -11.5 156t-45.5 19q-83 18 -254 18q-84 0 -196 -7q-13 -309 -15 -492q107 -7 201 -7q139 0 167 9q17 6 24 29
q6 18 14 126h86q-5 -169 -5 -220l5 -225h-86q-7 131 -18 151q-6 12 -27 17q-50 11 -225 11q-55 0 -129 -6q-2 -53 -2 -108q0 -286 10 -440l198 -3q169 0 309 18q25 92 48 209h83q-23 -176 -27 -338q-91 -10 -175 -10q-55 0 -217 4q-151 4 -278 4q-167 0 -352 -7zM324 1826
h63q18 -87 62 -129q67 -63 184 -63q115 0 180 60q47 44 66 132h63q-10 -119 -48 -186t-106 -105t-155 -38q-142 0 -228 96q-68 77 -81 233z" />
    <glyph glyph-name="ebreve" unicode="&#x115;" 
d="M893 188l29 -29l-45 -96q-72 -45 -154.5 -67.5t-175.5 -22.5q-218 0 -343.5 126.5t-125.5 355.5q0 145 37 240q30 77 98.5 128t158 97t196.5 46q164 0 271 -91.5t107 -294.5q0 -25 -3 -76l-164 -30q-76 -5 -220 -5h-217q15 -172 103 -259t224 -87q57 0 113 16.5t111 48.5
zM335 575q90 -8 180 -8q79 0 166 8l1 47q0 123 -45 179.5t-122 56.5q-54 0 -93 -26.5t-58 -74.5t-29 -182zM216 1384h63q18 -87 62 -129q67 -63 184 -63q115 0 180 60q47 44 66 132h63q-10 -119 -48 -186t-106 -105t-155 -38q-142 0 -228 96q-68 77 -81 233z" />
    <glyph glyph-name="Edot" unicode="&#x116;" horiz-adv-x="1251" 
d="M138 -7v54q53 24 97 56q20 156 20 656q0 341 -7 452q-3 59 -20.5 74.5t-148.5 26.5v84q236 -9 373 -9l551 6q87 0 157 -7l7 -11q-22 -109 -32 -290h-79q-5 146 -11.5 156t-45.5 19q-83 18 -254 18q-84 0 -196 -7q-13 -309 -15 -492q107 -7 201 -7q139 0 167 9q17 6 24 29
q6 18 14 126h86q-5 -169 -5 -220l5 -225h-86q-7 131 -18 151q-6 12 -27 17q-50 11 -225 11q-55 0 -129 -6q-2 -53 -2 -108q0 -286 10 -440l198 -3q169 0 309 18q25 92 48 209h83q-23 -176 -27 -338q-91 -10 -175 -10q-55 0 -217 4q-151 4 -278 4q-167 0 -352 -7zM658 1795
q50 0 85.5 -36t35.5 -86t-35.5 -86t-85.5 -36t-85.5 36t-35.5 86t35.5 86t85.5 36z" />
    <glyph glyph-name="edot" unicode="&#x117;" 
d="M893 188l29 -29l-45 -96q-72 -45 -154.5 -67.5t-175.5 -22.5q-218 0 -343.5 126.5t-125.5 355.5q0 145 37 240q30 77 98.5 128t158 97t196.5 46q164 0 271 -91.5t107 -294.5q0 -25 -3 -76l-164 -30q-76 -5 -220 -5h-217q15 -172 103 -259t224 -87q57 0 113 16.5t111 48.5
zM335 575q90 -8 180 -8q79 0 166 8l1 47q0 123 -45 179.5t-122 56.5q-54 0 -93 -26.5t-58 -74.5t-29 -182zM537 1354q50 0 85.5 -36t35.5 -86t-35.5 -86t-85.5 -36t-85.5 36t-35.5 86t35.5 86t85.5 36z" />
    <glyph glyph-name="Gcircumflex" unicode="&#x11c;" horiz-adv-x="1706" 
d="M999 486v81q182 -4 325 -4q132 0 285 4v-64q-44 -14 -84 -33q-12 -101 -12 -172q0 -51 12 -202q-198 -72 -331.5 -97.5t-276.5 -25.5q-386 0 -604.5 200.5t-218.5 519.5q0 328 223 525t640 197q147 0 282 -23t257 -70l9 -15q-29 -127 -43 -316h-84q-1 95 -13 168
q-64 74 -164.5 111t-237.5 37q-257 0 -409.5 -156t-152.5 -427q0 -289 160.5 -465.5t395.5 -176.5q125 0 266 61q8 77 8 146q0 154 -18 170t-214 27zM529 1490l276 342h117l254 -342h-83l-232 199l-245 -199h-87z" />
    <glyph glyph-name="gcircumflex" unicode="&#x11d;" horiz-adv-x="1139" 
d="M1092 764h-166q14 -49 14 -91q0 -184 -131.5 -274t-307.5 -90q-28 0 -82 4q-46 -27 -58.5 -43t-12.5 -36q0 -48 67 -58q37 -6 406 -6q124 0 171.5 -21.5t78.5 -76.5t31 -142q0 -201 -159 -337t-430 -136q-230 0 -343 80.5t-113 205.5q0 72 35 120q16 22 110 76l72 41
q-81 16 -108 42.5t-27 75.5q0 53 39 130l33 21q57 37 108 80q-115 41 -166 111t-51 176q0 153 118 251.5t331 98.5q105 0 185 -21q59 -16 118 -57q220 -1 287 7l17 -21q-27 -38 -66 -110zM360 680q0 -150 44.5 -211t127.5 -61q76 0 118 53.5t42 167.5q0 125 -43.5 182
t-122.5 57q-76 0 -121 -49.5t-45 -138.5zM384 -32q-84 -62 -109.5 -103t-25.5 -94q0 -96 75 -155.5t221 -59.5q105 0 179 33t111 91t37 129q0 65 -30 110q-22 31 -60.5 40t-222.5 9h-175zM259 1049l276 342h117l254 -342h-83l-232 199l-245 -199h-87z" />
    <glyph glyph-name="Gdot" unicode="&#x120;" horiz-adv-x="1706" 
d="M999 486v81q182 -4 325 -4q132 0 285 4v-64q-44 -14 -84 -33q-12 -101 -12 -172q0 -51 12 -202q-198 -72 -331.5 -97.5t-276.5 -25.5q-386 0 -604.5 200.5t-218.5 519.5q0 328 223 525t640 197q147 0 282 -23t257 -70l9 -15q-29 -127 -43 -316h-84q-1 95 -13 168
q-64 74 -164.5 111t-237.5 37q-257 0 -409.5 -156t-152.5 -427q0 -289 160.5 -465.5t395.5 -176.5q125 0 266 61q8 77 8 146q0 154 -18 170t-214 27zM902 1795q50 0 85.5 -36t35.5 -86t-35.5 -86t-85.5 -36t-85.5 36t-35.5 86t35.5 86t85.5 36z" />
    <glyph glyph-name="gdot" unicode="&#x121;" horiz-adv-x="1139" 
d="M1092 764h-166q14 -49 14 -91q0 -184 -131.5 -274t-307.5 -90q-28 0 -82 4q-46 -27 -58.5 -43t-12.5 -36q0 -48 67 -58q37 -6 406 -6q124 0 171.5 -21.5t78.5 -76.5t31 -142q0 -201 -159 -337t-430 -136q-230 0 -343 80.5t-113 205.5q0 72 35 120q16 22 110 76l72 41
q-81 16 -108 42.5t-27 75.5q0 53 39 130l33 21q57 37 108 80q-115 41 -166 111t-51 176q0 153 118 251.5t331 98.5q105 0 185 -21q59 -16 118 -57q220 -1 287 7l17 -21q-27 -38 -66 -110zM360 680q0 -150 44.5 -211t127.5 -61q76 0 118 53.5t42 167.5q0 125 -43.5 182
t-122.5 57q-76 0 -121 -49.5t-45 -138.5zM384 -32q-84 -62 -109.5 -103t-25.5 -94q0 -96 75 -155.5t221 -59.5q105 0 179 33t111 91t37 129q0 65 -30 110q-22 31 -60.5 40t-222.5 9h-175zM583 1354q50 0 85.5 -36t35.5 -86t-35.5 -86t-85.5 -36t-85.5 36t-35.5 86t35.5 86
t85.5 36z" />
    <glyph glyph-name="Gcedilla" unicode="&#x122;" horiz-adv-x="1706" 
d="M999 486v81q182 -4 325 -4q132 0 285 4v-64q-44 -14 -84 -33q-12 -101 -12 -172q0 -51 12 -202q-198 -72 -331.5 -97.5t-276.5 -25.5q-386 0 -604.5 200.5t-218.5 519.5q0 328 223 525t640 197q147 0 282 -23t257 -70l9 -15q-29 -127 -43 -316h-84q-1 95 -13 168
q-64 74 -164.5 111t-237.5 37q-257 0 -409.5 -156t-152.5 -427q0 -289 160.5 -465.5t395.5 -176.5q125 0 266 61q8 77 8 146q0 154 -18 170t-214 27zM914 0l-53 -125q39 6 65 6q83 0 129.5 -42.5t46.5 -107.5q0 -81 -72 -140.5t-198 -59.5q-110 0 -228 50l37 71
q116 -43 185 -43q61 0 94 29.5t33 75.5q0 42 -29 69t-82 27q-29 0 -65 -13l-20 15l85 188h72z" />
    <glyph glyph-name="gcedilla" unicode="&#x123;" horiz-adv-x="1139" 
d="M1092 764h-166q14 -49 14 -91q0 -184 -131.5 -274t-307.5 -90q-28 0 -82 4q-46 -27 -58.5 -43t-12.5 -36q0 -48 67 -58q37 -6 406 -6q124 0 171.5 -21.5t78.5 -76.5t31 -142q0 -201 -159 -337t-430 -136q-230 0 -343 80.5t-113 205.5q0 72 35 120q16 22 110 76l72 41
q-81 16 -108 42.5t-27 75.5q0 53 39 130l33 21q57 37 108 80q-115 41 -166 111t-51 176q0 153 118 251.5t331 98.5q105 0 185 -21q59 -16 118 -57q220 -1 287 7l17 -21q-27 -38 -66 -110zM360 680q0 -150 44.5 -211t127.5 -61q76 0 118 53.5t42 167.5q0 125 -43.5 182
t-122.5 57q-76 0 -121 -49.5t-45 -138.5zM384 -32q-84 -62 -109.5 -103t-25.5 -94q0 -96 75 -155.5t221 -59.5q105 0 179 33t111 91t37 129q0 65 -30 110q-22 31 -60.5 40t-222.5 9h-175zM754 1500l24 -19q-110 -177 -125 -355q-121 -16 -200 -47l-27 22q97 197 220 355
q40 19 108 44z" />
    <glyph glyph-name="Hcircumflex" unicode="&#x124;" horiz-adv-x="1706" 
d="M70 -7v84q131 6 148.5 17.5t23.5 47.5q10 55 10 277l-1 547q-1 277 -10 302q-5 15 -17 23q-20 13 -154 21v84q200 -7 317 -7q185 0 338 7v-84q-123 -8 -145 -18q-13 -6 -19 -18q-10 -19 -14 -116q-6 -144 -6 -292v-83q104 -5 330 -5q201 0 296 5q1 325 -7 432
q-4 57 -21 70q-23 19 -156 25v84q249 -7 337 -7q151 0 319 7v-84q-128 -8 -149 -19q-12 -6 -18 -18q-9 -21 -13 -163q-7 -218 -7 -353l6 -454q2 -154 9 -177t23 -32.5t149 -18.5v-84l-111 3q-125 4 -196 4q-148 0 -349 -7v84q134 6 152.5 21.5t22.5 81.5q7 113 9 482
q-112 4 -249 4q-215 0 -377 -4v-66q0 -262 7 -393q5 -88 24 -102.5t153 -23.5v-84l-118 3q-112 4 -200 4zM531 1490l276 342h117l254 -342h-83l-232 199l-245 -199h-87z" />
    <glyph glyph-name="hcircumflex" unicode="&#x125;" horiz-adv-x="1251" 
d="M47 -6v83q108 6 124 15q10 6 15 18q10 25 11 183l2 368q0 293 -6 534q-2 91 -18 106.5t-128 18.5v72q61 0 176 23t188 53q30 13 35 13q15 0 15 -19v-7q-3 -24 -3 -74l-7 -321q-2 -117 -1 -270l132 112q42 35 63 43q53 21 124 21q157 0 232 -78q74 -78 74 -247l-5 -396
q0 -106 8 -131q5 -15 23.5 -24t112.5 -13v-83q-123 6 -219 6q-90 0 -185 -6l-13 17q20 194 20 381q0 256 -30 317q-40 77 -144 77q-62 0 -110 -29t-66.5 -68.5t-18.5 -148.5l4 -307q1 -104 10 -124q5 -10 16 -15q22 -11 130 -17v-83q-115 6 -241 6q-182 0 -320 -6zM335 1545
l276 342h117l254 -342h-83l-232 199l-245 -199h-87z" />
    <glyph glyph-name="Hbar" unicode="&#x126;" horiz-adv-x="1706" 
d="M251 1008h-169v109h168q-2 122 -7 145.5t-26.5 33t-146.5 16.5v84q190 -7 317 -7q187 0 338 7v-84q-141 -7 -159 -27t-21 -168h619q-2 136 -17 163t-164 32v84q1 0 58 -2q189 -5 279 -5q151 0 319 7v-84q-121 -6 -142.5 -15t-28 -30t-9.5 -150h180v-109h-183
q-4 -141 -4 -185q0 -22 2 -239l4 -324q1 -108 7.5 -129t15 -29t27.5 -12.5t131 -12.5v-84q-25 0 -111 3q-125 4 -196 4q-148 0 -349 -7v84q132 6 152 21t26 142t6 422q-95 4 -249 4q-234 0 -377 -4v-66q0 -261 6 -371t25 -124.5t153 -23.5v-84q-3 0 -59 2q-168 5 -259 5
q-42 0 -337 -7v84q139 4 160.5 25.5t21.5 314.5zM542 1008q-1 -77 -1 -140v-83q70 -5 330 -5q222 0 296 5v137q0 55 -1 86h-624z" />
    <glyph glyph-name="hbar" unicode="&#x127;" horiz-adv-x="1251" 
d="M195 1107h-148v97h146q-2 70 -13 92.5t-133 23.5v72q49 0 174.5 23t206.5 61q11 5 19 5q14 0 14 -18q0 -1 -3 -82l-4 -177h298v-97h-300q-2 -111 -2 -195v-122l132 112q42 35 79 49.5t107 14.5q158 0 232.5 -78t74.5 -247l-5 -396q0 -115 12 -140.5t132 -27.5v-84
q-114 7 -219 7q-100 0 -185 -7l-13 18q20 194 20 381q0 255 -34.5 324.5t-139.5 69.5q-71 0 -120.5 -35.5t-62 -75t-12.5 -135.5q0 -409 14.5 -434.5t145.5 -28.5v-84q-95 7 -241 7q-194 0 -320 -7v84q113 6 129 19t20 95.5t4 553.5q0 129 -5 362z" />
    <glyph glyph-name="Itilde" unicode="&#x128;" horiz-adv-x="797" 
d="M72 -7v84q138 7 156 23t22 79q7 132 7 492q0 138 -4 400q-2 179 -8 196.5t-21 25.5q-22 11 -152 19v84q206 -8 315 -8q188 0 340 8v-84q-136 -8 -153.5 -21.5t-22.5 -62.5q-9 -96 -9 -389q0 -390 3 -543.5t18 -182.5q6 -13 25.5 -20.5t138.5 -15.5v-84l-118 3
q-112 4 -200 4zM91 1541h-73q66 233 240 233q39 0 81 -9.5t143 -47.5q79 -29 115 -29q43 0 68 18t51 76h66q-60 -231 -232 -231q-68 0 -184 46q-98 40 -147 40q-46 0 -75.5 -20.5t-52.5 -75.5z" />
    <glyph glyph-name="itilde" unicode="&#x129;" horiz-adv-x="682" 
d="M63 -6v83q113 4 130.5 14t22.5 56q8 63 8 278q0 93 -3 172l-3 117q0 58 -12.5 71.5t-67.5 15.5l-75 3v77q241 18 397 85l25 -20q-14 -191 -14 -556q0 -211 7 -255q5 -31 18.5 -40t131.5 -18v-83q-181 6 -280 6q-53 0 -285 -6zM12 1100h-73q66 233 240 233q39 0 81 -9.5
t143 -47.5q79 -29 115 -29q43 0 68 18t51 76h66q-60 -231 -232 -231q-68 0 -184 46q-98 40 -147 40q-46 0 -75.5 -20.5t-52.5 -75.5z" />
    <glyph glyph-name="Imacron" unicode="&#x12a;" horiz-adv-x="797" 
d="M72 -7v84q138 7 156 23t22 79q7 132 7 492q0 138 -4 400q-2 179 -8 196.5t-21 25.5q-22 11 -152 19v84q206 -8 315 -8q188 0 340 8v-84q-136 -8 -153.5 -21.5t-22.5 -62.5q-9 -96 -9 -389q0 -390 3 -543.5t18 -182.5q6 -13 25.5 -20.5t138.5 -15.5v-84l-118 3
q-112 4 -200 4zM730 1607h-661v123h661v-123z" />
    <glyph glyph-name="imacron" unicode="&#x12b;" horiz-adv-x="682" 
d="M63 -6v83q113 4 130.5 14t22.5 56q8 63 8 278q0 93 -3 172l-3 117q0 58 -12.5 71.5t-67.5 15.5l-75 3v77q241 18 397 85l25 -20q-14 -191 -14 -556q0 -211 7 -255q5 -31 18.5 -40t131.5 -18v-83q-181 6 -280 6q-53 0 -285 -6zM651 1165h-661v123h661v-123z" />
    <glyph glyph-name="Ibreve" unicode="&#x12c;" horiz-adv-x="797" 
d="M72 -7v84q138 7 156 23t22 79q7 132 7 492q0 138 -4 400q-2 179 -8 196.5t-21 25.5q-22 11 -152 19v84q206 -8 315 -8q188 0 340 8v-84q-136 -8 -153.5 -21.5t-22.5 -62.5q-9 -96 -9 -389q0 -390 3 -543.5t18 -182.5q6 -13 25.5 -20.5t138.5 -15.5v-84l-118 3
q-112 4 -200 4zM91 1826h63q18 -87 62 -129q67 -63 184 -63q115 0 180 60q47 44 66 132h63q-10 -119 -48 -186t-106 -105t-155 -38q-142 0 -228 96q-68 77 -81 233z" />
    <glyph glyph-name="ibreve" unicode="&#x12d;" horiz-adv-x="682" 
d="M63 -6v83q113 4 130.5 14t22.5 56q8 63 8 278q0 93 -3 172l-3 117q0 58 -12.5 71.5t-67.5 15.5l-75 3v77q241 18 397 85l25 -20q-14 -191 -14 -556q0 -211 7 -255q5 -31 18.5 -40t131.5 -18v-83q-181 6 -280 6q-53 0 -285 -6zM-13 1384h63q18 -87 62 -129q67 -63 184 -63
q115 0 180 60q47 44 66 132h63q-10 -119 -48 -186t-106 -105t-155 -38q-142 0 -228 96q-68 77 -81 233z" />
    <glyph glyph-name="Iogonek" unicode="&#x12e;" horiz-adv-x="797" 
d="M72 -7v84q138 7 156 23t22 79q7 132 7 492q0 138 -4 400q-2 179 -8 196.5t-21 25.5q-22 11 -152 19v84q206 -8 315 -8q188 0 340 8v-84q-136 -8 -153.5 -21.5t-22.5 -62.5q-9 -96 -9 -389q0 -390 3 -543.5t18 -182.5q6 -13 25.5 -20.5t138.5 -15.5v-84l-118 3
q-112 4 -200 4zM581 0q-110 -47 -166 -115.5t-56 -138.5q0 -65 35.5 -105.5t90.5 -40.5q32 0 59 14t68 57l39 -38q-128 -157 -270 -157q-86 0 -141 53t-55 132q0 97 76 189t223 150h97z" />
    <glyph glyph-name="iogonek" unicode="&#x12f;" horiz-adv-x="682" 
d="M342 1444q64 0 109.5 -45.5t45.5 -110.5q0 -64 -45.5 -109.5t-110.5 -45.5q-64 0 -109.5 45.5t-45.5 109.5q0 65 45.5 110.5t110.5 45.5zM63 -6v83q113 4 130.5 14t22.5 56q8 63 8 278q0 93 -3 172l-3 117q0 58 -12.5 71.5t-67.5 15.5l-75 3v77q241 18 397 85l25 -20
q-14 -191 -14 -556q0 -211 7 -255q5 -31 18.5 -40t131.5 -18v-83q-181 6 -280 6q-53 0 -285 -6zM527 0q-110 -47 -166 -115.5t-56 -138.5q0 -65 35.5 -105.5t90.5 -40.5q32 0 59 14t68 57l39 -38q-128 -157 -270 -157q-86 0 -141 53t-55 132q0 97 76 189t223 150h97z" />
    <glyph glyph-name="Jcircumflex" unicode="&#x134;" horiz-adv-x="797" 
d="M53 1312v84q200 -8 322 -8q177 0 358 8v-84q-32 0 -115 -9q-34 -4 -45.5 -13t-15.5 -25q-9 -30 -10 -220l-2 -406l-3 -306q-2 -248 -8 -297q-16 -123 -86.5 -227t-197.5 -186q-96 -61 -186 -61q-30 0 -73 13q5 69 5 93q0 25 -5 90l24 11q63 -70 143 -70q40 0 61 22.5
t27 126.5q10 161 10 403l-2 772q0 198 -9 236q-6 24 -23.5 33.5t-168.5 19.5zM39 1490l276 342h117l254 -342h-83l-232 199l-245 -199h-87z" />
    <glyph glyph-name="jcircumflex" unicode="&#x135;" horiz-adv-x="682" 
d="M-17 1049l276 342h117l254 -342h-83l-232 199l-245 -199h-87zM43 -533l-24 73l11 10q38 -5 55 -5q43 0 84 45.5t55 178t14 518.5q0 132 -2.5 281.5t-6 179t-11 38t-19 11t-125.5 7.5v77q252 25 396 81q12 4 21 4q13 0 13 -14q0 -9 -1 -26q-14 -213 -14 -548
q0 -320 -8.5 -439t-59.5 -234t-140.5 -179t-176.5 -64q-21 0 -61 5z" />
    <glyph glyph-name="Kcedilla" unicode="&#x136;" horiz-adv-x="1593" 
d="M72 -7v84q122 9 137 16q11 5 16 13q10 14 16 60q11 79 12 292l1 377q0 180 -5.5 301t-15.5 141q-6 13 -20 20q-21 10 -141 15v84q180 -7 321 -7q169 0 320 7v-84q-126 -9 -145.5 -22t-23.5 -63q-5 -63 -6 -504h14q101 81 291 271.5t294 317.5l1 37l-1 37l9 10
q109 -7 186 -7q81 0 182 7v-84l-57 -6q-68 -7 -88 -15q-40 -18 -107 -74q-100 -83 -253 -228l-178 -168l92 -113q163 -200 389 -454q130 -146 156 -161q18 -10 95 -16v-84l-53 2l-178 5q-72 0 -186 -7q-81 104 -274 333q-144 172 -275 312q-17 18 -24 21q-6 2 -12 2
q-15 0 -21 -12q-3 -8 -3 -80l4 -303q2 -133 11 -153q6 -14 20 -20q20 -9 141 -16v-84q-148 7 -328 7q-91 0 -313 -7zM578 -430l37 70q95 -31 156 -31q63 0 94.5 30.5t31.5 73.5q0 45 -30.5 71t-78.5 26q-35 0 -85 -19l-32 43q101 48 194 48q88 0 135 -43.5t47 -107.5
q0 -83 -75.5 -142t-196.5 -59q-81 0 -197 40z" />
    <glyph glyph-name="kcedilla" unicode="&#x137;" horiz-adv-x="1251" 
d="M49 -6v83q107 4 125 14q9 6 14 18q8 22 11 200.5t3 371.5q0 156 -5 401q-4 178 -9.5 197.5t-21.5 29t-117 11.5v72q134 13 217.5 31.5t152.5 49.5q19 8 27 8q15 0 15 -27l-2 -43q-4 -74 -7 -563l-2 -280l2 -55q211 179 436 432q71 -5 127 -5q67 0 142 5v-82
q-111 -6 -134 -13.5t-68 -42.5t-251 -218l144 -163q248 -282 293 -319q29 -25 81 -30v-83q-112 6 -206 6q-73 0 -144 -6q-99 131 -198 243q-135 153 -222 236v-161q0 -140 12 -190q5 -22 20 -30.5t122 -14.5v-83q-193 6 -258 6q-63 0 -299 -6zM394 -430l37 70
q95 -31 156 -31q63 0 94.5 30.5t31.5 73.5q0 45 -30.5 71t-78.5 26q-35 0 -85 -19l-32 43q101 48 194 48q88 0 135 -43.5t47 -107.5q0 -83 -75.5 -142t-196.5 -59q-81 0 -197 40z" />
    <glyph glyph-name="kgreenlandic" unicode="&#x138;" horiz-adv-x="1253" 
d="M51 -7v84q109 4 125.5 15t21.5 86t5 246q0 41 -3 142q-4 93 -4 128q0 82 -21 95.5t-124 15.5v73q27 0 149 18.5t218 60.5q22 9 29 9q16 0 16 -20q0 -17 -2 -50q-1 -19 -7 -383q211 177 436 432q63 -5 127 -5q73 0 142 5v-82q-84 -4 -112 -7.5t-65.5 -29.5t-275.5 -237
l144 -163q243 -276 282 -310t92 -39v-84q-104 7 -206 7q-80 0 -144 -7q-201 268 -420 480v-161q0 -40 4.5 -129t33 -95.5t116.5 -10.5v-84q-1 0 -58 2q-137 5 -200 5q-72 0 -299 -7z" />
    <glyph glyph-name="Lcedilla" unicode="&#x13b;" horiz-adv-x="1251" 
d="M136 -7v52q55 26 104 61q13 271 13 565q0 231 -5 436q-3 146 -14 168q-5 13 -20.5 19.5t-145.5 17.5v84q193 -5 358 -5q160 0 303 5v-84q-138 -9 -159 -24q-13 -9 -18.5 -36.5t-8.5 -323.5l-6 -487q0 -137 7 -317q131 -7 194 -7q189 0 318 29q26 91 51 217h88
q-22 -143 -39 -355q-95 -14 -175 -14l-362 4l-162 2q-112 1 -321 -7zM407 -430l37 70q95 -31 156 -31q63 0 94.5 30.5t31.5 73.5q0 45 -30.5 71t-78.5 26q-35 0 -85 -19l-32 43q101 48 194 48q88 0 135 -43.5t47 -107.5q0 -83 -75.5 -142t-196.5 -59q-81 0 -197 40z" />
    <glyph glyph-name="lcedilla" unicode="&#x13c;" horiz-adv-x="682" 
d="M57 1334v58q142 19 224 39t177 57l26 -22q-15 -357 -15 -997q0 -129 4 -261q2 -84 9.5 -97.5t24 -21.5t119.5 -12v-83l-105 3q-98 3 -165 3l-299 -6v83l74 4q50 2 64.5 18.5t17.5 125.5q5 151 5 429l-1 427q-1 195 -11 220q-4 12 -15 18q-18 11 -134 15zM84 -430l37 70
q95 -31 156 -31q63 0 94.5 30.5t31.5 73.5q0 45 -30.5 71t-78.5 26q-35 0 -85 -19l-32 43q101 48 194 48q88 0 135 -43.5t47 -107.5q0 -83 -75.5 -142t-196.5 -59q-81 0 -197 40z" />
    <glyph glyph-name="Ncedilla" unicode="&#x145;" horiz-adv-x="1706" 
d="M68 -7v84q122 5 143 16q14 8 21 26q11 24 14 169q6 240 6 362l-2 423q0 168 -11 194q-6 15 -19 22q-20 12 -152 23v84q158 -5 234 -5q84 0 191 5l520 -638q193 -230 333 -380v396q0 225 -6 388q-4 97 -16 119q-6 12 -22 17t-140 14v84q109 -5 217 -5q148 0 268 5v-84
q-112 -7 -135 -16q-13 -5 -21 -14t-12 -23q-7 -24 -8 -154l-3 -400l-2 -403q0 -162 7 -324l-13 -14q-121 22 -171 29l-621 716q-184 218 -297 367v-389q0 -159 5 -383q3 -165 14 -190q4 -11 15 -17q19 -11 144 -20v-84q-162 7 -232 7q-58 0 -249 -7zM609 -430l37 70
q95 -31 156 -31q63 0 94.5 30.5t31.5 73.5q0 45 -30.5 71t-78.5 26q-35 0 -85 -19l-32 43q101 48 194 48q88 0 135 -43.5t47 -107.5q0 -83 -75.5 -142t-196.5 -59q-81 0 -197 40z" />
    <glyph glyph-name="ncedilla" unicode="&#x146;" horiz-adv-x="1251" 
d="M57 -6v83q109 6 123 17.5t17 51.5q6 101 6 356q0 126 -3 217q-2 56 -8 66q-5 8 -16 12t-119 7v77q54 0 168.5 23t192.5 53l27 9q14 0 14 -23l-1 -9q-3 -28 -3 -144l155 130q29 25 60 34q44 12 107 12q106 0 173.5 -36.5t99 -101t31.5 -200.5q0 -60 -3 -139
q-5 -162 -5 -280q0 -67 11 -93q8 -18 22.5 -24t109.5 -15v-83l-123 4l-79 2l-206 -6l-11 13q26 190 26 390q0 254 -31 313q-40 76 -146 76q-68 0 -118 -34.5t-65 -73.5q-7 -16 -7 -101q0 -362 3 -414.5t17 -64.5q18 -15 134 -21v-83q-174 6 -294 6q-71 0 -259 -6zM406 -430
l37 70q95 -31 156 -31q63 0 94.5 30.5t31.5 73.5q0 45 -30.5 71t-78.5 26q-35 0 -85 -19l-32 43q101 48 194 48q88 0 135 -43.5t47 -107.5q0 -83 -75.5 -142t-196.5 -59q-81 0 -197 40z" />
    <glyph glyph-name="Eng" unicode="&#x14a;" horiz-adv-x="1679" 
d="M545 1178q120 139 231.5 188t239.5 49q272 0 427.5 -203t155.5 -530q0 -324 -166 -516.5t-426 -192.5q-64 0 -120 13q4 69 4 94q0 26 -4 89l24 12q60 -85 133 -85q56 0 109.5 50t96 184.5t42.5 319.5q0 264 -95 446t-276 182q-200 0 -379 -250q-3 -186 -3 -260
q0 -429 6 -539t23.5 -126.5t155.5 -25.5v-84q-1 0 -59 2q-160 5 -259 5q-43 0 -337 -7v84q131 6 148.5 17.5t25.5 57t8 267.5q0 598 -2.5 724t-19.5 143.5t-160 25.5v84h480z" />
    <glyph glyph-name="eng" unicode="&#x14b;" horiz-adv-x="1270" 
d="M629 -533l-24 73l11 10q38 -5 55 -5q52 0 92.5 57t48 166.5t11.5 453.5l1 96q0 244 -10 319t-51.5 112t-115.5 37q-49 0 -88.5 -18t-65.5 -47.5t-31 -46t-5 -73.5q0 -458 8 -489t146 -35v-84q-158 7 -294 7q-82 0 -259 -7v84q118 3 132 24.5t14 432.5q0 244 -12.5 256.5
t-133.5 13.5v77q55 0 181.5 26t189.5 55q11 4 17 4q14 0 14 -20l-1 -26q-3 -63 -3 -130l155 130q55 46 168 46q102 0 173 -37t100.5 -104.5t29.5 -196.5q0 -61 -3 -139q-4 -132 -4 -208q0 -242 -12.5 -364t-62.5 -227t-138 -166.5t-172 -61.5q-20 0 -61 5z" />
    <glyph glyph-name="Omacron" unicode="&#x14c;" horiz-adv-x="1706" 
d="M841 -27q-369 0 -565 189.5t-196 521.5q0 232 95 394.5t263.5 249.5t433.5 87q255 0 417 -83.5t249.5 -232t87.5 -364.5q0 -234 -96 -404.5t-270.5 -264t-418.5 -93.5zM879 82q201 0 320.5 148.5t119.5 451.5q0 318 -137 488q-111 137 -342 137q-216 0 -334.5 -143
t-118.5 -440q0 -214 65 -362.5t165.5 -214t261.5 -65.5zM1184 1607h-661v123h661v-123z" />
    <glyph glyph-name="omacron" unicode="&#x14d;" horiz-adv-x="1139" 
d="M82 469q0 237 111 356q133 141 384 141q250 0 365 -113t115 -357q0 -251 -132.5 -387t-368.5 -136q-232 0 -353 127t-121 369zM359 538q0 -266 68 -379q53 -87 159 -87q93 0 143.5 74t50.5 269q0 268 -62 371q-51 82 -159 82q-93 0 -146.5 -75t-53.5 -255zM900 1165h-661
v123h661v-123z" />
    <glyph glyph-name="Obreve" unicode="&#x14e;" horiz-adv-x="1706" 
d="M841 -27q-369 0 -565 189.5t-196 521.5q0 232 95 394.5t263.5 249.5t433.5 87q255 0 417 -83.5t249.5 -232t87.5 -364.5q0 -234 -96 -404.5t-270.5 -264t-418.5 -93.5zM879 82q201 0 320.5 148.5t119.5 451.5q0 318 -137 488q-111 137 -342 137q-216 0 -334.5 -143
t-118.5 -440q0 -214 65 -362.5t165.5 -214t261.5 -65.5zM544 1826h63q18 -87 62 -129q67 -63 184 -63q115 0 180 60q47 44 66 132h63q-10 -119 -48 -186t-106 -105t-155 -38q-142 0 -228 96q-68 77 -81 233z" />
    <glyph glyph-name="obreve" unicode="&#x14f;" horiz-adv-x="1139" 
d="M82 469q0 237 111 356q133 141 384 141q250 0 365 -113t115 -357q0 -251 -132.5 -387t-368.5 -136q-232 0 -353 127t-121 369zM359 538q0 -266 68 -379q53 -87 159 -87q93 0 143.5 74t50.5 269q0 268 -62 371q-51 82 -159 82q-93 0 -146.5 -75t-53.5 -255zM261 1384h63
q18 -87 62 -129q67 -63 184 -63q115 0 180 60q47 44 66 132h63q-10 -119 -48 -186t-106 -105t-155 -38q-142 0 -228 96q-68 77 -81 233z" />
    <glyph glyph-name="Rcedilla" unicode="&#x156;" horiz-adv-x="1479" 
d="M72 -7v84q116 10 133 19q11 6 16 19q10 24 14 162q5 214 5 337q0 166 -4 422q-4 191 -19 234q-4 13 -16 20q-16 10 -129 22v84q207 -8 267 -8l501 9q163 0 237.5 -31.5t118 -101t43.5 -163.5q0 -120 -69.5 -210.5t-241.5 -160.5l213 -321l166 -246q47 -60 70 -72.5
t75 -13.5v-77l-59 -1q-254 -2 -327 -6l-260 403l-206 313q9 17 15 36q40 -5 59 -5q93 0 183 75t90 214q0 121 -71 188t-213 67q-45 0 -122 -7l-7 -295l-9 -374q0 -127 10 -325q8 -149 16 -167q6 -13 22 -21q21 -12 136 -18v-84q-180 7 -319 7q-148 0 -318 -7zM470 -430
l37 70q95 -31 156 -31q63 0 94.5 30.5t31.5 73.5q0 45 -30.5 71t-78.5 26q-35 0 -85 -19l-32 43q101 48 194 48q88 0 135 -43.5t47 -107.5q0 -83 -75.5 -142t-196.5 -59q-81 0 -197 40z" />
    <glyph glyph-name="rcedilla" unicode="&#x157;" horiz-adv-x="797" 
d="M21 -6v83q101 5 116 12q12 6 19 19q11 24 13 106q4 146 4 266q0 231 -6 274q-3 25 -18 35.5t-128 14.5v77q202 19 289 47l103 38q14 0 14 -19l-1 -14q-4 -63 -4 -181q51 49 113 124q46 56 80 73t91 17q32 0 65 -11q-9 -100 -12 -272l-45 -16q-23 39 -50.5 54.5
t-71.5 15.5q-60 0 -103 -31t-55 -71q-8 -30 -8 -204q0 -253 7 -295q4 -28 19 -38q23 -15 151 -21v-83l-112 3q-107 3 -185 3q-74 0 -172 -3zM180 -430l37 70q95 -31 156 -31q63 0 94.5 30.5t31.5 73.5q0 45 -30.5 71t-78.5 26q-35 0 -85 -19l-32 43q101 48 194 48
q88 0 135 -43.5t47 -107.5q0 -83 -75.5 -142t-196.5 -59q-81 0 -197 40z" />
    <glyph glyph-name="Scircumflex" unicode="&#x15c;" horiz-adv-x="1251" 
d="M143 416h88q1 -148 9.5 -173.5t57.5 -67t127 -67.5t160 -26q141 0 225.5 75t84.5 187q0 103 -56 158q-57 55 -216 78q-236 34 -318.5 74t-130 120t-47.5 192q0 188 132.5 318.5t423.5 130.5q114 0 202.5 -17t177.5 -56l10 -24q-16 -63 -22.5 -114t-11.5 -176h-87
q-5 154 -15 173q-19 33 -96.5 69.5t-177.5 36.5q-137 0 -212.5 -66.5t-75.5 -171.5q0 -64 31 -111.5t86.5 -70t238.5 -51.5q166 -25 225 -49q97 -39 147 -119t50 -202q0 -212 -162 -352.5t-443 -140.5q-125 0 -227 24t-211 79q18 70 24 127q8 79 9 213zM308 1490l276 342
h117l254 -342h-83l-232 199l-245 -199h-87z" />
    <glyph glyph-name="scircumflex" unicode="&#x15d;" horiz-adv-x="909" 
d="M180 319q5 -129 13 -144q22 -41 82.5 -72t140.5 -31q98 0 146.5 40t48.5 106q0 57 -35 90t-150 58q-174 38 -226.5 66.5t-83.5 84.5t-31 134q0 92 46 163t132.5 111.5t228.5 40.5q148 0 275 -48q-14 -81 -19 -252h-79q-6 108 -17 127q-15 29 -57 49q-58 27 -124 27
q-84 0 -130.5 -37.5t-46.5 -94.5q0 -53 42 -84q42 -32 200 -61q109 -20 151 -37q70 -30 106.5 -87.5t36.5 -145.5q0 -169 -131 -259t-312 -90q-60 0 -133 14t-159 41l-15 17q12 87 15 274h85zM131 1049l276 342h117l254 -342h-83l-232 199l-245 -199h-87z" />
    <glyph glyph-name="Tbar" unicode="&#x166;" horiz-adv-x="1366" 
d="M535 683h-374v109h374q1 99 1 233q0 230 -2.5 237.5t-71.5 7.5q-97 0 -198.5 -5.5t-112 -15.5t-21.5 -190h-86q0 221 -11 329l11 8q289 -14 608 -14q326 0 670 14l11 -16q-19 -136 -27 -321h-83q-8 172 -18 185t-129 18.5t-191 5.5h-35q-17 0 -21 -12t-4 -98q0 -32 1 -64
q1 -25 1 -50q0 -52 -5 -252h362v-109h-363q-1 -17 -1 -120q0 -335 6 -392.5t20.5 -69t160.5 -24.5v-84q-128 7 -312 7q-234 0 -352 -7v84q136 7 158 24.5t26.5 128t7.5 453.5z" />
    <glyph glyph-name="tbar" unicode="&#x167;" horiz-adv-x="682" 
d="M402 554h286v-97h-286q0 -232 22 -273t93 -41q47 0 101 19l18 -38q-60 -66 -118 -139q-70 -12 -124 -12q-249 0 -249 237q0 53 5 247h-159v97h162q2 50 2 205q-104 -4 -164 -9v47l164 87q0 148 -9 310q136 40 258 102l29 -23q-22 -141 -29 -394h102q92 0 170 17l12 -17
q-18 -60 -26 -120q-32 -2 -35 -2q-10 0 -42 2h-181q-2 -117 -2 -205z" />
    <glyph glyph-name="Utilde" unicode="&#x168;" horiz-adv-x="1593" 
d="M57 1312v84q204 -7 358 -7q98 0 277 7v-84q-92 0 -130 -16q-13 -5 -21 -17q-11 -14 -15 -47q-6 -56 -10 -322q-3 -185 -3 -376q0 -157 36 -230.5t105 -109.5q100 -51 218 -51q161 0 246 53t114 146t29 407l-1 370q-1 125 -12 150q-6 14 -21 21q-24 14 -146 22v84
q129 -7 238 -7q94 0 231 7v-84q-99 0 -123.5 -22t-29.5 -114q-11 -224 -12 -507q0 -181 -5 -237q-11 -138 -67 -235.5t-186 -160.5t-323 -63q-201 0 -334 60t-189 151.5t-56 268.5l5 450q0 54 -5 275q-2 69 -15 94q-8 14 -24.5 22t-128.5 18zM570 1541h-73q66 233 240 233
q39 0 81 -9.5t143 -47.5q79 -29 115 -29q43 0 68 18t51 76h66q-60 -231 -232 -231q-68 0 -184 46q-98 40 -147 40q-46 0 -75.5 -20.5t-52.5 -75.5z" />
    <glyph glyph-name="utilde" unicode="&#x169;" horiz-adv-x="1251" 
d="M39 804v77q160 15 299 57l99 35q18 0 18 -23l-4 -59q-17 -230 -17 -444q0 -138 14 -183.5t50.5 -70.5t97.5 -25q71 0 124.5 39t66 86t12.5 268q0 177 -6 207q-4 16 -14 22q-15 8 -136 14v77q205 23 301 54l106 38q17 0 17 -21l-2 -27q-17 -174 -17 -631q0 -140 8 -176
q5 -17 16 -24q16 -9 126 -17v-83q-115 6 -228 6q-92 0 -171 -6l-9 18q5 50 9 157q-93 -75 -180 -165q-71 -31 -140 -31q-92 0 -160 37t-100.5 96.5t-32.5 167.5l2 109q3 101 3 164q0 178 -7 213q-5 23 -21 32.5t-124 11.5zM310 1100h-73q66 233 240 233q39 0 81 -9.5
t143 -47.5q79 -29 115 -29q43 0 68 18t51 76h66q-60 -231 -232 -231q-68 0 -184 46q-98 40 -147 40q-46 0 -75.5 -20.5t-52.5 -75.5z" />
    <glyph glyph-name="Umacron" unicode="&#x16a;" horiz-adv-x="1593" 
d="M57 1312v84q204 -7 358 -7q98 0 277 7v-84q-92 0 -130 -16q-13 -5 -21 -17q-11 -14 -15 -47q-6 -56 -10 -322q-3 -185 -3 -376q0 -157 36 -230.5t105 -109.5q100 -51 218 -51q161 0 246 53t114 146t29 407l-1 370q-1 125 -12 150q-6 14 -21 21q-24 14 -146 22v84
q129 -7 238 -7q94 0 231 7v-84q-99 0 -123.5 -22t-29.5 -114q-11 -224 -12 -507q0 -181 -5 -237q-11 -138 -67 -235.5t-186 -160.5t-323 -63q-201 0 -334 60t-189 151.5t-56 268.5l5 450q0 54 -5 275q-2 69 -15 94q-8 14 -24.5 22t-128.5 18zM1159 1607h-661v123h661v-123z
" />
    <glyph glyph-name="umacron" unicode="&#x16b;" horiz-adv-x="1251" 
d="M39 804v77q160 15 299 57l99 35q18 0 18 -23l-4 -59q-17 -230 -17 -444q0 -138 14 -183.5t50.5 -70.5t97.5 -25q71 0 124.5 39t66 86t12.5 268q0 177 -6 207q-4 16 -14 22q-15 8 -136 14v77q205 23 301 54l106 38q17 0 17 -21l-2 -27q-17 -174 -17 -631q0 -140 8 -176
q5 -17 16 -24q16 -9 126 -17v-83q-115 6 -228 6q-92 0 -171 -6l-9 18q5 50 9 157q-93 -75 -180 -165q-71 -31 -140 -31q-92 0 -160 37t-100.5 96.5t-32.5 167.5l2 109q3 101 3 164q0 178 -7 213q-5 23 -21 32.5t-124 11.5zM949 1165h-661v123h661v-123z" />
    <glyph glyph-name="Ubreve" unicode="&#x16c;" horiz-adv-x="1593" 
d="M57 1312v84q204 -7 358 -7q98 0 277 7v-84q-92 0 -130 -16q-13 -5 -21 -17q-11 -14 -15 -47q-6 -56 -10 -322q-3 -185 -3 -376q0 -157 36 -230.5t105 -109.5q100 -51 218 -51q161 0 246 53t114 146t29 407l-1 370q-1 125 -12 150q-6 14 -21 21q-24 14 -146 22v84
q129 -7 238 -7q94 0 231 7v-84q-99 0 -123.5 -22t-29.5 -114q-11 -224 -12 -507q0 -181 -5 -237q-11 -138 -67 -235.5t-186 -160.5t-323 -63q-201 0 -334 60t-189 151.5t-56 268.5l5 450q0 54 -5 275q-2 69 -15 94q-8 14 -24.5 22t-128.5 18zM532 1826h63q18 -87 62 -129
q67 -63 184 -63q115 0 180 60q47 44 66 132h63q-10 -119 -48 -186t-106 -105t-155 -38q-142 0 -228 96q-68 77 -81 233z" />
    <glyph glyph-name="ubreve" unicode="&#x16d;" horiz-adv-x="1251" 
d="M39 804v77q160 15 299 57l99 35q18 0 18 -23l-4 -59q-17 -230 -17 -444q0 -138 14 -183.5t50.5 -70.5t97.5 -25q71 0 124.5 39t66 86t12.5 268q0 177 -6 207q-4 16 -14 22q-15 8 -136 14v77q205 23 301 54l106 38q17 0 17 -21l-2 -27q-17 -174 -17 -631q0 -140 8 -176
q5 -17 16 -24q16 -9 126 -17v-83q-115 6 -228 6q-92 0 -171 -6l-9 18q5 50 9 157q-93 -75 -180 -165q-71 -31 -140 -31q-92 0 -160 37t-100.5 96.5t-32.5 167.5l2 109q3 101 3 164q0 178 -7 213q-5 23 -21 32.5t-124 11.5zM310 1384h63q18 -87 62 -129q67 -63 184 -63
q115 0 180 60q47 44 66 132h63q-10 -119 -48 -186t-106 -105t-155 -38q-142 0 -228 96q-68 77 -81 233z" />
    <glyph glyph-name="Uogonek" unicode="&#x172;" horiz-adv-x="1593" 
d="M57 1312v84q204 -7 358 -7q98 0 277 7v-84q-92 0 -130 -16q-13 -5 -21 -17q-11 -14 -15 -47q-6 -56 -10 -322q-3 -185 -3 -376q0 -157 36 -230.5t105 -109.5q100 -51 218 -51q161 0 246 53t114 146t29 407l-1 370q-1 125 -12 150q-6 14 -21 21q-24 14 -146 22v84
q129 -7 238 -7q94 0 231 7v-84q-99 0 -123.5 -22t-29.5 -114q-11 -224 -12 -507q0 -181 -5 -237q-11 -138 -67 -235.5t-186 -160.5t-323 -63q-201 0 -334 60t-189 151.5t-56 268.5l5 450q0 54 -5 275q-2 69 -15 94q-8 14 -24.5 22t-128.5 18zM1052 0q-110 -47 -166 -115.5
t-56 -138.5q0 -65 35.5 -105.5t90.5 -40.5q32 0 59 14t68 57l39 -38q-128 -157 -270 -157q-86 0 -141 53t-55 132q0 97 76 189t223 150h97z" />
    <glyph glyph-name="uogonek" unicode="&#x173;" horiz-adv-x="1251" 
d="M39 804v77q160 15 299 57l99 35q18 0 18 -23l-4 -59q-17 -230 -17 -444q0 -138 14 -183.5t50.5 -70.5t97.5 -25q71 0 124.5 39t66 86t12.5 268q0 177 -6 207q-4 16 -14 22q-15 8 -136 14v77q205 23 301 54l106 38q17 0 17 -21l-2 -27q-17 -174 -17 -631q0 -140 8 -176
q5 -17 16 -24q16 -9 126 -17v-83q-115 6 -228 6q-92 0 -171 -6l-9 18q5 50 9 157q-93 -75 -180 -165q-71 -31 -140 -31q-92 0 -160 37t-100.5 96.5t-32.5 167.5l2 109q3 101 3 164q0 178 -7 213q-5 23 -21 32.5t-124 11.5zM1088 0q-110 -47 -166 -115.5t-56 -138.5
q0 -65 35.5 -105.5t90.5 -40.5q32 0 59 14t68 57l39 -38q-128 -157 -270 -157q-86 0 -141 53t-55 132q0 97 76 189t223 150h97z" />
    <glyph glyph-name="Wcircumflex" unicode="&#x174;" horiz-adv-x="2048" 
d="M-33 1312v85q166 -8 293 -8q134 0 309 8v-85q-106 -4 -128.5 -16t-22.5 -41q0 -34 63 -326l113 -522l256 531q150 311 215 459h89l416 -1039l168 621q54 201 54 277q0 32 -21 42.5t-141 13.5v85q185 -8 235 -8q61 0 216 8v-85q-82 -7 -105.5 -25.5t-45.5 -89.5
q-36 -109 -179 -627l-157 -584h-190l-400 1011l-257 -541q-120 -254 -213 -470h-143l-167 750l-106 468q-16 70 -35 84.5t-116 23.5zM763 1490l276 342h117l254 -342h-83l-232 199l-245 -199h-87z" />
    <glyph glyph-name="wcircumflex" unicode="&#x175;" horiz-adv-x="1706" 
d="M8 863v82q124 -6 314 -6q138 0 247 6v-82l-65 -3q-52 -1 -65.5 -10t-13.5 -28q0 -11 35 -150l98 -361l200 441q69 152 94 219h106q68 -187 283 -660l89 267q67 203 67 239q0 23 -19 33q-14 7 -125 13v82q142 -5 221 -5q86 0 195 5v-82q-78 -3 -96 -13q-13 -8 -24 -28
q-29 -51 -135 -355q-76 -220 -152 -473h-164q-112 285 -273 629q-174 -355 -281 -629h-165q-43 182 -132 490.5t-104 337.5q-9 17 -21 24q-19 11 -114 17zM553 1049l276 342h117l254 -342h-83l-232 199l-245 -199h-87z" />
    <glyph glyph-name="Ycircumflex" unicode="&#x176;" horiz-adv-x="1366" 
d="M399 -7v84q103 0 143 18q24 11 31 46q2 10 9 195l1 73q0 135 -13 169q-22 56 -154 265.5t-202 299t-118 117.5q-17 10 -44 10l-48 -2v79q166 29 328 70q53 -25 88 -59q51 -51 141.5 -199.5t229.5 -428.5l82 140q112 190 295 527h163v-50q-53 -63 -197 -288
q-226 -354 -252 -415q-16 -39 -16 -155q0 -235 10 -331q5 -51 26.5 -64t156.5 -17v-84q-146 7 -297 7q-166 0 -363 -7zM419 1490l276 342h117l254 -342h-83l-232 199l-245 -199h-87z" />
    <glyph glyph-name="ycircumflex" unicode="&#x177;" horiz-adv-x="1139" 
d="M4 863v82q230 -7 294 -7q89 0 251 7v-82q-93 -4 -110.5 -13.5t-17.5 -31.5q0 -30 98 -277l109 -276l93 218q125 293 125 338q0 21 -17.5 29.5t-107.5 12.5v82l63 -3q101 -4 134 -4q36 0 188 7v-82q-49 0 -80 -15q-13 -7 -23 -22q-16 -22 -126 -276l-186 -426l-173 -394
q-59 -121 -105.5 -169.5t-101.5 -72t-123 -23.5t-144 34q24 99 35 193l27 9q59 -66 137 -66q66 0 109 43t134 249l-223 566l-123 304q-16 37 -34.5 48.5t-101.5 17.5zM232 1049l276 342h117l254 -342h-83l-232 199l-245 -199h-87z" />
    <glyph glyph-name="longs" unicode="&#x17f;" horiz-adv-x="682" 
d="M22 -7v84q121 9 138 23.5t23 148.5t6 374q0 81 -10 210q-5 61 -5 92q0 147 23.5 199t155.5 171.5t182.5 152.5t142.5 33q60 0 120 -22q-17 -111 -28 -248l-39 -8q-85 83 -172 83q-86 0 -105.5 -54.5t-19.5 -307.5l6 -702q0 -96 21.5 -118t179.5 -27v-84q-141 7 -283 7
q-146 0 -336 -7z" />
    <glyph glyph-name="Aringacute" unicode="&#x1fa;" horiz-adv-x="1593" 
d="M63 84q94 5 116 19q15 10 47 76q61 130 156 361l354 867h147l452 -1074q88 -209 108.5 -229t126.5 -27v-84q-163 7 -308 7q-173 0 -329 -7v84q119 5 137.5 13.5t18.5 30.5q0 19 -42 130l-66 171q-124 2 -277 2q-133 0 -242 -2l-44 -115q-18 -47 -44 -140q-6 -21 -6 -38
q0 -23 19.5 -32.5t140.5 -19.5v-84q-98 7 -244 7q-139 0 -221 -7v91zM719 1053l-211 -513q92 -5 203 -5q116 0 222 5zM817 1729q82 0 140 -58.5t58 -141.5t-58.5 -141t-140.5 -58q-83 0 -141.5 58t-58.5 141q0 84 58.5 142t142.5 58zM816 1651q-51 0 -86.5 -35.5
t-35.5 -86.5q0 -50 35.5 -86t86.5 -36q50 0 86 36t36 86q0 51 -36 86.5t-86 35.5zM691 1756h-99l232 224q82 79 110.5 95.5t59.5 16.5q38 0 61.5 -22.5t23.5 -56.5q0 -30 -19.5 -51t-122.5 -75z" />
    <glyph glyph-name="aringacute" unicode="&#x1fb;" 
d="M979 77v-83l-77 3q-61 3 -122 3q-94 0 -178 -6l-10 11l10 138l-209 -157q-56 -13 -99 -13q-106 0 -164 63t-58 184q0 149 79 210q102 80 451 143q-2 118 -41 171q-55 73 -170 73q-27 0 -55.5 -6.5t-57.5 -20.5l-45 -107l-69 17l2 45l-1 44l-1 40q153 95 220 119
q49 18 136 18q118 0 192 -35.5t108 -96.5t34 -178q0 -49 -4 -175q-4 -130 -4 -209q0 -125 7 -152q4 -16 19.5 -25t106.5 -18zM602 487q-176 -38 -229 -82.5t-53 -119.5q0 -61 34 -96t86 -35q79 0 162 89v244zM513 1450q82 0 140 -58.5t58 -141.5t-58.5 -141t-140.5 -58
q-83 0 -141.5 58t-58.5 141q0 84 58.5 142t142.5 58zM512 1372q-51 0 -86.5 -35.5t-35.5 -86.5q0 -50 35.5 -86t86.5 -36q50 0 86 36t36 86q0 51 -36 86.5t-86 35.5zM419 1502h-99l232 224q82 79 110.5 95.5t59.5 16.5q38 0 61.5 -22.5t23.5 -56.5q0 -30 -19.5 -51
t-122.5 -75z" />
    <glyph glyph-name="AEacute" unicode="&#x1fc;" horiz-adv-x="2048" 
d="M18 -7v84q79 3 101.5 14.5t48.5 50.5l161 261l444 736q66 115 66 131t-17.5 22t-178.5 15v88q202 -8 546 -8l591 6q74 0 145 -6l9 -11q-19 -132 -30 -293h-78q-10 138 -18.5 151.5t-42.5 21.5q-88 18 -250 18q-65 0 -193 -6l-9 -282l-4 -211l166 -1q162 0 191 7
q17 4 22 15q10 17 19 140h86q-4 -128 -4 -235q0 -104 4 -212h-86q-6 136 -16 151q-9 13 -44 17q-46 5 -338 9q1 -341 13 -548q147 -8 219 -8q152 0 285 21q28 88 54 209h84q-24 -147 -39 -338q-117 -10 -217 -10l-445 8q-267 0 -362 -7v55q46 21 105 60q18 184 18 326
l-252 2l-283 -2l-111 -190q-53 -90 -53 -123q0 -20 19.5 -28.5t144.5 -15.5v-84q-154 7 -236 7q-87 0 -235 -7zM1024 546v678q0 44 -17 44q-8 0 -18 -11q-20 -22 -74 -112l-362 -599l262 -3q73 0 209 3zM1059 1494h-99l232 224q82 79 110.5 95.5t59.5 16.5q38 0 61.5 -22.5
t23.5 -56.5q0 -30 -19.5 -51t-122.5 -75z" />
    <glyph glyph-name="aeacute" unicode="&#x1fd;" horiz-adv-x="1593" 
d="M253 684l-73 8l2 38l-1 28l-2 33l1 29l85 50q113 65 157 78q60 18 134 18q80 0 146 -26.5t123 -83.5q65 59 134.5 84.5t158.5 25.5q178 0 283 -104.5t105 -271.5q0 -32 -5 -86l-148 -34q-86 -7 -274 -7h-181q4 -151 78 -235q93 -105 247 -105q55 0 110 15.5t110 46.5
l26 -28q-37 -69 -55 -106q-82 -44 -150.5 -61t-156.5 -17q-144 0 -238.5 46.5t-162.5 145.5q-89 -53 -204 -148q-54 -44 -161 -44q-115 0 -183.5 66.5t-68.5 173.5q0 69 27.5 129.5t61 86.5t149.5 60.5t319 68.5q-4 110 -26 157t-71 74.5t-118 27.5q-34 0 -71 -10t-77 -31z
M896 568q104 -5 185 -5q70 0 157 5q-4 124 -24 179t-58 83t-88 28q-79 0 -123.5 -61t-48.5 -229zM646 463q-180 -23 -239.5 -67t-59.5 -120q0 -62 34 -97.5t94 -35.5q46 0 82 20q51 27 79 62q10 13 10 54v184zM728 1053h-99l232 224q82 79 110.5 95.5t59.5 16.5
q38 0 61.5 -22.5t23.5 -56.5q0 -30 -19.5 -51t-122.5 -75z" />
    <glyph glyph-name="Oslashacute" unicode="&#x1fe;" horiz-adv-x="1706" 
d="M225 218q-76 98 -111 208.5t-35 256.5q0 233 95.5 395.5t263.5 249.5t434 87q159 0 276 -31.5t214 -97.5l209 197l82 -86l-201 -188q174 -178 174 -474q0 -347 -211.5 -554.5t-578.5 -207.5q-168 0 -308.5 45.5t-219.5 115.5l-204 -191l-80 86zM432 412l772 726
q-60 88 -146.5 128.5t-218.5 40.5q-215 0 -334 -143t-119 -440q0 -178 46 -312zM1262 1030l-779 -732q63 -111 155.5 -163.5t223.5 -52.5q216 0 336.5 147t120.5 453q0 200 -57 348zM708 1494h-99l232 224q82 79 110.5 95.5t59.5 16.5q38 0 61.5 -22.5t23.5 -56.5
q0 -30 -19.5 -51t-122.5 -75z" />
    <glyph glyph-name="oslashacute" unicode="&#x1ff;" horiz-adv-x="1139" 
d="M163 152q-81 125 -81 322q0 242 122 362q133 130 371 130q210 0 327 -80l154 154l69 -71l-152 -151q84 -111 84 -325q0 -250 -133 -385t-375 -135q-207 0 -322 104l-153 -152l-68 70zM369 356l374 372q-43 140 -184 140q-94 0 -147 -75.5t-53 -261.5q0 -85 10 -175z
M768 615l-375 -373q49 -170 193 -170q93 0 144 74t51 267q0 94 -13 202zM421 1053h-99l232 224q82 79 110.5 95.5t59.5 16.5q38 0 61.5 -22.5t23.5 -56.5q0 -30 -19.5 -51t-122.5 -75z" />
    <glyph glyph-name="tonos" unicode="&#x384;" horiz-adv-x="682" 
d="M361 1077h-40l-56 193q-11 40 -11 64q0 42 21.5 73.5t67.5 31.5q37 0 61 -26t24 -65q0 -26 -15 -78z" />
    <glyph glyph-name="dieresistonos" unicode="&#x385;" horiz-adv-x="682" 
d="M361 1077h-40l-56 193q-11 40 -11 64q0 42 21.5 73.5t67.5 31.5q37 0 61 -26t24 -65q0 -26 -15 -78zM201 1199q0 -45 -32 -77.5t-77 -32.5t-77 32.5t-32 77.5q0 44 32 76.5t77 32.5t77 -32.5t32 -76.5zM699 1199q0 -46 -32 -78t-76 -32q-45 0 -77 32t-32 78q0 45 32 77
t77 32t76.5 -32t31.5 -77z" />
    <glyph glyph-name="Alphatonos" unicode="&#x386;" horiz-adv-x="1593" 
d="M63 84q94 5 116 19q15 10 47 76q61 130 156 361l354 867h147l452 -1074q88 -209 108.5 -229t126.5 -27v-84q-163 7 -308 7q-173 0 -329 -7v84q119 5 137.5 13.5t18.5 30.5q0 19 -42 130l-66 171q-124 2 -277 2q-133 0 -242 -2l-44 -115q-18 -47 -44 -140q-6 -21 -6 -38
q0 -23 19.5 -32.5t140.5 -19.5v-84q-98 7 -244 7q-139 0 -221 -7v91zM719 1053l-211 -513q92 -5 203 -5q116 0 222 5zM334 1053h-40l-56 193q-11 40 -11 64q0 42 21.5 73.5t67.5 31.5q37 0 61 -26t24 -65q0 -26 -15 -78z" />
    <glyph glyph-name="anoteleia" unicode="&#x387;" horiz-adv-x="682" 
d="M500 807q0 -66 -47 -113t-113 -47q-65 0 -112 47t-47 113q0 65 46.5 112t112.5 47t113 -46.5t47 -112.5z" />
    <glyph glyph-name="Epsilontonos" unicode="&#x388;" horiz-adv-x="1370" 
d="M260 -7v54q53 24 97 56q20 156 20 656q0 341 -7 452q-3 59 -20.5 74.5t-148.5 26.5v84q236 -9 373 -9l551 6q87 0 157 -7l7 -11q-22 -109 -32 -290h-79q-5 146 -11.5 156t-45.5 19q-83 18 -254 18q-84 0 -196 -7q-13 -309 -15 -492q107 -7 201 -7q139 0 167 9q17 6 24 29
q6 18 14 126h86q-5 -169 -5 -220l5 -225h-86q-7 131 -18 151q-6 12 -27 17q-50 11 -225 11q-55 0 -129 -6q-2 -53 -2 -108q0 -286 10 -440l198 -3q169 0 309 18q25 92 48 209h83q-23 -176 -27 -338q-91 -10 -175 -10q-55 0 -217 4q-151 4 -278 4q-167 0 -352 -7zM59 1053
h-40l-56 193q-11 40 -11 64q0 42 21.5 73.5t67.5 31.5q37 0 61 -26t24 -65q0 -26 -15 -78z" />
    <glyph glyph-name="Etatonos" unicode="&#x389;" horiz-adv-x="1833" 
d="M200 -7v84q131 6 148.5 17.5t23.5 47.5q10 55 10 277l-1 547q-1 277 -10 302q-5 15 -17 23q-20 13 -154 21v84q200 -7 317 -7q185 0 338 7v-84q-123 -8 -145 -18q-13 -6 -19 -18q-10 -19 -14 -116q-6 -144 -6 -292v-83q104 -5 330 -5q201 0 296 5q1 325 -7 432
q-4 57 -21 70q-23 19 -156 25v84q249 -7 337 -7q151 0 319 7v-84q-128 -8 -149 -19q-12 -6 -18 -18q-9 -21 -13 -163q-7 -218 -7 -353l6 -454q2 -154 9 -177t23 -32.5t149 -18.5v-84l-111 3q-125 4 -196 4q-148 0 -349 -7v84q134 6 152.5 21.5t22.5 81.5q7 113 9 482
q-112 4 -249 4q-215 0 -377 -4v-66q0 -262 7 -393q5 -88 24 -102.5t153 -23.5v-84l-118 3q-112 4 -200 4zM59 1053h-40l-56 193q-11 40 -11 64q0 42 21.5 73.5t67.5 31.5q37 0 61 -26t24 -65q0 -26 -15 -78z" />
    <glyph glyph-name="Iotatonos" unicode="&#x38a;" horiz-adv-x="926" 
d="M200 -7v84q138 7 156 23t22 79q7 132 7 492q0 138 -4 400q-2 179 -8 196.5t-21 25.5q-22 11 -152 19v84q206 -8 315 -8q188 0 340 8v-84q-136 -8 -153.5 -21.5t-22.5 -62.5q-9 -96 -9 -389q0 -390 3 -543.5t18 -182.5q6 -13 25.5 -20.5t138.5 -15.5v-84l-118 3
q-112 4 -200 4zM59 1053h-40l-56 193q-11 40 -11 64q0 42 21.5 73.5t67.5 31.5q37 0 61 -26t24 -65q0 -26 -15 -78z" />
    <glyph glyph-name="Omicrontonos" unicode="&#x38c;" horiz-adv-x="1698" 
d="M835 -27q-369 0 -565 189.5t-196 521.5q0 232 95 394.5t263.5 249.5t433.5 87q255 0 417 -83.5t249.5 -232t87.5 -364.5q0 -234 -96 -404.5t-270.5 -264t-418.5 -93.5zM873 82q201 0 320.5 148.5t119.5 451.5q0 318 -137 488q-111 137 -342 137q-216 0 -334.5 -143
t-118.5 -440q0 -214 65 -362.5t165.5 -214t261.5 -65.5zM59 1053h-40l-56 193q-11 40 -11 64q0 42 21.5 73.5t67.5 31.5q37 0 61 -26t24 -65q0 -26 -15 -78z" />
    <glyph glyph-name="Upsilontonos" unicode="&#x38e;" horiz-adv-x="1559" 
d="M594 -7v84q103 0 143 18q24 11 31 46q2 10 9 195l1 73q0 135 -13 169q-22 56 -154 265.5t-202 299t-118 117.5q-17 10 -44 10l-48 -2v79q166 29 328 70q53 -25 88 -59q51 -51 141.5 -199.5t229.5 -428.5l82 140q112 190 295 527h163v-50q-53 -63 -197 -288
q-226 -354 -252 -415q-16 -39 -16 -155q0 -235 10 -331q5 -51 26.5 -64t156.5 -17v-84q-146 7 -297 7q-166 0 -363 -7zM59 1053h-40l-56 193q-11 40 -11 64q0 42 21.5 73.5t67.5 31.5q37 0 61 -26t24 -65q0 -26 -15 -78z" />
    <glyph glyph-name="Omegatonos" unicode="&#x38f;" horiz-adv-x="1558" 
d="M59 340h85q19 -100 33 -121.5t67 -21.5q23 0 85 -3q91 -5 158 -5l57 1l17 9q11 67 13 87q-474 124 -474 546q0 265 195.5 424t504.5 159q299 0 480 -155.5t181 -403.5q0 -192 -117.5 -343.5t-345.5 -220.5l8 -93l11 -9l48 -1q76 0 166 5q63 3 86 3q52 0 66.5 20.5
t33.5 122.5h85q-13 -75 -13 -167q0 -80 11 -162l-18 -18q-134 14 -281 14q-149 0 -347 -14v58q4 10 27 323q265 70 265 482q0 194 -90.5 322.5t-276.5 128.5q-372 0 -372 -480q0 -191 69.5 -293t215.5 -160q12 -184 27 -323v-58q-208 14 -357 14q-150 0 -283 -14l-19 18
q11 82 11 162q0 92 -12 167zM59 1053h-40l-56 193q-11 40 -11 64q0 42 21.5 73.5t67.5 31.5q37 0 61 -26t24 -65q0 -26 -15 -78z" />
    <glyph glyph-name="iotadieresistonos" unicode="&#x390;" horiz-adv-x="717" 
d="M75 805v72q240 18 381 84q11 5 19 5q14 0 14 -18q0 -14 -3 -82q-5 -89 -5 -308q0 -305 14.5 -360t99.5 -55q46 0 101 19l18 -38q-60 -66 -118 -139q-71 -12 -125 -12q-248 0 -248 236l3 340q0 219 -20.5 237t-130.5 19zM378 1077h-40l-56 193q-11 40 -11 64
q0 42 21.5 73.5t67.5 31.5q37 0 61 -26t24 -65q0 -26 -15 -78zM218 1199q0 -45 -32 -77.5t-77 -32.5t-77 32.5t-32 77.5q0 44 32 76.5t77 32.5t77 -32.5t32 -76.5zM716 1199q0 -46 -32 -78t-76 -32q-45 0 -77 32t-32 78q0 45 32 77t77 32t76.5 -32t31.5 -77z" />
    <glyph glyph-name="Alpha" unicode="&#x391;" horiz-adv-x="1593" 
d="M63 84q94 5 116 19q15 10 47 76q61 130 156 361l354 867h147l452 -1074q88 -209 108.5 -229t126.5 -27v-84q-163 7 -308 7q-173 0 -329 -7v84q119 5 137.5 13.5t18.5 30.5q0 19 -42 130l-66 171q-124 2 -277 2q-133 0 -242 -2l-44 -115q-18 -47 -44 -140q-6 -21 -6 -38
q0 -23 19.5 -32.5t140.5 -19.5v-84q-98 7 -244 7q-139 0 -221 -7v91zM719 1053l-211 -513q92 -5 203 -5q116 0 222 5z" />
    <glyph glyph-name="Beta" unicode="&#x392;" horiz-adv-x="1366" 
d="M154 -7v47q57 34 87 62q12 138 12 610q0 342 -10 484q-5 77 -21 90q-22 20 -152 26v84l192 -4l147 -3q67 0 198 5q127 5 182 5q222 0 318 -74.5t96 -203.5q0 -133 -95 -217t-268 -120v-8q178 -18 250 -54t116 -112t44 -173q0 -119 -72.5 -225t-192 -162t-336.5 -56
q-43 0 -129 3q-80 3 -131 3q-57 0 -235 -7zM537 818h52q169 0 237.5 61t68.5 191q0 114 -55.5 168t-182.5 54q-47 0 -115 -8q-6 -307 -6 -376zM539 107q58 -15 109 -15q142 0 218 81.5t76 239.5q0 103 -34.5 168.5t-95 97.5t-172.5 32l-101 -1v-26l-2 -259l2 -262v-56z" />
    <glyph glyph-name="Gamma" unicode="&#x393;" horiz-adv-x="1147" 
d="M78 -7v84q61 0 102 5.5t49.5 16t12 30.5t9.5 163t6 325q0 318 -6.5 485.5t-23.5 184t-149 24.5v85q160 -8 305 -8q179 0 382 7q131 4 238 4q60 0 110 -3l10 -22q-22 -125 -26 -299h-84q-9 142 -14.5 160.5t-77 31.5t-177.5 13q-104 0 -192 -9q-17 -198 -17 -524
q0 -134 5.5 -368.5t15.5 -256t29 -30t163 -15.5v-84q-148 7 -300 7q-130 0 -370 -7z" />
    <glyph glyph-name="Delta" unicode="&#x394;" horiz-adv-x="1528" 
d="M683 1407h147l504 -1018q87 -176 171 -312v-84q-415 8 -1145 8q-210 0 -338 -8v84q100 150 252 469zM666 1053l-422 -929q127 -4 414 -4q279 0 458 4z" />
    <glyph glyph-name="Epsilon" unicode="&#x395;" horiz-adv-x="1251" 
d="M138 -7v54q53 24 97 56q20 156 20 656q0 341 -7 452q-3 59 -20.5 74.5t-148.5 26.5v84q236 -9 373 -9l551 6q87 0 157 -7l7 -11q-22 -109 -32 -290h-79q-5 146 -11.5 156t-45.5 19q-83 18 -254 18q-84 0 -196 -7q-13 -309 -15 -492q107 -7 201 -7q139 0 167 9q17 6 24 29
q6 18 14 126h86q-5 -169 -5 -220l5 -225h-86q-7 131 -18 151q-6 12 -27 17q-50 11 -225 11q-55 0 -129 -6q-2 -53 -2 -108q0 -286 10 -440l198 -3q169 0 309 18q25 92 48 209h83q-23 -176 -27 -338q-91 -10 -175 -10q-55 0 -217 4q-151 4 -278 4q-167 0 -352 -7z" />
    <glyph glyph-name="Zeta" unicode="&#x396;" horiz-adv-x="1366" 
d="M49 -7v79q333 420 848 1191l-248 3q-199 0 -307 -10q-47 -4 -59 -17t-25 -108l-11 -70h-81q0 70 4 168l2 64q0 41 -6 94l13 9q212 -11 379 -11q631 0 732 2v-71q-451 -603 -848 -1198q205 -7 380 -7q184 0 287 15q31 5 41 17q13 16 44 152l11 51h85q-24 -144 -34 -353
q-60 -5 -119 -5l-754 12q-80 0 -334 -7z" />
    </font>
</defs>
</svg>
