<?xml version="1.0" standalone="no"?>
<!DOCTYPE svg PUBLIC "-//W3C//DTD SVG 1.1//EN" "http://www.w3.org/Graphics/SVG/1.1/DTD/svg11.dtd" >
<svg>
<metadata>
Created by FontForge 20090622 at Thu Sep 13 19:02:58 2018
 By deploy user
Digitized data copyright The Monotype Corporation 1991-1995. All rights reserved. Book Antiqua&#226;&#132;&#162; is a trademark of The Monotype Corporation which may be registered in certain jurisdictions.
</metadata>
<defs>
<font id="BookAntiqua-BoldItalic" horiz-adv-x="1139" >
  <font-face 
    font-family="Book Antiqua"
    font-weight="700"
    font-style="italic"
    font-stretch="normal"
    units-per-em="2048"
    panose-1="2 4 7 2 6 3 5 10 2 4"
    ascent="1638"
    descent="-410"
    x-height="972"
    cap-height="1396"
    bbox="-364 -696 2441 2114"
    underline-thickness="119"
    underline-position="-209"
    slope="-9.5"
    unicode-range="U+0020-U+F108"
  />
<missing-glyph horiz-adv-x="1536" 
d="M256 0v1280h1024v-1280h-1024zM288 32h960v1216h-960v-1216z" />
    <glyph glyph-name=".notdef" horiz-adv-x="1536" 
d="M256 0v1280h1024v-1280h-1024zM288 32h960v1216h-960v-1216z" />
    <glyph glyph-name="glyph1" horiz-adv-x="0" 
 />
    <glyph glyph-name="glyph2" horiz-adv-x="512" 
 />
    <glyph glyph-name="space" unicode=" " horiz-adv-x="512" 
 />
    <glyph glyph-name="exclam" unicode="!" horiz-adv-x="682" 
d="M257 387l-27 17q13 104 58 625q23 269 24 327q67 2 284 59l24 -19l-47 -153l-189 -627q-35 -116 -47 -179zM107 92q0 69 37 125t109 56q58 0 91.5 -34.5t33.5 -88.5q0 -78 -42.5 -127.5t-110.5 -49.5q-55 0 -86.5 32t-31.5 87z" />
    <glyph glyph-name="quotedbl" unicode="&#x22;" horiz-adv-x="1024" 
d="M678 857l12 339q4 117 40 168t86 51q47 0 76 -33t29 -93q0 -52 -25 -130l-106 -322q-13 -42 -53 -42q-28 0 -44 17t-15 45zM274 857l12 339q5 118 40.5 168.5t85.5 50.5q47 0 76.5 -33t29.5 -93q0 -51 -26 -130l-105 -322q-14 -42 -54 -42q-28 0 -44 17t-15 45z" />
    <glyph glyph-name="numbersign" unicode="#" horiz-adv-x="1241" 
d="M1093 598v-154h-217l-65 -444h-158l65 444h-220l-65 -444h-156l66 444h-213v154h237l34 219h-214v154h236l62 416h152l-60 -416h219l61 416h157l-61 -416h191v-154h-214l-30 -219h193zM774 817h-220l-31 -219h217z" />
    <glyph glyph-name="dollar" unicode="$" horiz-adv-x="1024" 
d="M315 -223l35 206q-84 4 -151 23.5t-166 72.5q14 37 27 115q20 125 22 181l70 -1q0 -27 -8 -156q64 -99 223 -134l84 502q-172 33 -241 97q-87 81 -87 227q0 177 125.5 307.5t336.5 156.5l18 139l83 -3l-22 -134q82 -1 149 -19.5t144 -63.5q-43 -136 -50 -276l-65 2
q6 51 6 111l-2 32q-50 88 -197 111l-79 -475q200 -37 279.5 -117t79.5 -215q0 -123 -67.5 -231.5t-193.5 -181t-236 -70.5q-26 -146 -34 -206h-83zM568 1276q-93 -5 -152 -39t-92.5 -96.5t-33.5 -138.5q0 -64 42 -107.5t159 -74.5zM448 81q131 1 208.5 78.5t77.5 199.5
q0 50 -20.5 90.5t-59.5 67.5q-28 20 -125 48z" />
    <glyph glyph-name="percent" unicode="%" horiz-adv-x="1821" 
d="M132 856q0 269 115 431q91 128 232 128q114 0 179.5 -79t65.5 -245q0 -227 -100.5 -383.5t-251.5 -156.5q-107 0 -173.5 78t-66.5 227zM300 729q0 -59 20 -84.5t56 -25.5t59 26q37 43 79 240.5t42 346.5q0 60 -22 88t-58 28q-33 0 -56 -27q-40 -45 -80 -231.5t-40 -360.5
zM423 -2q66 91 175 268l553 901q97 167 125 229q60 -8 91 -8l50 1q-75 -103 -174 -265l-554 -905q-97 -163 -124 -223l-78 4zM1113 289q0 269 115 431q91 128 232 128q114 0 179.5 -79t65.5 -245q0 -227 -100.5 -383.5t-251.5 -156.5q-107 0 -173.5 78t-66.5 227zM1281 162
q0 -59 20 -84.5t56 -25.5t59 26q37 43 79 240.5t42 346.5q0 60 -22 88t-58 28q-33 0 -56 -27q-40 -45 -80 -231.5t-40 -360.5z" />
    <glyph glyph-name="ampersand" unicode="&#x26;" horiz-adv-x="1706" 
d="M1529 1086q124 -59 124 -180q0 -72 -34 -131.5t-88 -87.5q-74 -40 -185 -51q-31 -3 -86 -15q61 -25 91 -70t30 -109q0 -194 -227.5 -331.5t-506.5 -137.5q-243 0 -374 110.5t-131 287.5q0 137 89 235q109 119 323 185q-88 14 -139.5 72t-51.5 148q0 101 67.5 177.5
t190 151.5t259.5 75q62 0 121 -13t114 -39q-34 -118 -41 -259h-62l-5 122q-43 41 -94 61t-109 20q-111 0 -178.5 -62.5t-67.5 -155.5q0 -97 65.5 -159t173.5 -62q20 0 51 4q-22 -76 -26 -118l-76 2q-72 3 -160.5 -27.5t-146 -111.5t-57.5 -191q0 -151 105.5 -246.5
t291.5 -95.5q185 0 296.5 92.5t111.5 219.5q0 85 -46.5 134.5t-119.5 49.5q-62 0 -98.5 -36.5t-54.5 -131.5h-50l20 220q56 53 117.5 78.5t186.5 43.5l192 26q140 19 191 60t51 95q0 73 -76 99v14z" />
    <glyph glyph-name="quotesingle" unicode="'" horiz-adv-x="512" 
d="M220 857l12 339q5 118 40.5 168.5t85.5 50.5q47 0 76.5 -33t29.5 -93q0 -51 -26 -130l-105 -322q-14 -42 -54 -42q-28 0 -44 17t-15 45z" />
    <glyph glyph-name="parenleft" unicode="(" horiz-adv-x="682" 
d="M468 -259q-183 210 -277 429q-75 175 -75 370q0 167 64 336t198 325q94 110 314 292l51 -50q-111 -104 -205 -267t-145 -360t-51 -413q0 -384 181 -619z" />
    <glyph glyph-name="parenright" unicode=")" horiz-adv-x="682" 
d="M-65 -210q82 65 185.5 232.5t160.5 376.5t57 423q0 219 -52 375t-129 254l57 42q164 -214 216 -312q70 -130 101.5 -248t31.5 -234q0 -160 -56.5 -320t-168.5 -302.5t-353 -335.5z" />
    <glyph glyph-name="asterisk" unicode="*" horiz-adv-x="909" 
d="M270 778q-35 69 -87 153l4 9q154 51 297 112q-121 62 -297 133l-3 14q56 70 91 151h18q123 -147 224 -243q14 99 34 298l10 10q48 -17 78 -23l105 -18l6 -14q-121 -196 -166 -283q205 34 298 60l18 -16q-3 -37 -3 -72q0 -31 3 -94l-14 -9q-221 61 -317 73l152 -266
l-5 -18q-88 -24 -161 -56l-16 10q-8 163 -26 309l-223 -222z" />
    <glyph glyph-name="plus" unicode="+" horiz-adv-x="1241" 
d="M111 601v187h416v416h187v-416h416v-187h-416v-417h-187v417h-416z" />
    <glyph glyph-name="comma" unicode="," horiz-adv-x="512" 
d="M-68 -343l-38 30q74 107 133 269.5t66 269.5l178 46q54 13 81 24l34 -30l-90 -175q-52 -93 -117 -185.5t-140 -178.5z" />
    <glyph glyph-name="hyphen" unicode="-" horiz-adv-x="797" 
d="M39 386l-10 19q56 89 101 209q185 -6 299 -6q122 0 283 6l11 -20q-53 -93 -105 -208q-154 5 -291 5q-143 0 -288 -5z" />
    <glyph glyph-name="hyphen" unicode="&#xad;" horiz-adv-x="797" 
d="M39 386l-10 19q56 89 101 209q185 -6 299 -6q122 0 283 6l11 -20q-53 -93 -105 -208q-154 5 -291 5q-143 0 -288 -5z" />
    <glyph glyph-name="period" unicode="." horiz-adv-x="512" 
d="M30 104q0 85 42.5 135t109.5 50q62 0 98.5 -37t36.5 -101q0 -79 -44 -128.5t-110 -49.5q-61 0 -97 36t-36 95z" />
    <glyph glyph-name="slash" unicode="/" horiz-adv-x="645" 
d="M-364 -257q65 90 174 268l766 1250q97 166 125 229q128 -8 152 -8l85 2q-76 -105 -174 -265l-767 -1255q-97 -165 -123 -223l-132 4z" />
    <glyph glyph-name="zero" unicode="0" horiz-adv-x="1024" 
d="M69 481q0 385 149 659.5t392 274.5q171 0 269.5 -126t98.5 -395t-89 -500t-221 -339q-100 -82 -239 -82q-176 0 -276 150q-84 125 -84 358zM309 265q0 -121 33 -167.5t91 -46.5t99 47q62 72 125 379q82 403 82 663q0 101 -36.5 149t-93.5 48q-54 0 -93 -45
q-70 -80 -127 -370q-80 -409 -80 -657z" />
    <glyph glyph-name="one" unicode="1" horiz-adv-x="1024" 
d="M29 -10l5 71h113q105 0 133 35q20 26 49 194l108 636q38 221 42 268q-18 -10 -130 -60l-243 -109l-19 15l33 136l105 28q189 51 318 104.5t183 89.5l37 -28l-175 -1006q-31 -183 -31 -227q0 -42 32 -59t166 -17h83l-11 -71q-333 10 -394 10q-228 0 -404 -10z" />
    <glyph glyph-name="two" unicode="2" horiz-adv-x="1024" 
d="M-32 -6l7 57q99 87 281 282q205 217 292.5 387t87.5 289t-56.5 178.5t-154.5 59.5q-60 0 -103 -20.5t-76 -62t-91 -166.5l-61 21l112 276q63 60 135.5 90t155.5 30q183 0 287 -98t104 -263q0 -116 -62 -232t-242 -288l-219 -211l-112 -105v-12l377 2q164 1 256 18l16 -15
q-13 -29 -29 -86q-27 -92 -36 -135q-209 10 -454 10z" />
    <glyph glyph-name="three" unicode="3" horiz-adv-x="1024" 
d="M20 60l58 330l68 -6q-5 -62 -5 -88q0 -126 57.5 -185.5t165.5 -59.5q138 0 214 116t76 277q0 135 -59 199t-170 64q-68 0 -146 -29l-11 11l32 105q33 -8 70 -8q148 0 227.5 77t79.5 201q0 93 -51 143t-143 50q-91 0 -152 -42t-113 -147l-58 24q57 108 111 227
q54 48 129 72t171 24q169 0 257.5 -76.5t88.5 -203.5q0 -132 -99.5 -224.5t-215.5 -129.5l-2 -9q159 -17 238 -98t79 -214q0 -126 -71.5 -239t-201.5 -180.5t-297 -67.5q-89 0 -161.5 19t-165.5 68z" />
    <glyph glyph-name="four" unicode="4" horiz-adv-x="1024" 
d="M189 -12l9 73h63q20 0 100 5q61 4 73 22q24 36 48 190l14 86l-356 -4h-148l8 76l143 228l174 257q106 152 164 225q128 158 147 188q107 13 250 67l25 -22q-20 -90 -53 -292l-95 -569l219 7l9 -7l-36 -160l-57 3q-65 3 -161 5l-7 -48q-24 -167 -24 -201q0 -29 18 -42.5
t66 -13.5h149l-12 -71q-192 10 -333 10q-280 0 -397 -12zM524 518l67 421l50 275l-293 -396q-39 -62 -103 -153q-64 -90 -87 -147h366z" />
    <glyph glyph-name="five" unicode="5" horiz-adv-x="1024" 
d="M17 68q32 114 53 304l61 -8q-2 -36 -2 -64q0 -115 64.5 -182t171.5 -67q119 0 198 105q99 134 99 334q0 134 -60 201t-168 67q-137 0 -219 -131l-64 27l70 375q20 111 35 215l19 131l10 8q71 -22 155.5 -33t181.5 -11q79 0 204 15q78 9 127 24l12 -19l-91 -184
q-172 -14 -288 -14q-95 0 -157 2t-92 6l-82 -406q121 103 286 103q118 0 202.5 -43t133 -126.5t48.5 -181.5q0 -145 -74 -272t-200 -198.5t-287 -71.5q-97 0 -176.5 21t-170.5 74z" />
    <glyph glyph-name="six" unicode="6" horiz-adv-x="1024" 
d="M910 1243l-17 -6q-70 70 -173 70q-85 0 -160 -55t-135 -187q-81 -180 -105 -360q97 96 162.5 126.5t146.5 30.5q136 0 221 -86.5t85 -243.5q0 -148 -66.5 -269t-218.5 -218q-112 -72 -242 -72q-170 0 -269 115.5t-99 352.5q0 221 82 429q98 248 296.5 396.5t376.5 148.5
q77 0 157 -29zM292 310q0 -128 47 -188.5t126 -60.5q61 0 105 37.5t78.5 144t34.5 245.5q0 132 -45 188.5t-125 56.5q-95 0 -148 -85q-73 -116 -73 -338z" />
    <glyph glyph-name="seven" unicode="7" horiz-adv-x="1024" 
d="M170 -6l-13 24l221 342l526 781q-335 4 -406 4q-194 0 -333 -13l-11 13q31 151 41 225l10 12q71 -5 175 -8l189 -4q85 0 550 2l-5 -75q-42 -50 -164 -253l-244 -428q-82 -149 -206 -405q-53 -109 -94 -217l-22 1l-147 5q-32 0 -67 -6z" />
    <glyph glyph-name="eight" unicode="8" horiz-adv-x="1024" 
d="M362 683l-31 19q-162 95 -162 279q0 162 139 287q164 147 345 147q139 0 222.5 -76.5t83.5 -196.5q0 -62 -23.5 -116.5t-74.5 -105t-197 -144.5q129 -67 184.5 -146t55.5 -180q0 -187 -150 -314q-191 -163 -375 -163q-160 0 -254 86.5t-94 227.5q0 81 37 150t121 136
q45 36 173 110zM603 811q104 76 152 154q36 58 36 137q0 103 -55 159t-150 56q-97 0 -160 -64t-63 -163q0 -76 41 -134.5t148 -116.5zM423 645q-105 -56 -164.5 -145.5t-59.5 -188.5q0 -111 64.5 -175t170.5 -64q119 0 187 77.5t68 189.5q0 80 -43 139.5t-167 133.5z" />
    <glyph glyph-name="nine" unicode="9" horiz-adv-x="1024" 
d="M110 7q-7 86 -54 211l47 23q78 -169 237 -169q122 0 205 109q105 139 173 501q-145 -166 -299 -166q-139 0 -224 91.5t-85 263.5q0 117 36.5 208t104.5 156q94 88 208 141q83 39 177 39q166 0 266.5 -117t100.5 -346q0 -265 -109.5 -497t-281 -357t-333.5 -125
q-38 0 -66 6zM362 917q0 -134 47.5 -193.5t126.5 -59.5q94 0 154.5 91.5t60.5 297.5q0 139 -47.5 201.5t-129.5 62.5q-108 0 -160 -108t-52 -292z" />
    <glyph glyph-name="colon" unicode=":" horiz-adv-x="512" 
d="M151 796q0 79 43.5 128t110.5 49q57 0 90 -33.5t33 -90.5q0 -80 -43 -127.5t-109 -47.5q-58 0 -91.5 32t-33.5 90zM32 87q0 87 44 138.5t109 51.5q58 0 91 -33.5t33 -93.5q0 -80 -42 -128.5t-109 -48.5q-59 0 -92.5 33t-33.5 81z" />
    <glyph glyph-name="semicolon" unicode=";" horiz-adv-x="512" 
d="M160 787q0 87 42.5 136.5t109.5 49.5q60 0 93.5 -32.5t33.5 -93.5q0 -80 -44 -127.5t-112 -47.5q-54 0 -88.5 33.5t-34.5 81.5zM-88 -344l-38 33q89 140 142.5 299t53.5 240q43 5 262 68l31 -30q-29 -65 -117 -218q-51 -89 -120 -184t-112 -140z" />
    <glyph glyph-name="semicolon" unicode="&#x37e;" horiz-adv-x="512" 
d="M160 787q0 87 42.5 136.5t109.5 49.5q60 0 93.5 -32.5t33.5 -93.5q0 -80 -44 -127.5t-112 -47.5q-54 0 -88.5 33.5t-34.5 81.5zM-88 -344l-38 33q89 140 142.5 299t53.5 240q43 5 262 68l31 -30q-29 -65 -117 -218q-51 -89 -120 -184t-112 -140z" />
    <glyph glyph-name="less" unicode="&#x3c;" horiz-adv-x="1241" 
d="M1130 350v-206l-1019 464v173l1019 464v-207l-761 -344z" />
    <glyph glyph-name="equal" unicode="=" horiz-adv-x="1241" 
d="M111 788v187h1019v-187h-1019zM111 414v187h1019v-187h-1019z" />
    <glyph glyph-name="greater" unicode="&#x3e;" horiz-adv-x="1241" 
d="M111 1038v207l1019 -464v-173l-1019 -464v206l761 344z" />
    <glyph glyph-name="question" unicode="?" horiz-adv-x="909" 
d="M413 377q-58 56 -71 83q-19 38 -19 79q0 46 29 99.5t115 140.5l45 46q87 88 119 148.5t32 115.5q0 75 -51.5 121.5t-137.5 46.5q-76 0 -124.5 -32t-81.5 -111l-22 -54l-67 9q53 121 87 259q81 50 143 68.5t135 18.5q176 0 273.5 -86t97.5 -223q0 -70 -25 -128.5
t-67 -100.5q-64 -64 -97 -86l-139 -98q-110 -77 -143 -118t-33 -77q0 -47 47 -85zM207 96q0 80 42 128t106 48q57 0 90.5 -34t33.5 -88q0 -79 -43 -128t-111 -49q-55 0 -86.5 32t-31.5 91z" />
    <glyph glyph-name="at" unicode="@" horiz-adv-x="1706" 
d="M1419 363h132q-60 -109 -116 -166q-101 -102 -228.5 -160t-275.5 -58q-201 0 -372 95t-264 254t-93 354q0 200 95 368t259 263.5t358 95.5q275 0 475 -179q173 -155 173 -391q0 -153 -61 -270t-183 -198.5t-211 -81.5q-59 0 -97 38t-51 130q-66 -88 -105 -115
q-60 -43 -132 -43q-106 0 -184 81.5t-78 204.5q0 117 59.5 221.5t162 168t202.5 63.5q67 0 109 -35t59 -106l32 123h195l-149 -556q-11 -38 -11 -52q0 -28 12 -42t31 -14q41 0 103 54q83 70 136.5 189.5t53.5 228.5q0 183 -153.5 323.5t-376.5 140.5q-176 0 -315.5 -77
t-219 -216.5t-79.5 -308.5q0 -166 78.5 -300.5t226 -214.5t325.5 -80q97 0 178.5 28.5t156 85.5t143.5 154zM1013 821q0 81 -28.5 118.5t-70.5 37.5q-47 0 -101 -48t-106 -181.5t-52 -238.5q0 -73 30 -111t71 -38q56 0 118.5 68t100.5 195.5t38 197.5z" />
    <glyph glyph-name="A" unicode="A" horiz-adv-x="1479" 
d="M-97 -10l3 69h39q40 0 67 10t44 33l80 136l529 904q112 191 149 263h197q13 -99 29 -206l138 -880q22 -143 32.5 -184.5t24.5 -53.5t56 -16l45 -5q23 -1 48 -1l1 -69q-122 10 -282 10q-205 0 -337 -10l1 69h39q69 0 99 12t30 49q0 62 -16 170l-34 252l-159 1l-297 -1
l-84 -150q-131 -237 -131 -284q0 -23 24 -33q38 -16 158 -16l-12 -69q-123 10 -242 10q-120 0 -239 -10zM788 1172l-310 -531l197 -2l195 2z" />
    <glyph glyph-name="B" unicode="B" horiz-adv-x="1366" 
d="M22 -10l11 69h24q47 0 90 20q19 8 28 40q16 53 49 250l88 525q49 297 49 378q0 29 -16 38q-31 17 -100 17h-72l11 68q109 -6 337 -6l346 6q167 0 252 -34t128.5 -97.5t43.5 -154.5q0 -127 -94 -224.5t-305 -147.5q200 -27 276 -101.5t76 -207.5q0 -114 -67 -212.5
t-201 -163t-292 -64.5l-402 12q-62 0 -260 -10zM551 766l94 -2q143 0 220 37.5t121 116.5t44 184q0 69 -29 115t-80.5 68t-167.5 22q-59 0 -114 -8l-40 -244zM440 103q171 -28 227 -28q101 0 161.5 36.5t102 123.5t41.5 192q0 126 -69.5 189t-226.5 63l-140 -2l-46 -273z
" />
    <glyph glyph-name="C" unicode="C" horiz-adv-x="1403" 
d="M1279 244l-24 -79q-165 -97 -237.5 -128t-155 -47.5t-172.5 -16.5q-272 0 -418 141.5t-146 403.5t109 454.5t326 317.5t453 125q115 0 218 -26.5t168 -66.5q-61 -198 -74 -335h-71q5 39 5 73q0 40 -8 126q-67 52 -144.5 76t-184.5 24q-171 0 -272.5 -69.5t-163.5 -230.5
q-79 -202 -79 -446q0 -221 103 -329.5t296 -108.5q106 0 207.5 34t242.5 126z" />
    <glyph glyph-name="D" unicode="D" horiz-adv-x="1593" 
d="M-3 -10l11 69q31 0 92 17q26 7 37.5 23t27.5 97q27 151 132 783q36 215 36 282q0 37 -22 47q-38 19 -177 19l11 68q102 -6 293 -6l464 6q231 0 357 -61.5t196.5 -183.5t70.5 -297q0 -236 -110 -436.5t-298.5 -312.5t-418.5 -112l-386 8q-155 0 -316 -10zM414 120l91 -15
q143 -25 227 -25q168 0 264 83q120 104 184.5 305.5t64.5 394.5q0 159 -52 259t-135.5 142.5t-264.5 42.5q-97 0 -184 -17l-65 -387l-67 -402z" />
    <glyph glyph-name="E" unicode="E" horiz-adv-x="1251" 
d="M-7 -10l11 69q105 14 123 31t43 139q10 50 80 469l69 414q20 119 20 159q0 27 -20 38q-32 18 -103 18h-74l11 68l118 -3l111 -4l368 4l330 1q78 0 126 -8l10 -8q-32 -157 -52 -314h-70l3 66l1 80q0 46 -29 56q-84 31 -293 31q-88 0 -168 -12l-85 -510l293 -8q38 0 178 8
l6 -13l-24 -97q-198 10 -389 10q-43 0 -81 -2l-94 -564q107 -14 215 -14q162 0 271 19q58 10 71 22q18 19 50 128l26 83h72l-32 -182q-17 -90 -24 -154l-15 -17q-46 -3 -95 -3l-783 14q-84 0 -175 -14z" />
    <glyph glyph-name="F" unicode="F" 
d="M-39 -10l11 69h76q72 0 90.5 32t69.5 336l75 452q53 318 53 394q0 30 -24.5 42t-127.5 12h-47l11 68l167 -3l182 -4l544 7q67 0 127 -8l7 -15q-35 -195 -44 -315h-72l1 131q0 41 -10 65q-56 41 -256 41q-75 0 -183 -10q-74 -428 -97 -582l188 -1q153 0 291 14l7 -13
l-26 -102l-349 5q-75 0 -128 -5l-45 -271q-26 -156 -26 -191q0 -43 28 -59t133 -16h46l-12 -70l-392 8q-113 0 -268 -11z" />
    <glyph glyph-name="G" unicode="G" horiz-adv-x="1593" 
d="M1316 94l-1 -7q-38 -7 -200 -54q-117 -34 -203 -47t-173 -13q-295 0 -450 146t-155 411q0 249 107.5 434t338 318t457.5 133q130 0 245 -22.5t180 -55.5l8 -14l-24 -90q-39 -143 -52 -242h-71q2 57 5 127l-1 71q-70 49 -158 73t-194 24q-183 0 -300 -74t-183 -231
q-85 -203 -85 -441q0 -236 106.5 -352t302.5 -116q129 0 236 45l39 165q29 127 29 178q0 27 -23.5 40.5t-101.5 13.5h-90l11 70q72 -3 354 -6l257 6l-12 -70h-32q-47 0 -75.5 -20.5t-38.5 -81.5l-17 -102l-33 -167z" />
    <glyph glyph-name="H" unicode="H" horiz-adv-x="1593" 
d="M-42 -10l11 69h61q83 0 104 29.5t57 242.5l106 635q39 238 39 301q0 32 -19 46t-70 14h-97l11 68l385 -7q55 0 256 7l-11 -68h-74q-70 0 -88 -28.5t-68 -304.5l-35 -209l75 1l325 -3l192 2l32 192q34 201 34 289q0 37 -30.5 49t-149.5 12l11 68q315 -9 383 -9
q129 0 256 9l-11 -68h-27q-97 0 -119 -15q-16 -11 -31 -63q-24 -83 -61 -308l-81 -482q-46 -277 -46 -335q0 -38 25.5 -47t137.5 -18h28l-12 -69q-170 10 -338 10q-165 0 -311 -10l11 69h32q112 0 132 28q25 36 73 324l46 276l-44 1h-255l-256 -2l-37 1l-28 -169
q-56 -341 -56 -395q0 -34 22 -46q33 -18 132 -18h26l-11 -69q-217 10 -281 10z" />
    <glyph glyph-name="I" unicode="I" horiz-adv-x="797" 
d="M-21 -10l11 69h62q57 0 78 8t31 19.5t19 43.5t40 213l86 501q58 348 58 422q0 32 -26 46.5t-116 14.5h-53l11 68q276 -7 327 -7l331 7l-12 -68h-25q-101 0 -123 -12.5t-33 -44.5q-16 -45 -46 -225l-113 -680q-31 -184 -31 -238q0 -36 26 -52t111 -16h60l-12 -69
q-233 10 -348 10q-139 0 -313 -10z" />
    <glyph glyph-name="J" unicode="J" horiz-adv-x="797" 
d="M-60 -406l-6 68q40 -12 72 -12q76 0 112 87q26 64 78 378l135 811q45 271 45 345q0 29 -20 39q-38 17 -145 17h-44l11 68q216 -7 388 -7q160 0 278 7l-12 -68h-35q-89 0 -109.5 -14t-34 -68.5t-61.5 -312.5l-105 -635q-41 -243 -53 -288q-34 -135 -98.5 -234t-147 -151
t-159.5 -52q-51 0 -89 22z" />
    <glyph glyph-name="K" unicode="K" horiz-adv-x="1479" 
d="M-9 -10l11 69h65q86 0 103.5 29t62.5 296l90 541q47 283 47 337q0 38 -20.5 51.5t-100.5 13.5h-68l11 68q131 -6 266 -6q72 0 381 6l-11 -68h-42q-106 0 -126.5 -28.5t-62.5 -287.5l-54 -323q86 53 278 240l101 97q177 171 249 259q28 35 27 76l6 35l216 -6q45 0 112 6
l-3 -68l-51 -7q-52 -7 -83.5 -22t-91.5 -66q-152 -130 -254 -225l-254 -238l399 -551q90 -125 112.5 -142t70.5 -17h43l-12 -69q-31 0 -164 8l-73 2q-62 0 -135 -10l-82 126l-168 238q-166 227 -245 321l-26 -160q-58 -344 -58 -383q0 -36 16.5 -47.5t102.5 -19.5l63 -6
l-11 -69l-375 10q-133 0 -262 -10z" />
    <glyph glyph-name="L" unicode="L" horiz-adv-x="1251" 
d="M-7 -10l11 69h45q69 0 91 43q13 23 82 413l63 383q21 124 33 236t12 138q0 30 -18.5 42.5t-73.5 12.5h-96l11 68q271 -6 375 -6q129 0 287 6l-12 -68h-56q-88 0 -109.5 -16.5t-34.5 -79.5q-10 -47 -59 -340l-131 -787q156 -9 240 -9q241 0 307 31q30 14 65 130l35 102h73
q-57 -251 -70 -368q-248 0 -406 4l-292 6q-250 0 -372 -10z" />
    <glyph glyph-name="M" unicode="M" horiz-adv-x="1933" 
d="M-70 -9l11 68h37q71 0 94 40.5t117 404.5l139 540q44 170 44 207t-28.5 56.5t-93.5 19.5h-81l11 68q63 -4 275 -4q130 0 177 4q22 -93 92 -357l180 -678l284 465l337 570q200 -4 252 -4q85 0 216 4l-12 -68h-46q-79 0 -102.5 -30.5t-53.5 -211.5l-126 -761
q-26 -151 -26 -200q0 -37 21.5 -51t97.5 -14h61l-11 -68l-334 9q-59 0 -295 -9l11 68h53q87 0 109 33.5t62 285.5l126 812l-326 -527q-180 -291 -305 -521l-97 -177h-54l-145 553l-158 600l-199 -826q-28 -128 -28 -175q0 -29 21.5 -43.5t79.5 -14.5h75l-11 -68
q-206 9 -241 9q-68 0 -210 -9z" />
    <glyph glyph-name="N" unicode="N" horiz-adv-x="1593" 
d="M-35 -9l11 68h51q56 0 76 12t31 35q16 33 55 230l64 336l90 542q-43 72 -76 92.5t-101 20.5h-75l12 68q135 -7 246 -7q102 0 195 7q16 -26 80 -140q39 -69 69 -117l505 -849l62 370q89 535 89 611q0 29 -19.5 43t-69.5 14h-91l11 68q153 -7 271 -7q112 0 212 7l-11 -68
h-70q-58 0 -77.5 -23t-59.5 -214q-65 -310 -164 -907q-22 -130 -31 -199h-178l-166 290l-481 818l-64 -382q-83 -502 -83 -588q0 -33 18.5 -48t67.5 -15h90l-12 -68q-156 9 -254 9q-104 0 -223 -9z" />
    <glyph glyph-name="O" unicode="O" horiz-adv-x="1706" 
d="M128 536q0 266 107 466t291.5 306.5t436.5 106.5q302 0 468 -155t166 -423q0 -234 -116 -439.5t-304 -315t-434 -109.5q-294 0 -454.5 150.5t-160.5 412.5zM411 475q0 -140 44 -228t133.5 -137t208.5 -49q147 0 250.5 80t185 295.5t81.5 468.5q0 212 -98.5 317
t-280.5 105q-158 0 -263.5 -79.5t-183 -288.5t-77.5 -484z" />
    <glyph glyph-name="P" unicode="P" horiz-adv-x="1366" 
d="M-17 -10l11 69h69q88 0 105 33q23 41 83 400l88 530q29 172 29 232q0 42 -23 57.5t-104 15.5h-78l11 68l291 -6l465 10q224 0 315.5 -93.5t91.5 -248.5q0 -200 -149 -342t-369 -142q-77 0 -191 39l-7 71q93 -33 155 -33q72 0 137.5 45.5t108 139t42.5 207.5
q0 133 -66.5 200t-195.5 67q-91 0 -157 -15l-69 -412l-81 -484q-36 -218 -36 -273q0 -34 22 -46q38 -20 131 -20h58l-11 -69q-280 11 -338 11z" />
    <glyph glyph-name="Q" unicode="Q" horiz-adv-x="1706" 
d="M134 526q0 406 230.5 647.5t602.5 241.5q302 0 468.5 -154t166.5 -422q0 -310 -193 -556q-244 -310 -655 -310q-198 0 -337.5 68.5t-211 190.5t-71.5 294zM417 463q0 -193 101.5 -297.5t276.5 -104.5q154 0 257.5 79t185.5 295t82 474q0 211 -99 314.5t-283 103.5
q-155 0 -260.5 -80.5t-183 -292.5t-77.5 -491zM290 -327l-1 27q0 116 76 193t189 77q52 0 119 -18t208 -79q273 -119 333.5 -143.5t107.5 -24.5q67 0 109 43.5t67 155.5l63 -21q-40 -178 -119.5 -262t-176.5 -84q-111 0 -278 95l-223 124q-171 95 -255 95q-46 0 -80.5 -22
t-52.5 -59.5t-25 -126.5z" />
    <glyph glyph-name="R" unicode="R" horiz-adv-x="1479" 
d="M-35 -10l11 69h59q72 0 92.5 19t45.5 149l65 397l85 510q15 87 15 131q0 32 -22 47t-85 15h-82l11 68q107 -6 334 -6l397 8q161 0 237.5 -33t122 -102t45.5 -159q0 -139 -99 -238.5t-320 -141.5l140 -228l133 -224q92 -156 122 -184t85 -28h35l-12 -69q-116 10 -204 10
q-82 0 -165 -10l-32 60q-45 88 -89 164l-136 235q-64 110 -171 274l5 33l73 -2q161 0 261.5 82.5t100.5 247.5q0 113 -61 168t-199 55q-55 0 -153 -16l-63 -378l-95 -568q-29 -174 -29 -221q0 -35 24.5 -50t109.5 -15h56l-11 -69l-339 11q-68 0 -298 -11z" />
    <glyph glyph-name="S" unicode="S" 
d="M63 75q30 138 52 310h66l-3 -110l1 -64q46 -55 132.5 -92t182.5 -37q145 0 223 76.5t78 207.5q0 89 -45 133q-46 43 -203 78q-233 52 -299 133q-66 80 -66 214q0 199 159 345t393 146q89 0 167.5 -21t145.5 -63q-38 -169 -50 -301h-69l3 106l-1 58q-37 50 -107.5 81.5
t-161.5 31.5q-134 0 -209 -71.5t-75 -195.5q0 -70 31 -120t87 -70q83 -29 193 -53q209 -47 266 -119t57 -191q0 -198 -171.5 -356t-413.5 -158q-108 0 -198.5 25.5t-164.5 76.5z" />
    <glyph glyph-name="T" unicode="T" horiz-adv-x="1251" 
d="M188 -10l11 69h83q65 0 83.5 13t28 48t46.5 242l154 924h-102q-190 0 -250 -24q-44 -18 -65 -144l-13 -80h-78q32 176 50 355l11 9l421 -9h284q333 0 478 9l15 -9l-20 -104q-29 -154 -39 -251h-76q8 104 8 162q0 57 -26.5 71.5t-167.5 14.5h-170l-164 -986
q-22 -133 -22 -179q0 -33 21.5 -47.5t91.5 -14.5h84l-11 -69q-224 10 -361 10q-149 0 -305 -10z" />
    <glyph glyph-name="U" unicode="U" horiz-adv-x="1593" 
d="M1469 59l-11 -69q-110 10 -290 10q-76 0 -165 -7l-14 12q3 18 17 75q23 97 33 179q-154 -162 -289 -236q-91 -50 -210 -50q-165 0 -265 94t-100 235q0 66 18 175l53 315q68 412 68 474q0 33 -19.5 47t-79.5 14h-83l12 68l312 -4q85 0 151 4l11 -14q-48 -203 -83 -412
l-60 -362q-38 -229 -38 -276q0 -84 60 -137t163 -53q69 0 145 32t151.5 100t86 92t44.5 231l72 431q32 193 32 246q0 27 -23 40.5t-94 13.5h-76l12 68q172 -7 276 -7l369 7l-11 -68h-55q-88 0 -106 -32q-26 -45 -78 -354l-79 -477q-46 -272 -46 -332q0 -37 28.5 -55
t104.5 -18h56z" />
    <glyph glyph-name="V" unicode="V" horiz-adv-x="1366" 
d="M514 -10q-21 145 -79 496q-30 180 -85 481.5t-62 319.5t-25 29t-65 11h-70v68q139 -7 280 -7q160 0 327 7v-68h-75q-49 0 -67.5 -14t-18.5 -50q0 -57 25 -211l61 -368q45 -274 70 -404l228 426q157 291 253 509q25 56 25 68q0 22 -16.5 33t-73.5 11h-84l11 68
q129 -6 227 -6q95 0 224 6l-11 -68h-36q-43 0 -67 -21q-15 -15 -76 -125l-495 -901l-157 -290h-168z" />
    <glyph glyph-name="W" unicode="W" horiz-adv-x="2048" 
d="M409 -10l-85 843q-19 182 -49 384q-11 75 -31 92.5t-86 17.5h-53l11 68q174 -5 310 -5t286 5l-1 -68h-52q-75 0 -95 -15t-20 -60q0 -66 50 -568l37 -376l304 633l225 476h65q10 -26 50 -171l86 -320l177 -646l266 699q40 105 73 226q14 52 14 72q0 25 -22.5 37.5
t-90.5 12.5h-65l11 68q201 -6 257 -6q84 0 194 6l-12 -68h-25q-64 0 -84 -30.5t-185 -444.5l-223 -554q-80 -200 -118 -308h-173q-24 102 -63 242l-216 778l-498 -1020h-169z" />
    <glyph glyph-name="X" unicode="X" horiz-adv-x="1479" 
d="M-59 -10l11 69h51q77 0 114 34l234 258l189 204l99 106l-207 395q-113 215 -142.5 243t-103.5 28h-74l12 68q134 -6 342 -6q193 0 313 6v-68h-46q-71 0 -93.5 -10.5t-22.5 -29.5t10 -44q19 -46 75 -154l123 -236l159 182q190 218 190 251q0 17 -20 29t-74 12h-79l4 68
q133 -7 266 -7q135 0 272 7l-11 -68h-35q-77 0 -117 -31q-64 -48 -308 -312l-199 -215l193 -374q150 -291 171 -313.5t106 -22.5h41l-11 -69q-160 10 -305 10t-324 -10l3 69h83q50 0 66.5 12t16.5 35q0 31 -51 129l-175 339l-134 -153q-44 -45 -156 -182q-64 -78 -74 -98.5
t-10 -30.5q0 -25 21 -38t88 -13h71l-3 -69q-155 10 -284 10q-131 0 -265 -10z" />
    <glyph glyph-name="Y" unicode="Y" horiz-adv-x="1251" 
d="M226 -10l12 71h80q60 0 84 13.5t33 41.5q17 85 26 140q35 212 35 248q0 81 -101 392q-73 227 -141 300q-38 41 -88 41q-38 0 -114 -34v67q54 37 92 69l90 75q28 5 55 5q81 0 145 -47t114 -167q71 -170 126 -427l36 -162q117 281 252.5 477.5t231.5 261.5q65 45 133 46
l-10 -186q-77 -14 -148 -70q-105 -84 -208.5 -247t-160.5 -306q-38 -92 -70 -287l-15 -86q-10 -62 -10 -91q0 -36 25 -51.5t105 -15.5h79l-12 -71q-141 11 -258 11q-160 0 -418 -11z" />
    <glyph glyph-name="Z" unicode="Z" horiz-adv-x="1366" 
d="M8 -5l-4 59q71 69 341 409l653 823h-258q-331 0 -398 -25q-29 -11 -83 -216h-77l20 98q28 145 38 245l11 9l604 -9h516v-56q-83 -87 -425 -519l-558 -706l315 -3q305 0 435 35q55 96 89 232h75q-45 -185 -77 -371l-9 -5q-242 5 -512 5h-490z" />
    <glyph glyph-name="bracketleft" unicode="[" horiz-adv-x="682" 
d="M-15 -252l-13 13l55 311q27 157 59 376l57 389l37 289l42 344l13 14q82 -6 255 -6q131 0 195 9l-9 -74h-99q-67 0 -101 -9q-18 -5 -27.5 -16.5t-24.5 -99.5q-24 -131 -58 -343l-43 -286l-47 -343q-48 -344 -48 -435q0 -33 23 -45q36 -18 138 -18h77l-11 -72q-69 9 -183 9
q-234 0 -287 -7z" />
    <glyph glyph-name="backslash" unicode="\" horiz-adv-x="1241" 
d="M973 -257l-125 2q-22 0 -114 -4q-17 107 -49 222l-339 1252q-41 149 -86 265l115 -1q26 0 124 8q9 -87 49 -229l339 -1247q38 -136 86 -268z" />
    <glyph glyph-name="bracketright" unicode="]" horiz-adv-x="682" 
d="M-7 -253l9 74l87 -3q82 -3 126 13q8 3 15.5 12t16.5 49q13 57 53 324l101 705q46 334 46 421q0 44 -29 59t-141 13l-69 -2l11 74q90 -5 245 -5q145 0 225 5l15 -14q-19 -82 -60 -329l-110 -746q-14 -101 -51 -391l-28 -247l-11 -11l-223 4z" />
    <glyph glyph-name="asciicircum" unicode="^" horiz-adv-x="1241" 
d="M360 573h-219l405 816h209l406 -816h-219l-291 565z" />
    <glyph glyph-name="underscore" unicode="_" horiz-adv-x="1024" 
d="M-12 -154h1048v-102h-1048v102z" />
    <glyph glyph-name="grave" unicode="`" horiz-adv-x="682" 
d="M681 1061h-81l-247 175q-60 42 -74 62t-14 46q0 34 23.5 56.5t60.5 22.5q33 0 58 -16.5t75 -82.5z" />
    <glyph glyph-name="a" unicode="a" 
d="M1032 239l21 -65q-249 -201 -349 -201q-33 0 -49 21q-23 29 -23 72q0 60 70 338l18 71q-122 -192 -169 -249q-78 -96 -147.5 -152t-138.5 -84q-41 -17 -70 -17q-54 0 -85 41t-31 137q0 115 43.5 276t92.5 249q26 46 110 112q160 126 225.5 155t142.5 29q55 0 109 -12.5
t106 -37.5l93 51l33 -21q-8 -19 -21 -62l-38 -134l-113 -481q-15 -63 -15 -97q0 -35 24 -35q43 0 161 96zM770 820q-45 22 -86.5 33t-80.5 11q-69 0 -117.5 -46.5t-105.5 -234.5q-76 -249 -76 -372q0 -35 12 -52.5t28 -17.5q15 0 41 17q67 45 156 158.5t147 236t73 217.5z
" />
    <glyph glyph-name="b" unicode="b" horiz-adv-x="1100" 
d="M128 1341l14 60q289 42 406 92l23 -19q-8 -32 -40 -178l-142 -650q91 123 173 190.5t170 101.5t161 34q63 0 96 -48q44 -65 44 -190q0 -196 -84 -376q-67 -143 -210 -243q-202 -142 -379 -142q-128 0 -191 58q-62 54 -62 166q0 55 26 201l82 443q76 407 76 455
q0 24 -17.5 34.5t-71.5 10.5h-74zM332 240q0 -82 40 -125t104 -43q61 0 120 53q79 71 138.5 236t59.5 313q0 83 -23.5 119.5t-56.5 36.5q-64 0 -159.5 -77.5t-159 -220.5t-63.5 -292z" />
    <glyph glyph-name="c" unicode="c" horiz-adv-x="909" 
d="M817 255l23 -65q-203 -136 -305.5 -176.5t-185.5 -40.5q-126 0 -197 72.5t-71 204.5q0 119 37.5 251t85 200t146.5 128l176 105q79 38 173 38q47 0 101.5 -12.5t116.5 -38.5q-42 -104 -73 -288h-69q11 76 11 105l-2 32q-42 37 -89 55.5t-99 18.5q-77 0 -122 -39
q-62 -55 -96 -173q-57 -199 -57 -336q0 -92 42.5 -143t111.5 -51q67 0 162.5 41t179.5 112z" />
    <glyph glyph-name="d" unicode="d" 
d="M1061 237l18 -60l-183 -134q-66 -43 -112 -59q-30 -11 -55 -11q-35 0 -58 27t-23 73q0 27 5 54q23 115 45 197l44 161q-127 -241 -310 -394q-140 -118 -227 -118q-55 0 -90.5 50t-35.5 162q0 115 38 260t98 251q34 61 85 98q153 112 246 152q66 29 144 29q51 0 130 -22
l34 218q17 108 17 123q0 24 -19 36t-76 12q-33 0 -79 -1l12 60q184 4 420 92l27 -19q-34 -126 -73 -309l-172 -820q-24 -114 -24 -168q0 -34 22 -34q27 0 152 94zM794 833q-75 44 -172 44q-87 0 -122 -34q-50 -48 -116 -262.5t-66 -376.5q0 -33 11.5 -48t29.5 -15
q21 0 56 22q60 36 130 124q93 116 150 233t80 225z" />
    <glyph glyph-name="e" unicode="e" horiz-adv-x="909" 
d="M795 242l22 -55l-170 -108q-106 -59 -179.5 -82.5t-133.5 -23.5q-122 0 -188.5 64t-66.5 184q0 140 59 326q42 132 113.5 209t243.5 166q97 50 196 50q91 0 143 -45.5t52 -119.5q0 -90 -51.5 -166.5t-183.5 -140t-326 -94.5q-21 -72 -21 -136q0 -80 40.5 -119.5
t115.5 -39.5q57 0 146.5 33t188.5 98zM333 461q155 42 216 81t101.5 110.5t40.5 127.5q0 43 -26.5 69t-71.5 26q-49 0 -94 -32t-83 -112.5t-83 -269.5z" />
    <glyph glyph-name="f" unicode="f" horiz-adv-x="682" 
d="M51 828l10 52q37 13 102 31q66 19 107 37l13 54q24 105 61.5 159.5t173 164t211.5 148.5q42 21 105 21q53 0 88 -16q-44 -141 -60 -257l-30 -7q-77 124 -152 124q-40 0 -70.5 -32t-53.5 -130q-45 -188 -55 -245h26q38 0 147 7q54 4 83 9l10 -16q-25 -66 -33 -104l-122 2
l-134 -2l-70 -299q-121 -512 -207.5 -701t-248.5 -317q-104 -81 -180 -81q-35 0 -76 18q58 152 69 221l32 6q37 -87 103 -87q24 0 46.5 13.5t39.5 45t48 159.5l54 250l156 772l-96 2z" />
    <glyph glyph-name="g" unicode="g" horiz-adv-x="1024" 
d="M289 27q-53 48 -53 98q0 40 31 60l79 46q53 31 84 56l-43 -2q-79 0 -154 37q-56 27 -87 80t-31 134q0 101 45.5 188t105 128t211.5 96q69 24 129 24q84 0 142 -25q35 -15 63 -19.5t74 -4.5l198 7l10 -16l-24 -105q-59 11 -152 11l-26 -2q21 -54 21 -111q0 -82 -36.5 -165
t-88 -127t-179.5 -94q-90 -34 -118.5 -59.5t-28.5 -46.5q0 -19 15 -36q21 -25 80 -67l133 -96q87 -62 120 -114.5t33 -117.5q0 -140 -125 -233q-155 -114 -401 -114q-217 0 -321.5 74t-104.5 182q0 69 50.5 138.5t145.5 117.5q46 23 203 78zM320 542q0 -96 40.5 -141
t115.5 -45q59 0 106 36.5t81 124t34 188.5q0 92 -41 136t-115 44q-105 0 -163 -107t-58 -236zM333 -11l-101 -46q-59 -32 -94 -63t-53.5 -71.5t-18.5 -86.5q0 -88 76.5 -147.5t209.5 -59.5q130 0 202.5 57.5t72.5 137.5q0 44 -31.5 83.5t-171.5 134.5z" />
    <glyph glyph-name="h" unicode="h" 
d="M81 -27l-20 17q59 190 109 423l30 142q39 181 119 609q18 98 18 121q0 32 -21 44t-95 12h-53l10 60q90 6 205 32t206 60l21 -18q-49 -186 -100 -413l-122 -547q158 234 319 345.5t257 111.5q43 0 63 -20.5t20 -66.5q0 -38 -10 -88q-5 -23 -56 -205l-39 -140
q-63 -227 -63 -259q0 -19 11.5 -32t26.5 -13q14 0 39 15q76 43 109 72l23 -55q-280 -207 -366 -207q-40 0 -60 24.5t-20 76.5q0 48 16 116l68 252l26 92q16 61 40 183q4 23 4 31q0 17 -10.5 27.5t-27.5 10.5q-51 0 -131 -68q-124 -105 -213.5 -287.5t-120.5 -419.5
q-95 -7 -212 -38z" />
    <glyph glyph-name="i" unicode="i" horiz-adv-x="682" 
d="M405 1270q0 76 40 120t102 44q49 0 79.5 -30.5t30.5 -80.5q0 -70 -39.5 -115t-101.5 -45q-50 0 -80.5 30.5t-30.5 76.5zM86 668l-24 54q242 176 307 209q84 42 126 42q27 0 45 -20.5t18 -57.5q0 -71 -65 -292l-32 -108q-75 -250 -75 -316q0 -34 28 -34q26 0 171 96
l27 -53l-207 -138q-83 -52 -125 -66q-29 -11 -54 -11q-38 0 -58.5 25.5t-20.5 82.5q0 75 32 192l67 238q50 179 50 233q0 26 -23 26q-16 0 -48 -16q-78 -40 -139 -86z" />
    <glyph glyph-name="j" unicode="j" horiz-adv-x="682" 
d="M421 1270q0 77 39.5 120.5t100.5 43.5q50 0 80 -30.5t30 -81.5q0 -71 -39.5 -116t-100.5 -45q-50 0 -80 31t-30 78zM-155 -562q24 81 33 162l29 6l8 -12q42 -61 86 -61q41 0 62 46q32 71 125 520l86 414q36 178 36 224q0 36 -23 36q-14 0 -50 -19q-67 -35 -143 -92
l-26 55q253 182 329 219t121 37q25 0 39.5 -19t14.5 -57q0 -50 -28 -167l-79 -335l-69 -270q-61 -236 -107.5 -345t-131 -207t-132 -123t-96.5 -25q-31 0 -84 13z" />
    <glyph glyph-name="k" unicode="k" 
d="M92 -27l-16 27q75 246 153 629l42 205q76 372 76 462q0 26 -21 35.5t-108 9.5h-42l18 60q103 8 218.5 34t195.5 58l23 -21l-136 -599l-93 -413l78 91q221 261 360 353q103 68 210 68q27 0 58 -4v-11l-27 -96q-9 -33 -12 -55l-11 -8q-60 27 -96 27q-66 0 -146.5 -42.5
t-151.5 -125.5q21 -66 92.5 -260t116.5 -245q19 -21 39 -21q47 0 153 76l21 -59l-178 -111q-75 -42 -121 -57q-21 -7 -38 -7q-33 0 -59 32q-37 44 -95 197l-39 103l-61 174l-49 -52q-59 -64 -77 -139q-40 -164 -47 -276q-97 -3 -230 -39z" />
    <glyph glyph-name="l" unicode="l" horiz-adv-x="682" 
d="M591 243l30 -54l-179 -122q-107 -65 -147 -79.5t-66 -14.5q-31 0 -51 28t-20 87q0 88 35 232l129 536q31 125 66 310q18 113 18 133t-18 29q-25 13 -94 13h-58l9 60q216 24 414 92l24 -22l-71 -290l-143 -608q-71 -305 -71 -379q0 -25 7.5 -36t19.5 -11q15 0 44 17
q75 40 122 79z" />
    <glyph glyph-name="m" unicode="m" horiz-adv-x="1706" 
d="M100 -27l-20 27l24 77q22 67 56 195q48 177 77 338q16 90 16 119q0 30 -8 46q-6 9 -17 9q-38 0 -156 -101l-30 51q171 131 217 162q69 47 117 64q34 13 55 13q27 0 44 -17t17 -45t-12 -85q-31 -148 -45 -192l-41 -178q130 225 274 352q186 164 296 164q33 0 53 -21
t20 -60q0 -40 -19 -125l-85 -310q96 179 206 292.5t215.5 168.5t171.5 55q35 0 54.5 -24.5t19.5 -78.5q0 -52 -47 -225l-42 -151q-21 -74 -48 -221q-15 -83 -15 -99q0 -36 23 -36q13 0 33 13q75 45 122 84l27 -50l-171 -122q-79 -51 -130.5 -70t-78.5 -19q-33 0 -54.5 23.5
t-21.5 67.5q0 38 19 120l114 436q19 82 19 110q0 23 -9 34.5t-24 11.5q-22 0 -50 -15q-57 -30 -132 -110.5t-130 -178.5t-98.5 -244t-49.5 -228q-68 0 -213 -27l-24 27q23 58 94 289q34 104 72 293q27 135 27 177q0 23 -10 35t-27 12q-35 0 -93 -46q-90 -72 -196 -245
q-78 -127 -118 -276.5t-46 -229.5q-92 0 -222 -36z" />
    <glyph glyph-name="n" unicode="n" 
d="M91 -27l-25 26q21 54 35 99l67 229q34 121 56.5 250.5t22.5 168.5q0 30 -23 30q-13 0 -43 -16q-61 -32 -108 -70l-26 54l151 114q100 71 164 99q36 15 68 15q28 0 42.5 -14.5t14.5 -46.5q0 -28 -8 -71q-22 -114 -48 -210l-41 -150q79 129 106 162q82 101 177.5 182.5
t180.5 120.5q59 27 104 27q42 0 64 -24t22 -69q0 -66 -61 -282l-51 -183q-41 -148 -41 -231q0 -38 23 -38q17 0 50 19q64 37 99 71l25 -59q-177 -127 -239 -159q-83 -44 -136 -44q-37 0 -55 24t-18 84q0 65 40 203l32 111q43 148 53 196q27 116 27 149q0 18 -10.5 28
t-28.5 10q-50 0 -136 -86q-119 -119 -196.5 -288t-110.5 -392q-127 -10 -219 -39z" />
    <glyph glyph-name="o" unicode="o" 
d="M97 279q0 200 89 387q52 110 209.5 208t307.5 98q114 0 190 -36.5t112 -103t36 -175.5q0 -137 -50.5 -274.5t-116.5 -204.5q-86 -86 -237 -156q-106 -49 -223 -49q-162 0 -239.5 76.5t-77.5 229.5zM337 301q0 -125 46 -178t139 -53q65 0 115 45q66 60 115.5 220.5
t49.5 325.5q0 114 -48 169t-129 55q-71 0 -128 -50t-100 -190q-60 -198 -60 -344z" />
    <glyph glyph-name="p" unicode="p" 
d="M-18 -559l-21 16q53 184 88 323q32 120 109 448q94 402 94 517q0 33 -26 33q-32 0 -152 -84l-27 51q203 151 280.5 189t123.5 38q24 0 38 -16.5t14 -45.5q0 -21 -6 -53l-47 -201l-28 -108q138 206 270 304q163 120 273 120q50 0 74 -41q44 -73 44 -183q0 -126 -47 -275
t-102.5 -224t-151 -137.5t-190.5 -107.5q-63 -31 -161 -31q-52 0 -109 14l-27 -94q-18 -62 -54 -221q-11 -50 -16.5 -91t-6.5 -97q-133 -9 -236 -43zM343 128q117 -56 195 -56q69 0 115 43q62 59 126 247t64 347q0 62 -13 83t-37 21q-49 0 -121 -54q-108 -81 -189 -224
t-125 -337z" />
    <glyph glyph-name="q" unicode="q" horiz-adv-x="1100" 
d="M461 -559l-19 37q44 34 54 64q21 63 75 295l133 567q-86 -131 -194.5 -235t-221.5 -162q-67 -34 -119 -34q-45 0 -73.5 42t-28.5 134q0 107 43 264t98 252q29 51 113 117q166 129 247 166q52 24 125 24q60 0 118.5 -13.5t115.5 -40.5l96 55l37 -18q-42 -83 -145 -555
l-80 -365l-98 -457q-7 -38 -7 -62l2 -34q-63 0 -271 -41zM788 820q-37 22 -78.5 33t-86.5 11q-67 0 -104.5 -22.5t-67.5 -82.5q-58 -115 -106.5 -299t-48.5 -255q0 -32 14 -49.5t33 -17.5q51 0 130 74q105 98 186.5 227t120.5 339z" />
    <glyph glyph-name="r" unicode="r" horiz-adv-x="797" 
d="M118 -27l-22 23q55 178 101 370q24 100 44 232q13 89 13 134q0 27 -6 37t-16 10q-15 0 -46 -17q-51 -28 -108 -76l-24 55q291 231 377 231q25 0 41.5 -19.5t16.5 -54.5q0 -55 -73 -341l-13 -53h13q74 171 152.5 288.5t135.5 153.5q42 26 100 26q28 0 55 -9
q-41 -131 -46 -277l-23 -14q-49 43 -106 43q-91 0 -165 -121q-128 -207 -181 -581q-128 -15 -220 -40z" />
    <glyph glyph-name="s" unicode="s" horiz-adv-x="909" 
d="M36 29q36 138 45 268h62l3 -97q43 -52 114 -85.5t144 -33.5q92 0 139.5 42t47.5 111q0 53 -32 88t-109 51l-86 18q-121 25 -165 66q-67 62 -67 162q0 119 82 188q194 165 378 165q58 0 117 -14.5t119 -44.5q-25 -106 -40 -241h-60l-11 99q-60 52 -115 72.5t-113 20.5
q-74 0 -118.5 -40.5t-44.5 -102.5q0 -61 43 -97q42 -37 161 -57l56 -9q105 -18 158 -76q52 -58 52 -146q0 -90 -62 -161t-172.5 -136.5t-250.5 -65.5q-66 0 -117.5 10t-157.5 46z" />
    <glyph glyph-name="t" unicode="t" horiz-adv-x="797" 
d="M688 270l24 -56l-150 -110q-116 -79 -177 -105t-101 -26q-51 0 -82 34t-31 96q0 33 8.5 77t83.5 372q49 215 59 273h-222l14 55q96 21 236 69q36 198 37 281q107 28 252 80l21 -24q-51 -176 -94 -354h103q112 0 175 8l8 -8l-14 -51q-10 -34 -13 -64q-88 8 -175 8h-107
q-34 -116 -89 -379q-43 -204 -43 -252q0 -26 14 -40.5t35 -14.5q30 0 74 24q85 46 154 107z" />
    <glyph glyph-name="u" unicode="u" 
d="M84 710l-24 57q135 97 236 151t154 54q34 0 51 -18t17 -61q0 -52 -36 -183l-59 -218q-33 -123 -55 -235q-10 -49 -10 -72q0 -22 9.5 -33t25.5 -11q21 0 54 21q52 34 132 133.5t138.5 222t86 236t32.5 178.5q103 4 221 41l17 -20q-51 -155 -117 -398q-79 -294 -79 -371
q0 -35 30 -35q12 0 38 14q61 34 111 75l20 -57l-182 -131q-75 -49 -113.5 -63t-65.5 -14q-30 0 -47.5 21.5t-17.5 62.5q0 50 35 181l58 219q-122 -220 -310 -374q-135 -110 -221 -110q-44 0 -69 29.5t-25 94.5q0 35 7 69q8 45 43 170l29 107q67 245 67 305q0 20 -8 30.5
t-21 10.5q-30 0 -152 -79z" />
    <glyph glyph-name="v" unicode="v" 
d="M45 691l88 269q79 14 141 14q42 0 77 -4l75 -8q34 -4 57 -4q115 0 165 29l28 -39q-70 -76 -137.5 -196.5t-100 -237t-32.5 -215.5t37.5 -148t97.5 -49q73 0 138 56q92 79 159.5 244.5t67.5 301.5q0 59 -23 88t-62 29q-34 0 -70 -29l-21 43q40 29 81 71.5t56 65.5
q22 7 45 7q71 0 109.5 -47.5t38.5 -151.5q0 -173 -111 -381.5t-256 -317t-267 -108.5q-111 0 -178 74t-67 210q0 89 27 171t86.5 165t231.5 256q-73 -18 -133 -18l-113 1q-61 0 -105 -5q-46 -76 -70 -138z" />
    <glyph glyph-name="w" unicode="w" horiz-adv-x="1706" 
d="M38 690q16 54 46 129q35 89 37 142q71 12 100 12q57 0 105 -4l84 -8q37 -3 66 -3q116 0 173 22l29 -32q-139 -153 -212.5 -326.5t-73.5 -322.5q0 -105 31 -151t76 -46q71 0 160 114q127 161 185 413t58 297q100 19 220 54l26 -19q-23 -70 -85 -317q-59 -237 -59 -381
q0 -79 33 -120t84 -41q59 0 126 60q101 90 168 246.5t67 297.5q0 60 -26.5 90.5t-69.5 30.5q-33 0 -69 -25l-24 47q65 35 145 118q32 8 53 8q62 0 103.5 -51t41.5 -148q0 -171 -111.5 -372.5t-281.5 -328.5q-135 -102 -250 -102q-84 0 -138.5 58.5t-54.5 155.5q0 71 19 174
l-23 -39q-61 -104 -107 -158q-91 -104 -168 -147.5t-142 -43.5q-93 0 -152.5 72t-59.5 205q0 89 28.5 173.5t87.5 166.5t236 259q-67 -19 -172 -19h-69q-55 0 -113 -7l-65 -136z" />
    <glyph glyph-name="x" unicode="x" horiz-adv-x="1024" 
d="M-18 0q34 88 37 211l50 4q16 -85 68 -85q49 0 121.5 71.5t168.5 214.5q-43 282 -71.5 329.5t-84.5 47.5q-37 0 -77 -25t-67 -70l-47 26l59 93q42 65 64 116q44 20 84 29.5t75 9.5q88 0 142.5 -59.5t84.5 -235.5l9 -51q157 229 227.5 287t141.5 58q29 0 67 -16
q-27 -62 -48 -220l-44 -8q-12 66 -61 66q-91 0 -222 -183l-46 -64q34 -234 74 -345q25 -70 74 -70q50 0 162 105l32 -49l-167 -137q-63 -47 -107 -65q-29 -12 -57 -12q-117 0 -153 206l-27 160l-45 -64q-139 -197 -216 -259q-53 -43 -112 -43q-33 0 -89 27z" />
    <glyph glyph-name="y" unicode="y" 
d="M33 -364l127 80l30 -13q-3 -20 -3 -33q0 -65 37 -105t96 -40q51 0 100 32t90 107.5t92 235.5l117 437q-109 -151 -191.5 -232t-151.5 -116q-51 -26 -80 -26q-40 0 -69.5 44.5t-29.5 139.5q0 57 11 148l20 158q28 229 28 265q0 55 -9.5 71.5t-27.5 16.5q-17 0 -49 -22
q-79 -51 -119 -94l-26 57q12 8 115.5 88t174.5 113q52 24 86 24q38 0 59.5 -29.5t21.5 -97.5q0 -34 -5 -77l-43 -357q-12 -97 -12 -188q0 -48 10 -64.5t26 -16.5q42 0 120 94q132 158 202 376t74 307q59 8 232 49l23 -18q-40 -103 -79 -245l-96 -340q-90 -322 -155 -463
q-108 -231 -259 -348t-281 -117q-66 0 -114 23.5t-70 59.5t-22 98v18z" />
    <glyph glyph-name="z" unicode="z" horiz-adv-x="1024" 
d="M73 -14l-24 73l701 720q-79 -37 -176 -37q-117 0 -220 36q-36 14 -58 14q-28 0 -46 -28q-28 -44 -49 -105l-57 5l95 289q28 9 55.5 13.5t54.5 4.5q71 0 211 -38q134 -36 215 -36q52 0 88 18q25 13 54 58l40 -16l-28 -105l-678 -689q118 50 192 50q55 0 156 -17
q117 -20 156 -20q16 0 47 4l55 117l57 -5q-48 -138 -80 -292q-51 -27 -122 -27q-47 0 -91 7q-30 5 -157 38q-139 35 -227 35q-102 0 -164 -67z" />
    <glyph glyph-name="braceleft" unicode="{" horiz-adv-x="682" 
d="M303 611q76 -22 104.5 -58t28.5 -109q0 -31 -7 -67l-75 -429q-3 -17 -3 -41q0 -66 30 -104.5t99 -55.5q-157 0 -189 6q-77 16 -110 56.5t-33 115.5q0 39 7 82l73 413q6 35 6 59q0 103 -128 132q163 40 189 191l79 449q17 95 68.5 149t141.5 74q44 10 202 10l-23 -7
q-76 -23 -118.5 -71t-55.5 -125l-80 -450q-18 -100 -67 -147.5t-139 -72.5z" />
    <glyph glyph-name="bar" unicode="|" horiz-adv-x="1241" 
d="M540 -251v1736h201v-1736h-201z" />
    <glyph glyph-name="braceright" unicode="}" horiz-adv-x="682" 
d="M394 611q-70 21 -102.5 56t-32.5 104q0 25 6 60l79 450q5 26 5 49q0 39 -14 69.5t-39 49.5q-15 13 -78 35q151 0 189 -7q75 -16 110.5 -57t35.5 -115q0 -25 -5 -54l-79 -449q-6 -31 -6 -48q0 -108 127 -143q-82 -17 -135 -68q-39 -38 -54 -123l-73 -413
q-16 -90 -47.5 -141t-83.5 -80t-120 -37q-21 -2 -165 -2q61 14 99.5 40.5t57.5 59.5q32 53 40 101l76 429q18 105 64.5 157t144.5 77z" />
    <glyph glyph-name="asciitilde" unicode="~" horiz-adv-x="1241" 
d="M1108 855h57q-6 -156 -81 -239.5t-188 -83.5q-53 0 -112.5 17t-262.5 102q-146 61 -211 61q-144 0 -176 -179h-58q7 161 80 242t180 81q55 0 111 -16q104 -30 272 -103q93 -40 145 -55q31 -9 67 -9q72 0 120 47.5t57 134.5z" />
    <glyph glyph-name="Adieresis" unicode="&#xc4;" horiz-adv-x="1479" 
d="M-97 -10l3 69h39q40 0 67 10t44 33l80 136l529 904q112 191 149 263h197q13 -99 29 -206l138 -880q22 -143 32.5 -184.5t24.5 -53.5t56 -16l45 -5q23 -1 48 -1l1 -69q-122 10 -282 10q-205 0 -337 -10l1 69h39q69 0 99 12t30 49q0 62 -16 170l-34 252l-159 1l-297 -1
l-84 -150q-131 -237 -131 -284q0 -23 24 -33q38 -16 158 -16l-12 -69q-123 10 -242 10q-120 0 -239 -10zM788 1172l-310 -531l197 -2l195 2zM718 1732q50 0 86 -35.5t36 -86.5t-35.5 -86t-84.5 -35q-50 0 -86 36t-36 87q0 50 35 85t85 35zM1140 1732q50 0 86 -35.5t36 -86.5
t-35.5 -86t-84.5 -35q-50 0 -86 36t-36 87q0 50 35 85t85 35z" />
    <glyph glyph-name="Aring" unicode="&#xc5;" horiz-adv-x="1479" 
d="M-97 -10l3 69h39q40 0 67 10t44 33l80 136l529 904q112 191 149 263h197q13 -99 29 -206l138 -880q22 -143 32.5 -184.5t24.5 -53.5t56 -16l45 -5q23 -1 48 -1l1 -69q-122 10 -282 10q-205 0 -337 -10l1 69h39q69 0 99 12t30 49q0 62 -16 170l-34 252l-159 1l-297 -1
l-84 -150q-131 -237 -131 -284q0 -23 24 -33q38 -16 158 -16l-12 -69q-123 10 -242 10q-120 0 -239 -10zM788 1172l-310 -531l197 -2l195 2zM935 1888q83 0 142 -59t59 -143q0 -82 -57.5 -139.5t-139.5 -57.5q-83 0 -142.5 59t-59.5 142q0 82 58 140t140 58zM936 1810
q-51 0 -86 -35t-35 -85q0 -51 36 -87.5t87 -36.5q50 0 85.5 35.5t35.5 85.5q0 51 -36.5 87t-86.5 36z" />
    <glyph glyph-name="Ccedilla" unicode="&#xc7;" horiz-adv-x="1403" 
d="M1279 244l-24 -79q-165 -97 -237.5 -128t-155 -47.5t-172.5 -16.5q-272 0 -418 141.5t-146 403.5t109 454.5t326 317.5t453 125q115 0 218 -26.5t168 -66.5q-61 -198 -74 -335h-71q5 39 5 73q0 40 -8 126q-67 52 -144.5 76t-184.5 24q-171 0 -272.5 -69.5t-163.5 -230.5
q-79 -202 -79 -446q0 -221 103 -329.5t296 -108.5q106 0 207.5 34t242.5 126zM673 8h83l-92 -139q38 4 64 4q76 0 123.5 -41.5t47.5 -104.5q0 -70 -67.5 -122t-185.5 -52q-107 0 -215 48l39 64q86 -34 148 -34q52 0 82 25t30 61q0 34 -25.5 56t-74.5 22q-30 0 -68 -10
l-23 24z" />
    <glyph glyph-name="Eacute" unicode="&#xc9;" horiz-adv-x="1251" 
d="M-7 -10l11 69q105 14 123 31t43 139q10 50 80 469l69 414q20 119 20 159q0 27 -20 38q-32 18 -103 18h-74l11 68l118 -3l111 -4l368 4l330 1q78 0 126 -8l10 -8q-32 -157 -52 -314h-70l3 66l1 80q0 46 -29 56q-84 31 -293 31q-88 0 -168 -12l-85 -510l293 -8q38 0 178 8
l6 -13l-24 -97q-198 10 -389 10q-43 0 -81 -2l-94 -564q107 -14 215 -14q162 0 271 19q58 10 71 22q18 19 50 128l26 83h72l-32 -182q-17 -90 -24 -154l-15 -17q-46 -3 -95 -3l-783 14q-84 0 -175 -14zM644 1489h-87l242 255q74 76 96 90.5t47 14.5q39 0 65 -24.5t26 -60.5
q0 -27 -16 -47.5t-67 -48.5z" />
    <glyph glyph-name="Ntilde" unicode="&#xd1;" horiz-adv-x="1593" 
d="M-35 -9l11 68h51q56 0 76 12t31 35q16 33 55 230l64 336l90 542q-43 72 -76 92.5t-101 20.5h-75l12 68q135 -7 246 -7q102 0 195 7q16 -26 80 -140q39 -69 69 -117l505 -849l62 370q89 535 89 611q0 29 -19.5 43t-69.5 14h-91l11 68q153 -7 271 -7q112 0 212 7l-11 -68
h-70q-58 0 -77.5 -23t-59.5 -214q-65 -310 -164 -907q-22 -130 -31 -199h-178l-166 290l-481 818l-64 -382q-83 -502 -83 -588q0 -33 18.5 -48t67.5 -15h90l-12 -68q-156 9 -254 9q-104 0 -223 -9zM694 1547h-74q28 120 86 177t133 57q35 0 72.5 -11t121.5 -50
q91 -42 128 -42q57 0 96 107h73q-21 -114 -81.5 -175t-138.5 -61q-49 0 -130 37q-110 49 -140 59q-23 7 -44 7q-71 0 -102 -105z" />
    <glyph glyph-name="Odieresis" unicode="&#xd6;" horiz-adv-x="1706" 
d="M128 536q0 266 107 466t291.5 306.5t436.5 106.5q302 0 468 -155t166 -423q0 -234 -116 -439.5t-304 -315t-434 -109.5q-294 0 -454.5 150.5t-160.5 412.5zM411 475q0 -140 44 -228t133.5 -137t208.5 -49q147 0 250.5 80t185 295.5t81.5 468.5q0 212 -98.5 317
t-280.5 105q-158 0 -263.5 -79.5t-183 -288.5t-77.5 -484zM772 1732q50 0 86 -35.5t36 -86.5t-35.5 -86t-84.5 -35q-50 0 -86 36t-36 87q0 50 35 85t85 35zM1194 1732q50 0 86 -35.5t36 -86.5t-35.5 -86t-84.5 -35q-50 0 -86 36t-36 87q0 50 35 85t85 35z" />
    <glyph glyph-name="Udieresis" unicode="&#xdc;" horiz-adv-x="1593" 
d="M1469 59l-11 -69q-110 10 -290 10q-76 0 -165 -7l-14 12q3 18 17 75q23 97 33 179q-154 -162 -289 -236q-91 -50 -210 -50q-165 0 -265 94t-100 235q0 66 18 175l53 315q68 412 68 474q0 33 -19.5 47t-79.5 14h-83l12 68l312 -4q85 0 151 4l11 -14q-48 -203 -83 -412
l-60 -362q-38 -229 -38 -276q0 -84 60 -137t163 -53q69 0 145 32t151.5 100t86 92t44.5 231l72 431q32 193 32 246q0 27 -23 40.5t-94 13.5h-76l12 68q172 -7 276 -7l369 7l-11 -68h-55q-88 0 -106 -32q-26 -45 -78 -354l-79 -477q-46 -272 -46 -332q0 -37 28.5 -55
t104.5 -18h56zM715 1732q50 0 86 -35.5t36 -86.5t-35.5 -86t-84.5 -35q-50 0 -86 36t-36 87q0 50 35 85t85 35zM1137 1732q50 0 86 -35.5t36 -86.5t-35.5 -86t-84.5 -35q-50 0 -86 36t-36 87q0 50 35 85t85 35z" />
    <glyph glyph-name="aacute" unicode="&#xe1;" 
d="M1032 239l21 -65q-249 -201 -349 -201q-33 0 -49 21q-23 29 -23 72q0 60 70 338l18 71q-122 -192 -169 -249q-78 -96 -147.5 -152t-138.5 -84q-41 -17 -70 -17q-54 0 -85 41t-31 137q0 115 43.5 276t92.5 249q26 46 110 112q160 126 225.5 155t142.5 29q55 0 109 -12.5
t106 -37.5l93 51l33 -21q-8 -19 -21 -62l-38 -134l-113 -481q-15 -63 -15 -97q0 -35 24 -35q43 0 161 96zM770 820q-45 22 -86.5 33t-80.5 11q-69 0 -117.5 -46.5t-105.5 -234.5q-76 -249 -76 -372q0 -35 12 -52.5t28 -17.5q15 0 41 17q67 45 156 158.5t147 236t73 217.5z
M588 1061h-87l242 255q74 76 96 90.5t47 14.5q39 0 65 -24.5t26 -60.5q0 -27 -16 -47.5t-67 -48.5z" />
    <glyph glyph-name="agrave" unicode="&#xe0;" 
d="M1032 239l21 -65q-249 -201 -349 -201q-33 0 -49 21q-23 29 -23 72q0 60 70 338l18 71q-122 -192 -169 -249q-78 -96 -147.5 -152t-138.5 -84q-41 -17 -70 -17q-54 0 -85 41t-31 137q0 115 43.5 276t92.5 249q26 46 110 112q160 126 225.5 155t142.5 29q55 0 109 -12.5
t106 -37.5l93 51l33 -21q-8 -19 -21 -62l-38 -134l-113 -481q-15 -63 -15 -97q0 -35 24 -35q43 0 161 96zM770 820q-45 22 -86.5 33t-80.5 11q-69 0 -117.5 -46.5t-105.5 -234.5q-76 -249 -76 -372q0 -35 12 -52.5t28 -17.5q15 0 41 17q67 45 156 158.5t147 236t73 217.5z
M910 1061h-81l-247 175q-60 42 -74 62t-14 46q0 34 23.5 56.5t60.5 22.5q33 0 58 -16.5t75 -82.5z" />
    <glyph glyph-name="acircumflex" unicode="&#xe2;" 
d="M1032 239l21 -65q-249 -201 -349 -201q-33 0 -49 21q-23 29 -23 72q0 60 70 338l18 71q-122 -192 -169 -249q-78 -96 -147.5 -152t-138.5 -84q-41 -17 -70 -17q-54 0 -85 41t-31 137q0 115 43.5 276t92.5 249q26 46 110 112q160 126 225.5 155t142.5 29q55 0 109 -12.5
t106 -37.5l93 51l33 -21q-8 -19 -21 -62l-38 -134l-113 -481q-15 -63 -15 -97q0 -35 24 -35q43 0 161 96zM770 820q-45 22 -86.5 33t-80.5 11q-69 0 -117.5 -46.5t-105.5 -234.5q-76 -249 -76 -372q0 -35 12 -52.5t28 -17.5q15 0 41 17q67 45 156 158.5t147 236t73 217.5z
M691 1411h142l180 -350h-90l-181 205l-271 -205h-102z" />
    <glyph glyph-name="adieresis" unicode="&#xe4;" 
d="M1032 239l21 -65q-249 -201 -349 -201q-33 0 -49 21q-23 29 -23 72q0 60 70 338l18 71q-122 -192 -169 -249q-78 -96 -147.5 -152t-138.5 -84q-41 -17 -70 -17q-54 0 -85 41t-31 137q0 115 43.5 276t92.5 249q26 46 110 112q160 126 225.5 155t142.5 29q55 0 109 -12.5
t106 -37.5l93 51l33 -21q-8 -19 -21 -62l-38 -134l-113 -481q-15 -63 -15 -97q0 -35 24 -35q43 0 161 96zM770 820q-45 22 -86.5 33t-80.5 11q-69 0 -117.5 -46.5t-105.5 -234.5q-76 -249 -76 -372q0 -35 12 -52.5t28 -17.5q15 0 41 17q67 45 156 158.5t147 236t73 217.5z
M548 1311q50 0 86 -35.5t36 -86.5t-35.5 -86t-84.5 -35q-50 0 -86 36t-36 87q0 50 35 85t85 35zM970 1311q50 0 86 -35.5t36 -86.5t-35.5 -86t-84.5 -35q-50 0 -86 36t-36 87q0 50 35 85t85 35z" />
    <glyph glyph-name="atilde" unicode="&#xe3;" 
d="M1032 239l21 -65q-249 -201 -349 -201q-33 0 -49 21q-23 29 -23 72q0 60 70 338l18 71q-122 -192 -169 -249q-78 -96 -147.5 -152t-138.5 -84q-41 -17 -70 -17q-54 0 -85 41t-31 137q0 115 43.5 276t92.5 249q26 46 110 112q160 126 225.5 155t142.5 29q55 0 109 -12.5
t106 -37.5l93 51l33 -21q-8 -19 -21 -62l-38 -134l-113 -481q-15 -63 -15 -97q0 -35 24 -35q43 0 161 96zM770 820q-45 22 -86.5 33t-80.5 11q-69 0 -117.5 -46.5t-105.5 -234.5q-76 -249 -76 -372q0 -35 12 -52.5t28 -17.5q15 0 41 17q67 45 156 158.5t147 236t73 217.5z
M465 1126h-74q28 120 86 177t133 57q35 0 72.5 -11t121.5 -50q91 -42 128 -42q57 0 96 107h73q-21 -114 -81.5 -175t-138.5 -61q-49 0 -130 37q-110 49 -140 59q-23 7 -44 7q-71 0 -102 -105z" />
    <glyph glyph-name="aring" unicode="&#xe5;" 
d="M1032 239l21 -65q-249 -201 -349 -201q-33 0 -49 21q-23 29 -23 72q0 60 70 338l18 71q-122 -192 -169 -249q-78 -96 -147.5 -152t-138.5 -84q-41 -17 -70 -17q-54 0 -85 41t-31 137q0 115 43.5 276t92.5 249q26 46 110 112q160 126 225.5 155t142.5 29q55 0 109 -12.5
t106 -37.5l93 51l33 -21q-8 -19 -21 -62l-38 -134l-113 -481q-15 -63 -15 -97q0 -35 24 -35q43 0 161 96zM770 820q-45 22 -86.5 33t-80.5 11q-69 0 -117.5 -46.5t-105.5 -234.5q-76 -249 -76 -372q0 -35 12 -52.5t28 -17.5q15 0 41 17q67 45 156 158.5t147 236t73 217.5z
M721 1450q83 0 142 -59t59 -143q0 -82 -57.5 -139.5t-139.5 -57.5q-83 0 -142.5 59t-59.5 142q0 82 58 140t140 58zM722 1372q-51 0 -86 -35t-35 -85q0 -51 36 -87.5t87 -36.5q50 0 85.5 35.5t35.5 85.5q0 51 -36.5 87t-86.5 36z" />
    <glyph glyph-name="ccedilla" unicode="&#xe7;" horiz-adv-x="909" 
d="M817 255l23 -65q-203 -136 -305.5 -176.5t-185.5 -40.5q-126 0 -197 72.5t-71 204.5q0 119 37.5 251t85 200t146.5 128l176 105q79 38 173 38q47 0 101.5 -12.5t116.5 -38.5q-42 -104 -73 -288h-69q11 76 11 105l-2 32q-42 37 -89 55.5t-99 18.5q-77 0 -122 -39
q-62 -55 -96 -173q-57 -199 -57 -336q0 -92 42.5 -143t111.5 -51q67 0 162.5 41t179.5 112zM331 8h83l-92 -139q38 4 64 4q76 0 123.5 -41.5t47.5 -104.5q0 -70 -67.5 -122t-185.5 -52q-107 0 -215 48l39 64q86 -34 148 -34q52 0 82 25t30 61q0 34 -25.5 56t-74.5 22
q-30 0 -68 -10l-23 24z" />
    <glyph glyph-name="eacute" unicode="&#xe9;" horiz-adv-x="909" 
d="M795 242l22 -55l-170 -108q-106 -59 -179.5 -82.5t-133.5 -23.5q-122 0 -188.5 64t-66.5 184q0 140 59 326q42 132 113.5 209t243.5 166q97 50 196 50q91 0 143 -45.5t52 -119.5q0 -90 -51.5 -166.5t-183.5 -140t-326 -94.5q-21 -72 -21 -136q0 -80 40.5 -119.5
t115.5 -39.5q57 0 146.5 33t188.5 98zM333 461q155 42 216 81t101.5 110.5t40.5 127.5q0 43 -26.5 69t-71.5 26q-49 0 -94 -32t-83 -112.5t-83 -269.5zM474 1061h-87l242 255q74 76 96 90.5t47 14.5q39 0 65 -24.5t26 -60.5q0 -27 -16 -47.5t-67 -48.5z" />
    <glyph glyph-name="egrave" unicode="&#xe8;" horiz-adv-x="909" 
d="M795 242l22 -55l-170 -108q-106 -59 -179.5 -82.5t-133.5 -23.5q-122 0 -188.5 64t-66.5 184q0 140 59 326q42 132 113.5 209t243.5 166q97 50 196 50q91 0 143 -45.5t52 -119.5q0 -90 -51.5 -166.5t-183.5 -140t-326 -94.5q-21 -72 -21 -136q0 -80 40.5 -119.5
t115.5 -39.5q57 0 146.5 33t188.5 98zM333 461q155 42 216 81t101.5 110.5t40.5 127.5q0 43 -26.5 69t-71.5 26q-49 0 -94 -32t-83 -112.5t-83 -269.5zM795 1061h-81l-247 175q-60 42 -74 62t-14 46q0 34 23.5 56.5t60.5 22.5q33 0 58 -16.5t75 -82.5z" />
    <glyph glyph-name="ecircumflex" unicode="&#xea;" horiz-adv-x="909" 
d="M795 242l22 -55l-170 -108q-106 -59 -179.5 -82.5t-133.5 -23.5q-122 0 -188.5 64t-66.5 184q0 140 59 326q42 132 113.5 209t243.5 166q97 50 196 50q91 0 143 -45.5t52 -119.5q0 -90 -51.5 -166.5t-183.5 -140t-326 -94.5q-21 -72 -21 -136q0 -80 40.5 -119.5
t115.5 -39.5q57 0 146.5 33t188.5 98zM333 461q155 42 216 81t101.5 110.5t40.5 127.5q0 43 -26.5 69t-71.5 26q-49 0 -94 -32t-83 -112.5t-83 -269.5zM604 1411h142l180 -350h-90l-181 205l-271 -205h-102z" />
    <glyph glyph-name="edieresis" unicode="&#xeb;" horiz-adv-x="909" 
d="M795 242l22 -55l-170 -108q-106 -59 -179.5 -82.5t-133.5 -23.5q-122 0 -188.5 64t-66.5 184q0 140 59 326q42 132 113.5 209t243.5 166q97 50 196 50q91 0 143 -45.5t52 -119.5q0 -90 -51.5 -166.5t-183.5 -140t-326 -94.5q-21 -72 -21 -136q0 -80 40.5 -119.5
t115.5 -39.5q57 0 146.5 33t188.5 98zM333 461q155 42 216 81t101.5 110.5t40.5 127.5q0 43 -26.5 69t-71.5 26q-49 0 -94 -32t-83 -112.5t-83 -269.5zM414 1311q50 0 86 -35.5t36 -86.5t-35.5 -86t-84.5 -35q-50 0 -86 36t-36 87q0 50 35 85t85 35zM836 1311q50 0 86 -35.5
t36 -86.5t-35.5 -86t-84.5 -35q-50 0 -86 36t-36 87q0 50 35 85t85 35z" />
    <glyph glyph-name="iacute" unicode="&#xed;" horiz-adv-x="682" 
d="M86 668l-24 54q242 176 307 209q84 42 126 42q27 0 45 -20.5t18 -57.5q0 -71 -65 -292l-32 -108q-75 -250 -75 -316q0 -34 28 -34q26 0 171 96l27 -53l-207 -138q-83 -52 -125 -66q-29 -11 -54 -11q-38 0 -58.5 25.5t-20.5 82.5q0 75 32 192l67 238q50 179 50 233
q0 26 -23 26q-16 0 -48 -16q-78 -40 -139 -86zM360 1061h-87l242 255q74 76 96 90.5t47 14.5q39 0 65 -24.5t26 -60.5q0 -27 -16 -47.5t-67 -48.5z" />
    <glyph glyph-name="igrave" unicode="&#xec;" horiz-adv-x="682" 
d="M86 668l-24 54q242 176 307 209q84 42 126 42q27 0 45 -20.5t18 -57.5q0 -71 -65 -292l-32 -108q-75 -250 -75 -316q0 -34 28 -34q26 0 171 96l27 -53l-207 -138q-83 -52 -125 -66q-29 -11 -54 -11q-38 0 -58.5 25.5t-20.5 82.5q0 75 32 192l67 238q50 179 50 233
q0 26 -23 26q-16 0 -48 -16q-78 -40 -139 -86zM682 1061h-81l-247 175q-60 42 -74 62t-14 46q0 34 23.5 56.5t60.5 22.5q33 0 58 -16.5t75 -82.5z" />
    <glyph glyph-name="icircumflex" unicode="&#xee;" horiz-adv-x="682" 
d="M86 668l-24 54q242 176 307 209q84 42 126 42q27 0 45 -20.5t18 -57.5q0 -71 -65 -292l-32 -108q-75 -250 -75 -316q0 -34 28 -34q26 0 171 96l27 -53l-207 -138q-83 -52 -125 -66q-29 -11 -54 -11q-38 0 -58.5 25.5t-20.5 82.5q0 75 32 192l67 238q50 179 50 233
q0 26 -23 26q-16 0 -48 -16q-78 -40 -139 -86zM460 1411h142l180 -350h-90l-181 205l-271 -205h-102z" />
    <glyph glyph-name="idieresis" unicode="&#xef;" horiz-adv-x="682" 
d="M86 668l-24 54q242 176 307 209q84 42 126 42q27 0 45 -20.5t18 -57.5q0 -71 -65 -292l-32 -108q-75 -250 -75 -316q0 -34 28 -34q26 0 171 96l27 -53l-207 -138q-83 -52 -125 -66q-29 -11 -54 -11q-38 0 -58.5 25.5t-20.5 82.5q0 75 32 192l67 238q50 179 50 233
q0 26 -23 26q-16 0 -48 -16q-78 -40 -139 -86zM260 1311q50 0 86 -35.5t36 -86.5t-35.5 -86t-84.5 -35q-50 0 -86 36t-36 87q0 50 35 85t85 35zM682 1311q50 0 86 -35.5t36 -86.5t-35.5 -86t-84.5 -35q-50 0 -86 36t-36 87q0 50 35 85t85 35z" />
    <glyph glyph-name="ntilde" unicode="&#xf1;" 
d="M91 -27l-25 26q21 54 35 99l67 229q34 121 56.5 250.5t22.5 168.5q0 30 -23 30q-13 0 -43 -16q-61 -32 -108 -70l-26 54l151 114q100 71 164 99q36 15 68 15q28 0 42.5 -14.5t14.5 -46.5q0 -28 -8 -71q-22 -114 -48 -210l-41 -150q79 129 106 162q82 101 177.5 182.5
t180.5 120.5q59 27 104 27q42 0 64 -24t22 -69q0 -66 -61 -282l-51 -183q-41 -148 -41 -231q0 -38 23 -38q17 0 50 19q64 37 99 71l25 -59q-177 -127 -239 -159q-83 -44 -136 -44q-37 0 -55 24t-18 84q0 65 40 203l32 111q43 148 53 196q27 116 27 149q0 18 -10.5 28
t-28.5 10q-50 0 -136 -86q-119 -119 -196.5 -288t-110.5 -392q-127 -10 -219 -39zM415 1126h-74q28 120 86 177t133 57q35 0 72.5 -11t121.5 -50q91 -42 128 -42q57 0 96 107h73q-21 -114 -81.5 -175t-138.5 -61q-49 0 -130 37q-110 49 -140 59q-23 7 -44 7q-71 0 -102 -105
z" />
    <glyph glyph-name="oacute" unicode="&#xf3;" 
d="M97 279q0 200 89 387q52 110 209.5 208t307.5 98q114 0 190 -36.5t112 -103t36 -175.5q0 -137 -50.5 -274.5t-116.5 -204.5q-86 -86 -237 -156q-106 -49 -223 -49q-162 0 -239.5 76.5t-77.5 229.5zM337 301q0 -125 46 -178t139 -53q65 0 115 45q66 60 115.5 220.5
t49.5 325.5q0 114 -48 169t-129 55q-71 0 -128 -50t-100 -190q-60 -198 -60 -344zM588 1061h-87l242 255q74 76 96 90.5t47 14.5q39 0 65 -24.5t26 -60.5q0 -27 -16 -47.5t-67 -48.5z" />
    <glyph glyph-name="ograve" unicode="&#xf2;" 
d="M97 279q0 200 89 387q52 110 209.5 208t307.5 98q114 0 190 -36.5t112 -103t36 -175.5q0 -137 -50.5 -274.5t-116.5 -204.5q-86 -86 -237 -156q-106 -49 -223 -49q-162 0 -239.5 76.5t-77.5 229.5zM337 301q0 -125 46 -178t139 -53q65 0 115 45q66 60 115.5 220.5
t49.5 325.5q0 114 -48 169t-129 55q-71 0 -128 -50t-100 -190q-60 -198 -60 -344zM909 1061h-81l-247 175q-60 42 -74 62t-14 46q0 34 23.5 56.5t60.5 22.5q33 0 58 -16.5t75 -82.5z" />
    <glyph glyph-name="ocircumflex" unicode="&#xf4;" 
d="M97 279q0 200 89 387q52 110 209.5 208t307.5 98q114 0 190 -36.5t112 -103t36 -175.5q0 -137 -50.5 -274.5t-116.5 -204.5q-86 -86 -237 -156q-106 -49 -223 -49q-162 0 -239.5 76.5t-77.5 229.5zM337 301q0 -125 46 -178t139 -53q65 0 115 45q66 60 115.5 220.5
t49.5 325.5q0 114 -48 169t-129 55q-71 0 -128 -50t-100 -190q-60 -198 -60 -344zM659 1411h142l180 -350h-90l-181 205l-271 -205h-102z" />
    <glyph glyph-name="odieresis" unicode="&#xf6;" 
d="M97 279q0 200 89 387q52 110 209.5 208t307.5 98q114 0 190 -36.5t112 -103t36 -175.5q0 -137 -50.5 -274.5t-116.5 -204.5q-86 -86 -237 -156q-106 -49 -223 -49q-162 0 -239.5 76.5t-77.5 229.5zM337 301q0 -125 46 -178t139 -53q65 0 115 45q66 60 115.5 220.5
t49.5 325.5q0 114 -48 169t-129 55q-71 0 -128 -50t-100 -190q-60 -198 -60 -344zM488 1311q50 0 86 -35.5t36 -86.5t-35.5 -86t-84.5 -35q-50 0 -86 36t-36 87q0 50 35 85t85 35zM910 1311q50 0 86 -35.5t36 -86.5t-35.5 -86t-84.5 -35q-50 0 -86 36t-36 87q0 50 35 85
t85 35z" />
    <glyph glyph-name="otilde" unicode="&#xf5;" 
d="M97 279q0 200 89 387q52 110 209.5 208t307.5 98q114 0 190 -36.5t112 -103t36 -175.5q0 -137 -50.5 -274.5t-116.5 -204.5q-86 -86 -237 -156q-106 -49 -223 -49q-162 0 -239.5 76.5t-77.5 229.5zM337 301q0 -125 46 -178t139 -53q65 0 115 45q66 60 115.5 220.5
t49.5 325.5q0 114 -48 169t-129 55q-71 0 -128 -50t-100 -190q-60 -198 -60 -344zM415 1126h-74q28 120 86 177t133 57q35 0 72.5 -11t121.5 -50q91 -42 128 -42q57 0 96 107h73q-21 -114 -81.5 -175t-138.5 -61q-49 0 -130 37q-110 49 -140 59q-23 7 -44 7q-71 0 -102 -105
z" />
    <glyph glyph-name="uacute" unicode="&#xfa;" 
d="M84 710l-24 57q135 97 236 151t154 54q34 0 51 -18t17 -61q0 -52 -36 -183l-59 -218q-33 -123 -55 -235q-10 -49 -10 -72q0 -22 9.5 -33t25.5 -11q21 0 54 21q52 34 132 133.5t138.5 222t86 236t32.5 178.5q103 4 221 41l17 -20q-51 -155 -117 -398q-79 -294 -79 -371
q0 -35 30 -35q12 0 38 14q61 34 111 75l20 -57l-182 -131q-75 -49 -113.5 -63t-65.5 -14q-30 0 -47.5 21.5t-17.5 62.5q0 50 35 181l58 219q-122 -220 -310 -374q-135 -110 -221 -110q-44 0 -69 29.5t-25 94.5q0 35 7 69q8 45 43 170l29 107q67 245 67 305q0 20 -8 30.5
t-21 10.5q-30 0 -152 -79zM608 1061h-87l242 255q74 76 96 90.5t47 14.5q39 0 65 -24.5t26 -60.5q0 -27 -16 -47.5t-67 -48.5z" />
    <glyph glyph-name="ugrave" unicode="&#xf9;" 
d="M84 710l-24 57q135 97 236 151t154 54q34 0 51 -18t17 -61q0 -52 -36 -183l-59 -218q-33 -123 -55 -235q-10 -49 -10 -72q0 -22 9.5 -33t25.5 -11q21 0 54 21q52 34 132 133.5t138.5 222t86 236t32.5 178.5q103 4 221 41l17 -20q-51 -155 -117 -398q-79 -294 -79 -371
q0 -35 30 -35q12 0 38 14q61 34 111 75l20 -57l-182 -131q-75 -49 -113.5 -63t-65.5 -14q-30 0 -47.5 21.5t-17.5 62.5q0 50 35 181l58 219q-122 -220 -310 -374q-135 -110 -221 -110q-44 0 -69 29.5t-25 94.5q0 35 7 69q8 45 43 170l29 107q67 245 67 305q0 20 -8 30.5
t-21 10.5q-30 0 -152 -79zM879 1061h-81l-247 175q-60 42 -74 62t-14 46q0 34 23.5 56.5t60.5 22.5q33 0 58 -16.5t75 -82.5z" />
    <glyph glyph-name="ucircumflex" unicode="&#xfb;" 
d="M84 710l-24 57q135 97 236 151t154 54q34 0 51 -18t17 -61q0 -52 -36 -183l-59 -218q-33 -123 -55 -235q-10 -49 -10 -72q0 -22 9.5 -33t25.5 -11q21 0 54 21q52 34 132 133.5t138.5 222t86 236t32.5 178.5q103 4 221 41l17 -20q-51 -155 -117 -398q-79 -294 -79 -371
q0 -35 30 -35q12 0 38 14q61 34 111 75l20 -57l-182 -131q-75 -49 -113.5 -63t-65.5 -14q-30 0 -47.5 21.5t-17.5 62.5q0 50 35 181l58 219q-122 -220 -310 -374q-135 -110 -221 -110q-44 0 -69 29.5t-25 94.5q0 35 7 69q8 45 43 170l29 107q67 245 67 305q0 20 -8 30.5
t-21 10.5q-30 0 -152 -79zM658 1411h142l180 -350h-90l-181 205l-271 -205h-102z" />
    <glyph glyph-name="udieresis" unicode="&#xfc;" 
d="M84 710l-24 57q135 97 236 151t154 54q34 0 51 -18t17 -61q0 -52 -36 -183l-59 -218q-33 -123 -55 -235q-10 -49 -10 -72q0 -22 9.5 -33t25.5 -11q21 0 54 21q52 34 132 133.5t138.5 222t86 236t32.5 178.5q103 4 221 41l17 -20q-51 -155 -117 -398q-79 -294 -79 -371
q0 -35 30 -35q12 0 38 14q61 34 111 75l20 -57l-182 -131q-75 -49 -113.5 -63t-65.5 -14q-30 0 -47.5 21.5t-17.5 62.5q0 50 35 181l58 219q-122 -220 -310 -374q-135 -110 -221 -110q-44 0 -69 29.5t-25 94.5q0 35 7 69q8 45 43 170l29 107q67 245 67 305q0 20 -8 30.5
t-21 10.5q-30 0 -152 -79zM488 1311q50 0 86 -35.5t36 -86.5t-35.5 -86t-84.5 -35q-50 0 -86 36t-36 87q0 50 35 85t85 35zM910 1311q50 0 86 -35.5t36 -86.5t-35.5 -86t-84.5 -35q-50 0 -86 36t-36 87q0 50 35 85t85 35z" />
    <glyph glyph-name="dagger" unicode="&#x2020;" 
d="M300 -318l-7 12q28 87 58 229q51 230 80 412l76 472h-64q-105 0 -256 -18l-12 9q15 62 21 178l8 7l138 -11l116 -6h72q43 254 50 444l8 12q66 -9 127 -9q49 0 87 8l8 -9q-46 -208 -87 -446h79q142 0 249 17l7 -7q-25 -123 -28 -173l-7 -8q-179 12 -284 12h-43l-86 -520
q-24 -146 -57 -434q-12 -110 -12 -157l-7 -10q-76 7 -128 7q-62 0 -106 -11z" />
    <glyph glyph-name="degree" unicode="&#xb0;" horiz-adv-x="819" 
d="M808 1099q0 -133 -92.5 -225t-223.5 -92q-132 0 -223.5 92t-91.5 227q0 130 93.5 222t223.5 92t222 -92t92 -224zM695 1097q0 84 -58 141.5t-142 57.5q-86 0 -145.5 -58t-59.5 -140q0 -79 60 -138t143 -59q85 0 143.5 58t58.5 138z" />
    <glyph glyph-name="cent" unicode="&#xa2;" horiz-adv-x="1024" 
d="M737 1356h83l-51 -162q92 -2 188 -51q-38 -98 -71 -285h-61l-1 133q-38 42 -99 57l-218 -714l25 -1q144 0 334 146l25 -64q-228 -193 -425 -216l-56 -183h-82l52 183q-123 6 -185.5 84.5t-62.5 196.5q0 156 57 324q39 114 107 179q36 33 206 139q112 70 184 72zM649 1066
q-16 2 -27 2q-58 0 -111 -48t-88 -167q-52 -182 -52 -319q0 -120 63 -168z" />
    <glyph glyph-name="sterling" unicode="&#xa3;" horiz-adv-x="1024" 
d="M41 -24l3 158q74 26 115 35q58 131 58 374v24l-3 72h-49q-52 0 -106 -6l-9 9l8 81l71 -4l34 -1l51 2l3 84q4 184 34 256t132.5 148t209.5 136.5t210 60.5q52 0 98.5 -13.5t88.5 -40.5l-65 -271l-54 13l11 118q-31 33 -69.5 49t-85.5 16q-108 0 -168 -80.5t-80 -320.5
l-13 -152l95 -3l27 -1q131 0 179 7l11 -9l-11 -75q-46 3 -229 3h-84l-11 -53q-21 -97 -43.5 -164t-52.5 -126l-80 -129l66 3q73 5 121 5q63 0 160 -6q84 -6 114 -6q19 0 40.5 3t45.5 8q50 97 72 175l61 -6q-5 -31 -19 -88l-60 -254q-47 -31 -102 -31q-33 0 -78 9.5
t-271 73.5q-106 30 -170 30l-28 -1q-48 -57 -115 -112h-63z" />
    <glyph glyph-name="section" unicode="&#xa7;" 
d="M81 -200q16 61 40 198l15 83l69 -2l-7 -175q48 -70 119.5 -109t141.5 -39q101 0 177 67.5t76 148.5q0 38 -23 80t-62.5 72.5t-169.5 99.5q-162 87 -211 128.5t-76.5 101t-27.5 124.5q0 88 55 168q39 57 139 132q-43 40 -64.5 82.5t-21.5 86.5q0 83 57.5 174.5
t148.5 142.5t200 51q96 0 179 -24.5t154 -74.5q-38 -166 -53 -265l-68 4l3 148q-62 57 -130 85.5t-141 28.5q-88 0 -141.5 -46t-53.5 -111q0 -53 39 -100q38 -47 161 -114l118 -68q122 -71 155 -102q47 -44 71 -97.5t24 -109.5q0 -86 -46.5 -162t-140.5 -142q47 -41 70 -90
t23 -106q0 -142 -140 -271.5t-323 -129.5q-100 0 -181.5 31.5t-153.5 100.5zM709 313q48 23 79 72.5t31 98.5q0 53 -34.5 98t-147.5 111l-230 133q-97 -84 -97 -177q0 -35 20.5 -74.5t67.5 -79.5q24 -21 153 -94z" />
    <glyph glyph-name="bullet" unicode="&#x2022;" horiz-adv-x="1241" 
d="M644 1026q122 0 208.5 -86.5t86.5 -208.5t-86.5 -208.5t-208.5 -86.5t-208.5 86.5t-86.5 208.5t86.5 208.5t208.5 86.5z" />
    <glyph glyph-name="paragraph" unicode="&#xb6;" 
d="M753 1308v-1786h-104v903q-203 9 -317.5 67t-177.5 167.5t-63 257.5q0 158 66 252q88 128 209 176q104 42 418 42h456v-46h-45q-62 0 -94 -19.5t-47 -56.5q-10 -25 -10 -135v-1608h-102v1786h-189z" />
    <glyph glyph-name="germandbls" unicode="&#xdf;" 
d="M73 828l8 51q34 8 157 51q43 16 57 22l18 72q19 75 35 104q39 69 149 159q143 117 239.5 162.5t184.5 45.5q97 0 161.5 -62.5t64.5 -157.5q0 -75 -36 -147.5t-148 -180.5q-96 -94 -96 -156q0 -59 74 -154q93 -121 114 -167t21 -92q0 -132 -144 -270.5t-269 -138.5
q-43 0 -92.5 10.5t-104.5 30.5q31 111 60 238h49v-102q33 -34 72.5 -51.5t84.5 -17.5q67 0 108 40.5t41 101.5q0 32 -16 70t-90 152q-71 108 -87 145t-16 67q0 37 15 69q20 43 69 102q108 128 132 167q32 52 48.5 108.5t16.5 109.5q0 77 -44 122t-117 45q-85 0 -138 -55
q-54 -56 -94 -232l-117 -505q-126 -547 -214.5 -744t-252.5 -327q-105 -83 -189 -83q-27 0 -69 17q21 62 67 225h30q22 -39 52.5 -61.5t58.5 -22.5q46 0 75.5 46t71.5 252l193 942l-97 1z" />
    <glyph glyph-name="registered" unicode="&#xae;" horiz-adv-x="1530" 
d="M782 1409q192 0 358 -96t262 -261.5t96 -357.5t-96 -357.5t-262 -261.5t-358 -96t-358.5 96t-262 261.5t-95.5 357.5t95.5 357.5t262 261.5t358.5 96zM782 1301q-163 0 -302 -81t-220 -222t-81 -303q0 -163 81 -304.5t219.5 -222t301.5 -80.5q162 0 302 81t221 221.5
t81 304.5q0 163 -80.5 303t-221 221.5t-301.5 81.5zM449 1054v44h341q159 0 220.5 -53.5t61.5 -138.5q0 -78 -58 -136q-43 -43 -141 -65q46 -10 79.5 -46t85 -145t71.5 -126.5t55 -16.5v-41h-129q-28 0 -54 14q-17 9 -36.5 38.5t-54.5 114.5q-56 132 -80.5 156.5t-75.5 24.5
h-49v-229q0 -45 5.5 -57t16 -16.5t64.5 -4.5v-41h-322v41q66 1 78 10.5t12 54.5v548q0 50 -10.5 59t-79.5 11zM685 729q20 -3 41 -3q108 0 155 42t47 124q0 76 -40.5 117t-116.5 41l-53 -1q-20 0 -26.5 -9t-6.5 -41v-270z" />
    <glyph glyph-name="copyright" unicode="&#xa9;" horiz-adv-x="1530" 
d="M781 1409q191 0 357 -96t261.5 -262t95.5 -358t-95.5 -358t-261.5 -262t-357 -96q-192 0 -358 96t-261.5 262t-95.5 358t95.5 358t261.5 262t358 96zM781 1301q-161 0 -300.5 -81.5t-220.5 -222.5t-81 -304t81 -304t220.5 -222t300.5 -81t300.5 81t220.5 222t81 304
q0 164 -81 304.5t-220.5 222t-300.5 81.5zM1084 1032v-209h-67q-4 52 -32 100t-70 71.5t-95 23.5q-106 0 -175 -80.5t-69 -224.5q0 -162 76.5 -254.5t187.5 -92.5q61 0 115.5 29.5t98.5 100.5l54 -21q-18 -47 -65 -91t-117.5 -69.5t-149.5 -25.5q-112 0 -198 49t-135 141
t-49 207q0 177 112.5 288t297.5 111q57 0 154 -19.5t126 -33.5z" />
    <glyph glyph-name="trademark" unicode="&#x2122;" horiz-adv-x="2048" 
d="M892 1389q-5 -48 -5 -79l5 -136h-72q-4 83 -34.5 111t-114.5 28h-84v-618q0 -43 17 -54t104 -10v-62h-427v62q91 1 111 14t20 56v612l-53 1q-115 0 -145 -26q-41 -36 -41 -114h-73q10 85 10 108l2 107h780zM2016 1389v-57q-71 0 -85.5 -9.5t-14.5 -40.5v-574
q0 -44 16 -57.5t84 -19.5v-62h-377v62q68 2 85.5 16.5t17.5 58.5v558l-282 -695h-25l-301 695v-554q0 -36 8 -49.5t24.5 -20.5t66.5 -9v-62h-277v62q71 0 84 12q19 17 19 72v567q0 33 -11.5 41.5t-74.5 8.5v57h300l225 -521l218 521h300z" />
    <glyph glyph-name="acute" unicode="&#xb4;" horiz-adv-x="682" 
d="M360 1061h-87l242 255q74 76 96 90.5t47 14.5q39 0 65 -24.5t26 -60.5q0 -27 -16 -47.5t-67 -48.5z" />
    <glyph glyph-name="dieresis" unicode="&#xa8;" horiz-adv-x="682" 
d="M260 1311q50 0 86 -35.5t36 -86.5t-35.5 -86t-84.5 -35q-50 0 -86 36t-36 87q0 50 35 85t85 35zM682 1311q50 0 86 -35.5t36 -86.5t-35.5 -86t-84.5 -35q-50 0 -86 36t-36 87q0 50 35 85t85 35z" />
    <glyph glyph-name="notequal" unicode="&#x2260;" horiz-adv-x="1124" 
d="M339 414h-287v187h370l82 187h-452v187h534l194 440h198l-194 -440h287v-187h-369l-82 -187h451v-187h-534l-194 -441h-198z" />
    <glyph glyph-name="AE" unicode="&#xc6;" horiz-adv-x="1933" 
d="M-66 -9l11 68l36 2q60 3 76 14t80 105l644 1002q51 80 51 95q0 20 -23.5 31t-122.5 11h-68l13 76h255l372 -1l595 9l42 -1l10 -9q-16 -64 -26 -122l-28 -200h-72q8 60 8 96q0 73 -13 89.5t-70 25.5q-87 14 -240 14q-65 0 -144 -4l-86 -528l171 -2q207 0 286 12l9 -10
l-28 -97l-80 4q-108 7 -307 7h-67l-74 -419q-15 -88 -22 -154q159 -9 210 -9q157 0 256 18q55 10 72.5 29t44.5 114l26 95h71l-37 -206q-15 -79 -19 -131l-18 -22q-201 5 -341 5h-174l-196 2q-162 0 -305 -9l12 68q86 9 107.5 24t31.5 53q33 170 72 407q-80 2 -141 2
l-305 -2q-140 -216 -208 -361q-28 -61 -28 -76q0 -19 22 -31q30 -16 96 -16h58l-12 -68q-138 9 -235 9q-88 0 -248 -9zM951 635l79 478q18 139 18 166q0 30 -31 30q-24 0 -47.5 -22t-84.5 -118l-343 -537l143 3h266z" />
    <glyph glyph-name="Oslash" unicode="&#xd8;" horiz-adv-x="1706" 
d="M264 146q-137 138 -137 408q0 247 108 448t293 307t429 106q249 0 399 -99l176 189l74 -71l-168 -181q80 -79 119 -181.5t39 -234.5q0 -234 -115.5 -439t-303.5 -315t-431 -110q-249 0 -403 107l-181 -194l-76 69zM428 322l812 871q-56 65 -112 92q-88 42 -195 42
q-156 0 -261 -79t-183.5 -288t-78.5 -473q0 -90 18 -165zM1287 1092l-816 -875q42 -69 129 -112.5t195 -43.5q148 0 251.5 80t185.5 295.5t82 469.5q0 102 -27 186z" />
    <glyph glyph-name="infinity" unicode="&#x221e;" horiz-adv-x="1460" 
d="M654 667q65 149 143.5 213t226.5 64q162 0 272.5 -117t110.5 -300q0 -204 -133 -327q-101 -93 -216 -93q-86 0 -159 53.5t-178 232.5q-66 -128 -143.5 -180.5t-180.5 -52.5q-145 0 -244 103.5t-99 265.5t91 264.5t216 102.5q88 0 153.5 -46t139.5 -183zM750 464
q73 -152 145.5 -207.5t166.5 -55.5q124 0 206 89.5t82 236.5q0 145 -86 242t-196 97q-63 0 -111 -29t-91 -97q-30 -49 -110 -261zM625 590q-53 119 -118 166.5t-149 47.5q-106 0 -177.5 -75t-71.5 -199q0 -130 69.5 -211t160.5 -81q81 0 146 62.5t129 255.5z" />
    <glyph glyph-name="plusminus" unicode="&#xb1;" horiz-adv-x="1124" 
d="M52 745v187h416v417h187v-417h416v-187h-416v-416h-187v416h-416zM52 24v187h1019v-187h-1019z" />
    <glyph glyph-name="lessequal" unicode="&#x2264;" horiz-adv-x="1124" 
d="M1071 481v-207l-1019 464v173l1019 464v-206l-761 -344zM52 0v187h1019v-187h-1019z" />
    <glyph glyph-name="greaterequal" unicode="&#x2265;" horiz-adv-x="1124" 
d="M52 481l761 344l-761 344v206l1019 -464v-173l-1019 -464v207zM1071 0h-1019v187h1019v-187z" />
    <glyph glyph-name="yen" unicode="&#xa5;" horiz-adv-x="1024" 
d="M717 616h331l-16 -81h-345q-37 -135 -45 -201h353l-16 -80h-350q-16 -92 -16 -124q0 -35 20 -48t111 -18l76 -4l-8 -69q-149 9 -260 9l-393 -10l-20 1l7 71l83 2q80 3 103 28q16 19 39 162h-372l16 80h369q11 71 21 188l-3 13h-350l16 81h316q-32 140 -94 325.5
t-126 254.5q-38 41 -88 41q-40 0 -114 -34v67q54 37 91 68l91 76q29 4 54 4q76 0 135.5 -39.5t110 -142t105.5 -312.5l70 -308q119 285 253.5 480t229.5 259q65 45 132 46l-9 -186q-103 -19 -201 -119q-165 -169 -307 -480z" />
    <glyph glyph-name="mu1" unicode="&#xb5;" horiz-adv-x="1180" 
d="M1080 139l-10 -56l-281 -98q-10 -4 -19 -4q-27 0 -43 25q-22 34 -22 90q0 24 3 58q-86 -91 -177.5 -136t-167.5 -45q-54 0 -95 30t-85 112q-11 -95 -11 -137q0 -20 5 -92q6 -85 6 -108q0 -75 -35 -112.5t-102 -37.5q-54 0 -82.5 26t-28.5 74q0 34 26 101
q76 204 121.5 375t86.5 412l53 310h233l-99 -576q-12 -71 -12 -115q0 -43 37.5 -73.5t102.5 -30.5q59 0 112 24t125 93l120 678h229l-108 -628q-18 -107 -18 -125q0 -26 12.5 -38t35.5 -12q17 0 51 8z" />
    <glyph glyph-name="partialdiff" unicode="&#x2202;" horiz-adv-x="1012" 
d="M371 1150h-42q51 144 141 214t207 70q92 0 159 -42.5t101 -121t34 -229.5q0 -338 -97 -597.5t-237 -380.5q-99 -86 -242 -86q-96 0 -165.5 38t-110 113t-40.5 165q0 150 89.5 305t228.5 245.5t269 90.5q164 0 236 -150q8 82 8 127q0 164 -106 257q-75 66 -207 66
q-80 0 -130.5 -19.5t-95.5 -64.5zM886 691q-63 192 -214 192q-68 0 -141.5 -66t-134.5 -245.5t-61 -359.5q0 -95 29 -131.5t90 -36.5q68 0 128 47q96 74 180 235.5t124 364.5z" />
    <glyph glyph-name="summation" unicode="&#x2211;" horiz-adv-x="1460" 
d="M1356 -563h-1313v36l669 1001l-669 984v37h1278l27 -337h-40q-15 136 -76 196t-173 60h-740l569 -844l-636 -957h818q87 0 166 32q51 21 85.5 67.5t58.5 146.5l40 -7z" />
    <glyph glyph-name="product" unicode="&#x220f;" horiz-adv-x="1685" 
d="M1240 1417h-795v-1788q0 -83 37 -119t125 -36h36v-37h-597v37h35q93 0 128 38t35 117v1674q0 83 -37 119t-126 36h-35v37h1594v-37h-35q-92 0 -127 -38t-35 -117v-1674q0 -83 37 -119t125 -36h35v-37h-597v37h35q93 0 127.5 38t34.5 117v1788z" />
    <glyph glyph-name="pi" unicode="&#xf010;" horiz-adv-x="1124" 
d="M1125 899l-68 -219h-162l-103 -338q-21 -69 -21 -106q0 -51 24 -75.5t70 -24.5q49 0 86 25t50 66h40q-21 -128 -102 -191.5t-181 -63.5q-81 0 -132 55q-51 56 -51 156q0 62 32 159l102 338h-176l-128 -422q-51 -167 -106.5 -226.5t-120.5 -59.5q-49 0 -80.5 28.5
t-31.5 68.5q0 24 13.5 52t57.5 81q58 70 97.5 149t74.5 200l37 129h-50q-100 0 -141 -26.5t-56 -86.5h-52q16 132 59 201t112 100t213 31h694z" />
    <glyph glyph-name="integral" unicode="&#x222b;" horiz-adv-x="561" 
d="M200 895q0 226 16 529q10 201 53 310q26 64 73 96.5t93 32.5q49 0 87 -33t38 -74q0 -46 -26.5 -75t-65.5 -29q-35 0 -76 36q-23 20 -40 20q-18 0 -29 -14.5t-11 -49.5q0 -41 9 -145q37 -411 37 -663q0 -70 -15 -569q-9 -305 -84 -410q-55 -77 -141 -77q-52 0 -85 34
t-33 87q0 44 25.5 71.5t64.5 27.5q40 0 70 -33q28 -31 48 -31q17 0 28 14.5t11 46.5q0 42 -9 120q-38 318 -38 778z" />
    <glyph glyph-name="ordfeminine" unicode="&#xaa;" horiz-adv-x="682" 
d="M709 940l15 -42q-163 -130 -223 -130q-22 0 -34.5 15t-12.5 44q0 54 40 220l11 46q-95 -173 -184.5 -249t-146.5 -76q-37 0 -57.5 28.5t-20.5 95.5q0 72 28 177.5t55 155.5q17 30 72 73q103 81 142.5 99t88.5 18q36 0 70.5 -8.5t67.5 -26.5l60 35l21 -15q-10 -26 -21 -67
l-64 -282q-29 -121 -29 -147t18 -26q29 0 104 62zM534 1315q-30 17 -57 25t-52 8q-43 0 -73.5 -29.5t-64.5 -147.5q-47 -161 -47 -246q0 -25 8 -37t20 -12q16 0 53 33q75 69 134.5 176t73.5 198z" />
    <glyph glyph-name="ordmasculine" unicode="&#xba;" horiz-adv-x="682" 
d="M103 958q0 143 54 260q33 71 133.5 134t201.5 63q108 0 162.5 -53t54.5 -159q0 -132 -61 -249q-37 -71 -140 -131.5t-200 -60.5q-101 0 -153 51t-52 145zM257 972q0 -76 31 -111.5t87 -35.5q47 0 78 28q42 37 67 121q36 114 36 216q0 84 -31.5 121t-85.5 37
q-47 0 -83.5 -32t-62.5 -120q-36 -121 -36 -224z" />
    <glyph glyph-name="Ohm" unicode="&#x2126;" horiz-adv-x="1573" 
d="M1306 0h-526l135 381q70 34 120 105q67 93 123 266t56 298q0 130 -63.5 197t-174.5 67q-119 0 -222.5 -91t-170.5 -284t-67 -341q0 -92 43 -163q31 -50 105 -75l-76 -360h-534l115 393h36q-10 -32 -10 -57q0 -45 28.5 -69.5t96.5 -23.5h253l15 62q-132 26 -210 81.5
t-124 146t-46 195.5q0 170 97 321.5t277.5 244.5t393.5 93q249 0 397 -135t148 -337q0 -204 -157 -381.5t-406 -228.5l-22 -62h252q87 0 131 34t67 116h36z" />
    <glyph glyph-name="ae" unicode="&#xe6;" horiz-adv-x="1511" 
d="M1359 244l24 -57q-314 -214 -499 -214q-88 0 -147 45t-89 134q-121 -105 -202 -142t-160 -37q-98 0 -152.5 54.5t-54.5 145.5q0 105 58 189.5t169 125t317 40.5h64q6 64 6 96q0 109 -61 169.5t-178 60.5q-29 0 -58.5 -3t-59.5 -9l-53 -137l-38 7l-13 155l71 53
q102 52 239 52q116 0 189 -48t102 -144q114 96 224 144t197 48q99 0 150 -44.5t51 -121.5q0 -94 -59.5 -166t-218 -120.5t-282.5 -57.5q-19 -122 -19 -175q0 -98 39 -141.5t111 -43.5q62 0 160.5 41t172.5 101zM908 518q118 16 196.5 55.5t117.5 98.5t39 116q0 39 -26 63
t-74 24q-68 0 -120.5 -52.5t-103.5 -214.5zM677 465l-50 1q-167 0 -250 -64.5t-83 -160.5q0 -58 29.5 -89t87.5 -31q119 0 194 98q58 76 72 246z" />
    <glyph glyph-name="oslash" unicode="&#xf8;" 
d="M148 81q-51 78 -51 213q0 133 48 270.5t106 193.5q111 109 226.5 161.5t225.5 52.5q117 0 204 -44l118 132l61 -57l-111 -125q66 -77 66 -225q0 -133 -50.5 -271t-116.5 -205q-86 -86 -237 -155q-106 -49 -222 -49q-126 0 -206 50l-117 -132l-66 54zM337 292l444 496
q-45 97 -156 97q-71 0 -128 -50.5t-101 -193.5q-59 -196 -59 -349zM801 685l-450 -504q16 -52 59.5 -81.5t105.5 -29.5q71 0 120 43q65 59 109 198q57 182 57 339z" />
    <glyph glyph-name="questiondown" unicode="&#xbf;" horiz-adv-x="909" 
d="M649 855q0 -70 -37 -125.5t-109 -55.5q-58 0 -91.5 34t-33.5 88q0 79 43 128t110 49q55 0 86.5 -31.5t31.5 -86.5zM444 569l11 -10q47 -45 63 -78.5t16 -73.5q0 -46 -29.5 -100.5t-114.5 -139.5l-45 -46q-88 -88 -125 -157q-28 -53 -28 -107q0 -75 51.5 -121.5
t138.5 -46.5q45 0 89 16.5t64 38.5q32 36 53 88l23 54l67 -9q-53 -120 -87 -258q-81 -50 -143.5 -69t-135.5 -19q-177 0 -274.5 86t-97.5 223q0 70 25 128.5t67 100.5q64 62 99 87l138 97q112 78 144.5 118.5t32.5 76.5q0 47 -47 85z" />
    <glyph glyph-name="exclamdown" unicode="&#xa1;" horiz-adv-x="682" 
d="M522 855q0 -70 -37 -125.5t-109 -55.5q-58 0 -91.5 34t-33.5 87q0 79 42.5 128.5t110.5 49.5q55 0 86.5 -32t31.5 -86zM373 560l26 -18q-12 -98 -56 -616q-24 -277 -25 -336q-67 -1 -285 -59l-23 19l47 153l204 680q22 74 32 126z" />
    <glyph glyph-name="logicalnot" unicode="&#xac;" horiz-adv-x="1241" 
d="M943 414v374h-832v187h1019v-561h-187z" />
    <glyph glyph-name="radical" unicode="&#x221a;" horiz-adv-x="1124" 
d="M1050 1869h74l-312 -1947l-496 1021l-198 -91l-34 64l301 151l405 -823z" />
    <glyph glyph-name="florin" unicode="&#x192;" horiz-adv-x="1024" 
d="M197 733l26 129q116 -4 156 -4q37 0 68 3q36 172 49 213q36 118 94.5 197.5t144.5 124.5t173 45q40 0 89 -12q-24 -102 -37 -178l-22 -13q-45 48 -95 48q-64 0 -100.5 -67.5t-59.5 -357.5l32 -1q116 0 192 8l-20 -135q-94 14 -223 12q-7 -59 -60 -399q-50 -322 -90 -458
q-61 -208 -167 -301.5t-250 -93.5q-44 0 -100 11q32 86 50 172l30 20q47 -44 95 -44q41 0 70 30t52 171l77 530q45 300 60 362q-153 -1 -234 -12z" />
    <glyph glyph-name="approxequal" unicode="&#x2248;" horiz-adv-x="1124" 
d="M1049 1036h57q-6 -156 -81 -239.5t-188 -83.5q-53 0 -112.5 17t-262.5 102q-146 61 -211 61q-144 0 -176 -179h-58q7 161 80 242t180 81q55 0 111 -16q104 -30 272 -103q93 -40 145 -55q31 -9 67 -9q72 0 120 47.5t57 134.5zM1049 674h57q-6 -156 -81 -239.5t-188 -83.5
q-53 0 -112.5 17t-262.5 102q-146 61 -211 61q-144 0 -176 -179h-58q7 161 80 242t180 81q55 0 111 -16q104 -30 272 -103q93 -40 145 -55q31 -9 67 -9q72 0 120 47.5t57 134.5z" />
    <glyph glyph-name="increment" unicode="&#x2206;" horiz-adv-x="1253" 
d="M1226 0h-1200l628 1387zM990 82l-399 967l-440 -967h839z" />
    <glyph glyph-name="guillemotleft" unicode="&#xab;" horiz-adv-x="1024" 
d="M464 478v48q50 41 205 182l221 205l48 -41l-259 -375l184 -384l-52 -30l-198 232q-88 103 -149 163zM72 480l-2 46l265.5 235.5t163.5 147.5l47 -39l-262 -373l180 -387l-50 -29l-185 222z" />
    <glyph glyph-name="guillemotright" unicode="&#xbb;" horiz-adv-x="1024" 
d="M434 123l261 375l-182 385l52 30q192 -239 343 -401v-45l-289 -257l-139 -127zM43 120l257 377l-185 383l52 31q217 -265 348 -397v-47q-85 -71 -178 -157l-248 -229z" />
    <glyph glyph-name="ellipsis" unicode="&#x2026;" horiz-adv-x="2048" 
d="M1330 109q0 81 43 130.5t110 49.5q61 0 98 -37.5t37 -100.5q0 -79 -44 -128.5t-110 -49.5q-61 0 -97.5 37t-36.5 99zM799 111q0 79 43 128.5t109 49.5q60 0 97 -37.5t37 -100.5q0 -78 -43.5 -128t-108.5 -50q-61 0 -97.5 37t-36.5 101zM267 111q0 79 43 128.5t109 49.5
q60 0 97 -37.5t37 -100.5q0 -78 -44 -128t-109 -50q-61 0 -97 37t-36 101z" />
    <glyph glyph-name="nbspace" unicode="&#xa0;" horiz-adv-x="512" 
 />
    <glyph glyph-name="Agrave" unicode="&#xc0;" horiz-adv-x="1479" 
d="M-97 -10l3 69h39q40 0 67 10t44 33l80 136l529 904q112 191 149 263h197q13 -99 29 -206l138 -880q22 -143 32.5 -184.5t24.5 -53.5t56 -16l45 -5q23 -1 48 -1l1 -69q-122 10 -282 10q-205 0 -337 -10l1 69h39q69 0 99 12t30 49q0 62 -16 170l-34 252l-159 1l-297 -1
l-84 -150q-131 -237 -131 -284q0 -23 24 -33q38 -16 158 -16l-12 -69q-123 10 -242 10q-120 0 -239 -10zM788 1172l-310 -531l197 -2l195 2zM1122 1489h-81l-247 175q-60 42 -74 62t-14 46q0 34 23.5 56.5t60.5 22.5q33 0 58 -16.5t75 -82.5z" />
    <glyph glyph-name="Atilde" unicode="&#xc3;" horiz-adv-x="1479" 
d="M-97 -10l3 69h39q40 0 67 10t44 33l80 136l529 904q112 191 149 263h197q13 -99 29 -206l138 -880q22 -143 32.5 -184.5t24.5 -53.5t56 -16l45 -5q23 -1 48 -1l1 -69q-122 10 -282 10q-205 0 -337 -10l1 69h39q69 0 99 12t30 49q0 62 -16 170l-34 252l-159 1l-297 -1
l-84 -150q-131 -237 -131 -284q0 -23 24 -33q38 -16 158 -16l-12 -69q-123 10 -242 10q-120 0 -239 -10zM788 1172l-310 -531l197 -2l195 2zM648 1554h-74q28 120 86 177t133 57q35 0 72.5 -11t121.5 -50q91 -42 128 -42q57 0 96 107h73q-21 -114 -81.5 -175t-138.5 -61
q-49 0 -130 37q-110 49 -140 59q-23 7 -44 7q-71 0 -102 -105z" />
    <glyph glyph-name="Otilde" unicode="&#xd5;" horiz-adv-x="1706" 
d="M128 536q0 266 107 466t291.5 306.5t436.5 106.5q302 0 468 -155t166 -423q0 -234 -116 -439.5t-304 -315t-434 -109.5q-294 0 -454.5 150.5t-160.5 412.5zM411 475q0 -140 44 -228t133.5 -137t208.5 -49q147 0 250.5 80t185 295.5t81.5 468.5q0 212 -98.5 317
t-280.5 105q-158 0 -263.5 -79.5t-183 -288.5t-77.5 -484zM720 1547h-74q28 120 86 177t133 57q35 0 72.5 -11t121.5 -50q91 -42 128 -42q57 0 96 107h73q-21 -114 -81.5 -175t-138.5 -61q-49 0 -130 37q-110 49 -140 59q-23 7 -44 7q-71 0 -102 -105z" />
    <glyph glyph-name="OE" unicode="&#x152;" horiz-adv-x="1933" 
d="M1895 1079q6 60 6 150q0 34 -13 47.5t-76.5 24.5t-175.5 11l-158 -1l-117 -536l126 -1q186 0 300 14l12 -13l-31 -104q-188 15 -421 16l-118 -583q57 -4 125 -4q305 0 350 27q38 23 99 229h80q-19 -62 -53 -212q-19 -85 -25 -130l-8 -8q-74 -8 -153 -8l-409 6
q-145 0 -265 -6l-15 16q7 18 40 131q-93 -95 -188.5 -133.5t-233.5 -38.5q-243 0 -378.5 142.5t-135.5 394.5q0 200 75 394q94 248 283 379.5t427 131.5q125 0 221.5 -35.5t165.5 -106.5q8 57 9 122l13 11l385 -6l379 6l16 -11q-34 -119 -70 -316h-68zM1126 856
q26 124 26 207q0 107 -88.5 185.5t-233.5 78.5q-136 0 -236 -81t-181.5 -305.5t-81.5 -478.5q0 -200 82.5 -295t226.5 -95q117 0 213.5 66t142.5 169q28 65 70 267z" />
    <glyph glyph-name="oe" unicode="&#x153;" horiz-adv-x="1593" 
d="M1468 245l26 -59q-198 -131 -303 -172t-182 -41q-76 0 -133.5 29.5t-97.5 88.5q-195 -118 -356 -118t-240 78t-79 231q0 139 54 302q38 112 104 179q90 90 237 159q108 50 217 50q107 0 181.5 -34t116.5 -103l66 40q91 56 155.5 76.5t127.5 20.5q98 0 148.5 -44.5
t50.5 -121.5q0 -97 -55 -173.5t-188 -135.5q-188 -83 -319 -91q-11 -91 -11 -136q0 -83 40 -125.5t113 -42.5q59 0 137 33q108 45 190 110zM343 297q0 -109 48 -165t131 -56q74 0 120 41q66 59 116 218.5t50 319.5q0 119 -46.5 174.5t-132.5 55.5q-85 0 -136 -58
q-70 -78 -110 -253.5t-40 -276.5zM1009 465q137 30 204.5 71t110.5 113t43 129q0 44 -26.5 70.5t-70.5 26.5q-81 0 -142.5 -80t-118.5 -330z" />
    <glyph glyph-name="endash" unicode="&#x2013;" horiz-adv-x="1024" 
d="M27 386l-10 19q55 87 101 209q185 -6 439 -6q236 0 396 6l10 -20q-53 -93 -105 -208q-154 5 -412 5q-274 0 -419 -5z" />
    <glyph glyph-name="emdash" unicode="&#x2014;" horiz-adv-x="2048" 
d="M274 386l-10 19q56 89 101 209q185 -6 686 -6q518 0 679 6l10 -20q-54 -97 -104 -208q-155 5 -678 5q-536 0 -684 -5z" />
    <glyph glyph-name="quotedblleft" unicode="&#x201c;" horiz-adv-x="1024" 
d="M157 834l-30 32l105 193q57 96 107.5 168t101.5 132l115 68l30 -32q-56 -81 -113.5 -242t-63.5 -256q-34 -3 -252 -63zM608 831l-30 29q71 146 181 319q70 108 136 179l112 66l31 -30q-68 -126 -87 -174q-41 -105 -70 -210q-16 -57 -21 -116q-48 -6 -105 -22z" />
    <glyph glyph-name="quotedblright" unicode="&#x201d;" horiz-adv-x="1024" 
d="M179 828l-31 33q57 87 114 251.5t60 247.5q68 10 251 67l30 -30q-24 -65 -146 -266q-89 -149 -167 -234zM631 830l-32 32q58 86 115 250t57 235l-1 13q32 4 73 15l183 50l26 -29q-36 -80 -87.5 -172.5t-116.5 -190.5q-23 -35 -101 -133z" />
    <glyph glyph-name="quoteleft" unicode="&#x2018;" horiz-adv-x="569" 
d="M158 832l-30 29q196 380 323 507l105 59l30 -26q-73 -123 -122.5 -268.5t-57.5 -237.5q-69 -6 -248 -63z" />
    <glyph glyph-name="quoteright" unicode="&#x2019;" horiz-adv-x="569" 
d="M169 833l-31 33q61 92 116.5 254.5t58.5 243.5q30 3 253 63l27 -27q-126 -268 -312 -500z" />
    <glyph glyph-name="divide" unicode="&#xf7;" horiz-adv-x="1124" 
d="M562 1169q57 0 97.5 -40t40.5 -97t-40.5 -97t-97.5 -40t-98 40t-41 97t40.5 97t98.5 40zM52 601v187h1019v-187h-1019zM562 494q57 0 97.5 -40.5t40.5 -97.5q0 -56 -40.5 -96.5t-97.5 -40.5q-58 0 -98.5 40t-40.5 97t40.5 97.5t98.5 40.5z" />
    <glyph glyph-name="lozenge" unicode="&#x25ca;" horiz-adv-x="1012" 
d="M549 1422l418 -713l-418 -709h-111l-391 709l391 713h111zM495 1325l-340 -616l340 -615l359 615z" />
    <glyph glyph-name="ydieresis" unicode="&#xff;" 
d="M33 -364l127 80l30 -13q-3 -20 -3 -33q0 -65 37 -105t96 -40q51 0 100 32t90 107.5t92 235.5l117 437q-109 -151 -191.5 -232t-151.5 -116q-51 -26 -80 -26q-40 0 -69.5 44.5t-29.5 139.5q0 57 11 148l20 158q28 229 28 265q0 55 -9.5 71.5t-27.5 16.5q-17 0 -49 -22
q-79 -51 -119 -94l-26 57q12 8 115.5 88t174.5 113q52 24 86 24q38 0 59.5 -29.5t21.5 -97.5q0 -34 -5 -77l-43 -357q-12 -97 -12 -188q0 -48 10 -64.5t26 -16.5q42 0 120 94q132 158 202 376t74 307q59 8 232 49l23 -18q-40 -103 -79 -245l-96 -340q-90 -322 -155 -463
q-108 -231 -259 -348t-281 -117q-66 0 -114 23.5t-70 59.5t-22 98v18zM488 1311q50 0 86 -35.5t36 -86.5t-35.5 -86t-84.5 -35q-50 0 -86 36t-36 87q0 50 35 85t85 35zM910 1311q50 0 86 -35.5t36 -86.5t-35.5 -86t-84.5 -35q-50 0 -86 36t-36 87q0 50 35 85t85 35z" />
    <glyph glyph-name="Ydieresis" unicode="&#x178;" horiz-adv-x="1251" 
d="M226 -10l12 71h80q60 0 84 13.5t33 41.5q17 85 26 140q35 212 35 248q0 81 -101 392q-73 227 -141 300q-38 41 -88 41q-38 0 -114 -34v67q54 37 92 69l90 75q28 5 55 5q81 0 145 -47t114 -167q71 -170 126 -427l36 -162q117 281 252.5 477.5t231.5 261.5q65 45 133 46
l-10 -186q-77 -14 -148 -70q-105 -84 -208.5 -247t-160.5 -306q-38 -92 -70 -287l-15 -86q-10 -62 -10 -91q0 -36 25 -51.5t105 -15.5h79l-12 -71q-141 11 -258 11q-160 0 -418 -11zM580 1732q50 0 86 -35.5t36 -86.5t-35.5 -86t-84.5 -35q-50 0 -86 36t-36 87q0 50 35 85
t85 35zM1002 1732q50 0 86 -35.5t36 -86.5t-35.5 -86t-84.5 -35q-50 0 -86 36t-36 87q0 50 35 85t85 35z" />
    <glyph glyph-name="fraction" unicode="&#x2044;" horiz-adv-x="342" 
d="M-316 -2q66 91 175 268l553 901q97 167 125 229q60 -8 91 -8l50 1q-75 -103 -174 -265l-554 -905q-97 -163 -124 -223l-78 4z" />
    <glyph glyph-name="fraction" unicode="&#x2215;" horiz-adv-x="342" 
d="M-316 -2q66 91 175 268l553 901q97 167 125 229q60 -8 91 -8l50 1q-75 -103 -174 -265l-554 -905q-97 -163 -124 -223l-78 4z" />
    <glyph glyph-name="Euro" unicode="&#x20ac;" horiz-adv-x="1024" 
d="M7 533l-7 9l17 90l11 8h69q7 55 20 108h-110l-7 9l17 90l11 8h121q92 237 288 395q204 165 450 165q142 0 263 -81l2 -12q-47 -135 -74 -287l-8 -8h-55l-9 8l5 116q3 77 -70 116q-57 30 -143 30q-163 0 -259 -108q-99 -110 -144 -334h537l6 -9l-24 -89l-11 -9h-524
q-6 -55 -9 -108h508l6 -9l-24 -89l-11 -9h-482q0 -210 59 -301q71 -121 245 -121q163 0 308 98l22 -18l-22 -82q-184 -136 -402 -136q-262 0 -380 141q-109 122 -109 384q0 18 1 35h-82z" />
    <glyph glyph-name="guilsinglleft" unicode="&#x2039;" horiz-adv-x="682" 
d="M93 477v43l213 192l214 198l45 -40l-255 -375l183 -384l-51 -30q-66 81 -211 245q-89 101 -138 151z" />
    <glyph glyph-name="guilsinglright" unicode="&#x203a;" horiz-adv-x="682" 
d="M69 120l257 378l-185 382l53 31q116 -150 348 -397v-46q-124 -103 -427 -387z" />
    <glyph glyph-name="fi" unicode="&#xf001;" horiz-adv-x="1251" 
d="M12 828l10 52q37 13 102 31q66 19 107 37l13 54q24 105 61.5 159.5t173 164t211.5 148.5q42 21 105 21q53 0 88 -16q-44 -141 -60 -257l-30 -7q-77 124 -152 124q-40 0 -70.5 -32t-53.5 -130q-45 -188 -55 -245h26q38 0 147 7q54 4 83 9l10 -16q-25 -66 -33 -104l-122 2
l-134 -2l-70 -299q-121 -512 -207.5 -701t-248.5 -317q-104 -81 -180 -81q-35 0 -76 18q58 152 69 221l32 6q37 -87 103 -87q24 0 46.5 13.5t39.5 45t48 159.5l54 250l156 772l-96 2zM1013 1270q0 76 40 120t102 44q49 0 79.5 -30.5t30.5 -80.5q0 -70 -39.5 -115t-101.5 -45
q-50 0 -80.5 30.5t-30.5 76.5zM694 668l-24 54q242 176 307 209q84 42 126 42q27 0 45 -20.5t18 -57.5q0 -71 -65 -292l-32 -108q-75 -250 -75 -316q0 -34 28 -34q26 0 171 96l27 -53l-207 -138q-83 -52 -125 -66q-29 -11 -54 -11q-38 0 -58.5 25.5t-20.5 82.5q0 75 32 192
l67 238q50 179 50 233q0 26 -23 26q-16 0 -48 -16q-78 -40 -139 -86z" />
    <glyph glyph-name="fi" unicode="&#xfb01;" horiz-adv-x="1251" 
d="M12 828l10 52q37 13 102 31q66 19 107 37l13 54q24 105 61.5 159.5t173 164t211.5 148.5q42 21 105 21q53 0 88 -16q-44 -141 -60 -257l-30 -7q-77 124 -152 124q-40 0 -70.5 -32t-53.5 -130q-45 -188 -55 -245h26q38 0 147 7q54 4 83 9l10 -16q-25 -66 -33 -104l-122 2
l-134 -2l-70 -299q-121 -512 -207.5 -701t-248.5 -317q-104 -81 -180 -81q-35 0 -76 18q58 152 69 221l32 6q37 -87 103 -87q24 0 46.5 13.5t39.5 45t48 159.5l54 250l156 772l-96 2zM1013 1270q0 76 40 120t102 44q49 0 79.5 -30.5t30.5 -80.5q0 -70 -39.5 -115t-101.5 -45
q-50 0 -80.5 30.5t-30.5 76.5zM694 668l-24 54q242 176 307 209q84 42 126 42q27 0 45 -20.5t18 -57.5q0 -71 -65 -292l-32 -108q-75 -250 -75 -316q0 -34 28 -34q26 0 171 96l27 -53l-207 -138q-83 -52 -125 -66q-29 -11 -54 -11q-38 0 -58.5 25.5t-20.5 82.5q0 75 32 192
l67 238q50 179 50 233q0 26 -23 26q-16 0 -48 -16q-78 -40 -139 -86z" />
    <glyph glyph-name="fl" unicode="&#xf002;" horiz-adv-x="1251" 
d="M10 828l10 52q37 13 102 31q66 19 107 37l13 54q24 105 61.5 159.5t173 164t211.5 148.5q42 21 105 21q53 0 88 -16q-44 -141 -60 -257l-30 -7q-77 124 -152 124q-40 0 -70.5 -32t-53.5 -130q-45 -188 -55 -245h26q38 0 147 7q54 4 83 9l10 -16q-25 -66 -33 -104l-122 2
l-134 -2l-70 -299q-121 -512 -207.5 -701t-248.5 -317q-104 -81 -180 -81q-35 0 -76 18q58 152 69 221l32 6q37 -87 103 -87q24 0 46.5 13.5t39.5 45t48 159.5l54 250l156 772l-96 2zM1204 243l30 -54l-179 -122q-107 -65 -147 -79.5t-66 -14.5q-31 0 -51 28t-20 87
q0 88 35 232l129 536q31 125 66 310q18 113 18 133t-18 29q-25 13 -94 13h-58l9 60q216 24 414 92l24 -22l-71 -290l-143 -608q-71 -305 -71 -379q0 -25 7.5 -36t19.5 -11q15 0 44 17q75 40 122 79z" />
    <glyph glyph-name="fl" unicode="&#xfb02;" horiz-adv-x="1251" 
d="M10 828l10 52q37 13 102 31q66 19 107 37l13 54q24 105 61.5 159.5t173 164t211.5 148.5q42 21 105 21q53 0 88 -16q-44 -141 -60 -257l-30 -7q-77 124 -152 124q-40 0 -70.5 -32t-53.5 -130q-45 -188 -55 -245h26q38 0 147 7q54 4 83 9l10 -16q-25 -66 -33 -104l-122 2
l-134 -2l-70 -299q-121 -512 -207.5 -701t-248.5 -317q-104 -81 -180 -81q-35 0 -76 18q58 152 69 221l32 6q37 -87 103 -87q24 0 46.5 13.5t39.5 45t48 159.5l54 250l156 772l-96 2zM1204 243l30 -54l-179 -122q-107 -65 -147 -79.5t-66 -14.5q-31 0 -51 28t-20 87
q0 88 35 232l129 536q31 125 66 310q18 113 18 133t-18 29q-25 13 -94 13h-58l9 60q216 24 414 92l24 -22l-71 -290l-143 -608q-71 -305 -71 -379q0 -25 7.5 -36t19.5 -11q15 0 44 17q75 40 122 79z" />
    <glyph glyph-name="daggerdbl" unicode="&#x2021;" 
d="M304 -317l-9 9q49 180 72 334l11 71h-47q-174 0 -283 -17l-10 8q16 53 30 171l10 8q25 0 83 -5q118 -10 202 -10h42l9 44q32 159 31 255q23 58 34 103q23 95 30 154l7 52h-46q-133 0 -277 -17l-9 7q9 42 13 75l10 109l25 1q222 -21 277 -21h27q14 55 21 110q11 86 26 290
l8 9q50 -12 103 -12q57 0 111 12l8 -9q-53 -195 -76 -358l-6 -44h66q27 0 122 7l146 15l10 -7q-22 -58 -29 -173l-8 -7q-22 0 -121 8l-145 5h-66q-20 -75 -24 -108q-8 -73 -9 -193q-45 -109 -68 -249l-10 -60l53 -3q55 -3 272 20l11 -8q-13 -48 -16 -80l-10 -110
q-21 1 -135 15q-134 13 -147 13h-52q-13 -64 -28.5 -213t-15.5 -169v-23l-6 -9q-44 13 -101 13q-56 0 -116 -13z" />
    <glyph glyph-name="periodcentered" unicode="&#x2219;" horiz-adv-x="512" 
d="M93 488q0 82 43.5 132t110.5 50q61 0 97.5 -37.5t36.5 -102.5q0 -77 -44 -126.5t-110 -49.5q-61 0 -97.5 37t-36.5 97z" />
    <glyph glyph-name="quotesinglbase" unicode="&#x201a;" horiz-adv-x="512" 
d="M-42 -299l-32 32q58 86 115 250t57 235l-1 13q32 4 73 15l183 50l26 -29q-36 -80 -87.5 -172.5t-116.5 -190.5q-23 -35 -101 -133z" />
    <glyph glyph-name="quotedblbase" unicode="&#x201e;" horiz-adv-x="1024" 
d="M-7 -296l-30 34q59 84 117 252.5t60 245.5q26 3 47 9l203 56l30 -33l-85 -158q-89 -153 -130.5 -214t-97.5 -125zM447 -297l-30 33l35 72q51 98 68 148q39 110 58 193q11 45 11 67l-1 18q77 9 255 64l28 -29q-65 -138 -152.5 -276.5t-158.5 -221.5z" />
    <glyph glyph-name="perthousand" unicode="&#x2030;" horiz-adv-x="2048" 
d="M6 856q0 269 115 431q91 128 232 128q114 0 179.5 -79t65.5 -245q0 -227 -100.5 -383.5t-251.5 -156.5q-107 0 -173.5 78t-66.5 227zM174 729q0 -59 20 -84.5t56 -25.5t59 26q37 43 79 240.5t42 346.5q0 60 -22 88t-58 28q-33 0 -56 -27q-40 -45 -80 -231.5t-40 -360.5z
M202 -2q66 91 175 268l553 901q97 167 125 229q60 -8 91 -8l50 1q-75 -103 -174 -265l-554 -905q-97 -163 -124 -223l-78 4zM796 289q0 269 115 431q91 128 232 128q114 0 179.5 -79t65.5 -245q0 -227 -100.5 -383.5t-251.5 -156.5q-107 0 -173.5 78t-66.5 227zM964 162
q0 -59 20 -84.5t56 -25.5t59 26q37 43 79 240.5t42 346.5q0 60 -22 88t-58 28q-33 0 -56 -27q-40 -45 -80 -231.5t-40 -360.5zM1467 289q0 269 115 431q91 128 232 128q114 0 179.5 -79t65.5 -245q0 -227 -100.5 -383.5t-251.5 -156.5q-107 0 -173.5 78t-66.5 227zM1635 162
q0 -59 20 -84.5t56 -25.5t59 26q37 43 79 240.5t42 346.5q0 60 -22 88t-58 28q-33 0 -56 -27q-40 -45 -80 -231.5t-40 -360.5z" />
    <glyph glyph-name="Acircumflex" unicode="&#xc2;" horiz-adv-x="1479" 
d="M-97 -10l3 69h39q40 0 67 10t44 33l80 136l529 904q112 191 149 263h197q13 -99 29 -206l138 -880q22 -143 32.5 -184.5t24.5 -53.5t56 -16l45 -5q23 -1 48 -1l1 -69q-122 10 -282 10q-205 0 -337 -10l1 69h39q69 0 99 12t30 49q0 62 -16 170l-34 252l-159 1l-297 -1
l-84 -150q-131 -237 -131 -284q0 -23 24 -33q38 -16 158 -16l-12 -69q-123 10 -242 10q-120 0 -239 -10zM788 1172l-310 -531l197 -2l195 2zM910 1839h142l180 -350h-90l-181 205l-271 -205h-102z" />
    <glyph glyph-name="Ecircumflex" unicode="&#xca;" horiz-adv-x="1251" 
d="M-7 -10l11 69q105 14 123 31t43 139q10 50 80 469l69 414q20 119 20 159q0 27 -20 38q-32 18 -103 18h-74l11 68l118 -3l111 -4l368 4l330 1q78 0 126 -8l10 -8q-32 -157 -52 -314h-70l3 66l1 80q0 46 -29 56q-84 31 -293 31q-88 0 -168 -12l-85 -510l293 -8q38 0 178 8
l6 -13l-24 -97q-198 10 -389 10q-43 0 -81 -2l-94 -564q107 -14 215 -14q162 0 271 19q58 10 71 22q18 19 50 128l26 83h72l-32 -182q-17 -90 -24 -154l-15 -17q-46 -3 -95 -3l-783 14q-84 0 -175 -14zM725 1839h142l180 -350h-90l-181 205l-271 -205h-102z" />
    <glyph glyph-name="Aacute" unicode="&#xc1;" horiz-adv-x="1479" 
d="M-97 -10l3 69h39q40 0 67 10t44 33l80 136l529 904q112 191 149 263h197q13 -99 29 -206l138 -880q22 -143 32.5 -184.5t24.5 -53.5t56 -16l45 -5q23 -1 48 -1l1 -69q-122 10 -282 10q-205 0 -337 -10l1 69h39q69 0 99 12t30 49q0 62 -16 170l-34 252l-159 1l-297 -1
l-84 -150q-131 -237 -131 -284q0 -23 24 -33q38 -16 158 -16l-12 -69q-123 10 -242 10q-120 0 -239 -10zM788 1172l-310 -531l197 -2l195 2zM822 1489h-87l242 255q74 76 96 90.5t47 14.5q39 0 65 -24.5t26 -60.5q0 -27 -16 -47.5t-67 -48.5z" />
    <glyph glyph-name="Edieresis" unicode="&#xcb;" horiz-adv-x="1251" 
d="M-7 -10l11 69q105 14 123 31t43 139q10 50 80 469l69 414q20 119 20 159q0 27 -20 38q-32 18 -103 18h-74l11 68l118 -3l111 -4l368 4l330 1q78 0 126 -8l10 -8q-32 -157 -52 -314h-70l3 66l1 80q0 46 -29 56q-84 31 -293 31q-88 0 -168 -12l-85 -510l293 -8q38 0 178 8
l6 -13l-24 -97q-198 10 -389 10q-43 0 -81 -2l-94 -564q107 -14 215 -14q162 0 271 19q58 10 71 22q18 19 50 128l26 83h72l-32 -182q-17 -90 -24 -154l-15 -17q-46 -3 -95 -3l-783 14q-84 0 -175 -14zM544 1732q50 0 86 -35.5t36 -86.5t-35.5 -86t-84.5 -35q-50 0 -86 36
t-36 87q0 50 35 85t85 35zM966 1732q50 0 86 -35.5t36 -86.5t-35.5 -86t-84.5 -35q-50 0 -86 36t-36 87q0 50 35 85t85 35z" />
    <glyph glyph-name="Egrave" unicode="&#xc8;" horiz-adv-x="1251" 
d="M-7 -10l11 69q105 14 123 31t43 139q10 50 80 469l69 414q20 119 20 159q0 27 -20 38q-32 18 -103 18h-74l11 68l118 -3l111 -4l368 4l330 1q78 0 126 -8l10 -8q-32 -157 -52 -314h-70l3 66l1 80q0 46 -29 56q-84 31 -293 31q-88 0 -168 -12l-85 -510l293 -8q38 0 178 8
l6 -13l-24 -97q-198 10 -389 10q-43 0 -81 -2l-94 -564q107 -14 215 -14q162 0 271 19q58 10 71 22q18 19 50 128l26 83h72l-32 -182q-17 -90 -24 -154l-15 -17q-46 -3 -95 -3l-783 14q-84 0 -175 -14zM966 1489h-81l-247 175q-60 42 -74 62t-14 46q0 34 23.5 56.5
t60.5 22.5q33 0 58 -16.5t75 -82.5z" />
    <glyph glyph-name="Iacute" unicode="&#xcd;" horiz-adv-x="797" 
d="M-21 -10l11 69h62q57 0 78 8t31 19.5t19 43.5t40 213l86 501q58 348 58 422q0 32 -26 46.5t-116 14.5h-53l11 68q276 -7 327 -7l331 7l-12 -68h-25q-101 0 -123 -12.5t-33 -44.5q-16 -45 -46 -225l-113 -680q-31 -184 -31 -238q0 -36 26 -52t111 -16h60l-12 -69
q-233 10 -348 10q-139 0 -313 -10zM439 1489h-87l242 255q74 76 96 90.5t47 14.5q39 0 65 -24.5t26 -60.5q0 -27 -16 -47.5t-67 -48.5z" />
    <glyph glyph-name="Icircumflex" unicode="&#xce;" horiz-adv-x="797" 
d="M-21 -10l11 69h62q57 0 78 8t31 19.5t19 43.5t40 213l86 501q58 348 58 422q0 32 -26 46.5t-116 14.5h-53l11 68q276 -7 327 -7l331 7l-12 -68h-25q-101 0 -123 -12.5t-33 -44.5q-16 -45 -46 -225l-113 -680q-31 -184 -31 -238q0 -36 26 -52t111 -16h60l-12 -69
q-233 10 -348 10q-139 0 -313 -10zM514 1839h142l180 -350h-90l-181 205l-271 -205h-102z" />
    <glyph glyph-name="Idieresis" unicode="&#xcf;" horiz-adv-x="797" 
d="M-21 -10l11 69h62q57 0 78 8t31 19.5t19 43.5t40 213l86 501q58 348 58 422q0 32 -26 46.5t-116 14.5h-53l11 68q276 -7 327 -7l331 7l-12 -68h-25q-101 0 -123 -12.5t-33 -44.5q-16 -45 -46 -225l-113 -680q-31 -184 -31 -238q0 -36 26 -52t111 -16h60l-12 -69
q-233 10 -348 10q-139 0 -313 -10zM328 1732q50 0 86 -35.5t36 -86.5t-35.5 -86t-84.5 -35q-50 0 -86 36t-36 87q0 50 35 85t85 35zM750 1732q50 0 86 -35.5t36 -86.5t-35.5 -86t-84.5 -35q-50 0 -86 36t-36 87q0 50 35 85t85 35z" />
    <glyph glyph-name="Igrave" unicode="&#xcc;" horiz-adv-x="797" 
d="M-21 -10l11 69h62q57 0 78 8t31 19.5t19 43.5t40 213l86 501q58 348 58 422q0 32 -26 46.5t-116 14.5h-53l11 68q276 -7 327 -7l331 7l-12 -68h-25q-101 0 -123 -12.5t-33 -44.5q-16 -45 -46 -225l-113 -680q-31 -184 -31 -238q0 -36 26 -52t111 -16h60l-12 -69
q-233 10 -348 10q-139 0 -313 -10zM739 1489h-81l-247 175q-60 42 -74 62t-14 46q0 34 23.5 56.5t60.5 22.5q33 0 58 -16.5t75 -82.5z" />
    <glyph glyph-name="Oacute" unicode="&#xd3;" horiz-adv-x="1706" 
d="M128 536q0 266 107 466t291.5 306.5t436.5 106.5q302 0 468 -155t166 -423q0 -234 -116 -439.5t-304 -315t-434 -109.5q-294 0 -454.5 150.5t-160.5 412.5zM411 475q0 -140 44 -228t133.5 -137t208.5 -49q147 0 250.5 80t185 295.5t81.5 468.5q0 212 -98.5 317
t-280.5 105q-158 0 -263.5 -79.5t-183 -288.5t-77.5 -484zM872 1489h-87l242 255q74 76 96 90.5t47 14.5q39 0 65 -24.5t26 -60.5q0 -27 -16 -47.5t-67 -48.5z" />
    <glyph glyph-name="Ocircumflex" unicode="&#xd4;" horiz-adv-x="1706" 
d="M128 536q0 266 107 466t291.5 306.5t436.5 106.5q302 0 468 -155t166 -423q0 -234 -116 -439.5t-304 -315t-434 -109.5q-294 0 -454.5 150.5t-160.5 412.5zM411 475q0 -140 44 -228t133.5 -137t208.5 -49q147 0 250.5 80t185 295.5t81.5 468.5q0 212 -98.5 317
t-280.5 105q-158 0 -263.5 -79.5t-183 -288.5t-77.5 -484zM964 1839h142l180 -350h-90l-181 205l-271 -205h-102z" />
    <glyph glyph-name="apple" unicode="&#xf000;" horiz-adv-x="1617" 
 />
    <glyph glyph-name="Ograve" unicode="&#xd2;" horiz-adv-x="1706" 
d="M128 536q0 266 107 466t291.5 306.5t436.5 106.5q302 0 468 -155t166 -423q0 -234 -116 -439.5t-304 -315t-434 -109.5q-294 0 -454.5 150.5t-160.5 412.5zM411 475q0 -140 44 -228t133.5 -137t208.5 -49q147 0 250.5 80t185 295.5t81.5 468.5q0 212 -98.5 317
t-280.5 105q-158 0 -263.5 -79.5t-183 -288.5t-77.5 -484zM1172 1489h-81l-247 175q-60 42 -74 62t-14 46q0 34 23.5 56.5t60.5 22.5q33 0 58 -16.5t75 -82.5z" />
    <glyph glyph-name="Uacute" unicode="&#xda;" horiz-adv-x="1593" 
d="M1469 59l-11 -69q-110 10 -290 10q-76 0 -165 -7l-14 12q3 18 17 75q23 97 33 179q-154 -162 -289 -236q-91 -50 -210 -50q-165 0 -265 94t-100 235q0 66 18 175l53 315q68 412 68 474q0 33 -19.5 47t-79.5 14h-83l12 68l312 -4q85 0 151 4l11 -14q-48 -203 -83 -412
l-60 -362q-38 -229 -38 -276q0 -84 60 -137t163 -53q69 0 145 32t151.5 100t86 92t44.5 231l72 431q32 193 32 246q0 27 -23 40.5t-94 13.5h-76l12 68q172 -7 276 -7l369 7l-11 -68h-55q-88 0 -106 -32q-26 -45 -78 -354l-79 -477q-46 -272 -46 -332q0 -37 28.5 -55
t104.5 -18h56zM816 1489h-87l242 255q74 76 96 90.5t47 14.5q39 0 65 -24.5t26 -60.5q0 -27 -16 -47.5t-67 -48.5z" />
    <glyph glyph-name="Ucircumflex" unicode="&#xdb;" horiz-adv-x="1593" 
d="M1469 59l-11 -69q-110 10 -290 10q-76 0 -165 -7l-14 12q3 18 17 75q23 97 33 179q-154 -162 -289 -236q-91 -50 -210 -50q-165 0 -265 94t-100 235q0 66 18 175l53 315q68 412 68 474q0 33 -19.5 47t-79.5 14h-83l12 68l312 -4q85 0 151 4l11 -14q-48 -203 -83 -412
l-60 -362q-38 -229 -38 -276q0 -84 60 -137t163 -53q69 0 145 32t151.5 100t86 92t44.5 231l72 431q32 193 32 246q0 27 -23 40.5t-94 13.5h-76l12 68q172 -7 276 -7l369 7l-11 -68h-55q-88 0 -106 -32q-26 -45 -78 -354l-79 -477q-46 -272 -46 -332q0 -37 28.5 -55
t104.5 -18h56zM897 1839h142l180 -350h-90l-181 205l-271 -205h-102z" />
    <glyph glyph-name="Ugrave" unicode="&#xd9;" horiz-adv-x="1593" 
d="M1469 59l-11 -69q-110 10 -290 10q-76 0 -165 -7l-14 12q3 18 17 75q23 97 33 179q-154 -162 -289 -236q-91 -50 -210 -50q-165 0 -265 94t-100 235q0 66 18 175l53 315q68 412 68 474q0 33 -19.5 47t-79.5 14h-83l12 68l312 -4q85 0 151 4l11 -14q-48 -203 -83 -412
l-60 -362q-38 -229 -38 -276q0 -84 60 -137t163 -53q69 0 145 32t151.5 100t86 92t44.5 231l72 431q32 193 32 246q0 27 -23 40.5t-94 13.5h-76l12 68q172 -7 276 -7l369 7l-11 -68h-55q-88 0 -106 -32q-26 -45 -78 -354l-79 -477q-46 -272 -46 -332q0 -37 28.5 -55
t104.5 -18h56zM1037 1489h-81l-247 175q-60 42 -74 62t-14 46q0 34 23.5 56.5t60.5 22.5q33 0 58 -16.5t75 -82.5z" />
    <glyph glyph-name="dotlessi" unicode="&#x131;" horiz-adv-x="682" 
d="M86 668l-24 54q242 176 307 209q84 42 126 42q27 0 45 -20.5t18 -57.5q0 -71 -65 -292l-32 -108q-75 -250 -75 -316q0 -34 28 -34q26 0 171 96l27 -53l-207 -138q-83 -52 -125 -66q-29 -11 -54 -11q-38 0 -58.5 25.5t-20.5 82.5q0 75 32 192l67 238q50 179 50 233
q0 26 -23 26q-16 0 -48 -16q-78 -40 -139 -86z" />
    <glyph glyph-name="circumflex" unicode="&#x2c6;" horiz-adv-x="682" 
d="M430 1411h142l180 -350h-90l-181 205l-271 -205h-102z" />
    <glyph glyph-name="tilde" unicode="&#x2dc;" horiz-adv-x="682" 
d="M186 1126h-74q28 120 86 177t133 57q35 0 72.5 -11t121.5 -50q91 -42 128 -42q57 0 96 107h73q-21 -114 -81.5 -175t-138.5 -61q-49 0 -130 37q-110 49 -140 59q-23 7 -44 7q-71 0 -102 -105z" />
    <glyph glyph-name="macron" unicode="&#x2c9;" horiz-adv-x="682" 
d="M179 1290h650l-30 -127h-651z" />
    <glyph glyph-name="breve" unicode="&#x2d8;" horiz-adv-x="682" 
d="M200 1393h74q10 -101 65.5 -152t157.5 -51q93 0 162 53.5t101 149.5h74q-39 -172 -130.5 -252t-226.5 -80q-131 0 -205 73.5t-74 211.5z" />
    <glyph glyph-name="dotaccent" unicode="&#x2d9;" horiz-adv-x="682" 
d="M482 1354q50 0 86 -36t36 -87q0 -50 -35.5 -85.5t-84.5 -35.5q-50 0 -86 36t-36 87q0 50 35 85.5t85 35.5z" />
    <glyph glyph-name="ring" unicode="&#x2da;" horiz-adv-x="682" 
d="M492 1450q83 0 142 -59t59 -143q0 -82 -57.5 -139.5t-139.5 -57.5q-83 0 -142.5 59t-59.5 142q0 82 58 140t140 58zM493 1372q-51 0 -86 -35t-35 -85q0 -51 36 -87.5t87 -36.5q50 0 85.5 35.5t35.5 85.5q0 51 -36.5 87t-86.5 36z" />
    <glyph glyph-name="cedilla" unicode="&#xb8;" horiz-adv-x="682" 
d="M242 8h83l-92 -139q38 4 64 4q76 0 123.5 -41.5t47.5 -104.5q0 -70 -67.5 -122t-185.5 -52q-107 0 -215 48l39 64q86 -34 148 -34q52 0 82 25t30 61q0 34 -25.5 56t-74.5 22q-30 0 -68 -10l-23 24z" />
    <glyph glyph-name="hungarumlaut" unicode="&#x2dd;" horiz-adv-x="682" 
d="M558 1047h-87l242 254q67 71 90 88.5t51 17.5q39 0 65 -24.5t26 -60.5q0 -34 -26 -58q-11 -10 -95 -60zM223 1047h-87l242 254q73 77 95.5 91.5t46.5 14.5q39 0 65 -24.5t26 -60.5q0 -34 -26 -58q-10 -10 -95 -60z" />
    <glyph glyph-name="ogonek" unicode="&#x2db;" horiz-adv-x="682" 
d="M160 0q-72 -82 -95 -127.5t-23 -82.5q0 -47 30 -78t74 -31q26 0 47 10t57 45l36 -23q-108 -121 -207 -121q-66 0 -113 46.5t-47 112.5q0 34 12 62q16 37 47 69l137 118h45z" />
    <glyph glyph-name="caron" unicode="&#x2c7;" horiz-adv-x="682" 
d="M188 1413h90l193 -205l281 205h98l-328 -352h-142z" />
    <glyph glyph-name="Lslash" unicode="&#x141;" horiz-adv-x="1251" 
d="M494 590l-36 -220l-45 -266q156 -9 240 -9q241 0 307 31q30 14 65 130l35 102h73q-57 -251 -70 -368q-248 0 -406 4l-292 6q-250 0 -372 -10l11 69h45q65 0 89 39q18 29 63 294l-146 -98l22 138l148 100l60 366q21 124 33 236t12 138q0 30 -15 40q-22 15 -77 15h-96
l11 68q271 -6 375 -6q129 0 287 6l-12 -68h-56q-88 0 -109.5 -16.5t-34.5 -79.5q-10 -46 -59 -340l-27 -162l386 260l-22 -139z" />
    <glyph glyph-name="lslash" unicode="&#x142;" horiz-adv-x="682" 
d="M502 713l-32 -140q-72 -305 -72 -379q0 -25 7.5 -36t19.5 -11q15 0 44 17q75 40 122 79l30 -54l-179 -122q-107 -65 -147 -79.5t-66 -14.5q-31 0 -51 28t-20 88q0 87 35 231l53 222l-218 -145l24 126l226 150l44 183q47 196 65.5 308t18.5 135q0 20 -18 29q-25 13 -94 13
h-58l10 60q215 24 413 92l24 -22l-71 -290l-79 -338l209 139l-25 -126z" />
    <glyph glyph-name="Scaron" unicode="&#x160;" 
d="M63 75q30 138 52 310h66l-3 -110l1 -64q46 -55 132.5 -92t182.5 -37q145 0 223 76.5t78 207.5q0 89 -45 133q-46 43 -203 78q-233 52 -299 133q-66 80 -66 214q0 199 159 345t393 146q89 0 167.5 -21t145.5 -63q-38 -169 -50 -301h-69l3 106l-1 58q-37 50 -107.5 81.5
t-161.5 31.5q-134 0 -209 -71.5t-75 -195.5q0 -70 31 -120t87 -70q83 -29 193 -53q209 -47 266 -119t57 -191q0 -198 -171.5 -356t-413.5 -158q-108 0 -198.5 25.5t-164.5 76.5zM466 1841h90l193 -205l281 205h98l-328 -352h-142z" />
    <glyph glyph-name="scaron" unicode="&#x161;" horiz-adv-x="909" 
d="M36 29q36 138 45 268h62l3 -97q43 -52 114 -85.5t144 -33.5q92 0 139.5 42t47.5 111q0 53 -32 88t-109 51l-86 18q-121 25 -165 66q-67 62 -67 162q0 119 82 188q194 165 378 165q58 0 117 -14.5t119 -44.5q-25 -106 -40 -241h-60l-11 99q-60 52 -115 72.5t-113 20.5
q-74 0 -118.5 -40.5t-44.5 -102.5q0 -61 43 -97q42 -37 161 -57l56 -9q105 -18 158 -76q52 -58 52 -146q0 -90 -62 -161t-172.5 -136.5t-250.5 -65.5q-66 0 -117.5 10t-157.5 46zM302 1413h90l193 -205l281 205h98l-328 -352h-142z" />
    <glyph glyph-name="Zcaron" unicode="&#x17d;" horiz-adv-x="1366" 
d="M8 -5l-4 59q71 69 341 409l653 823h-258q-331 0 -398 -25q-29 -11 -83 -216h-77l20 98q28 145 38 245l11 9l604 -9h516v-56q-83 -87 -425 -519l-558 -706l315 -3q305 0 435 35q55 96 89 232h75q-45 -185 -77 -371l-9 -5q-242 5 -512 5h-490zM552 1841h90l193 -205
l281 205h98l-328 -352h-142z" />
    <glyph glyph-name="zcaron" unicode="&#x17e;" horiz-adv-x="1024" 
d="M73 -14l-24 73l701 720q-79 -37 -176 -37q-117 0 -220 36q-36 14 -58 14q-28 0 -46 -28q-28 -44 -49 -105l-57 5l95 289q28 9 55.5 13.5t54.5 4.5q71 0 211 -38q134 -36 215 -36q52 0 88 18q25 13 54 58l40 -16l-28 -105l-678 -689q118 50 192 50q55 0 156 -17
q117 -20 156 -20q16 0 47 4l55 117l57 -5q-48 -138 -80 -292q-51 -27 -122 -27q-47 0 -91 7q-30 5 -157 38q-139 35 -227 35q-102 0 -164 -67zM359 1413h90l193 -205l281 205h98l-328 -352h-142z" />
    <glyph glyph-name="brokenbar" unicode="&#xa6;" horiz-adv-x="1241" 
d="M540 1485h201v-738l-201 -96v834zM540 487l201 96v-834h-201v738z" />
    <glyph glyph-name="Eth" unicode="&#xd0;" horiz-adv-x="1593" 
d="M246 676h-170l17 98h170l34 205q36 215 36 282q0 37 -22 47q-38 19 -155 19h-22l11 68q102 -6 293 -6l464 6q231 0 357 -61.5t196.5 -183.5t70.5 -297q0 -236 -110 -436.5t-298.5 -312.5t-418.5 -112l-386 8q-155 0 -316 -10l11 69q31 0 92 17q26 7 37.5 23t27.5 97
l27 151zM506 676l-29 -175l-63 -381l91 -15q143 -25 227 -25q168 0 264 83q120 104 184.5 305.5t64.5 394.5q0 159 -52 259t-135.5 142.5t-264.5 42.5q-97 0 -184 -17l-65 -387l-21 -129h376l-18 -98h-375z" />
    <glyph glyph-name="eth" unicode="&#xf0;" 
d="M816 914q-29 197 -198 350l-239 -154l-50 79l214 137q-120 74 -251 114l38 61q150 -24 308 -99l246 159l46 -77l-202 -133q149 -99 232.5 -259.5t83.5 -364.5q0 -309 -148 -531.5t-429 -222.5q-168 0 -267.5 101.5t-99.5 275.5q0 165 78 312.5t202 229t254 81.5
q56 0 101.5 -14.5t80.5 -44.5zM337 301q0 -122 45 -176.5t125 -54.5q69 0 133.5 56.5t104.5 184.5q57 182 57 347q0 118 -46.5 172t-129.5 54q-71 0 -131 -52.5t-102 -187.5q-56 -180 -56 -343z" />
    <glyph glyph-name="Yacute" unicode="&#xdd;" horiz-adv-x="1251" 
d="M226 -10l12 71h80q60 0 84 13.5t33 41.5q17 85 26 140q35 212 35 248q0 81 -101 392q-73 227 -141 300q-38 41 -88 41q-38 0 -114 -34v67q54 37 92 69l90 75q28 5 55 5q81 0 145 -47t114 -167q71 -170 126 -427l36 -162q117 281 252.5 477.5t231.5 261.5q65 45 133 46
l-10 -186q-77 -14 -148 -70q-105 -84 -208.5 -247t-160.5 -306q-38 -92 -70 -287l-15 -86q-10 -62 -10 -91q0 -36 25 -51.5t105 -15.5h79l-12 -71q-141 11 -258 11q-160 0 -418 -11zM744 1489h-87l242 255q74 76 96 90.5t47 14.5q39 0 65 -24.5t26 -60.5q0 -27 -16 -47.5
t-67 -48.5z" />
    <glyph glyph-name="yacute" unicode="&#xfd;" 
d="M33 -364l127 80l30 -13q-3 -20 -3 -33q0 -65 37 -105t96 -40q51 0 100 32t90 107.5t92 235.5l117 437q-109 -151 -191.5 -232t-151.5 -116q-51 -26 -80 -26q-40 0 -69.5 44.5t-29.5 139.5q0 57 11 148l20 158q28 229 28 265q0 55 -9.5 71.5t-27.5 16.5q-17 0 -49 -22
q-79 -51 -119 -94l-26 57q12 8 115.5 88t174.5 113q52 24 86 24q38 0 59.5 -29.5t21.5 -97.5q0 -34 -5 -77l-43 -357q-12 -97 -12 -188q0 -48 10 -64.5t26 -16.5q42 0 120 94q132 158 202 376t74 307q59 8 232 49l23 -18q-40 -103 -79 -245l-96 -340q-90 -322 -155 -463
q-108 -231 -259 -348t-281 -117q-66 0 -114 23.5t-70 59.5t-22 98v18zM588 1061h-87l242 255q74 76 96 90.5t47 14.5q39 0 65 -24.5t26 -60.5q0 -27 -16 -47.5t-67 -48.5z" />
    <glyph glyph-name="Thorn" unicode="&#xde;" horiz-adv-x="1366" 
d="M486 371q-32 -184 -32 -246q0 -34 26.5 -50t110.5 -16h60l-12 -69q-180 10 -351 10q-161 0 -310 -10l11 69h62q77 0 99.5 18.5t39.5 103.5q24 122 72 409l43 254q57 347 57 422q0 33 -21 45q-29 16 -120 16h-53l11 68l289 -7l369 7l-12 -68h-25q-96 0 -118 -10t-32 -30
q-12 -27 -39 -168l280 7q215 0 305 -95t90 -247q0 -199 -148.5 -341.5t-363.5 -142.5q-118 0 -288 71zM497 438q119 -45 152.5 -53t72.5 -8q74 0 140 45t109 138.5t43 208.5q0 133 -66.5 200t-195.5 67q-91 0 -158 -15z" />
    <glyph glyph-name="thorn" unicode="&#xfe;" 
d="M422 548q138 206 271 305q162 119 273 119q50 0 74 -42q43 -74 43 -193q0 -145 -76 -342q-53 -138 -130.5 -210.5t-236.5 -159.5q-96 -52 -202 -52q-59 0 -116 14q-56 -194 -84 -331q-18 -86 -20 -172q-133 -9 -236 -43l-21 16q53 183 120 443l217 956q84 373 84 442
q0 21 -21.5 32t-90.5 11h-58l10 60q213 24 413 92l24 -22l-71 -290zM343 128q116 -56 193 -56q82 0 140.5 69t124.5 301q42 146 42 266q0 63 -12.5 84t-37.5 21q-50 0 -121 -54q-108 -81 -189 -224t-125 -337z" />
    <glyph glyph-name="minus" unicode="&#x2212;" horiz-adv-x="1241" 
d="M111 601v187h1019v-187h-1019z" />
    <glyph glyph-name="multiply" unicode="&#xd7;" horiz-adv-x="1241" 
d="M186 997l132 132l303 -303l303 303l132 -132l-303 -303l303 -303l-132 -132l-303 303l-303 -303l-132 132l303 303z" />
    <glyph glyph-name="onesuperior" unicode="&#xb9;" horiz-adv-x="739" 
d="M111 560l3 56h81q61 0 77 17t26 93l67 393l23 147l-231 -97l-18 14l22 90q232 58 395 133l31 -21l-88 -504q-34 -197 -34 -226q0 -20 15 -28q22 -11 89 -11h75l-9 -56l-264 5q-118 0 -260 -5z" />
    <glyph glyph-name="twosuperior" unicode="&#xb2;" horiz-adv-x="739" 
d="M71 563l5 43q98 87 180 168q243 241 243 387q0 66 -35 100.5t-99 34.5q-56 0 -88.5 -23.5t-82.5 -119.5l-52 16l73 172q41 37 89 55.5t103 18.5q123 0 191.5 -61t68.5 -161q0 -69 -39.5 -138t-154.5 -172l-203 -181h232q104 0 166 12l16 -14q-26 -54 -43 -140
q-197 9 -270 9z" />
    <glyph glyph-name="threesuperior" unicode="&#xb3;" horiz-adv-x="739" 
d="M105 604l36 207l58 -4q-4 -35 -4 -50q0 -70 36.5 -104t109.5 -34q81 0 131.5 58t50.5 156q0 76 -37.5 113t-114.5 37q-47 0 -100 -18l-13 12l24 73q25 -6 50 -6q90 0 136.5 42.5t46.5 109.5q0 53 -31 82t-88 29q-56 0 -93 -25t-69 -88l-50 19q38 65 74 142q36 30 85 45
t112 15q113 0 170.5 -48t57.5 -126q0 -61 -37 -108t-145 -99q95 -16 142.5 -63t47.5 -126q0 -120 -102.5 -207t-266.5 -87q-54 0 -108 13.5t-109 39.5z" />
    <glyph glyph-name="onehalf" unicode="&#xbd;" horiz-adv-x="1821" 
d="M111 560l3 56h81q61 0 77 17t26 93l67 393l23 147l-231 -97l-18 14l22 90q232 58 395 133l31 -21l-88 -504q-34 -197 -34 -226q0 -20 15 -28q22 -11 89 -11h75l-9 -56l-264 5q-118 0 -260 -5zM424 -2q66 91 175 268l553 901q97 167 125 229q60 -8 91 -8l50 1
q-75 -103 -174 -265l-554 -905q-97 -163 -124 -223l-78 4zM1060 -4l5 43q98 87 180 168q243 241 243 387q0 66 -35 100.5t-99 34.5q-56 0 -88.5 -23.5t-82.5 -119.5l-52 16l73 172q41 37 89 55.5t103 18.5q123 0 191.5 -61t68.5 -161q0 -69 -39.5 -138t-154.5 -172
l-203 -181h232q104 0 166 12l16 -14q-26 -54 -43 -140q-197 9 -270 9z" />
    <glyph glyph-name="onequarter" unicode="&#xbc;" horiz-adv-x="1821" 
d="M111 560l3 56h81q61 0 77 17t26 93l67 393l23 147l-231 -97l-18 14l22 90q232 58 395 133l31 -21l-88 -504q-34 -197 -34 -226q0 -20 15 -28q22 -11 89 -11h75l-9 -56l-264 5q-118 0 -260 -5zM457 -2q66 91 175 268l553 901q97 167 125 229q60 -8 91 -8l50 1
q-75 -103 -174 -265l-554 -905q-97 -163 -124 -223l-78 4zM1196 -6l7 57h48q88 0 100 8.5t23 69.5l15 85l-221 -2l-54 -1l-47 1l5 53l200 289q52 72 105 133q80 94 94 114q69 8 164 41l23 -18q-13 -53 -32 -176l-55 -329l94 3l41 2l11 -9l-25 -105q-95 4 -140 4l-11 -81
q-5 -43 -5 -53q0 -16 9.5 -22.5t39.5 -6.5h103l-10 -57q-133 6 -236 6q-49 0 -246 -6zM1420 305q40 256 76 444q-143 -177 -216 -275q-90 -124 -111 -169h251z" />
    <glyph glyph-name="threequarters" unicode="&#xbe;" horiz-adv-x="1821" 
d="M105 604l36 207l58 -4q-4 -35 -4 -50q0 -70 36.5 -104t109.5 -34q81 0 131.5 58t50.5 156q0 76 -37.5 113t-114.5 37q-47 0 -100 -18l-13 12l24 73q25 -6 50 -6q90 0 136.5 42.5t46.5 109.5q0 53 -31 82t-88 29q-56 0 -93 -25t-69 -88l-50 19q38 65 74 142q36 30 85 45
t112 15q113 0 170.5 -48t57.5 -126q0 -61 -37 -108t-145 -99q95 -16 142.5 -63t47.5 -126q0 -120 -102.5 -207t-266.5 -87q-54 0 -108 13.5t-109 39.5zM424 -2q66 91 175 268l553 901q97 167 125 229q60 -8 91 -8l50 1q-75 -103 -174 -265l-554 -905q-97 -163 -124 -223
l-78 4zM1196 -6l7 57h48q88 0 100 8.5t23 69.5l15 85l-221 -2l-54 -1l-47 1l5 53l200 289q52 72 105 133q80 94 94 114q69 8 164 41l23 -18q-13 -53 -32 -176l-55 -329l94 3l41 2l11 -9l-25 -105q-95 4 -140 4l-11 -81q-5 -43 -5 -53q0 -16 9.5 -22.5t39.5 -6.5h103l-10 -57
q-133 6 -236 6q-49 0 -246 -6zM1420 305q40 256 76 444q-143 -177 -216 -275q-90 -124 -111 -169h251z" />
    <glyph glyph-name="franc" unicode="&#x20a3;" 
d="M446 297q-20 -106 -20 -158q0 -44 21 -56q35 -20 140 -20h46l-12 -70l-392 8q-113 0 -268 -11l11 69h76q51 0 71 13t28 37.5t38 187.5h-169l16 98h171l80 484q53 319 53 394q0 30 -24.5 42t-127.5 12h-47l11 68q165 -7 349 -7l544 7q67 0 127 -8l7 -15q-35 -195 -44 -315
h-72l1 131q0 41 -10 65q-56 41 -256 41q-75 0 -183 -10l-74 -428l-23 -154l188 -1q153 0 291 14l7 -13l-26 -102l-349 5q-75 0 -128 -5l-34 -205h256l-17 -98h-256z" />
    <glyph glyph-name="Gbreve" unicode="&#x11e;" horiz-adv-x="1593" 
d="M1316 94l-1 -7q-38 -7 -200 -54q-117 -34 -203 -47t-173 -13q-295 0 -450 146t-155 411q0 249 107.5 434t338 318t457.5 133q130 0 245 -22.5t180 -55.5l8 -14l-24 -90q-39 -143 -52 -242h-71q2 57 5 127l-1 71q-70 49 -158 73t-194 24q-183 0 -300 -74t-183 -231
q-85 -203 -85 -441q0 -236 106.5 -352t302.5 -116q129 0 236 45l39 165q29 127 29 178q0 27 -23.5 40.5t-101.5 13.5h-90l11 70q72 -3 354 -6l257 6l-12 -70h-32q-47 0 -75.5 -20.5t-38.5 -81.5l-17 -102l-33 -167zM755 1821h74q10 -101 65.5 -152t157.5 -51q93 0 162 53.5
t101 149.5h74q-39 -172 -130.5 -252t-226.5 -80q-131 0 -205 73.5t-74 211.5z" />
    <glyph glyph-name="gbreve" unicode="&#x11f;" horiz-adv-x="1024" 
d="M289 27q-53 48 -53 98q0 40 31 60l79 46q53 31 84 56l-43 -2q-79 0 -154 37q-56 27 -87 80t-31 134q0 101 45.5 188t105 128t211.5 96q69 24 129 24q84 0 142 -25q35 -15 63 -19.5t74 -4.5l198 7l10 -16l-24 -105q-59 11 -152 11l-26 -2q21 -54 21 -111q0 -82 -36.5 -165
t-88 -127t-179.5 -94q-90 -34 -118.5 -59.5t-28.5 -46.5q0 -19 15 -36q21 -25 80 -67l133 -96q87 -62 120 -114.5t33 -117.5q0 -140 -125 -233q-155 -114 -401 -114q-217 0 -321.5 74t-104.5 182q0 69 50.5 138.5t145.5 117.5q46 23 203 78zM320 542q0 -96 40.5 -141
t115.5 -45q59 0 106 36.5t81 124t34 188.5q0 92 -41 136t-115 44q-105 0 -163 -107t-58 -236zM333 -11l-101 -46q-59 -32 -94 -63t-53.5 -71.5t-18.5 -86.5q0 -88 76.5 -147.5t209.5 -59.5q130 0 202.5 57.5t72.5 137.5q0 44 -31.5 83.5t-171.5 134.5zM348 1393h74
q10 -101 65.5 -152t157.5 -51q93 0 162 53.5t101 149.5h74q-39 -172 -130.5 -252t-226.5 -80q-131 0 -205 73.5t-74 211.5z" />
    <glyph glyph-name="Idot" unicode="&#x130;" horiz-adv-x="797" 
d="M-21 -10l11 69h62q57 0 78 8t31 19.5t19 43.5t40 213l86 501q58 348 58 422q0 32 -26 46.5t-116 14.5h-53l11 68q276 -7 327 -7l331 7l-12 -68h-25q-101 0 -123 -12.5t-33 -44.5q-16 -45 -46 -225l-113 -680q-31 -184 -31 -238q0 -36 26 -52t111 -16h60l-12 -69
q-233 10 -348 10q-139 0 -313 -10zM539 1733q50 0 86 -36t36 -87q0 -50 -35.5 -85.5t-84.5 -35.5q-50 0 -86 36t-36 87q0 50 35 85.5t85 35.5z" />
    <glyph glyph-name="Scedilla" unicode="&#x15e;" 
d="M63 75q30 138 52 310h66l-3 -110l1 -64q46 -55 132.5 -92t182.5 -37q145 0 223 76.5t78 207.5q0 89 -45 133q-46 43 -203 78q-233 52 -299 133q-66 80 -66 214q0 199 159 345t393 146q89 0 167.5 -21t145.5 -63q-38 -169 -50 -301h-69l3 106l-1 58q-37 50 -107.5 81.5
t-161.5 31.5q-134 0 -209 -71.5t-75 -195.5q0 -70 31 -120t87 -70q83 -29 193 -53q209 -47 266 -119t57 -191q0 -198 -171.5 -356t-413.5 -158q-108 0 -198.5 25.5t-164.5 76.5zM410 8h83l-92 -139q38 4 64 4q76 0 123.5 -41.5t47.5 -104.5q0 -70 -67.5 -122t-185.5 -52
q-107 0 -215 48l39 64q86 -34 148 -34q52 0 82 25t30 61q0 34 -25.5 56t-74.5 22q-30 0 -68 -10l-23 24z" />
    <glyph glyph-name="scedilla" unicode="&#x15f;" horiz-adv-x="909" 
d="M36 29q36 138 45 268h62l3 -97q43 -52 114 -85.5t144 -33.5q92 0 139.5 42t47.5 111q0 53 -32 88t-109 51l-86 18q-121 25 -165 66q-67 62 -67 162q0 119 82 188q194 165 378 165q58 0 117 -14.5t119 -44.5q-25 -106 -40 -241h-60l-11 99q-60 52 -115 72.5t-113 20.5
q-74 0 -118.5 -40.5t-44.5 -102.5q0 -61 43 -97q42 -37 161 -57l56 -9q105 -18 158 -76q52 -58 52 -146q0 -90 -62 -161t-172.5 -136.5t-250.5 -65.5q-66 0 -117.5 10t-157.5 46zM342 8h83l-92 -139q38 4 64 4q76 0 123.5 -41.5t47.5 -104.5q0 -70 -67.5 -122t-185.5 -52
q-107 0 -215 48l39 64q86 -34 148 -34q52 0 82 25t30 61q0 34 -25.5 56t-74.5 22q-30 0 -68 -10l-23 24z" />
    <glyph glyph-name="Cacute" unicode="&#x106;" horiz-adv-x="1403" 
d="M1279 244l-24 -79q-165 -97 -237.5 -128t-155 -47.5t-172.5 -16.5q-272 0 -418 141.5t-146 403.5t109 454.5t326 317.5t453 125q115 0 218 -26.5t168 -66.5q-61 -198 -74 -335h-71q5 39 5 73q0 40 -8 126q-67 52 -144.5 76t-184.5 24q-171 0 -272.5 -69.5t-163.5 -230.5
q-79 -202 -79 -446q0 -221 103 -329.5t296 -108.5q106 0 207.5 34t242.5 126zM841 1489h-87l242 255q74 76 96 90.5t47 14.5q39 0 65 -24.5t26 -60.5q0 -27 -16 -47.5t-67 -48.5z" />
    <glyph glyph-name="cacute" unicode="&#x107;" horiz-adv-x="909" 
d="M817 255l23 -65q-203 -136 -305.5 -176.5t-185.5 -40.5q-126 0 -197 72.5t-71 204.5q0 119 37.5 251t85 200t146.5 128l176 105q79 38 173 38q47 0 101.5 -12.5t116.5 -38.5q-42 -104 -73 -288h-69q11 76 11 105l-2 32q-42 37 -89 55.5t-99 18.5q-77 0 -122 -39
q-62 -55 -96 -173q-57 -199 -57 -336q0 -92 42.5 -143t111.5 -51q67 0 162.5 41t179.5 112zM538 1061h-87l242 255q74 76 96 90.5t47 14.5q39 0 65 -24.5t26 -60.5q0 -27 -16 -47.5t-67 -48.5z" />
    <glyph glyph-name="Ccaron" unicode="&#x10c;" horiz-adv-x="1403" 
d="M1279 244l-24 -79q-165 -97 -237.5 -128t-155 -47.5t-172.5 -16.5q-272 0 -418 141.5t-146 403.5t109 454.5t326 317.5t453 125q115 0 218 -26.5t168 -66.5q-61 -198 -74 -335h-71q5 39 5 73q0 40 -8 126q-67 52 -144.5 76t-184.5 24q-171 0 -272.5 -69.5t-163.5 -230.5
q-79 -202 -79 -446q0 -221 103 -329.5t296 -108.5q106 0 207.5 34t242.5 126zM688 1855h90l193 -205l281 205h98l-328 -352h-142z" />
    <glyph glyph-name="ccaron" unicode="&#x10d;" horiz-adv-x="909" 
d="M817 255l23 -65q-203 -136 -305.5 -176.5t-185.5 -40.5q-126 0 -197 72.5t-71 204.5q0 119 37.5 251t85 200t146.5 128l176 105q79 38 173 38q47 0 101.5 -12.5t116.5 -38.5q-42 -104 -73 -288h-69q11 76 11 105l-2 32q-42 37 -89 55.5t-99 18.5q-77 0 -122 -39
q-62 -55 -96 -173q-57 -199 -57 -336q0 -92 42.5 -143t111.5 -51q67 0 162.5 41t179.5 112zM393 1413h90l193 -205l281 205h98l-328 -352h-142z" />
    <glyph glyph-name="dmacron" unicode="&#x111;" 
d="M1073 1116l-162 -771q-24 -114 -24 -168q0 -34 22 -34q27 0 152 94l18 -60l-183 -134q-66 -43 -112 -59q-30 -11 -55 -11q-35 0 -58 27t-23 73q0 27 5 54q23 115 45 197l44 161q-127 -241 -310 -394q-140 -118 -227 -118q-55 0 -90.5 50t-35.5 162q0 115 38 260t98 251
q34 61 85 98q153 112 246 152q66 29 144 29q51 0 130 -22l25 163h-396l18 84h392q12 73 12 93q0 25 -18.5 37t-76.5 12q-34 0 -79 -1l12 60q184 4 420 92l27 -19q-13 -47 -65 -274h214l-19 -84h-213zM794 833q-75 44 -172 44q-87 0 -122 -34q-50 -48 -116 -262.5t-66 -376.5
q0 -33 11.5 -48t29.5 -15q21 0 56 22q60 36 130 124q93 116 150 233t80 225z" />
    <glyph glyph-name="overscore" unicode="&#xaf;" horiz-adv-x="1024" 
d="M135 1637h1048v-102h-1048v102z" />
    <glyph glyph-name="middot" unicode="&#xb7;" horiz-adv-x="682" 
d="M737 855q50 0 86 -36t36 -87q0 -50 -35.5 -85.5t-84.5 -35.5q-50 0 -86 36.5t-36 86.5t35 85.5t85 35.5z" />
    <glyph glyph-name="foursuperior" unicode="&#xf003;" horiz-adv-x="739" 
d="M191 561l7 57h48q88 0 100 8.5t23 69.5l15 85l-221 -2l-54 -1l-47 1l5 53l200 289q52 72 105 133q80 94 94 114q69 8 164 41l23 -18q-13 -53 -32 -176l-55 -329l94 3l41 2l11 -9l-25 -105q-95 4 -140 4l-11 -81q-5 -43 -5 -53q0 -16 9.5 -22.5t39.5 -6.5h103l-10 -57
q-133 6 -236 6q-49 0 -246 -6zM415 872q40 256 76 444q-143 -177 -216 -275q-90 -124 -111 -169h251z" />
    <glyph glyph-name="Abreve" unicode="&#x102;" horiz-adv-x="1479" 
d="M-97 -10l3 69h39q40 0 67 10t44 33l80 136l529 904q112 191 149 263h197q13 -99 29 -206l138 -880q22 -143 32.5 -184.5t24.5 -53.5t56 -16l45 -5q23 -1 48 -1l1 -69q-122 10 -282 10q-205 0 -337 -10l1 69h39q69 0 99 12t30 49q0 62 -16 170l-34 252l-159 1l-297 -1
l-84 -150q-131 -237 -131 -284q0 -23 24 -33q38 -16 158 -16l-12 -69q-123 10 -242 10q-120 0 -239 -10zM788 1172l-310 -531l197 -2l195 2zM635 1822h74q10 -101 65.5 -152t157.5 -51q93 0 162 53.5t101 149.5h74q-39 -172 -130.5 -252t-226.5 -80q-131 0 -205 73.5
t-74 211.5z" />
    <glyph glyph-name="abreve" unicode="&#x103;" 
d="M1032 239l21 -65q-249 -201 -349 -201q-33 0 -49 21q-23 29 -23 72q0 60 70 338l18 71q-122 -192 -169 -249q-78 -96 -147.5 -152t-138.5 -84q-41 -17 -70 -17q-54 0 -85 41t-31 137q0 115 43.5 276t92.5 249q26 46 110 112q160 126 225.5 155t142.5 29q55 0 109 -12.5
t106 -37.5l93 51l33 -21q-8 -19 -21 -62l-38 -134l-113 -481q-15 -63 -15 -97q0 -35 24 -35q43 0 161 96zM770 820q-45 22 -86.5 33t-80.5 11q-69 0 -117.5 -46.5t-105.5 -234.5q-76 -249 -76 -372q0 -35 12 -52.5t28 -17.5q15 0 41 17q67 45 156 158.5t147 236t73 217.5z
M449 1393h74q10 -101 65.5 -152t157.5 -51q93 0 162 53.5t101 149.5h74q-39 -172 -130.5 -252t-226.5 -80q-131 0 -205 73.5t-74 211.5z" />
    <glyph glyph-name="Aogonek" unicode="&#x104;" horiz-adv-x="1479" 
d="M-97 -10l3 69h39q40 0 67 10t44 33l80 136l529 904q112 191 149 263h197q13 -99 29 -206l138 -880q22 -143 32.5 -184.5t24.5 -53.5t56 -16l45 -5q23 -1 48 -1l1 -69q-122 10 -282 10q-205 0 -337 -10l1 69h39q69 0 99 12t30 49q0 62 -16 170l-34 252l-159 1l-297 -1
l-84 -150q-131 -237 -131 -284q0 -23 24 -33q38 -16 158 -16l-12 -69q-123 10 -242 10q-120 0 -239 -10zM788 1172l-310 -531l197 -2l195 2zM1079 5q-72 -82 -95 -127.5t-23 -82.5q0 -47 30 -78t74 -31q26 0 47 10t57 45l36 -23q-108 -121 -207 -121q-66 0 -113 46.5
t-47 112.5q0 34 12 62q16 37 47 69l137 118h45z" />
    <glyph glyph-name="aogonek" unicode="&#x105;" 
d="M1032 239l21 -65q-249 -201 -349 -201q-33 0 -49 21q-23 29 -23 72q0 60 70 338l18 71q-122 -192 -169 -249q-78 -96 -147.5 -152t-138.5 -84q-41 -17 -70 -17q-54 0 -85 41t-31 137q0 115 43.5 276t92.5 249q26 46 110 112q160 126 225.5 155t142.5 29q55 0 109 -12.5
t106 -37.5l93 51l33 -21q-8 -19 -21 -62l-38 -134l-113 -481q-15 -63 -15 -97q0 -35 24 -35q43 0 161 96zM770 820q-45 22 -86.5 33t-80.5 11q-69 0 -117.5 -46.5t-105.5 -234.5q-76 -249 -76 -372q0 -35 12 -52.5t28 -17.5q15 0 41 17q67 45 156 158.5t147 236t73 217.5z
M750 0q-72 -82 -95 -127.5t-23 -82.5q0 -47 30 -78t74 -31q26 0 47 10t57 45l36 -23q-108 -121 -207 -121q-66 0 -113 46.5t-47 112.5q0 34 12 62q16 37 47 69l137 118h45z" />
    <glyph glyph-name="Dcaron" unicode="&#x10e;" horiz-adv-x="1593" 
d="M-3 -10l11 69q31 0 92 17q26 7 37.5 23t27.5 97q27 151 132 783q36 215 36 282q0 37 -22 47q-38 19 -177 19l11 68q102 -6 293 -6l464 6q231 0 357 -61.5t196.5 -183.5t70.5 -297q0 -236 -110 -436.5t-298.5 -312.5t-418.5 -112l-386 8q-155 0 -316 -10zM414 120l91 -15
q143 -25 227 -25q168 0 264 83q120 104 184.5 305.5t64.5 394.5q0 159 -52 259t-135.5 142.5t-264.5 42.5q-97 0 -184 -17l-65 -387l-67 -402zM609 1843h90l193 -205l281 205h98l-328 -352h-142z" />
    <glyph glyph-name="dcaron" unicode="&#x10f;" horiz-adv-x="1360" 
d="M1082 237l18 -60l-183 -134q-66 -43 -112 -59q-30 -11 -55 -11q-35 0 -58 27t-23 73q0 27 5 54q23 115 45 197l44 161q-127 -241 -310 -394q-140 -118 -227 -118q-55 0 -90.5 50t-35.5 162q0 115 38 260t98 251q34 61 85 98q153 112 246 152q66 29 144 29q51 0 130 -22
l34 218q17 108 17 123q0 24 -19 36t-76 12q-33 0 -79 -1l12 60q184 4 420 92l27 -19q-34 -126 -73 -309l-172 -820q-24 -114 -24 -168q0 -34 22 -34q27 0 152 94zM815 833q-75 44 -172 44q-87 0 -122 -34q-50 -48 -116 -262.5t-66 -376.5q0 -33 11.5 -48t29.5 -15
q21 0 56 22q60 36 130 124q93 116 150 233t80 225zM1150 923l-34 27q58 83 116.5 235t62.5 250q17 3 123.5 31t110.5 32l30 -27q-148 -301 -313 -485z" />
    <glyph glyph-name="Dslash" unicode="&#x110;" horiz-adv-x="1593" 
d="M246 676h-170l17 98h170l34 205q36 215 36 282q0 37 -22 47q-38 19 -155 19h-22l11 68q102 -6 293 -6l464 6q231 0 357 -61.5t196.5 -183.5t70.5 -297q0 -236 -110 -436.5t-298.5 -312.5t-418.5 -112l-386 8q-155 0 -316 -10l11 69q31 0 92 17q26 7 37.5 23t27.5 97
l27 151zM506 676l-29 -175l-63 -381l91 -15q143 -25 227 -25q168 0 264 83q120 104 184.5 305.5t64.5 394.5q0 159 -52 259t-135.5 142.5t-264.5 42.5q-97 0 -184 -17l-65 -387l-21 -129h376l-18 -98h-375z" />
    <glyph glyph-name="Eogonek" unicode="&#x118;" horiz-adv-x="1251" 
d="M-7 -10l11 69q105 14 123 31t43 139q10 50 80 469l69 414q20 119 20 159q0 27 -20 38q-32 18 -103 18h-74l11 68l118 -3l111 -4l368 4l330 1q78 0 126 -8l10 -8q-32 -157 -52 -314h-70l3 66l1 80q0 46 -29 56q-84 31 -293 31q-88 0 -168 -12l-85 -510l293 -8q38 0 178 8
l6 -13l-24 -97q-198 10 -389 10q-43 0 -81 -2l-94 -564q107 -14 215 -14q162 0 271 19q58 10 71 22q18 19 50 128l26 83h72l-32 -182q-17 -90 -24 -154l-15 -17q-46 -3 -95 -3l-783 14q-84 0 -175 -14zM962 0q-72 -82 -95 -127.5t-23 -82.5q0 -47 30 -78t74 -31q26 0 47 10
t57 45l36 -23q-108 -121 -207 -121q-66 0 -113 46.5t-47 112.5q0 34 12 62q16 37 47 69l137 118h45z" />
    <glyph glyph-name="eogonek" unicode="&#x119;" horiz-adv-x="909" 
d="M795 242l22 -55l-170 -108q-106 -59 -179.5 -82.5t-133.5 -23.5q-122 0 -188.5 64t-66.5 184q0 140 59 326q42 132 113.5 209t243.5 166q97 50 196 50q91 0 143 -45.5t52 -119.5q0 -90 -51.5 -166.5t-183.5 -140t-326 -94.5q-21 -72 -21 -136q0 -80 40.5 -119.5
t115.5 -39.5q57 0 146.5 33t188.5 98zM333 461q155 42 216 81t101.5 110.5t40.5 127.5q0 43 -26.5 69t-71.5 26q-49 0 -94 -32t-83 -112.5t-83 -269.5zM390 0q-72 -82 -95 -127.5t-23 -82.5q0 -47 30 -78t74 -31q26 0 47 10t57 45l36 -23q-108 -121 -207 -121
q-66 0 -113 46.5t-47 112.5q0 34 12 62q16 37 47 69l137 118h45z" />
    <glyph glyph-name="Ecaron" unicode="&#x11a;" horiz-adv-x="1251" 
d="M-7 -10l11 69q105 14 123 31t43 139q10 50 80 469l69 414q20 119 20 159q0 27 -20 38q-32 18 -103 18h-74l11 68l118 -3l111 -4l368 4l330 1q78 0 126 -8l10 -8q-32 -157 -52 -314h-70l3 66l1 80q0 46 -29 56q-84 31 -293 31q-88 0 -168 -12l-85 -510l293 -8q38 0 178 8
l6 -13l-24 -97q-198 10 -389 10q-43 0 -81 -2l-94 -564q107 -14 215 -14q162 0 271 19q58 10 71 22q18 19 50 128l26 83h72l-32 -182q-17 -90 -24 -154l-15 -17q-46 -3 -95 -3l-783 14q-84 0 -175 -14zM500 1843h90l193 -205l281 205h98l-328 -352h-142z" />
    <glyph glyph-name="ecaron" unicode="&#x11b;" horiz-adv-x="909" 
d="M795 242l22 -55l-170 -108q-106 -59 -179.5 -82.5t-133.5 -23.5q-122 0 -188.5 64t-66.5 184q0 140 59 326q42 132 113.5 209t243.5 166q97 50 196 50q91 0 143 -45.5t52 -119.5q0 -90 -51.5 -166.5t-183.5 -140t-326 -94.5q-21 -72 -21 -136q0 -80 40.5 -119.5
t115.5 -39.5q57 0 146.5 33t188.5 98zM333 461q155 42 216 81t101.5 110.5t40.5 127.5q0 43 -26.5 69t-71.5 26q-49 0 -94 -32t-83 -112.5t-83 -269.5zM369 1413h90l193 -205l281 205h98l-328 -352h-142z" />
    <glyph glyph-name="IJ" unicode="&#x132;" horiz-adv-x="1593" 
d="M-21 -10l11 69h62q101 0 116 38t95 493l43 254q58 348 58 424q0 33 -29.5 46t-112.5 13h-53l11 68h19q259 -7 293 -7l346 7l-12 -68h-25q-115 0 -138.5 -20t-63.5 -262l-113 -680q-31 -184 -31 -241q0 -37 30 -51t107 -14h60l-12 -69q-234 10 -348 10q-144 0 -313 -10z
M737 -406l-6 68q39 -12 73 -12q75 0 106 75.5t83 389.5l135 811q45 271 45 346q0 31 -35.5 43t-129.5 12h-45l12 68q208 -7 388 -7q162 0 277 7l-11 -68h-35q-113 0 -128.5 -31t-76.5 -364l-106 -635q-40 -243 -63.5 -333t-87.5 -189t-146.5 -151t-159.5 -52q-51 0 -89 22z
" />
    <glyph glyph-name="ij" unicode="&#x133;" horiz-adv-x="1364" 
d="M405 1277q0 65 38.5 111t103.5 46q49 0 79.5 -31t30.5 -79q0 -63 -36.5 -112t-103.5 -49q-112 0 -112 114zM1103 1280q0 69 41.5 111.5t99.5 42.5q48 0 78.5 -30t30.5 -81q0 -64 -36.5 -113t-102.5 -49q-111 0 -111 119zM528 -562q24 81 33 162l29 6q46 -73 94 -73
q29 0 49 25t56 174.5t81 366.5l86 414q37 178 37 224q0 36 -23 36q-47 0 -194 -111l-26 55q247 180 327 218t125 38q53 0 53 -76q0 -50 -28 -167l-79 -335q-2 -9 -9 -33l-82 -314q-45 -171 -88.5 -273.5t-128 -200.5t-132 -123.5t-96.5 -25.5q-34 0 -84 13zM86 668l-24 54
q228 171 310.5 211t124.5 40q26 0 43.5 -21t17.5 -55q0 -73 -65 -294l-32 -108q-75 -250 -75 -316q0 -34 27 -34q30 0 172 96l27 -53q-15 -9 -73 -49q-236 -166 -315 -166q-77 0 -77 109q0 74 32 191l67 238q50 179 50 233q0 26 -22 26q-19 0 -78 -31.5t-110 -70.5z" />
    <glyph glyph-name="Lacute" unicode="&#x139;" horiz-adv-x="1251" 
d="M-7 -10l11 69h45q69 0 91 43q13 23 82 413l63 383q21 124 33 236t12 138q0 30 -18.5 42.5t-73.5 12.5h-96l11 68q271 -6 375 -6q129 0 287 6l-12 -68h-56q-88 0 -109.5 -16.5t-34.5 -79.5q-10 -47 -59 -340l-131 -787q156 -9 240 -9q241 0 307 31q30 14 65 130l35 102h73
q-57 -251 -70 -368q-248 0 -406 4l-292 6q-250 0 -372 -10zM482 1491h-87l242 255q74 76 96 90.5t47 14.5q39 0 65 -24.5t26 -60.5q0 -27 -16 -47.5t-67 -48.5z" />
    <glyph glyph-name="lacute" unicode="&#x13a;" horiz-adv-x="682" 
d="M591 243l30 -54l-179 -122q-107 -65 -147 -79.5t-66 -14.5q-31 0 -51 28t-20 87q0 88 35 232l129 536q31 125 66 310q18 113 18 133t-18 29q-25 13 -94 13h-58l9 60q216 24 414 92l24 -22l-71 -290l-143 -608q-71 -305 -71 -379q0 -25 7.5 -36t19.5 -11q15 0 44 17
q75 40 122 79zM439 1491h-87l242 255q74 76 96 90.5t47 14.5q39 0 65 -24.5t26 -60.5q0 -27 -16 -47.5t-67 -48.5z" />
    <glyph glyph-name="Lcaron" unicode="&#x13d;" horiz-adv-x="1251" 
d="M-7 -10l11 69h45q69 0 91 43q13 23 82 413l63 383q21 124 33 236t12 138q0 30 -18.5 42.5t-73.5 12.5h-96l11 68q271 -6 375 -6q129 0 287 6l-12 -68h-56q-88 0 -109.5 -16.5t-34.5 -79.5q-10 -47 -59 -340l-131 -787q156 -9 240 -9q241 0 307 31q30 14 65 130l35 102h73
q-57 -251 -70 -368q-248 0 -406 4l-292 6q-250 0 -372 -10zM734 921l-34 27q58 83 116.5 235t62.5 250q17 3 123.5 31t110.5 32l30 -27q-148 -301 -313 -485z" />
    <glyph glyph-name="lcaron" unicode="&#x13e;" horiz-adv-x="889" 
d="M591 243l30 -54l-179 -122q-107 -65 -147 -79.5t-66 -14.5q-31 0 -51 28t-20 87q0 88 35 232l129 536q31 125 66 310q18 113 18 133t-18 29q-25 13 -94 13h-58l9 60q216 24 414 92l24 -22l-71 -290l-143 -608q-71 -305 -71 -379q0 -25 7.5 -36t19.5 -11q15 0 44 17
q75 40 122 79zM681 921l-34 27q58 83 116.5 235t62.5 250q17 3 123.5 31t110.5 32l30 -27q-148 -301 -313 -485z" />
    <glyph glyph-name="Ldot" unicode="&#x13f;" horiz-adv-x="1251" 
d="M-7 -10l11 69h45q69 0 91 43q13 23 82 413l63 383q21 124 33 236t12 138q0 30 -18.5 42.5t-73.5 12.5h-96l11 68q271 -6 375 -6q129 0 287 6l-12 -68h-56q-88 0 -109.5 -16.5t-34.5 -79.5q-10 -47 -59 -340l-131 -787q156 -9 240 -9q241 0 307 31q30 14 65 130l35 102h73
q-57 -251 -70 -368q-248 0 -406 4l-292 6q-250 0 -372 -10zM875 945q50 0 86 -36t36 -87q0 -50 -35.5 -85.5t-84.5 -35.5q-50 0 -86 36t-36 87q0 50 35 85.5t85 35.5z" />
    <glyph glyph-name="ldot" unicode="&#x140;" horiz-adv-x="887" 
d="M591 243l30 -54l-179 -122q-107 -65 -147 -79.5t-66 -14.5q-31 0 -51 28t-20 87q0 88 35 232l129 536q31 125 66 310q18 113 18 133t-18 29q-25 13 -94 13h-58l9 60q216 24 414 92l24 -22l-71 -290l-143 -608q-71 -305 -71 -379q0 -25 7.5 -36t19.5 -11q15 0 44 17
q75 40 122 79zM737 855q50 0 86 -36t36 -87q0 -50 -35.5 -85.5t-84.5 -35.5q-50 0 -86 36t-36 87q0 50 35 85.5t85 35.5z" />
    <glyph glyph-name="Nacute" unicode="&#x143;" horiz-adv-x="1593" 
d="M-35 -9l11 68h51q56 0 76 12t31 35q16 33 55 230l64 336l90 542q-43 72 -76 92.5t-101 20.5h-75l12 68q135 -7 246 -7q102 0 195 7q16 -26 80 -140q39 -69 69 -117l505 -849l62 370q89 535 89 611q0 29 -19.5 43t-69.5 14h-91l11 68q153 -7 271 -7q112 0 212 7l-11 -68
h-70q-58 0 -77.5 -23t-59.5 -214q-65 -310 -164 -907q-22 -130 -31 -199h-178l-166 290l-481 818l-64 -382q-83 -502 -83 -588q0 -33 18.5 -48t67.5 -15h90l-12 -68q-156 9 -254 9q-104 0 -223 -9zM833 1491h-87l242 255q74 76 96 90.5t47 14.5q39 0 65 -24.5t26 -60.5
q0 -27 -16 -47.5t-67 -48.5z" />
    <glyph glyph-name="nacute" unicode="&#x144;" 
d="M91 -27l-25 26q21 54 35 99l67 229q34 121 56.5 250.5t22.5 168.5q0 30 -23 30q-13 0 -43 -16q-61 -32 -108 -70l-26 54l151 114q100 71 164 99q36 15 68 15q28 0 42.5 -14.5t14.5 -46.5q0 -28 -8 -71q-22 -114 -48 -210l-41 -150q79 129 106 162q82 101 177.5 182.5
t180.5 120.5q59 27 104 27q42 0 64 -24t22 -69q0 -66 -61 -282l-51 -183q-41 -148 -41 -231q0 -38 23 -38q17 0 50 19q64 37 99 71l25 -59q-177 -127 -239 -159q-83 -44 -136 -44q-37 0 -55 24t-18 84q0 65 40 203l32 111q43 148 53 196q27 116 27 149q0 18 -10.5 28
t-28.5 10q-50 0 -136 -86q-119 -119 -196.5 -288t-110.5 -392q-127 -10 -219 -39zM606 1061h-87l242 255q74 76 96 90.5t47 14.5q39 0 65 -24.5t26 -60.5q0 -27 -16 -47.5t-67 -48.5z" />
    <glyph glyph-name="Ncaron" unicode="&#x147;" horiz-adv-x="1593" 
d="M-35 -9l11 68h51q56 0 76 12t31 35q16 33 55 230l64 336l90 542q-43 72 -76 92.5t-101 20.5h-75l12 68q135 -7 246 -7q102 0 195 7q16 -26 80 -140q39 -69 69 -117l505 -849l62 370q89 535 89 611q0 29 -19.5 43t-69.5 14h-91l11 68q153 -7 271 -7q112 0 212 7l-11 -68
h-70q-58 0 -77.5 -23t-59.5 -214q-65 -310 -164 -907q-22 -130 -31 -199h-178l-166 290l-481 818l-64 -382q-83 -502 -83 -588q0 -33 18.5 -48t67.5 -15h90l-12 -68q-156 9 -254 9q-104 0 -223 -9zM662 1843h90l193 -205l281 205h98l-328 -352h-142z" />
    <glyph glyph-name="ncaron" unicode="&#x148;" 
d="M91 -27l-25 26q21 54 35 99l67 229q34 121 56.5 250.5t22.5 168.5q0 30 -23 30q-13 0 -43 -16q-61 -32 -108 -70l-26 54l151 114q100 71 164 99q36 15 68 15q28 0 42.5 -14.5t14.5 -46.5q0 -28 -8 -71q-22 -114 -48 -210l-41 -150q79 129 106 162q82 101 177.5 182.5
t180.5 120.5q59 27 104 27q42 0 64 -24t22 -69q0 -66 -61 -282l-51 -183q-41 -148 -41 -231q0 -38 23 -38q17 0 50 19q64 37 99 71l25 -59q-177 -127 -239 -159q-83 -44 -136 -44q-37 0 -55 24t-18 84q0 65 40 203l32 111q43 148 53 196q27 116 27 149q0 18 -10.5 28
t-28.5 10q-50 0 -136 -86q-119 -119 -196.5 -288t-110.5 -392q-127 -10 -219 -39zM415 1413h90l193 -205l281 205h98l-328 -352h-142z" />
    <glyph glyph-name="napostrophe" unicode="&#x149;" horiz-adv-x="1503" 
d="M456 -27l-25 26q21 54 35 99l67 229q34 121 56.5 250.5t22.5 168.5q0 30 -23 30q-13 0 -43 -16q-61 -32 -108 -70l-26 54l151 114q100 71 164 99q36 15 68 15q28 0 42.5 -14.5t14.5 -46.5q0 -28 -8 -71q-22 -114 -48 -210l-41 -150q79 129 106 162q82 101 177.5 182.5
t180.5 120.5q59 27 104 27q42 0 64 -24t22 -69q0 -66 -61 -282l-51 -183q-41 -148 -41 -231q0 -38 23 -38q17 0 50 19q64 37 99 71l25 -59q-177 -127 -239 -159q-83 -44 -136 -44q-37 0 -55 24t-18 84q0 65 40 203l32 111q43 148 53 196q27 116 27 149q0 18 -10.5 28
t-28.5 10q-50 0 -136 -86q-119 -119 -196.5 -288t-110.5 -392q-127 -10 -219 -39zM152 921l-34 27q58 83 116.5 235t62.5 250q17 3 123.5 31t110.5 32l30 -27q-148 -301 -313 -485z" />
    <glyph glyph-name="Odblacute" unicode="&#x150;" horiz-adv-x="1706" 
d="M128 536q0 266 107 466t291.5 306.5t436.5 106.5q302 0 468 -155t166 -423q0 -234 -116 -439.5t-304 -315t-434 -109.5q-294 0 -454.5 150.5t-160.5 412.5zM411 475q0 -140 44 -228t133.5 -137t208.5 -49q147 0 250.5 80t185 295.5t81.5 468.5q0 212 -98.5 317
t-280.5 105q-158 0 -263.5 -79.5t-183 -288.5t-77.5 -484zM1070 1468h-87l242 254q67 71 90 88.5t51 17.5q39 0 65 -24.5t26 -60.5q0 -34 -26 -58q-11 -10 -95 -60zM735 1468h-87l242 254q73 77 95.5 91.5t46.5 14.5q39 0 65 -24.5t26 -60.5q0 -34 -26 -58q-10 -10 -95 -60z
" />
    <glyph glyph-name="odblacute" unicode="&#x151;" 
d="M97 279q0 200 89 387q52 110 209.5 208t307.5 98q114 0 190 -36.5t112 -103t36 -175.5q0 -137 -50.5 -274.5t-116.5 -204.5q-86 -86 -237 -156q-106 -49 -223 -49q-162 0 -239.5 76.5t-77.5 229.5zM337 301q0 -125 46 -178t139 -53q65 0 115 45q66 60 115.5 220.5
t49.5 325.5q0 114 -48 169t-129 55q-71 0 -128 -50t-100 -190q-60 -198 -60 -344zM836 1047h-87l242 254q67 71 90 88.5t51 17.5q39 0 65 -24.5t26 -60.5q0 -34 -26 -58q-11 -10 -95 -60zM501 1047h-87l242 254q73 77 95.5 91.5t46.5 14.5q39 0 65 -24.5t26 -60.5
q0 -34 -26 -58q-10 -10 -95 -60z" />
    <glyph glyph-name="Racute" unicode="&#x154;" horiz-adv-x="1479" 
d="M-35 -10l11 69h59q72 0 92.5 19t45.5 149l65 397l85 510q15 87 15 131q0 32 -22 47t-85 15h-82l11 68q107 -6 334 -6l397 8q161 0 237.5 -33t122 -102t45.5 -159q0 -139 -99 -238.5t-320 -141.5l140 -228l133 -224q92 -156 122 -184t85 -28h35l-12 -69q-116 10 -204 10
q-82 0 -165 -10l-32 60q-45 88 -89 164l-136 235q-64 110 -171 274l5 33l73 -2q161 0 261.5 82.5t100.5 247.5q0 113 -61 168t-199 55q-55 0 -153 -16l-63 -378l-95 -568q-29 -174 -29 -221q0 -35 24.5 -50t109.5 -15h56l-11 -69l-339 11q-68 0 -298 -11zM697 1491h-87
l242 255q74 76 96 90.5t47 14.5q39 0 65 -24.5t26 -60.5q0 -27 -16 -47.5t-67 -48.5z" />
    <glyph glyph-name="racute" unicode="&#x155;" horiz-adv-x="797" 
d="M118 -27l-22 23q55 178 101 370q24 100 44 232q13 89 13 134q0 27 -6 37t-16 10q-15 0 -46 -17q-51 -28 -108 -76l-24 55q291 231 377 231q25 0 41.5 -19.5t16.5 -54.5q0 -55 -73 -341l-13 -53h13q74 171 152.5 288.5t135.5 153.5q42 26 100 26q28 0 55 -9
q-41 -131 -46 -277l-23 -14q-49 43 -106 43q-91 0 -165 -121q-128 -207 -181 -581q-128 -15 -220 -40zM475 1061h-87l242 255q74 76 96 90.5t47 14.5q39 0 65 -24.5t26 -60.5q0 -27 -16 -47.5t-67 -48.5z" />
    <glyph glyph-name="Rcaron" unicode="&#x158;" horiz-adv-x="1479" 
d="M-35 -10l11 69h59q72 0 92.5 19t45.5 149l65 397l85 510q15 87 15 131q0 32 -22 47t-85 15h-82l11 68q107 -6 334 -6l397 8q161 0 237.5 -33t122 -102t45.5 -159q0 -139 -99 -238.5t-320 -141.5l140 -228l133 -224q92 -156 122 -184t85 -28h35l-12 -69q-116 10 -204 10
q-82 0 -165 -10l-32 60q-45 88 -89 164l-136 235q-64 110 -171 274l5 33l73 -2q161 0 261.5 82.5t100.5 247.5q0 113 -61 168t-199 55q-55 0 -153 -16l-63 -378l-95 -568q-29 -174 -29 -221q0 -35 24.5 -50t109.5 -15h56l-11 -69l-339 11q-68 0 -298 -11zM526 1843h90
l193 -205l281 205h98l-328 -352h-142z" />
    <glyph glyph-name="rcaron" unicode="&#x159;" horiz-adv-x="797" 
d="M118 -27l-22 23q55 178 101 370q24 100 44 232q13 89 13 134q0 27 -6 37t-16 10q-15 0 -46 -17q-51 -28 -108 -76l-24 55q291 231 377 231q25 0 41.5 -19.5t16.5 -54.5q0 -55 -73 -341l-13 -53h13q74 171 152.5 288.5t135.5 153.5q42 26 100 26q28 0 55 -9
q-41 -131 -46 -277l-23 -14q-49 43 -106 43q-91 0 -165 -121q-128 -207 -181 -581q-128 -15 -220 -40zM304 1413h90l193 -205l281 205h98l-328 -352h-142z" />
    <glyph glyph-name="Sacute" unicode="&#x15a;" 
d="M63 75q30 138 52 310h66l-3 -110l1 -64q46 -55 132.5 -92t182.5 -37q145 0 223 76.5t78 207.5q0 89 -45 133q-46 43 -203 78q-233 52 -299 133q-66 80 -66 214q0 199 159 345t393 146q89 0 167.5 -21t145.5 -63q-38 -169 -50 -301h-69l3 106l-1 58q-37 50 -107.5 81.5
t-161.5 31.5q-134 0 -209 -71.5t-75 -195.5q0 -70 31 -120t87 -70q83 -29 193 -53q209 -47 266 -119t57 -191q0 -198 -171.5 -356t-413.5 -158q-108 0 -198.5 25.5t-164.5 76.5zM574 1491h-87l242 255q74 76 96 90.5t47 14.5q39 0 65 -24.5t26 -60.5q0 -27 -16 -47.5
t-67 -48.5z" />
    <glyph glyph-name="sacute" unicode="&#x15b;" horiz-adv-x="909" 
d="M36 29q36 138 45 268h62l3 -97q43 -52 114 -85.5t144 -33.5q92 0 139.5 42t47.5 111q0 53 -32 88t-109 51l-86 18q-121 25 -165 66q-67 62 -67 162q0 119 82 188q194 165 378 165q58 0 117 -14.5t119 -44.5q-25 -106 -40 -241h-60l-11 99q-60 52 -115 72.5t-113 20.5
q-74 0 -118.5 -40.5t-44.5 -102.5q0 -61 43 -97q42 -37 161 -57l56 -9q105 -18 158 -76q52 -58 52 -146q0 -90 -62 -161t-172.5 -136.5t-250.5 -65.5q-66 0 -117.5 10t-157.5 46zM451 1061h-87l242 255q74 76 96 90.5t47 14.5q39 0 65 -24.5t26 -60.5q0 -27 -16 -47.5
t-67 -48.5z" />
    <glyph glyph-name="Tcedilla" unicode="&#x162;" horiz-adv-x="1251" 
d="M188 -10l11 69h83q92 0 104 34t54 269l71 423l83 501h-102q-190 0 -242 -21t-73 -147l-13 -80h-78q31 174 50 355l11 9q12 0 225 -7l196 -2h284q333 0 478 9l15 -9q-53 -277 -59 -355h-76l6 104q2 27 2 58q0 54 -22 70t-172 16h-170l-48 -290l-116 -696
q-22 -133 -22 -179q0 -38 26.5 -50t86.5 -12h84l-11 -69q-222 10 -361 10q-154 0 -305 -10zM285 -547l-28 21q47 60 94.5 173t51.5 186q108 18 190 46l24 -20q-1 -1 -30 -53q-97 -175 -224 -306z" />
    <glyph glyph-name="tcedilla" unicode="&#x163;" horiz-adv-x="797" 
d="M687 270l25 -56q-6 -3 -63 -45q-261 -196 -366 -196q-51 0 -81.5 35t-30.5 93q0 52 91 451q55 239 60 273h-223l15 55q87 19 236 69l13 86q25 154 25 172q0 6 -1 23q58 12 183 56l68 24l22 -24q-11 -29 -26 -87l-25 -89q-5 -15 -10 -35l-33 -143h103q111 0 175 8l8 -8
l-15 -51q-11 -37 -13 -64q-87 8 -175 8h-107q-5 -14 -28 -117l-61 -262q-43 -185 -43 -253q0 -54 49 -54q77 0 228 131zM106 -547l-28 21q47 60 94.5 173t51.5 186q108 18 190 46l24 -20q-1 -1 -30 -53q-97 -175 -224 -306z" />
    <glyph glyph-name="Tcaron" unicode="&#x164;" horiz-adv-x="1251" 
d="M188 -10l11 69h83q65 0 83.5 13t28 48t46.5 242l154 924h-102q-190 0 -250 -24q-44 -18 -65 -144l-13 -80h-78q32 176 50 355l11 9l421 -9h284q333 0 478 9l15 -9l-20 -104q-29 -154 -39 -251h-76q8 104 8 162q0 57 -26.5 71.5t-167.5 14.5h-170l-164 -986
q-22 -133 -22 -179q0 -33 21.5 -47.5t91.5 -14.5h84l-11 -69q-224 10 -361 10q-149 0 -305 -10zM497 1843h90l193 -205l281 205h98l-328 -352h-142z" />
    <glyph glyph-name="tcaron" unicode="&#x165;" horiz-adv-x="854" 
d="M707 1079l-23 23q47 67 88 180t43 169q28 2 190 44l21 -19q-106 -205 -235 -350zM688 270l24 -56q-5 -3 -62 -45q-261 -196 -366 -196q-51 0 -82 35t-31 93q0 52 92 451q54 239 59 273h-222l14 55q87 19 236 69l14 86q24 154 24 172q0 7 -1 23q59 12 183 56l69 24l21 -24
q-11 -29 -26 -87l-25 -89l-9 -35l-34 -143h103q112 0 175 8l8 -8q-5 -21 -14 -51q-12 -37 -13 -64q-87 8 -175 8h-107q-5 -14 -29 -117l-60 -262q-43 -185 -43 -253q0 -54 48 -54q77 0 229 131z" />
    <glyph glyph-name="Uring" unicode="&#x16e;" horiz-adv-x="1593" 
d="M1469 59l-11 -69q-110 10 -290 10q-76 0 -165 -7l-14 12q3 18 17 75q23 97 33 179q-154 -162 -289 -236q-91 -50 -210 -50q-165 0 -265 94t-100 235q0 66 18 175l53 315q68 412 68 474q0 33 -19.5 47t-79.5 14h-83l12 68l312 -4q85 0 151 4l11 -14q-48 -203 -83 -412
l-60 -362q-38 -229 -38 -276q0 -84 60 -137t163 -53q69 0 145 32t151.5 100t86 92t44.5 231l72 431q32 193 32 246q0 27 -23 40.5t-94 13.5h-76l12 68q172 -7 276 -7l369 7l-11 -68h-55q-88 0 -106 -32q-26 -45 -78 -354l-79 -477q-46 -272 -46 -332q0 -37 28.5 -55
t104.5 -18h56zM892 1887q83 0 142 -59t59 -143q0 -82 -57.5 -139.5t-139.5 -57.5q-83 0 -142.5 59t-59.5 142q0 82 58 140t140 58zM893 1809q-51 0 -86 -35t-35 -85q0 -51 36 -87.5t87 -36.5q50 0 85.5 35.5t35.5 85.5q0 51 -36.5 87t-86.5 36z" />
    <glyph glyph-name="uring" unicode="&#x16f;" 
d="M84 710l-24 57q135 97 236 151t154 54q34 0 51 -18t17 -61q0 -52 -36 -183l-59 -218q-33 -123 -55 -235q-10 -49 -10 -72q0 -22 9.5 -33t25.5 -11q21 0 54 21q52 34 132 133.5t138.5 222t86 236t32.5 178.5q103 4 221 41l17 -20q-51 -155 -117 -398q-79 -294 -79 -371
q0 -35 30 -35q12 0 38 14q61 34 111 75l20 -57l-182 -131q-75 -49 -113.5 -63t-65.5 -14q-30 0 -47.5 21.5t-17.5 62.5q0 50 35 181l58 219q-122 -220 -310 -374q-135 -110 -221 -110q-44 0 -69 29.5t-25 94.5q0 35 7 69q8 45 43 170l29 107q67 245 67 305q0 20 -8 30.5
t-21 10.5q-30 0 -152 -79zM720 1457q83 0 142 -59t59 -143q0 -82 -57.5 -139.5t-139.5 -57.5q-83 0 -142.5 59t-59.5 142q0 82 58 140t140 58zM721 1379q-51 0 -86 -35t-35 -85q0 -51 36 -87.5t87 -36.5q50 0 85.5 35.5t35.5 85.5q0 51 -36.5 87t-86.5 36z" />
    <glyph glyph-name="Udblacute" unicode="&#x170;" horiz-adv-x="1593" 
d="M1469 59l-11 -69q-110 10 -290 10q-76 0 -165 -7l-14 12q3 18 17 75q23 97 33 179q-154 -162 -289 -236q-91 -50 -210 -50q-165 0 -265 94t-100 235q0 66 18 175l53 315q68 412 68 474q0 33 -19.5 47t-79.5 14h-83l12 68l312 -4q85 0 151 4l11 -14q-48 -203 -83 -412
l-60 -362q-38 -229 -38 -276q0 -84 60 -137t163 -53q69 0 145 32t151.5 100t86 92t44.5 231l72 431q32 193 32 246q0 27 -23 40.5t-94 13.5h-76l12 68q172 -7 276 -7l369 7l-11 -68h-55q-88 0 -106 -32q-26 -45 -78 -354l-79 -477q-46 -272 -46 -332q0 -37 28.5 -55
t104.5 -18h56zM1013 1468h-87l242 254q67 71 90 88.5t51 17.5q39 0 65 -24.5t26 -60.5q0 -34 -26 -58q-11 -10 -95 -60zM678 1468h-87l242 254q73 77 95.5 91.5t46.5 14.5q39 0 65 -24.5t26 -60.5q0 -34 -26 -58q-10 -10 -95 -60z" />
    <glyph glyph-name="udblacute" unicode="&#x171;" 
d="M84 710l-24 57q135 97 236 151t154 54q34 0 51 -18t17 -61q0 -52 -36 -183l-59 -218q-33 -123 -55 -235q-10 -49 -10 -72q0 -22 9.5 -33t25.5 -11q21 0 54 21q52 34 132 133.5t138.5 222t86 236t32.5 178.5q103 4 221 41l17 -20q-51 -155 -117 -398q-79 -294 -79 -371
q0 -35 30 -35q12 0 38 14q61 34 111 75l20 -57l-182 -131q-75 -49 -113.5 -63t-65.5 -14q-30 0 -47.5 21.5t-17.5 62.5q0 50 35 181l58 219q-122 -220 -310 -374q-135 -110 -221 -110q-44 0 -69 29.5t-25 94.5q0 35 7 69q8 45 43 170l29 107q67 245 67 305q0 20 -8 30.5
t-21 10.5q-30 0 -152 -79zM786 1047h-87l242 254q67 71 90 88.5t51 17.5q39 0 65 -24.5t26 -60.5q0 -34 -26 -58q-11 -10 -95 -60zM451 1047h-87l242 254q73 77 95.5 91.5t46.5 14.5q39 0 65 -24.5t26 -60.5q0 -34 -26 -58q-10 -10 -95 -60z" />
    <glyph glyph-name="Zacute" unicode="&#x179;" horiz-adv-x="1366" 
d="M8 -5l-4 59q71 69 341 409l653 823h-258q-331 0 -398 -25q-29 -11 -83 -216h-77l20 98q28 145 38 245l11 9l604 -9h516v-56q-83 -87 -425 -519l-558 -706l315 -3q305 0 435 35q55 96 89 232h75q-45 -185 -77 -371l-9 -5q-242 5 -512 5h-490zM706 1491h-87l242 255
q74 76 96 90.5t47 14.5q39 0 65 -24.5t26 -60.5q0 -27 -16 -47.5t-67 -48.5z" />
    <glyph glyph-name="zacute" unicode="&#x17a;" horiz-adv-x="1024" 
d="M73 -14l-24 73l701 720q-79 -37 -176 -37q-117 0 -220 36q-36 14 -58 14q-28 0 -46 -28q-28 -44 -49 -105l-57 5l95 289q28 9 55.5 13.5t54.5 4.5q71 0 211 -38q134 -36 215 -36q52 0 88 18q25 13 54 58l40 -16l-28 -105l-678 -689q118 50 192 50q55 0 156 -17
q117 -20 156 -20q16 0 47 4l55 117l57 -5q-48 -138 -80 -292q-51 -27 -122 -27q-47 0 -91 7q-30 5 -157 38q-139 35 -227 35q-102 0 -164 -67zM504 1061h-87l242 255q74 76 96 90.5t47 14.5q39 0 65 -24.5t26 -60.5q0 -27 -16 -47.5t-67 -48.5z" />
    <glyph glyph-name="Zdot" unicode="&#x17b;" horiz-adv-x="1366" 
d="M8 -5l-4 59q71 69 341 409l653 823h-258q-331 0 -398 -25q-29 -11 -83 -216h-77l20 98q28 145 38 245l11 9l604 -9h516v-56q-83 -87 -425 -519l-558 -706l315 -3q305 0 435 35q55 96 89 232h75q-45 -185 -77 -371l-9 -5q-242 5 -512 5h-490zM847 1783q50 0 86 -36t36 -87
q0 -50 -35.5 -85.5t-84.5 -35.5q-50 0 -86 36t-36 87q0 50 35 85.5t85 35.5z" />
    <glyph glyph-name="zdot" unicode="&#x17c;" horiz-adv-x="1024" 
d="M73 -14l-24 73l701 720q-79 -37 -176 -37q-117 0 -220 36q-36 14 -58 14q-28 0 -46 -28q-28 -44 -49 -105l-57 5l95 289q28 9 55.5 13.5t54.5 4.5q71 0 211 -38q134 -36 215 -36q52 0 88 18q25 13 54 58l40 -16l-28 -105l-678 -689q118 50 192 50q55 0 156 -17
q117 -20 156 -20q16 0 47 4l55 117l57 -5q-48 -138 -80 -292q-51 -27 -122 -27q-47 0 -91 7q-30 5 -157 38q-139 35 -227 35q-102 0 -164 -67zM644 1354q50 0 86 -36t36 -87q0 -50 -35.5 -85.5t-84.5 -35.5q-50 0 -86 36t-36 87q0 50 35 85.5t85 35.5z" />
    <glyph glyph-name="noGamma" unicode="&#xf100;" horiz-adv-x="1323" 
d="M1345 1356v-359h-36q-20 106 -61.5 172t-84.5 84.5t-126 18.5h-396v-1083q0 -83 35.5 -118t135.5 -35h53v-36h-741v36h48q91 0 122.5 36.5t31.5 136.5v953q0 105 -40.5 131.5t-132.5 26.5h-29v36h1221z" />
    <glyph glyph-name="noTheta" unicode="&#xf101;" horiz-adv-x="1621" 
d="M1549 671q0 -298 -199.5 -500t-531.5 -202q-200 0 -360 78.5t-265 242.5t-105 389q0 211 99 375.5t268.5 248.5t360.5 84q220 0 402.5 -107t256.5 -273.5t74 -335.5zM1197 664q0 310 -104 480t-274 170q-164 0 -272 -160.5t-108 -472.5q0 -281 99.5 -460.5t276.5 -179.5
q173 0 277.5 167.5t104.5 455.5zM642 427h-36v508h36q0 -74 37 -105t139 -31q101 0 138.5 29t37.5 107h37v-508h-37q0 133 -145 133q-102 0 -134.5 -10t-52.5 -41t-20 -82z" />
    <glyph glyph-name="noPhi" unicode="&#xf102;" horiz-adv-x="1647" 
d="M531 0v36q75 -1 108 32t34 115q-310 14 -447.5 159.5t-137.5 336.5q0 205 146.5 344t438.5 148q2 15 2 23q0 60 -33.5 92t-110.5 34v36h601v-36q-77 -2 -110 -33.5t-33 -92.5q0 -8 1 -23q292 -9 438.5 -148t146.5 -344q0 -147 -78 -263.5t-193 -167.5t-314 -65
q1 -83 34.5 -115.5t107.5 -31.5v-36h-601zM673 1097q-124 4 -197 -93.5t-73 -334.5q0 -235 79.5 -323t190.5 -88v839zM990 259q12 -1 17 -1q88 0 171 82t83 342q0 415 -271 415v-838z" />
    <glyph glyph-name="noalpha" unicode="&#xf103;" horiz-adv-x="1138" 
d="M767 935h274l-94 -439l-7 -27l-10 -42q-25 -112 -50 -178q9 -53 37.5 -88.5t58.5 -35.5q82 0 87 150h37q-2 -181 -39.5 -242t-89.5 -61q-93 0 -130 202q-112 -202 -345 -202q-182 0 -298 129.5t-116 335.5q0 212 111.5 369t277.5 157q161 0 252 -223zM696 615
q-60 173 -105.5 220t-96.5 47q-63 0 -90 -85t-27 -387q0 -228 25.5 -297.5t76.5 -69.5q41 0 78 46.5t81 252.5z" />
    <glyph glyph-name="nodelta" unicode="&#xf104;" horiz-adv-x="1037" 
d="M489 837q-26 31 -66 68q-100 92 -146 155t-46 140q0 92 75 139.5t194 47.5q145 0 241 -44.5t96 -123.5q0 -43 -29.5 -66.5t-68.5 -23.5q-68 0 -147 93q-77 90 -161 90q-58 0 -95.5 -31t-37.5 -72q0 -91 214 -216q171 -99 249.5 -162.5t136.5 -175.5t58 -227
q0 -187 -132.5 -321.5t-319.5 -134.5q-172 0 -297 121t-125 317q0 116 51 198t126.5 135t229.5 94zM532 783q-93 -36 -130.5 -115t-37.5 -270q0 -229 39.5 -292.5t104.5 -63.5q162 0 162 329q0 246 -138 412z" />
    <glyph glyph-name="noepsilon" unicode="&#xf105;" horiz-adv-x="928" 
d="M414 489q-146 21 -216.5 93t-70.5 148q0 93 93.5 163t293.5 70q166 0 240.5 -48.5t74.5 -116.5q0 -44 -30.5 -71t-79.5 -27q-48 0 -78 24t-30 51q0 17 9 48q4 13 4 24q0 46 -101 46q-143 0 -143 -185q0 -106 28 -141.5t105 -35.5q23 0 43 2q50 5 67 5q20 0 36 -12t16 -29
q0 -37 -52 -37q-23 0 -49 2q-36 3 -59 3q-140 0 -140 -213q0 -211 147 -211q46 0 79.5 21.5t33.5 47.5q0 13 -6 41q-3 16 -3 31q0 41 28.5 67t77.5 26q53 0 83.5 -31.5t30.5 -77.5q0 -74 -88 -134t-247 -60q-182 0 -305.5 75t-123.5 191q0 60 44.5 117.5t112 85.5t175.5 48z
" />
    <glyph glyph-name="nosigma" unicode="&#xf106;" horiz-adv-x="1145" 
d="M1102 935v-208h-393q264 -145 264 -375q0 -162 -126.5 -271t-303.5 -109q-196 0 -328.5 153t-132.5 351q0 210 154.5 334.5t443.5 124.5h422zM614 727q-254 -7 -254 -266q0 -160 55.5 -289.5t136.5 -129.5q66 0 105 83t39 230q0 205 -82 372z" />
    <glyph glyph-name="notau" unicode="&#xf107;" horiz-adv-x="897" 
d="M826 935v-209h-284q-31 -332 -31 -422q0 -72 29 -114.5t75 -42.5q103 0 124 168h34q-6 -189 -71 -266t-152 -77q-84 0 -143 73.5t-59 259.5q0 124 31 421q-39 2 -55 2q-93 0 -136.5 -27t-77.5 -95h-39q65 179 119 240.5t95 75t176 13.5h365z" />
    <glyph glyph-name="nophi" unicode="&#xf108;" horiz-adv-x="1253" 
d="M704 -428h-160v402q-98 0 -210 59t-182 181t-70 265q0 209 130 347.5t308 136.5v-36q-92 -30 -131.5 -135t-39.5 -318q0 -224 59.5 -330t135.5 -107v628q0 163 67.5 230.5t168.5 67.5q136 0 263.5 -128.5t127.5 -339.5q0 -206 -127.5 -359.5t-339.5 -161.5v-402zM704 37
q70 3 133.5 102t63.5 336q0 184 -41.5 279t-102.5 95q-31 0 -42 -45.5t-11 -213.5v-553z" />
    <glyph glyph-name="underscoredbl" unicode="&#x2017;" horiz-adv-x="1024" 
d="M-12 -125h1048v-103h-1048v103zM-12 -328h1048v-103h-1048v103z" />
    <glyph glyph-name="minute" unicode="&#x2032;" horiz-adv-x="512" 
d="M282 749h-48l-31 383q-2 23 -2 46q0 126 58 181.5t128 55.5q55 0 88 -34t33 -89q0 -43 -53 -160z" />
    <glyph glyph-name="second" unicode="&#x2033;" horiz-adv-x="1024" 
d="M334 749h-49l-30 384q-2 25 -2 50q0 126 59.5 179t126.5 53q54 0 87 -33.5t33 -88.5q0 -42 -53 -161zM743 749h-49l-28 383q-2 34 -2 67q0 113 59.5 164.5t126.5 51.5q60 0 89.5 -37t29.5 -86q0 -35 -56 -160z" />
    <glyph glyph-name="exclamdbl" unicode="&#x203c;" horiz-adv-x="1298" 
d="M256 387l-26 17q7 55 30 319l37 417q13 153 14 216q67 2 285 59l23 -19l-46 -153q-222 -728 -237 -806zM872 387l-26 17q6 55 30 319l36 417q14 153 15 216q67 2 284 59l24 -19l-47 -153q-221 -728 -236 -806zM107 88q0 76 38 130t110 54q62 0 92.5 -38t30.5 -83
q0 -66 -38.5 -122t-115.5 -56q-56 0 -86.5 32.5t-30.5 82.5zM723 88q0 76 37.5 130t110.5 54q62 0 92.5 -38t30.5 -83q0 -71 -40 -124.5t-114 -53.5q-56 0 -86.5 32.5t-30.5 82.5z" />
    <glyph glyph-name="nsuperior" unicode="&#x207f;" horiz-adv-x="803" 
d="M168 804l-27 24q22 50 45 130l29 98q30 103 33 139q4 43 7 50t3 8t-2 19l2 6q-1 1 -2 1q-10 0 -49 -25q-3 -2 -52 -32l-26 51q192 142 256 142q50 0 50 -46q0 -47 -39 -180q84 105 173.5 165.5t148.5 60.5q68 0 68 -65q0 -37 -39 -170l-39 -135q-21 -72 -21 -100
q0 -17 10 -17q6 0 94 60l24 -56q-180 -127 -255 -127q-55 0 -55 68q0 46 25 127l33 111l14 47q11 48 15 57q10 22 10 26l-3 32l1 2q-1 5 -10 5q-46 0 -141.5 -122t-126.5 -329q-90 -5 -154 -25z" />
    <glyph glyph-name="peseta" unicode="&#x20a7;" horiz-adv-x="2523" 
d="M1684 211q-315 -238 -422 -238q-55 0 -85 35.5t-30 91.5q0 55 69 356q77 335 107 489q-54 -185 -193.5 -278.5t-303.5 -93.5q-86 0 -198 39l-7 71q89 -33 156 -33q123 0 205 115t82 277q0 267 -261 267q-92 0 -158 -15l-64 -375q-2 -18 -5 -37l-81 -484
q-36 -215 -36 -274q0 -34 23 -45t96 -17l22 -3h70l-11 -69q-276 10 -289 10l-387 -10l11 69h69q73 0 93.5 18t50 161t39.5 218q2 18 5 36l88 530q28 169 28 240q0 39 -27.5 52t-98.5 13h-78l11 68q14 0 147 -4q69 -2 144 -2q107 0 234 4q153 6 240 6q221 0 309 -96t88 -232
q0 -30 -4 -75q32 175 32 213q0 5 -1 21q59 12 183 56l69 24l21 -24q-11 -29 -26 -87l-25 -89q-5 -15 -9 -35l-34 -143h344q65 0 140 4q82 36 167 36q134 0 248 -59q-38 -180 -39 -241h-60l-11 99q-102 93 -229 93q-69 0 -115.5 -39t-46.5 -105q0 -69 50 -102t154 -51l56 -9
q209 -35 209 -222q0 -91 -62 -162t-172 -136t-250 -65q-122 0 -275 56q14 49 34 182zM1695 297h62l3 -97q112 -119 260 -119q93 0 138.5 43t45.5 109q0 110 -140 140l-86 18q-122 25 -177 78t-55 151q0 126 99 203q-53 2 -99 2h-228q-3 -10 -28 -117l-60 -262q-4 -16 -6 -30
q-1 -13 -21 -109q-16 -80 -16 -115q0 -54 49 -54q77 0 259 159z" />
    <glyph glyph-name="afii61248" unicode="&#x2105;" horiz-adv-x="1599" 
d="M622 987l21 -57q-208 -137 -327 -137q-83 0 -133.5 44.5t-50.5 127.5q0 86 29.5 174.5t64.5 123.5t139 94q96 58 175 58q67 0 152 -35q-26 -60 -49 -185h-68l7 55l1 16v16l-1 2q-54 40 -109 40q-47 0 -77.5 -30t-58 -122t-27.5 -177q0 -111 85 -111q99 0 227 103zM280 -2
q54 71 175 268l553 901q97 159 125 229q65 -8 99 -8q14 0 42 1q-65 -86 -174 -265l-554 -905q-101 -166 -124 -223l-78 4q-25 0 -64 -2zM855 182q0 202 126 313t274 111q229 0 229 -198q0 -87 -41 -190.5t-154 -168.5t-219 -65q-215 0 -215 198zM1033 185q0 -130 101 -130
q88 0 130 124.5t42 230.5q0 130 -100 130q-90 0 -131.5 -130t-41.5 -225z" />
    <glyph glyph-name="afii61289" unicode="&#x2113;" horiz-adv-x="805" 
d="M32 482l149 113l56 351l5 23q20 105 39.5 194.5t61.5 153t96.5 93t132.5 29.5q130 0 189 -71t59 -146q0 -95 -71.5 -199.5t-202.5 -211.5l-74 -61l-46 -266q-26 -153 -26 -214q0 -146 83 -146q87 0 146 201l57 -18q-94 -328 -311 -328q-110 0 -175 82.5t-65 191.5
q0 79 14 158l19 102l-104 -75zM485 833q124 97 197.5 202.5t73.5 184.5q0 51 -27.5 86t-66.5 35q-56 0 -82.5 -52.5t-64.5 -260.5l-5 -23z" />
    <glyph glyph-name="arrowleft" unicode="&#x2190;" horiz-adv-x="2048" 
d="M492 876h76q-81 -170 -195 -309h1595v-101h-1595q102 -102 198 -309h-78q-223 253 -414 341v45q177 71 413 333z" />
    <glyph glyph-name="arrowup" unicode="&#x2191;" horiz-adv-x="1024" 
d="M153 1050q262 236 333 413h46q87 -192 340 -415v-77q-207 96 -309 197v-1597h-101v1597q-139 -114 -309 -195v77z" />
    <glyph glyph-name="arrowright" unicode="&#x2192;" horiz-adv-x="2048" 
d="M1555 876q237 -262 413 -333v-45q-191 -88 -414 -341h-77q95 207 197 309h-1595v101h1595q-114 139 -195 309h76z" />
    <glyph glyph-name="arrowdown" unicode="&#x2193;" horiz-adv-x="1024" 
d="M153 -16v76q170 -81 309 -195v1598h101v-1598q102 102 309 197v-77q-253 -223 -340 -414h-46q-71 176 -333 413z" />
    <glyph glyph-name="arrowboth" unicode="&#x2194;" horiz-adv-x="2048" 
d="M1968 540v-45q-181 -79 -406 -337h-80q69 172 194 311h-1305q125 -139 194 -311h-80q-224 258 -406 337v45q182 79 406 338h80q-69 -172 -194 -311h1305q-125 139 -194 311h80q225 -259 406 -338z" />
    <glyph glyph-name="arrowupdn" unicode="&#x2195;" horiz-adv-x="1024" 
d="M489 1463h45q79 -182 337 -407v-80q-171 69 -311 195v-1306q140 126 311 194v-79q-258 -225 -337 -407h-45q-79 182 -337 407v79q171 -68 311 -194v1306q-140 -126 -311 -195v80q258 225 337 407z" />
    <glyph glyph-name="arrowupdnbse" unicode="&#x21a8;" horiz-adv-x="1024" 
d="M489 1463h45q79 -182 337 -407v-80q-171 69 -311 195v-1306q140 126 311 194v-79q-258 -225 -337 -407h-45q-79 182 -337 407v79q171 -68 311 -194v1306q-140 -126 -311 -195v80q258 225 337 407zM154 -522h717v-98h-717v98z" />
    <glyph glyph-name="orthogonal" unicode="&#x221f;" horiz-adv-x="2005" 
d="M362 1279h100v-1179h1181v-100h-1281v1279z" />
    <glyph glyph-name="intersection" unicode="&#x2229;" horiz-adv-x="1206" 
d="M239 0h-110v621l2 238q1 116 18.5 209t58.5 169t106 135.5t139.5 89.5t149.5 30q118 0 225 -68.5t165 -174t71.5 -224t13.5 -404.5v-621h-110v628q0 243 -10 348.5t-52 190t-127.5 139.5t-175.5 55t-174.5 -55t-126 -137t-52.5 -189.5t-11 -351.5v-628z" />
    <glyph glyph-name="equivalence" unicode="&#x2261;" horiz-adv-x="1241" 
d="M111 1017v187h1019v-187h-1019zM111 601v187h1019v-187h-1019zM111 184v187h1019v-187h-1019z" />
    <glyph glyph-name="H22073" unicode="&#x25a1;" horiz-adv-x="1237" 
d="M146 944h944v-944h-944v944zM222 868v-792h792v792h-792z" />
    <glyph glyph-name="H18543" unicode="&#x25aa;" horiz-adv-x="726" 
d="M594 909v-464h-463v463z" />
    <glyph glyph-name="H18551" unicode="&#x25ab;" horiz-adv-x="726" 
d="M594 909v-464h-463v463zM518 833l-311 -1v-311h311v312z" />
    <glyph glyph-name="H18533" unicode="&#x25cf;" horiz-adv-x="1237" 
d="M619 1018q181 0 310.5 -129t129.5 -311t-129 -311.5t-311 -129.5t-311.5 129.5t-129.5 311.5q0 189 131.5 314.5t309.5 125.5z" />
    <glyph glyph-name="openbullet" unicode="&#x25e6;" horiz-adv-x="726" 
d="M363 928q101 0 176 -72t75 -179q0 -104 -73.5 -177.5t-177.5 -73.5t-177.5 73.5t-73.5 177.5t74 177.5t177 73.5zM363 852q-71 0 -123 -50t-52 -125q0 -73 51.5 -124t123.5 -51t123.5 51t51.5 124q0 74 -52 124.5t-123 50.5z" />
    <glyph glyph-name="commaaccent" unicode="&#xf004;" horiz-adv-x="682" 
d="M50 -696l-34 27q58 83 116.5 235t62.5 250q17 3 123.5 31t110.5 32l30 -27q-148 -301 -313 -485z" />
    <glyph glyph-name="Amacron" unicode="&#x100;" horiz-adv-x="1479" 
d="M-97 -10l3 69h39q40 0 67 10t44 33l80 136l529 904q112 191 149 263h197q13 -99 29 -206l138 -880q22 -143 32.5 -184.5t24.5 -53.5t56 -16l45 -5q23 -1 48 -1l1 -69q-122 10 -282 10q-205 0 -337 -10l1 69h39q69 0 99 12t30 49q0 62 -16 170l-34 252l-159 1l-297 -1
l-84 -150q-131 -237 -131 -284q0 -23 24 -33q38 -16 158 -16l-12 -69q-123 10 -242 10q-120 0 -239 -10zM788 1172l-310 -531l197 -2l195 2zM628 1720h650l-30 -127h-651z" />
    <glyph glyph-name="amacron" unicode="&#x101;" 
d="M1032 239l21 -65q-249 -201 -349 -201q-33 0 -49 21q-23 29 -23 72q0 60 70 338l18 71q-122 -192 -169 -249q-78 -96 -147.5 -152t-138.5 -84q-41 -17 -70 -17q-54 0 -85 41t-31 137q0 115 43.5 276t92.5 249q26 46 110 112q160 126 225.5 155t142.5 29q55 0 109 -12.5
t106 -37.5l93 51l33 -21q-8 -19 -21 -62l-38 -134l-113 -481q-15 -63 -15 -97q0 -35 24 -35q43 0 161 96zM770 820q-45 22 -86.5 33t-80.5 11q-69 0 -117.5 -46.5t-105.5 -234.5q-76 -249 -76 -372q0 -35 12 -52.5t28 -17.5q15 0 41 17q67 45 156 158.5t147 236t73 217.5z
M404 1290h650l-30 -127h-651z" />
    <glyph glyph-name="Ccircumflex" unicode="&#x108;" horiz-adv-x="1403" 
d="M1279 244l-24 -79q-165 -97 -237.5 -128t-155 -47.5t-172.5 -16.5q-272 0 -418 141.5t-146 403.5t109 454.5t326 317.5t453 125q115 0 218 -26.5t168 -66.5q-61 -198 -74 -335h-71q5 39 5 73q0 40 -8 126q-67 52 -144.5 76t-184.5 24q-171 0 -272.5 -69.5t-163.5 -230.5
q-79 -202 -79 -446q0 -221 103 -329.5t296 -108.5q106 0 207.5 34t242.5 126zM928 1844h142l180 -350h-90l-181 205l-271 -205h-102z" />
    <glyph glyph-name="ccircumflex" unicode="&#x109;" horiz-adv-x="909" 
d="M817 255l23 -65q-203 -136 -305.5 -176.5t-185.5 -40.5q-126 0 -197 72.5t-71 204.5q0 119 37.5 251t85 200t146.5 128l176 105q79 38 173 38q47 0 101.5 -12.5t116.5 -38.5q-42 -104 -73 -288h-69q11 76 11 105l-2 32q-42 37 -89 55.5t-99 18.5q-77 0 -122 -39
q-62 -55 -96 -173q-57 -199 -57 -336q0 -92 42.5 -143t111.5 -51q67 0 162.5 41t179.5 112zM588 1411h142l180 -350h-90l-181 205l-271 -205h-102z" />
    <glyph glyph-name="Cdot" unicode="&#x10a;" horiz-adv-x="1403" 
d="M1279 244l-24 -79q-165 -97 -237.5 -128t-155 -47.5t-172.5 -16.5q-272 0 -418 141.5t-146 403.5t109 454.5t326 317.5t453 125q115 0 218 -26.5t168 -66.5q-61 -198 -74 -335h-71q5 39 5 73q0 40 -8 126q-67 52 -144.5 76t-184.5 24q-171 0 -272.5 -69.5t-163.5 -230.5
q-79 -202 -79 -446q0 -221 103 -329.5t296 -108.5q106 0 207.5 34t242.5 126zM979 1783q50 0 86 -36t36 -87q0 -50 -35.5 -85.5t-84.5 -35.5q-50 0 -86 36t-36 87q0 50 35 85.5t85 35.5z" />
    <glyph glyph-name="cdot" unicode="&#x10b;" horiz-adv-x="909" 
d="M817 255l23 -65q-203 -136 -305.5 -176.5t-185.5 -40.5q-126 0 -197 72.5t-71 204.5q0 119 37.5 251t85 200t146.5 128l176 105q79 38 173 38q47 0 101.5 -12.5t116.5 -38.5q-42 -104 -73 -288h-69q11 76 11 105l-2 32q-42 37 -89 55.5t-99 18.5q-77 0 -122 -39
q-62 -55 -96 -173q-57 -199 -57 -336q0 -92 42.5 -143t111.5 -51q67 0 162.5 41t179.5 112zM678 1354q50 0 86 -36t36 -87q0 -50 -35.5 -85.5t-84.5 -35.5q-50 0 -86 36t-36 87q0 50 35 85.5t85 35.5z" />
    <glyph glyph-name="Emacron" unicode="&#x112;" horiz-adv-x="1251" 
d="M-7 -10l11 69q105 14 123 31t43 139q10 50 80 469l69 414q20 119 20 159q0 27 -20 38q-32 18 -103 18h-74l11 68l118 -3l111 -4l368 4l330 1q78 0 126 -8l10 -8q-32 -157 -52 -314h-70l3 66l1 80q0 46 -29 56q-84 31 -293 31q-88 0 -168 -12l-85 -510l293 -8q38 0 178 8
l6 -13l-24 -97q-198 10 -389 10q-43 0 -81 -2l-94 -564q107 -14 215 -14q162 0 271 19q58 10 71 22q18 19 50 128l26 83h72l-32 -182q-17 -90 -24 -154l-15 -17q-46 -3 -95 -3l-783 14q-84 0 -175 -14zM443 1720h650l-30 -127h-651z" />
    <glyph glyph-name="emacron" unicode="&#x113;" horiz-adv-x="909" 
d="M795 242l22 -55l-170 -108q-106 -59 -179.5 -82.5t-133.5 -23.5q-122 0 -188.5 64t-66.5 184q0 140 59 326q42 132 113.5 209t243.5 166q97 50 196 50q91 0 143 -45.5t52 -119.5q0 -90 -51.5 -166.5t-183.5 -140t-326 -94.5q-21 -72 -21 -136q0 -80 40.5 -119.5
t115.5 -39.5q57 0 146.5 33t188.5 98zM333 461q155 42 216 81t101.5 110.5t40.5 127.5q0 43 -26.5 69t-71.5 26q-49 0 -94 -32t-83 -112.5t-83 -269.5zM321 1290h650l-30 -127h-651z" />
    <glyph glyph-name="Ebreve" unicode="&#x114;" horiz-adv-x="1251" 
d="M-7 -10l11 69q105 14 123 31t43 139q10 50 80 469l69 414q20 119 20 159q0 27 -20 38q-32 18 -103 18h-74l11 68l118 -3l111 -4l368 4l330 1q78 0 126 -8l10 -8q-32 -157 -52 -314h-70l3 66l1 80q0 46 -29 56q-84 31 -293 31q-88 0 -168 -12l-85 -510l293 -8q38 0 178 8
l6 -13l-24 -97q-198 10 -389 10q-43 0 -81 -2l-94 -564q107 -14 215 -14q162 0 271 19q58 10 71 22q18 19 50 128l26 83h72l-32 -182q-17 -90 -24 -154l-15 -17q-46 -3 -95 -3l-783 14q-84 0 -175 -14zM465 1826h74q10 -101 65.5 -152t157.5 -51q93 0 162 53.5t101 149.5h74
q-39 -172 -130.5 -252t-226.5 -80q-131 0 -205 73.5t-74 211.5z" />
    <glyph glyph-name="ebreve" unicode="&#x115;" horiz-adv-x="909" 
d="M795 242l22 -55l-170 -108q-106 -59 -179.5 -82.5t-133.5 -23.5q-122 0 -188.5 64t-66.5 184q0 140 59 326q42 132 113.5 209t243.5 166q97 50 196 50q91 0 143 -45.5t52 -119.5q0 -90 -51.5 -166.5t-183.5 -140t-326 -94.5q-21 -72 -21 -136q0 -80 40.5 -119.5
t115.5 -39.5q57 0 146.5 33t188.5 98zM333 461q155 42 216 81t101.5 110.5t40.5 127.5q0 43 -26.5 69t-71.5 26q-49 0 -94 -32t-83 -112.5t-83 -269.5zM343 1393h74q10 -101 65.5 -152t157.5 -51q93 0 162 53.5t101 149.5h74q-39 -172 -130.5 -252t-226.5 -80
q-131 0 -205 73.5t-74 211.5z" />
    <glyph glyph-name="Edot" unicode="&#x116;" horiz-adv-x="1251" 
d="M-7 -10l11 69q105 14 123 31t43 139q10 50 80 469l69 414q20 119 20 159q0 27 -20 38q-32 18 -103 18h-74l11 68l118 -3l111 -4l368 4l330 1q78 0 126 -8l10 -8q-32 -157 -52 -314h-70l3 66l1 80q0 46 -29 56q-84 31 -293 31q-88 0 -168 -12l-85 -510l293 -8q38 0 178 8
l6 -13l-24 -97q-198 10 -389 10q-43 0 -81 -2l-94 -564q107 -14 215 -14q162 0 271 19q58 10 71 22q18 19 50 128l26 83h72l-32 -182q-17 -90 -24 -154l-15 -17q-46 -3 -95 -3l-783 14q-84 0 -175 -14zM746 1783q50 0 86 -36t36 -87q0 -50 -35.5 -85.5t-84.5 -35.5
q-50 0 -86 36t-36 87q0 50 35 85.5t85 35.5z" />
    <glyph glyph-name="edot" unicode="&#x117;" horiz-adv-x="909" 
d="M795 242l22 -55l-170 -108q-106 -59 -179.5 -82.5t-133.5 -23.5q-122 0 -188.5 64t-66.5 184q0 140 59 326q42 132 113.5 209t243.5 166q97 50 196 50q91 0 143 -45.5t52 -119.5q0 -90 -51.5 -166.5t-183.5 -140t-326 -94.5q-21 -72 -21 -136q0 -80 40.5 -119.5
t115.5 -39.5q57 0 146.5 33t188.5 98zM333 461q155 42 216 81t101.5 110.5t40.5 127.5q0 43 -26.5 69t-71.5 26q-49 0 -94 -32t-83 -112.5t-83 -269.5zM636 1354q50 0 86 -36t36 -87q0 -50 -35.5 -85.5t-84.5 -35.5q-50 0 -86 36t-36 87q0 50 35 85.5t85 35.5z" />
    <glyph glyph-name="Gcircumflex" unicode="&#x11c;" horiz-adv-x="1593" 
d="M1316 94l-1 -7q-38 -7 -200 -54q-117 -34 -203 -47t-173 -13q-295 0 -450 146t-155 411q0 249 107.5 434t338 318t457.5 133q130 0 245 -22.5t180 -55.5l8 -14l-24 -90q-39 -143 -52 -242h-71q2 57 5 127l-1 71q-70 49 -158 73t-194 24q-183 0 -300 -74t-183 -231
q-85 -203 -85 -441q0 -236 106.5 -352t302.5 -116q129 0 236 45l39 165q29 127 29 178q0 27 -23.5 40.5t-101.5 13.5h-90l11 70q72 -3 354 -6l257 6l-12 -70h-32q-47 0 -75.5 -20.5t-38.5 -81.5l-17 -102l-33 -167zM994 1844h142l180 -350h-90l-181 205l-271 -205h-102z" />
    <glyph glyph-name="gcircumflex" unicode="&#x11d;" horiz-adv-x="1024" 
d="M289 27q-53 48 -53 98q0 40 31 60l79 46q53 31 84 56l-43 -2q-79 0 -154 37q-56 27 -87 80t-31 134q0 101 45.5 188t105 128t211.5 96q69 24 129 24q84 0 142 -25q35 -15 63 -19.5t74 -4.5l198 7l10 -16l-24 -105q-59 11 -152 11l-26 -2q21 -54 21 -111q0 -82 -36.5 -165
t-88 -127t-179.5 -94q-90 -34 -118.5 -59.5t-28.5 -46.5q0 -19 15 -36q21 -25 80 -67l133 -96q87 -62 120 -114.5t33 -117.5q0 -140 -125 -233q-155 -114 -401 -114q-217 0 -321.5 74t-104.5 182q0 69 50.5 138.5t145.5 117.5q46 23 203 78zM320 542q0 -96 40.5 -141
t115.5 -45q59 0 106 36.5t81 124t34 188.5q0 92 -41 136t-115 44q-105 0 -163 -107t-58 -236zM333 -11l-101 -46q-59 -32 -94 -63t-53.5 -71.5t-18.5 -86.5q0 -88 76.5 -147.5t209.5 -59.5q130 0 202.5 57.5t72.5 137.5q0 44 -31.5 83.5t-171.5 134.5zM581 1411h142
l180 -350h-90l-181 205l-271 -205h-102z" />
    <glyph glyph-name="Gdot" unicode="&#x120;" horiz-adv-x="1593" 
d="M1315 94l-1 -7q-38 -7 -200 -54q-117 -34 -203 -47t-173 -13q-295 0 -450 146t-155 411q0 249 107.5 434t338 318t457.5 133q130 0 245 -22.5t180 -55.5l8 -14l-24 -90q-39 -143 -52 -242h-71q2 57 5 127l-1 71q-70 49 -158 73t-194 24q-183 0 -300 -74t-183 -231
q-85 -203 -85 -441q0 -236 106.5 -352t302.5 -116q129 0 236 45l39 165q29 127 29 178q0 27 -23.5 40.5t-101.5 13.5h-90l11 70q72 -3 354 -6l257 6l-12 -70h-32q-47 0 -75.5 -20.5t-38.5 -81.5l-17 -102l-33 -167zM1020 1783q50 0 86 -36t36 -87q0 -50 -35.5 -85.5
t-84.5 -35.5q-50 0 -86 36t-36 87q0 50 35 85.5t85 35.5z" />
    <glyph glyph-name="gdot" unicode="&#x121;" horiz-adv-x="1024" 
d="M289 27q-53 48 -53 98q0 40 31 60l79 46q53 31 84 56l-43 -2q-79 0 -154 37q-56 27 -87 80t-31 134q0 101 45.5 188t105 128t211.5 96q69 24 129 24q84 0 142 -25q35 -15 63 -19.5t74 -4.5l198 7l10 -16l-24 -105q-59 11 -152 11l-26 -2q21 -54 21 -111q0 -82 -36.5 -165
t-88 -127t-179.5 -94q-90 -34 -118.5 -59.5t-28.5 -46.5q0 -19 15 -36q21 -25 80 -67l133 -96q87 -62 120 -114.5t33 -117.5q0 -140 -125 -233q-155 -114 -401 -114q-217 0 -321.5 74t-104.5 182q0 69 50.5 138.5t145.5 117.5q46 23 203 78zM320 542q0 -96 40.5 -141
t115.5 -45q59 0 106 36.5t81 124t34 188.5q0 92 -41 136t-115 44q-105 0 -163 -107t-58 -236zM333 -11l-101 -46q-59 -32 -94 -63t-53.5 -71.5t-18.5 -86.5q0 -88 76.5 -147.5t209.5 -59.5q130 0 202.5 57.5t72.5 137.5q0 44 -31.5 83.5t-171.5 134.5zM645 1354q50 0 86 -36
t36 -87q0 -50 -35.5 -85.5t-84.5 -35.5q-50 0 -86 36t-36 87q0 50 35 85.5t85 35.5z" />
    <glyph glyph-name="Gcedilla" unicode="&#x122;" horiz-adv-x="1593" 
d="M1316 94l-1 -7q-38 -7 -200 -54q-117 -34 -203 -47t-173 -13q-295 0 -450 146t-155 411q0 249 107.5 434t338 318t457.5 133q130 0 245 -22.5t180 -55.5l8 -14l-24 -90q-39 -143 -52 -242h-71q2 57 5 127l-1 71q-70 49 -158 73t-194 24q-183 0 -300 -74t-183 -231
q-85 -203 -85 -441q0 -236 106.5 -352t302.5 -116q129 0 236 45l39 165q29 127 29 178q0 27 -23.5 40.5t-101.5 13.5h-90l11 70q72 -3 354 -6l257 6l-12 -70h-32q-47 0 -75.5 -20.5t-38.5 -81.5l-17 -102l-33 -167zM723 8h83l-92 -139q38 4 64 4q76 0 123.5 -41.5
t47.5 -104.5q0 -70 -67.5 -122t-185.5 -52q-107 0 -215 48l39 64q86 -34 148 -34q52 0 82 25t30 61q0 34 -25.5 56t-74.5 22q-30 0 -68 -10l-23 24z" />
    <glyph glyph-name="gcedilla" unicode="&#x123;" horiz-adv-x="1024" 
d="M289 27q-53 48 -53 98q0 40 31 60l79 46q53 31 84 56l-43 -2q-79 0 -154 37q-56 27 -87 80t-31 134q0 101 45.5 188t105 128t211.5 96q69 24 129 24q84 0 142 -25q35 -15 63 -19.5t74 -4.5l198 7l10 -16l-24 -105q-59 11 -152 11l-26 -2q21 -54 21 -111q0 -82 -36.5 -165
t-88 -127t-179.5 -94q-90 -34 -118.5 -59.5t-28.5 -46.5q0 -19 15 -36q21 -25 80 -67l133 -96q87 -62 120 -114.5t33 -117.5q0 -140 -125 -233q-155 -114 -401 -114q-217 0 -321.5 74t-104.5 182q0 69 50.5 138.5t145.5 117.5q46 23 203 78zM320 542q0 -96 40.5 -141
t115.5 -45q59 0 106 36.5t81 124t34 188.5q0 92 -41 136t-115 44q-105 0 -163 -107t-58 -236zM333 -11l-101 -46q-59 -32 -94 -63t-53.5 -71.5t-18.5 -86.5q0 -88 76.5 -147.5t209.5 -59.5q130 0 202.5 57.5t72.5 137.5q0 44 -31.5 83.5t-171.5 134.5zM841 1511l28 -17
q-47 -62 -94.5 -175.5t-51.5 -187.5q-108 -18 -190 -46l-24 20q1 1 30 53q97 175 224 306z" />
    <glyph glyph-name="Hcircumflex" unicode="&#x124;" horiz-adv-x="1593" 
d="M-42 -10l11 69h61q83 0 104 29.5t57 242.5l106 635q39 238 39 301q0 32 -19 46t-70 14h-97l11 68l385 -7q55 0 256 7l-11 -68h-74q-70 0 -88 -28.5t-68 -304.5l-35 -209l75 1l325 -3l192 2l32 192q34 201 34 289q0 37 -30.5 49t-149.5 12l11 68q315 -9 383 -9
q129 0 256 9l-11 -68h-27q-97 0 -119 -15q-16 -11 -31 -63q-24 -83 -61 -308l-81 -482q-46 -277 -46 -335q0 -38 25.5 -47t137.5 -18h28l-12 -69q-170 10 -338 10q-165 0 -311 -10l11 69h32q112 0 132 28q25 36 73 324l46 276l-44 1h-255l-256 -2l-37 1l-28 -169
q-56 -341 -56 -395q0 -34 22 -46q33 -18 132 -18h26l-11 -69q-217 10 -281 10zM933 1844h142l180 -350h-90l-181 205l-271 -205h-102z" />
    <glyph glyph-name="hcircumflex" unicode="&#x125;" 
d="M81 -27l-20 17q59 190 109 423l30 142q39 181 119 609q18 98 18 121q0 32 -21 44t-95 12h-53l10 60q90 6 205 32t206 60l21 -18q-49 -186 -100 -413l-122 -547q158 234 319 345.5t257 111.5q43 0 63 -20.5t20 -66.5q0 -38 -10 -88q-5 -23 -56 -205l-39 -140
q-63 -227 -63 -259q0 -19 11.5 -32t26.5 -13q14 0 39 15q76 43 109 72l23 -55q-280 -207 -366 -207q-40 0 -60 24.5t-20 76.5q0 48 16 116l68 252l26 92q16 61 40 183q4 23 4 31q0 17 -10.5 27.5t-27.5 10.5q-51 0 -131 -68q-124 -105 -213.5 -287.5t-120.5 -419.5
q-95 -7 -212 -38zM826 1908h142l180 -350h-90l-181 205l-271 -205h-102z" />
    <glyph glyph-name="Hbar" unicode="&#x126;" horiz-adv-x="1593" 
d="M305 1013h-209l17 99h208q15 106 15 157q0 58 -89 58h-97l11 69l398 -8q43 0 243 8l-11 -69h-74q-59 0 -80 -19.5t-34 -93.5l-20 -102h588q13 104 13 154q0 38 -29.5 49.5t-123.5 11.5h-27l11 69l383 -7q138 0 256 7l-11 -69h-27q-102 0 -124 -19t-57 -196h174l-18 -99
h-174l-93 -554q-46 -276 -46 -336q0 -37 25.5 -46t137.5 -18h28l-12 -66q-155 7 -337 7q-177 0 -312 -7l11 66h32q92 0 122 17t83 335l46 276q-211 4 -297 4q-83 0 -295 -4l-28 -169q-56 -341 -56 -396q0 -39 36.5 -51t117.5 -12h26l-11 -66l-314 12l-323 -12l11 66h61
q67 0 94 17.5t67 254.5zM565 1013l-39 -228q201 -4 294 -4q91 0 298 4l38 228h-591z" />
    <glyph glyph-name="hbar" unicode="&#x127;" 
d="M388 515q140 216 307 336.5t269 120.5q83 0 83 -87q0 -42 -8.5 -80t-57.5 -213l-39 -140q-63 -227 -63 -260q0 -44 38 -44q14 0 64.5 29t83.5 58l23 -55q-278 -207 -365 -207q-81 0 -81 101q0 62 23 146l87 314q10 40 27 123.5t17 90.5q0 38 -38 38q-99 0 -258.5 -212
t-206.5 -563q-94 -6 -212 -38l-20 20q50 156 108 420l31 142q11 52 107 548h-185l18 85h183q14 72 14 97q0 33 -23 44.5t-93 11.5h-52l9 60q191 11 411 93l21 -19q-19 -71 -70 -287h342l-18 -85h-344q-42 -172 -132 -588z" />
    <glyph glyph-name="Itilde" unicode="&#x128;" horiz-adv-x="797" 
d="M-21 -10l11 69h62q57 0 78 8t31 19.5t19 43.5t40 213l86 501q58 348 58 422q0 32 -26 46.5t-116 14.5h-53l11 68q276 -7 327 -7l331 7l-12 -68h-25q-101 0 -123 -12.5t-33 -44.5q-16 -45 -46 -225l-113 -680q-31 -184 -31 -238q0 -36 26 -52t111 -16h60l-12 -69
q-233 10 -348 10q-139 0 -313 -10zM254 1556h-74q28 120 86 177t133 57q35 0 72.5 -11t121.5 -50q91 -42 128 -42q57 0 96 107h73q-21 -114 -81.5 -175t-138.5 -61q-49 0 -130 37q-110 49 -140 59q-23 7 -44 7q-71 0 -102 -105z" />
    <glyph glyph-name="itilde" unicode="&#x129;" horiz-adv-x="682" 
d="M86 668l-24 54q242 176 307 209q84 42 126 42q27 0 45 -20.5t18 -57.5q0 -71 -65 -292l-32 -108q-75 -250 -75 -316q0 -34 28 -34q26 0 171 96l27 -53l-207 -138q-83 -52 -125 -66q-29 -11 -54 -11q-38 0 -58.5 25.5t-20.5 82.5q0 75 32 192l67 238q50 179 50 233
q0 26 -23 26q-16 0 -48 -16q-78 -40 -139 -86zM192 1126h-74q28 120 86 177t133 57q35 0 72.5 -11t121.5 -50q91 -42 128 -42q57 0 96 107h73q-21 -114 -81.5 -175t-138.5 -61q-49 0 -130 37q-110 49 -140 59q-23 7 -44 7q-71 0 -102 -105z" />
    <glyph glyph-name="Imacron" unicode="&#x12a;" horiz-adv-x="797" 
d="M-21 -10l11 69h62q57 0 78 8t31 19.5t19 43.5t40 213l86 501q58 348 58 422q0 32 -26 46.5t-116 14.5h-53l11 68q276 -7 327 -7l331 7l-12 -68h-25q-101 0 -123 -12.5t-33 -44.5q-16 -45 -46 -225l-113 -680q-31 -184 -31 -238q0 -36 26 -52t111 -16h60l-12 -69
q-233 10 -348 10q-139 0 -313 -10zM246 1720h650l-30 -127h-651z" />
    <glyph glyph-name="imacron" unicode="&#x12b;" horiz-adv-x="682" 
d="M86 668l-24 54q242 176 307 209q84 42 126 42q27 0 45 -20.5t18 -57.5q0 -71 -65 -292l-32 -108q-75 -250 -75 -316q0 -34 28 -34q26 0 171 96l27 -53l-207 -138q-83 -52 -125 -66q-29 -11 -54 -11q-38 0 -58.5 25.5t-20.5 82.5q0 75 32 192l67 238q50 179 50 233
q0 26 -23 26q-16 0 -48 -16q-78 -40 -139 -86zM173 1290h650l-30 -127h-651z" />
    <glyph glyph-name="Ibreve" unicode="&#x12c;" horiz-adv-x="797" 
d="M-21 -10l11 69h62q57 0 78 8t31 19.5t19 43.5t40 213l86 501q58 348 58 422q0 32 -26 46.5t-116 14.5h-53l11 68q276 -7 327 -7l331 7l-12 -68h-25q-101 0 -123 -12.5t-33 -44.5q-16 -45 -46 -225l-113 -680q-31 -184 -31 -238q0 -36 26 -52t111 -16h60l-12 -69
q-233 10 -348 10q-139 0 -313 -10zM269 1826h74q10 -101 65.5 -152t157.5 -51q93 0 162 53.5t101 149.5h74q-39 -172 -130.5 -252t-226.5 -80q-131 0 -205 73.5t-74 211.5z" />
    <glyph glyph-name="ibreve" unicode="&#x12d;" horiz-adv-x="682" 
d="M86 668l-24 54q242 176 307 209q84 42 126 42q27 0 45 -20.5t18 -57.5q0 -71 -65 -292l-32 -108q-75 -250 -75 -316q0 -34 28 -34q26 0 171 96l27 -53l-207 -138q-83 -52 -125 -66q-29 -11 -54 -11q-38 0 -58.5 25.5t-20.5 82.5q0 75 32 192l67 238q50 179 50 233
q0 26 -23 26q-16 0 -48 -16q-78 -40 -139 -86zM220 1393h74q10 -101 65.5 -152t157.5 -51q93 0 162 53.5t101 149.5h74q-39 -172 -130.5 -252t-226.5 -80q-131 0 -205 73.5t-74 211.5z" />
    <glyph glyph-name="Iogonek" unicode="&#x12e;" horiz-adv-x="797" 
d="M-21 -10l11 69h62q57 0 78 8t31 19.5t19 43.5t40 213l86 501q58 348 58 422q0 32 -26 46.5t-116 14.5h-53l11 68q276 -7 327 -7l331 7l-12 -68h-25q-101 0 -123 -12.5t-33 -44.5q-16 -45 -46 -225l-113 -680q-31 -184 -31 -238q0 -36 26 -52t111 -16h60l-12 -69l-261 10
q-132 -139 -132 -232q0 -52 33 -87.5t83 -35.5q55 0 115 61l40 -25q-115 -133 -230 -133q-66 0 -121.5 48t-55.5 127q0 57 32.5 104t137.5 132q28 23 48 41q-176 0 -350 -10z" />
    <glyph glyph-name="iogonek" unicode="&#x12f;" horiz-adv-x="682" 
d="M405 1270q0 76 40 120t102 44q49 0 79.5 -30.5t30.5 -80.5q0 -70 -39.5 -115t-101.5 -45q-50 0 -80.5 30.5t-30.5 76.5zM86 668l-24 54q242 176 307 209q84 42 126 42q27 0 45 -20.5t18 -57.5q0 -71 -65 -292l-32 -108q-75 -250 -75 -316q0 -34 28 -34q26 0 171 96
l27 -53l-207 -138q-83 -52 -125 -66q-29 -11 -54 -11q-38 0 -58.5 25.5t-20.5 82.5q0 75 32 192l67 238q50 179 50 233q0 26 -23 26q-16 0 -48 -16q-78 -40 -139 -86zM311 0q-72 -82 -95 -127.5t-23 -82.5q0 -47 30 -78t74 -31q26 0 47 10t57 45l36 -23q-108 -121 -207 -121
q-66 0 -113 46.5t-47 112.5q0 34 12 62q16 37 47 69l137 118h45z" />
    <glyph glyph-name="Jcircumflex" unicode="&#x134;" horiz-adv-x="797" 
d="M-60 -406l-6 68q40 -12 72 -12q76 0 112 87q26 64 78 378l135 811q45 271 45 345q0 29 -20 39q-38 17 -145 17h-44l11 68q216 -7 388 -7q160 0 278 7l-12 -68h-35q-89 0 -109.5 -14t-34 -68.5t-61.5 -312.5l-105 -635q-41 -243 -53 -288q-34 -135 -98.5 -234t-147 -151
t-159.5 -52q-51 0 -89 22zM491 1844h142l180 -350h-90l-181 205l-271 -205h-102z" />
    <glyph glyph-name="jcircumflex" unicode="&#x135;" horiz-adv-x="682" 
d="M410 1411h141l181 -350h-90l-181 205l-271 -205h-102zM-155 -559q24 79 33 159l29 6q46 -73 94 -73q40 0 66.5 56.5t120.5 509.5l86 414q36 178 36 224q0 36 -22 36q-47 0 -194 -111l-26 55q245 179 325.5 217t125.5 38q53 0 53 -75q0 -50 -28 -167l-79 -335
q-29 -124 -102 -390.5t-158 -373.5t-145 -156.5t-129 -49.5q-35 0 -86 16z" />
    <glyph glyph-name="Kcedilla" unicode="&#x136;" horiz-adv-x="1479" 
d="M-9 -10l11 69h65q86 0 103.5 29t62.5 296l90 541q47 283 47 337q0 38 -20.5 51.5t-100.5 13.5h-68l11 68q131 -6 266 -6q72 0 381 6l-11 -68h-42q-106 0 -126.5 -28.5t-62.5 -287.5l-54 -323q86 53 278 240l101 97q177 171 249 259q28 35 27 76l6 35l216 -6q45 0 112 6
l-3 -68l-51 -7q-52 -7 -83.5 -22t-91.5 -66q-152 -130 -254 -225l-254 -238l399 -551q90 -125 112.5 -142t70.5 -17h43l-12 -69q-31 0 -164 8l-73 2q-62 0 -135 -10l-82 126l-168 238q-166 227 -245 321l-26 -160q-58 -344 -58 -383q0 -36 16.5 -47.5t102.5 -19.5l63 -6
l-11 -69l-375 10q-133 0 -262 -10zM424 -168q103 41 199 41q91 0 138.5 -41t47.5 -105q0 -77 -73 -125t-179 -48q-84 0 -194 39l39 63q78 -25 121 -25q57 0 87.5 25t30.5 61q0 33 -25.5 55.5t-72.5 22.5q-38 0 -90 -15z" />
    <glyph glyph-name="kcedilla" unicode="&#x137;" 
d="M92 -27l-16 27q75 246 153 629l42 205q76 372 76 462q0 26 -21 35.5t-108 9.5h-42l18 60q103 8 218.5 34t195.5 58l23 -21l-136 -599l-93 -413l78 91q221 261 360 353q103 68 210 68q27 0 58 -4v-11l-27 -96q-9 -33 -12 -55l-11 -8q-60 27 -96 27q-66 0 -146.5 -42.5
t-151.5 -125.5q21 -66 92.5 -260t116.5 -245q19 -21 39 -21q47 0 153 76l21 -59l-178 -111q-75 -42 -121 -57q-21 -7 -38 -7q-33 0 -59 32q-37 44 -95 197l-39 103l-61 174l-49 -52q-59 -64 -77 -139q-40 -164 -47 -276q-97 -3 -230 -39zM211 -168q103 41 199 41
q91 0 138.5 -41t47.5 -105q0 -77 -73 -125t-179 -48q-84 0 -194 39l39 63q78 -25 121 -25q57 0 87.5 25t30.5 61q0 33 -25.5 55.5t-72.5 22.5q-38 0 -90 -15z" />
    <glyph glyph-name="kgreenlandic" unicode="&#x138;" horiz-adv-x="1143" 
d="M406 460q4 4 79 91q179 212 308 316.5t261 104.5q30 0 58 -4v-11q-35 -116 -39 -151l-11 -8q-58 27 -96 27q-67 0 -149.5 -44.5t-148.5 -123.5q169 -526 247 -526q48 0 154 76l21 -59q-269 -175 -337 -175q-45 0 -87.5 75t-105.5 257l-61 174l-48 -52q-42 -45 -59 -83.5
t-39 -144.5t-26 -187q-94 -1 -231 -39l-16 27q63 203 115.5 443t52.5 302q0 30 -19 30q-11 0 -142 -85l-26 54q284 228 383 228q57 0 57 -60q0 -64 -95 -452z" />
    <glyph glyph-name="Lcedilla" unicode="&#x13b;" horiz-adv-x="1251" 
d="M-7 -10l11 69h45q69 0 91 43q13 23 82 413l63 383q21 124 33 236t12 138q0 30 -18.5 42.5t-73.5 12.5h-96l11 68q271 -6 375 -6q129 0 287 6l-12 -68h-56q-88 0 -109.5 -16.5t-34.5 -79.5q-10 -47 -59 -340l-131 -787q156 -9 240 -9q241 0 307 31q30 14 65 130l35 102h73
q-57 -251 -70 -368q-248 0 -406 4l-292 6q-250 0 -372 -10zM317 -168q103 41 199 41q91 0 138.5 -41t47.5 -105q0 -77 -73 -125t-179 -48q-84 0 -194 39l39 63q78 -25 121 -25q57 0 87.5 25t30.5 61q0 33 -25.5 55.5t-72.5 22.5q-38 0 -90 -15z" />
    <glyph glyph-name="lcedilla" unicode="&#x13c;" horiz-adv-x="682" 
d="M591 243l30 -54l-179 -122q-107 -65 -147 -79.5t-66 -14.5q-31 0 -51 28t-20 87q0 88 35 232l129 536q31 125 66 310q18 113 18 133t-18 29q-25 13 -94 13h-58l9 60q216 24 414 92l24 -22l-71 -290l-143 -608q-71 -305 -71 -379q0 -25 7.5 -36t19.5 -11q15 0 44 17
q75 40 122 79zM45 -168q103 41 199 41q91 0 138.5 -41t47.5 -105q0 -77 -73 -125t-179 -48q-84 0 -194 39l39 63q78 -25 121 -25q57 0 87.5 25t30.5 61q0 33 -25.5 55.5t-72.5 22.5q-38 0 -90 -15z" />
    <glyph glyph-name="Ncedilla" unicode="&#x145;" horiz-adv-x="1593" 
d="M-35 -9l11 68h51q56 0 76 12t31 35q16 33 55 230l64 336l90 542q-43 72 -76 92.5t-101 20.5h-75l12 68q135 -7 246 -7q102 0 195 7q16 -26 80 -140q39 -69 69 -117l505 -849l62 370q89 535 89 611q0 29 -19.5 43t-69.5 14h-91l11 68q153 -7 271 -7q112 0 212 7l-11 -68
h-70q-58 0 -77.5 -23t-59.5 -214q-65 -310 -164 -907q-22 -130 -31 -199h-178l-166 290l-481 818l-64 -382q-83 -502 -83 -588q0 -33 18.5 -48t67.5 -15h90l-12 -68q-156 9 -254 9q-104 0 -223 -9zM489 -168q103 41 199 41q91 0 138.5 -41t47.5 -105q0 -77 -73 -125
t-179 -48q-84 0 -194 39l39 63q78 -25 121 -25q57 0 87.5 25t30.5 61q0 33 -25.5 55.5t-72.5 22.5q-38 0 -90 -15z" />
    <glyph glyph-name="ncedilla" unicode="&#x146;" 
d="M91 -27l-25 26q21 54 35 99l67 229q34 121 56.5 250.5t22.5 168.5q0 30 -23 30q-13 0 -43 -16q-61 -32 -108 -70l-26 54l151 114q100 71 164 99q36 15 68 15q28 0 42.5 -14.5t14.5 -46.5q0 -28 -8 -71q-22 -114 -48 -210l-41 -150q79 129 106 162q82 101 177.5 182.5
t180.5 120.5q59 27 104 27q42 0 64 -24t22 -69q0 -66 -61 -282l-51 -183q-41 -148 -41 -231q0 -38 23 -38q17 0 50 19q64 37 99 71l25 -59q-177 -127 -239 -159q-83 -44 -136 -44q-37 0 -55 24t-18 84q0 65 40 203l32 111q43 148 53 196q27 116 27 149q0 18 -10.5 28
t-28.5 10q-50 0 -136 -86q-119 -119 -196.5 -288t-110.5 -392q-127 -10 -219 -39zM211 -168q103 41 199 41q91 0 138.5 -41t47.5 -105q0 -77 -73 -125t-179 -48q-84 0 -194 39l39 63q78 -25 121 -25q57 0 87.5 25t30.5 61q0 33 -25.5 55.5t-72.5 22.5q-38 0 -90 -15z" />
    <glyph glyph-name="Eng" unicode="&#x14a;" horiz-adv-x="1663" 
d="M596 1180q241 235 505 235q210 0 331.5 -136.5t121.5 -402.5q0 -381 -205.5 -642t-504.5 -261q-63 0 -118 13q24 95 32 183l27 12q44 -85 118 -85q139 0 254 245.5t115 533.5q0 170 -67.5 286.5t-213.5 116.5q-203 0 -419 -244l-88 -516q-56 -335 -56 -396
q0 -39 36.5 -51t117.5 -12h26l-11 -66l-307 7l-330 -7l11 66h61q68 0 95 18.5t66 253.5l106 635q39 238 39 303q0 58 -89 58h-97l11 69h470z" />
    <glyph glyph-name="eng" unicode="&#x14b;" horiz-adv-x="1147" 
d="M311 -559q24 79 33 159l29 6q47 -73 96 -73q53 0 73.5 80.5t110.5 485.5l72 322q14 62 42 167q28 107 28 151q0 39 -38 39q-85 0 -239.5 -212t-203.5 -554q-128 -9 -219 -39l-25 26q32 80 67 210l45 166q69 251 69 373q0 28 -23 28q-22 0 -87 -44q-10 -7 -64 -42l-26 54
q284 228 383 228q57 0 57 -60q0 -73 -56 -282l-41 -150q114 204 288 348t281 144q85 0 85 -91q0 -57 -61 -284l-115 -434q-104 -389 -163 -476t-141.5 -174.5t-170.5 -87.5q-35 0 -86 16z" />
    <glyph glyph-name="Omacron" unicode="&#x14c;" horiz-adv-x="1706" 
d="M128 536q0 266 107 466t291.5 306.5t436.5 106.5q302 0 468 -155t166 -423q0 -234 -116 -439.5t-304 -315t-434 -109.5q-294 0 -454.5 150.5t-160.5 412.5zM411 475q0 -140 44 -228t133.5 -137t208.5 -49q147 0 250.5 80t185 295.5t81.5 468.5q0 212 -98.5 317
t-280.5 105q-158 0 -263.5 -79.5t-183 -288.5t-77.5 -484zM701 1720h650l-30 -127h-651z" />
    <glyph glyph-name="omacron" unicode="&#x14d;" 
d="M97 279q0 200 89 387q52 110 209.5 208t307.5 98q114 0 190 -36.5t112 -103t36 -175.5q0 -137 -50.5 -274.5t-116.5 -204.5q-86 -86 -237 -156q-106 -49 -223 -49q-162 0 -239.5 76.5t-77.5 229.5zM337 301q0 -125 46 -178t139 -53q65 0 115 45q66 60 115.5 220.5
t49.5 325.5q0 114 -48 169t-129 55q-71 0 -128 -50t-100 -190q-60 -198 -60 -344zM407 1290h650l-30 -127h-651z" />
    <glyph glyph-name="Obreve" unicode="&#x14e;" horiz-adv-x="1706" 
d="M128 536q0 266 107 466t291.5 306.5t436.5 106.5q302 0 468 -155t166 -423q0 -234 -116 -439.5t-304 -315t-434 -109.5q-294 0 -454.5 150.5t-160.5 412.5zM411 475q0 -140 44 -228t133.5 -137t208.5 -49q147 0 250.5 80t185 295.5t81.5 468.5q0 212 -98.5 317
t-280.5 105q-158 0 -263.5 -79.5t-183 -288.5t-77.5 -484zM723 1826h74q10 -101 65.5 -152t157.5 -51q93 0 162 53.5t101 149.5h74q-39 -172 -130.5 -252t-226.5 -80q-131 0 -205 73.5t-74 211.5z" />
    <glyph glyph-name="obreve" unicode="&#x14f;" 
d="M97 279q0 200 89 387q52 110 209.5 208t307.5 98q114 0 190 -36.5t112 -103t36 -175.5q0 -137 -50.5 -274.5t-116.5 -204.5q-86 -86 -237 -156q-106 -49 -223 -49q-162 0 -239.5 76.5t-77.5 229.5zM337 301q0 -125 46 -178t139 -53q65 0 115 45q66 60 115.5 220.5
t49.5 325.5q0 114 -48 169t-129 55q-71 0 -128 -50t-100 -190q-60 -198 -60 -344zM429 1393h74q10 -101 65.5 -152t157.5 -51q93 0 162 53.5t101 149.5h74q-39 -172 -130.5 -252t-226.5 -80q-131 0 -205 73.5t-74 211.5z" />
    <glyph glyph-name="Rcedilla" unicode="&#x156;" horiz-adv-x="1479" 
d="M-35 -10l11 69h59q72 0 92.5 19t45.5 149l65 397l85 510q15 87 15 131q0 32 -22 47t-85 15h-82l11 68q107 -6 334 -6l397 8q161 0 237.5 -33t122 -102t45.5 -159q0 -139 -99 -238.5t-320 -141.5l140 -228l133 -224q92 -156 122 -184t85 -28h35l-12 -69q-116 10 -204 10
q-82 0 -165 -10l-32 60q-45 88 -89 164l-136 235q-64 110 -171 274l5 33l73 -2q161 0 261.5 82.5t100.5 247.5q0 113 -61 168t-199 55q-55 0 -153 -16l-63 -378l-95 -568q-29 -174 -29 -221q0 -35 24.5 -50t109.5 -15h56l-11 -69l-339 11q-68 0 -298 -11zM382 -168
q103 41 199 41q91 0 138.5 -41t47.5 -105q0 -77 -73 -125t-179 -48q-84 0 -194 39l39 63q78 -25 121 -25q57 0 87.5 25t30.5 61q0 33 -25.5 55.5t-72.5 22.5q-38 0 -90 -15z" />
    <glyph glyph-name="rcedilla" unicode="&#x157;" horiz-adv-x="797" 
d="M118 -27l-22 23q55 178 101 370q24 100 44 232q13 89 13 134q0 27 -6 37t-16 10q-15 0 -46 -17q-51 -28 -108 -76l-24 55q291 231 377 231q25 0 41.5 -19.5t16.5 -54.5q0 -55 -73 -341l-13 -53h13q74 171 152.5 288.5t135.5 153.5q42 26 100 26q28 0 55 -9
q-41 -131 -46 -277l-23 -14q-49 43 -106 43q-91 0 -165 -121q-128 -207 -181 -581q-128 -15 -220 -40zM40 -168q103 41 199 41q91 0 138.5 -41t47.5 -105q0 -77 -73 -125t-179 -48q-84 0 -194 39l39 63q78 -25 121 -25q57 0 87.5 25t30.5 61q0 33 -25.5 55.5t-72.5 22.5
q-38 0 -90 -15z" />
    <glyph glyph-name="Scircumflex" unicode="&#x15c;" 
d="M63 75q30 138 52 310h66l-3 -110l1 -64q46 -55 132.5 -92t182.5 -37q145 0 223 76.5t78 207.5q0 89 -45 133q-46 43 -203 78q-233 52 -299 133q-66 80 -66 214q0 199 159 345t393 146q89 0 167.5 -21t145.5 -63q-38 -169 -50 -301h-69l3 106l-1 58q-37 50 -107.5 81.5
t-161.5 31.5q-134 0 -209 -71.5t-75 -195.5q0 -70 31 -120t87 -70q83 -29 193 -53q209 -47 266 -119t57 -191q0 -198 -171.5 -356t-413.5 -158q-108 0 -198.5 25.5t-164.5 76.5zM707 1844h142l180 -350h-90l-181 205l-271 -205h-102z" />
    <glyph glyph-name="scircumflex" unicode="&#x15d;" horiz-adv-x="909" 
d="M36 29q36 138 45 268h62l3 -97q43 -52 114 -85.5t144 -33.5q92 0 139.5 42t47.5 111q0 53 -32 88t-109 51l-86 18q-121 25 -165 66q-67 62 -67 162q0 119 82 188q194 165 378 165q58 0 117 -14.5t119 -44.5q-25 -106 -40 -241h-60l-11 99q-60 52 -115 72.5t-113 20.5
q-74 0 -118.5 -40.5t-44.5 -102.5q0 -61 43 -97q42 -37 161 -57l56 -9q105 -18 158 -76q52 -58 52 -146q0 -90 -62 -161t-172.5 -136.5t-250.5 -65.5q-66 0 -117.5 10t-157.5 46zM534 1411h142l180 -350h-90l-181 205l-271 -205h-102z" />
    <glyph glyph-name="Tbar" unicode="&#x166;" horiz-adv-x="1251" 
d="M495 695h-340l17 98h340l82 493h-102q-190 0 -242 -21t-73 -147l-13 -80h-78q31 176 50 358l11 6l397 -6h309q353 0 477 6l15 -6q-53 -280 -59 -358h-76l6 104q2 41 2 60q0 53 -24 68.5t-170 15.5h-171l-81 -493h339l-17 -98h-338l-66 -395q-22 -132 -22 -179
q0 -38 26.5 -50t86.5 -12h84l-12 -66q-215 7 -360 7q-163 0 -305 -7l11 66h83q92 0 104 34t54 269z" />
    <glyph glyph-name="tbar" unicode="&#x167;" horiz-adv-x="797" 
d="M252 510h-209l18 84h211q44 197 50 231h-223l14 55q88 19 237 69l13 86q24 154 24 172v23q58 12 183 56l68 24l22 -24q-32 -89 -61 -211l-34 -143h104q111 0 175 8l8 -8q-2 -8 -11 -34q-11 -35 -18 -82q-36 9 -174 9h-105q-18 -63 -37 -149l-19 -82h290l-18 -84h-292
l-15 -64q-43 -184 -43 -253q0 -54 48 -54q78 0 229 131l25 -56q-6 -3 -63 -45q-261 -196 -366 -196q-52 0 -82 34.5t-30 93.5q0 53 81 409z" />
    <glyph glyph-name="Utilde" unicode="&#x168;" horiz-adv-x="1593" 
d="M1469 59l-11 -69q-110 10 -290 10q-76 0 -165 -7l-14 12q3 18 17 75q23 97 33 179q-154 -162 -289 -236q-91 -50 -210 -50q-165 0 -265 94t-100 235q0 66 18 175l53 315q68 412 68 474q0 33 -19.5 47t-79.5 14h-83l12 68l312 -4q85 0 151 4l11 -14q-48 -203 -83 -412
l-60 -362q-38 -229 -38 -276q0 -84 60 -137t163 -53q69 0 145 32t151.5 100t86 92t44.5 231l72 431q32 193 32 246q0 27 -23 40.5t-94 13.5h-76l12 68q172 -7 276 -7l369 7l-11 -68h-55q-88 0 -106 -32q-26 -45 -78 -354l-79 -477q-46 -272 -46 -332q0 -37 28.5 -55
t104.5 -18h56zM664 1556h-74q28 120 86 177t133 57q35 0 72.5 -11t121.5 -50q91 -42 128 -42q57 0 96 107h73q-21 -114 -81.5 -175t-138.5 -61q-49 0 -130 37q-110 49 -140 59q-23 7 -44 7q-71 0 -102 -105z" />
    <glyph glyph-name="utilde" unicode="&#x169;" 
d="M84 710l-24 57q135 97 236 151t154 54q34 0 51 -18t17 -61q0 -52 -36 -183l-59 -218q-33 -123 -55 -235q-10 -49 -10 -72q0 -22 9.5 -33t25.5 -11q21 0 54 21q52 34 132 133.5t138.5 222t86 236t32.5 178.5q103 4 221 41l17 -20q-51 -155 -117 -398q-79 -294 -79 -371
q0 -35 30 -35q12 0 38 14q61 34 111 75l20 -57l-182 -131q-75 -49 -113.5 -63t-65.5 -14q-30 0 -47.5 21.5t-17.5 62.5q0 50 35 181l58 219q-122 -220 -310 -374q-135 -110 -221 -110q-44 0 -69 29.5t-25 94.5q0 35 7 69q8 45 43 170l29 107q67 245 67 305q0 20 -8 30.5
t-21 10.5q-30 0 -152 -79zM413 1126h-74q28 120 86 177t133 57q35 0 72.5 -11t121.5 -50q91 -42 128 -42q57 0 96 107h73q-21 -114 -81.5 -175t-138.5 -61q-49 0 -130 37q-110 49 -140 59q-23 7 -44 7q-71 0 -102 -105z" />
    <glyph glyph-name="Umacron" unicode="&#x16a;" horiz-adv-x="1593" 
d="M1469 59l-11 -69q-110 10 -290 10q-76 0 -165 -7l-14 12q3 18 17 75q23 97 33 179q-154 -162 -289 -236q-91 -50 -210 -50q-165 0 -265 94t-100 235q0 66 18 175l53 315q68 412 68 474q0 33 -19.5 47t-79.5 14h-83l12 68l312 -4q85 0 151 4l11 -14q-48 -203 -83 -412
l-60 -362q-38 -229 -38 -276q0 -84 60 -137t163 -53q69 0 145 32t151.5 100t86 92t44.5 231l72 431q32 193 32 246q0 27 -23 40.5t-94 13.5h-76l12 68q172 -7 276 -7l369 7l-11 -68h-55q-88 0 -106 -32q-26 -45 -78 -354l-79 -477q-46 -272 -46 -332q0 -37 28.5 -55
t104.5 -18h56zM631 1720h650l-30 -127h-651z" />
    <glyph glyph-name="umacron" unicode="&#x16b;" 
d="M84 710l-24 57q135 97 236 151t154 54q34 0 51 -18t17 -61q0 -52 -36 -183l-59 -218q-33 -123 -55 -235q-10 -49 -10 -72q0 -22 9.5 -33t25.5 -11q21 0 54 21q52 34 132 133.5t138.5 222t86 236t32.5 178.5q103 4 221 41l17 -20q-51 -155 -117 -398q-79 -294 -79 -371
q0 -35 30 -35q12 0 38 14q61 34 111 75l20 -57l-182 -131q-75 -49 -113.5 -63t-65.5 -14q-30 0 -47.5 21.5t-17.5 62.5q0 50 35 181l58 219q-122 -220 -310 -374q-135 -110 -221 -110q-44 0 -69 29.5t-25 94.5q0 35 7 69q8 45 43 170l29 107q67 245 67 305q0 20 -8 30.5
t-21 10.5q-30 0 -152 -79zM406 1290h650l-30 -127h-651z" />
    <glyph glyph-name="Ubreve" unicode="&#x16c;" horiz-adv-x="1593" 
d="M1469 59l-11 -69q-110 10 -290 10q-76 0 -165 -7l-14 12q3 18 17 75q23 97 33 179q-154 -162 -289 -236q-91 -50 -210 -50q-165 0 -265 94t-100 235q0 66 18 175l53 315q68 412 68 474q0 33 -19.5 47t-79.5 14h-83l12 68l312 -4q85 0 151 4l11 -14q-48 -203 -83 -412
l-60 -362q-38 -229 -38 -276q0 -84 60 -137t163 -53q69 0 145 32t151.5 100t86 92t44.5 231l72 431q32 193 32 246q0 27 -23 40.5t-94 13.5h-76l12 68q172 -7 276 -7l369 7l-11 -68h-55q-88 0 -106 -32q-26 -45 -78 -354l-79 -477q-46 -272 -46 -332q0 -37 28.5 -55
t104.5 -18h56zM641 1826h74q10 -101 65.5 -152t157.5 -51q93 0 162 53.5t101 149.5h74q-39 -172 -130.5 -252t-226.5 -80q-131 0 -205 73.5t-74 211.5z" />
    <glyph glyph-name="ubreve" unicode="&#x16d;" 
d="M84 710l-24 57q135 97 236 151t154 54q34 0 51 -18t17 -61q0 -52 -36 -183l-59 -218q-33 -123 -55 -235q-10 -49 -10 -72q0 -22 9.5 -33t25.5 -11q21 0 54 21q52 34 132 133.5t138.5 222t86 236t32.5 178.5q103 4 221 41l17 -20q-51 -155 -117 -398q-79 -294 -79 -371
q0 -35 30 -35q12 0 38 14q61 34 111 75l20 -57l-182 -131q-75 -49 -113.5 -63t-65.5 -14q-30 0 -47.5 21.5t-17.5 62.5q0 50 35 181l58 219q-122 -220 -310 -374q-135 -110 -221 -110q-44 0 -69 29.5t-25 94.5q0 35 7 69q8 45 43 170l29 107q67 245 67 305q0 20 -8 30.5
t-21 10.5q-30 0 -152 -79zM428 1393h74q10 -101 65.5 -152t157.5 -51q93 0 162 53.5t101 149.5h74q-39 -172 -130.5 -252t-226.5 -80q-131 0 -205 73.5t-74 211.5z" />
    <glyph glyph-name="Uogonek" unicode="&#x172;" horiz-adv-x="1593" 
d="M931 -277q0 46 26 94t193 183q-60 0 -147 -7l-14 12q3 18 17 75q23 97 33 179q-154 -162 -289 -236q-91 -50 -210 -50q-165 0 -265 94t-100 235q0 66 18 175l53 315q68 412 68 474q0 33 -19.5 47t-79.5 14h-83l12 68l312 -4q85 0 151 4l11 -14q-48 -203 -83 -412
l-60 -362q-38 -229 -38 -276q0 -84 60 -137t163 -53q69 0 145 32t151.5 100t86 92t44.5 231l72 431q32 193 32 246q0 27 -23 40.5t-94 13.5h-76l12 68q172 -7 276 -7l369 7l-11 -68h-55q-88 0 -106 -32q-26 -45 -78 -354l-79 -477q-46 -272 -46 -332q0 -37 28.5 -55
t104.5 -18h56l-11 -66q-38 3 -258 7q-132 -138 -132 -233q0 -52 33 -87t83 -35q55 0 114 61l40 -25q-115 -133 -229 -133q-71 0 -124.5 50.5t-53.5 124.5z" />
    <glyph glyph-name="uogonek" unicode="&#x173;" 
d="M84 710l-24 57q135 97 236 151t154 54q34 0 51 -18t17 -61q0 -52 -36 -183l-59 -218q-33 -123 -55 -235q-10 -49 -10 -72q0 -22 9.5 -33t25.5 -11q21 0 54 21q52 34 132 133.5t138.5 222t86 236t32.5 178.5q103 4 221 41l17 -20q-51 -155 -117 -398q-79 -294 -79 -371
q0 -35 30 -35q12 0 38 14q61 34 111 75l20 -57l-182 -131q-75 -49 -113.5 -63t-65.5 -14q-30 0 -47.5 21.5t-17.5 62.5q0 50 35 181l58 219q-122 -220 -310 -374q-135 -110 -221 -110q-44 0 -69 29.5t-25 94.5q0 35 7 69q8 45 43 170l29 107q67 245 67 305q0 20 -8 30.5
t-21 10.5q-30 0 -152 -79zM792 0q-72 -82 -95 -127.5t-23 -82.5q0 -47 30 -78t74 -31q26 0 47 10t57 45l36 -23q-108 -121 -207 -121q-66 0 -113 46.5t-47 112.5q0 34 12 62q16 37 47 69l137 118h45z" />
    <glyph glyph-name="Wcircumflex" unicode="&#x174;" horiz-adv-x="2048" 
d="M409 -10l-85 843q-19 182 -49 384q-11 75 -31 92.5t-86 17.5h-53l11 68q174 -5 310 -5t286 5l-1 -68h-52q-75 0 -95 -15t-20 -60q0 -66 50 -568l37 -376l304 633l225 476h65q10 -26 50 -171l86 -320l177 -646l266 699q40 105 73 226q14 52 14 72q0 25 -22.5 37.5
t-90.5 12.5h-65l11 68q201 -6 257 -6q84 0 194 6l-12 -68h-25q-64 0 -84 -30.5t-185 -444.5l-223 -554q-80 -200 -118 -308h-173q-24 102 -63 242l-216 778l-498 -1020h-169zM1179 1844h142l180 -350h-90l-181 205l-271 -205h-102z" />
    <glyph glyph-name="wcircumflex" unicode="&#x175;" horiz-adv-x="1706" 
d="M38 690q16 54 46 129q35 89 37 142q71 12 100 12q57 0 105 -4l84 -8q37 -3 66 -3q116 0 173 22l29 -32q-139 -153 -212.5 -326.5t-73.5 -322.5q0 -105 31 -151t76 -46q71 0 160 114q127 161 185 413t58 297q100 19 220 54l26 -19q-23 -70 -85 -317q-59 -237 -59 -381
q0 -79 33 -120t84 -41q59 0 126 60q101 90 168 246.5t67 297.5q0 60 -26.5 90.5t-69.5 30.5q-33 0 -69 -25l-24 47q65 35 145 118q32 8 53 8q62 0 103.5 -51t41.5 -148q0 -171 -111.5 -372.5t-281.5 -328.5q-135 -102 -250 -102q-84 0 -138.5 58.5t-54.5 155.5q0 71 19 174
l-23 -39q-61 -104 -107 -158q-91 -104 -168 -147.5t-142 -43.5q-93 0 -152.5 72t-59.5 205q0 89 28.5 173.5t87.5 166.5t236 259q-67 -19 -172 -19h-69q-55 0 -113 -7l-65 -136zM1026 1411h142l180 -350h-90l-181 205l-271 -205h-102z" />
    <glyph glyph-name="Ycircumflex" unicode="&#x176;" horiz-adv-x="1251" 
d="M226 -10l12 71h80q60 0 84 13.5t33 41.5q17 85 26 140q35 212 35 248q0 81 -101 392q-73 227 -141 300q-38 41 -88 41q-38 0 -114 -34v67q54 37 92 69l90 75q28 5 55 5q81 0 145 -47t114 -167q71 -170 126 -427l36 -162q117 281 252.5 477.5t231.5 261.5q65 45 133 46
l-10 -186q-77 -14 -148 -70q-105 -84 -208.5 -247t-160.5 -306q-38 -92 -70 -287l-15 -86q-10 -62 -10 -91q0 -36 25 -51.5t105 -15.5h79l-12 -71q-141 11 -258 11q-160 0 -418 -11zM779 1844h142l180 -350h-90l-181 205l-271 -205h-102z" />
    <glyph glyph-name="ycircumflex" unicode="&#x177;" 
d="M33 -364l127 80l30 -13q-3 -20 -3 -33q0 -65 37 -105t96 -40q51 0 100 32t90 107.5t92 235.5l117 437q-109 -151 -191.5 -232t-151.5 -116q-51 -26 -80 -26q-40 0 -69.5 44.5t-29.5 139.5q0 57 11 148l20 158q28 229 28 265q0 55 -9.5 71.5t-27.5 16.5q-17 0 -49 -22
q-79 -51 -119 -94l-26 57q12 8 115.5 88t174.5 113q52 24 86 24q38 0 59.5 -29.5t21.5 -97.5q0 -34 -5 -77l-43 -357q-12 -97 -12 -188q0 -48 10 -64.5t26 -16.5q42 0 120 94q132 158 202 376t74 307q59 8 232 49l23 -18q-40 -103 -79 -245l-96 -340q-90 -322 -155 -463
q-108 -231 -259 -348t-281 -117q-66 0 -114 23.5t-70 59.5t-22 98v18zM667 1411h142l180 -350h-90l-181 205l-271 -205h-102z" />
    <glyph glyph-name="longs" unicode="&#x17f;" horiz-adv-x="592" 
d="M922 1479q-43 -134 -60 -257l-30 -7q-77 124 -152 124q-56 0 -90.5 -59.5t-94.5 -370.5q-7 -40 -17 -81l-70 -299q-51 -217 -111.5 -428.5t-120.5 -322.5t-137 -188t-143.5 -119t-123.5 -42q-37 0 -76 19q61 160 69 221l32 6q37 -87 103 -87q60 0 90 67t98 401l156 772
q41 207 70 281t167 185t202 155.5t156 44.5q50 0 83 -15z" />
    <glyph glyph-name="Aringacute" unicode="&#x1fa;" horiz-adv-x="1479" 
d="M-97 -10l3 69h39q40 0 67 10t44 33l80 136l529 904q112 191 149 263h197q13 -99 29 -206l138 -880q22 -143 32.5 -184.5t24.5 -53.5t56 -16l45 -5q23 -1 48 -1l1 -69q-122 10 -282 10q-205 0 -337 -10l1 69h39q69 0 99 12t30 49q0 62 -16 170l-34 252l-159 1l-297 -1
l-84 -150q-131 -237 -131 -284q0 -23 24 -33q38 -16 158 -16l-12 -69q-123 10 -242 10q-120 0 -239 -10zM788 1172l-310 -531l197 -2l195 2zM895 1727q83 0 142 -59t59 -143q0 -82 -57.5 -139.5t-139.5 -57.5q-83 0 -142.5 59t-59.5 142q0 82 58 140t140 58zM896 1649
q-51 0 -86 -35t-35 -85q0 -51 36 -87.5t87 -36.5q50 0 85.5 35.5t35.5 85.5q0 51 -36.5 87t-86.5 36zM840 1754h-87l242 255q74 76 96 90.5t47 14.5q39 0 65 -24.5t26 -60.5q0 -27 -16 -47.5t-67 -48.5z" />
    <glyph glyph-name="aringacute" unicode="&#x1fb;" 
d="M1032 239l21 -65q-249 -201 -349 -201q-33 0 -49 21q-23 29 -23 72q0 60 70 338l18 71q-122 -192 -169 -249q-78 -96 -147.5 -152t-138.5 -84q-41 -17 -70 -17q-54 0 -85 41t-31 137q0 115 43.5 276t92.5 249q26 46 110 112q160 126 225.5 155t142.5 29q55 0 109 -12.5
t106 -37.5l93 51l33 -21q-8 -19 -21 -62l-38 -134l-113 -481q-15 -63 -15 -97q0 -35 24 -35q43 0 161 96zM770 820q-45 22 -86.5 33t-80.5 11q-69 0 -117.5 -46.5t-105.5 -234.5q-76 -249 -76 -372q0 -35 12 -52.5t28 -17.5q15 0 41 17q67 45 156 158.5t147 236t73 217.5z
M733 1450q83 0 142 -59t59 -143q0 -82 -57.5 -139.5t-139.5 -57.5q-83 0 -142.5 59t-59.5 142q0 82 58 140t140 58zM734 1372q-51 0 -86 -35t-35 -85q0 -51 36 -87.5t87 -36.5q50 0 85.5 35.5t35.5 85.5q0 51 -36.5 87t-86.5 36zM678 1502h-87l242 255q74 76 96 90.5
t47 14.5q39 0 65 -24.5t26 -60.5q0 -27 -16 -47.5t-67 -48.5z" />
    <glyph glyph-name="AEacute" unicode="&#x1fc;" horiz-adv-x="1933" 
d="M-66 -9l11 68l36 2q60 3 76 14t80 105l644 1002q51 80 51 95q0 20 -23.5 31t-122.5 11h-68l13 76h255l372 -1l595 9l42 -1l10 -9q-16 -64 -26 -122l-28 -200h-72q8 60 8 96q0 73 -13 89.5t-70 25.5q-87 14 -240 14q-65 0 -144 -4l-86 -528l171 -2q207 0 286 12l9 -10
l-28 -97l-80 4q-108 7 -307 7h-67l-74 -419q-15 -88 -22 -154q159 -9 210 -9q157 0 256 18q55 10 72.5 29t44.5 114l26 95h71l-37 -206q-15 -79 -19 -131l-18 -22q-201 5 -341 5h-174l-196 2q-162 0 -305 -9l12 68q86 9 107.5 24t31.5 53q33 170 72 407q-80 2 -141 2
l-305 -2q-140 -216 -208 -361q-28 -61 -28 -76q0 -19 22 -31q30 -16 96 -16h58l-12 -68q-138 9 -235 9q-88 0 -248 -9zM951 635l79 478q18 139 18 166q0 30 -31 30q-24 0 -47.5 -22t-84.5 -118l-343 -537l143 3h266zM1101 1494h-87l242 255q74 76 96 90.5t47 14.5
q39 0 65 -24.5t26 -60.5q0 -27 -16 -47.5t-67 -48.5z" />
    <glyph glyph-name="aeacute" unicode="&#x1fd;" horiz-adv-x="1511" 
d="M1359 244l24 -57q-314 -214 -499 -214q-88 0 -147 45t-89 134q-121 -105 -202 -142t-160 -37q-98 0 -152.5 54.5t-54.5 145.5q0 105 58 189.5t169 125t317 40.5h64q6 64 6 96q0 109 -61 169.5t-178 60.5q-29 0 -58.5 -3t-59.5 -9l-53 -137l-38 7l-13 155l71 53
q102 52 239 52q116 0 189 -48t102 -144q114 96 224 144t197 48q99 0 150 -44.5t51 -121.5q0 -94 -59.5 -166t-218 -120.5t-282.5 -57.5q-19 -122 -19 -175q0 -98 39 -141.5t111 -43.5q62 0 160.5 41t172.5 101zM908 518q118 16 196.5 55.5t117.5 98.5t39 116q0 39 -26 63
t-74 24q-68 0 -120.5 -52.5t-103.5 -214.5zM677 465l-50 1q-167 0 -250 -64.5t-83 -160.5q0 -58 29.5 -89t87.5 -31q119 0 194 98q58 76 72 246zM861 1061h-87l242 255q74 76 96 90.5t47 14.5q39 0 65 -24.5t26 -60.5q0 -27 -16 -47.5t-67 -48.5z" />
    <glyph glyph-name="Oslashacute" unicode="&#x1fe;" horiz-adv-x="1706" 
d="M264 146q-137 138 -137 408q0 247 108 448t293 307t429 106q249 0 399 -99l176 189l74 -71l-168 -181q80 -79 119 -181.5t39 -234.5q0 -234 -115.5 -439t-303.5 -315t-431 -110q-249 0 -403 107l-181 -194l-76 69zM428 322l812 871q-56 65 -112 92q-88 42 -195 42
q-156 0 -261 -79t-183.5 -288t-78.5 -473q0 -90 18 -165zM1287 1092l-816 -875q42 -69 129 -112.5t195 -43.5q148 0 251.5 80t185.5 295.5t82 469.5q0 102 -27 186zM881 1494h-87l242 255q74 76 96 90.5t47 14.5q39 0 65 -24.5t26 -60.5q0 -27 -16 -47.5t-67 -48.5z" />
    <glyph glyph-name="oslashacute" unicode="&#x1ff;" 
d="M148 81q-51 78 -51 213q0 133 48 270.5t106 193.5q111 109 226.5 161.5t225.5 52.5q117 0 204 -44l118 132l61 -57l-111 -125q66 -77 66 -225q0 -133 -50.5 -271t-116.5 -205q-86 -86 -237 -155q-106 -49 -222 -49q-126 0 -206 50l-117 -132l-66 54zM337 292l444 496
q-45 97 -156 97q-71 0 -128 -50.5t-101 -193.5q-59 -196 -59 -349zM801 685l-450 -504q16 -52 59.5 -81.5t105.5 -29.5q71 0 120 43q65 59 109 198q57 182 57 339zM588 1061h-87l242 255q74 76 96 90.5t47 14.5q39 0 65 -24.5t26 -60.5q0 -27 -16 -47.5t-67 -48.5z" />
    <glyph glyph-name="tonos" unicode="&#x384;" horiz-adv-x="682" 
d="M442 1077h-40l-13 154q-9 110 -9 117q0 91 89 91q40 0 64 -21t24 -49q0 -25 -43 -120z" />
    <glyph glyph-name="dieresistonos" unicode="&#x385;" horiz-adv-x="682" 
d="M443 1077h-40l-13 154q-10 110 -10 117q0 91 90 91q39 0 63.5 -21t24.5 -49q0 -25 -44 -120zM295 1200q0 -45 -32 -76.5t-76 -31.5q-45 0 -77.5 32t-32.5 79q0 45 32 76.5t76 31.5q45 0 77.5 -32t32.5 -79zM819 1200q0 -45 -32 -76.5t-76 -31.5q-45 0 -77.5 32t-32.5 79
q0 45 32 76.5t76 31.5q45 0 77.5 -32t32.5 -79z" />
    <glyph glyph-name="Alphatonos" unicode="&#x386;" horiz-adv-x="1479" 
d="M-97 -10l3 69h39q40 0 67 10t44 33l80 136l529 904q112 191 149 263h197q13 -99 29 -206l138 -880q22 -143 32.5 -184.5t24.5 -53.5t56 -16l45 -5q23 -1 48 -1l1 -69q-122 10 -282 10q-205 0 -337 -10l1 69h39q69 0 99 12t30 49q0 62 -16 170l-34 252l-159 1l-297 -1
l-84 -150q-131 -237 -131 -284q0 -23 24 -33q38 -16 158 -16l-12 -69q-123 10 -242 10q-120 0 -239 -10zM788 1172l-310 -531l197 -2l195 2zM291 1053h-40l-13 154q-9 110 -9 117q0 91 89 91q40 0 64 -21t24 -49q0 -25 -43 -120z" />
    <glyph glyph-name="anoteleia" unicode="&#x387;" horiz-adv-x="682" 
d="M391 972q55 0 88.5 -33t33.5 -91q0 -72 -40.5 -123t-110.5 -51q-126 0 -126 122q0 71 40.5 123.5t114.5 52.5z" />
    <glyph glyph-name="Epsilontonos" unicode="&#x388;" horiz-adv-x="1429" 
d="M175 -10l11 69q105 14 123 31t43 139q10 50 80 469l69 414q20 119 20 159q0 27 -20 38q-32 18 -103 18h-74l11 68l118 -3l111 -4l368 4l330 1q78 0 126 -8l10 -8q-32 -157 -52 -314h-70l3 66l1 80q0 46 -29 56q-84 31 -293 31q-88 0 -168 -12l-85 -510l293 -8q38 0 178 8
l6 -13l-24 -97q-198 10 -389 10q-43 0 -81 -2l-94 -564q107 -14 215 -14q162 0 271 19q58 10 71 22q18 19 50 128l26 83h72l-32 -182q-17 -90 -24 -154l-15 -17q-46 -3 -95 -3l-783 14q-84 0 -175 -14zM134 1053h-40l-13 154q-9 110 -9 117q0 91 89 91q40 0 64 -21t24 -49
q0 -25 -43 -120z" />
    <glyph glyph-name="Etatonos" unicode="&#x389;" horiz-adv-x="1771" 
d="M132 -10l11 69h61q83 0 104 29.5t57 242.5l106 635q39 238 39 301q0 32 -19 46t-70 14h-97l11 68l385 -7q55 0 256 7l-11 -68h-74q-70 0 -88 -28.5t-68 -304.5l-35 -209l75 1l325 -3l192 2l32 192q34 201 34 289q0 37 -30.5 49t-149.5 12l11 68q315 -9 383 -9
q129 0 256 9l-11 -68h-27q-97 0 -119 -15q-16 -11 -31 -63q-24 -83 -61 -308l-81 -482q-46 -277 -46 -335q0 -38 25.5 -47t137.5 -18h28l-12 -69q-170 10 -338 10q-165 0 -311 -10l11 69h32q112 0 132 28q25 36 73 324l46 276l-44 1h-255l-256 -2l-37 1l-28 -169
q-56 -341 -56 -395q0 -34 22 -46q33 -18 132 -18h26l-11 -69q-217 10 -281 10zM134 1053h-40l-13 154q-9 110 -9 117q0 91 89 91q40 0 64 -21t24 -49q0 -25 -43 -120z" />
    </font>
</defs>
</svg>
