<?xml version="1.0" standalone="no"?>
<!DOCTYPE svg PUBLIC "-//W3C//DTD SVG 1.1//EN" "http://www.w3.org/Graphics/SVG/1.1/DTD/svg11.dtd" >
<svg>
<metadata>
Created by FontForge 20090622 at Thu Sep 13 19:15:11 2018
 By deploy user
Digitized data copyright The Monotype Corporation 1991-1995. All rights reserved. Book Antiqua&#226;&#132;&#162; is a trademark of The Monotype Corporation which may be registered in certain jurisdictions.
</metadata>
<defs>
<font id="BookAntiqua-Italic" horiz-adv-x="1024" >
  <font-face 
    font-family="Book Antiqua"
    font-weight="400"
    font-style="italic"
    font-stretch="normal"
    units-per-em="2048"
    panose-1="2 4 5 2 5 3 5 10 3 4"
    ascent="1638"
    descent="-410"
    x-height="969"
    cap-height="1416"
    bbox="-354 -628 2171 2132"
    underline-thickness="119"
    underline-position="-209"
    slope="-9.5"
    unicode-range="U+0020-U+F108"
  />
<missing-glyph horiz-adv-x="1536" 
d="M256 0v1280h1024v-1280h-1024zM288 32h960v1216h-960v-1216z" />
    <glyph glyph-name=".notdef" horiz-adv-x="1536" 
d="M256 0v1280h1024v-1280h-1024zM288 32h960v1216h-960v-1216z" />
    <glyph glyph-name="glyph1" horiz-adv-x="0" 
 />
    <glyph glyph-name="glyph2" horiz-adv-x="512" 
 />
    <glyph glyph-name="space" unicode=" " horiz-adv-x="512" 
 />
    <glyph glyph-name="exclam" unicode="!" horiz-adv-x="682" 
d="M586 1436l25 -17q-120 -419 -249 -1011q-30 -15 -60 -34l-15 10q87 536 122 1001q100 25 177 51zM269 -27q-40 0 -66 27.5t-26 74.5q0 61 35.5 101.5t85.5 40.5q40 0 65 -26.5t25 -70.5q0 -65 -34.5 -106t-84.5 -41z" />
    <glyph glyph-name="quotedbl" unicode="&#x22;" 
d="M315 822l-31 458l-2 59q0 51 19 74t50 23q30 0 48 -19.5t18 -52.5q0 -18 -4 -63l-37 -467q-3 -43 -28 -43q-31 0 -33 31zM642 822l-30 458q-2 36 -2 61q0 49 19 72t50 23q30 0 47.5 -20t17.5 -54q0 -18 -3 -61l-37 -467q-4 -43 -29 -43q-31 0 -33 31z" />
    <glyph glyph-name="numbersign" unicode="#" horiz-adv-x="1241" 
d="M1083 583v-138h-216l-64 -445h-141l65 445h-276l-67 -445h-139l68 445h-209v138h230l43 273h-216v139h235l63 414h137l-62 -414h275l60 414h140l-61 -414h191v-139h-211l-39 -273h194zM789 856h-276l-40 -273h274z" />
    <glyph glyph-name="dollar" unicode="$" 
d="M103 369h58l-2 -84l2 -98q52 -51 100 -74t133 -36l88 559q-159 34 -223 89q-83 72 -83 203q0 105 49 198.5t141 159t234 97.5l16 132l39 -1l40 1q-13 -61 -25 -132q103 -2 158.5 -16t124.5 -52v-19q-25 -90 -50 -238h-51l2 110l-2 42q-36 38 -77.5 57.5t-118.5 28.5
l-83 -524q150 -26 213 -60t98.5 -95.5t35.5 -135.5q0 -111 -57 -217.5t-152 -171.5t-260 -99l-27 -212h-86q24 103 41 205q-101 3 -174 24t-146 67v11q36 113 44 281zM584 1296q-95 -10 -148.5 -45.5t-87.5 -105t-34 -152.5q0 -93 55 -146q40 -38 138 -62zM465 77
q103 6 162.5 44t100.5 118.5t41 172.5q0 96 -65 152q-46 39 -151 61z" />
    <glyph glyph-name="percent" unicode="%" horiz-adv-x="1821" 
d="M594 1393q103 0 176 -74.5t73 -181.5q0 -99 -47.5 -189.5t-127.5 -139t-170 -48.5q-105 0 -174 73.5t-69 193.5q0 97 46 183t126.5 134.5t166.5 48.5zM389 958q0 -76 31 -114.5t79 -38.5q93 0 151 129.5t58 274.5q0 67 -31 103t-81 36q-96 0 -151.5 -124.5t-55.5 -265.5z
M356 -88q75 107 102 150l785 1254q43 69 81 143q44 -5 72 -5l38 2q-41 -55 -112 -167l-772 -1232q-58 -92 -86 -145l-55 3q-17 0 -53 -3zM1288 616q103 0 176 -74.5t73 -181.5q0 -99 -47.5 -189.5t-127.5 -139t-170 -48.5q-105 0 -174 73.5t-69 193.5q0 97 46 183
t126.5 134.5t166.5 48.5zM1083 181q0 -76 31 -114.5t79 -38.5q93 0 151 129.5t58 274.5q0 67 -31 103t-81 36q-96 0 -151.5 -124.5t-55.5 -265.5z" />
    <glyph glyph-name="ampersand" unicode="&#x26;" horiz-adv-x="1593" 
d="M831 432l-47 7l14 208q51 47 103.5 67t211.5 42q209 30 274.5 51t95 57.5t29.5 79.5q0 34 -16 58.5t-59 49.5l43 38q62 -38 83.5 -74t21.5 -92q0 -71 -38.5 -130t-111.5 -92q-49 -23 -265 -57q80 -26 114 -68t34 -102q0 -174 -195 -327q-223 -175 -519 -175
q-227 0 -360 115.5t-133 286.5q0 98 43 181t118.5 137t269.5 118q-87 37 -124 89.5t-37 126.5q0 134 146 261q172 148 343 148q57 0 99.5 -12.5t96.5 -46.5q-30 -124 -50 -240l-49 1q0 77 -2 121q-44 38 -84.5 53t-93.5 15q-113 0 -185.5 -68.5t-72.5 -170.5q0 -100 72 -159
q72 -60 213 -58q-24 -51 -40 -103q-58 8 -89 8q-107 0 -203 -49t-145.5 -131t-49.5 -180q0 -147 112.5 -245.5t301.5 -98.5q208 0 338.5 107.5t130.5 246.5q0 83 -47.5 129.5t-131.5 46.5q-46 0 -78.5 -16.5t-49.5 -44.5q-12 -20 -32 -109z" />
    <glyph glyph-name="quotesingle" unicode="'" horiz-adv-x="682" 
d="M308 822l-31 458l-2 59q0 51 19 74t51 23q29 0 47 -20t18 -53q0 -19 -4 -62l-37 -467q-3 -43 -29 -43q-30 0 -32 31z" />
    <glyph glyph-name="parenleft" unicode="(" horiz-adv-x="682" 
d="M437 -374q-123 183 -185 345q-86 229 -86 456q0 319 166 597q131 219 408 462l47 -51q-123 -117 -198 -228q-127 -188 -194 -401.5t-67 -465.5q0 -197 38 -354t127 -325z" />
    <glyph glyph-name="parenright" unicode=")" horiz-adv-x="682" 
d="M283 1486q123 -183 186 -350q85 -227 85 -450q0 -320 -165 -597q-130 -218 -409 -463l-47 51q122 116 197 226q127 188 194.5 402.5t67.5 466.5q0 197 -38.5 355.5t-126.5 323.5z" />
    <glyph glyph-name="asterisk" unicode="*" horiz-adv-x="797" 
d="M265 845l-24 2q-30 78 -52 117l4 13q166 64 265 113l-265 130l-8 21q36 52 66 110h19q67 -72 215 -217l46 290l19 12q68 -24 127 -38l3 -18q-68 -112 -147 -265l287 49l14 -10q5 -58 16 -119l-15 -12q-122 20 -300 42l136 -247l-4 -13q-58 -23 -121 -60l-15 12
q-16 144 -48 285z" />
    <glyph glyph-name="plus" unicode="+" horiz-adv-x="1241" 
d="M117 635v139h434v434h139v-434h434v-139h-434v-434h-139v434h-434z" />
    <glyph glyph-name="comma" unicode="," horiz-adv-x="512" 
d="M326 233l23 -27q-148 -303 -315 -487q-35 -16 -70 -28l-16 20q81 109 122.5 207.5t72.5 259.5q74 19 183 55z" />
    <glyph glyph-name="hyphen" unicode="-" horiz-adv-x="682" 
d="M44 427l-3 15q23 58 42 118q211 -7 321 -7q106 0 230 6l3 -10q-29 -67 -46 -123q-185 8 -318 8q-107 0 -229 -7z" />
    <glyph glyph-name="hyphen" unicode="&#xad;" horiz-adv-x="682" 
d="M44 427l-3 15q23 58 42 118q211 -7 321 -7q106 0 230 6l3 -10q-29 -67 -46 -123q-185 8 -318 8q-107 0 -229 -7z" />
    <glyph glyph-name="period" unicode="." horiz-adv-x="512" 
d="M210 -27q-40 0 -65.5 27.5t-25.5 73.5q0 62 35.5 102.5t84.5 40.5q39 0 64 -26.5t25 -70.5q0 -65 -34 -106t-84 -41z" />
    <glyph glyph-name="slash" unicode="/" horiz-adv-x="606" 
d="M-252 -327l99 169l780 1457q42 79 81 167q72 -6 100 -6l52 2q-42 -66 -111 -195l-772 -1430q-53 -100 -82 -164l-73 4q-26 0 -74 -4z" />
    <glyph glyph-name="zero" unicode="0" 
d="M89 482q0 277 94 528q80 216 199 310.5t257 94.5q161 0 257 -118.5t96 -371.5q0 -282 -95 -538q-79 -215 -201.5 -314.5t-255.5 -99.5q-158 0 -254.5 123t-96.5 386zM242 381q0 -186 57 -266t149 -80q76 0 134 59q99 100 173.5 358t74.5 541q0 205 -53.5 283t-147.5 78
q-96 0 -184.5 -109.5t-145.5 -374t-57 -489.5z" />
    <glyph glyph-name="one" unicode="1" 
d="M131 -7l7 59l92 7q85 6 117 24q22 14 40 46.5t39 158.5l90 538q41 245 70 455q-110 -43 -387 -164h-13q12 71 19 125q139 30 293 81.5t251 99.5l32 -23q-82 -405 -115 -607l-84 -547q-4 -39 -4 -77q0 -72 37 -88t225 -29l-10 -59q-189 7 -327 7q-145 0 -372 -7z" />
    <glyph glyph-name="two" unicode="2" 
d="M28 -7v41q444 452 586 687q106 174 106 322q0 117 -61 180t-166 63q-87 0 -157 -49.5t-139 -179.5l-47 22l125 241q65 48 134 71.5t141 23.5q157 0 249.5 -91t92.5 -244q0 -71 -19 -136.5t-69.5 -148.5t-188.5 -234l-391 -415v-13h306q186 0 345 13l11 -13
q-9 -30 -33 -140q-211 7 -437 7q-201 0 -388 -7z" />
    <glyph glyph-name="three" unicode="3" 
d="M90 358l50 -8q-9 -63 -9 -96q0 -90 68 -147.5t182 -57.5q144 0 244.5 114.5t100.5 292.5q0 135 -73 206t-208 71q-69 0 -159 -25l-9 7l37 102q76 -10 98 -10q79 0 155.5 42t118.5 109.5t42 141.5q0 89 -55 142.5t-152 53.5q-76 0 -133.5 -33.5t-133.5 -137.5l-41 27
q67 105 118 201q65 31 125.5 46.5t116.5 15.5q149 0 230 -74.5t81 -193.5q0 -62 -26 -122t-69.5 -100.5t-192.5 -129.5q137 -36 190 -72.5t85.5 -103t32.5 -149.5q0 -125 -73.5 -241.5t-205 -186t-286.5 -69.5q-85 0 -155.5 21t-151.5 74q35 148 58 290z" />
    <glyph glyph-name="four" unicode="4" 
d="M219 -7l8 58l100 6q120 6 143.5 30t55.5 177l24 123h-305q-131 0 -221 -5v62q118 184 289 418q215 294 400 523q67 15 137 36l24 -12q-48 -211 -65 -309l-101 -594h93q108 0 172 7l10 -7q-21 -57 -38 -124q-114 5 -181 5h-63l-28 -127q-14 -64 -14 -125q0 -43 25 -56
t224 -28l-10 -58q-192 7 -345 7q-164 0 -334 -7zM695 1252q-96 -119 -227 -300q-196 -271 -303 -432l9 -12q80 -2 232 -2h163z" />
    <glyph glyph-name="five" unicode="5" 
d="M59 352l51 -8q-6 -48 -6 -72q0 -101 64 -157q75 -66 194 -66q93 0 170 51.5t127 163t50 241.5q0 128 -68.5 200.5t-180.5 72.5q-69 0 -130.5 -29t-124.5 -97l-44 21q74 329 127 700l15 16q185 -17 352 -17q127 0 307 9l14 -20q-54 -85 -73 -118q-157 -8 -267 -8
q-119 0 -284 8l-101 -474q77 55 137 75t136 20q171 0 265 -89.5t94 -246.5q0 -151 -71 -274.5t-207 -202t-289 -78.5q-88 0 -160.5 22t-152.5 76q39 161 56 281z" />
    <glyph glyph-name="six" unicode="6" 
d="M933 1280h-17q-36 22 -61.5 29.5t-66.5 7.5q-182 0 -308.5 -170.5t-197.5 -512.5q81 108 144 149q98 63 210 63q135 0 212 -82t77 -236q0 -146 -64 -265.5t-198.5 -204.5t-239.5 -85q-136 0 -227 106.5t-91 329.5q0 212 95.5 454t281 397t368.5 155q25 0 54 -4t61 -13
q-22 -72 -32 -118zM265 354q0 -140 62 -211t160 -71q74 0 136.5 44.5t103.5 144t41 221.5q0 125 -57.5 190t-153.5 65q-121 0 -206.5 -103t-85.5 -280z" />
    <glyph glyph-name="seven" unicode="7" 
d="M182 -7l-14 20l429 657q226 354 345 557h-288q-236 0 -417 -10l-10 10q18 72 28 153l8 9q227 -13 582 -13q133 0 241 4v-73q-198 -287 -462 -758q-169 -301 -273 -556q-54 7 -95 7q-33 0 -74 -7z" />
    <glyph glyph-name="eight" unicode="8" 
d="M655 768q129 -68 172 -123q59 -75 59 -190q0 -122 -67.5 -232.5t-189.5 -180t-246 -69.5q-119 0 -211 76.5t-92 219.5q0 127 80 234.5t286 211.5q-111 56 -158.5 123.5t-47.5 154.5q0 160 138 291t312 131q127 0 198.5 -68.5t71.5 -184.5q0 -101 -60 -188t-245 -206z
M598 799q120 84 168.5 164.5t48.5 168.5t-54 142.5t-140 54.5q-101 0 -171.5 -75t-70.5 -187q0 -79 43.5 -138.5t175.5 -129.5zM504 683q-106 -53 -161.5 -108t-86.5 -128t-31 -147q0 -107 63.5 -174t162.5 -67q120 0 196 87q87 98 87 244q0 104 -57 172q-37 46 -173 121z
" />
    <glyph glyph-name="nine" unicode="9" 
d="M80 223l44 15q52 -96 105 -131t128 -35q169 0 278 173.5t165 505.5q-108 -125 -176.5 -161.5t-157.5 -36.5q-138 0 -222.5 91t-84.5 250q0 220 138 357q165 164 347 164q154 0 241.5 -107.5t87.5 -339.5q0 -280 -105.5 -520t-258 -357.5t-303.5 -117.5q-37 0 -77 10
t-84 30q-20 79 -65 210zM814 1031q0 144 -64.5 221t-163.5 77q-108 0 -187.5 -102.5t-79.5 -277.5q0 -147 60 -217.5t161 -70.5q73 0 138.5 44.5t100.5 120t35 205.5z" />
    <glyph glyph-name="colon" unicode=":" horiz-adv-x="512" 
d="M334 725q-40 0 -66 27.5t-26 73.5q0 62 35.5 102.5t85.5 40.5q40 0 65 -26.5t25 -73.5q0 -63 -34.5 -103.5t-84.5 -40.5zM211 -27q-40 0 -66 27.5t-26 73.5q0 62 35.5 102.5t85.5 40.5q40 0 65 -26.5t25 -72.5q0 -63 -34.5 -104t-84.5 -41z" />
    <glyph glyph-name="semicolon" unicode=";" horiz-adv-x="512" 
d="M301 725q-40 0 -66 27.5t-26 73.5q0 62 36 102.5t85 40.5q40 0 65 -26.5t25 -73.5q0 -63 -34.5 -103.5t-84.5 -40.5zM326 233l23 -27q-147 -303 -315 -487q-35 -16 -70 -28l-16 20q81 110 122.5 207.5t72.5 259.5q73 19 183 55z" />
    <glyph glyph-name="semicolon" unicode="&#x37e;" horiz-adv-x="512" 
d="M301 725q-40 0 -66 27.5t-26 73.5q0 62 36 102.5t85 40.5q40 0 65 -26.5t25 -73.5q0 -63 -34.5 -103.5t-84.5 -40.5zM326 233l23 -27q-147 -303 -315 -487q-35 -16 -70 -28l-16 20q81 110 122.5 207.5t72.5 259.5q73 19 183 55z" />
    <glyph glyph-name="less" unicode="&#x3c;" horiz-adv-x="1241" 
d="M1124 336v-152l-1007 458v125l1007 458v-152l-805 -368z" />
    <glyph glyph-name="equal" unicode="=" horiz-adv-x="1241" 
d="M117 806v139h1007v-139h-1007zM117 464v139h1007v-139h-1007z" />
    <glyph glyph-name="greater" unicode="&#x3e;" horiz-adv-x="1241" 
d="M117 336l805 369l-805 368v152l1007 -458v-125l-1007 -458v152z" />
    <glyph glyph-name="question" unicode="?" 
d="M329 1149l-46 13q58 122 85 201q62 42 112.5 57.5t115.5 15.5q158 0 244 -76.5t86 -198.5q0 -96 -65 -195q-44 -67 -217 -224q-131 -118 -159.5 -161t-28.5 -81q0 -28 15 -50t45 -39v-12l-46 -15q-48 30 -67 61.5t-19 72.5q0 50 28.5 106t135.5 177q142 161 174 220.5
t32 118.5q0 80 -50 128.5t-138 48.5q-49 0 -97 -17q-34 -12 -52 -29.5t-88 -121.5zM383 -27q-40 0 -66 27.5t-26 74.5q0 61 36 101.5t86 40.5q39 0 64 -26.5t25 -72.5q0 -63 -34.5 -104t-84.5 -41z" />
    <glyph glyph-name="at" unicode="@" horiz-adv-x="1530" 
d="M1352 376h102q-64 -116 -122 -176q-103 -107 -234 -167t-283 -60q-207 0 -381 96.5t-269.5 261.5t-95.5 364q0 201 97.5 373.5t264.5 270t364 97.5q250 0 457 -158.5t207 -427.5q0 -155 -64.5 -280.5t-183.5 -205.5t-211 -80q-60 0 -104 41t-55 123q-62 -85 -117 -117.5
t-117 -32.5q-111 0 -191.5 84t-80.5 211q0 120 61 227.5t166 172.5t208 65q70 0 115 -35.5t65 -106.5l33 124h141l-148 -554q-12 -46 -12 -74q0 -27 16 -44.5t42 -17.5q67 0 151.5 64t141 185t56.5 249q0 202 -165 352.5t-406 150.5q-180 0 -326.5 -84t-231.5 -235t-85 -334
q0 -180 84.5 -325t239.5 -230.5t342 -85.5q109 0 201.5 35t175 103.5t152.5 180.5zM905 848q0 72 -33 110.5t-83 38.5q-65 0 -135 -52.5t-124.5 -172t-54.5 -225.5q0 -83 45 -135.5t104 -52.5q57 0 116.5 49.5t112 187t52.5 252.5z" />
    <glyph glyph-name="A" unicode="A" horiz-adv-x="1479" 
d="M972 1432l219 -1179q25 -135 36 -159q6 -14 24 -22.5t127 -17.5v-61q-110 7 -253 7q-139 0 -250 -7v61l68 2q68 1 88 14.5t20 44.5q0 30 -15 115l-59 337h-510l-82 -144q-122 -214 -144 -265q-17 -38 -17 -55q0 -20 22.5 -30t156.5 -19v-61q-158 7 -245 7q-96 0 -208 -7
v61q82 4 100 15t96 137l729 1226h97zM858 1232l-344 -586q161 -3 248 -3q80 0 201 3z" />
    <glyph glyph-name="B" unicode="B" horiz-adv-x="1251" 
d="M63 -4l7 53q80 24 94 38.5t22 53.5q38 177 111 637.5t73 512.5q0 42 -30 54q-19 8 -148 17l8 55q141 -8 203 -8q45 0 210 6l122 2q207 0 296 -70q88 -71 88 -200q0 -123 -88 -228t-280 -173q182 -25 251 -76q90 -66 90 -212q0 -174 -153 -308q-180 -158 -390 -158
q-35 0 -133 4q-94 4 -154 4q-69 0 -199 -4zM452 772q66 -4 98 -4q185 0 290.5 99.5t105.5 259.5q0 102 -65.5 158t-200.5 56q-50 0 -127 -7q-47 -179 -101 -562zM347 92q124 -24 201 -24q195 0 281.5 103.5t86.5 264.5q0 128 -77.5 194t-251.5 66q-60 0 -148 -7
q-44 -256 -92 -597z" />
    <glyph glyph-name="C" unicode="C" horiz-adv-x="1366" 
d="M1300 224q-14 -36 -24 -73q-120 -93 -246.5 -135.5t-280.5 -42.5q-293 0 -454.5 161t-161.5 454q0 369 233 600q250 248 604 248q109 0 212.5 -20.5t200.5 -61.5q-39 -143 -54 -293h-58q-3 51 -3 78l3 87q-99 64 -180.5 87.5t-193.5 23.5q-187 0 -306 -74t-199 -244.5
t-80 -388.5q0 -263 135 -405.5t369 -142.5q111 0 213 32t247 122z" />
    <glyph glyph-name="D" unicode="D" horiz-adv-x="1593" 
d="M65 -5v50q50 8 69.5 22.5t32.5 46.5t52 257l65 391l13 88q58 375 58 434q0 45 -36 61q-19 7 -144 16v57q150 -9 275 -9q70 0 187 4q163 6 227 6q229 0 354.5 -60.5t192.5 -178.5t67 -304q0 -366 -266 -636q-246 -250 -622 -250q-52 0 -152 4q-138 6 -221 6q-68 0 -152 -5
zM342 107q170 -31 297 -31q208 0 338.5 81.5t224 274.5t93.5 419q0 162 -57 267t-166 160t-277 55q-126 0 -256 -9q-26 -126 -84 -474l-14 -88q-75 -449 -99 -655z" />
    <glyph glyph-name="E" unicode="E" horiz-adv-x="1251" 
d="M78 -9l7 49l35 12q37 14 70 28q61 257 158 849q50 306 50 356q0 37 -23.5 49.5t-160.5 22.5l9 58q176 -6 307 -6l449 6q109 0 192 -8q-25 -128 -35 -301h-56q-6 181 -24 200q-25 25 -293 25q-84 0 -181 -4q-53 -267 -99 -552q132 -5 237 -5q122 0 278 16l10 -11
q-20 -46 -39 -100q-142 12 -358 12l-143 -2q-69 -393 -93 -586q166 -17 346 -17q119 0 214 11q32 4 45.5 14t23.5 35q8 18 53 188h60l-19 -113q-18 -99 -29 -217q-78 -10 -159 -10q-53 0 -157 3q-224 7 -348 7q-155 0 -327 -9z" />
    <glyph glyph-name="F" unicode="F" horiz-adv-x="1139" 
d="M45 -7l7 57l65 5q47 4 60.5 10.5t22.5 18.5t19 56t67 386l76 455q42 260 42 299q0 40 -24.5 54t-156.5 25l9 57q191 -7 290 -7l467 7l165 -2q-21 -100 -34 -308h-54q-5 110 -18 196q-105 31 -270 31q-60 0 -196 -6q-61 -312 -107 -624q132 -5 253 -5q151 0 270 21l11 -16
q-27 -58 -40 -100q-94 11 -213 11q-72 0 -296 -4q-71 -418 -71 -483q0 -40 22.5 -51.5t177.5 -25.5v-57q-160 7 -276 7q-121 0 -268 -7z" />
    <glyph glyph-name="G" unicode="G" horiz-adv-x="1479" 
d="M918 503l8 58q179 -6 297 -6q117 0 224 6v-58q-80 -8 -99 -24.5t-35 -88.5q-32 -142 -32 -230q0 -29 7 -71v-17q-88 -7 -150 -24q-129 -38 -227 -60q-80 -15 -174 -15q-313 0 -476 156t-163 439q0 341 213 585q246 283 651 283q119 0 231 -18.5t217 -55.5
q-28 -75 -40 -132t-24 -171h-63l3 71l-3 99q-90 52 -184 75t-211 23q-195 0 -317.5 -75.5t-205.5 -251.5t-83 -396q0 -260 134 -396t385 -136q167 0 320 53q14 62 47 250q5 29 5 46q0 40 -25.5 52.5t-229.5 29.5z" />
    <glyph glyph-name="H" unicode="H" horiz-adv-x="1593" 
d="M6 -7l8 56q112 4 129.5 13t30 30t49 218.5t96.5 575t60 404.5q0 44 -22 53q-14 5 -153 17l10 56q148 -7 249 -7q110 0 271 7v-56q-136 -4 -155 -18t-36.5 -89t-82.5 -467q175 -8 326 -8q172 0 433 8q39 218 66 410q11 85 11 107q0 33 -19.5 42.5t-147.5 14.5v56
q161 -7 286 -7q110 0 221 7v-56l-63 -4q-54 -2 -68.5 -10.5t-25.5 -27.5t-27 -106l-73 -412l-66 -378q-43 -253 -43 -307q0 -35 24 -47t166 -19l-8 -56q-173 7 -273 7q-101 0 -279 -7l10 56q138 3 158 18.5t39 99.5q40 184 98 529q-168 4 -340 4q-199 0 -418 -4l-85 -515
q-6 -41 -6 -61q0 -39 20.5 -50.5t155.5 -20.5l-7 -56q-153 7 -244 7q-81 0 -275 -7z" />
    <glyph glyph-name="I" unicode="I" horiz-adv-x="682" 
d="M6 -7l8 56q121 4 139.5 17t32.5 59q22 72 108.5 594t86.5 578q0 39 -23 48q-15 6 -154 17l10 54q149 -7 250 -7q111 0 272 7v-54q-125 -4 -143.5 -12.5t-30 -28.5t-42.5 -186l-72 -439l-78 -479q-12 -81 -12 -103q0 -34 18 -44q24 -12 158 -21l-7 -56q-153 7 -245 7
q-81 0 -276 -7z" />
    <glyph glyph-name="J" unicode="J" horiz-adv-x="682" 
d="M227 1360v56q154 -7 277 -7q132 0 257 7v-56q-113 -10 -130.5 -19.5t-30.5 -31.5t-34 -162l-73 -489l-74 -488q-36 -234 -69 -330q-33 -95 -90 -163q-49 -59 -114 -92q-46 -23 -90 -23q-28 0 -74 19l-7 57q40 -13 64 -13q32 0 58.5 16t46.5 51q32 56 69 253
q21 114 77 474q38 246 69 477q48 355 48 387q0 43 -20.5 55t-159.5 22z" />
    <glyph glyph-name="K" unicode="K" horiz-adv-x="1366" 
d="M51 -7v60l65 4q49 2 65 12t27 31.5t51 250.5l90 536q59 370 59 395q0 44 -20.5 55.5t-162.5 22.5l7 56q155 -7 285 -7q127 0 252 7v-56q-137 -11 -153.5 -19.5t-29 -30.5t-38.5 -181l-69 -411q146 108 379.5 343t260.5 283q10 18 9 72q107 -7 147 -7q51 0 119 7v-56
q-71 -4 -91.5 -11.5t-60.5 -41.5l-198 -184l-396 -373l516 -623q41 -50 61.5 -59.5t100.5 -14.5v-60q-46 7 -93 7q-90 0 -184 -7q-240 337 -570 699l-86 -536q-4 -25 -4 -38q0 -33 21 -44q15 -8 156 -21v-60q-106 7 -188 7q-152 0 -327 -7z" />
    <glyph glyph-name="L" unicode="L" horiz-adv-x="1139" 
d="M61 -7l7 54l56 21q36 12 47.5 27t36.5 141l70 401q95 579 95 665q0 35 -29 45q-13 4 -148 13v56q168 -7 286 -7q120 0 257 7l-7 -56l-76 -5q-67 -3 -86 -20q-24 -22 -42 -112l-86 -523q-69 -414 -86 -612q140 -8 264 -8q267 0 302.5 24.5t82.5 233.5h61l-17 -112
q-17 -110 -27 -233l-191 -1q-89 0 -259 4q-130 4 -236 4q-139 0 -275 -7z" />
    <glyph glyph-name="M" unicode="M" horiz-adv-x="1933" 
d="M-24 -7v63q81 0 103.5 10.5t39 35t64.5 184.5l123 420l127 450q20 74 20 105q0 47 -34.5 68t-155.5 24v63q94 -7 180 -7q82 0 158 7l328 -1188l500 848l196 340q107 -7 161 -7q62 0 172 7v-63q-111 -1 -138 -15q-18 -10 -28 -32t-17 -90q-17 -159 -48 -553t-31 -507
q0 -62 24 -78.5t155 -21.5v-63q-165 7 -279 7q-116 0 -258 -7v63q127 3 148 12.5t31.5 24.5t16.5 68q8 70 40 501l35 517q-91 -133 -240 -383l-386 -652q-52 -91 -96 -186h-46l-325 1166l-210 -761q-52 -190 -52 -241q0 -42 30 -55q20 -8 146 -11v-63q-156 7 -234 7
q-85 0 -220 -7z" />
    <glyph glyph-name="N" unicode="N" horiz-adv-x="1593" 
d="M22 -6v57q122 4 141 22.5t69 271.5q64 324 162 910q-41 61 -75.5 78t-154.5 25v58q176 -7 216 -7q58 0 123 7q48 -90 290 -506l415 -701q29 163 145 872q30 183 30 216q0 32 -21.5 43.5t-146.5 17.5v58q150 -7 226 -7q91 0 219 7v-58q-97 -4 -116 -13.5t-32.5 -29.5
t-36.5 -131l-112 -611q-62 -348 -100 -602h-102l-217 385l-474 798q-25 -126 -144 -806q-29 -166 -29 -216q0 -48 35 -64q23 -10 144 -17v-57q-145 6 -215 6q-46 0 -239 -6z" />
    <glyph glyph-name="O" unicode="O" horiz-adv-x="1593" 
d="M706 -27q-213 0 -328.5 61t-181.5 180t-66 306q0 367 213 641.5t617 274.5q275 0 418 -142t143 -405q0 -254 -114.5 -471t-297.5 -331t-403 -114zM309 542q0 -172 49.5 -270.5t151 -155.5t240.5 -57q302 0 451 259q137 237 137 569q0 167 -50 266.5t-147 153t-240 53.5
q-177 0 -301.5 -84t-207.5 -283t-83 -451z" />
    <glyph glyph-name="P" unicode="P" horiz-adv-x="1251" 
d="M46 -7v60l64 4q63 3 80 16.5t29 63.5q30 119 112 611.5t82 539.5q0 40 -26 54t-158 21v55q207 -9 274 -9q64 0 185 5q113 5 166 5q141 0 215.5 -35t117 -107.5t42.5 -173.5q0 -129 -69 -253.5t-178 -191t-235 -66.5q-93 0 -182 47v63q87 -34 151 -34q150 0 241.5 115.5
t91.5 289.5q0 130 -74.5 199t-217.5 69q-58 0 -162 -17q-86 -444 -159 -885q-41 -246 -41 -312q0 -38 23.5 -50t182.5 -24v-60q-220 7 -324 7q-110 0 -231 -7z" />
    <glyph glyph-name="Q" unicode="Q" horiz-adv-x="1593" 
d="M1393 -115h49q-8 -139 -72 -213t-154 -74q-60 0 -125 25q-99 37 -324 162q-131 73 -177.5 89.5t-90.5 16.5q-76 0 -118 -52t-43 -176l-51 24l-1 50q0 79 30 129t89.5 81t145.5 31q-130 25 -207 75q-107 70 -160.5 183.5t-53.5 282.5q0 268 112 485t292 324.5t427 107.5
q274 0 417 -142t143 -405q0 -254 -114.5 -471t-299 -331t-411.5 -114q-39 0 -117 5q104 -20 230 -78q259 -121 307 -139q86 -33 145 -33q55 0 85.5 31.5t46.5 125.5zM309 542q0 -254 120.5 -368.5t320.5 -114.5q302 0 452 260q136 237 136 566q0 169 -50 268.5t-147 153
t-240 53.5q-177 0 -301.5 -84t-207.5 -283t-83 -451z" />
    <glyph glyph-name="R" unicode="R" horiz-adv-x="1366" 
d="M27 -7v59l63 3q71 3 87.5 16t29.5 63q23 93 114 617q76 443 76 528q0 42 -26.5 57t-162.5 23v58q214 -8 307 -8q74 0 189 6q79 4 129 4q184 0 271 -76t87 -204q0 -85 -50 -174t-136 -148t-238 -94q168 -267 319 -483q104 -148 133 -167q23 -15 90 -21v-59q-90 7 -151 7
q-57 0 -121 -7q-90 166 -233.5 388.5t-254.5 368.5v22q64 -8 92 -8q94 0 187 48.5t141.5 128t48.5 169.5q0 110 -66.5 171.5t-202.5 61.5q-73 0 -168 -19q-65 -333 -157 -893q-43 -260 -43 -315q0 -37 29 -48q16 -6 151 -16l-8 -59q-138 7 -233 7q-100 0 -293 -7z" />
    <glyph glyph-name="S" unicode="S" horiz-adv-x="1139" 
d="M157 365h61q-2 -69 -2 -136l2 -63q68 -50 135.5 -72t144.5 -22q158 0 256.5 94t98.5 235q0 104 -55 153q-56 49 -196 78q-161 34 -225.5 73t-99.5 104.5t-35 156.5q0 200 159 335t395 135q80 0 140.5 -14.5t123.5 -50.5q-38 -130 -51 -271h-60l1 75l-1 77q-53 56 -104 77
t-126 21q-149 0 -237 -86t-88 -225q0 -75 25 -119t78.5 -74t195.5 -62q149 -33 204.5 -66t87 -94t31.5 -143q0 -194 -175 -351t-409 -157q-88 0 -169.5 21.5t-157.5 63.5q33 137 52 307z" />
    <glyph glyph-name="T" unicode="T" horiz-adv-x="1251" 
d="M272 -7v59l77 5q74 5 91.5 17.5t26.5 40.5q22 62 96 520q57 360 102 695q-294 -3 -334.5 -8t-58.5 -24q-27 -27 -50 -129l-20 -82h-55l26 224q3 41 4 105q326 -7 552 -7q216 0 610 7q-30 -129 -54 -329h-56l7 161q0 49 -38.5 63.5t-358.5 18.5q-193 -1114 -193 -1210
q0 -39 25 -51t175 -17l-8 -59q-142 7 -287 7q-151 0 -279 -7z" />
    <glyph glyph-name="U" unicode="U" horiz-adv-x="1593" 
d="M196 1359v57q121 -7 186 -7q76 0 186 7q-65 -289 -148 -806q-37 -233 -37 -296q0 -100 74 -161t211 -61q128 0 257 69t237 205q61 342 129 806q14 94 14 124q0 34 -19.5 44.5t-158.5 18.5v57q111 -7 285 -7q84 0 235 7v-57q-113 -7 -128.5 -14t-26.5 -22t-25 -78
l-60 -351l-78 -468q-44 -269 -44 -317q0 -29 16 -39t94 -15l75 -6l-8 -56q-102 7 -188 7q-88 0 -174 -7v8q28 134 48 253q-165 -155 -298 -218t-256 -63q-171 0 -281 96q-91 78 -91 218q0 47 9 117.5t62 379.5q77 437 77 498q0 39 -20 51.5t-154 25.5z" />
    <glyph glyph-name="V" unicode="V" horiz-adv-x="1478" 
d="M216 1361v55q152 -7 272 -7q122 0 242 7v-55q-123 -7 -147.5 -21t-24.5 -50q0 -14 16 -147q41 -348 127 -943q440 721 584 1001q36 70 36 102q0 24 -27.5 38.5t-135.5 19.5v55q166 -7 218 -7q68 0 179 7v-55q-37 -6 -57 -18t-39 -40l-154 -265l-237 -392l-395 -667h-99
q-37 310 -185 1278q-10 66 -27.5 78.5t-145.5 25.5z" />
    <glyph glyph-name="W" unicode="W" horiz-adv-x="1933" 
d="M45 1359v57q195 -7 258 -7q84 0 238 7v-57l-57 -2q-67 -1 -89 -23t-22 -89q0 -581 11 -982q213 306 446 679q172 274 287 491h38q75 -342 328 -1186q267 604 371 895q42 119 42 155q0 31 -26 45t-128 17v57q139 -7 213 -7q84 0 216 7l-17 -57q-77 -2 -98 -24
q-36 -39 -247 -548l-325 -803h-98q-144 560 -326 1153q-464 -701 -732 -1153h-105q2 89 2 159q0 308 -6 536l-17 544q-4 75 -14.5 92.5t-32.5 29.5t-110 14z" />
    <glyph glyph-name="X" unicode="X" horiz-adv-x="1479" 
d="M48 -7v57q105 7 129 21.5t188 206.5l356 425q-185 347 -287 523q-55 94 -76.5 107.5t-158.5 24.5v58q163 -7 286 -7q124 0 258 7v-58q-131 -7 -148 -14t-17 -27q0 -14 15 -46q40 -89 231 -443q315 381 351 435q23 35 23 53q0 31 -51 34l-53 4l-58 4v58q134 -7 234 -7
q134 0 237 7v-58l-52 -5q-50 -3 -73 -19q-34 -23 -221 -238l-296 -345l311 -560q62 -107 85.5 -121.5t142.5 -19.5v-57q-156 7 -242 7l-303 -7v57q133 3 154 12t21 33q0 13 -20 56q-39 84 -251 473q-286 -344 -365 -461q-31 -48 -31 -65q0 -19 21 -28t161 -20v-57
q-134 7 -227 7q-106 0 -274 -7z" />
    <glyph glyph-name="Y" unicode="Y" horiz-adv-x="1366" 
d="M381 -7v58q142 0 163.5 15t38.5 98q55 258 55 340q0 121 -100 394t-169 343q-50 51 -114 51q-34 0 -94 -19v50q101 67 157 113q83 -3 128 -35q80 -58 156.5 -238t161.5 -525q88 194 182.5 342t188 248.5t161.5 141.5q52 32 139 52l-11 -149q-115 -22 -199 -97
q-157 -140 -282.5 -358t-156.5 -396q-47 -275 -47 -312q0 -36 18 -44q26 -12 169 -15l-10 -58q-161 7 -286 7q-121 0 -249 -7z" />
    <glyph glyph-name="Z" unicode="Z" horiz-adv-x="1366" 
d="M59 -7v52l325 402l379 477l316 405q-224 4 -298 4q-292 0 -434 -26q-31 -82 -58 -216h-53l9 89q12 115 15 236q576 -8 697 -8q192 0 359 8v-45l-287 -356l-634 -797l-101 -134q279 -8 457 -8q233 0 378 30q44 116 68 230h64q-29 -168 -50 -343q-96 -5 -144 -5
q-42 0 -294 8l-249 6q-290 0 -465 -9z" />
    <glyph glyph-name="bracketleft" unicode="[" horiz-adv-x="682" 
d="M538 -275l-11 -62l-60 2q-101 5 -192 5q-79 0 -152 -7l-13 12q31 122 78 406q87 524 153 1001q31 224 40 371l16 13q123 -8 185 -8q58 0 196 6l-10 -64q-147 -8 -176.5 -16.5t-47 -34t-27.5 -100.5l-47 -310l-113 -733q-53 -329 -53 -407q0 -40 25 -52t209 -22z" />
    <glyph glyph-name="backslash" unicode="\" horiz-adv-x="1241" 
d="M876 -338l-68 4q-29 0 -83 -4q-4 37 -29 169l-291 1436q-25 122 -46 194l53 -1q23 -1 100 5q10 -85 26 -166l295 -1462q30 -128 43 -175z" />
    <glyph glyph-name="bracketright" unicode="]" horiz-adv-x="682" 
d="M188 1404l11 62q167 -8 252 -8q77 0 152 8l13 -13q-31 -125 -76 -397q-87 -521 -154 -999q-31 -228 -41 -382l-16 -13q-118 8 -187 8q-65 0 -194 -5l10 64q149 8 177.5 16.5t46 34t27.5 100.5q10 79 46 304l156 1020q11 87 11 124q0 41 -25 53t-209 23z" />
    <glyph glyph-name="asciicircum" unicode="^" horiz-adv-x="1241" 
d="M224 588h-120l459 821h115l456 -821h-120l-394 685z" />
    <glyph glyph-name="underscore" unicode="_" 
d="M-12 -154h1048v-102h-1048v102z" />
    <glyph glyph-name="grave" unicode="`" horiz-adv-x="682" 
d="M618 1131l-304 192q-54 35 -67.5 51.5t-13.5 36.5q0 24 17 42t41 18q20 0 40 -11.5t80 -67.5l277 -261h-70z" />
    <glyph glyph-name="a" unicode="a" horiz-adv-x="909" 
d="M826 968l23 -15q-98 -340 -152 -603q-31 -152 -31 -199q0 -19 8 -29t22 -10q33 0 149 97l12 -46q-108 -95 -208 -152q-49 -27 -85 -27q-27 0 -40 15.5t-13 50.5q0 82 68 341l-8 1q-142 -206 -302 -333q-108 -86 -158 -86q-30 0 -47 30q-25 46 -25 133q0 148 59.5 353
t121.5 292q47 66 183 141q85 47 177 47q40 0 85.5 -9t96.5 -27zM673 837q-44 17 -83 25t-74 8q-78 0 -141 -27q-18 -9 -46 -66q-55 -114 -99.5 -290t-44.5 -310q0 -36 10.5 -51t25.5 -15q41 0 150.5 105t172.5 217q84 151 129 404z" />
    <glyph glyph-name="b" unicode="b" horiz-adv-x="948" 
d="M116 1361l3 41q198 17 336 84l25 -22q-14 -58 -122 -565l-50 -242q87 145 221 228.5t245 83.5q59 0 81 -35q36 -56 36 -170q0 -212 -89 -397t-236 -289.5t-270 -104.5q-91 0 -150.5 51t-59.5 123q0 58 52 314q64 317 130 720q17 101 17 126q0 35 -28 44q-13 4 -141 10z
M233 213q0 -71 41.5 -112.5t111.5 -41.5q86 0 146 53q85 73 149.5 246t64.5 353q0 89 -19 118q-15 21 -65 21q-104 0 -211.5 -100t-162.5 -276.5t-55 -260.5z" />
    <glyph glyph-name="c" unicode="c" horiz-adv-x="834" 
d="M776 663h-49q4 78 4 114q0 38 -35 60q-53 33 -137 33q-102 0 -162.5 -46.5t-113.5 -201.5t-53 -325q0 -104 48.5 -159.5t125.5 -55.5q66 0 142 30.5t195 119.5l16 -43q-150 -128 -246 -172t-179 -44q-120 0 -184.5 77.5t-64.5 220.5q0 145 49 294t129.5 226t240.5 146
q74 32 150 32q48 0 83 -10.5t86 -42.5q-32 -117 -45 -253z" />
    <glyph glyph-name="d" unicode="d" 
d="M662 1356l6 40q210 28 328 90l25 -22q-84 -353 -213 -987q-58 -283 -58 -323q0 -24 7 -34t20 -10q45 0 169 97l25 -36q-244 -198 -326 -198q-22 0 -36.5 18t-14.5 53q0 34 10 88t63 276q-124 -203 -278.5 -319t-222.5 -116q-40 0 -65 42q-32 53 -32 160q0 217 92 442
q67 163 200 257.5t248 94.5q64 0 160 -26l39 234q18 104 18 135q0 26 -17 33q-24 10 -147 11zM747 830q-109 53 -199 53q-81 0 -131 -28q-30 -17 -57 -69q-60 -115 -103.5 -284t-43.5 -276q0 -74 12.5 -95.5t36.5 -21.5q61 0 156 75q130 103 217.5 269.5t111.5 376.5z" />
    <glyph glyph-name="e" unicode="e" horiz-adv-x="797" 
d="M683 223l14 -43q-143 -120 -236.5 -163.5t-176.5 -43.5q-117 0 -180.5 68.5t-63.5 197.5q0 135 54 301.5t124 239.5t222 147q85 42 153 42q83 0 130.5 -44.5t47.5 -113.5q0 -271 -560 -383q-20 -119 -20 -177q0 -81 46 -130t116 -49q53 0 125.5 29.5t204.5 121.5z
M220 477q205 38 300 119.5t95 180.5q0 53 -24.5 79.5t-69.5 26.5q-64 0 -123 -37t-96 -111q-49 -97 -82 -258z" />
    <glyph glyph-name="f" unicode="f" horiz-adv-x="569" 
d="M99 772l10 47q113 41 179 79l14 68q38 187 47 213q16 46 67 95q125 119 226 175q64 36 120 36q53 0 134 -31q-32 -73 -61 -165l-22 -9q-31 43 -64 59.5t-80 16.5q-87 0 -125.5 -58t-108.5 -418h52q82 0 169 18l11 -11q-25 -68 -37 -107q-81 6 -147 6l-68 -1l-49 -232
q-123 -587 -190.5 -761t-207.5 -286q-100 -79 -185 -79q-32 0 -77 15q25 68 50 169l23 5q48 -60 110 -60q55 0 96 40q61 60 113 299q66 302 169 885q-74 0 -168 -8z" />
    <glyph glyph-name="g" unicode="g" 
d="M998 765l-133 -2q6 -47 6 -68q0 -77 -44 -167t-113 -147t-196 -100q-44 -46 -44 -90q0 -28 18.5 -55t93.5 -87q149 -119 183 -163q54 -68 54 -145q0 -122 -116 -204q-156 -110 -382 -110q-182 0 -272 69.5t-90 172.5q0 108 94.5 209.5t295.5 162.5q-33 34 -33 63
q0 30 17.5 52t119.5 114q-36 -3 -56 -3q-120 0 -189.5 67.5t-69.5 189.5q0 182 133.5 313.5t322.5 131.5q84 0 140 -27t94 -85q82 1 179 12zM719 682q0 86 -21.5 129.5t-62.5 68.5t-101 25q-108 0 -171 -80q-75 -96 -75 -264q0 -113 52 -170t139 -57q67 0 115.5 35
t86.5 125.5t38 187.5zM408 -8q-162 -45 -238 -124.5t-76 -172.5q0 -94 74 -153.5t212 -59.5q141 0 223.5 61t82.5 141q0 40 -21 75q-32 52 -106 115z" />
    <glyph glyph-name="h" unicode="h" 
d="M25 -26l-17 17q78 271 205 930q68 349 68 387q0 41 -29 50q-15 5 -142 5l5 43q170 21 336 80l21 -22q-165 -736 -196 -926q195 242 343.5 336.5t238.5 94.5q29 0 46 -18t17 -52q0 -36 -8 -78q-19 -98 -91 -387q-62 -247 -62 -297q0 -35 31 -35q15 0 34 8.5t81 50.5l61 39
l18 -37q-188 -137 -248 -168q-43 -22 -76 -22q-28 0 -46 21.5t-18 58.5q0 42 46 224q110 437 110 507q0 29 -11.5 43t-32.5 14q-59 0 -180 -92q-158 -120 -238 -278t-126 -464q-79 -10 -140 -33z" />
    <glyph glyph-name="i" unicode="i" horiz-adv-x="569" 
d="M331 1319q0 51 36 90t80 39q35 0 55 -22t20 -63q0 -56 -33.5 -94t-76.5 -38q-35 0 -58 23.5t-23 64.5zM79 744l-20 40q248 185 326 185q24 0 37 -13.5t13 -39.5q0 -63 -46 -236q-118 -441 -118 -535q0 -34 31 -34q36 0 161 90l20 -39q-143 -115 -236 -167
q-38 -22 -71 -22q-27 0 -46.5 24t-19.5 69q0 65 53 262q104 386 104 465q0 38 -29 38q-32 0 -159 -87z" />
    <glyph glyph-name="j" unicode="j" horiz-adv-x="569" 
d="M334 1319q0 51 36 90t80 39q34 0 54 -22t20 -63q0 -56 -33.5 -94t-75.5 -38q-35 0 -58 23.5t-23 64.5zM88 745l-18 37q201 136 253.5 161.5t82.5 25.5q23 0 37.5 -13.5t14.5 -36.5q0 -56 -132 -634q-89 -387 -131 -522q-62 -202 -153 -285q-56 -51 -124 -51
q-47 0 -100 28q19 82 25 135l15 2q31 -74 101 -74q22 0 39.5 9t34.5 30.5t28 64.5l87 425l89 454q51 276 51 300q0 30 -27 30q-40 0 -173 -86z" />
    <glyph glyph-name="k" unicode="k" horiz-adv-x="909" 
d="M112 1362l11 42q186 22 332 82l22 -21l-141 -647l-75 -366q263 320 428 450q86 67 157 67q20 0 56 -6q-19 -65 -34 -143q-42 14 -63 14q-51 0 -127.5 -45t-204.5 -179q147 -418 180 -474q22 -38 52 -38q16 0 32.5 7t96.5 54l20 -42q-206 -144 -244 -144q-34 0 -59 44
q-57 97 -184 486q-86 -94 -107 -129t-38.5 -103.5t-45.5 -255.5q-81 -17 -135 -37l-20 16q92 330 238 1150q28 157 28 171q0 30 -19 39t-156 8z" />
    <glyph glyph-name="l" unicode="l" horiz-adv-x="569" 
d="M149 1360l6 41q208 30 326 85l29 -16l-120 -579l-20 -97l-106 -513q-19 -103 -19 -139q0 -20 8.5 -30t22.5 -10q43 0 184 116l21 -41q-125 -106 -241 -171q-60 -33 -95 -33q-28 0 -46 20.5t-18 57.5q0 13 5 46l36 176l97 454l21 97q34 162 62 354q13 94 13 133
q0 34 -17 41.5t-149 7.5z" />
    <glyph glyph-name="m" unicode="m" horiz-adv-x="1593" 
d="M69 747l-17 41q163 118 239 156q50 25 83 25q26 0 37.5 -12.5t11.5 -40.5q0 -20 -17.5 -110.5t-52.5 -251.5q135 201 288 308t235 107q26 0 41 -15t15 -41q0 -45 -70 -366q104 150 205 238t219 143q89 41 140 41q23 0 36.5 -14.5t13.5 -39.5q0 -58 -117 -503
q-61 -231 -61 -271q0 -18 8.5 -28.5t22.5 -10.5q19 0 38 10q38 19 129 81l20 -40q-180 -126 -244 -158q-44 -22 -75 -22q-28 0 -46 20.5t-18 56.5q0 48 68 280q104 353 104 471q0 20 -8 29.5t-23 9.5q-59 0 -169 -85q-145 -112 -225 -273q-68 -140 -123 -476
q-62 -10 -141 -31l-15 14q106 393 135.5 559.5t29.5 245.5q0 25 -8.5 35.5t-25.5 10.5q-49 0 -136 -72q-148 -121 -220.5 -274t-131.5 -488q-66 -8 -138 -28l-13 15q85 295 130 534q35 185 35 252q0 28 -9 40.5t-23 12.5q-35 0 -157 -85z" />
    <glyph glyph-name="n" unicode="n" horiz-adv-x="1139" 
d="M67 740l-16 42q162 117 254 165q42 22 75 22q23 0 35.5 -14t12.5 -42q0 -21 -7 -59l-79 -346q87 139 203.5 249.5t222.5 161t166 50.5q27 0 43 -17t16 -48q0 -28 -7 -61q-10 -53 -94 -406q-63 -261 -63 -305q0 -30 31 -30q30 0 115 59l63 42l18 -40q-247 -190 -328 -190
q-28 0 -45 19.5t-17 54.5q0 59 66 312q93 354 93 437q0 21 -10.5 32.5t-28.5 11.5q-59 0 -164 -83q-151 -119 -235 -284.5t-132 -469.5q-55 -7 -142 -30l-16 17q73 244 127 525q41 216 41 275q0 21 -8.5 31.5t-23.5 10.5q-38 0 -166 -92z" />
    <glyph glyph-name="o" unicode="o" horiz-adv-x="909" 
d="M48 295q0 320 165 497t363 177q131 0 204 -78.5t73 -225.5q0 -185 -80.5 -354t-205 -253.5t-249.5 -84.5q-127 0 -198.5 79t-71.5 243zM205 310q0 -140 49.5 -200.5t139.5 -60.5q133 0 207 149q94 190 94 435q0 144 -50.5 205t-145.5 61q-77 0 -135.5 -51.5
t-108.5 -204.5t-50 -333z" />
    <glyph glyph-name="p" unicode="p" 
d="M22 744l-24 40q189 126 260 160q53 25 84 25q22 0 35.5 -15t13.5 -43q0 -37 -60 -318q83 134 165.5 210.5t183 121t159.5 44.5q47 0 73 -42q42 -69 42 -172q0 -163 -68.5 -334.5t-144.5 -242.5t-188 -138t-197 -67q-51 0 -128 25q-68 -327 -94 -542q-89 -11 -149 -29
l-14 11q101 425 213 1063q42 238 42 297q0 21 -9.5 31.5t-24.5 10.5q-32 0 -170 -96zM245 115q91 -56 183 -56q88 0 157.5 61.5t142 256.5t72.5 362q0 61 -18 86t-56 25q-89 0 -201 -93t-183 -257q-40 -90 -83 -313z" />
    <glyph glyph-name="q" unicode="q" horiz-adv-x="948" 
d="M872 969l31 -16q-211 -941 -285 -1487q-89 -14 -173 -39l-20 27q25 21 33 36q11 23 64 284q72 350 119 629q-164 -230 -298.5 -330t-192.5 -100q-37 0 -60 39q-31 53 -31 153q0 111 37.5 268t83 246t99.5 136q92 81 196 128q56 26 119 26q46 0 99 -11.5t113 -35.5
q33 21 66 47zM732 818q-48 26 -96 39t-96 13q-82 0 -140 -30q-28 -15 -52 -61q-61 -116 -100.5 -273t-39.5 -277q0 -75 13 -100q10 -19 32 -19q58 0 188.5 114t199.5 258q49 102 91 336z" />
    <glyph glyph-name="r" unicode="r" horiz-adv-x="797" 
d="M97 732l-23 35q174 130 262 176q50 26 83 26q18 0 28 -11.5t10 -35.5q0 -35 -10 -89l-67 -302q159 270 268 377q62 61 114 61q22 0 55 -11q-22 -91 -35 -217l-30 -7q-27 38 -64 38q-41 0 -86 -32q-78 -55 -146.5 -171.5t-104.5 -255.5q-9 -33 -66 -304q-62 -12 -140 -36
l-17 15q75 254 120.5 500t45.5 304q0 40 -26 40q-31 0 -171 -100z" />
    <glyph glyph-name="s" unicode="s" horiz-adv-x="797" 
d="M89 295h52l-1 -94l1 -74q49 -39 103.5 -58.5t113.5 -19.5q96 0 159 62t63 155q0 67 -31 98q-32 31 -132 47q-178 28 -230 67q-69 53 -69 157q0 80 47 146.5t172 137.5q88 50 184 50q48 0 98 -12.5t102 -38.5q-23 -90 -36 -230h-47q1 45 1 74q0 49 -21 67q-65 54 -166 54
q-102 0 -157.5 -51t-55.5 -134q0 -69 45 -100q34 -23 165 -48q148 -27 192 -59q61 -46 61 -142q0 -132 -136.5 -254t-305.5 -122q-55 0 -108.5 14t-106.5 41q29 115 44 267z" />
    <glyph glyph-name="t" unicode="t" horiz-adv-x="682" 
d="M565 233l24 -38q-266 -222 -357 -222q-30 0 -50 23.5t-20 64.5q0 50 44 253q61 276 97 473l-74 1l-99 -1l5 33q98 30 181 72q24 117 55 352q81 26 160 69l23 -18q-25 -100 -96 -418l106 -3q63 0 112 13l9 -10q-14 -48 -23 -99q-99 8 -221 9q-114 -538 -114 -624
q0 -27 10 -40t26 -13q43 0 202 123z" />
    <glyph glyph-name="u" unicode="u" horiz-adv-x="1139" 
d="M88 747l-21 38q258 184 339 184q21 0 33.5 -12.5t12.5 -34.5q0 -33 -67 -297q-94 -373 -94 -465q0 -26 9 -36.5t25 -10.5q41 0 132 77q175 147 261.5 311t127.5 434q91 19 140 34l13 -14q-87 -294 -142 -562q-34 -171 -34 -232q0 -28 8.5 -39.5t22.5 -11.5q31 0 110 66
l53 43l24 -36q-248 -210 -325 -210q-22 0 -36.5 19.5t-14.5 58.5q0 43 16 122l67 285q-152 -235 -337 -384q-123 -99 -190 -99q-37 0 -59 25.5t-22 76.5q0 65 41 237q100 412 100 477q0 20 -8.5 30.5t-22.5 10.5q-31 0 -162 -85z" />
    <glyph glyph-name="v" unicode="v" 
d="M69 711h-45l62 170l24 72q30 8 57 12t51 4q38 0 107 -12q85 -15 121 -15q44 0 112 21l16 -25q-157 -199 -217 -347t-60 -293q0 -106 44.5 -161t111.5 -55q155 0 270 203.5t115 419.5q0 66 -23 95t-63 29q-25 0 -59 -15l-22 35q67 59 113 114q32 6 51 6q59 0 97 -49.5
t38 -142.5q0 -170 -107 -377t-267 -333q-118 -94 -222 -94q-101 0 -163.5 71t-62.5 208q0 141 76 292q46 90 230 309q-63 -9 -104 -9q-24 0 -60 3q-43 3 -62 3q-17 0 -38.5 -3.5t-48.5 -10.5q-30 -45 -72 -125z" />
    <glyph glyph-name="w" unicode="w" horiz-adv-x="1479" 
d="M72 700h-45l27 92l44 154q64 12 98 12q27 0 88 -9q77 -11 131 -11q47 0 69 4t60 21l22 -29q-276 -315 -276 -645q0 -112 32 -160t77 -48q32 0 68 23q57 36 124 136.5t116 258.5q27 87 95 427q61 14 149 43l16 -13q-66 -189 -115 -426q-33 -164 -33 -261q0 -94 38 -140.5
t95 -46.5q69 0 128 52q90 80 152.5 240.5t62.5 317.5q0 72 -28 107t-76 35q-26 0 -59 -16l-25 26q64 54 112 119q39 6 64 6q63 0 101 -49t38 -143q0 -179 -101 -384.5t-235 -312.5t-227 -107q-74 0 -124 57.5t-50 159.5q0 59 19 169q-98 -205 -216 -313q-80 -73 -163 -73
q-78 0 -131.5 72t-53.5 208q0 79 28 171.5t77 172.5q37 59 201 255q-90 -14 -162 -14l-54 3l-54 2q-35 0 -49.5 -16.5t-54.5 -126.5z" />
    <glyph glyph-name="x" unicode="x" 
d="M48 178l39 6l21 -61q24 -21 49 -21q50 0 105 50t197 278q-29 217 -66.5 313.5t-94.5 96.5q-32 0 -69 -25t-78 -75l-40 20l125 177q32 16 61 24t55 8q90 0 135.5 -63.5t74.5 -307.5q120 191 175 256t109 94q38 21 79 21q30 0 58 -18l-27 -174l-31 -8q-14 48 -63 48
q-53 0 -108.5 -47t-176.5 -233q49 -294 80 -364.5t82 -70.5q22 0 48.5 14t109.5 81l24 -35q-128 -122 -195 -162q-45 -27 -87 -27q-37 0 -69.5 35t-59.5 141q-4 16 -38 214q-121 -196 -178.5 -270t-106.5 -101q-32 -19 -79 -19q-42 0 -89 29q21 81 29 176z" />
    <glyph glyph-name="y" unicode="y" 
d="M48 735l-28 36q154 128 230 172q42 24 77 24q30 0 48 -24t18 -78q0 -65 -18 -298q-21 -261 -21 -351q0 -53 11.5 -71t33.5 -18q90 0 249 251q126 199 197 555q91 18 152 36l22 -19q-49 -115 -130 -379l-136 -454q-50 -172 -119 -309t-155.5 -226t-159.5 -122t-139 -33
q-81 0 -130.5 44.5t-49.5 119.5l1 31q52 23 105 69l18 -10l-1 -45q0 -59 38 -96.5t92 -37.5q40 0 72.5 14t73.5 57t89 141t97 259l106 383q-154 -222 -271 -320q-81 -67 -122 -67q-38 0 -64.5 37t-26.5 120q0 52 14 210q19 213 19 345q0 98 -11 123t-30 25q-31 0 -151 -94z
" />
    <glyph glyph-name="z" unicode="z" horiz-adv-x="909" 
d="M182 697h-49q61 175 79 253q35 10 65 14.5t55 4.5q54 0 149 -26q150 -40 223 -40q41 0 71.5 14t64.5 52l20 -14q-7 -31 -12 -61l-669 -781q133 38 200 38q49 0 126 -21q69 -19 104 -19q23 0 45.5 7t45.5 21q21 42 63 145l50 -4q-36 -103 -73 -284q-33 -11 -64.5 -17
t-61.5 -6q-75 0 -177 30q-127 36 -200 36q-53 0 -95 -13t-93 -49l-28 47l706 826q-92 -30 -127 -36.5t-80 -6.5q-46 0 -97 10q-73 14 -112 14q-14 0 -28.5 -2t-28.5 -7q-32 -46 -72 -125z" />
    <glyph glyph-name="braceleft" unicode="{" horiz-adv-x="682" 
d="M283 561q86 -27 118.5 -67.5t32.5 -106.5q0 -28 -9 -82l-66 -396q-7 -43 -7 -64q0 -44 19.5 -84.5t48.5 -60.5t103 -38q-160 8 -207 18.5t-83 53.5t-36 135q0 41 7 83l64 384q8 52 8 72q0 53 -33.5 92t-112.5 61q80 24 110 45q47 35 69 72.5t34 106.5l69 411
q18 103 66.5 164.5t134.5 86.5q34 10 212 19l-33 -8q-69 -17 -108.5 -46t-66.5 -78t-39 -116l-69 -412q-14 -78 -38 -120.5t-63.5 -71t-124.5 -53.5z" />
    <glyph glyph-name="bar" unicode="|" horiz-adv-x="1241" 
d="M569 -360v1826h131v-1826h-131z" />
    <glyph glyph-name="braceright" unicode="}" horiz-adv-x="682" 
d="M520 567q-85 27 -117.5 67.5t-32.5 106.5q0 28 9 82l65 396q6 32 6 57q0 53 -18.5 92t-48 60t-102.5 38q159 -7 193 -15q60 -13 97.5 -57.5t37.5 -124.5q0 -38 -9 -92l-64 -385q-8 -52 -8 -74q0 -50 33.5 -89t112.5 -62q-80 -23 -110 -45q-47 -34 -69 -72t-34 -107
l-69 -410q-18 -104 -66.5 -165t-134.5 -86q-35 -11 -212 -20l32 9q70 17 109 46t66.5 78t39.5 116l69 411q13 79 37.5 121t68.5 75q34 24 119 49z" />
    <glyph glyph-name="asciitilde" unicode="~" horiz-adv-x="1241" 
d="M1109 857h45q-5 -150 -62 -220q-70 -87 -183 -87q-46 0 -99 15.5t-274 105.5q-154 64 -219 64q-148 0 -186 -183h-44q1 109 29.5 171t85.5 99t119 37q45 0 99 -16q104 -31 281 -107q94 -40 153 -57q32 -8 69 -8q76 0 126.5 48t59.5 138z" />
    <glyph glyph-name="Adieresis" unicode="&#xc4;" horiz-adv-x="1479" 
d="M972 1432l219 -1179q25 -135 36 -159q6 -14 24 -22.5t127 -17.5v-61q-110 7 -253 7q-139 0 -250 -7v61l68 2q68 1 88 14.5t20 44.5q0 30 -15 115l-59 337h-510l-82 -144q-122 -214 -144 -265q-17 -38 -17 -55q0 -20 22.5 -30t156.5 -19v-61q-158 7 -245 7q-96 0 -208 -7
v61q82 4 100 15t96 137l729 1226h97zM858 1232l-344 -586q161 -3 248 -3q80 0 201 3zM1097 1523q-34 0 -57 26t-23 70q0 50 29.5 83.5t69.5 33.5q34 0 56 -25.5t22 -68.5q0 -50 -30.5 -84.5t-66.5 -34.5zM751 1523q-34 0 -57 26t-23 70q0 50 30 83.5t70 33.5q33 0 55 -25.5
t22 -68.5q0 -50 -30.5 -84.5t-66.5 -34.5z" />
    <glyph glyph-name="Aring" unicode="&#xc5;" horiz-adv-x="1479" 
d="M972 1432l219 -1179q25 -135 36 -159q6 -14 24 -22.5t127 -17.5v-61q-110 7 -253 7q-139 0 -250 -7v61l68 2q68 1 88 14.5t20 44.5q0 30 -15 115l-59 337h-510l-82 -144q-122 -214 -144 -265q-17 -38 -17 -55q0 -20 22.5 -30t156.5 -19v-61q-158 7 -245 7q-96 0 -208 -7
v61q82 4 100 15t96 137l729 1226h97zM858 1232l-344 -586q161 -3 248 -3q80 0 201 3zM931 1889q86 0 147.5 -61t61.5 -147t-60.5 -146.5t-146.5 -60.5t-147.5 61t-61.5 147t60.5 146.5t146.5 60.5zM931 1814q-54 0 -92.5 -38.5t-38.5 -93.5t39 -94t94 -39q54 0 92.5 38.5
t38.5 93.5t-39 94t-94 39z" />
    <glyph glyph-name="Ccedilla" unicode="&#xc7;" horiz-adv-x="1366" 
d="M1300 224q-14 -36 -24 -73q-120 -93 -246.5 -135.5t-280.5 -42.5q-293 0 -454.5 161t-161.5 454q0 369 233 600q250 248 604 248q109 0 212.5 -20.5t200.5 -61.5q-39 -143 -54 -293h-58q-3 51 -3 78l3 87q-99 64 -180.5 87.5t-193.5 23.5q-187 0 -306 -74t-199 -244.5
t-80 -388.5q0 -263 135 -405.5t369 -142.5q111 0 213 32t247 122zM801 0l-64 -104q33 6 55 6q69 0 107.5 -37t38.5 -94q0 -68 -60 -117t-168 -49q-84 0 -189 41l29 61q89 -37 146 -37q53 0 83 26.5t30 64.5q0 33 -26 56t-67 23q-21 0 -51 -11l-17 13l92 158h61z" />
    <glyph glyph-name="Eacute" unicode="&#xc9;" horiz-adv-x="1251" 
d="M78 -9l7 49l35 12q37 14 70 28q61 257 158 849q50 306 50 356q0 37 -23.5 49.5t-160.5 22.5l9 58q176 -6 307 -6l449 6q109 0 192 -8q-25 -128 -35 -301h-56q-6 181 -24 200q-25 25 -293 25q-84 0 -181 -4q-53 -267 -99 -552q132 -5 237 -5q122 0 278 16l10 -11
q-20 -46 -39 -100q-142 12 -358 12l-143 -2q-69 -393 -93 -586q166 -17 346 -17q119 0 214 11q32 4 45.5 14t23.5 35q8 18 53 188h60l-19 -113q-18 -99 -29 -217q-78 -10 -159 -10q-53 0 -157 3q-224 7 -348 7q-155 0 -327 -9zM684 1510h-71l275 261q59 56 78.5 67.5
t39.5 11.5q24 0 41 -18t17 -43q0 -20 -11 -34q-16 -20 -68 -53z" />
    <glyph glyph-name="Ntilde" unicode="&#xd1;" horiz-adv-x="1593" 
d="M22 -6v57q122 4 141 22.5t69 271.5q64 324 162 910q-41 61 -75.5 78t-154.5 25v58q176 -7 216 -7q58 0 123 7q48 -90 290 -506l415 -701q29 163 145 872q30 183 30 216q0 32 -21.5 43.5t-146.5 17.5v58q150 -7 226 -7q91 0 219 7v-58q-97 -4 -116 -13.5t-32.5 -29.5
t-36.5 -131l-112 -611q-62 -348 -100 -602h-102l-217 385l-474 798q-25 -126 -144 -806q-29 -166 -29 -216q0 -48 35 -64q23 -10 144 -17v-57q-145 6 -215 6q-46 0 -239 -6zM708 1576h-59q28 112 79 159.5t122 47.5q67 0 177 -49q108 -47 150 -47q32 0 55 20.5t41 79.5h57
q-24 -102 -78 -155.5t-118 -53.5q-31 0 -62 8.5t-108 41.5q-108 46 -148 46q-38 0 -61 -18.5t-47 -79.5z" />
    <glyph glyph-name="Odieresis" unicode="&#xd6;" horiz-adv-x="1593" 
d="M706 -27q-213 0 -328.5 61t-181.5 180t-66 306q0 367 213 641.5t617 274.5q275 0 418 -142t143 -405q0 -254 -114.5 -471t-297.5 -331t-403 -114zM309 542q0 -172 49.5 -270.5t151 -155.5t240.5 -57q302 0 451 259q137 237 137 569q0 167 -50 266.5t-147 153t-240 53.5
q-177 0 -301.5 -84t-207.5 -283t-83 -451zM1155 1523q-34 0 -57 26t-23 70q0 50 29.5 83.5t69.5 33.5q34 0 56 -25.5t22 -68.5q0 -50 -30.5 -84.5t-66.5 -34.5zM809 1523q-34 0 -57 26t-23 70q0 50 30 83.5t70 33.5q33 0 55 -25.5t22 -68.5q0 -50 -30.5 -84.5t-66.5 -34.5z
" />
    <glyph glyph-name="Udieresis" unicode="&#xdc;" horiz-adv-x="1593" 
d="M196 1359v57q121 -7 186 -7q76 0 186 7q-65 -289 -148 -806q-37 -233 -37 -296q0 -100 74 -161t211 -61q128 0 257 69t237 205q61 342 129 806q14 94 14 124q0 34 -19.5 44.5t-158.5 18.5v57q111 -7 285 -7q84 0 235 7v-57q-113 -7 -128.5 -14t-26.5 -22t-25 -78
l-60 -351l-78 -468q-44 -269 -44 -317q0 -29 16 -39t94 -15l75 -6l-8 -56q-102 7 -188 7q-88 0 -174 -7v8q28 134 48 253q-165 -155 -298 -218t-256 -63q-171 0 -281 96q-91 78 -91 218q0 47 9 117.5t62 379.5q77 437 77 498q0 39 -20 51.5t-154 25.5zM1155 1523
q-34 0 -57 26t-23 70q0 50 29.5 83.5t69.5 33.5q34 0 56 -25.5t22 -68.5q0 -50 -30.5 -84.5t-66.5 -34.5zM809 1523q-34 0 -57 26t-23 70q0 50 30 83.5t70 33.5q33 0 55 -25.5t22 -68.5q0 -50 -30.5 -84.5t-66.5 -34.5z" />
    <glyph glyph-name="aacute" unicode="&#xe1;" horiz-adv-x="909" 
d="M826 968l23 -15q-98 -340 -152 -603q-31 -152 -31 -199q0 -19 8 -29t22 -10q33 0 149 97l12 -46q-108 -95 -208 -152q-49 -27 -85 -27q-27 0 -40 15.5t-13 50.5q0 82 68 341l-8 1q-142 -206 -302 -333q-108 -86 -158 -86q-30 0 -47 30q-25 46 -25 133q0 148 59.5 353
t121.5 292q47 66 183 141q85 47 177 47q40 0 85.5 -9t96.5 -27zM673 837q-44 17 -83 25t-74 8q-78 0 -141 -27q-18 -9 -46 -66q-55 -114 -99.5 -290t-44.5 -310q0 -36 10.5 -51t25.5 -15q41 0 150.5 105t172.5 217q84 151 129 404zM513 1131h-71l275 261q59 56 78.5 67.5
t39.5 11.5q24 0 41 -18t17 -43q0 -20 -11 -34q-16 -20 -68 -53z" />
    <glyph glyph-name="agrave" unicode="&#xe0;" horiz-adv-x="909" 
d="M826 968l23 -15q-98 -340 -152 -603q-31 -152 -31 -199q0 -19 8 -29t22 -10q33 0 149 97l12 -46q-108 -95 -208 -152q-49 -27 -85 -27q-27 0 -40 15.5t-13 50.5q0 82 68 341l-8 1q-142 -206 -302 -333q-108 -86 -158 -86q-30 0 -47 30q-25 46 -25 133q0 148 59.5 353
t121.5 292q47 66 183 141q85 47 177 47q40 0 85.5 -9t96.5 -27zM673 837q-44 17 -83 25t-74 8q-78 0 -141 -27q-18 -9 -46 -66q-55 -114 -99.5 -290t-44.5 -310q0 -36 10.5 -51t25.5 -15q41 0 150.5 105t172.5 217q84 151 129 404zM731 1131l-304 192q-54 35 -67.5 51.5
t-13.5 36.5q0 24 17 42t41 18q20 0 40 -11.5t80 -67.5l277 -261h-70z" />
    <glyph glyph-name="acircumflex" unicode="&#xe2;" horiz-adv-x="909" 
d="M826 968l23 -15q-98 -340 -152 -603q-31 -152 -31 -199q0 -19 8 -29t22 -10q33 0 149 97l12 -46q-108 -95 -208 -152q-49 -27 -85 -27q-27 0 -40 15.5t-13 50.5q0 82 68 341l-8 1q-142 -206 -302 -333q-108 -86 -158 -86q-30 0 -47 30q-25 46 -25 133q0 148 59.5 353
t121.5 292q47 66 183 141q85 47 177 47q40 0 85.5 -9t96.5 -27zM673 837q-44 17 -83 25t-74 8q-78 0 -141 -27q-18 -9 -46 -66q-55 -114 -99.5 -290t-44.5 -310q0 -36 10.5 -51t25.5 -15q41 0 150.5 105t172.5 217q84 151 129 404zM284 1131l352 342h83l200 -342h-68
l-188 221l-302 -221h-77z" />
    <glyph glyph-name="adieresis" unicode="&#xe4;" horiz-adv-x="909" 
d="M826 968l23 -15q-98 -340 -152 -603q-31 -152 -31 -199q0 -19 8 -29t22 -10q33 0 149 97l12 -46q-108 -95 -208 -152q-49 -27 -85 -27q-27 0 -40 15.5t-13 50.5q0 82 68 341l-8 1q-142 -206 -302 -333q-108 -86 -158 -86q-30 0 -47 30q-25 46 -25 133q0 148 59.5 353
t121.5 292q47 66 183 141q85 47 177 47q40 0 85.5 -9t96.5 -27zM673 837q-44 17 -83 25t-74 8q-78 0 -141 -27q-18 -9 -46 -66q-55 -114 -99.5 -290t-44.5 -310q0 -36 10.5 -51t25.5 -15q41 0 150.5 105t172.5 217q84 151 129 404zM813 1143q-34 0 -57 26t-23 70
q0 50 29.5 83.5t69.5 33.5q34 0 56 -25.5t22 -68.5q0 -50 -30.5 -84.5t-66.5 -34.5zM467 1143q-34 0 -57 26t-23 70q0 50 30 83.5t70 33.5q33 0 55 -25.5t22 -68.5q0 -50 -30.5 -84.5t-66.5 -34.5z" />
    <glyph glyph-name="atilde" unicode="&#xe3;" horiz-adv-x="909" 
d="M826 968l23 -15q-98 -340 -152 -603q-31 -152 -31 -199q0 -19 8 -29t22 -10q33 0 149 97l12 -46q-108 -95 -208 -152q-49 -27 -85 -27q-27 0 -40 15.5t-13 50.5q0 82 68 341l-8 1q-142 -206 -302 -333q-108 -86 -158 -86q-30 0 -47 30q-25 46 -25 133q0 148 59.5 353
t121.5 292q47 66 183 141q85 47 177 47q40 0 85.5 -9t96.5 -27zM673 837q-44 17 -83 25t-74 8q-78 0 -141 -27q-18 -9 -46 -66q-55 -114 -99.5 -290t-44.5 -310q0 -36 10.5 -51t25.5 -15q41 0 150.5 105t172.5 217q84 151 129 404zM366 1196h-59q28 112 79 159.5t122 47.5
q67 0 177 -49q108 -47 150 -47q32 0 55 20.5t41 79.5h57q-24 -102 -78 -155.5t-118 -53.5q-31 0 -62 8.5t-108 41.5q-108 46 -148 46q-38 0 -61 -18.5t-47 -79.5z" />
    <glyph glyph-name="aring" unicode="&#xe5;" horiz-adv-x="909" 
d="M826 968l23 -15q-98 -340 -152 -603q-31 -152 -31 -199q0 -19 8 -29t22 -10q33 0 149 97l12 -46q-108 -95 -208 -152q-49 -27 -85 -27q-27 0 -40 15.5t-13 50.5q0 82 68 341l-8 1q-142 -206 -302 -333q-108 -86 -158 -86q-30 0 -47 30q-25 46 -25 133q0 148 59.5 353
t121.5 292q47 66 183 141q85 47 177 47q40 0 85.5 -9t96.5 -27zM673 837q-44 17 -83 25t-74 8q-78 0 -141 -27q-18 -9 -46 -66q-55 -114 -99.5 -290t-44.5 -310q0 -36 10.5 -51t25.5 -15q41 0 150.5 105t172.5 217q84 151 129 404zM646 1509q86 0 147.5 -61t61.5 -147
t-60.5 -146.5t-146.5 -60.5t-147.5 61t-61.5 147t60.5 146.5t146.5 60.5zM646 1434q-54 0 -92.5 -38.5t-38.5 -93.5t39 -94t94 -39q54 0 92.5 38.5t38.5 93.5t-39 94t-94 39z" />
    <glyph glyph-name="ccedilla" unicode="&#xe7;" horiz-adv-x="834" 
d="M776 663h-49q4 78 4 114q0 38 -35 60q-53 33 -137 33q-102 0 -162.5 -46.5t-113.5 -201.5t-53 -325q0 -104 48.5 -159.5t125.5 -55.5q66 0 142 30.5t195 119.5l16 -43q-150 -128 -246 -172t-179 -44q-120 0 -184.5 77.5t-64.5 220.5q0 145 49 294t129.5 226t240.5 146
q74 32 150 32q48 0 83 -10.5t86 -42.5q-32 -117 -45 -253zM381 0l-64 -104q33 6 55 6q69 0 107.5 -37t38.5 -94q0 -68 -60 -117t-168 -49q-84 0 -189 41l29 61q89 -37 146 -37q53 0 83 26.5t30 64.5q0 33 -26 56t-67 23q-21 0 -51 -11l-17 13l92 158h61z" />
    <glyph glyph-name="eacute" unicode="&#xe9;" horiz-adv-x="797" 
d="M683 223l14 -43q-143 -120 -236.5 -163.5t-176.5 -43.5q-117 0 -180.5 68.5t-63.5 197.5q0 135 54 301.5t124 239.5t222 147q85 42 153 42q83 0 130.5 -44.5t47.5 -113.5q0 -271 -560 -383q-20 -119 -20 -177q0 -81 46 -130t116 -49q53 0 125.5 29.5t204.5 121.5z
M220 477q205 38 300 119.5t95 180.5q0 53 -24.5 79.5t-69.5 26.5q-64 0 -123 -37t-96 -111q-49 -97 -82 -258zM457 1131h-71l275 261q59 56 78.5 67.5t39.5 11.5q24 0 41 -18t17 -43q0 -20 -11 -34q-16 -20 -68 -53z" />
    <glyph glyph-name="egrave" unicode="&#xe8;" horiz-adv-x="797" 
d="M683 223l14 -43q-143 -120 -236.5 -163.5t-176.5 -43.5q-117 0 -180.5 68.5t-63.5 197.5q0 135 54 301.5t124 239.5t222 147q85 42 153 42q83 0 130.5 -44.5t47.5 -113.5q0 -271 -560 -383q-20 -119 -20 -177q0 -81 46 -130t116 -49q53 0 125.5 29.5t204.5 121.5z
M220 477q205 38 300 119.5t95 180.5q0 53 -24.5 79.5t-69.5 26.5q-64 0 -123 -37t-96 -111q-49 -97 -82 -258zM675 1131l-304 192q-54 35 -67.5 51.5t-13.5 36.5q0 24 17 42t41 18q20 0 40 -11.5t80 -67.5l277 -261h-70z" />
    <glyph glyph-name="ecircumflex" unicode="&#xea;" horiz-adv-x="797" 
d="M683 223l14 -43q-143 -120 -236.5 -163.5t-176.5 -43.5q-117 0 -180.5 68.5t-63.5 197.5q0 135 54 301.5t124 239.5t222 147q85 42 153 42q83 0 130.5 -44.5t47.5 -113.5q0 -271 -560 -383q-20 -119 -20 -177q0 -81 46 -130t116 -49q53 0 125.5 29.5t204.5 121.5z
M220 477q205 38 300 119.5t95 180.5q0 53 -24.5 79.5t-69.5 26.5q-64 0 -123 -37t-96 -111q-49 -97 -82 -258zM228 1131l352 342h83l200 -342h-68l-188 221l-302 -221h-77z" />
    <glyph glyph-name="edieresis" unicode="&#xeb;" horiz-adv-x="797" 
d="M683 223l14 -43q-143 -120 -236.5 -163.5t-176.5 -43.5q-117 0 -180.5 68.5t-63.5 197.5q0 135 54 301.5t124 239.5t222 147q85 42 153 42q83 0 130.5 -44.5t47.5 -113.5q0 -271 -560 -383q-20 -119 -20 -177q0 -81 46 -130t116 -49q53 0 125.5 29.5t204.5 121.5z
M220 477q205 38 300 119.5t95 180.5q0 53 -24.5 79.5t-69.5 26.5q-64 0 -123 -37t-96 -111q-49 -97 -82 -258zM757 1143q-34 0 -57 26t-23 70q0 50 29.5 83.5t69.5 33.5q34 0 56 -25.5t22 -68.5q0 -50 -30.5 -84.5t-66.5 -34.5zM411 1143q-34 0 -57 26t-23 70q0 50 30 83.5
t70 33.5q33 0 55 -25.5t22 -68.5q0 -50 -30.5 -84.5t-66.5 -34.5z" />
    <glyph glyph-name="iacute" unicode="&#xed;" horiz-adv-x="569" 
d="M79 744l-20 40q248 185 326 185q24 0 37 -13.5t13 -39.5q0 -63 -46 -236q-118 -441 -118 -535q0 -34 31 -34q36 0 161 90l20 -39q-143 -115 -236 -167q-38 -22 -71 -22q-27 0 -46.5 24t-19.5 69q0 65 53 262q104 386 104 465q0 38 -29 38q-32 0 -159 -87zM323 1131h-71
l275 261q59 56 78.5 67.5t39.5 11.5q24 0 41 -18t17 -43q0 -20 -11 -34q-16 -20 -68 -53z" />
    <glyph glyph-name="igrave" unicode="&#xec;" horiz-adv-x="569" 
d="M79 744l-20 40q248 185 326 185q24 0 37 -13.5t13 -39.5q0 -63 -46 -236q-118 -441 -118 -535q0 -34 31 -34q36 0 161 90l20 -39q-143 -115 -236 -167q-38 -22 -71 -22q-27 0 -46.5 24t-19.5 69q0 65 53 262q104 386 104 465q0 38 -29 38q-32 0 -159 -87zM561 1131
l-304 192q-54 35 -67.5 51.5t-13.5 36.5q0 24 17 42t41 18q20 0 40 -11.5t80 -67.5l277 -261h-70z" />
    <glyph glyph-name="icircumflex" unicode="&#xee;" horiz-adv-x="569" 
d="M79 744l-20 40q248 185 326 185q24 0 37 -13.5t13 -39.5q0 -63 -46 -236q-118 -441 -118 -535q0 -34 31 -34q36 0 161 90l20 -39q-143 -115 -236 -167q-38 -22 -71 -22q-27 0 -46.5 24t-19.5 69q0 65 53 262q104 386 104 465q0 38 -29 38q-32 0 -159 -87zM94 1131
l352 342h83l200 -342h-68l-188 221l-302 -221h-77z" />
    <glyph glyph-name="idieresis" unicode="&#xef;" horiz-adv-x="569" 
d="M79 744l-20 40q248 185 326 185q24 0 37 -13.5t13 -39.5q0 -63 -46 -236q-118 -441 -118 -535q0 -34 31 -34q36 0 161 90l20 -39q-143 -115 -236 -167q-38 -22 -71 -22q-27 0 -46.5 24t-19.5 69q0 65 53 262q104 386 104 465q0 38 -29 38q-32 0 -159 -87zM623 1143
q-34 0 -57 26t-23 70q0 50 29.5 83.5t69.5 33.5q34 0 56 -25.5t22 -68.5q0 -50 -30.5 -84.5t-66.5 -34.5zM277 1143q-34 0 -57 26t-23 70q0 50 30 83.5t70 33.5q33 0 55 -25.5t22 -68.5q0 -50 -30.5 -84.5t-66.5 -34.5z" />
    <glyph glyph-name="ntilde" unicode="&#xf1;" horiz-adv-x="1139" 
d="M67 740l-16 42q162 117 254 165q42 22 75 22q23 0 35.5 -14t12.5 -42q0 -21 -7 -59l-79 -346q87 139 203.5 249.5t222.5 161t166 50.5q27 0 43 -17t16 -48q0 -28 -7 -61q-10 -53 -94 -406q-63 -261 -63 -305q0 -30 31 -30q30 0 115 59l63 42l18 -40q-247 -190 -328 -190
q-28 0 -45 19.5t-17 54.5q0 59 66 312q93 354 93 437q0 21 -10.5 32.5t-28.5 11.5q-59 0 -164 -83q-151 -119 -235 -284.5t-132 -469.5q-55 -7 -142 -30l-16 17q73 244 127 525q41 216 41 275q0 21 -8.5 31.5t-23.5 10.5q-38 0 -166 -92zM481 1196h-59q28 112 79 159.5
t122 47.5q67 0 177 -49q108 -47 150 -47q32 0 55 20.5t41 79.5h57q-24 -102 -78 -155.5t-118 -53.5q-31 0 -62 8.5t-108 41.5q-108 46 -148 46q-38 0 -61 -18.5t-47 -79.5z" />
    <glyph glyph-name="oacute" unicode="&#xf3;" horiz-adv-x="909" 
d="M48 295q0 320 165 497t363 177q131 0 204 -78.5t73 -225.5q0 -185 -80.5 -354t-205 -253.5t-249.5 -84.5q-127 0 -198.5 79t-71.5 243zM205 310q0 -140 49.5 -200.5t139.5 -60.5q133 0 207 149q94 190 94 435q0 144 -50.5 205t-145.5 61q-77 0 -135.5 -51.5
t-108.5 -204.5t-50 -333zM513 1131h-71l275 261q59 56 78.5 67.5t39.5 11.5q24 0 41 -18t17 -43q0 -20 -11 -34q-16 -20 -68 -53z" />
    <glyph glyph-name="ograve" unicode="&#xf2;" horiz-adv-x="909" 
d="M48 295q0 320 165 497t363 177q131 0 204 -78.5t73 -225.5q0 -185 -80.5 -354t-205 -253.5t-249.5 -84.5q-127 0 -198.5 79t-71.5 243zM205 310q0 -140 49.5 -200.5t139.5 -60.5q133 0 207 149q94 190 94 435q0 144 -50.5 205t-145.5 61q-77 0 -135.5 -51.5
t-108.5 -204.5t-50 -333zM731 1131l-304 192q-54 35 -67.5 51.5t-13.5 36.5q0 24 17 42t41 18q20 0 40 -11.5t80 -67.5l277 -261h-70z" />
    <glyph glyph-name="ocircumflex" unicode="&#xf4;" horiz-adv-x="909" 
d="M48 295q0 320 165 497t363 177q131 0 204 -78.5t73 -225.5q0 -185 -80.5 -354t-205 -253.5t-249.5 -84.5q-127 0 -198.5 79t-71.5 243zM205 310q0 -140 49.5 -200.5t139.5 -60.5q133 0 207 149q94 190 94 435q0 144 -50.5 205t-145.5 61q-77 0 -135.5 -51.5
t-108.5 -204.5t-50 -333zM284 1131l352 342h83l200 -342h-68l-188 221l-302 -221h-77z" />
    <glyph glyph-name="odieresis" unicode="&#xf6;" horiz-adv-x="909" 
d="M48 295q0 320 165 497t363 177q131 0 204 -78.5t73 -225.5q0 -185 -80.5 -354t-205 -253.5t-249.5 -84.5q-127 0 -198.5 79t-71.5 243zM205 310q0 -140 49.5 -200.5t139.5 -60.5q133 0 207 149q94 190 94 435q0 144 -50.5 205t-145.5 61q-77 0 -135.5 -51.5
t-108.5 -204.5t-50 -333zM813 1143q-34 0 -57 26t-23 70q0 50 29.5 83.5t69.5 33.5q34 0 56 -25.5t22 -68.5q0 -50 -30.5 -84.5t-66.5 -34.5zM467 1143q-34 0 -57 26t-23 70q0 50 30 83.5t70 33.5q33 0 55 -25.5t22 -68.5q0 -50 -30.5 -84.5t-66.5 -34.5z" />
    <glyph glyph-name="otilde" unicode="&#xf5;" horiz-adv-x="909" 
d="M48 295q0 320 165 497t363 177q131 0 204 -78.5t73 -225.5q0 -185 -80.5 -354t-205 -253.5t-249.5 -84.5q-127 0 -198.5 79t-71.5 243zM205 310q0 -140 49.5 -200.5t139.5 -60.5q133 0 207 149q94 190 94 435q0 144 -50.5 205t-145.5 61q-77 0 -135.5 -51.5
t-108.5 -204.5t-50 -333zM366 1196h-59q28 112 79 159.5t122 47.5q67 0 177 -49q108 -47 150 -47q32 0 55 20.5t41 79.5h57q-24 -102 -78 -155.5t-118 -53.5q-31 0 -62 8.5t-108 41.5q-108 46 -148 46q-38 0 -61 -18.5t-47 -79.5z" />
    <glyph glyph-name="uacute" unicode="&#xfa;" horiz-adv-x="1139" 
d="M88 747l-21 38q258 184 339 184q21 0 33.5 -12.5t12.5 -34.5q0 -33 -67 -297q-94 -373 -94 -465q0 -26 9 -36.5t25 -10.5q41 0 132 77q175 147 261.5 311t127.5 434q91 19 140 34l13 -14q-87 -294 -142 -562q-34 -171 -34 -232q0 -28 8.5 -39.5t22.5 -11.5q31 0 110 66
l53 43l24 -36q-248 -210 -325 -210q-22 0 -36.5 19.5t-14.5 58.5q0 43 16 122l67 285q-152 -235 -337 -384q-123 -99 -190 -99q-37 0 -59 25.5t-22 76.5q0 65 41 237q100 412 100 477q0 20 -8.5 30.5t-22.5 10.5q-31 0 -162 -85zM627 1131h-71l275 261q59 56 78.5 67.5
t39.5 11.5q24 0 41 -18t17 -43q0 -20 -11 -34q-16 -20 -68 -53z" />
    <glyph glyph-name="ugrave" unicode="&#xf9;" horiz-adv-x="1139" 
d="M88 747l-21 38q258 184 339 184q21 0 33.5 -12.5t12.5 -34.5q0 -33 -67 -297q-94 -373 -94 -465q0 -26 9 -36.5t25 -10.5q41 0 132 77q175 147 261.5 311t127.5 434q91 19 140 34l13 -14q-87 -294 -142 -562q-34 -171 -34 -232q0 -28 8.5 -39.5t22.5 -11.5q31 0 110 66
l53 43l24 -36q-248 -210 -325 -210q-22 0 -36.5 19.5t-14.5 58.5q0 43 16 122l67 285q-152 -235 -337 -384q-123 -99 -190 -99q-37 0 -59 25.5t-22 76.5q0 65 41 237q100 412 100 477q0 20 -8.5 30.5t-22.5 10.5q-31 0 -162 -85zM846 1131l-304 192q-54 35 -67.5 51.5
t-13.5 36.5q0 24 17 42t41 18q20 0 40 -11.5t80 -67.5l277 -261h-70z" />
    <glyph glyph-name="ucircumflex" unicode="&#xfb;" horiz-adv-x="1139" 
d="M88 747l-21 38q258 184 339 184q21 0 33.5 -12.5t12.5 -34.5q0 -33 -67 -297q-94 -373 -94 -465q0 -26 9 -36.5t25 -10.5q41 0 132 77q175 147 261.5 311t127.5 434q91 19 140 34l13 -14q-87 -294 -142 -562q-34 -171 -34 -232q0 -28 8.5 -39.5t22.5 -11.5q31 0 110 66
l53 43l24 -36q-248 -210 -325 -210q-22 0 -36.5 19.5t-14.5 58.5q0 43 16 122l67 285q-152 -235 -337 -384q-123 -99 -190 -99q-37 0 -59 25.5t-22 76.5q0 65 41 237q100 412 100 477q0 20 -8.5 30.5t-22.5 10.5q-31 0 -162 -85zM398 1131l352 342h83l200 -342h-68l-188 221
l-302 -221h-77z" />
    <glyph glyph-name="udieresis" unicode="&#xfc;" horiz-adv-x="1139" 
d="M88 747l-21 38q258 184 339 184q21 0 33.5 -12.5t12.5 -34.5q0 -33 -67 -297q-94 -373 -94 -465q0 -26 9 -36.5t25 -10.5q41 0 132 77q175 147 261.5 311t127.5 434q91 19 140 34l13 -14q-87 -294 -142 -562q-34 -171 -34 -232q0 -28 8.5 -39.5t22.5 -11.5q31 0 110 66
l53 43l24 -36q-248 -210 -325 -210q-22 0 -36.5 19.5t-14.5 58.5q0 43 16 122l67 285q-152 -235 -337 -384q-123 -99 -190 -99q-37 0 -59 25.5t-22 76.5q0 65 41 237q100 412 100 477q0 20 -8.5 30.5t-22.5 10.5q-31 0 -162 -85zM927 1143q-34 0 -57 26t-23 70
q0 50 29.5 83.5t69.5 33.5q34 0 56 -25.5t22 -68.5q0 -50 -30.5 -84.5t-66.5 -34.5zM581 1143q-34 0 -57 26t-23 70q0 50 30 83.5t70 33.5q33 0 55 -25.5t22 -68.5q0 -50 -30.5 -84.5t-66.5 -34.5z" />
    <glyph glyph-name="dagger" unicode="&#x2020;" 
d="M510 1408l5 8q56 -7 88 -7t80 7l9 -8q-52 -173 -98 -460l77 -1q140 0 271 12l9 -11q-14 -57 -21 -115l-9 -7q-102 7 -342 12q-174 -1063 -198 -1327l-7 -7q-48 7 -92 7q-36 0 -86 -6l-5 10q48 188 82 362q90 471 170 962q-209 -2 -348 -11l-9 10q13 57 18 118l9 6
q140 -15 349 -16q39 305 48 462z" />
    <glyph glyph-name="degree" unicode="&#xb0;" horiz-adv-x="819" 
d="M732 1113q0 -135 -93.5 -227.5t-226.5 -92.5q-134 0 -227 93t-93 230q0 132 95 225t227 93t225 -93.5t93 -227.5zM624 1111q0 84 -61 144t-150 60q-90 0 -151 -59t-61 -142q0 -81 63 -142t151 -61t148.5 59t60.5 141z" />
    <glyph glyph-name="cent" unicode="&#xa2;" 
d="M653 1075l-115 -730q64 14 118.5 42t146.5 100l19 -52q-112 -95 -176.5 -134t-124.5 -57q-15 -105 -30 -227h-83q22 104 40 211l-35 -1q-69 0 -122 32.5t-83 98t-30 157.5q0 153 50 291.5t128 213t241 141.5q14 86 21 157l38 -1l39 1l-25 -138l38 2q53 0 88.5 -10.5
t85.5 -41.5q-29 -107 -44 -249h-57q2 71 2 104t-6 42q-11 15 -42.5 29t-81.5 19zM582 1071q-75 -15 -118 -61t-86.5 -187t-43.5 -284q0 -172 131 -197z" />
    <glyph glyph-name="sterling" unicode="&#xa3;" 
d="M997 294h50q-38 -153 -56 -283q-63 -34 -122 -34q-74 0 -238 32q-239 47 -388 60q-52 -49 -122 -96h-38q3 47 11 108q66 31 115 48q56 103 72 180q25 121 28 340l-55 1l-120 -4l12 83l163 -2q8 213 23 279q23 102 103 183t206.5 153.5t235.5 72.5q52 0 91.5 -11.5
t89.5 -44.5q-19 -73 -27 -113q-5 -31 -17 -141h-52l1 92l-1 42q-43 44 -82.5 61t-89.5 17q-102 0 -177.5 -67t-101.5 -182q-16 -69 -42 -341l82 -2q48 0 241 6l9 -4l-18 -82q-112 6 -196 6l-125 -2q-19 -174 -58.5 -285t-124.5 -235q52 4 91 4q33 0 97 -3q258 -15 344 -15
q29 0 59 3.5t61 10.5q30 62 66 165z" />
    <glyph glyph-name="section" unicode="&#xa7;" 
d="M107 -87l52 -6l-5 -53q-6 -71 -8 -119q55 -64 116.5 -92t140.5 -28q126 0 206 78t80 191q0 69 -42 123q-43 54 -189 133q-211 113 -267 170q-80 80 -80 191q0 87 49 162t172 154q-49 45 -67 85t-18 94q0 96 65 196.5t165.5 161.5t215.5 61q77 0 140.5 -19.5t122.5 -62.5
q-34 -100 -64 -264l-53 3q5 67 9 160q-51 47 -102 66t-118 19q-119 0 -193.5 -69.5t-74.5 -167.5q0 -78 57 -138q39 -39 211 -137q182 -102 226 -148q69 -70 69 -171q0 -86 -50 -165t-168 -155q59 -43 82.5 -89t23.5 -113q0 -103 -62 -199q-78 -120 -186 -184t-233 -64
q-77 0 -144.5 23.5t-144.5 82.5v10q46 161 66 280zM661 196q86 68 114 115t28 101q0 43 -14 76.5t-46 64.5q-44 44 -129 92q-201 113 -243 140q-82 -64 -111 -111.5t-29 -102.5q0 -70 45 -129t185 -135z" />
    <glyph glyph-name="bullet" unicode="&#x2022;" 
d="M512 1053q127 0 217 -90t90 -217q0 -128 -90 -218t-217 -90t-217 90t-90 218q0 127 90 217t217 90z" />
    <glyph glyph-name="paragraph" unicode="&#xb6;" 
d="M1112 1409v-39h-42q-55 0 -78 -15.5t-32.5 -47t-9.5 -146.5v-1616h-75v1807h-193v-1807h-76v1081q-198 8 -294 51.5t-150 133t-54 209.5q0 119 56.5 206.5t155.5 135t255 47.5h537z" />
    <glyph glyph-name="germandbls" unicode="&#xdf;" 
d="M60 773l10 47q112 42 179 76l13 68q35 185 59 230.5t103 107.5q115 89 220 136t162 47q76 0 134 -61t58 -149q0 -73 -31 -142t-154 -221q-52 -64 -68 -99.5t-16 -69.5q0 -30 12 -61t60 -109q71 -115 91 -165.5t20 -87.5q0 -71 -55.5 -155t-162.5 -155q-71 -47 -150 -47
q-33 0 -70.5 11t-80.5 33q31 120 44 217h40l-2 -114q40 -36 71 -48.5t68 -12.5q70 0 117 51t47 129q0 45 -15.5 90t-71.5 139q-86 146 -86 205q0 61 84 173q120 159 149 225t29 136q0 87 -47.5 138.5t-117.5 51.5q-72 0 -138.5 -46.5t-94.5 -122.5q-21 -54 -85 -395
q-92 -481 -161 -763t-148 -404t-187 -188q-68 -41 -128 -41q-29 0 -81 13l18 57q19 57 29 111l23 6q51 -58 111 -58q46 0 81 29q48 39 82 138.5t90 389.5q46 237 115 668z" />
    <glyph glyph-name="registered" unicode="&#xae;" horiz-adv-x="1530" 
d="M765 1436q196 0 365.5 -98t267.5 -268t98 -366q0 -195 -98 -365t-267.5 -268t-365.5 -98t-365.5 98t-267.5 268t-98 365q0 196 98 366t267.5 268t365.5 98zM765 1335q-169 0 -315.5 -84.5t-231 -230.5t-84.5 -316q0 -169 84.5 -315t231 -231t315.5 -85t315.5 85t231 231
t84.5 315q0 170 -84.5 316t-231 230.5t-315.5 84.5zM416 1104v58h352q155 0 225.5 -58t70.5 -156q0 -79 -49 -137t-144 -80q58 -38 119 -169.5t81 -155t89 -22.5v-56h-110q-53 0 -86.5 31t-83.5 157q-54 135 -83 160.5t-108 25.5h-49v-245q0 -47 8 -57.5t38 -12.5l57 -5v-54
h-323v54l30 3q53 4 61 11.5t8 51.5v591q0 47 -9.5 54t-93.5 11zM640 765l45 -2q145 0 203.5 45t58.5 131q0 81 -50 122.5t-170 41.5q-61 0 -74 -10t-13 -44v-284z" />
    <glyph glyph-name="copyright" unicode="&#xa9;" horiz-adv-x="1530" 
d="M765 1436q196 0 365.5 -98t267.5 -268t98 -366q0 -195 -98 -365t-267.5 -268t-365.5 -98t-365.5 98t-267.5 268t-98 365q0 196 98 366t267.5 268t365.5 98zM765 1335q-169 0 -315.5 -84.5t-231 -230.5t-84.5 -316q0 -169 84.5 -315t231 -231t315.5 -85t315.5 85t231 231
t84.5 315q0 170 -84.5 316t-231 230.5t-315.5 84.5zM1093 1093v-240h-72q-5 100 -24 136.5t-69.5 62t-122.5 25.5q-135 0 -221.5 -93t-86.5 -251q0 -166 88.5 -267t216.5 -101q80 0 142 39t110 130l61 -23q-38 -104 -132.5 -165t-219.5 -61q-114 0 -206.5 54t-146 155
t-53.5 224q0 181 115 307t327 126q142 0 294 -58z" />
    <glyph glyph-name="trademark" unicode="&#x2122;" horiz-adv-x="2048" 
d="M1940 1409v-61q-82 0 -91.5 -5.5t-9.5 -43.5v-627q0 -47 12.5 -57.5t88.5 -15.5v-65h-329v65q76 1 91.5 13.5t15.5 64.5v556l-290 -699h-47l-299 717v-586q0 -39 6 -48t20 -13t79 -5v-65h-279v65q79 1 90.5 9.5t11.5 58.5v626q0 42 -8.5 48.5t-76.5 6.5v61h231l269 -649
l279 649h236zM773 1409q-5 -50 -5 -92q0 -34 5 -132h-71q-3 85 -17 109t-45.5 34t-161.5 10v-668q0 -50 12.5 -61t79.5 -11l36 1v-65h-380v65q99 0 114.5 10.5t15.5 63.5v665q-117 0 -151 -11t-49.5 -36t-23.5 -106h-71q11 87 13 111.5t2 112.5h697z" />
    <glyph glyph-name="acute" unicode="&#xb4;" horiz-adv-x="682" 
d="M399 1131h-71l275 261q59 56 78.5 67.5t39.5 11.5q24 0 41 -18t17 -43q0 -20 -11 -34q-16 -20 -68 -53z" />
    <glyph glyph-name="dieresis" unicode="&#xa8;" horiz-adv-x="682" 
d="M699 1143q-34 0 -57 26t-23 70q0 50 29.5 83.5t69.5 33.5q34 0 56 -25.5t22 -68.5q0 -50 -30.5 -84.5t-66.5 -34.5zM353 1143q-34 0 -57 26t-23 70q0 50 30 83.5t70 33.5q33 0 55 -25.5t22 -68.5q0 -50 -30.5 -84.5t-66.5 -34.5z" />
    <glyph glyph-name="notequal" unicode="&#x2260;" horiz-adv-x="1124" 
d="M384 464h-325v139h389l93 203h-482v139h546l234 511h137l-235 -511h325v-139h-388l-94 -203h482v-139h-546l-234 -511h-137z" />
    <glyph glyph-name="AE" unicode="&#xc6;" horiz-adv-x="1927" 
d="M-12 -7v58q72 5 92.5 16.5t49.5 51.5l241 357l333 493l188 279q28 46 28 62q0 23 -21.5 32.5t-195.5 22.5v55l225 -6q216 -5 342 -5q117 0 288 5l126 3q69 0 173 -7q-24 -116 -38 -304h-54q-6 165 -16 186q-7 15 -31 22q-60 18 -224 18l-201 -4q-40 -173 -106 -555
q144 -5 262 -5q110 0 233 17l9 -12q-14 -31 -39 -97q-113 14 -252 14q-92 0 -227 -3l-68 -410l-28 -182q190 -15 335 -15q156 0 221 17q36 10 49.5 35.5t50.5 195.5h67q-28 -133 -35 -180.5t-16 -154.5q-108 -5 -167 -5q-46 0 -170 5q-101 4 -363 8l-64 1l-196 -9v45
q56 18 110 44q56 249 96 490l-217 3l-236 -3q-194 -310 -243 -405q-20 -39 -20 -57q0 -27 30 -42t146 -17v-58q-147 7 -239 7q-98 0 -228 -7zM1069 1339q-73 -97 -260 -368q-147 -214 -212 -319q145 -5 206 -5q57 0 206 5q83 484 107 687h-47z" />
    <glyph glyph-name="Oslash" unicode="&#xd8;" horiz-adv-x="1593" 
d="M217 179q-87 127 -87 345q0 264 112 480.5t292 324t422 107.5q241 0 381 -106l166 172l64 -61l-167 -171q121 -138 121 -382q0 -257 -117 -475.5t-299.5 -329t-430.5 -110.5q-140 0 -234 34t-168 106l-163 -167l-62 57zM343 308l895 921q-112 131 -338 131
q-176 0 -300.5 -84.5t-199.5 -262.5q-91 -219 -91 -473q0 -139 34 -232zM1287 1154l-903 -926q56 -79 150.5 -124t215.5 -45q301 0 450 258q138 238 138 566q0 171 -51 271z" />
    <glyph glyph-name="infinity" unicode="&#x221e;" horiz-adv-x="1460" 
d="M654 667q65 149 143.5 213t226.5 64q162 0 272.5 -117t110.5 -300q0 -204 -133 -327q-101 -93 -216 -93q-86 0 -159 53.5t-178 232.5q-66 -128 -143.5 -180.5t-180.5 -52.5q-145 0 -244 103.5t-99 265.5t91 264.5t216 102.5q88 0 153.5 -46t139.5 -183zM750 464
q73 -152 145.5 -207.5t166.5 -55.5q124 0 206 89.5t82 236.5q0 145 -86 242t-196 97q-63 0 -111 -29t-91 -97q-30 -49 -110 -261zM625 590q-53 119 -118 166.5t-149 47.5q-106 0 -177.5 -75t-71.5 -199q0 -130 69.5 -211t160.5 -81q81 0 146 62.5t129 255.5z" />
    <glyph glyph-name="plusminus" unicode="&#xb1;" horiz-adv-x="1124" 
d="M59 664v139h434v434h139v-434h434v-139h-434v-434h-139v434h-434zM59 0v139h1007v-139h-1007z" />
    <glyph glyph-name="lessequal" unicode="&#x2264;" horiz-adv-x="1124" 
d="M1066 406v-152l-1007 459v124l1007 459v-152l-805 -369zM59 44v139h1007v-139h-1007z" />
    <glyph glyph-name="greaterequal" unicode="&#x2265;" horiz-adv-x="1124" 
d="M59 406l805 369l-805 369v152l1007 -459v-124l-1007 -459v152zM1066 44h-1007v139h1007v-139z" />
    <glyph glyph-name="yen" unicode="&#xa5;" horiz-adv-x="1366" 
d="M814 643h316l-29 -78h-317q-16 -44 -31 -117l-16 -84h333l-29 -78h-318q-24 -132 -24 -180q0 -33 29 -42q16 -5 158 -13l-10 -58q-161 7 -262 7q-65 0 -358 -7v58q229 1 251.5 19t56.5 216h-371l29 78h355q21 141 21 154q0 15 -4 47h-342l29 78h298q-123 421 -222 562
q-60 87 -141 87q-35 0 -95 -19v50q93 61 156 113q85 -3 131 -36q80 -58 156.5 -239t159.5 -518q90 196 183 341.5t186.5 244.5t163.5 142q52 31 138 51l-11 -149q-95 -18 -170 -73q-109 -81 -222 -238q-85 -119 -178 -319z" />
    <glyph glyph-name="mu1" unicode="&#xb5;" horiz-adv-x="1180" 
d="M358 942h153l-165 -571q-34 -115 -38 -136.5t-4 -45.5q0 -59 27 -89t72 -30q62 0 129 50.5t132 168.5q42 76 82 212l128 441h151l-194 -671q-23 -72 -23 -117q0 -41 16 -61t41 -20q31 0 62 28t74 114h37q-41 -125 -108 -182t-145 -57q-55 0 -93 40t-38 111q0 25 5 75
q-77 -113 -164.5 -169.5t-157.5 -56.5q-57 0 -94.5 23t-67.5 85q-31 -96 -42.5 -149t-20.5 -140q-9 -96 -37 -132t-71 -36q-34 0 -54 22.5t-20 58.5q0 56 75 186q96 164 142 321z" />
    <glyph glyph-name="partialdiff" unicode="&#x2202;" horiz-adv-x="1012" 
d="M426 1138l-135 60q67 149 163.5 221t196.5 72q88 0 162 -56t117 -181.5t43 -327.5q0 -295 -87.5 -514.5t-231.5 -328t-290 -108.5q-138 0 -223 92t-85 255q0 236 164 398q199 196 638 204q-4 191 -29.5 276.5t-72 124t-103.5 38.5q-143 0 -227 -225zM854 796
q-248 -15 -359 -69t-185 -175t-74 -249q0 -83 51 -137t119 -54q87 0 186 73t168.5 224t93.5 387z" />
    <glyph glyph-name="summation" unicode="&#x2211;" horiz-adv-x="1460" 
d="M1356 -573h-1313v36l669 999l-669 985v38h1278l27 -337h-40q-15 136 -76 196t-173 60h-740l566 -850l-633 -951h818q87 0 152 26t99.5 73t58.5 147l40 -8z" />
    <glyph glyph-name="product" unicode="&#x220f;" horiz-adv-x="1685" 
d="M1240 1407h-795v-1788q0 -83 37 -119t125 -36h36v-37h-597v37h35q93 0 128 38t35 117v1673q0 84 -37 119.5t-126 35.5h-35v38h1594v-38h-35q-92 0 -127 -37.5t-35 -117.5v-1673q0 -83 37 -119t125 -36h35v-37h-597v37h35q93 0 127.5 38t34.5 117v1788z" />
    <glyph glyph-name="pi" unicode="&#xf010;" horiz-adv-x="1124" 
d="M126 914l44 149h1061l-48 -150h-120l-281 -913h-201l280 913l-378 1l-280 -914h-203l282 914h-156z" />
    <glyph glyph-name="integral" unicode="&#x222b;" horiz-adv-x="561" 
d="M201 948q0 209 16 499q10 184 54 292q25 60 71.5 92t92.5 32q49 0 87 -33t38 -74q0 -46 -26.5 -75t-65.5 -29q-35 0 -76 36q-23 20 -40 20q-18 0 -29 -14.5t-11 -49.5q0 -42 9 -145q37 -410 37 -665q0 -67 -15 -567q-9 -305 -84 -410q-55 -77 -141 -77q-52 0 -85 34
t-33 87q0 44 25.5 71.5t64.5 27.5q40 0 70 -33q28 -31 48 -31q17 0 28 14.5t11 46.5q0 42 -9 120q-37 316 -37 831z" />
    <glyph glyph-name="ordfeminine" unicode="&#xaa;" horiz-adv-x="682" 
d="M617 1415l15 -10q-60 -214 -97 -395q-21 -102 -21 -132q0 -26 20 -26q21 0 96 62l8 -30q-137 -119 -192 -119q-17 0 -26 10.5t-9 36.5q0 47 45 223q-96 -137 -201 -219q-73 -57 -105 -57q-20 0 -31 20q-17 30 -17 87q0 99 39 233.5t79 192.5q31 43 121 93q55 30 115 30
q26 0 56 -6t64 -18zM517 1329q-28 11 -53.5 16t-48.5 5q-59 0 -94 -19q-11 -6 -27 -40q-37 -75 -65.5 -191.5t-28.5 -196.5q0 -24 6.5 -34.5t17.5 -10.5q20 0 67 41q98 82 148.5 178.5t77.5 251.5z" />
    <glyph glyph-name="ordmasculine" unicode="&#xba;" horiz-adv-x="682" 
d="M96 973q0 199 104.5 320.5t240.5 121.5q86 0 134 -51.5t48 -148.5q0 -120 -53.5 -232.5t-135 -168t-161.5 -55.5q-83 0 -130 52.5t-47 161.5zM199 983q0 -93 32 -132.5t92 -39.5q85 0 139.5 112.5t54.5 267.5q0 95 -33.5 136t-95.5 41q-77 0 -124 -78q-65 -108 -65 -307z
" />
    <glyph glyph-name="Ohm" unicode="&#x2126;" horiz-adv-x="1573" 
d="M50 165h96q47 0 276 -9q-115 84 -175 206.5t-60 265.5q0 222 119 444.5t289.5 326.5t388.5 104q250 0 393 -149.5t143 -410.5q0 -195 -82 -364t-221 -284q-88 -72 -253 -144q171 12 232 12h116l-48 -163h-545l44 171q153 65 241 135q149 119 230 284.5t81 356.5
q0 197 -90 297.5t-251 100.5q-158 0 -280.5 -85.5t-218.5 -289.5t-96 -404q0 -263 198 -396l-46 -170h-531z" />
    <glyph glyph-name="ae" unicode="&#xe6;" horiz-adv-x="1307" 
d="M205 715l-36 9l-13 137q123 78 159 90q54 18 125 18q111 0 183.5 -47.5t106.5 -141.5q116 106 210 147.5t178 41.5q71 0 117.5 -45.5t46.5 -113.5q0 -78 -58.5 -154t-176.5 -127t-326 -65q-24 -122 -24 -206q0 -90 44 -137t118 -47q65 0 137.5 29.5t194.5 120.5l16 -46
q-161 -125 -248.5 -165t-163.5 -40q-95 0 -152 44t-86 145q-120 -112 -196 -150.5t-149 -38.5q-97 0 -149.5 52t-52.5 152q0 178 116 257.5t356 79.5q46 0 111 -6q10 95 10 141q0 104 -62.5 162.5t-177.5 58.5q-22 0 -49.5 -3.5t-60.5 -10.5zM730 511q147 12 230 51
t126 98.5t43 121.5q0 53 -26.5 81t-75.5 28q-105 0 -190 -98.5t-107 -281.5zM587 461l-62 1q-215 0 -293.5 -71t-78.5 -184q0 -67 33 -101.5t97 -34.5q121 0 199 88.5t105 301.5z" />
    <glyph glyph-name="oslash" unicode="&#xf8;" horiz-adv-x="909" 
d="M-42 -32l121 147q-30 81 -30 182q0 202 71.5 352.5t198 235t257.5 84.5q94 0 176 -53l107 131l57 -46l-114 -136q50 -87 50 -215t-48.5 -262.5t-124 -227t-176.5 -140t-187 -47.5q-110 0 -195 79l-107 -128zM659 817q-59 82 -157 82q-136 0 -211 -165q-85 -189 -85 -429
v-46zM223 166q46 -117 168 -117q139 0 220.5 174.5t81.5 400.5q0 52 -8 111z" />
    <glyph glyph-name="questiondown" unicode="&#xbf;" 
d="M630 969q40 0 66 -27.5t26 -74.5q0 -62 -36 -102t-86 -40q-39 0 -64 26.5t-25 73.5q0 63 34.5 103.5t84.5 40.5zM685 -207l45 -12q-59 -126 -84 -202q-63 -42 -113 -57.5t-116 -15.5q-158 0 -244 77t-86 198q0 96 65 195q43 65 217 224q132 120 160 162t28 80
q0 28 -15 50.5t-45 38.5v12l46 15q48 -29 67 -60.5t19 -73.5q0 -50 -28.5 -106.5t-134.5 -175.5q-143 -161 -175 -221t-32 -119q0 -80 50.5 -128.5t137.5 -48.5q49 0 97 17q35 12 53 30t88 121z" />
    <glyph glyph-name="exclamdown" unicode="&#xa1;" horiz-adv-x="682" 
d="M523 969q40 0 65.5 -27.5t25.5 -74.5q0 -61 -36 -101.5t-85 -40.5q-39 0 -63.5 26.5t-24.5 72.5q0 64 34 104.5t84 40.5zM206 -494l-26 17q115 404 249 1011q30 15 60 34l15 -10q-87 -546 -121 -1001q-103 -26 -177 -51z" />
    <glyph glyph-name="logicalnot" unicode="&#xac;" horiz-adv-x="1241" 
d="M986 464v342h-869v139h1007v-481h-138z" />
    <glyph glyph-name="radical" unicode="&#x221a;" horiz-adv-x="1124" 
d="M1047 1869h74l-312 -1947l-496 1021l-198 -91l-34 64l301 151l405 -823z" />
    <glyph glyph-name="florin" unicode="&#x192;" 
d="M343 885v17q83 30 166 69l21 111q22 112 86 189q94 116 249 225q73 52 127 52q27 0 62 -13q-26 -73 -26 -155l-23 -10q-49 49 -107 49q-90 0 -137 -71q-33 -50 -76 -265l-23 -112q109 -6 141 -6q46 0 129 6l-30 -77l-254 8l-151 -730q-21 -99 -61.5 -164.5t-135 -150
t-171.5 -123.5q-45 -23 -99 -23q-35 0 -83 14q23 66 27 155l24 13q57 -63 126 -63q85 0 143 85q38 55 80 260l147 710l-83 1z" />
    <glyph glyph-name="approxequal" unicode="&#x2248;" horiz-adv-x="1124" 
d="M1051 1019h45q-5 -151 -62 -221q-70 -87 -183 -87q-46 0 -99 15.5t-274 106.5q-154 63 -219 63q-148 0 -186 -183h-44q1 110 29.5 171.5t85.5 99t119 37.5q45 0 99 -16q104 -31 281 -107q94 -40 153 -57q32 -9 69 -9q76 0 126.5 48.5t59.5 138.5zM1051 696h45
q-5 -151 -62 -220q-70 -88 -183 -88q-46 0 -99 15.5t-274 106.5q-154 63 -219 63q-148 0 -186 -182h-44q1 109 29.5 171t85.5 99t119 37q45 0 99 -16q104 -31 281 -107q94 -40 153 -57q32 -9 69 -9q76 0 126.5 48.5t59.5 138.5z" />
    <glyph glyph-name="increment" unicode="&#x2206;" horiz-adv-x="1253" 
d="M1226 0h-1200l628 1387zM990 82l-399 967l-440 -967h839z" />
    <glyph glyph-name="guillemotleft" unicode="&#xab;" 
d="M125 478v31q200 162 394 353l39 -36l-92 -114l-182 -226l197 -355l-40 -25zM494 478v34q190 162 376 350l38 -32l-265 -339l190 -358l-42 -27q-146 196 -297 372z" />
    <glyph glyph-name="guillemotright" unicode="&#xbb;" 
d="M911 509v-31q-195 -158 -394 -354l-40 36l93 114l182 227l-197 354l40 26zM542 508v-34q-183 -156 -376 -350l-38 32l264 339l-189 359l41 27q148 -198 298 -373z" />
    <glyph glyph-name="ellipsis" unicode="&#x2026;" horiz-adv-x="2048" 
d="M328 -27q-40 0 -66 27.5t-26 73.5q0 62 35.5 102.5t85.5 40.5q40 0 65 -26.5t25 -70.5q0 -65 -34.5 -106t-84.5 -41zM1010 -27q-40 0 -66 27.5t-26 73.5q0 62 35.5 102.5t85.5 40.5q40 0 65 -26.5t25 -70.5q0 -65 -34.5 -106t-84.5 -41zM1692 -27q-40 0 -66 27.5
t-26 73.5q0 62 35.5 102.5t85.5 40.5q40 0 65 -26.5t25 -70.5q0 -65 -34.5 -106t-84.5 -41z" />
    <glyph glyph-name="nbspace" unicode="&#xa0;" horiz-adv-x="512" 
 />
    <glyph glyph-name="Agrave" unicode="&#xc0;" horiz-adv-x="1479" 
d="M972 1432l219 -1179q25 -135 36 -159q6 -14 24 -22.5t127 -17.5v-61q-110 7 -253 7q-139 0 -250 -7v61l68 2q68 1 88 14.5t20 44.5q0 30 -15 115l-59 337h-510l-82 -144q-122 -214 -144 -265q-17 -38 -17 -55q0 -20 22.5 -30t156.5 -19v-61q-158 7 -245 7q-96 0 -208 -7
v61q82 4 100 15t96 137l729 1226h97zM858 1232l-344 -586q161 -3 248 -3q80 0 201 3zM1046 1510l-304 192q-54 35 -67.5 51.5t-13.5 36.5q0 24 17 42t41 18q20 0 40 -11.5t80 -67.5l277 -261h-70z" />
    <glyph glyph-name="Atilde" unicode="&#xc3;" horiz-adv-x="1479" 
d="M972 1432l219 -1179q25 -135 36 -159q6 -14 24 -22.5t127 -17.5v-61q-110 7 -253 7q-139 0 -250 -7v61l68 2q68 1 88 14.5t20 44.5q0 30 -15 115l-59 337h-510l-82 -144q-122 -214 -144 -265q-17 -38 -17 -55q0 -20 22.5 -30t156.5 -19v-61q-158 7 -245 7q-96 0 -208 -7
v61q82 4 100 15t96 137l729 1226h97zM858 1232l-344 -586q161 -3 248 -3q80 0 201 3zM681 1576h-59q28 112 79 159.5t122 47.5q67 0 177 -49q108 -47 150 -47q32 0 55 20.5t41 79.5h57q-24 -102 -78 -155.5t-118 -53.5q-31 0 -62 8.5t-108 41.5q-108 46 -148 46
q-38 0 -61 -18.5t-47 -79.5z" />
    <glyph glyph-name="Otilde" unicode="&#xd5;" horiz-adv-x="1593" 
d="M706 -27q-213 0 -328.5 61t-181.5 180t-66 306q0 367 213 641.5t617 274.5q275 0 418 -142t143 -405q0 -254 -114.5 -471t-297.5 -331t-403 -114zM309 542q0 -172 49.5 -270.5t151 -155.5t240.5 -57q302 0 451 259q137 237 137 569q0 167 -50 266.5t-147 153t-240 53.5
q-177 0 -301.5 -84t-207.5 -283t-83 -451zM708 1576h-59q28 112 79 159.5t122 47.5q67 0 177 -49q108 -47 150 -47q32 0 55 20.5t41 79.5h57q-24 -102 -78 -155.5t-118 -53.5q-31 0 -62 8.5t-108 41.5q-108 46 -148 46q-38 0 -61 -18.5t-47 -79.5z" />
    <glyph glyph-name="OE" unicode="&#x152;" horiz-adv-x="2105" 
d="M1932 330h61q-36 -190 -49 -330q-108 -8 -183 -8l-396 8q-90 0 -240 -7l-10 17l39 162q-121 -108 -233.5 -153.5t-243.5 -45.5q-235 0 -370.5 150t-135.5 430q0 383 242 642q224 241 566 241q132 0 227 -40q72 -30 140 -113q6 56 10 124l10 9q93 -7 176 -7q53 0 158 3
q103 3 160 3q94 0 189 -8q-29 -152 -35 -303h-57l-3 86q-3 88 -15.5 105t-46.5 23q-85 13 -232 13l-153 -4l-106 -557l198 -1q168 0 275 15l12 -14q-21 -39 -40 -94q-144 10 -457 11q-62 -323 -98 -595q165 -12 274 -12q183 0 268 20q30 7 40.5 26.5t58.5 203.5zM350 556
q0 -170 48.5 -273t137 -157t212.5 -54q139 0 238.5 62t148 161.5t90.5 356.5q55 331 55 404q0 136 -94 220t-261 84q-159 0 -285 -87t-208 -277t-82 -440z" />
    <glyph glyph-name="oe" unicode="&#x153;" horiz-adv-x="1370" 
d="M1263 220l13 -50q-157 -121 -245.5 -159t-165.5 -38q-90 0 -145 42.5t-77 128.5q-142 -171 -324 -171q-129 0 -200.5 80t-71.5 248q0 198 73.5 350.5t196.5 235t260 82.5q95 0 156 -41t94 -132q129 103 207.5 138t144.5 35q77 0 122.5 -44.5t45.5 -120.5q0 -77 -50 -148
t-189 -138t-313 -94q-18 -94 -18 -172q0 -87 43.5 -133.5t116.5 -46.5q40 0 81.5 11t94.5 39q20 11 150 98zM690 668q0 108 -54 166.5t-141 58.5q-77 0 -128 -45q-66 -56 -113 -195q-52 -157 -52 -328q0 -153 45.5 -214.5t129.5 -61.5q99 0 166 67.5t107 244.5t40 307z
M803 474q222 47 310.5 126.5t88.5 178.5q0 49 -26 76.5t-74 27.5q-61 0 -123.5 -41t-105.5 -121q-29 -52 -70 -247z" />
    <glyph glyph-name="endash" unicode="&#x2013;" 
d="M92 427l-3 15q23 58 42 118q210 -7 483 -7q224 0 377 6l2 -10q-29 -69 -46 -123q-229 8 -508 8q-193 0 -347 -7z" />
    <glyph glyph-name="emdash" unicode="&#x2014;" horiz-adv-x="2048" 
d="M430 427l-3 15q23 58 42 118q266 -7 623 -7q301 0 523 6l2 -10q-28 -67 -46 -123q-299 8 -681 8q-265 0 -460 -7z" />
    <glyph glyph-name="quotedblleft" unicode="&#x201c;" 
d="M223 983l-22 29q108 230 289 449l70 25l15 -18q-73 -109 -111.5 -207t-59.5 -225q-101 -22 -181 -53zM616 982l-21 28q109 233 289 449l69 25l16 -18q-73 -109 -111.5 -206t-59.5 -225q-99 -22 -182 -53z" />
    <glyph glyph-name="quotedblright" unicode="&#x201d;" 
d="M572 1486l21 -29q-108 -231 -289 -449l-69 -25l-16 18q73 108 111.5 206t59.5 226q100 22 182 53zM965 1484l22 -28q-109 -231 -289 -449l-69 -25l-16 18q74 111 112 208.5t59 222.5q104 23 181 53z" />
    <glyph glyph-name="quoteleft" unicode="&#x2018;" horiz-adv-x="569" 
d="M194 984l-24 28q115 235 291 448q34 14 70 26l17 -15q-78 -121 -108 -196t-64 -238q-79 -18 -182 -53z" />
    <glyph glyph-name="quoteright" unicode="&#x2019;" horiz-adv-x="569" 
d="M546 1486l24 -28q-115 -237 -290 -448q-34 -15 -70 -26l-18 15q77 119 107 192t66 242q78 17 181 53z" />
    <glyph glyph-name="divide" unicode="&#xf7;" horiz-adv-x="1124" 
d="M563 1142q48 0 82 -34t34 -83q0 -48 -34 -82.5t-82 -34.5q-49 0 -83 34.5t-34 82.5t34 82.5t83 34.5zM59 635v139h1007v-139h-1007zM563 501q48 0 82 -34.5t34 -82.5t-34 -82.5t-82 -34.5t-82.5 34.5t-34.5 82.5t34 82.5t83 34.5z" />
    <glyph glyph-name="lozenge" unicode="&#x25ca;" horiz-adv-x="1012" 
d="M549 1422l418 -713l-418 -709h-111l-391 709l391 713h111zM495 1325l-340 -616l340 -615l359 615z" />
    <glyph glyph-name="ydieresis" unicode="&#xff;" 
d="M48 735l-28 36q154 128 230 172q42 24 77 24q30 0 48 -24t18 -78q0 -65 -18 -298q-21 -261 -21 -351q0 -53 11.5 -71t33.5 -18q90 0 249 251q126 199 197 555q91 18 152 36l22 -19q-49 -115 -130 -379l-136 -454q-50 -172 -119 -309t-155.5 -226t-159.5 -122t-139 -33
q-81 0 -130.5 44.5t-49.5 119.5l1 31q52 23 105 69l18 -10l-1 -45q0 -59 38 -96.5t92 -37.5q40 0 72.5 14t73.5 57t89 141t97 259l106 383q-154 -222 -271 -320q-81 -67 -122 -67q-38 0 -64.5 37t-26.5 120q0 52 14 210q19 213 19 345q0 98 -11 123t-30 25q-31 0 -151 -94z
M870 1143q-34 0 -57 26t-23 70q0 50 29.5 83.5t69.5 33.5q34 0 56 -25.5t22 -68.5q0 -50 -30.5 -84.5t-66.5 -34.5zM524 1143q-34 0 -57 26t-23 70q0 50 30 83.5t70 33.5q33 0 55 -25.5t22 -68.5q0 -50 -30.5 -84.5t-66.5 -34.5z" />
    <glyph glyph-name="Ydieresis" unicode="&#x178;" horiz-adv-x="1366" 
d="M381 -7v58q142 0 163.5 15t38.5 98q55 258 55 340q0 121 -100 394t-169 343q-50 51 -114 51q-34 0 -94 -19v50q101 67 157 113q83 -3 128 -35q80 -58 156.5 -238t161.5 -525q88 194 182.5 342t188 248.5t161.5 141.5q52 32 139 52l-11 -149q-115 -22 -199 -97
q-157 -140 -282.5 -358t-156.5 -396q-47 -275 -47 -312q0 -36 18 -44q26 -12 169 -15l-10 -58q-161 7 -286 7q-121 0 -249 -7zM1041 1523q-34 0 -57 26t-23 70q0 50 29.5 83.5t69.5 33.5q34 0 56 -25.5t22 -68.5q0 -50 -30.5 -84.5t-66.5 -34.5zM695 1523q-34 0 -57 26
t-23 70q0 50 30 83.5t70 33.5q33 0 55 -25.5t22 -68.5q0 -50 -30.5 -84.5t-66.5 -34.5z" />
    <glyph glyph-name="fraction" unicode="&#x2044;" horiz-adv-x="342" 
d="M-354 -88q75 107 102 150l785 1254q43 69 81 143q44 -5 72 -5l38 2q-41 -55 -112 -167l-772 -1232q-58 -92 -86 -145l-55 3q-17 0 -53 -3z" />
    <glyph glyph-name="fraction" unicode="&#x2215;" horiz-adv-x="342" 
d="M-354 -88q75 107 102 150l785 1254q43 69 81 143q44 -5 72 -5l38 2q-41 -55 -112 -167l-772 -1232q-58 -92 -86 -145l-55 3q-17 0 -53 -3z" />
    <glyph glyph-name="Euro" unicode="&#x20ac;" 
d="M790 635l2 -6l-12 -54l-11 -6h-494q0 -224 109.5 -368t286.5 -144q198 0 326 129l8 -27l-30 -73q-164 -113 -365 -113q-239 0 -378 160t-139 423v13h-81l-6 8l7 50l10 8h73q5 61 13 108h-87l-6 8l7 50l10 8h90q10 55 49 137q57 116 147 209q111 115 251 185
q149 75 287 75q160 0 257 -74l4 -11q-30 -87 -50 -281l-8 -8h-42l-8 8q0 53 -3 114.5t-3 60.5q-41 86 -192 86q-242 0 -391 -200q-89 -115 -127 -301h530l4 -12l-13 -49l-9 -5h-523q-6 -48 -8 -108h515z" />
    <glyph glyph-name="guilsinglleft" unicode="&#x2039;" horiz-adv-x="682" 
d="M106 478v31q196 159 394 353l40 -36l-275 -340l197 -355l-40 -25z" />
    <glyph glyph-name="guilsinglright" unicode="&#x203a;" horiz-adv-x="682" 
d="M557 509v-31q-197 -160 -394 -354l-39 36l275 341l-198 354l40 26z" />
    <glyph glyph-name="fi" unicode="&#xf001;" horiz-adv-x="1081" 
d="M79 772l10 47q113 41 179 79l14 68q38 187 47 213q16 46 67 95q125 119 226 175q64 36 120 36q53 0 134 -31q-32 -73 -61 -165l-22 -9q-31 43 -64 59.5t-80 16.5q-87 0 -125.5 -58t-108.5 -418h52q82 0 169 18l11 -11q-25 -68 -37 -107q-81 6 -147 6l-68 -1l-49 -232
q-123 -587 -190.5 -761t-207.5 -286q-100 -79 -185 -79q-32 0 -77 15q25 68 50 169l23 5q48 -60 110 -60q55 0 96 40q61 60 113 299q66 302 169 885q-74 0 -168 -8zM937 1319q0 51 36 90t80 39q35 0 55 -22t20 -63q0 -56 -33.5 -94t-76.5 -38q-35 0 -58 23.5t-23 64.5z
M685 744l-20 40q248 185 326 185q24 0 37 -13.5t13 -39.5q0 -63 -46 -236q-118 -441 -118 -535q0 -34 31 -34q36 0 161 90l20 -39q-143 -115 -236 -167q-38 -22 -71 -22q-27 0 -46.5 24t-19.5 69q0 65 53 262q104 386 104 465q0 38 -29 38q-32 0 -159 -87z" />
    <glyph glyph-name="fi" unicode="&#xfb01;" horiz-adv-x="1081" 
d="M79 772l10 47q113 41 179 79l14 68q38 187 47 213q16 46 67 95q125 119 226 175q64 36 120 36q53 0 134 -31q-32 -73 -61 -165l-22 -9q-31 43 -64 59.5t-80 16.5q-87 0 -125.5 -58t-108.5 -418h52q82 0 169 18l11 -11q-25 -68 -37 -107q-81 6 -147 6l-68 -1l-49 -232
q-123 -587 -190.5 -761t-207.5 -286q-100 -79 -185 -79q-32 0 -77 15q25 68 50 169l23 5q48 -60 110 -60q55 0 96 40q61 60 113 299q66 302 169 885q-74 0 -168 -8zM937 1319q0 51 36 90t80 39q35 0 55 -22t20 -63q0 -56 -33.5 -94t-76.5 -38q-35 0 -58 23.5t-23 64.5z
M685 744l-20 40q248 185 326 185q24 0 37 -13.5t13 -39.5q0 -63 -46 -236q-118 -441 -118 -535q0 -34 31 -34q36 0 161 90l20 -39q-143 -115 -236 -167q-38 -22 -71 -22q-27 0 -46.5 24t-19.5 69q0 65 53 262q104 386 104 465q0 38 -29 38q-32 0 -159 -87z" />
    <glyph glyph-name="fl" unicode="&#xf002;" horiz-adv-x="1116" 
d="M47 772l10 47q113 41 179 79l14 68q38 187 47 213q16 46 67 95q125 119 226 175q64 36 120 36q53 0 134 -31q-32 -73 -61 -165l-22 -9q-31 43 -64 59.5t-80 16.5q-87 0 -125.5 -58t-108.5 -418h52q82 0 169 18l11 -11q-25 -68 -37 -107q-81 6 -147 6l-68 -1l-49 -232
q-123 -587 -190.5 -761t-207.5 -286q-100 -79 -185 -79q-32 0 -77 15q25 68 50 169l23 5q48 -60 110 -60q55 0 96 40q61 60 113 299q66 302 169 885q-74 0 -168 -8zM782 1360l6 41q208 30 326 85l29 -16l-120 -579l-20 -97l-106 -513q-19 -103 -19 -139q0 -20 8.5 -30
t22.5 -10q43 0 184 116l21 -41q-125 -106 -241 -171q-60 -33 -95 -33q-28 0 -46 20.5t-18 57.5q0 13 5 46l36 176l97 454l21 97q34 162 62 354q13 94 13 133q0 34 -17 41.5t-149 7.5z" />
    <glyph glyph-name="fl" unicode="&#xfb02;" horiz-adv-x="1116" 
d="M47 772l10 47q113 41 179 79l14 68q38 187 47 213q16 46 67 95q125 119 226 175q64 36 120 36q53 0 134 -31q-32 -73 -61 -165l-22 -9q-31 43 -64 59.5t-80 16.5q-87 0 -125.5 -58t-108.5 -418h52q82 0 169 18l11 -11q-25 -68 -37 -107q-81 6 -147 6l-68 -1l-49 -232
q-123 -587 -190.5 -761t-207.5 -286q-100 -79 -185 -79q-32 0 -77 15q25 68 50 169l23 5q48 -60 110 -60q55 0 96 40q61 60 113 299q66 302 169 885q-74 0 -168 -8zM782 1360l6 41q208 30 326 85l29 -16l-120 -579l-20 -97l-106 -513q-19 -103 -19 -139q0 -20 8.5 -30
t22.5 -10q43 0 184 116l21 -41q-125 -106 -241 -171q-60 -33 -95 -33q-28 0 -46 20.5t-18 57.5q0 13 5 46l36 176l97 454l21 97q34 162 62 354q13 94 13 133q0 34 -17 41.5t-149 7.5z" />
    <glyph glyph-name="daggerdbl" unicode="&#x2021;" 
d="M183 852l-11 13q13 30 17 49.5t4 68.5q206 -14 341 -14q44 300 44 436l11 10q47 -6 85 -6q34 0 68 6l11 -10q-26 -74 -40 -140q-25 -111 -54 -298h69q168 0 263 13l8 -11q-18 -54 -21 -119q-170 11 -335 13q-40 -246 -40 -357l1 -47q-45 -123 -90 -406l59 -1
q102 -1 278 16l7 -11q-19 -46 -25 -117l-8 -8q-108 10 -325 19l-37 -312q-5 -52 -7 -127l-14 -10q-47 7 -78 7q-29 0 -76 -7l-9 8q55 174 94 441q-199 1 -321 -13l-9 16q13 28 17.5 44.5t11.5 74.5q201 -17 316 -20q42 235 42 362l-1 48q27 71 41 134q24 108 46 268
q-225 -1 -333 -13z" />
    <glyph glyph-name="periodcentered" unicode="&#x2219;" horiz-adv-x="512" 
d="M272 373q-40 0 -66 27t-26 72q0 62 35.5 102t85.5 40q40 0 65 -26t25 -71q0 -64 -34.5 -104t-84.5 -40z" />
    <glyph glyph-name="quotesinglbase" unicode="&#x201a;" horiz-adv-x="569" 
d="M355 231l21 -28q-109 -231 -289 -449l-69 -25l-16 18q74 111 112.5 208.5t58.5 222.5q104 23 182 53z" />
    <glyph glyph-name="quotedblbase" unicode="&#x201e;" 
d="M381 207l21 -29q-107 -229 -289 -449l-69 -25l-16 19q73 108 112 207t59 224q102 22 182 53zM774 206l22 -29q-108 -229 -289 -449l-70 -25l-15 18q73 109 111 206t60 226q100 22 181 53z" />
    <glyph glyph-name="perthousand" unicode="&#x2030;" horiz-adv-x="2048" 
d="M394 1393q103 0 176 -74.5t73 -181.5q0 -99 -47.5 -189.5t-127.5 -139t-170 -48.5q-105 0 -174 73.5t-69 193.5q0 97 46 183t126.5 134.5t166.5 48.5zM189 958q0 -76 31 -114.5t79 -38.5q93 0 151 129.5t58 274.5q0 67 -31 103t-81 36q-96 0 -151.5 -124.5t-55.5 -265.5z
M156 -88q75 107 102 150l785 1254q43 69 81 143q44 -5 72 -5l38 2q-41 -55 -112 -167l-772 -1232q-58 -92 -86 -145l-55 3q-17 0 -53 -3zM1088 616q103 0 176 -74.5t73 -181.5q0 -99 -47.5 -189.5t-127.5 -139t-170 -48.5q-105 0 -174 73.5t-69 193.5q0 97 46 183
t126.5 134.5t166.5 48.5zM883 181q0 -76 31 -114.5t79 -38.5q93 0 151 129.5t58 274.5q0 67 -31 103t-81 36q-96 0 -151.5 -124.5t-55.5 -265.5zM1804 616q103 0 176 -74.5t73 -181.5q0 -99 -47.5 -189.5t-127.5 -139t-170 -48.5q-105 0 -174 73.5t-69 193.5q0 97 46 183
t126.5 134.5t166.5 48.5zM1599 181q0 -76 31 -114.5t79 -38.5q93 0 151 129.5t58 274.5q0 67 -31 103t-81 36q-96 0 -151.5 -124.5t-55.5 -265.5z" />
    <glyph glyph-name="Acircumflex" unicode="&#xc2;" horiz-adv-x="1479" 
d="M972 1432l219 -1179q25 -135 36 -159q6 -14 24 -22.5t127 -17.5v-61q-110 7 -253 7q-139 0 -250 -7v61l68 2q68 1 88 14.5t20 44.5q0 30 -15 115l-59 337h-510l-82 -144q-122 -214 -144 -265q-17 -38 -17 -55q0 -20 22.5 -30t156.5 -19v-61q-158 7 -245 7q-96 0 -208 -7
v61q82 4 100 15t96 137l729 1226h97zM858 1232l-344 -586q161 -3 248 -3q80 0 201 3zM598 1510l352 342h83l200 -342h-68l-188 221l-302 -221h-77z" />
    <glyph glyph-name="Ecircumflex" unicode="&#xca;" horiz-adv-x="1251" 
d="M78 -9l7 49l35 12q37 14 70 28q61 257 158 849q50 306 50 356q0 37 -23.5 49.5t-160.5 22.5l9 58q176 -6 307 -6l449 6q109 0 192 -8q-25 -128 -35 -301h-56q-6 181 -24 200q-25 25 -293 25q-84 0 -181 -4q-53 -267 -99 -552q132 -5 237 -5q122 0 278 16l10 -11
q-20 -46 -39 -100q-142 12 -358 12l-143 -2q-69 -393 -93 -586q166 -17 346 -17q119 0 214 11q32 4 45.5 14t23.5 35q8 18 53 188h60l-19 -113q-18 -99 -29 -217q-78 -10 -159 -10q-53 0 -157 3q-224 7 -348 7q-155 0 -327 -9zM455 1510l352 342h83l200 -342h-68l-188 221
l-302 -221h-77z" />
    <glyph glyph-name="Aacute" unicode="&#xc1;" horiz-adv-x="1479" 
d="M972 1432l219 -1179q25 -135 36 -159q6 -14 24 -22.5t127 -17.5v-61q-110 7 -253 7q-139 0 -250 -7v61l68 2q68 1 88 14.5t20 44.5q0 30 -15 115l-59 337h-510l-82 -144q-122 -214 -144 -265q-17 -38 -17 -55q0 -20 22.5 -30t156.5 -19v-61q-158 7 -245 7q-96 0 -208 -7
v61q82 4 100 15t96 137l729 1226h97zM858 1232l-344 -586q161 -3 248 -3q80 0 201 3zM798 1510h-71l275 261q59 56 78.5 67.5t39.5 11.5q24 0 41 -18t17 -43q0 -20 -11 -34q-16 -20 -68 -53z" />
    <glyph glyph-name="Edieresis" unicode="&#xcb;" horiz-adv-x="1251" 
d="M78 -9l7 49l35 12q37 14 70 28q61 257 158 849q50 306 50 356q0 37 -23.5 49.5t-160.5 22.5l9 58q176 -6 307 -6l449 6q109 0 192 -8q-25 -128 -35 -301h-56q-6 181 -24 200q-25 25 -293 25q-84 0 -181 -4q-53 -267 -99 -552q132 -5 237 -5q122 0 278 16l10 -11
q-20 -46 -39 -100q-142 12 -358 12l-143 -2q-69 -393 -93 -586q166 -17 346 -17q119 0 214 11q32 4 45.5 14t23.5 35q8 18 53 188h60l-19 -113q-18 -99 -29 -217q-78 -10 -159 -10q-53 0 -157 3q-224 7 -348 7q-155 0 -327 -9zM984 1523q-34 0 -57 26t-23 70q0 50 29.5 83.5
t69.5 33.5q34 0 56 -25.5t22 -68.5q0 -50 -30.5 -84.5t-66.5 -34.5zM638 1523q-34 0 -57 26t-23 70q0 50 30 83.5t70 33.5q33 0 55 -25.5t22 -68.5q0 -50 -30.5 -84.5t-66.5 -34.5z" />
    <glyph glyph-name="Egrave" unicode="&#xc8;" horiz-adv-x="1251" 
d="M78 -9l7 49l35 12q37 14 70 28q61 257 158 849q50 306 50 356q0 37 -23.5 49.5t-160.5 22.5l9 58q176 -6 307 -6l449 6q109 0 192 -8q-25 -128 -35 -301h-56q-6 181 -24 200q-25 25 -293 25q-84 0 -181 -4q-53 -267 -99 -552q132 -5 237 -5q122 0 278 16l10 -11
q-20 -46 -39 -100q-142 12 -358 12l-143 -2q-69 -393 -93 -586q166 -17 346 -17q119 0 214 11q32 4 45.5 14t23.5 35q8 18 53 188h60l-19 -113q-18 -99 -29 -217q-78 -10 -159 -10q-53 0 -157 3q-224 7 -348 7q-155 0 -327 -9zM903 1510l-304 192q-54 35 -67.5 51.5
t-13.5 36.5q0 24 17 42t41 18q20 0 40 -11.5t80 -67.5l277 -261h-70z" />
    <glyph glyph-name="Iacute" unicode="&#xcd;" horiz-adv-x="682" 
d="M6 -7l8 56q121 4 139.5 17t32.5 59q22 72 108.5 594t86.5 578q0 39 -23 48q-15 6 -154 17l10 54q149 -7 250 -7q111 0 272 7v-54q-125 -4 -143.5 -12.5t-30 -28.5t-42.5 -186l-72 -439l-78 -479q-12 -81 -12 -103q0 -34 18 -44q24 -12 158 -21l-7 -56q-153 7 -245 7
q-81 0 -276 -7zM399 1510h-71l275 261q59 56 78.5 67.5t39.5 11.5q24 0 41 -18t17 -43q0 -20 -11 -34q-16 -20 -68 -53z" />
    <glyph glyph-name="Icircumflex" unicode="&#xce;" horiz-adv-x="682" 
d="M6 -7l8 56q121 4 139.5 17t32.5 59q22 72 108.5 594t86.5 578q0 39 -23 48q-15 6 -154 17l10 54q149 -7 250 -7q111 0 272 7v-54q-125 -4 -143.5 -12.5t-30 -28.5t-42.5 -186l-72 -439l-78 -479q-12 -81 -12 -103q0 -34 18 -44q24 -12 158 -21l-7 -56q-153 7 -245 7
q-81 0 -276 -7zM170 1510l352 342h83l200 -342h-68l-188 221l-302 -221h-77z" />
    <glyph glyph-name="Idieresis" unicode="&#xcf;" horiz-adv-x="682" 
d="M6 -7l8 56q121 4 139.5 17t32.5 59q22 72 108.5 594t86.5 578q0 39 -23 48q-15 6 -154 17l10 54q149 -7 250 -7q111 0 272 7v-54q-125 -4 -143.5 -12.5t-30 -28.5t-42.5 -186l-72 -439l-78 -479q-12 -81 -12 -103q0 -34 18 -44q24 -12 158 -21l-7 -56q-153 7 -245 7
q-81 0 -276 -7zM699 1523q-34 0 -57 26t-23 70q0 50 29.5 83.5t69.5 33.5q34 0 56 -25.5t22 -68.5q0 -50 -30.5 -84.5t-66.5 -34.5zM353 1523q-34 0 -57 26t-23 70q0 50 30 83.5t70 33.5q33 0 55 -25.5t22 -68.5q0 -50 -30.5 -84.5t-66.5 -34.5z" />
    <glyph glyph-name="Igrave" unicode="&#xcc;" horiz-adv-x="682" 
d="M6 -7l8 56q121 4 139.5 17t32.5 59q22 72 108.5 594t86.5 578q0 39 -23 48q-15 6 -154 17l10 54q149 -7 250 -7q111 0 272 7v-54q-125 -4 -143.5 -12.5t-30 -28.5t-42.5 -186l-72 -439l-78 -479q-12 -81 -12 -103q0 -34 18 -44q24 -12 158 -21l-7 -56q-153 7 -245 7
q-81 0 -276 -7zM618 1510l-304 192q-54 35 -67.5 51.5t-13.5 36.5q0 24 17 42t41 18q20 0 40 -11.5t80 -67.5l277 -261h-70z" />
    <glyph glyph-name="Oacute" unicode="&#xd3;" horiz-adv-x="1593" 
d="M706 -27q-213 0 -328.5 61t-181.5 180t-66 306q0 367 213 641.5t617 274.5q275 0 418 -142t143 -405q0 -254 -114.5 -471t-297.5 -331t-403 -114zM309 542q0 -172 49.5 -270.5t151 -155.5t240.5 -57q302 0 451 259q137 237 137 569q0 167 -50 266.5t-147 153t-240 53.5
q-177 0 -301.5 -84t-207.5 -283t-83 -451zM855 1510h-71l275 261q59 56 78.5 67.5t39.5 11.5q24 0 41 -18t17 -43q0 -20 -11 -34q-16 -20 -68 -53z" />
    <glyph glyph-name="Ocircumflex" unicode="&#xd4;" horiz-adv-x="1593" 
d="M706 -27q-213 0 -328.5 61t-181.5 180t-66 306q0 367 213 641.5t617 274.5q275 0 418 -142t143 -405q0 -254 -114.5 -471t-297.5 -331t-403 -114zM309 542q0 -172 49.5 -270.5t151 -155.5t240.5 -57q302 0 451 259q137 237 137 569q0 167 -50 266.5t-147 153t-240 53.5
q-177 0 -301.5 -84t-207.5 -283t-83 -451zM626 1510l352 342h83l200 -342h-68l-188 221l-302 -221h-77z" />
    <glyph glyph-name="apple" unicode="&#xf000;" horiz-adv-x="1618" 
 />
    <glyph glyph-name="Ograve" unicode="&#xd2;" horiz-adv-x="1593" 
d="M706 -27q-213 0 -328.5 61t-181.5 180t-66 306q0 367 213 641.5t617 274.5q275 0 418 -142t143 -405q0 -254 -114.5 -471t-297.5 -331t-403 -114zM309 542q0 -172 49.5 -270.5t151 -155.5t240.5 -57q302 0 451 259q137 237 137 569q0 167 -50 266.5t-147 153t-240 53.5
q-177 0 -301.5 -84t-207.5 -283t-83 -451zM1074 1510l-304 192q-54 35 -67.5 51.5t-13.5 36.5q0 24 17 42t41 18q20 0 40 -11.5t80 -67.5l277 -261h-70z" />
    <glyph glyph-name="Uacute" unicode="&#xda;" horiz-adv-x="1593" 
d="M196 1359v57q121 -7 186 -7q76 0 186 7q-65 -289 -148 -806q-37 -233 -37 -296q0 -100 74 -161t211 -61q128 0 257 69t237 205q61 342 129 806q14 94 14 124q0 34 -19.5 44.5t-158.5 18.5v57q111 -7 285 -7q84 0 235 7v-57q-113 -7 -128.5 -14t-26.5 -22t-25 -78
l-60 -351l-78 -468q-44 -269 -44 -317q0 -29 16 -39t94 -15l75 -6l-8 -56q-102 7 -188 7q-88 0 -174 -7v8q28 134 48 253q-165 -155 -298 -218t-256 -63q-171 0 -281 96q-91 78 -91 218q0 47 9 117.5t62 379.5q77 437 77 498q0 39 -20 51.5t-154 25.5zM855 1510h-71l275 261
q59 56 78.5 67.5t39.5 11.5q24 0 41 -18t17 -43q0 -20 -11 -34q-16 -20 -68 -53z" />
    <glyph glyph-name="Ucircumflex" unicode="&#xdb;" horiz-adv-x="1593" 
d="M196 1359v57q121 -7 186 -7q76 0 186 7q-65 -289 -148 -806q-37 -233 -37 -296q0 -100 74 -161t211 -61q128 0 257 69t237 205q61 342 129 806q14 94 14 124q0 34 -19.5 44.5t-158.5 18.5v57q111 -7 285 -7q84 0 235 7v-57q-113 -7 -128.5 -14t-26.5 -22t-25 -78
l-60 -351l-78 -468q-44 -269 -44 -317q0 -29 16 -39t94 -15l75 -6l-8 -56q-102 7 -188 7q-88 0 -174 -7v8q28 134 48 253q-165 -155 -298 -218t-256 -63q-171 0 -281 96q-91 78 -91 218q0 47 9 117.5t62 379.5q77 437 77 498q0 39 -20 51.5t-154 25.5zM626 1510l352 342h83
l200 -342h-68l-188 221l-302 -221h-77z" />
    <glyph glyph-name="Ugrave" unicode="&#xd9;" horiz-adv-x="1593" 
d="M196 1359v57q121 -7 186 -7q76 0 186 7q-65 -289 -148 -806q-37 -233 -37 -296q0 -100 74 -161t211 -61q128 0 257 69t237 205q61 342 129 806q14 94 14 124q0 34 -19.5 44.5t-158.5 18.5v57q111 -7 285 -7q84 0 235 7v-57q-113 -7 -128.5 -14t-26.5 -22t-25 -78
l-60 -351l-78 -468q-44 -269 -44 -317q0 -29 16 -39t94 -15l75 -6l-8 -56q-102 7 -188 7q-88 0 -174 -7v8q28 134 48 253q-165 -155 -298 -218t-256 -63q-171 0 -281 96q-91 78 -91 218q0 47 9 117.5t62 379.5q77 437 77 498q0 39 -20 51.5t-154 25.5zM1074 1510l-304 192
q-54 35 -67.5 51.5t-13.5 36.5q0 24 17 42t41 18q20 0 40 -11.5t80 -67.5l277 -261h-70z" />
    <glyph glyph-name="dotlessi" unicode="&#x131;" horiz-adv-x="569" 
d="M79 744l-20 40q248 185 326 185q24 0 37 -13.5t13 -39.5q0 -63 -46 -236q-118 -441 -118 -535q0 -34 31 -34q36 0 161 90l20 -39q-143 -115 -236 -167q-38 -22 -71 -22q-27 0 -46.5 24t-19.5 69q0 65 53 262q104 386 104 465q0 38 -29 38q-32 0 -159 -87z" />
    <glyph glyph-name="circumflex" unicode="&#x2c6;" horiz-adv-x="682" 
d="M170 1131l352 342h83l200 -342h-68l-188 221l-302 -221h-77z" />
    <glyph glyph-name="tilde" unicode="&#x2dc;" horiz-adv-x="682" 
d="M252 1196h-59q28 112 79 159.5t122 47.5q67 0 177 -49q108 -47 150 -47q32 0 55 20.5t41 79.5h57q-24 -102 -78 -155.5t-118 -53.5q-31 0 -62 8.5t-108 41.5q-108 46 -148 46q-38 0 -61 -18.5t-47 -79.5z" />
    <glyph glyph-name="macron" unicode="&#x2c9;" horiz-adv-x="682" 
d="M769 1255h-493l20 106h494z" />
    <glyph glyph-name="breve" unicode="&#x2d8;" horiz-adv-x="682" 
d="M231 1464h55q13 -96 59 -144q61 -63 166 -63q94 0 164 49t119 158h58q-98 -325 -350 -325q-83 0 -146 36t-91.5 95.5t-33.5 193.5z" />
    <glyph glyph-name="dotaccent" unicode="&#x2d9;" horiz-adv-x="682" 
d="M526 1196q-34 0 -57.5 26.5t-23.5 69.5q0 50 30.5 83.5t70.5 33.5q34 0 56 -25.5t22 -69.5q0 -48 -30.5 -83t-67.5 -35z" />
    <glyph glyph-name="ring" unicode="&#x2da;" horiz-adv-x="682" 
d="M532 1509q86 0 147.5 -61t61.5 -147t-60.5 -146.5t-146.5 -60.5t-147.5 61t-61.5 147t60.5 146.5t146.5 60.5zM532 1434q-54 0 -92.5 -38.5t-38.5 -93.5t39 -94t94 -39q54 0 92.5 38.5t38.5 93.5t-39 94t-94 39z" />
    <glyph glyph-name="cedilla" unicode="&#xb8;" horiz-adv-x="682" 
d="M304 0l-64 -104q33 6 55 6q69 0 107.5 -37t38.5 -94q0 -68 -60 -117t-168 -49q-84 0 -189 41l29 61q89 -37 146 -37q53 0 83 26.5t30 64.5q0 33 -26 56t-67 23q-21 0 -51 -11l-17 13l92 158h61z" />
    <glyph glyph-name="hungarumlaut" unicode="&#x2dd;" horiz-adv-x="682" 
d="M326 1118h-73l182 276q45 67 61.5 80t40.5 13q28 0 46.5 -18t18.5 -43q0 -19 -10 -36t-54 -59zM611 1118h-75l180 271q41 60 60 75t42 15q27 0 45.5 -17.5t18.5 -41.5q0 -32 -57 -89z" />
    <glyph glyph-name="ogonek" unicode="&#x2db;" horiz-adv-x="682" 
d="M354 0q-79 -79 -104 -124.5t-25 -81.5q0 -47 31.5 -78t80.5 -31q48 0 107 47l36 -23q-110 -123 -210 -123q-67 0 -114.5 47t-47.5 113q0 35 12 64q17 38 49 71l139 119h46z" />
    <glyph glyph-name="caron" unicode="&#x2c7;" horiz-adv-x="682" 
d="M890 1473l-352 -342h-83l-200 342h69l187 -221l302 221h77z" />
    <glyph glyph-name="Lslash" unicode="&#x141;" horiz-adv-x="1139" 
d="M445 711q-70 -406 -89 -623q141 -8 264 -8q267 0 306 27q32 22 80 231h60l-16 -112q-17 -110 -27 -233l-191 -1q-90 0 -259 4q-130 4 -237 4q-138 0 -275 -7l7 54l57 21q36 12 47.5 27.5t37.5 150.5t69 392l-255 -112l17 97l254 113q78 491 78 566q0 35 -29 45
q-13 4 -147 13v56q168 -7 285 -7q120 0 257 7l-7 -56l-76 -5q-67 -3 -88 -22t-38 -105q-12 -56 -69 -417l349 156l-15 -102z" />
    <glyph glyph-name="lslash" unicode="&#x142;" horiz-adv-x="569" 
d="M238 815q37 176 64 363q14 94 14 133q0 34 -17 41.5t-150 7.5l6 41q208 30 327 85l29 -16l-120 -575l195 102l-16 -100l-199 -101l-109 -532q-16 -88 -16 -122q0 -20 8.5 -30t22.5 -10q42 0 184 116l21 -41q-125 -106 -242 -171q-60 -33 -95 -33q-27 0 -45.5 20.5
t-18.5 57.5q0 19 8 58q23 125 129 610l-166 -85l13 91z" />
    <glyph glyph-name="Scaron" unicode="&#x160;" horiz-adv-x="1139" 
d="M157 365h61q-2 -69 -2 -136l2 -63q68 -50 135.5 -72t144.5 -22q158 0 256.5 94t98.5 235q0 104 -55 153q-56 49 -196 78q-161 34 -225.5 73t-99.5 104.5t-35 156.5q0 200 159 335t395 135q80 0 140.5 -14.5t123.5 -50.5q-38 -130 -51 -271h-60l1 75l-1 77q-53 56 -104 77
t-126 21q-149 0 -237 -86t-88 -225q0 -75 25 -119t78.5 -74t195.5 -62q149 -33 204.5 -66t87 -94t31.5 -143q0 -194 -175 -351t-409 -157q-88 0 -169.5 21.5t-157.5 63.5q33 137 52 307zM1118 1852l-352 -342h-83l-200 342h69l187 -221l302 221h77z" />
    <glyph glyph-name="scaron" unicode="&#x161;" horiz-adv-x="797" 
d="M89 295h52l-1 -94l1 -74q49 -39 103.5 -58.5t113.5 -19.5q96 0 159 62t63 155q0 67 -31 98q-32 31 -132 47q-178 28 -230 67q-69 53 -69 157q0 80 47 146.5t172 137.5q88 50 184 50q48 0 98 -12.5t102 -38.5q-23 -90 -36 -230h-47q1 45 1 74q0 49 -21 67q-65 54 -166 54
q-102 0 -157.5 -51t-55.5 -134q0 -69 45 -100q34 -23 165 -48q148 -27 192 -59q61 -46 61 -142q0 -132 -136.5 -254t-305.5 -122q-55 0 -108.5 14t-106.5 41q29 115 44 267zM948 1473l-352 -342h-83l-200 342h69l187 -221l302 221h77z" />
    <glyph glyph-name="Zcaron" unicode="&#x17d;" horiz-adv-x="1366" 
d="M59 -7v52l325 402l379 477l316 405q-224 4 -298 4q-292 0 -434 -26q-31 -82 -58 -216h-53l9 89q12 115 15 236q576 -8 697 -8q192 0 359 8v-45l-287 -356l-634 -797l-101 -134q279 -8 457 -8q233 0 378 30q44 116 68 230h64q-29 -168 -50 -343q-96 -5 -144 -5
q-42 0 -294 8l-249 6q-290 0 -465 -9zM1232 1852l-352 -342h-83l-200 342h69l187 -221l302 221h77z" />
    <glyph glyph-name="zcaron" unicode="&#x17e;" horiz-adv-x="909" 
d="M182 697h-49q61 175 79 253q35 10 65 14.5t55 4.5q54 0 149 -26q150 -40 223 -40q41 0 71.5 14t64.5 52l20 -14q-7 -31 -12 -61l-669 -781q133 38 200 38q49 0 126 -21q69 -19 104 -19q23 0 45.5 7t45.5 21q21 42 63 145l50 -4q-36 -103 -73 -284q-33 -11 -64.5 -17
t-61.5 -6q-75 0 -177 30q-127 36 -200 36q-53 0 -95 -13t-93 -49l-28 47l706 826q-92 -30 -127 -36.5t-80 -6.5q-46 0 -97 10q-73 14 -112 14q-14 0 -28.5 -2t-28.5 -7q-32 -46 -72 -125zM1004 1473l-352 -342h-83l-200 342h69l187 -221l302 221h77z" />
    <glyph glyph-name="brokenbar" unicode="&#xa6;" horiz-adv-x="1241" 
d="M569 1466h131v-737l-131 -96v833zM569 378l131 95v-833h-131v738z" />
    <glyph glyph-name="Eth" unicode="&#xd0;" horiz-adv-x="1593" 
d="M281 748l16 102q58 375 58 434q0 45 -36 61q-19 7 -144 16v57q150 -9 275 -9q70 0 187 4q163 6 227 6q229 0 354.5 -60.5t192.5 -178.5t67 -304q0 -366 -266 -636q-246 -250 -622 -250q-52 0 -152 4q-138 6 -221 6q-68 0 -152 -5v50q50 8 69 22t32 44t45 213l58 343
l-48 4l-79 -2h-42l11 79h170zM426 669q-70 -445 -84 -562q170 -31 297 -31q208 0 338.5 81.5t224 274.5t93.5 419q0 162 -57 267t-166 160t-277 55q-126 0 -256 -9q-26 -126 -84 -474l-16 -102l135 -2l222 4l52 -2l-15 -79l-107 1l-48 1z" />
    <glyph glyph-name="eth" unicode="&#xf0;" horiz-adv-x="909" 
d="M535 1250l-207 -107l-33 64l191 101q-83 92 -204 159l32 38q143 -65 254 -152l223 115l38 -64l-202 -105q125 -149 176 -288t51 -309q0 -211 -79.5 -383t-208.5 -259t-264 -87q-116 0 -184.5 84t-68.5 265q0 185 71.5 337t183.5 231t227 79q41 0 71.5 -11t71.5 -42
q-14 101 -46 177.5t-93 156.5zM696 652q0 144 -52.5 208.5t-142.5 64.5q-137 0 -215.5 -185t-78.5 -432q0 -142 48.5 -203.5t131.5 -61.5q80 0 135 48q73 64 116 201q58 183 58 360z" />
    <glyph glyph-name="Yacute" unicode="&#xdd;" horiz-adv-x="1366" 
d="M381 -7v58q142 0 163.5 15t38.5 98q55 258 55 340q0 121 -100 394t-169 343q-50 51 -114 51q-34 0 -94 -19v50q101 67 157 113q83 -3 128 -35q80 -58 156.5 -238t161.5 -525q88 194 182.5 342t188 248.5t161.5 141.5q52 32 139 52l-11 -149q-115 -22 -199 -97
q-157 -140 -282.5 -358t-156.5 -396q-47 -275 -47 -312q0 -36 18 -44q26 -12 169 -15l-10 -58q-161 7 -286 7q-121 0 -249 -7zM761 1510h-71l275 261q59 56 78.5 67.5t39.5 11.5q24 0 41 -18t17 -43q0 -20 -11 -34q-16 -20 -68 -53z" />
    <glyph glyph-name="yacute" unicode="&#xfd;" 
d="M48 735l-28 36q154 128 230 172q42 24 77 24q30 0 48 -24t18 -78q0 -65 -18 -298q-21 -261 -21 -351q0 -53 11.5 -71t33.5 -18q90 0 249 251q126 199 197 555q91 18 152 36l22 -19q-49 -115 -130 -379l-136 -454q-50 -172 -119 -309t-155.5 -226t-159.5 -122t-139 -33
q-81 0 -130.5 44.5t-49.5 119.5l1 31q52 23 105 69l18 -10l-1 -45q0 -59 38 -96.5t92 -37.5q40 0 72.5 14t73.5 57t89 141t97 259l106 383q-154 -222 -271 -320q-81 -67 -122 -67q-38 0 -64.5 37t-26.5 120q0 52 14 210q19 213 19 345q0 98 -11 123t-30 25q-31 0 -151 -94z
M570 1131h-71l275 261q59 56 78.5 67.5t39.5 11.5q24 0 41 -18t17 -43q0 -20 -11 -34q-16 -20 -68 -53z" />
    <glyph glyph-name="Thorn" unicode="&#xde;" horiz-adv-x="1251" 
d="M431 400l-36 -227q-5 -37 -5 -58q0 -36 21.5 -47t154.5 -19l-7 -56q-152 7 -243 7q-84 0 -278 -7l8 56q116 4 134 14t31.5 39.5t54.5 259.5q34 194 95 574q52 330 52 359q0 38 -20 49q-13 7 -157 18l10 54q149 -7 250 -7q112 0 272 7v-54q-123 -4 -143.5 -12.5t-31.5 -33
t-42 -189.5q127 18 231 18q200 0 294 -83.5t94 -237.5q0 -130 -69 -254t-178.5 -191t-235.5 -67q-62 0 -114 16.5t-142 71.5zM439 452q125 -64 221 -64q88 0 163.5 49t121 143.5t45.5 212.5q0 129 -73.5 199t-213.5 70q-64 0 -166 -15q-25 -136 -34 -204z" />
    <glyph glyph-name="thorn" unicode="&#xfe;" 
d="M331 593q83 134 165.5 210.5t183 121t160.5 44.5q46 0 72 -43q42 -68 42 -171q0 -163 -68 -334.5t-144.5 -242.5t-188.5 -138t-197 -67q-51 0 -128 25q-68 -327 -94 -542q-89 -11 -149 -29l-14 11q41 176 87 403l114 587l63 371q84 466 84 508q0 31 -20 41q-15 8 -148 13
l2 41q198 17 336 84l25 -22q-32 -137 -79 -362zM245 115q91 -56 183 -56q88 0 157 60.5t142 255.5t73 356q0 69 -18 94t-55 25q-94 0 -211.5 -101.5t-187.5 -280.5q-27 -70 -83 -353z" />
    <glyph glyph-name="minus" unicode="&#x2212;" horiz-adv-x="1241" 
d="M117 635v139h1007v-139h-1007z" />
    <glyph glyph-name="multiply" unicode="&#xd7;" horiz-adv-x="1241" 
d="M186 1041l98 99l337 -337l337 337l98 -99l-337 -336l337 -337l-98 -98l-337 336l-337 -336l-98 98l337 337z" />
    <glyph glyph-name="onesuperior" unicode="&#xb9;" horiz-adv-x="635" 
d="M73 544l7 49l62 4q60 4 77.5 19t27.5 58l51 287q43 239 56 339l-229 -93h-19l15 87q202 41 344 109l27 -18q-59 -279 -110 -593q-18 -112 -18 -138q0 -34 18.5 -43.5t146.5 -17.5l-8 -49q-123 5 -211 5q-102 0 -237 -5z" />
    <glyph glyph-name="twosuperior" unicode="&#xb2;" horiz-adv-x="635" 
d="M10 545v34q278 270 365 408q64 101 64 188q0 65 -35 100.5t-98 35.5q-53 0 -95 -30t-86 -111l-42 19l82 150q42 29 86 43.5t90 14.5q101 0 160 -56.5t59 -148.5q0 -84 -53.5 -167t-360.5 -385h183q146 0 216 10l12 -14q-7 -19 -23 -91q-138 4 -283 4q-124 0 -241 -4z" />
    <glyph glyph-name="threesuperior" unicode="&#xb3;" horiz-adv-x="635" 
d="M50 774l45 -6q-6 -44 -6 -63q0 -49 41 -81t111 -32q89 0 149.5 65.5t60.5 166.5q0 76 -43.5 116.5t-128.5 40.5q-45 0 -103 -16l-13 10l27 70q42 -5 61 -5q82 0 137 49.5t55 113.5q0 49 -31.5 78.5t-89.5 29.5q-46 0 -80.5 -20t-82.5 -82l-37 24q44 65 78 126
q43 19 82 28.5t74 9.5q96 0 148 -46.5t52 -118.5q0 -65 -45 -119q-28 -33 -122 -86q101 -27 140 -73.5t39 -118.5q0 -121 -101.5 -211.5t-255.5 -90.5q-52 0 -101.5 15t-97.5 44q23 93 38 182z" />
    <glyph glyph-name="onehalf" unicode="&#xbd;" horiz-adv-x="1612" 
d="M73 544l7 49l62 4q60 4 77.5 19t27.5 58l51 287q43 239 56 339l-229 -93h-19l15 87q202 41 344 109l27 -18q-59 -279 -110 -593q-18 -112 -18 -138q0 -34 18.5 -43.5t146.5 -17.5l-8 -49q-123 5 -211 5q-102 0 -237 -5zM281 -88q75 107 102 150l785 1254q43 69 81 143
q44 -5 72 -5l38 2q-41 -55 -112 -167l-772 -1232q-58 -92 -86 -145l-55 3q-17 0 -53 -3zM987 -4v34q278 270 365 408q64 101 64 188q0 65 -35 100.5t-98 35.5q-53 0 -95 -30t-86 -111l-42 19l82 150q42 29 86 43.5t90 14.5q101 0 160 -56.5t59 -148.5q0 -84 -53.5 -167
t-360.5 -385h183q146 0 216 10l12 -14q-7 -19 -23 -91q-138 4 -283 4q-124 0 -241 -4z" />
    <glyph glyph-name="onequarter" unicode="&#xbc;" horiz-adv-x="1612" 
d="M73 544l7 49l62 4q60 4 77.5 19t27.5 58l51 287q43 239 56 339l-229 -93h-19l15 87q202 41 344 109l27 -18q-59 -279 -110 -593q-18 -112 -18 -138q0 -34 18.5 -43.5t146.5 -17.5l-8 -49q-123 5 -211 5q-102 0 -237 -5zM281 -88q75 107 102 150l785 1254q43 69 81 143
q44 -5 72 -5l38 2q-41 -55 -112 -167l-772 -1232q-58 -92 -86 -145l-55 3q-17 0 -53 -3zM1104 -4l7 48q136 7 150.5 17.5t34.5 103.5l13 64h-180q-84 0 -144 -3v46q174 258 431 559q38 8 90 22l20 -10q-28 -117 -40 -188l-60 -342h47q68 0 109 5l13 -9q-15 -41 -27 -83
q-72 3 -152 3l-14 -69q-9 -49 -9 -78q0 -19 11 -23q19 -7 144 -15l-9 -48q-123 4 -218 4q-102 0 -217 -4zM1396 721l-93 -115l-216 -289q56 -4 141 -4h96z" />
    <glyph glyph-name="threequarters" unicode="&#xbe;" horiz-adv-x="1612" 
d="M50 774l45 -6q-6 -44 -6 -63q0 -49 41 -81t111 -32q89 0 149.5 65.5t60.5 166.5q0 76 -43.5 116.5t-128.5 40.5q-45 0 -103 -16l-13 10l27 70q42 -5 61 -5q82 0 137 49.5t55 113.5q0 49 -31.5 78.5t-89.5 29.5q-46 0 -80.5 -20t-82.5 -82l-37 24q44 65 78 126
q43 19 82 28.5t74 9.5q96 0 148 -46.5t52 -118.5q0 -65 -45 -119q-28 -33 -122 -86q101 -27 140 -73.5t39 -118.5q0 -121 -101.5 -211.5t-255.5 -90.5q-52 0 -101.5 15t-97.5 44q23 93 38 182zM282 -88q75 107 102 150l785 1254q43 69 81 143q44 -5 72 -5l38 2
q-41 -55 -112 -167l-772 -1232q-58 -92 -86 -145l-55 3q-17 0 -53 -3zM1104 -4l7 48q136 7 150.5 17.5t34.5 103.5l13 64h-180q-84 0 -144 -3v46q174 258 431 559q38 8 90 22l20 -10q-28 -117 -40 -188l-60 -342h47q68 0 109 5l13 -9q-15 -41 -27 -83q-72 3 -152 3l-14 -69
q-9 -49 -9 -78q0 -19 11 -23q19 -7 144 -15l-9 -48q-123 4 -218 4q-102 0 -217 -4zM1396 721l-93 -115l-216 -289q56 -4 141 -4h96z" />
    <glyph glyph-name="franc" unicode="&#x20a3;" horiz-adv-x="1139" 
d="M411 304q-22 -153 -22 -177q0 -40 22.5 -51.5t177.5 -25.5v-57q-160 7 -276 7q-121 0 -268 -7l7 57l65 5q67 5 83.5 30.5t48.5 218.5h-82l-44 -3l-42 -1l14 87l42 -3q25 -2 48 -2h77q142 852 142 898q0 40 -24.5 54t-156.5 25l9 57q191 -7 290 -7l467 7l165 -2
q-21 -100 -34 -308h-54q-5 110 -18 196q-105 31 -270 31q-60 0 -196 -6q-61 -312 -107 -624q132 -5 253 -5q151 0 270 21l11 -16q-27 -58 -40 -100q-94 11 -213 11q-72 0 -296 -4l-37 -228h113q67 0 138 5l-16 -87q-78 4 -214 4h-33z" />
    <glyph glyph-name="Gbreve" unicode="&#x11e;" horiz-adv-x="1479" 
d="M918 503l8 58q179 -6 297 -6q117 0 224 6v-58q-80 -8 -99 -24.5t-35 -88.5q-32 -142 -32 -230q0 -29 7 -71v-17q-88 -7 -150 -24q-129 -38 -227 -60q-80 -15 -174 -15q-313 0 -476 156t-163 439q0 341 213 585q246 283 651 283q119 0 231 -18.5t217 -55.5
q-28 -75 -40 -132t-24 -171h-63l3 71l-3 99q-90 52 -184 75t-211 23q-195 0 -317.5 -75.5t-205.5 -251.5t-83 -396q0 -260 134 -396t385 -136q167 0 320 53q14 62 47 250q5 29 5 46q0 40 -25.5 52.5t-229.5 29.5zM665 1844h55q13 -96 59 -144q61 -63 166 -63q94 0 164 49
t119 158h58q-98 -325 -350 -325q-83 0 -146 36t-91.5 95.5t-33.5 193.5z" />
    <glyph glyph-name="gbreve" unicode="&#x11f;" horiz-adv-x="1022" 
d="M998 765l-133 -2q6 -47 6 -68q0 -77 -44 -167t-113 -147t-196 -100q-44 -46 -44 -90q0 -28 18.5 -55t93.5 -87q149 -119 183 -163q54 -68 54 -145q0 -122 -116 -204q-156 -110 -382 -110q-182 0 -272 69.5t-90 172.5q0 108 94.5 209.5t295.5 162.5q-33 34 -33 63
q0 30 17.5 52t119.5 114q-36 -3 -56 -3q-120 0 -189.5 67.5t-69.5 189.5q0 182 133.5 313.5t322.5 131.5q84 0 140 -27t94 -85q82 1 179 12zM719 682q0 86 -21.5 129.5t-62.5 68.5t-101 25q-108 0 -171 -80q-75 -96 -75 -264q0 -113 52 -170t139 -57q67 0 115.5 35
t86.5 125.5t38 187.5zM408 -8q-162 -45 -238 -124.5t-76 -172.5q0 -94 74 -153.5t212 -59.5q141 0 223.5 61t82.5 141q0 40 -21 75q-32 52 -106 115zM364 1464h55q13 -96 59 -144q61 -63 166 -63q94 0 164 49t119 158h58q-98 -325 -350 -325q-83 0 -146 36t-91.5 95.5
t-33.5 193.5z" />
    <glyph glyph-name="Idot" unicode="&#x130;" horiz-adv-x="682" 
d="M6 -7l8 56q121 4 139.5 17t32.5 59q22 72 108.5 594t86.5 578q0 39 -23 48q-15 6 -154 17l10 54q149 -7 250 -7q111 0 272 7v-54q-125 -4 -143.5 -12.5t-30 -28.5t-42.5 -186l-72 -439l-78 -479q-12 -81 -12 -103q0 -34 18 -44q24 -12 158 -21l-7 -56q-153 7 -245 7
q-81 0 -276 -7zM526 1576q-34 0 -57.5 26.5t-23.5 69.5q0 50 30.5 83.5t70.5 33.5q34 0 56 -25.5t22 -69.5q0 -48 -30.5 -83t-67.5 -35z" />
    <glyph glyph-name="Scedilla" unicode="&#x15e;" horiz-adv-x="1139" 
d="M157 365h61q-2 -69 -2 -136l2 -63q68 -50 135.5 -72t144.5 -22q158 0 256.5 94t98.5 235q0 104 -55 153q-56 49 -196 78q-161 34 -225.5 73t-99.5 104.5t-35 156.5q0 200 159 335t395 135q80 0 140.5 -14.5t123.5 -50.5q-38 -130 -51 -271h-60l1 75l-1 77q-53 56 -104 77
t-126 21q-149 0 -237 -86t-88 -225q0 -75 25 -119t78.5 -74t195.5 -62q149 -33 204.5 -66t87 -94t31.5 -143q0 -194 -175 -351t-409 -157q-88 0 -169.5 21.5t-157.5 63.5q33 137 52 307zM533 0l-64 -104q33 6 55 6q69 0 107.5 -37t38.5 -94q0 -68 -60 -117t-168 -49
q-84 0 -189 41l29 61q89 -37 146 -37q53 0 83 26.5t30 64.5q0 33 -26 56t-67 23q-21 0 -51 -11l-17 13l92 158h61z" />
    <glyph glyph-name="scedilla" unicode="&#x15f;" horiz-adv-x="797" 
d="M89 295h52l-1 -94l1 -74q49 -39 103.5 -58.5t113.5 -19.5q96 0 159 62t63 155q0 67 -31 98q-32 31 -132 47q-178 28 -230 67q-69 53 -69 157q0 80 47 146.5t172 137.5q88 50 184 50q48 0 98 -12.5t102 -38.5q-23 -90 -36 -230h-47q1 45 1 74q0 49 -21 67q-65 54 -166 54
q-102 0 -157.5 -51t-55.5 -134q0 -69 45 -100q34 -23 165 -48q148 -27 192 -59q61 -46 61 -142q0 -132 -136.5 -254t-305.5 -122q-55 0 -108.5 14t-106.5 41q29 115 44 267zM360 0l-64 -104q33 6 55 6q69 0 107.5 -37t38.5 -94q0 -68 -60 -117t-168 -49q-84 0 -189 41l29 61
q89 -37 146 -37q53 0 83 26.5t30 64.5q0 33 -26 56t-67 23q-21 0 -51 -11l-17 13l92 158h61z" />
    <glyph glyph-name="Cacute" unicode="&#x106;" horiz-adv-x="1366" 
d="M1300 224q-14 -36 -24 -73q-120 -93 -246.5 -135.5t-280.5 -42.5q-293 0 -454.5 161t-161.5 454q0 369 233 600q250 248 604 248q109 0 212.5 -20.5t200.5 -61.5q-39 -143 -54 -293h-58q-3 51 -3 78l3 87q-99 64 -180.5 87.5t-193.5 23.5q-187 0 -306 -74t-199 -244.5
t-80 -388.5q0 -263 135 -405.5t369 -142.5q111 0 213 32t247 122zM862 1510h-71l275 261q59 56 78.5 67.5t39.5 11.5q24 0 41 -18t17 -43q0 -20 -11 -34q-16 -20 -68 -53z" />
    <glyph glyph-name="cacute" unicode="&#x107;" horiz-adv-x="834" 
d="M776 663h-49q4 78 4 114q0 38 -35 60q-53 33 -137 33q-102 0 -162.5 -46.5t-113.5 -201.5t-53 -325q0 -104 48.5 -159.5t125.5 -55.5q66 0 142 30.5t195 119.5l16 -43q-150 -128 -246 -172t-179 -44q-120 0 -184.5 77.5t-64.5 220.5q0 145 49 294t129.5 226t240.5 146
q74 32 150 32q48 0 83 -10.5t86 -42.5q-32 -117 -45 -253zM512 1131h-71l275 261q59 56 78.5 67.5t39.5 11.5q24 0 41 -18t17 -43q0 -20 -11 -34q-16 -20 -68 -53z" />
    <glyph glyph-name="Ccaron" unicode="&#x10c;" horiz-adv-x="1366" 
d="M1300 224q-14 -36 -24 -73q-120 -93 -246.5 -135.5t-280.5 -42.5q-293 0 -454.5 161t-161.5 454q0 369 233 600q250 248 604 248q109 0 212.5 -20.5t200.5 -61.5q-39 -143 -54 -293h-58q-3 51 -3 78l3 87q-99 64 -180.5 87.5t-193.5 23.5q-187 0 -306 -74t-199 -244.5
t-80 -388.5q0 -263 135 -405.5t369 -142.5q111 0 213 32t247 122zM1353 1852l-352 -342h-83l-200 342h69l187 -221l302 221h77z" />
    <glyph glyph-name="ccaron" unicode="&#x10d;" horiz-adv-x="834" 
d="M776 663h-49q4 78 4 114q0 38 -35 60q-53 33 -137 33q-102 0 -162.5 -46.5t-113.5 -201.5t-53 -325q0 -104 48.5 -159.5t125.5 -55.5q66 0 142 30.5t195 119.5l16 -43q-150 -128 -246 -172t-179 -44q-120 0 -184.5 77.5t-64.5 220.5q0 145 49 294t129.5 226t240.5 146
q74 32 150 32q48 0 83 -10.5t86 -42.5q-32 -117 -45 -253zM1003 1473l-352 -342h-83l-200 342h69l187 -221l302 221h77z" />
    <glyph glyph-name="dmacron" unicode="&#x111;" 
d="M960 1197h175l-11 -70h-179q-195 -890 -195 -977q0 -21 7 -30t20 -9q45 0 169 96l25 -36q-244 -198 -326 -198q-23 0 -37 17.5t-14 54.5t8 77q12 68 65 286q-124 -203 -278.5 -319t-222.5 -116q-40 0 -65 42q-32 53 -32 160q0 217 92 442q67 163 200 257.5t248 94.5
q64 0 160 -26l31 184h-309l11 70h309q15 100 15 115q0 26 -17 33q-24 10 -147 11l6 40q210 28 328 90l25 -22zM747 830q-109 53 -199 53q-81 0 -131 -28q-30 -17 -57 -69q-60 -115 -103.5 -284.5t-43.5 -276.5q0 -73 13 -97q10 -17 36 -17q62 0 156 74q131 103 218 269
t111 376z" />
    <glyph glyph-name="overscore" unicode="&#xaf;" 
d="M157 1665h1048v-102h-1048v102z" />
    <glyph glyph-name="middot" unicode="&#xb7;" horiz-adv-x="682" 
d="M617 623q-34 0 -57.5 26.5t-23.5 70.5q0 49 30.5 82.5t70.5 33.5q34 0 56 -25.5t22 -68.5q0 -49 -30.5 -84t-67.5 -35z" />
    <glyph glyph-name="foursuperior" unicode="&#xf003;" horiz-adv-x="635" 
d="M119 545l7 48q136 7 150.5 17.5t34.5 103.5l13 64h-180q-84 0 -144 -3v46q174 258 431 559q38 8 90 22l20 -10q-28 -117 -40 -188l-60 -342h47q68 0 109 5l13 -9q-15 -41 -27 -83q-72 3 -152 3l-14 -69q-9 -49 -9 -78q0 -19 11 -23q19 -7 144 -15l-9 -48q-123 4 -218 4
q-102 0 -217 -4zM411 1270l-93 -115l-216 -289q56 -4 141 -4h96z" />
    <glyph glyph-name="Abreve" unicode="&#x102;" horiz-adv-x="1479" 
d="M972 1432l219 -1179q25 -135 36 -159q6 -14 24 -22.5t127 -17.5v-61q-110 7 -253 7q-139 0 -250 -7v61l68 2q68 1 88 14.5t20 44.5q0 30 -15 115l-59 337h-510l-82 -144q-122 -214 -144 -265q-17 -38 -17 -55q0 -20 22.5 -30t156.5 -19v-61q-158 7 -245 7q-96 0 -208 -7
v61q82 4 100 15t96 137l729 1226h97zM858 1232l-344 -586q161 -3 248 -3q80 0 201 3zM644 1844h55q13 -96 59 -144q61 -63 166 -63q94 0 164 49t119 158h58q-98 -325 -350 -325q-83 0 -146 36t-91.5 95.5t-33.5 193.5z" />
    <glyph glyph-name="abreve" unicode="&#x103;" horiz-adv-x="909" 
d="M826 968l23 -15q-98 -340 -152 -603q-31 -152 -31 -199q0 -19 8 -29t22 -10q33 0 149 97l12 -46q-108 -95 -208 -152q-49 -27 -85 -27q-27 0 -40 15.5t-13 50.5q0 82 68 341l-8 1q-142 -206 -302 -333q-108 -86 -158 -86q-30 0 -47 30q-25 46 -25 133q0 148 59.5 353
t121.5 292q47 66 183 141q85 47 177 47q40 0 85.5 -9t96.5 -27zM673 837q-44 17 -83 25t-74 8q-78 0 -141 -27q-18 -9 -46 -66q-55 -114 -99.5 -290t-44.5 -310q0 -36 10.5 -51t25.5 -15q41 0 150.5 105t172.5 217q84 151 129 404zM338 1464h55q13 -96 59 -144
q61 -63 166 -63q94 0 164 49t119 158h58q-98 -325 -350 -325q-83 0 -146 36t-91.5 95.5t-33.5 193.5z" />
    <glyph glyph-name="Aogonek" unicode="&#x104;" horiz-adv-x="1479" 
d="M972 1432l219 -1179q25 -135 36 -159q6 -14 24 -22.5t127 -17.5v-61q-110 7 -253 7q-139 0 -250 -7v61l68 2q68 1 88 14.5t20 44.5q0 30 -15 115l-59 337h-510l-82 -144q-122 -214 -144 -265q-17 -38 -17 -55q0 -20 22.5 -30t156.5 -19v-61q-158 7 -245 7q-96 0 -208 -7
v61q82 4 100 15t96 137l729 1226h97zM858 1232l-344 -586q161 -3 248 -3q80 0 201 3zM1121 0q-79 -79 -104 -124.5t-25 -81.5q0 -47 31.5 -78t80.5 -31q48 0 107 47l36 -23q-110 -123 -210 -123q-67 0 -114.5 47t-47.5 113q0 35 12 64q17 38 49 71l139 119h46z" />
    <glyph glyph-name="aogonek" unicode="&#x105;" horiz-adv-x="909" 
d="M826 968l23 -15q-98 -340 -152 -603q-31 -152 -31 -199q0 -19 8 -29t22 -10q33 0 149 97l12 -46q-108 -95 -208 -152q-49 -27 -85 -27q-27 0 -40 15.5t-13 50.5q0 82 68 341l-8 1q-142 -206 -302 -333q-108 -86 -158 -86q-30 0 -47 30q-25 46 -25 133q0 148 59.5 353
t121.5 292q47 66 183 141q85 47 177 47q40 0 85.5 -9t96.5 -27zM673 837q-44 17 -83 25t-74 8q-78 0 -141 -27q-18 -9 -46 -66q-55 -114 -99.5 -290t-44.5 -310q0 -36 10.5 -51t25.5 -15q41 0 150.5 105t172.5 217q84 151 129 404zM608 0q-79 -79 -104 -124.5t-25 -81.5
q0 -47 31.5 -78t80.5 -31q48 0 107 47l36 -23q-110 -123 -210 -123q-67 0 -114.5 47t-47.5 113q0 35 12 64q17 38 49 71l139 119h46z" />
    <glyph glyph-name="Dcaron" unicode="&#x10e;" horiz-adv-x="1593" 
d="M65 -5v50q50 8 69.5 22.5t32.5 46.5t52 257l65 391l13 88q58 375 58 434q0 45 -36 61q-19 7 -144 16v57q150 -9 275 -9q70 0 187 4q163 6 227 6q229 0 354.5 -60.5t192.5 -178.5t67 -304q0 -366 -266 -636q-246 -250 -622 -250q-52 0 -152 4q-138 6 -221 6q-68 0 -152 -5
zM342 107q170 -31 297 -31q208 0 338.5 81.5t224 274.5t93.5 419q0 162 -57 267t-166 160t-277 55q-126 0 -256 -9q-26 -126 -84 -474l-14 -88q-75 -449 -99 -655zM1261 1853l-352 -342h-83l-200 342h69l187 -221l302 221h77z" />
    <glyph glyph-name="dcaron" unicode="&#x10f;" horiz-adv-x="1206" 
d="M662 1356l6 40q210 28 328 90l25 -22q-84 -353 -213 -987q-58 -283 -58 -323q0 -24 7 -34t20 -10q45 0 169 97l25 -36q-244 -198 -326 -198q-22 0 -36.5 18t-14.5 53q0 34 10 88t63 276q-124 -203 -278.5 -319t-222.5 -116q-40 0 -65 42q-32 53 -32 160q0 217 92 442
q67 163 200 257.5t248 94.5q64 0 160 -26l39 234q18 104 18 135q0 26 -17 33q-24 10 -147 11zM747 830q-109 53 -199 53q-81 0 -131 -28q-30 -17 -57 -69q-60 -115 -103.5 -284t-43.5 -276q0 -74 12.5 -95.5t36.5 -21.5q61 0 156 75q130 103 217.5 269.5t111.5 376.5z
M1369 1479l21 -24q-136 -281 -284 -439q-31 -14 -63 -25l-14 18q131 168 175 421q60 14 165 49z" />
    <glyph glyph-name="Dslash" unicode="&#x110;" horiz-adv-x="1593" 
d="M281 748l16 102q58 375 58 434q0 45 -36 61q-19 7 -144 16v57q150 -9 275 -9q70 0 187 4q163 6 227 6q229 0 354.5 -60.5t192.5 -178.5t67 -304q0 -366 -266 -636q-246 -250 -622 -250q-52 0 -152 4q-138 6 -221 6q-68 0 -152 -5v50q50 8 69 22t32 44t45 213l58 343
l-48 4l-79 -2h-42l11 79h170zM426 669q-70 -445 -84 -562q170 -31 297 -31q208 0 338.5 81.5t224 274.5t93.5 419q0 162 -57 267t-166 160t-277 55q-126 0 -256 -9q-26 -126 -84 -474l-16 -102l135 -2l222 4l52 -2l-15 -79l-107 1l-48 1z" />
    <glyph glyph-name="Eogonek" unicode="&#x118;" horiz-adv-x="1251" 
d="M78 -9l7 49l35 12q37 14 70 28q61 257 158 849q50 306 50 356q0 37 -23.5 49.5t-160.5 22.5l9 58q176 -6 307 -6l449 6q109 0 192 -8q-25 -128 -35 -301h-56q-6 181 -24 200q-25 25 -293 25q-84 0 -181 -4q-53 -267 -99 -552q132 -5 237 -5q122 0 278 16l10 -11
q-20 -46 -39 -100q-142 12 -358 12l-143 -2q-69 -393 -93 -586q166 -17 346 -17q119 0 214 11q32 4 45.5 14t23.5 35q8 18 53 188h60l-19 -113q-18 -99 -29 -217q-78 -10 -159 -10q-53 0 -157 3q-224 7 -348 7q-155 0 -327 -9zM885 0q-79 -79 -104 -124.5t-25 -81.5
q0 -47 31.5 -78t80.5 -31q48 0 107 47l36 -23q-110 -123 -210 -123q-67 0 -114.5 47t-47.5 113q0 35 12 64q17 38 49 71l139 119h46z" />
    <glyph glyph-name="eogonek" unicode="&#x119;" horiz-adv-x="797" 
d="M683 223l14 -43q-143 -120 -236.5 -163.5t-176.5 -43.5q-117 0 -180.5 68.5t-63.5 197.5q0 135 54 301.5t124 239.5t222 147q85 42 153 42q83 0 130.5 -44.5t47.5 -113.5q0 -271 -560 -383q-20 -119 -20 -177q0 -81 46 -130t116 -49q53 0 125.5 29.5t204.5 121.5z
M220 477q205 38 300 119.5t95 180.5q0 53 -24.5 79.5t-69.5 26.5q-64 0 -123 -37t-96 -111q-49 -97 -82 -258zM334 0q-79 -79 -104 -124.5t-25 -81.5q0 -47 31.5 -78t80.5 -31q48 0 107 47l36 -23q-110 -123 -210 -123q-67 0 -114.5 47t-47.5 113q0 35 12 64q17 38 49 71
l139 119h46z" />
    <glyph glyph-name="Ecaron" unicode="&#x11a;" horiz-adv-x="1251" 
d="M78 -9l7 49l35 12q37 14 70 28q61 257 158 849q50 306 50 356q0 37 -23.5 49.5t-160.5 22.5l9 58q176 -6 307 -6l449 6q109 0 192 -8q-25 -128 -35 -301h-56q-6 181 -24 200q-25 25 -293 25q-84 0 -181 -4q-53 -267 -99 -552q132 -5 237 -5q122 0 278 16l10 -11
q-20 -46 -39 -100q-142 12 -358 12l-143 -2q-69 -393 -93 -586q166 -17 346 -17q119 0 214 11q32 4 45.5 14t23.5 35q8 18 53 188h60l-19 -113q-18 -99 -29 -217q-78 -10 -159 -10q-53 0 -157 3q-224 7 -348 7q-155 0 -327 -9zM1174 1853l-352 -342h-83l-200 342h69
l187 -221l302 221h77z" />
    <glyph glyph-name="ecaron" unicode="&#x11b;" horiz-adv-x="797" 
d="M683 223l14 -43q-143 -120 -236.5 -163.5t-176.5 -43.5q-117 0 -180.5 68.5t-63.5 197.5q0 135 54 301.5t124 239.5t222 147q85 42 153 42q83 0 130.5 -44.5t47.5 -113.5q0 -271 -560 -383q-20 -119 -20 -177q0 -81 46 -130t116 -49q53 0 125.5 29.5t204.5 121.5z
M220 477q205 38 300 119.5t95 180.5q0 53 -24.5 79.5t-69.5 26.5q-64 0 -123 -37t-96 -111q-49 -97 -82 -258zM955 1473l-352 -342h-83l-200 342h69l187 -221l302 221h77z" />
    <glyph glyph-name="IJ" unicode="&#x132;" horiz-adv-x="1364" 
d="M6 -7l8 56q122 4 143 19.5t44 115.5t101.5 582t78.5 531q0 39 -19.5 46.5t-157.5 18.5l10 54q136 -7 248 -7q105 0 281 7l-7 -54q-147 -2 -164.5 -24t-49 -193.5t-50.5 -301.5q-3 -24 -9 -57l-15 -90q-90 -543 -90 -583q0 -36 26.5 -45.5t149.5 -18.5l-7 -56
q-142 7 -245 7q-85 0 -276 -7zM885 1360l7 56q137 -7 278 -7t255 7l-7 -56q-115 -10 -138 -24t-33.5 -58.5t-103.5 -665.5l-82 -535q-46 -297 -148.5 -406t-199.5 -109q-29 0 -73 19l-8 57q40 -13 64 -13q80 0 121 94.5t144.5 785t103.5 779.5q0 46 -25 56.5t-155 19.5z" />
    <glyph glyph-name="ij" unicode="&#x133;" horiz-adv-x="1139" 
d="M904 1317q0 46 32.5 88.5t81.5 42.5q76 0 76 -85q0 -53 -32 -92.5t-78 -39.5q-34 0 -57 23.5t-23 62.5zM331 1317q0 51 35 91t80 40q76 0 76 -85q0 -54 -32.5 -93t-77.5 -39q-34 0 -57.5 23t-23.5 63zM657 745l-17 37q168 115 232.5 151t103.5 36q52 0 52 -49
q0 -43 -54 -283l-110 -490q-57 -250 -99.5 -386.5t-93.5 -211t-94.5 -98.5t-88.5 -24q-50 0 -100 28q19 83 25 135l15 2q31 -74 101 -74q30 0 54.5 18.5t34.5 47t68 309.5l115 581q57 299 57 327q0 30 -26 30q-42 0 -175 -86zM79 744l-20 40q246 185 327 185q49 0 49 -52
q0 -64 -46 -237q-118 -441 -118 -536q0 -34 30 -34q38 0 162 91l20 -39q-236 -189 -308 -189q-27 0 -46 25t-19 66q0 67 53 264q104 387 104 466q0 37 -28 37q-35 0 -160 -87z" />
    <glyph glyph-name="Lacute" unicode="&#x139;" horiz-adv-x="1139" 
d="M61 -7l7 54l56 21q36 12 47.5 27t36.5 141l70 401q95 579 95 665q0 35 -29 45q-13 4 -148 13v56q168 -7 286 -7q120 0 257 7l-7 -56l-76 -5q-67 -3 -86 -20q-24 -22 -42 -112l-86 -523q-69 -414 -86 -612q140 -8 264 -8q267 0 302.5 24.5t82.5 233.5h61l-17 -112
q-17 -110 -27 -233l-191 -1q-89 0 -259 4q-130 4 -236 4q-139 0 -275 -7zM622 1511h-71l275 261q59 56 78.5 67.5t39.5 11.5q24 0 41 -18t17 -43q0 -20 -11 -34q-16 -20 -68 -53z" />
    <glyph glyph-name="lacute" unicode="&#x13a;" horiz-adv-x="570" 
d="M149 1360l6 41q208 30 326 85l29 -16l-120 -579l-20 -97l-106 -513q-19 -103 -19 -139q0 -20 8.5 -30t22.5 -10q43 0 184 116l21 -41q-125 -106 -241 -171q-60 -33 -95 -33q-28 0 -46 20.5t-18 57.5q0 13 5 46l36 176l97 454l21 97q34 162 62 354q13 94 13 133
q0 34 -17 41.5t-149 7.5zM353 1511h-71l275 261q59 56 78.5 67.5t39.5 11.5q24 0 41 -18t17 -43q0 -20 -11 -34q-16 -20 -68 -53z" />
    <glyph glyph-name="Lcaron" unicode="&#x13d;" horiz-adv-x="1139" 
d="M61 -7l7 54l56 21q36 12 47.5 27t36.5 141l70 401q95 579 95 665q0 35 -29 45q-13 4 -148 13v56q168 -7 286 -7q120 0 257 7l-7 -56l-76 -5q-67 -3 -86 -20q-24 -22 -42 -112l-86 -523q-69 -414 -86 -612q140 -8 264 -8q267 0 302.5 24.5t82.5 233.5h61l-17 -112
q-17 -110 -27 -233l-191 -1q-89 0 -259 4q-130 4 -236 4q-139 0 -275 -7zM1093 1479l21 -24q-136 -281 -284 -439q-31 -14 -63 -25l-14 18q131 168 175 421q60 14 165 49z" />
    <glyph glyph-name="lcaron" unicode="&#x13e;" horiz-adv-x="699" 
d="M149 1360l6 41q208 30 326 85l29 -16l-120 -579l-20 -97l-106 -513q-19 -103 -19 -139q0 -20 8.5 -30t22.5 -10q43 0 184 116l21 -41q-125 -106 -241 -171q-60 -33 -95 -33q-28 0 -46 20.5t-18 57.5q0 13 5 46l36 176l97 454l21 97q34 162 62 354q13 94 13 133
q0 34 -17 41.5t-149 7.5zM818 1479l21 -24q-136 -281 -284 -439q-31 -14 -63 -25l-14 18q131 168 175 421q60 14 165 49z" />
    <glyph glyph-name="Ldot" unicode="&#x13f;" horiz-adv-x="1139" 
d="M61 -7l7 54l56 21q36 12 47.5 27t36.5 141l70 401q95 579 95 665q0 35 -29 45q-13 4 -148 13v56q168 -7 286 -7q120 0 257 7l-7 -56l-76 -5q-67 -3 -86 -20q-24 -22 -42 -112l-86 -523q-69 -414 -86 -612q140 -8 264 -8q267 0 302.5 24.5t82.5 233.5h61l-17 -112
q-17 -110 -27 -233l-191 -1q-89 0 -259 4q-130 4 -236 4q-139 0 -275 -7zM717 623q-34 0 -57.5 26.5t-23.5 70.5q0 49 30.5 82.5t70.5 33.5q34 0 56 -25.5t22 -68.5q0 -49 -30.5 -84t-67.5 -35z" />
    <glyph glyph-name="ldot" unicode="&#x140;" horiz-adv-x="678" 
d="M149 1360l6 41q208 30 326 85l29 -16l-120 -579l-20 -97l-106 -513q-19 -103 -19 -139q0 -20 8.5 -30t22.5 -10q43 0 184 116l21 -41q-125 -106 -241 -171q-60 -33 -95 -33q-28 0 -46 20.5t-18 57.5q0 13 5 46l36 176l97 454l21 97q34 162 62 354q13 94 13 133
q0 34 -17 41.5t-149 7.5zM557 623q-34 0 -57.5 26.5t-23.5 70.5q0 49 30.5 82.5t70.5 33.5q34 0 56 -25.5t22 -68.5q0 -49 -30.5 -84t-67.5 -35z" />
    <glyph glyph-name="Nacute" unicode="&#x143;" horiz-adv-x="1593" 
d="M22 -6v57q122 4 141 22.5t69 271.5q64 324 162 910q-41 61 -75.5 78t-154.5 25v58q176 -7 216 -7q58 0 123 7q48 -90 290 -506l415 -701q29 163 145 872q30 183 30 216q0 32 -21.5 43.5t-146.5 17.5v58q150 -7 226 -7q91 0 219 7v-58q-97 -4 -116 -13.5t-32.5 -29.5
t-36.5 -131l-112 -611q-62 -348 -100 -602h-102l-217 385l-474 798q-25 -126 -144 -806q-29 -166 -29 -216q0 -48 35 -64q23 -10 144 -17v-57q-145 6 -215 6q-46 0 -239 -6zM844 1511h-71l275 261q59 56 78.5 67.5t39.5 11.5q24 0 41 -18t17 -43q0 -20 -11 -34
q-16 -20 -68 -53z" />
    <glyph glyph-name="nacute" unicode="&#x144;" horiz-adv-x="1139" 
d="M67 740l-16 42q162 117 254 165q42 22 75 22q23 0 35.5 -14t12.5 -42q0 -21 -7 -59l-79 -346q87 139 203.5 249.5t222.5 161t166 50.5q27 0 43 -17t16 -48q0 -28 -7 -61q-10 -53 -94 -406q-63 -261 -63 -305q0 -30 31 -30q30 0 115 59l63 42l18 -40q-247 -190 -328 -190
q-28 0 -45 19.5t-17 54.5q0 59 66 312q93 354 93 437q0 21 -10.5 32.5t-28.5 11.5q-59 0 -164 -83q-151 -119 -235 -284.5t-132 -469.5q-55 -7 -142 -30l-16 17q73 244 127 525q41 216 41 275q0 21 -8.5 31.5t-23.5 10.5q-38 0 -166 -92zM580 1131h-71l275 261
q59 56 78.5 67.5t39.5 11.5q24 0 41 -18t17 -43q0 -20 -11 -34q-16 -20 -68 -53z" />
    <glyph glyph-name="Ncaron" unicode="&#x147;" horiz-adv-x="1593" 
d="M22 -6v57q122 4 141 22.5t69 271.5q64 324 162 910q-41 61 -75.5 78t-154.5 25v58q176 -7 216 -7q58 0 123 7q48 -90 290 -506l415 -701q29 163 145 872q30 183 30 216q0 32 -21.5 43.5t-146.5 17.5v58q150 -7 226 -7q91 0 219 7v-58q-97 -4 -116 -13.5t-32.5 -29.5
t-36.5 -131l-112 -611q-62 -348 -100 -602h-102l-217 385l-474 798q-25 -126 -144 -806q-29 -166 -29 -216q0 -48 35 -64q23 -10 144 -17v-57q-145 6 -215 6q-46 0 -239 -6zM1342 1853l-352 -342h-83l-200 342h69l187 -221l302 221h77z" />
    <glyph glyph-name="ncaron" unicode="&#x148;" horiz-adv-x="1139" 
d="M67 740l-16 42q162 117 254 165q42 22 75 22q23 0 35.5 -14t12.5 -42q0 -21 -7 -59l-79 -346q87 139 203.5 249.5t222.5 161t166 50.5q27 0 43 -17t16 -48q0 -28 -7 -61q-10 -53 -94 -406q-63 -261 -63 -305q0 -30 31 -30q30 0 115 59l63 42l18 -40q-247 -190 -328 -190
q-28 0 -45 19.5t-17 54.5q0 59 66 312q93 354 93 437q0 21 -10.5 32.5t-28.5 11.5q-59 0 -164 -83q-151 -119 -235 -284.5t-132 -469.5q-55 -7 -142 -30l-16 17q73 244 127 525q41 216 41 275q0 21 -8.5 31.5t-23.5 10.5q-38 0 -166 -92zM1067 1473l-352 -342h-83l-200 342
h69l187 -221l302 221h77z" />
    <glyph glyph-name="napostrophe" unicode="&#x149;" horiz-adv-x="1431" 
d="M461 740l-16 42q162 117 254 165q42 22 75 22q23 0 35.5 -14t12.5 -42q0 -21 -7 -59l-79 -346q87 139 203.5 249.5t222.5 161t166 50.5q27 0 43 -17t16 -48q0 -28 -7 -61q-10 -53 -94 -406q-63 -261 -63 -305q0 -30 31 -30q30 0 115 59l63 42l18 -40q-247 -190 -328 -190
q-28 0 -45 19.5t-17 54.5q0 59 66 312q93 354 93 437q0 21 -10.5 32.5t-28.5 11.5q-59 0 -164 -83q-151 -119 -235 -284.5t-132 -469.5q-55 -7 -142 -30l-16 17q73 244 127 525q41 216 41 275q0 21 -8.5 31.5t-23.5 10.5q-38 0 -166 -92zM472 1479l21 -24
q-136 -281 -284 -439q-31 -14 -63 -25l-14 18q131 168 175 421q60 14 165 49z" />
    <glyph glyph-name="Odblacute" unicode="&#x150;" horiz-adv-x="1593" 
d="M706 -27q-213 0 -328.5 61t-181.5 180t-66 306q0 367 213 641.5t617 274.5q275 0 418 -142t143 -405q0 -254 -114.5 -471t-297.5 -331t-403 -114zM309 542q0 -172 49.5 -270.5t151 -155.5t240.5 -57q302 0 451 259q137 237 137 569q0 167 -50 266.5t-147 153t-240 53.5
q-177 0 -301.5 -84t-207.5 -283t-83 -451zM861 1498h-73l182 276q45 67 61.5 80t40.5 13q28 0 46.5 -18t18.5 -43q0 -19 -10 -36t-54 -59zM1146 1498h-75l180 271q41 60 60 75t42 15q27 0 45.5 -17.5t18.5 -41.5q0 -32 -57 -89z" />
    <glyph glyph-name="odblacute" unicode="&#x151;" horiz-adv-x="909" 
d="M48 295q0 320 165 497t363 177q131 0 204 -78.5t73 -225.5q0 -185 -80.5 -354t-205 -253.5t-249.5 -84.5q-127 0 -198.5 79t-71.5 243zM205 310q0 -140 49.5 -200.5t139.5 -60.5q133 0 207 149q94 190 94 435q0 144 -50.5 205t-145.5 61q-77 0 -135.5 -51.5
t-108.5 -204.5t-50 -333zM440 1118h-73l182 276q45 67 61.5 80t40.5 13q28 0 46.5 -18t18.5 -43q0 -19 -10 -36t-54 -59zM725 1118h-75l180 271q41 60 60 75t42 15q27 0 45.5 -17.5t18.5 -41.5q0 -32 -57 -89z" />
    <glyph glyph-name="Racute" unicode="&#x154;" horiz-adv-x="1366" 
d="M27 -7v59l63 3q71 3 87.5 16t29.5 63q23 93 114 617q76 443 76 528q0 42 -26.5 57t-162.5 23v58q214 -8 307 -8q74 0 189 6q79 4 129 4q184 0 271 -76t87 -204q0 -85 -50 -174t-136 -148t-238 -94q168 -267 319 -483q104 -148 133 -167q23 -15 90 -21v-59q-90 7 -151 7
q-57 0 -121 -7q-90 166 -233.5 388.5t-254.5 368.5v22q64 -8 92 -8q94 0 187 48.5t141.5 128t48.5 169.5q0 110 -66.5 171.5t-202.5 61.5q-73 0 -168 -19q-65 -333 -157 -893q-43 -260 -43 -315q0 -37 29 -48q16 -6 151 -16l-8 -59q-138 7 -233 7q-100 0 -293 -7zM690 1511
h-71l275 261q59 56 78.5 67.5t39.5 11.5q24 0 41 -18t17 -43q0 -20 -11 -34q-16 -20 -68 -53z" />
    <glyph glyph-name="racute" unicode="&#x155;" horiz-adv-x="797" 
d="M97 732l-23 35q174 130 262 176q50 26 83 26q18 0 28 -11.5t10 -35.5q0 -35 -10 -89l-67 -302q159 270 268 377q62 61 114 61q22 0 55 -11q-22 -91 -35 -217l-30 -7q-27 38 -64 38q-41 0 -86 -32q-78 -55 -146.5 -171.5t-104.5 -255.5q-9 -33 -66 -304q-62 -12 -140 -36
l-17 15q75 254 120.5 500t45.5 304q0 40 -26 40q-31 0 -171 -100zM468 1131h-71l275 261q59 56 78.5 67.5t39.5 11.5q24 0 41 -18t17 -43q0 -20 -11 -34q-16 -20 -68 -53z" />
    <glyph glyph-name="Rcaron" unicode="&#x158;" horiz-adv-x="1366" 
d="M27 -7v59l63 3q71 3 87.5 16t29.5 63q23 93 114 617q76 443 76 528q0 42 -26.5 57t-162.5 23v58q214 -8 307 -8q74 0 189 6q79 4 129 4q184 0 271 -76t87 -204q0 -85 -50 -174t-136 -148t-238 -94q168 -267 319 -483q104 -148 133 -167q23 -15 90 -21v-59q-90 7 -151 7
q-57 0 -121 -7q-90 166 -233.5 388.5t-254.5 368.5v22q64 -8 92 -8q94 0 187 48.5t141.5 128t48.5 169.5q0 110 -66.5 171.5t-202.5 61.5q-73 0 -168 -19q-65 -333 -157 -893q-43 -260 -43 -315q0 -37 29 -48q16 -6 151 -16l-8 -59q-138 7 -233 7q-100 0 -293 -7zM1171 1853
l-352 -342h-83l-200 342h69l187 -221l302 221h77z" />
    <glyph glyph-name="rcaron" unicode="&#x159;" horiz-adv-x="797" 
d="M97 732l-23 35q174 130 262 176q50 26 83 26q18 0 28 -11.5t10 -35.5q0 -35 -10 -89l-67 -302q159 270 268 377q62 61 114 61q22 0 55 -11q-22 -91 -35 -217l-30 -7q-27 38 -64 38q-41 0 -86 -32q-78 -55 -146.5 -171.5t-104.5 -255.5q-9 -33 -66 -304q-62 -12 -140 -36
l-17 15q75 254 120.5 500t45.5 304q0 40 -26 40q-31 0 -171 -100zM971 1473l-352 -342h-83l-200 342h69l187 -221l302 221h77z" />
    <glyph glyph-name="Sacute" unicode="&#x15a;" horiz-adv-x="1139" 
d="M157 365h61q-2 -69 -2 -136l2 -63q68 -50 135.5 -72t144.5 -22q158 0 256.5 94t98.5 235q0 104 -55 153q-56 49 -196 78q-161 34 -225.5 73t-99.5 104.5t-35 156.5q0 200 159 335t395 135q80 0 140.5 -14.5t123.5 -50.5q-38 -130 -51 -271h-60l1 75l-1 77q-53 56 -104 77
t-126 21q-149 0 -237 -86t-88 -225q0 -75 25 -119t78.5 -74t195.5 -62q149 -33 204.5 -66t87 -94t31.5 -143q0 -194 -175 -351t-409 -157q-88 0 -169.5 21.5t-157.5 63.5q33 137 52 307zM659 1511h-71l275 261q59 56 78.5 67.5t39.5 11.5q24 0 41 -18t17 -43q0 -20 -11 -34
q-16 -20 -68 -53z" />
    <glyph glyph-name="sacute" unicode="&#x15b;" horiz-adv-x="797" 
d="M89 295h52l-1 -94l1 -74q49 -39 103.5 -58.5t113.5 -19.5q96 0 159 62t63 155q0 67 -31 98q-32 31 -132 47q-178 28 -230 67q-69 53 -69 157q0 80 47 146.5t172 137.5q88 50 184 50q48 0 98 -12.5t102 -38.5q-23 -90 -36 -230h-47q1 45 1 74q0 49 -21 67q-65 54 -166 54
q-102 0 -157.5 -51t-55.5 -134q0 -69 45 -100q34 -23 165 -48q148 -27 192 -59q61 -46 61 -142q0 -132 -136.5 -254t-305.5 -122q-55 0 -108.5 14t-106.5 41q29 115 44 267zM395 1131h-71l275 261q59 56 78.5 67.5t39.5 11.5q24 0 41 -18t17 -43q0 -20 -11 -34
q-16 -20 -68 -53z" />
    <glyph glyph-name="Tcedilla" unicode="&#x162;" horiz-adv-x="1251" 
d="M272 -7v59q133 8 155 14t38.5 38.5t86.5 465t113 760.5q-325 -2 -368.5 -13.5t-74.5 -147.5q-7 -27 -20 -82h-55q29 242 30 329q302 -7 552 -7q227 0 610 7q-30 -123 -54 -329h-56q7 145 7 163q0 53 -50 65t-347 15q-193 -1111 -193 -1212q0 -39 28 -50.5t172 -15.5
l-8 -59q-123 7 -288 7q-163 0 -278 -7zM614 -121l16 -18q-111 -209 -232 -327q-26 -10 -52 -18l-11 13q107 126 143 314q51 10 136 36z" />
    <glyph glyph-name="tcedilla" unicode="&#x163;" horiz-adv-x="682" 
d="M565 233l24 -38q-267 -222 -357 -222q-71 0 -71 87q0 51 45 254q63 286 96 473l-73 1q-40 0 -99 -1l4 33q100 29 182 72q20 92 55 352q81 25 160 69l23 -18q-21 -78 -97 -418q68 -3 109 -3q67 0 110 13l9 -10q-15 -48 -24 -99q-102 9 -220 9q-114 -543 -114 -626
q0 -51 34 -51q45 0 204 123zM328 -121l17 -18q-111 -209 -233 -327q-25 -10 -51 -18l-12 13q108 126 144 314q50 10 135 36z" />
    <glyph glyph-name="Tcaron" unicode="&#x164;" horiz-adv-x="1251" 
d="M272 -7v59l77 5q74 5 91.5 17.5t26.5 40.5q22 62 96 520q57 360 102 695q-294 -3 -334.5 -8t-58.5 -24q-27 -27 -50 -129l-20 -82h-55l26 224q3 41 4 105q326 -7 552 -7q216 0 610 7q-30 -129 -54 -329h-56l7 161q0 49 -38.5 63.5t-358.5 18.5q-193 -1114 -193 -1210
q0 -39 25 -51t175 -17l-8 -59q-142 7 -287 7q-151 0 -279 -7zM1175 1853l-352 -342h-83l-200 342h69l187 -221l302 221h77z" />
    <glyph glyph-name="tcaron" unicode="&#x165;" horiz-adv-x="774" 
d="M914 1486l22 -20q-102 -165 -262 -313q-30 -10 -63 -19l-16 11q61 71 91.5 124t63.5 180q64 10 164 37zM565 233l24 -38q-266 -222 -357 -222q-70 0 -70 88q0 66 44 253q47 193 97 473l-74 1q-40 0 -99 -1l5 33q99 29 181 72q20 92 55 352q81 25 160 69l23 -18
q-21 -78 -96 -418q97 -3 104 -3q62 0 114 13l9 -10q-14 -48 -23 -99q-103 9 -221 9q-114 -543 -114 -626q0 -50 34 -50q48 0 204 122z" />
    <glyph glyph-name="Uring" unicode="&#x16e;" horiz-adv-x="1593" 
d="M196 1359v57q121 -7 186 -7q76 0 186 7q-65 -289 -148 -806q-37 -233 -37 -296q0 -100 74 -161t211 -61q128 0 257 69t237 205q61 342 129 806q14 94 14 124q0 34 -19.5 44.5t-158.5 18.5v57q111 -7 285 -7q84 0 235 7v-57q-113 -7 -128.5 -14t-26.5 -22t-25 -78
l-60 -351l-78 -468q-44 -269 -44 -317q0 -29 16 -39t94 -15l75 -6l-8 -56q-102 7 -188 7q-88 0 -174 -7v8q28 134 48 253q-165 -155 -298 -218t-256 -63q-171 0 -281 96q-91 78 -91 218q0 47 9 117.5t62 379.5q77 437 77 498q0 39 -20 51.5t-154 25.5zM935 1889
q86 0 147.5 -61t61.5 -147t-60.5 -146.5t-146.5 -60.5t-147.5 61t-61.5 147t60.5 146.5t146.5 60.5zM935 1814q-54 0 -92.5 -38.5t-38.5 -93.5t39 -94t94 -39q54 0 92.5 38.5t38.5 93.5t-39 94t-94 39z" />
    <glyph glyph-name="uring" unicode="&#x16f;" horiz-adv-x="1139" 
d="M88 747l-21 38q258 184 339 184q21 0 33.5 -12.5t12.5 -34.5q0 -33 -67 -297q-94 -373 -94 -465q0 -26 9 -36.5t25 -10.5q41 0 132 77q175 147 261.5 311t127.5 434q91 19 140 34l13 -14q-87 -294 -142 -562q-34 -171 -34 -232q0 -28 8.5 -39.5t22.5 -11.5q31 0 110 66
l53 43l24 -36q-248 -210 -325 -210q-22 0 -36.5 19.5t-14.5 58.5q0 43 16 122l67 285q-152 -235 -337 -384q-123 -99 -190 -99q-37 0 -59 25.5t-22 76.5q0 65 41 237q100 412 100 477q0 20 -8.5 30.5t-22.5 10.5q-31 0 -162 -85zM709 1509q86 0 147.5 -61t61.5 -147
t-60.5 -146.5t-146.5 -60.5t-147.5 61t-61.5 147t60.5 146.5t146.5 60.5zM709 1434q-54 0 -92.5 -38.5t-38.5 -93.5t39 -94t94 -39q54 0 92.5 38.5t38.5 93.5t-39 94t-94 39z" />
    <glyph glyph-name="Udblacute" unicode="&#x170;" horiz-adv-x="1593" 
d="M196 1359v57q121 -7 186 -7q76 0 186 7q-65 -289 -148 -806q-37 -233 -37 -296q0 -100 74 -161t211 -61q128 0 257 69t237 205q61 342 129 806q14 94 14 124q0 34 -19.5 44.5t-158.5 18.5v57q111 -7 285 -7q84 0 235 7v-57q-113 -7 -128.5 -14t-26.5 -22t-25 -78
l-60 -351l-78 -468q-44 -269 -44 -317q0 -29 16 -39t94 -15l75 -6l-8 -56q-102 7 -188 7q-88 0 -174 -7v8q28 134 48 253q-165 -155 -298 -218t-256 -63q-171 0 -281 96q-91 78 -91 218q0 47 9 117.5t62 379.5q77 437 77 498q0 39 -20 51.5t-154 25.5zM782 1498h-73l182 276
q45 67 61.5 80t40.5 13q28 0 46.5 -18t18.5 -43q0 -19 -10 -36t-54 -59zM1067 1498h-75l180 271q41 60 60 75t42 15q27 0 45.5 -17.5t18.5 -41.5q0 -32 -57 -89z" />
    <glyph glyph-name="udblacute" unicode="&#x171;" horiz-adv-x="1139" 
d="M88 747l-21 38q258 184 339 184q21 0 33.5 -12.5t12.5 -34.5q0 -33 -67 -297q-94 -373 -94 -465q0 -26 9 -36.5t25 -10.5q41 0 132 77q175 147 261.5 311t127.5 434q91 19 140 34l13 -14q-87 -294 -142 -562q-34 -171 -34 -232q0 -28 8.5 -39.5t22.5 -11.5q31 0 110 66
l53 43l24 -36q-248 -210 -325 -210q-22 0 -36.5 19.5t-14.5 58.5q0 43 16 122l67 285q-152 -235 -337 -384q-123 -99 -190 -99q-37 0 -59 25.5t-22 76.5q0 65 41 237q100 412 100 477q0 20 -8.5 30.5t-22.5 10.5q-31 0 -162 -85zM554 1118h-73l182 276q45 67 61.5 80
t40.5 13q28 0 46.5 -18t18.5 -43q0 -19 -10 -36t-54 -59zM839 1118h-75l180 271q41 60 60 75t42 15q27 0 45.5 -17.5t18.5 -41.5q0 -32 -57 -89z" />
    <glyph glyph-name="Zacute" unicode="&#x179;" horiz-adv-x="1366" 
d="M59 -7v52l325 402l379 477l316 405q-224 4 -298 4q-292 0 -434 -26q-31 -82 -58 -216h-53l9 89q12 115 15 236q576 -8 697 -8q192 0 359 8v-45l-287 -356l-634 -797l-101 -134q279 -8 457 -8q233 0 378 30q44 116 68 230h64q-29 -168 -50 -343q-96 -5 -144 -5
q-42 0 -294 8l-249 6q-290 0 -465 -9zM702 1511h-71l275 261q59 56 78.5 67.5t39.5 11.5q24 0 41 -18t17 -43q0 -20 -11 -34q-16 -20 -68 -53z" />
    <glyph glyph-name="zacute" unicode="&#x17a;" horiz-adv-x="909" 
d="M182 697h-49q61 175 79 253q35 10 65 14.5t55 4.5q54 0 149 -26q150 -40 223 -40q41 0 71.5 14t64.5 52l20 -14q-7 -31 -12 -61l-669 -781q133 38 200 38q49 0 126 -21q69 -19 104 -19q23 0 45.5 7t45.5 21q21 42 63 145l50 -4q-36 -103 -73 -284q-33 -11 -64.5 -17
t-61.5 -6q-75 0 -177 30q-127 36 -200 36q-53 0 -95 -13t-93 -49l-28 47l706 826q-92 -30 -127 -36.5t-80 -6.5q-46 0 -97 10q-73 14 -112 14q-14 0 -28.5 -2t-28.5 -7q-32 -46 -72 -125zM451 1131h-71l275 261q59 56 78.5 67.5t39.5 11.5q24 0 41 -18t17 -43q0 -20 -11 -34
q-16 -20 -68 -53z" />
    <glyph glyph-name="Zdot" unicode="&#x17b;" horiz-adv-x="1366" 
d="M59 -7v52l325 402l379 477l316 405q-224 4 -298 4q-292 0 -434 -26q-31 -82 -58 -216h-53l9 89q12 115 15 236q576 -8 697 -8q192 0 359 8v-45l-287 -356l-634 -797l-101 -134q279 -8 457 -8q233 0 378 30q44 116 68 230h64q-29 -168 -50 -343q-96 -5 -144 -5
q-42 0 -294 8l-249 6q-290 0 -465 -9zM843 1576q-34 0 -57.5 26.5t-23.5 69.5q0 50 30.5 83.5t70.5 33.5q34 0 56 -25.5t22 -69.5q0 -48 -30.5 -83t-67.5 -35z" />
    <glyph glyph-name="zdot" unicode="&#x17c;" horiz-adv-x="909" 
d="M167 697h-49q61 175 79 253q35 10 65 14.5t55 4.5q54 0 149 -26q150 -40 223 -40q41 0 71.5 14t64.5 52l20 -14q-7 -31 -12 -61l-669 -781q133 38 200 38q49 0 126 -21q69 -19 104 -19q23 0 45.5 7t45.5 21q21 42 63 145l50 -4q-36 -103 -73 -284q-33 -11 -64.5 -17
t-61.5 -6q-75 0 -177 30q-127 36 -200 36q-53 0 -95 -13t-93 -49l-28 47l706 826q-92 -30 -127 -36.5t-80 -6.5q-46 0 -97 10q-73 14 -112 14q-14 0 -28.5 -2t-28.5 -7q-32 -46 -72 -125zM565 1196q-34 0 -57.5 26.5t-23.5 69.5q0 50 30.5 83.5t70.5 33.5q34 0 56 -25.5
t22 -69.5q0 -48 -30.5 -83t-67.5 -35z" />
    <glyph glyph-name="noGamma" unicode="&#xf100;" horiz-adv-x="1271" 
d="M1322 1356l14 -310h-36q-21 142 -109.5 183.5t-214.5 41.5h-403v-1100q-1 -60 44 -96.5t154 -38.5v-36h-605v36q101 0 147.5 33.5t46.5 126.5v970q0 84 -44.5 119t-149.5 35v36h1156z" />
    <glyph glyph-name="noTheta" unicode="&#xf101;" horiz-adv-x="1471" 
d="M1458 681q0 -298 -202 -505t-482 -207q-276 0 -484.5 205t-208.5 505q0 290 201 499t487 209q284 0 486.5 -204.5t202.5 -501.5zM1214 674q0 277 -115 456t-333 179q-204 0 -322.5 -169t-118.5 -459q0 -299 125.5 -467t320.5 -168q198 0 320.5 169.5t122.5 458.5z
M529 916h36q-1 -81 34.5 -118.5t114.5 -37.5h111q78 0 114 37t35 119h36v-480h-36q1 83 -34.5 121t-114.5 38h-111q-78 0 -114 -38t-35 -121h-36v480z" />
    <glyph glyph-name="noPhi" unicode="&#xf102;" horiz-adv-x="1472" 
d="M877 191q12 -155 192 -155v-36h-598v36q175 0 191 155q-265 0 -423 142.5t-158 344.5q0 219 168 353t413 134q-12 155 -191 155v36h598v-36q-179 0 -192 -155q265 0 423.5 -142t158.5 -345q0 -222 -169 -354.5t-413 -132.5zM662 1110q-115 -3 -203 -56.5t-125 -142
t-37 -245.5q0 -405 365 -420v864zM877 1110v-864q140 0 253 92.5t113 351.5q0 405 -366 420z" />
    <glyph glyph-name="noalpha" unicode="&#xf103;" horiz-adv-x="1087" 
d="M774 916h166l-100 -467q-23 -108 -51 -189q20 -169 118 -169q84 0 103 130h36q-11 -118 -55.5 -183.5t-107.5 -65.5q-92 0 -120 215q-106 -215 -339 -215q-165 0 -258.5 127.5t-93.5 354.5q0 231 104 360t251 129q199 0 286 -315zM693 537q-100 348 -248 348
q-84 0 -135.5 -110t-51.5 -332q0 -235 48.5 -321.5t126.5 -86.5q67 0 121.5 71.5t103.5 280.5z" />
    <glyph glyph-name="nodelta" unicode="&#xf104;" horiz-adv-x="948" 
d="M485 854q-57 63 -139 134q-115 100 -140 156t-25 102q0 174 260 174q156 0 259.5 -50t103.5 -123q0 -32 -21.5 -58.5t-57.5 -26.5q-46 0 -108 68q-71 80 -113.5 105t-103.5 25q-79 0 -119.5 -33t-40.5 -76q0 -49 37.5 -96t196.5 -156q162 -111 237 -182t120 -166t45 -204
q0 -189 -130 -332t-302 -143q-156 0 -264.5 113.5t-108.5 308.5q0 190 124 313t290 147zM529 807q-287 -48 -287 -394q0 -184 73.5 -280t164.5 -96q99 0 163 95t64 258q0 119 -34 202.5t-99 159.5q-38 44 -45 55z" />
    <glyph glyph-name="noepsilon" unicode="&#xf105;" horiz-adv-x="876" 
d="M312 486q-197 78 -197 219q0 106 100.5 172t256.5 66q132 0 220 -44t88 -110q0 -35 -26.5 -60.5t-60.5 -25.5q-56 0 -92 75q-50 105 -150 105q-76 0 -128.5 -48.5t-52.5 -143.5q0 -183 188 -183q21 0 47 4q46 7 70 7q61 0 61 -36q0 -39 -61 -39q-22 0 -67 8q-34 5 -53 5
q-198 0 -198 -204q0 -99 53 -159t148 -60q119 0 158 123q21 65 45 90t65 25q33 0 61 -24t28 -65q0 -91 -102 -151t-247 -60q-149 0 -272 76t-123 204q0 156 241 234z" />
    <glyph glyph-name="nosigma" unicode="&#xf106;" horiz-adv-x="1175" 
d="M1142 916v-146h-437q105 -52 197.5 -170.5t92.5 -251.5q0 -170 -135.5 -273t-293.5 -103q-202 0 -348.5 148t-146.5 355q0 145 76 256t177 148t255 37h563zM638 770h-35q-132 0 -201.5 -29t-114 -101t-44.5 -177q0 -175 95.5 -300.5t227.5 -125.5q109 0 182 93t73 237
q0 219 -183 403z" />
    <glyph glyph-name="notau" unicode="&#xf107;" horiz-adv-x="875" 
d="M810 916v-146h-300q-37 -321 -37 -471q0 -83 35.5 -123t87.5 -40q95 0 113 116h36q0 -107 -56 -193.5t-145 -86.5q-178 0 -178 330q0 141 35 468h-88q-81 0 -127 -26.5t-85 -111.5h-36q36 118 79 180.5t85 83t115 20.5h466z" />
    <glyph glyph-name="nophi" unicode="&#xf108;" horiz-adv-x="1124" 
d="M451 943v-36q-205 -55 -205 -412q0 -392 256 -463v584q0 121 14 179.5t66.5 103t126.5 44.5q87 0 168.5 -61t128.5 -164t47 -227q0 -191 -111 -342.5t-337 -172.5v-395h-103v395q-195 18 -313 156t-118 360q0 201 109.5 322.5t270.5 128.5zM605 54q300 47 300 409
q0 161 -64 273t-154 112q-46 0 -64 -42.5t-18 -154.5v-597z" />
    <glyph glyph-name="underscoredbl" unicode="&#x2017;" 
d="M-12 -125h1048v-103h-1048v103zM-12 -328h1048v-103h-1048v103z" />
    <glyph glyph-name="minute" unicode="&#x2032;" horiz-adv-x="682" 
d="M392 831l-2 296q-1 87 -1 96q0 192 125 192q88 0 88 -85q0 -36 -61 -204l-105 -295h-44z" />
    <glyph glyph-name="second" unicode="&#x2033;" 
d="M379 831l-2 296q0 52 1 100.5t10.5 86t24.5 57.5t39 32t51 12q86 0 86 -85q0 -38 -60 -204l-107 -295h-43zM746 831l-4 395q-1 99 35.5 144t94.5 45q84 0 84 -85q0 -61 -54 -206l-109 -293h-47z" />
    <glyph glyph-name="exclamdbl" unicode="&#x203c;" horiz-adv-x="1104" 
d="M586 1436l25 -17q-112 -389 -249 -1011q-29 -15 -60 -34l-15 10q87 536 122 1001q104 26 177 51zM1008 1436l25 -17q-112 -389 -249 -1011q-29 -15 -60 -34l-15 10q87 536 122 1001q104 26 177 51zM270 -27q-42 0 -67.5 28t-25.5 74q0 57 34.5 99.5t86.5 42.5
q44 0 67 -28.5t23 -68.5q0 -57 -31.5 -102t-86.5 -45zM692 -27q-41 0 -67 27.5t-26 74.5q0 57 34.5 99.5t86.5 42.5q41 0 65.5 -27.5t24.5 -69.5q0 -57 -31.5 -102t-86.5 -45z" />
    <glyph glyph-name="nsuperior" unicode="&#x207f;" horiz-adv-x="803" 
d="M195 1234l-19 46q173 117 223 117q43 0 43 -42q0 -25 -38 -175l19 22q65 76 162 135.5t163 59.5q50 0 50 -48q0 -32 -78 -330q-27 -104 -27 -121q0 -13 10 -13q13 0 66 35q25 17 50 31l21 -43q-165 -119 -222 -119q-53 0 -53 52q0 40 55 233q16 57 23 91l18 80q5 19 5 24
q0 31 -11 31q-49 0 -166 -111t-157 -381q-41 -4 -106 -20l-20 19q22 63 64.5 250t42.5 217q0 22 -7 22q-20 0 -111 -62z" />
    <glyph glyph-name="peseta" unicode="&#x20a7;" horiz-adv-x="2187" 
d="M1673 885q121 84 238 84q96 0 200 -51q-24 -86 -36 -230h-47q1 35 3 69q0 43 -13 61.5t-60.5 41.5t-116.5 23q-98 0 -155 -49.5t-57 -134.5q0 -70 39 -97t171 -52q148 -27 200.5 -66t52.5 -134q0 -138 -139.5 -257.5t-302.5 -119.5q-118 0 -215 55q17 64 31 162
q-261 -217 -352 -217q-69 0 -69 92q0 61 44 249q61 259 128 667q-143 -389 -470 -389q-100 0 -182 47v63q83 -34 151 -34q150 0 241.5 115.5t91.5 289.5q0 268 -292 268q-58 0 -162 -17q-200 -1033 -200 -1195q0 -43 29 -53.5t177 -22.5l-7 -60q-208 7 -325 7
q-119 0 -230 -7l7 60q121 5 141 16.5t41.5 101t103 575t81.5 547.5q0 36 -27 49.5t-157 20.5l7 55q177 -9 266 -9q65 0 186 5q112 5 166 5q200 0 286.5 -82t89.5 -257l24 164q81 25 160 69l23 -18q-21 -78 -97 -418q155 -4 231 -4q68 0 102 12zM1558 785q-85 2 -234 2
q-114 -537 -114 -626q0 -50 34 -50q48 0 190 111q35 28 39 30l6 43h52q-1 -71 -1 -91q0 -26 1 -77q97 -78 218 -78q91 0 156 61.5t65 155.5q0 74 -35.5 102t-127.5 43q-172 27 -235.5 71.5t-63.5 157.5q0 75 50 145z" />
    <glyph glyph-name="afii61248" unicode="&#x2105;" horiz-adv-x="1447" 
d="M207 -88q75 107 102 150l785 1254q43 69 82 143q42 -5 72 -5q12 0 37 2q-33 -43 -111 -167l-773 -1232q-65 -104 -85 -145q-39 3 -55 3q-19 0 -54 -3zM656 1236h-55l3 77q0 50 -98 50q-55 0 -91 -23t-72 -115.5t-36 -205.5q0 -124 99 -124q82 0 222 99l17 -42
q-165 -136 -284 -136q-83 0 -127.5 49t-44.5 137q0 95 33.5 186.5t88.5 139.5t130 78t124 30q46 0 112 -29l4 -2q5 -2 5 -9q-23 -71 -30 -160zM801 184q0 195 107 307.5t244 112.5q89 0 138.5 -50t49.5 -141q0 -112 -53 -221t-139 -158.5t-162 -49.5q-185 0 -185 200z
M926 189q0 -146 108 -146q91 0 136 114.5t45 235.5q0 155 -113 155q-90 0 -133 -117.5t-43 -241.5z" />
    <glyph glyph-name="afii61289" unicode="&#x2113;" horiz-adv-x="828" 
d="M24 486l214 160l56 337q42 255 123.5 346t194.5 91q78 0 137.5 -53t59.5 -140q0 -208 -410 -507l-70 -412q-9 -56 -9 -85q0 -76 42 -122.5t104 -46.5q66 0 133.5 64.5t113.5 182.5l40 -13q-121 -311 -336 -311q-100 0 -170.5 71.5t-70.5 192.5q0 48 8 94l43 243
l-176 -128zM412 785q192 153 265.5 253.5t73.5 181.5q0 121 -113 121q-131 0 -170 -230z" />
    <glyph glyph-name="arrowleft" unicode="&#x2190;" horiz-adv-x="2048" 
d="M492 876h76q-81 -170 -195 -309h1595v-101h-1595q102 -102 198 -309h-78q-223 253 -414 341v45q177 71 413 333z" />
    <glyph glyph-name="arrowup" unicode="&#x2191;" 
d="M153 1050q262 236 333 413h46q87 -192 340 -415v-77q-207 96 -309 197v-1597h-101v1597q-139 -114 -309 -195v77z" />
    <glyph glyph-name="arrowright" unicode="&#x2192;" horiz-adv-x="2048" 
d="M1555 876q237 -262 413 -333v-45q-191 -88 -414 -341h-77q95 207 197 309h-1595v101h1595q-114 139 -195 309h76z" />
    <glyph glyph-name="arrowdown" unicode="&#x2193;" 
d="M153 -16v76q170 -81 309 -195v1598h101v-1598q102 102 309 197v-77q-253 -223 -340 -414h-46q-71 176 -333 413z" />
    <glyph glyph-name="arrowboth" unicode="&#x2194;" horiz-adv-x="2048" 
d="M1968 540v-45q-181 -79 -406 -337h-80q69 172 194 311h-1305q125 -139 194 -311h-80q-224 258 -406 337v45q182 79 406 338h80q-69 -172 -194 -311h1305q-125 139 -194 311h80q225 -259 406 -338z" />
    <glyph glyph-name="arrowupdn" unicode="&#x2195;" 
d="M489 1463h45q79 -182 337 -407v-80q-171 69 -311 195v-1306q140 126 311 194v-79q-258 -225 -337 -407h-45q-79 182 -337 407v79q171 -68 311 -194v1306q-140 -126 -311 -195v80q258 225 337 407z" />
    <glyph glyph-name="arrowupdnbse" unicode="&#x21a8;" 
d="M489 1463h45q79 -182 337 -407v-80q-171 69 -311 195v-1306q140 126 311 194v-79q-258 -225 -337 -407h-45q-79 182 -337 407v79q171 -68 311 -194v1306q-140 -126 -311 -195v80q258 225 337 407zM154 -522h717v-98h-717v98z" />
    <glyph glyph-name="orthogonal" unicode="&#x221f;" horiz-adv-x="2005" 
d="M362 1279h100v-1179h1181v-100h-1281v1279z" />
    <glyph glyph-name="intersection" unicode="&#x2229;" horiz-adv-x="1206" 
d="M239 0h-110v621l2 238q1 116 18.5 209t58.5 169t106 135.5t139.5 89.5t149.5 30q118 0 225 -68.5t165 -174t71.5 -224t13.5 -404.5v-621h-110v628q0 243 -10 348.5t-52 190t-127.5 139.5t-175.5 55t-174.5 -55t-126 -137t-52.5 -189.5t-11 -351.5v-628z" />
    <glyph glyph-name="equivalence" unicode="&#x2261;" horiz-adv-x="1241" 
d="M117 1045v139h1007v-139h-1007zM117 635v139h1007v-139h-1007zM117 225v139h1007v-139h-1007z" />
    <glyph glyph-name="H22073" unicode="&#x25a1;" horiz-adv-x="1237" 
d="M146 944h944v-944h-944v944zM222 868v-792h792v792h-792z" />
    <glyph glyph-name="H18543" unicode="&#x25aa;" horiz-adv-x="726" 
d="M594 909v-464h-463v463z" />
    <glyph glyph-name="H18551" unicode="&#x25ab;" horiz-adv-x="726" 
d="M594 909v-464h-463v463zM518 833l-311 -1v-311h311v312z" />
    <glyph glyph-name="H18533" unicode="&#x25cf;" horiz-adv-x="1237" 
d="M619 1018q181 0 310.5 -129t129.5 -311t-129 -311.5t-311 -129.5t-311.5 129.5t-129.5 311.5q0 189 131.5 314.5t309.5 125.5z" />
    <glyph glyph-name="openbullet" unicode="&#x25e6;" horiz-adv-x="726" 
d="M363 928q101 0 176 -72t75 -179q0 -104 -73.5 -177.5t-177.5 -73.5t-177.5 73.5t-73.5 177.5t74 177.5t177 73.5zM363 852q-71 0 -123 -50t-52 -125q0 -73 51.5 -124t123.5 -51t123.5 51t51.5 124q0 74 -52 124.5t-123 50.5z" />
    <glyph glyph-name="commaaccent" unicode="&#xf004;" horiz-adv-x="682" 
d="M404 -121l21 -24q-136 -281 -284 -439q-31 -14 -63 -25l-14 18q131 168 175 421q60 14 165 49z" />
    <glyph glyph-name="Amacron" unicode="&#x100;" horiz-adv-x="1479" 
d="M972 1432l219 -1179q25 -135 36 -159q6 -14 24 -22.5t127 -17.5v-61q-110 7 -253 7q-139 0 -250 -7v61l68 2q68 1 88 14.5t20 44.5q0 30 -15 115l-59 337h-510l-82 -144q-122 -214 -144 -265q-17 -38 -17 -55q0 -20 22.5 -30t156.5 -19v-61q-158 7 -245 7q-96 0 -208 -7
v61q82 4 100 15t96 137l729 1226h97zM858 1232l-344 -586q161 -3 248 -3q80 0 201 3zM1164 1635h-493l20 106h494z" />
    <glyph glyph-name="amacron" unicode="&#x101;" horiz-adv-x="909" 
d="M826 968l23 -15q-98 -340 -152 -603q-31 -152 -31 -199q0 -19 8 -29t22 -10q33 0 149 97l12 -46q-108 -95 -208 -152q-49 -27 -85 -27q-27 0 -40 15.5t-13 50.5q0 82 68 341l-8 1q-142 -206 -302 -333q-108 -86 -158 -86q-30 0 -47 30q-25 46 -25 133q0 148 59.5 353
t121.5 292q47 66 183 141q85 47 177 47q40 0 85.5 -9t96.5 -27zM673 837q-44 17 -83 25t-74 8q-78 0 -141 -27q-18 -9 -46 -66q-55 -114 -99.5 -290t-44.5 -310q0 -36 10.5 -51t25.5 -15q41 0 150.5 105t172.5 217q84 151 129 404zM876 1255h-493l20 106h494z" />
    <glyph glyph-name="Ccircumflex" unicode="&#x108;" horiz-adv-x="1366" 
d="M1300 224q-14 -36 -24 -73q-120 -93 -246.5 -135.5t-280.5 -42.5q-293 0 -454.5 161t-161.5 454q0 369 233 600q250 248 604 248q109 0 212.5 -20.5t200.5 -61.5q-39 -143 -54 -293h-58q-3 51 -3 78l3 87q-99 64 -180.5 87.5t-193.5 23.5q-187 0 -306 -74t-199 -244.5
t-80 -388.5q0 -263 135 -405.5t369 -142.5q111 0 213 32t247 122zM612 1511l352 342h83l200 -342h-68l-188 221l-302 -221h-77z" />
    <glyph glyph-name="ccircumflex" unicode="&#x109;" horiz-adv-x="834" 
d="M776 663h-49q4 78 4 114q0 38 -35 60q-53 33 -137 33q-102 0 -162.5 -46.5t-113.5 -201.5t-53 -325q0 -104 48.5 -159.5t125.5 -55.5q66 0 142 30.5t195 119.5l16 -43q-150 -128 -246 -172t-179 -44q-120 0 -184.5 77.5t-64.5 220.5q0 145 49 294t129.5 226t240.5 146
q74 32 150 32q48 0 83 -10.5t86 -42.5q-32 -117 -45 -253zM281 1131l352 342h83l200 -342h-68l-188 221l-302 -221h-77z" />
    <glyph glyph-name="Cdot" unicode="&#x10a;" horiz-adv-x="1366" 
d="M1300 224q-14 -36 -24 -73q-120 -93 -246.5 -135.5t-280.5 -42.5q-293 0 -454.5 161t-161.5 454q0 369 233 600q250 248 604 248q109 0 212.5 -20.5t200.5 -61.5q-39 -143 -54 -293h-58q-3 51 -3 78l3 87q-99 64 -180.5 87.5t-193.5 23.5q-187 0 -306 -74t-199 -244.5
t-80 -388.5q0 -263 135 -405.5t369 -142.5q111 0 213 32t247 122zM943 1523q-34 0 -57.5 26.5t-23.5 69.5q0 50 30.5 83.5t70.5 33.5q34 0 56 -25.5t22 -69.5q0 -48 -30.5 -83t-67.5 -35z" />
    <glyph glyph-name="cdot" unicode="&#x10b;" horiz-adv-x="834" 
d="M776 663h-49q4 78 4 114q0 38 -35 60q-53 33 -137 33q-102 0 -162.5 -46.5t-113.5 -201.5t-53 -325q0 -104 48.5 -159.5t125.5 -55.5q66 0 142 30.5t195 119.5l16 -43q-150 -128 -246 -172t-179 -44q-120 0 -184.5 77.5t-64.5 220.5q0 145 49 294t129.5 226t240.5 146
q74 32 150 32q48 0 83 -10.5t86 -42.5q-32 -117 -45 -253zM637 1143q-34 0 -57.5 26.5t-23.5 69.5q0 50 30.5 83.5t70.5 33.5q34 0 56 -25.5t22 -69.5q0 -48 -30.5 -83t-67.5 -35z" />
    <glyph glyph-name="Emacron" unicode="&#x112;" horiz-adv-x="1251" 
d="M78 -9l7 49l35 12q37 14 70 28q61 257 158 849q50 306 50 356q0 37 -23.5 49.5t-160.5 22.5l9 58q176 -6 307 -6l449 6q109 0 192 -8q-25 -128 -35 -301h-56q-6 181 -24 200q-25 25 -293 25q-84 0 -181 -4q-53 -267 -99 -552q132 -5 237 -5q122 0 278 16l10 -11
q-20 -46 -39 -100q-142 12 -358 12l-143 -2q-69 -393 -93 -586q166 -17 346 -17q119 0 214 11q32 4 45.5 14t23.5 35q8 18 53 188h60l-19 -113q-18 -99 -29 -217q-78 -10 -159 -10q-53 0 -157 3q-224 7 -348 7q-155 0 -327 -9zM1052 1635h-493l20 106h494z" />
    <glyph glyph-name="emacron" unicode="&#x113;" horiz-adv-x="797" 
d="M683 223l14 -43q-143 -120 -236.5 -163.5t-176.5 -43.5q-117 0 -180.5 68.5t-63.5 197.5q0 135 54 301.5t124 239.5t222 147q85 42 153 42q83 0 130.5 -44.5t47.5 -113.5q0 -271 -560 -383q-20 -119 -20 -177q0 -81 46 -130t116 -49q53 0 125.5 29.5t204.5 121.5z
M220 477q205 38 300 119.5t95 180.5q0 53 -24.5 79.5t-69.5 26.5q-64 0 -123 -37t-96 -111q-49 -97 -82 -258zM808 1255h-493l20 106h494z" />
    <glyph glyph-name="Ebreve" unicode="&#x114;" horiz-adv-x="1251" 
d="M78 -9l7 49l35 12q37 14 70 28q61 257 158 849q50 306 50 356q0 37 -23.5 49.5t-160.5 22.5l9 58q176 -6 307 -6l449 6q109 0 192 -8q-25 -128 -35 -301h-56q-6 181 -24 200q-25 25 -293 25q-84 0 -181 -4q-53 -267 -99 -552q132 -5 237 -5q122 0 278 16l10 -11
q-20 -46 -39 -100q-142 12 -358 12l-143 -2q-69 -393 -93 -586q166 -17 346 -17q119 0 214 11q32 4 45.5 14t23.5 35q8 18 53 188h60l-19 -113q-18 -99 -29 -217q-78 -10 -159 -10q-53 0 -157 3q-224 7 -348 7q-155 0 -327 -9zM514 1844h55q13 -96 59 -144q61 -63 166 -63
q94 0 164 49t119 158h58q-98 -325 -350 -325q-83 0 -146 36t-91.5 95.5t-33.5 193.5z" />
    <glyph glyph-name="ebreve" unicode="&#x115;" horiz-adv-x="797" 
d="M683 223l14 -43q-143 -120 -236.5 -163.5t-176.5 -43.5q-117 0 -180.5 68.5t-63.5 197.5q0 135 54 301.5t124 239.5t222 147q85 42 153 42q83 0 130.5 -44.5t47.5 -113.5q0 -271 -560 -383q-20 -119 -20 -177q0 -81 46 -130t116 -49q53 0 125.5 29.5t204.5 121.5z
M220 477q205 38 300 119.5t95 180.5q0 53 -24.5 79.5t-69.5 26.5q-64 0 -123 -37t-96 -111q-49 -97 -82 -258zM295 1464h55q13 -96 59 -144q61 -63 166 -63q94 0 164 49t119 158h58q-98 -325 -350 -325q-83 0 -146 36t-91.5 95.5t-33.5 193.5z" />
    <glyph glyph-name="Edot" unicode="&#x116;" horiz-adv-x="1251" 
d="M78 -9l7 49l35 12q37 14 70 28q61 257 158 849q50 306 50 356q0 37 -23.5 49.5t-160.5 22.5l9 58q176 -6 307 -6l449 6q109 0 192 -8q-25 -128 -35 -301h-56q-6 181 -24 200q-25 25 -293 25q-84 0 -181 -4q-53 -267 -99 -552q132 -5 237 -5q122 0 278 16l10 -11
q-20 -46 -39 -100q-142 12 -358 12l-143 -2q-69 -393 -93 -586q166 -17 346 -17q119 0 214 11q32 4 45.5 14t23.5 35q8 18 53 188h60l-19 -113q-18 -99 -29 -217q-78 -10 -159 -10q-53 0 -157 3q-224 7 -348 7q-155 0 -327 -9zM810 1523q-34 0 -57.5 26.5t-23.5 69.5
q0 50 30.5 83.5t70.5 33.5q34 0 56 -25.5t22 -69.5q0 -48 -30.5 -83t-67.5 -35z" />
    <glyph glyph-name="edot" unicode="&#x117;" horiz-adv-x="797" 
d="M683 223l14 -43q-143 -120 -236.5 -163.5t-176.5 -43.5q-117 0 -180.5 68.5t-63.5 197.5q0 135 54 301.5t124 239.5t222 147q85 42 153 42q83 0 130.5 -44.5t47.5 -113.5q0 -271 -560 -383q-20 -119 -20 -177q0 -81 46 -130t116 -49q53 0 125.5 29.5t204.5 121.5z
M220 477q205 38 300 119.5t95 180.5q0 53 -24.5 79.5t-69.5 26.5q-64 0 -123 -37t-96 -111q-49 -97 -82 -258zM590 1143q-34 0 -57.5 26.5t-23.5 69.5q0 50 30.5 83.5t70.5 33.5q34 0 56 -25.5t22 -69.5q0 -48 -30.5 -83t-67.5 -35z" />
    <glyph glyph-name="Gcircumflex" unicode="&#x11c;" horiz-adv-x="1479" 
d="M918 503l8 58q179 -6 297 -6q117 0 224 6v-58q-80 -8 -99 -24.5t-35 -88.5q-32 -142 -32 -230q0 -29 7 -71v-17q-88 -7 -150 -24q-129 -38 -227 -60q-80 -15 -174 -15q-313 0 -476 156t-163 439q0 341 213 585q246 283 651 283q119 0 231 -18.5t217 -55.5
q-28 -75 -40 -132t-24 -171h-63l3 71l-3 99q-90 52 -184 75t-211 23q-195 0 -317.5 -75.5t-205.5 -251.5t-83 -396q0 -260 134 -396t385 -136q167 0 320 53q14 62 47 250q5 29 5 46q0 40 -25.5 52.5t-229.5 29.5zM605 1511l352 342h83l200 -342h-68l-188 221l-302 -221h-77z
" />
    <glyph glyph-name="gcircumflex" unicode="&#x11d;" 
d="M999 765l-133 -2q6 -47 6 -68q0 -77 -44 -167t-113 -147t-196 -100q-44 -46 -44 -90q0 -28 18.5 -55t93.5 -87q149 -119 183 -163q54 -68 54 -145q0 -122 -116 -204q-156 -110 -382 -110q-182 0 -272 69.5t-90 172.5q0 108 94.5 209.5t295.5 162.5q-33 34 -33 63
q0 30 17.5 52t119.5 114q-36 -3 -56 -3q-120 0 -189.5 67.5t-69.5 189.5q0 182 133.5 313.5t322.5 131.5q84 0 140 -27t94 -85q82 1 179 12zM720 682q0 86 -21.5 129.5t-62.5 68.5t-101 25q-108 0 -171 -80q-75 -96 -75 -264q0 -113 52 -170t139 -57q67 0 115.5 35
t86.5 125.5t38 187.5zM409 -8q-162 -45 -238 -124.5t-76 -172.5q0 -94 74 -153.5t212 -59.5q141 0 223.5 61t82.5 141q0 40 -21 75q-32 52 -106 115zM317 1131l352 342h83l200 -342h-68l-188 221l-302 -221h-77z" />
    <glyph glyph-name="Gdot" unicode="&#x120;" horiz-adv-x="1479" 
d="M918 503l8 58q179 -6 297 -6q117 0 224 6v-58q-80 -8 -99 -24.5t-35 -88.5q-32 -142 -32 -230q0 -29 7 -71v-17q-88 -7 -150 -24q-129 -38 -227 -60q-80 -15 -174 -15q-313 0 -476 156t-163 439q0 341 213 585q246 283 651 283q119 0 231 -18.5t217 -55.5
q-28 -75 -40 -132t-24 -171h-63l3 71l-3 99q-90 52 -184 75t-211 23q-195 0 -317.5 -75.5t-205.5 -251.5t-83 -396q0 -260 134 -396t385 -136q167 0 320 53q14 62 47 250q5 29 5 46q0 40 -25.5 52.5t-229.5 29.5zM961 1523q-34 0 -57.5 26.5t-23.5 69.5q0 50 30.5 83.5
t70.5 33.5q34 0 56 -25.5t22 -69.5q0 -48 -30.5 -83t-67.5 -35z" />
    <glyph glyph-name="gdot" unicode="&#x121;" 
d="M999 765l-133 -2q6 -47 6 -68q0 -77 -44 -167t-113 -147t-196 -100q-44 -46 -44 -90q0 -28 18.5 -55t93.5 -87q149 -119 183 -163q54 -68 54 -145q0 -122 -116 -204q-156 -110 -382 -110q-182 0 -272 69.5t-90 172.5q0 108 94.5 209.5t295.5 162.5q-33 34 -33 63
q0 30 17.5 52t119.5 114q-36 -3 -56 -3q-120 0 -189.5 67.5t-69.5 189.5q0 182 133.5 313.5t322.5 131.5q84 0 140 -27t94 -85q82 1 179 12zM720 682q0 86 -21.5 129.5t-62.5 68.5t-101 25q-108 0 -171 -80q-75 -96 -75 -264q0 -113 52 -170t139 -57q67 0 115.5 35
t86.5 125.5t38 187.5zM409 -8q-162 -45 -238 -124.5t-76 -172.5q0 -94 74 -153.5t212 -59.5q141 0 223.5 61t82.5 141q0 40 -21 75q-32 52 -106 115zM648 1143q-34 0 -57.5 26.5t-23.5 69.5q0 50 30.5 83.5t70.5 33.5q34 0 56 -25.5t22 -69.5q0 -48 -30.5 -83t-67.5 -35z
" />
    <glyph glyph-name="Gcedilla" unicode="&#x122;" horiz-adv-x="1479" 
d="M918 503l8 58q179 -6 297 -6q117 0 224 6v-58q-80 -8 -99 -24.5t-35 -88.5q-32 -142 -32 -230q0 -29 7 -71v-17q-88 -7 -150 -24q-129 -38 -227 -60q-80 -15 -174 -15q-313 0 -476 156t-163 439q0 341 213 585q246 283 651 283q119 0 231 -18.5t217 -55.5
q-28 -75 -40 -132t-24 -171h-63l3 71l-3 99q-90 52 -184 75t-211 23q-195 0 -317.5 -75.5t-205.5 -251.5t-83 -396q0 -260 134 -396t385 -136q167 0 320 53q14 62 47 250q5 29 5 46q0 40 -25.5 52.5t-229.5 29.5zM715 0l-64 -104q33 6 55 6q69 0 107.5 -37t38.5 -94
q0 -68 -60 -117t-168 -49q-84 0 -189 41l29 61q89 -37 146 -37q53 0 83 26.5t30 64.5q0 33 -26 56t-67 23q-21 0 -51 -11l-17 13l92 158h61z" />
    <glyph glyph-name="gcedilla" unicode="&#x123;" 
d="M998 765l-133 -2q6 -47 6 -68q0 -77 -44 -167t-113 -147t-196 -100q-44 -46 -44 -90q0 -28 18.5 -55t93.5 -87q149 -119 183 -163q54 -68 54 -145q0 -122 -116 -204q-156 -110 -382 -110q-182 0 -272 69.5t-90 172.5q0 108 94.5 209.5t295.5 162.5q-33 34 -33 63
q0 30 17.5 52t119.5 114q-36 -3 -56 -3q-120 0 -189.5 67.5t-69.5 189.5q0 182 133.5 313.5t322.5 131.5q84 0 140 -27t94 -85q82 1 179 12zM719 682q0 86 -21.5 129.5t-62.5 68.5t-101 25q-108 0 -171 -80q-75 -96 -75 -264q0 -113 52 -170t139 -57q67 0 115.5 35
t86.5 125.5t38 187.5zM408 -8q-162 -45 -238 -124.5t-76 -172.5q0 -94 74 -153.5t212 -59.5q141 0 223.5 61t82.5 141q0 40 -21 75q-32 52 -106 115zM508 1081l-17 18q111 209 232 327q26 11 52 18l12 -13q-108 -125 -144 -313q-51 -11 -135 -37z" />
    <glyph glyph-name="Hcircumflex" unicode="&#x124;" horiz-adv-x="1593" 
d="M6 -7l8 56q112 4 129.5 13t30 30t49 218.5t96.5 575t60 404.5q0 44 -22 53q-14 5 -153 17l10 56q148 -7 249 -7q110 0 271 7v-56q-136 -4 -155 -18t-36.5 -89t-82.5 -467q175 -8 326 -8q172 0 433 8q39 218 66 410q11 85 11 107q0 33 -19.5 42.5t-147.5 14.5v56
q161 -7 286 -7q110 0 221 7v-56l-63 -4q-54 -2 -68.5 -10.5t-25.5 -27.5t-27 -106l-73 -412l-66 -378q-43 -253 -43 -307q0 -35 24 -47t166 -19l-8 -56q-173 7 -273 7q-101 0 -279 -7l10 56q138 3 158 18.5t39 99.5q40 184 98 529q-168 4 -340 4q-199 0 -418 -4l-85 -515
q-6 -41 -6 -61q0 -39 20.5 -50.5t155.5 -20.5l-7 -56q-153 7 -244 7q-81 0 -275 -7zM653 1511l352 342h83l200 -342h-68l-188 221l-302 -221h-77z" />
    <glyph glyph-name="hcircumflex" unicode="&#x125;" 
d="M25 -26l-17 17q78 271 205 930q68 349 68 387q0 41 -29 50q-15 5 -142 5l5 43q170 21 336 80l21 -22q-165 -736 -196 -926q195 242 343.5 336.5t238.5 94.5q29 0 46 -18t17 -52q0 -36 -8 -78q-19 -98 -91 -387q-62 -247 -62 -297q0 -35 31 -35q15 0 34 8.5t81 50.5l61 39
l18 -37q-188 -137 -248 -168q-43 -22 -76 -22q-28 0 -46 21.5t-18 58.5q0 42 46 224q110 437 110 507q0 29 -11.5 43t-32.5 14q-59 0 -180 -92q-158 -120 -238 -278t-126 -464q-79 -10 -140 -33zM407 1550l352 342h83l200 -342h-68l-188 221l-302 -221h-77z" />
    <glyph glyph-name="Hbar" unicode="&#x126;" horiz-adv-x="1593" 
d="M349 1072h-189l14 79h187q18 111 18 139q0 48 -17.5 54t-157.5 16l10 56q133 -7 246 -7q108 0 281 7l-7 -56q-141 -2 -161.5 -22t-51.5 -187h757q18 128 18 153q0 29 -16.5 40t-150.5 16l7 56q134 -7 270 -7q128 0 237 7l-7 -56l-63 -4q-71 -3 -88 -27.5t-44 -177.5h164
l-13 -79h-165q-157 -886 -157 -957q0 -38 27.5 -48.5t162.5 -17.5l-8 -56q-165 7 -273 7q-111 0 -279 -7l10 56q145 1 169.5 26.5t125.5 620.5q-146 4 -340 4q-224 0 -418 -4l-67 -398q-24 -140 -24 -179q0 -38 21 -49.5t155 -20.5l-7 -56q-144 7 -244 7q-89 0 -275 -7l8 56
q125 4 146.5 23.5t58 216.5t130.5 783zM507 1072l-47 -286q152 -8 326 -8q184 0 433 8l47 286h-759z" />
    <glyph glyph-name="hbar" unicode="&#x127;" 
d="M281 1309q0 40 -22 47t-149 7l5 43q168 19 336 80l21 -22l-60 -273h322l-11 -70h-327l-73 -340q-30 -136 -47 -243q123 190 303.5 310.5t278.5 120.5q29 0 46 -18t17 -52q0 -36 -8 -78q-19 -98 -91 -387q-62 -247 -62 -297q0 -35 31 -35q15 0 34 8.5t81 50.5l61 39
l18 -37q-188 -137 -248 -168q-43 -22 -76 -22q-28 0 -46 21.5t-18 58.5q0 42 46 224q110 437 110 507q0 29 -11.5 43t-32.5 14q-74 0 -215.5 -129.5t-214 -277t-114.5 -427.5q-85 -10 -140 -34l-17 20q100 348 243 1128h-182l11 70h184q17 95 17 118z" />
    <glyph glyph-name="Itilde" unicode="&#x128;" horiz-adv-x="682" 
d="M6 -7l8 56q121 4 139.5 17t32.5 59q22 72 108.5 594t86.5 578q0 39 -23 48q-15 6 -154 17l10 54q149 -7 250 -7q111 0 272 7v-54q-125 -4 -143.5 -12.5t-30 -28.5t-42.5 -186l-72 -439l-78 -479q-12 -81 -12 -103q0 -34 18 -44q24 -12 158 -21l-7 -56q-153 7 -245 7
q-81 0 -276 -7zM224 1576h-59q28 112 79 159.5t122 47.5q67 0 177 -49q108 -47 150 -47q32 0 55 20.5t41 79.5h57q-24 -102 -78 -155.5t-118 -53.5q-31 0 -62 8.5t-108 41.5q-108 46 -148 46q-38 0 -61 -18.5t-47 -79.5z" />
    <glyph glyph-name="itilde" unicode="&#x129;" horiz-adv-x="569" 
d="M79 744l-20 40q248 185 326 185q24 0 37 -13.5t13 -39.5q0 -63 -46 -236q-118 -441 -118 -535q0 -34 31 -34q36 0 161 90l20 -39q-143 -115 -236 -167q-38 -22 -71 -22q-27 0 -46.5 24t-19.5 69q0 65 53 262q104 386 104 465q0 38 -29 38q-32 0 -159 -87zM127 1196h-59
q28 112 79 159.5t122 47.5q67 0 177 -49q108 -47 150 -47q32 0 55 20.5t41 79.5h57q-24 -102 -78 -155.5t-118 -53.5q-31 0 -62 8.5t-108 41.5q-108 46 -148 46q-38 0 -61 -18.5t-47 -79.5z" />
    <glyph glyph-name="Imacron" unicode="&#x12a;" horiz-adv-x="682" 
d="M6 -7l8 56q121 4 139.5 17t32.5 59q22 72 108.5 594t86.5 578q0 39 -23 48q-15 6 -154 17l10 54q149 -7 250 -7q111 0 272 7v-54q-125 -4 -143.5 -12.5t-30 -28.5t-42.5 -186l-72 -439l-78 -479q-12 -81 -12 -103q0 -34 18 -44q24 -12 158 -21l-7 -56q-153 7 -245 7
q-81 0 -276 -7zM759 1635h-493l20 106h494z" />
    <glyph glyph-name="imacron" unicode="&#x12b;" horiz-adv-x="569" 
d="M79 744l-20 40q248 185 326 185q24 0 37 -13.5t13 -39.5q0 -63 -46 -236q-118 -441 -118 -535q0 -34 31 -34q36 0 161 90l20 -39q-143 -115 -236 -167q-38 -22 -71 -22q-27 0 -46.5 24t-19.5 69q0 65 53 262q104 386 104 465q0 38 -29 38q-32 0 -159 -87zM681 1255h-493
l20 106h494z" />
    <glyph glyph-name="Ibreve" unicode="&#x12c;" horiz-adv-x="682" 
d="M6 -7l8 56q121 4 139.5 17t32.5 59q22 72 108.5 594t86.5 578q0 39 -23 48q-15 6 -154 17l10 54q149 -7 250 -7q111 0 272 7v-54q-125 -4 -143.5 -12.5t-30 -28.5t-42.5 -186l-72 -439l-78 -479q-12 -81 -12 -103q0 -34 18 -44q24 -12 158 -21l-7 -56q-153 7 -245 7
q-81 0 -276 -7zM264 1844h55q13 -96 59 -144q61 -63 166 -63q94 0 164 49t119 158h58q-98 -325 -350 -325q-83 0 -146 36t-91.5 95.5t-33.5 193.5z" />
    <glyph glyph-name="ibreve" unicode="&#x12d;" horiz-adv-x="569" 
d="M79 744l-20 40q248 185 326 185q24 0 37 -13.5t13 -39.5q0 -63 -46 -236q-118 -441 -118 -535q0 -34 31 -34q36 0 161 90l20 -39q-143 -115 -236 -167q-38 -22 -71 -22q-27 0 -46.5 24t-19.5 69q0 65 53 262q104 386 104 465q0 38 -29 38q-32 0 -159 -87zM143 1464h55
q13 -96 59 -144q61 -63 166 -63q94 0 164 49t119 158h58q-98 -325 -350 -325q-83 0 -146 36t-91.5 95.5t-33.5 193.5z" />
    <glyph glyph-name="Iogonek" unicode="&#x12e;" horiz-adv-x="682" 
d="M6 -7l8 56q121 4 139.5 17t32.5 59q22 72 108.5 594t86.5 578q0 39 -23 48q-15 6 -154 17l10 54q149 -7 250 -7q111 0 272 7v-54q-125 -4 -143.5 -12.5t-30 -28.5t-42.5 -186l-72 -439l-78 -479q-12 -81 -12 -103q0 -34 18 -44q24 -12 158 -21l-7 -56q-153 7 -245 7
q-81 0 -276 -7zM283 0q-79 -79 -104 -124.5t-25 -81.5q0 -47 31.5 -78t80.5 -31q48 0 107 47l36 -23q-110 -123 -210 -123q-67 0 -114.5 47t-47.5 113q0 35 12 64q17 38 49 71l139 119h46z" />
    <glyph glyph-name="iogonek" unicode="&#x12f;" horiz-adv-x="569" 
d="M331 1319q0 51 36 90t80 39q35 0 55 -22t20 -63q0 -56 -33.5 -94t-76.5 -38q-35 0 -58 23.5t-23 64.5zM79 744l-20 40q248 185 326 185q24 0 37 -13.5t13 -39.5q0 -63 -46 -236q-118 -441 -118 -535q0 -34 31 -34q36 0 161 90l21 -39q-191 -152 -265 -180
q-111 -113 -111 -188q0 -45 31 -77t81 -32q51 0 107 47l36 -23q-106 -123 -210 -123q-65 0 -113.5 46t-48.5 114q0 42 23 85.5t148 143.5q-27 11 -39.5 31.5t-12.5 59.5q0 65 53 262q104 386 104 465q0 38 -29 38q-32 0 -159 -87z" />
    <glyph glyph-name="Jcircumflex" unicode="&#x134;" horiz-adv-x="682" 
d="M227 1360v56q154 -7 277 -7q132 0 257 7v-56q-113 -10 -130.5 -19.5t-30.5 -31.5t-34 -162l-73 -489l-74 -488q-36 -234 -69 -330q-33 -95 -90 -163q-49 -59 -114 -92q-46 -23 -90 -23q-28 0 -74 19l-7 57q40 -13 64 -13q32 0 58.5 16t46.5 51q32 56 69 253
q21 114 77 474q38 246 69 477q48 355 48 387q0 43 -20.5 55t-159.5 22zM170 1511l352 342h83l200 -342h-68l-188 221l-302 -221h-77z" />
    <glyph glyph-name="jcircumflex" unicode="&#x135;" horiz-adv-x="569" 
d="M0 1131l352 342h83l200 -342h-69l-187 221l-302 -221h-77zM288 801q0 30 -26 30q-42 0 -174 -86l-18 37q168 115 232.5 151t103.5 36q52 0 52 -49q0 -43 -53 -282l-111 -491q-57 -251 -99.5 -387t-93.5 -210.5t-94.5 -98.5t-88.5 -24q-50 0 -100 28q19 83 25 136h15
q32 -73 101 -73q30 0 54.5 18.5t34.5 47t68 309.5l115 581q57 299 57 327z" />
    <glyph glyph-name="Kcedilla" unicode="&#x136;" horiz-adv-x="1366" 
d="M51 -7v60l65 4q49 2 65 12t27 31.5t51 250.5l90 536q59 370 59 395q0 44 -20.5 55.5t-162.5 22.5l7 56q155 -7 285 -7q127 0 252 7v-56q-137 -11 -153.5 -19.5t-29 -30.5t-38.5 -181l-69 -411q146 108 379.5 343t260.5 283q10 18 9 72q107 -7 147 -7q51 0 119 7v-56
q-71 -4 -91.5 -11.5t-60.5 -41.5l-198 -184l-396 -373l516 -623q41 -50 61.5 -59.5t100.5 -14.5v-60q-46 7 -93 7q-90 0 -184 -7q-240 337 -570 699l-86 -536q-4 -25 -4 -38q0 -33 21 -44q15 -8 156 -21v-60q-106 7 -188 7q-152 0 -327 -7zM395 -363l27 56q68 -23 119 -23
q56 0 84.5 28t28.5 63q0 30 -23 53.5t-63 23.5q-34 0 -83 -11l-12 38q90 37 166 37q69 0 106.5 -35.5t37.5 -91.5q0 -74 -62.5 -122.5t-169.5 -48.5q-94 0 -156 33z" />
    <glyph glyph-name="kcedilla" unicode="&#x137;" horiz-adv-x="909" 
d="M112 1362l11 42q186 22 332 82l22 -21l-141 -647l-75 -366q263 320 428 450q86 67 157 67q20 0 56 -6q-19 -65 -34 -143q-42 14 -63 14q-51 0 -127.5 -45t-204.5 -179q147 -418 180 -474q22 -38 52 -38q16 0 32.5 7t96.5 54l20 -42q-206 -144 -244 -144q-34 0 -59 44
q-57 97 -184 486q-86 -94 -107 -129t-38.5 -103.5t-45.5 -255.5q-81 -17 -135 -37l-20 16q92 330 238 1150q28 157 28 171q0 30 -19 39t-156 8zM123 -363l27 56q68 -23 119 -23q56 0 84.5 28t28.5 63q0 30 -23 53.5t-63 23.5q-34 0 -83 -11l-12 38q90 37 166 37
q69 0 106.5 -35.5t37.5 -91.5q0 -74 -62.5 -122.5t-169.5 -48.5q-94 0 -156 33z" />
    <glyph glyph-name="kgreenlandic" unicode="&#x138;" horiz-adv-x="985" 
d="M51 782q256 187 330 187q47 0 47 -54q0 -35 -28 -156q-26 -113 -64 -307q156 191 279.5 316t190 163t113.5 38q22 0 58 -6q-20 -63 -35 -143q-42 14 -61 14q-126 0 -334 -224q150 -416 173.5 -464t58.5 -48q28 0 130 61l20 -42q-206 -144 -245 -144q-19 0 -41.5 20
t-70.5 138.5t-130 371.5q-81 -88 -104 -124t-42 -110.5t-45 -253.5q-85 -17 -136 -37l-19 15q53 190 111 485t58 314q0 40 -31 40q-39 0 -167 -92z" />
    <glyph glyph-name="Lcedilla" unicode="&#x13b;" horiz-adv-x="1139" 
d="M61 -7l7 54l56 21q36 12 47.5 27t36.5 141l70 401q95 579 95 665q0 35 -29 45q-13 4 -148 13v56q168 -7 286 -7q120 0 257 7l-7 -56l-76 -5q-67 -3 -86 -20q-24 -22 -42 -112l-86 -523q-69 -414 -86 -612q140 -8 264 -8q267 0 302.5 24.5t82.5 233.5h61l-17 -112
q-17 -110 -27 -233l-191 -1q-89 0 -259 4q-130 4 -236 4q-139 0 -275 -7zM282 -363l27 56q68 -23 119 -23q56 0 84.5 28t28.5 63q0 30 -23 53.5t-63 23.5q-34 0 -83 -11l-12 38q90 37 166 37q69 0 106.5 -35.5t37.5 -91.5q0 -74 -62.5 -122.5t-169.5 -48.5q-94 0 -156 33z
" />
    <glyph glyph-name="lcedilla" unicode="&#x13c;" horiz-adv-x="569" 
d="M150 1360l6 41q208 30 326 85l29 -16l-120 -579l-20 -97l-106 -513q-19 -103 -19 -139q0 -20 8.5 -30t22.5 -10q43 0 184 116l21 -41q-125 -106 -241 -171q-60 -33 -95 -33q-28 0 -46 20.5t-18 57.5q0 13 5 46l36 176l97 454l21 97q34 162 62 354q13 94 13 133
q0 34 -17 41.5t-149 7.5zM-65 -363l27 56q68 -23 119 -23q56 0 84.5 28t28.5 63q0 30 -23 53.5t-63 23.5q-34 0 -83 -11l-12 38q90 37 166 37q69 0 106.5 -35.5t37.5 -91.5q0 -74 -62.5 -122.5t-169.5 -48.5q-94 0 -156 33z" />
    <glyph glyph-name="Ncedilla" unicode="&#x145;" horiz-adv-x="1593" 
d="M22 -6v57q122 4 141 22.5t69 271.5q64 324 162 910q-41 61 -75.5 78t-154.5 25v58q176 -7 216 -7q58 0 123 7q48 -90 290 -506l415 -701q29 163 145 872q30 183 30 216q0 32 -21.5 43.5t-146.5 17.5v58q150 -7 226 -7q91 0 219 7v-58q-97 -4 -116 -13.5t-32.5 -29.5
t-36.5 -131l-112 -611q-62 -348 -100 -602h-102l-217 385l-474 798q-25 -126 -144 -806q-29 -166 -29 -216q0 -48 35 -64q23 -10 144 -17v-57q-145 6 -215 6q-46 0 -239 -6zM509 -363l27 56q68 -23 119 -23q56 0 84.5 28t28.5 63q0 30 -23 53.5t-63 23.5q-34 0 -83 -11
l-12 38q90 37 166 37q69 0 106.5 -35.5t37.5 -91.5q0 -74 -62.5 -122.5t-169.5 -48.5q-94 0 -156 33z" />
    <glyph glyph-name="ncedilla" unicode="&#x146;" horiz-adv-x="1139" 
d="M67 740l-16 42q162 117 254 165q42 22 75 22q23 0 35.5 -14t12.5 -42q0 -21 -7 -59l-79 -346q87 139 203.5 249.5t222.5 161t166 50.5q27 0 43 -17t16 -48q0 -28 -7 -61q-10 -53 -94 -406q-63 -261 -63 -305q0 -30 31 -30q30 0 115 59l63 42l18 -40q-247 -190 -328 -190
q-28 0 -45 19.5t-17 54.5q0 59 66 312q93 354 93 437q0 21 -10.5 32.5t-28.5 11.5q-59 0 -164 -83q-151 -119 -235 -284.5t-132 -469.5q-55 -7 -142 -30l-16 17q73 244 127 525q41 216 41 275q0 21 -8.5 31.5t-23.5 10.5q-38 0 -166 -92zM232 -363l27 56q68 -23 119 -23
q56 0 84.5 28t28.5 63q0 30 -23 53.5t-63 23.5q-34 0 -83 -11l-12 38q90 37 166 37q69 0 106.5 -35.5t37.5 -91.5q0 -74 -62.5 -122.5t-169.5 -48.5q-94 0 -156 33z" />
    <glyph glyph-name="Eng" unicode="&#x14a;" horiz-adv-x="1575" 
d="M524 1152q227 284 535 284q217 0 330.5 -147t113.5 -393q0 -407 -219 -665t-516 -258q-34 0 -66 6q14 60 26 157l22 11q71 -49 182 -49q105 0 188.5 88t141.5 303.5t58 433.5q0 411 -321 411q-297 0 -497 -326q-144 -859 -144 -888q0 -39 20.5 -50.5t155.5 -20.5l-7 -56
q-144 7 -244 7q-89 0 -275 -7l8 56q118 4 138.5 17.5t40 88t103 583.5t83.5 552q0 45 -18.5 51.5t-156.5 18.5l10 56h362z" />
    <glyph glyph-name="eng" unicode="&#x14b;" horiz-adv-x="1100" 
d="M350 -545q19 83 25 136h15q31 -73 101 -73q48 0 72 38.5t42 140.5q51 292 165 804q55 248 55 296q0 43 -38 43q-70 0 -200 -116t-208 -267.5t-124 -453.5q-48 -5 -142 -30l-16 20q22 59 95 387.5t73 405.5q0 46 -31 46q-39 0 -167 -92l-16 42q257 187 330 187
q47 0 47 -54q0 -30 -86 -407q111 196 295 328.5t298 132.5q58 0 58 -65q0 -38 -67 -323l-132 -563q-65 -276 -121 -394t-112.5 -157.5t-110.5 -39.5q-50 0 -100 28z" />
    <glyph glyph-name="Omacron" unicode="&#x14c;" horiz-adv-x="1593" 
d="M706 -27q-213 0 -328.5 61t-181.5 180t-66 306q0 367 213 641.5t617 274.5q275 0 418 -142t143 -405q0 -254 -114.5 -471t-297.5 -331t-403 -114zM309 542q0 -172 49.5 -270.5t151 -155.5t240.5 -57q302 0 451 259q137 237 137 569q0 167 -50 266.5t-147 153t-240 53.5
q-177 0 -301.5 -84t-207.5 -283t-83 -451zM1216 1635h-493l20 106h494z" />
    <glyph glyph-name="omacron" unicode="&#x14d;" horiz-adv-x="909" 
d="M48 295q0 320 165 497t363 177q131 0 204 -78.5t73 -225.5q0 -185 -80.5 -354t-205 -253.5t-249.5 -84.5q-127 0 -198.5 79t-71.5 243zM205 310q0 -140 49.5 -200.5t139.5 -60.5q133 0 207 149q94 190 94 435q0 144 -50.5 205t-145.5 61q-77 0 -135.5 -51.5
t-108.5 -204.5t-50 -333zM828 1255h-493l20 106h494z" />
    <glyph glyph-name="Obreve" unicode="&#x14e;" horiz-adv-x="1593" 
d="M706 -27q-213 0 -328.5 61t-181.5 180t-66 306q0 367 213 641.5t617 274.5q275 0 418 -142t143 -405q0 -254 -114.5 -471t-297.5 -331t-403 -114zM309 542q0 -172 49.5 -270.5t151 -155.5t240.5 -57q302 0 451 259q137 237 137 569q0 167 -50 266.5t-147 153t-240 53.5
q-177 0 -301.5 -84t-207.5 -283t-83 -451zM703 1844h55q13 -96 59 -144q61 -63 166 -63q94 0 164 49t119 158h58q-98 -325 -350 -325q-83 0 -146 36t-91.5 95.5t-33.5 193.5z" />
    <glyph glyph-name="obreve" unicode="&#x14f;" horiz-adv-x="909" 
d="M48 295q0 320 165 497t363 177q131 0 204 -78.5t73 -225.5q0 -185 -80.5 -354t-205 -253.5t-249.5 -84.5q-127 0 -198.5 79t-71.5 243zM205 310q0 -140 49.5 -200.5t139.5 -60.5q133 0 207 149q94 190 94 435q0 144 -50.5 205t-145.5 61q-77 0 -135.5 -51.5
t-108.5 -204.5t-50 -333zM340 1464h55q13 -96 59 -144q61 -63 166 -63q94 0 164 49t119 158h58q-98 -325 -350 -325q-83 0 -146 36t-91.5 95.5t-33.5 193.5z" />
    <glyph glyph-name="Rcedilla" unicode="&#x156;" horiz-adv-x="1366" 
d="M27 -7v59l63 3q71 3 87.5 16t29.5 63q23 93 114 617q76 443 76 528q0 42 -26.5 57t-162.5 23v58q214 -8 307 -8q74 0 189 6q79 4 129 4q184 0 271 -76t87 -204q0 -85 -50 -174t-136 -148t-238 -94q168 -267 319 -483q104 -148 133 -167q23 -15 90 -21v-59q-90 7 -151 7
q-57 0 -121 -7q-90 166 -233.5 388.5t-254.5 368.5v22q64 -8 92 -8q94 0 187 48.5t141.5 128t48.5 169.5q0 110 -66.5 171.5t-202.5 61.5q-73 0 -168 -19q-65 -333 -157 -893q-43 -260 -43 -315q0 -37 29 -48q16 -6 151 -16l-8 -59q-138 7 -233 7q-100 0 -293 -7zM396 -363
l27 56q68 -23 119 -23q56 0 84.5 28t28.5 63q0 30 -23 53.5t-63 23.5q-34 0 -83 -11l-12 38q90 37 166 37q69 0 106.5 -35.5t37.5 -91.5q0 -74 -62.5 -122.5t-169.5 -48.5q-94 0 -156 33z" />
    <glyph glyph-name="rcedilla" unicode="&#x157;" horiz-adv-x="797" 
d="M97 732l-23 35q174 130 262 176q50 26 83 26q18 0 28 -11.5t10 -35.5q0 -35 -10 -89l-67 -302q159 270 268 377q62 61 114 61q22 0 55 -11q-22 -91 -35 -217l-30 -7q-27 38 -64 38q-41 0 -86 -32q-78 -55 -146.5 -171.5t-104.5 -255.5q-9 -33 -66 -304q-62 -12 -140 -36
l-17 15q75 254 120.5 500t45.5 304q0 40 -26 40q-31 0 -171 -100zM111 -363l27 56q68 -23 119 -23q56 0 84.5 28t28.5 63q0 30 -23 53.5t-63 23.5q-34 0 -83 -11l-12 38q90 37 166 37q69 0 106.5 -35.5t37.5 -91.5q0 -74 -62.5 -122.5t-169.5 -48.5q-94 0 -156 33z" />
    <glyph glyph-name="Scircumflex" unicode="&#x15c;" horiz-adv-x="1139" 
d="M157 365h61q-2 -69 -2 -136l2 -63q68 -50 135.5 -72t144.5 -22q158 0 256.5 94t98.5 235q0 104 -55 153q-56 49 -196 78q-161 34 -225.5 73t-99.5 104.5t-35 156.5q0 200 159 335t395 135q80 0 140.5 -14.5t123.5 -50.5q-38 -130 -51 -271h-60l1 75l-1 77q-53 56 -104 77
t-126 21q-149 0 -237 -86t-88 -225q0 -75 25 -119t78.5 -74t195.5 -62q149 -33 204.5 -66t87 -94t31.5 -143q0 -194 -175 -351t-409 -157q-88 0 -169.5 21.5t-157.5 63.5q33 137 52 307zM399 1511l352 342h83l200 -342h-68l-188 221l-302 -221h-77z" />
    <glyph glyph-name="scircumflex" unicode="&#x15d;" horiz-adv-x="797" 
d="M89 295h52l-1 -94l1 -74q49 -39 103.5 -58.5t113.5 -19.5q96 0 159 62t63 155q0 67 -31 98q-32 31 -132 47q-178 28 -230 67q-69 53 -69 157q0 80 47 146.5t172 137.5q88 50 184 50q48 0 98 -12.5t102 -38.5q-23 -90 -36 -230h-47q1 45 1 74q0 49 -21 67q-65 54 -166 54
q-102 0 -157.5 -51t-55.5 -134q0 -69 45 -100q34 -23 165 -48q148 -27 192 -59q61 -46 61 -142q0 -132 -136.5 -254t-305.5 -122q-55 0 -108.5 14t-106.5 41q29 115 44 267zM175 1131l352 342h83l200 -342h-68l-188 221l-302 -221h-77z" />
    <glyph glyph-name="Tbar" unicode="&#x166;" horiz-adv-x="1251" 
d="M272 -7v59q115 6 156 15.5t61 131.5l83 498h-378l13 79h377l81 554q-294 -3 -334.5 -8t-58.5 -24q-27 -27 -50 -129l-20 -82h-55l26 224q3 41 4 105q326 -7 552 -7q216 0 610 7q-30 -129 -54 -329h-56l7 161q0 49 -38.5 63.5t-358.5 18.5l-93 -554h377l-14 -79h-376
l-60 -374q-27 -164 -27 -205q0 -38 25 -49.5t175 -16.5l-7 -59q-121 7 -288 7q-166 0 -279 -7z" />
    <glyph glyph-name="tbar" unicode="&#x167;" horiz-adv-x="682" 
d="M245 486h-156l11 71h159q20 94 44 230l-74 1q-45 0 -99 -1l5 33q99 29 182 72q19 92 54 352q82 25 161 69l22 -18q-20 -78 -96 -418q68 -3 109 -3q67 0 110 13l9 -10q-15 -48 -24 -99q-103 9 -221 9q-5 -21 -47 -230h235l-11 -71h-238q-53 -254 -53 -325q0 -51 35 -51
q47 0 204 123l23 -38q-266 -222 -355 -222q-72 0 -72 87q0 52 83 426z" />
    <glyph glyph-name="Utilde" unicode="&#x168;" horiz-adv-x="1593" 
d="M196 1359v57q121 -7 186 -7q76 0 186 7q-65 -289 -148 -806q-37 -233 -37 -296q0 -100 74 -161t211 -61q128 0 257 69t237 205q61 342 129 806q14 94 14 124q0 34 -19.5 44.5t-158.5 18.5v57q111 -7 285 -7q84 0 235 7v-57q-113 -7 -128.5 -14t-26.5 -22t-25 -78
l-60 -351l-78 -468q-44 -269 -44 -317q0 -29 16 -39t94 -15l75 -6l-8 -56q-102 7 -188 7q-88 0 -174 -7v8q28 134 48 253q-165 -155 -298 -218t-256 -63q-171 0 -281 96q-91 78 -91 218q0 47 9 117.5t62 379.5q77 437 77 498q0 39 -20 51.5t-154 25.5zM686 1576h-59
q28 112 79 159.5t122 47.5q67 0 177 -49q108 -47 150 -47q32 0 55 20.5t41 79.5h57q-24 -102 -78 -155.5t-118 -53.5q-31 0 -62 8.5t-108 41.5q-108 46 -148 46q-38 0 -61 -18.5t-47 -79.5z" />
    <glyph glyph-name="utilde" unicode="&#x169;" horiz-adv-x="1139" 
d="M88 747l-21 38q258 184 339 184q21 0 33.5 -12.5t12.5 -34.5q0 -33 -67 -297q-94 -373 -94 -465q0 -26 9 -36.5t25 -10.5q41 0 132 77q175 147 261.5 311t127.5 434q91 19 140 34l13 -14q-87 -294 -142 -562q-34 -171 -34 -232q0 -28 8.5 -39.5t22.5 -11.5q31 0 110 66
l53 43l24 -36q-248 -210 -325 -210q-22 0 -36.5 19.5t-14.5 58.5q0 43 16 122l67 285q-152 -235 -337 -384q-123 -99 -190 -99q-37 0 -59 25.5t-22 76.5q0 65 41 237q100 412 100 477q0 20 -8.5 30.5t-22.5 10.5q-31 0 -162 -85zM440 1196h-59q28 112 79 159.5t122 47.5
q67 0 177 -49q108 -47 150 -47q32 0 55 20.5t41 79.5h57q-24 -102 -78 -155.5t-118 -53.5q-31 0 -62 8.5t-108 41.5q-108 46 -148 46q-38 0 -61 -18.5t-47 -79.5z" />
    <glyph glyph-name="Umacron" unicode="&#x16a;" horiz-adv-x="1593" 
d="M196 1359v57q121 -7 186 -7q76 0 186 7q-65 -289 -148 -806q-37 -233 -37 -296q0 -100 74 -161t211 -61q128 0 257 69t237 205q61 342 129 806q14 94 14 124q0 34 -19.5 44.5t-158.5 18.5v57q111 -7 285 -7q84 0 235 7v-57q-113 -7 -128.5 -14t-26.5 -22t-25 -78
l-60 -351l-78 -468q-44 -269 -44 -317q0 -29 16 -39t94 -15l75 -6l-8 -56q-102 7 -188 7q-88 0 -174 -7v8q28 134 48 253q-165 -155 -298 -218t-256 -63q-171 0 -281 96q-91 78 -91 218q0 47 9 117.5t62 379.5q77 437 77 498q0 39 -20 51.5t-154 25.5zM1215 1635h-493
l20 106h494z" />
    <glyph glyph-name="umacron" unicode="&#x16b;" horiz-adv-x="1139" 
d="M88 747l-21 38q258 184 339 184q21 0 33.5 -12.5t12.5 -34.5q0 -33 -67 -297q-94 -373 -94 -465q0 -26 9 -36.5t25 -10.5q41 0 132 77q175 147 261.5 311t127.5 434q91 19 140 34l13 -14q-87 -294 -142 -562q-34 -171 -34 -232q0 -28 8.5 -39.5t22.5 -11.5q31 0 110 66
l53 43l24 -36q-248 -210 -325 -210q-22 0 -36.5 19.5t-14.5 58.5q0 43 16 122l67 285q-152 -235 -337 -384q-123 -99 -190 -99q-37 0 -59 25.5t-22 76.5q0 65 41 237q100 412 100 477q0 20 -8.5 30.5t-22.5 10.5q-31 0 -162 -85zM944 1255h-493l20 106h494z" />
    <glyph glyph-name="Ubreve" unicode="&#x16c;" horiz-adv-x="1593" 
d="M196 1359v57q121 -7 186 -7q76 0 186 7q-65 -289 -148 -806q-37 -233 -37 -296q0 -100 74 -161t211 -61q128 0 257 69t237 205q61 342 129 806q14 94 14 124q0 34 -19.5 44.5t-158.5 18.5v57q111 -7 285 -7q84 0 235 7v-57q-113 -7 -128.5 -14t-26.5 -22t-25 -78
l-60 -351l-78 -468q-44 -269 -44 -317q0 -29 16 -39t94 -15l75 -6l-8 -56q-102 7 -188 7q-88 0 -174 -7v8q28 134 48 253q-165 -155 -298 -218t-256 -63q-171 0 -281 96q-91 78 -91 218q0 47 9 117.5t62 379.5q77 437 77 498q0 39 -20 51.5t-154 25.5zM652 1844h55
q13 -96 59 -144q61 -63 166 -63q94 0 164 49t119 158h58q-98 -325 -350 -325q-83 0 -146 36t-91.5 95.5t-33.5 193.5z" />
    <glyph glyph-name="ubreve" unicode="&#x16d;" horiz-adv-x="1139" 
d="M88 747l-21 38q258 184 339 184q21 0 33.5 -12.5t12.5 -34.5q0 -33 -67 -297q-94 -373 -94 -465q0 -26 9 -36.5t25 -10.5q41 0 132 77q175 147 261.5 311t127.5 434q91 19 140 34l13 -14q-87 -294 -142 -562q-34 -171 -34 -232q0 -28 8.5 -39.5t22.5 -11.5q31 0 110 66
l53 43l24 -36q-248 -210 -325 -210q-22 0 -36.5 19.5t-14.5 58.5q0 43 16 122l67 285q-152 -235 -337 -384q-123 -99 -190 -99q-37 0 -59 25.5t-22 76.5q0 65 41 237q100 412 100 477q0 20 -8.5 30.5t-22.5 10.5q-31 0 -162 -85zM431 1464h55q13 -96 59 -144q61 -63 166 -63
q94 0 164 49t119 158h58q-98 -325 -350 -325q-83 0 -146 36t-91.5 95.5t-33.5 193.5z" />
    <glyph glyph-name="Uogonek" unicode="&#x172;" horiz-adv-x="1593" 
d="M196 1359v57q121 -7 186 -7q76 0 186 7q-65 -289 -148 -806q-37 -233 -37 -296q0 -100 74 -161t211 -61q128 0 257 69t237 205q61 342 129 806q14 94 14 124q0 34 -19.5 44.5t-158.5 18.5v57q111 -7 285 -7q84 0 235 7v-57q-113 -7 -128.5 -14t-26.5 -22t-25 -78
l-60 -351l-78 -468q-44 -269 -44 -317q0 -29 16 -39t94 -15l75 -6l-8 -56q-102 7 -188 7q-88 0 -174 -7v8q28 134 48 253q-165 -155 -298 -218t-256 -63q-171 0 -281 96q-91 78 -91 218q0 47 9 117.5t62 379.5q77 437 77 498q0 39 -20 51.5t-154 25.5zM1230 0
q-79 -79 -104 -124.5t-25 -81.5q0 -47 31.5 -78t80.5 -31q48 0 107 47l36 -23q-110 -123 -210 -123q-67 0 -114.5 47t-47.5 113q0 35 12 64q17 38 49 71l139 119h46z" />
    <glyph glyph-name="uogonek" unicode="&#x173;" horiz-adv-x="1139" 
d="M88 747l-21 38q258 184 339 184q21 0 33.5 -12.5t12.5 -34.5q0 -33 -67 -297q-94 -373 -94 -465q0 -26 9 -36.5t25 -10.5q41 0 132 77q175 147 261.5 311t127.5 434q91 19 140 34l13 -14q-87 -294 -142 -562q-34 -171 -34 -232q0 -28 8.5 -39.5t22.5 -11.5q31 0 110 66
l53 43l24 -36q-248 -210 -325 -210q-22 0 -36.5 19.5t-14.5 58.5q0 43 16 122l67 285q-152 -235 -337 -384q-123 -99 -190 -99q-37 0 -59 25.5t-22 76.5q0 65 41 237q100 412 100 477q0 20 -8.5 30.5t-22.5 10.5q-31 0 -162 -85zM768 0q-79 -79 -104 -124.5t-25 -81.5
q0 -47 31.5 -78t80.5 -31q48 0 107 47l36 -23q-110 -123 -210 -123q-67 0 -114.5 47t-47.5 113q0 35 12 64q17 38 49 71l139 119h46z" />
    <glyph glyph-name="Wcircumflex" unicode="&#x174;" horiz-adv-x="1933" 
d="M45 1359v57q195 -7 258 -7q84 0 238 7v-57l-57 -2q-67 -1 -89 -23t-22 -89q0 -581 11 -982q213 306 446 679q172 274 287 491h38q75 -342 328 -1186q267 604 371 895q42 119 42 155q0 31 -26 45t-128 17v57q139 -7 213 -7q84 0 216 7l-17 -57q-77 -2 -98 -24
q-36 -39 -247 -548l-325 -803h-98q-144 560 -326 1153q-464 -701 -732 -1153h-105q2 89 2 159q0 308 -6 536l-17 544q-4 75 -14.5 92.5t-32.5 29.5t-110 14zM839 1511l352 342h83l200 -342h-68l-188 221l-302 -221h-77z" />
    <glyph glyph-name="wcircumflex" unicode="&#x175;" horiz-adv-x="1479" 
d="M72 700h-45l27 92l44 154q64 12 98 12q27 0 88 -9q77 -11 131 -11q47 0 69 4t60 21l22 -29q-276 -315 -276 -645q0 -112 32 -160t77 -48q32 0 68 23q57 36 124 136.5t116 258.5q27 87 95 427q61 14 149 43l16 -13q-66 -189 -115 -426q-33 -164 -33 -261q0 -94 38 -140.5
t95 -46.5q69 0 128 52q90 80 152.5 240.5t62.5 317.5q0 72 -28 107t-76 35q-26 0 -59 -16l-25 26q64 54 112 119q39 6 64 6q63 0 101 -49t38 -143q0 -179 -101 -384.5t-235 -312.5t-227 -107q-74 0 -124 57.5t-50 159.5q0 59 19 169q-98 -205 -216 -313q-80 -73 -163 -73
q-78 0 -131.5 72t-53.5 208q0 79 28 171.5t77 172.5q37 59 201 255q-90 -14 -162 -14l-54 3l-54 2q-35 0 -49.5 -16.5t-54.5 -126.5zM554 1131l352 342h83l200 -342h-68l-188 221l-302 -221h-77z" />
    <glyph glyph-name="Ycircumflex" unicode="&#x176;" horiz-adv-x="1366" 
d="M381 -7v58q142 0 163.5 15t38.5 98q55 258 55 340q0 121 -100 394t-169 343q-50 51 -114 51q-34 0 -94 -19v50q101 67 157 113q83 -3 128 -35q80 -58 156.5 -238t161.5 -525q88 194 182.5 342t188 248.5t161.5 141.5q52 32 139 52l-11 -149q-115 -22 -199 -97
q-157 -140 -282.5 -358t-156.5 -396q-47 -275 -47 -312q0 -36 18 -44q26 -12 169 -15l-10 -58q-161 7 -286 7q-121 0 -249 -7zM527 1511l352 342h83l200 -342h-68l-188 221l-302 -221h-77z" />
    <glyph glyph-name="ycircumflex" unicode="&#x177;" 
d="M48 735l-28 36q154 128 230 172q42 24 77 24q30 0 48 -24t18 -78q0 -65 -18 -298q-21 -261 -21 -351q0 -53 11.5 -71t33.5 -18q90 0 249 251q126 199 197 555q91 18 152 36l22 -19q-49 -115 -130 -379l-136 -454q-50 -172 -119 -309t-155.5 -226t-159.5 -122t-139 -33
q-81 0 -130.5 44.5t-49.5 119.5l1 31q52 23 105 69l18 -10l-1 -45q0 -59 38 -96.5t92 -37.5q40 0 72.5 14t73.5 57t89 141t97 259l106 383q-154 -222 -271 -320q-81 -67 -122 -67q-38 0 -64.5 37t-26.5 120q0 52 14 210q19 213 19 345q0 98 -11 123t-30 25q-31 0 -151 -94z
M338 1131l352 342h83l200 -342h-68l-188 221l-302 -221h-77z" />
    <glyph glyph-name="longs" unicode="&#x17f;" horiz-adv-x="569" 
d="M896 1454q-34 -73 -61 -165l-22 -9q-51 76 -143 76q-78 0 -116.5 -45.5t-64.5 -174.5l-118 -568q-73 -350 -133.5 -578t-141.5 -345t-167 -167.5t-149 -50.5q-30 0 -74 15q23 58 50 169l23 5q45 -60 110 -60q101 0 153.5 140.5t172.5 799.5l87 463q40 212 61 251
t125.5 129t166 118.5t109.5 28.5q53 0 132 -32z" />
    <glyph glyph-name="Aringacute" unicode="&#x1fa;" horiz-adv-x="1479" 
d="M972 1432l219 -1179q25 -135 36 -159q6 -14 24 -22.5t127 -17.5v-61q-110 7 -253 7q-139 0 -250 -7v61l68 2q68 1 88 14.5t20 44.5q0 30 -15 115l-59 337h-510l-82 -144q-122 -214 -144 -265q-17 -38 -17 -55q0 -20 22.5 -30t156.5 -19v-61q-158 7 -245 7q-96 0 -208 -7
v61q82 4 100 15t96 137l729 1226h97zM858 1232l-344 -586q161 -3 248 -3q80 0 201 3zM917 1772q86 0 147.5 -61t61.5 -147t-60.5 -146.5t-146.5 -60.5t-147.5 61t-61.5 147t60.5 146.5t146.5 60.5zM917 1697q-54 0 -92.5 -38.5t-38.5 -93.5t39 -94t94 -39q54 0 92.5 38.5
t38.5 93.5t-39 94t-94 39zM810 1792h-71l275 261q59 56 78.5 67.5t39.5 11.5q24 0 41 -18t17 -43q0 -20 -11 -34q-16 -20 -68 -53z" />
    <glyph glyph-name="aringacute" unicode="&#x1fb;" horiz-adv-x="909" 
d="M826 968l23 -15q-98 -340 -152 -603q-31 -152 -31 -199q0 -19 8 -29t22 -10q33 0 149 97l12 -46q-108 -95 -208 -152q-49 -27 -85 -27q-27 0 -40 15.5t-13 50.5q0 82 68 341l-8 1q-142 -206 -302 -333q-108 -86 -158 -86q-30 0 -47 30q-25 46 -25 133q0 148 59.5 353
t121.5 292q47 66 183 141q85 47 177 47q40 0 85.5 -9t96.5 -27zM673 837q-44 17 -83 25t-74 8q-78 0 -141 -27q-18 -9 -46 -66q-55 -114 -99.5 -290t-44.5 -310q0 -36 10.5 -51t25.5 -15q41 0 150.5 105t172.5 217q84 151 129 404zM646 1509q86 0 147.5 -61t61.5 -147
t-60.5 -146.5t-146.5 -60.5t-147.5 61t-61.5 147t60.5 146.5t146.5 60.5zM646 1434q-54 0 -92.5 -38.5t-38.5 -93.5t39 -94t94 -39q54 0 92.5 38.5t38.5 93.5t-39 94t-94 39zM532 1529h-71l275 261q59 56 78.5 67.5t39.5 11.5q24 0 41 -18t17 -43q0 -20 -11 -34
q-16 -20 -68 -53z" />
    <glyph glyph-name="AEacute" unicode="&#x1fc;" horiz-adv-x="1927" 
d="M-12 -7v58q72 5 92.5 16.5t49.5 51.5l241 357l333 493l188 279q28 46 28 62q0 23 -21.5 32.5t-195.5 22.5v55l225 -6q216 -5 342 -5q117 0 288 5l126 3q69 0 173 -7q-24 -116 -38 -304h-54q-6 165 -16 186q-7 15 -31 22q-60 18 -224 18l-201 -4q-40 -173 -106 -555
q144 -5 262 -5q110 0 233 17l9 -12q-14 -31 -39 -97q-113 14 -252 14q-92 0 -227 -3l-68 -410l-28 -182q190 -15 335 -15q156 0 221 17q36 10 49.5 35.5t50.5 195.5h67q-28 -133 -35 -180.5t-16 -154.5q-108 -5 -167 -5q-46 0 -170 5q-101 4 -363 8l-64 1l-196 -9v45
q56 18 110 44q56 249 96 490l-217 3l-236 -3q-194 -310 -243 -405q-20 -39 -20 -57q0 -27 30 -42t146 -17v-58q-147 7 -239 7q-98 0 -228 -7zM1069 1339q-73 -97 -260 -368q-147 -214 -212 -319q145 -5 206 -5q57 0 206 5q83 484 107 687h-47zM1202 1511h-71l275 261
q59 56 78.5 67.5t39.5 11.5q24 0 41 -18t17 -43q0 -20 -11 -34q-16 -20 -68 -53z" />
    <glyph glyph-name="aeacute" unicode="&#x1fd;" horiz-adv-x="1307" 
d="M205 715l-36 9l-13 137q123 78 159 90q54 18 125 18q111 0 183.5 -47.5t106.5 -141.5q116 106 210 147.5t178 41.5q71 0 117.5 -45.5t46.5 -113.5q0 -78 -58.5 -154t-176.5 -127t-326 -65q-24 -122 -24 -206q0 -90 44 -137t118 -47q65 0 137.5 29.5t194.5 120.5l16 -46
q-161 -125 -248.5 -165t-163.5 -40q-95 0 -152 44t-86 145q-120 -112 -196 -150.5t-149 -38.5q-97 0 -149.5 52t-52.5 152q0 178 116 257.5t356 79.5q46 0 111 -6q10 95 10 141q0 104 -62.5 162.5t-177.5 58.5q-22 0 -49.5 -3.5t-60.5 -10.5zM730 511q147 12 230 51
t126 98.5t43 121.5q0 53 -26.5 81t-75.5 28q-105 0 -190 -98.5t-107 -281.5zM587 461l-62 1q-215 0 -293.5 -71t-78.5 -184q0 -67 33 -101.5t97 -34.5q121 0 199 88.5t105 301.5zM704 1131h-71l275 261q59 56 78.5 67.5t39.5 11.5q24 0 41 -18t17 -43q0 -20 -11 -34
q-16 -20 -68 -53z" />
    <glyph glyph-name="Oslashacute" unicode="&#x1fe;" horiz-adv-x="1593" 
d="M217 179q-87 127 -87 345q0 264 112 480.5t292 324t422 107.5q241 0 381 -106l166 172l64 -61l-167 -171q121 -138 121 -382q0 -257 -117 -475.5t-299.5 -329t-430.5 -110.5q-140 0 -234 34t-168 106l-163 -167l-62 57zM343 308l895 921q-112 131 -338 131
q-176 0 -300.5 -84.5t-199.5 -262.5q-91 -219 -91 -473q0 -139 34 -232zM1287 1154l-903 -926q56 -79 150.5 -124t215.5 -45q301 0 450 258q138 238 138 566q0 171 -51 271zM884 1511h-71l275 261q59 56 78.5 67.5t39.5 11.5q24 0 41 -18t17 -43q0 -20 -11 -34
q-16 -20 -68 -53z" />
    <glyph glyph-name="oslashacute" unicode="&#x1ff;" horiz-adv-x="909" 
d="M-42 -32l121 147q-30 81 -30 182q0 202 71.5 352.5t198 235t257.5 84.5q94 0 176 -53l107 131l57 -46l-114 -136q50 -87 50 -215t-48.5 -262.5t-124 -227t-176.5 -140t-187 -47.5q-110 0 -195 79l-107 -128zM659 817q-59 82 -157 82q-136 0 -211 -165q-85 -189 -85 -429
v-46zM223 166q46 -117 168 -117q139 0 220.5 174.5t81.5 400.5q0 52 -8 111zM484 1131h-71l275 261q59 56 78.5 67.5t39.5 11.5q24 0 41 -18t17 -43q0 -20 -11 -34q-16 -20 -68 -53z" />
    <glyph glyph-name="tonos" unicode="&#x384;" horiz-adv-x="682" 
d="M430 1075v200q0 133 20.5 165t62.5 32q77 0 77 -70q0 -37 -49 -154l-70 -173h-41z" />
    <glyph glyph-name="dieresistonos" unicode="&#x385;" horiz-adv-x="682" 
d="M424 1075v200q0 133 20.5 165t61.5 32q77 0 77 -70q0 -37 -48 -154l-71 -173h-40zM603 1183q0 48 29.5 82.5t70.5 34.5q35 0 56.5 -27t21.5 -68q0 -47 -30.5 -82.5t-67.5 -35.5q-34 0 -57 27t-23 69zM161 1183q0 48 29.5 82.5t70.5 34.5q35 0 56 -27t21 -68
q0 -47 -30 -82.5t-67 -35.5q-34 0 -57 26t-23 70z" />
    <glyph glyph-name="Alphatonos" unicode="&#x386;" horiz-adv-x="1479" 
d="M972 1432l219 -1179q25 -135 36 -159q6 -14 24 -22.5t127 -17.5v-61q-110 7 -253 7q-139 0 -250 -7v61l68 2q68 1 88 14.5t20 44.5q0 30 -15 115l-59 337h-510l-82 -144q-122 -214 -144 -265q-17 -38 -17 -55q0 -20 22.5 -30t156.5 -19v-61q-158 7 -245 7q-96 0 -208 -7
v61q82 4 100 15t96 137l729 1226h97zM858 1232l-344 -586q161 -3 248 -3q80 0 201 3zM346 1038v200q0 133 20.5 165t62.5 32q77 0 77 -70q0 -37 -49 -154l-70 -173h-41z" />
    <glyph glyph-name="anoteleia" unicode="&#x387;" horiz-adv-x="682" 
d="M328 826q0 57 34 100t87 43q40 0 65 -27t25 -73q0 -55 -32 -99.5t-86 -44.5q-41 0 -67 27.5t-26 73.5z" />
    <glyph glyph-name="Epsilontonos" unicode="&#x388;" horiz-adv-x="1387" 
d="M207 -9l7 49l35 12q37 14 70 28q61 257 158 849q50 306 50 356q0 37 -23.5 49.5t-160.5 22.5l9 58q176 -6 307 -6l449 6q109 0 192 -8q-25 -128 -35 -301h-56q-6 181 -24 200q-25 25 -293 25q-84 0 -181 -4q-53 -267 -99 -552q132 -5 237 -5q122 0 278 16l10 -11
q-20 -46 -39 -100q-142 12 -358 12l-143 -2q-69 -393 -93 -586q166 -17 346 -17q119 0 214 11q32 4 45.5 14t23.5 35q8 18 53 188h60l-19 -113q-18 -99 -29 -217q-78 -10 -159 -10q-53 0 -157 3q-224 7 -348 7q-155 0 -327 -9zM109 1038v200q0 133 20.5 165t62.5 32
q77 0 77 -70q0 -37 -49 -154l-70 -173h-41z" />
    <glyph glyph-name="Etatonos" unicode="&#x389;" horiz-adv-x="1737" 
d="M144 -7l8 56q112 4 129.5 13t30 30t49 218.5t96.5 575t60 404.5q0 44 -22 53q-14 5 -153 17l10 56q148 -7 249 -7q110 0 271 7v-56q-136 -4 -155 -18t-36.5 -89t-82.5 -467q175 -8 326 -8q172 0 433 8q39 218 66 410q11 85 11 107q0 33 -19.5 42.5t-147.5 14.5v56
q161 -7 286 -7q110 0 221 7v-56l-63 -4q-54 -2 -68.5 -10.5t-25.5 -27.5t-27 -106l-73 -412l-66 -378q-43 -253 -43 -307q0 -35 24 -47t166 -19l-8 -56q-173 7 -273 7q-101 0 -279 -7l10 56q138 3 158 18.5t39 99.5q40 184 98 529q-168 4 -340 4q-199 0 -418 -4l-85 -515
q-6 -41 -6 -61q0 -39 20.5 -50.5t155.5 -20.5l-7 -56q-153 7 -244 7q-81 0 -275 -7zM108 1038v200q0 133 20.5 165t62.5 32q77 0 77 -70q0 -37 -49 -154l-70 -173h-41z" />
    <glyph glyph-name="Iotatonos" unicode="&#x38a;" horiz-adv-x="821" 
d="M146 -7l8 56q121 4 139.5 17t32.5 59q22 72 108.5 594t86.5 578q0 39 -23 48q-15 6 -154 17l10 54q149 -7 250 -7q111 0 272 7v-54q-125 -4 -143.5 -12.5t-30 -28.5t-42.5 -186l-72 -439l-78 -479q-12 -81 -12 -103q0 -34 18 -44q24 -12 158 -21l-7 -56q-153 7 -245 7
q-81 0 -276 -7zM108 1038v200q0 133 20.5 165t62.5 32q77 0 77 -70q0 -37 -49 -154l-70 -173h-41z" />
    <glyph glyph-name="Omicrontonos" unicode="&#x38c;" horiz-adv-x="1595" 
d="M706 -27q-213 0 -328.5 61t-181.5 180t-66 306q0 367 213 641.5t617 274.5q275 0 418 -142t143 -405q0 -254 -114.5 -471t-297.5 -331t-403 -114zM309 542q0 -172 49.5 -270.5t151 -155.5t240.5 -57q302 0 451 259q137 237 137 569q0 167 -50 266.5t-147 153t-240 53.5
q-177 0 -301.5 -84t-207.5 -283t-83 -451zM109 1038v200q0 133 20.5 165t62.5 32q77 0 77 -70q0 -37 -49 -154l-70 -173h-41z" />
    <glyph glyph-name="Upsilontonos" unicode="&#x38e;" horiz-adv-x="1546" 
d="M564 -7v58q142 0 163.5 15t38.5 98q55 258 55 340q0 121 -100 394t-169 343q-50 51 -114 51q-34 0 -94 -19v50q101 67 157 113q83 -3 128 -35q80 -58 156.5 -238t161.5 -525q88 194 182.5 342t188 248.5t161.5 141.5q52 32 139 52l-11 -149q-115 -22 -199 -97
q-157 -140 -282.5 -358t-156.5 -396q-47 -275 -47 -312q0 -36 18 -44q26 -12 169 -15l-10 -58q-161 7 -286 7q-121 0 -249 -7zM109 1038v200q0 133 20.5 165t62.5 32q77 0 77 -70q0 -37 -49 -154l-70 -173h-41z" />
    <glyph glyph-name="Omegatonos" unicode="&#x38f;" horiz-adv-x="1602" 
d="M133 401h60l-4 -58q-5 -60 -5 -93q0 -54 21.5 -65t317.5 -19l12 9q2 4 31 117q-379 118 -379 445q0 280 221 489.5t562 209.5q270 0 407 -128t137 -345q0 -220 -143 -406t-404 -265l-13 -117l9 -9q309 2 334 25.5t54 133.5l21 76h59q-57 -263 -60 -390l-21 -18
q-125 14 -250 14q-121 0 -297 -14l9 58q9 12 87 301q163 39 249.5 139t132.5 237t46 262q0 180 -113.5 270t-293.5 90q-267 0 -408.5 -204.5t-141.5 -455.5q0 -255 279 -338q-13 -173 -14 -301l-9 -58q-174 14 -294 14q-124 0 -254 -14l-14 18q40 131 69 390zM109 1038v200
q0 133 20.5 165t62.5 32q77 0 77 -70q0 -37 -49 -154l-70 -173h-41z" />
    <glyph glyph-name="iotadieresistonos" unicode="&#x390;" horiz-adv-x="569" 
d="M79 744l-20 40q248 185 326 185q24 0 37 -13.5t13 -39.5q0 -63 -46 -236q-118 -441 -118 -535q0 -34 31 -34q36 0 161 90l20 -39q-143 -115 -236 -167q-38 -22 -71 -22q-27 0 -46.5 24t-19.5 69q0 65 53 262q104 386 104 465q0 38 -29 38q-32 0 -159 -87zM355 1075v200
q0 133 20.5 165t61.5 32q77 0 77 -70q0 -37 -48 -154l-71 -173h-40zM534 1183q0 48 29.5 82.5t70.5 34.5q35 0 56.5 -27t21.5 -68q0 -47 -30.5 -82.5t-67.5 -35.5q-34 0 -57 27t-23 69zM92 1183q0 48 29.5 82.5t70.5 34.5q35 0 56 -27t21 -68q0 -47 -30 -82.5t-67 -35.5
q-34 0 -57 26t-23 70z" />
    <glyph glyph-name="Alpha" unicode="&#x391;" horiz-adv-x="1479" 
d="M972 1432l219 -1179q25 -135 36 -159q6 -14 24 -22.5t127 -17.5v-61q-110 7 -253 7q-139 0 -250 -7v61l68 2q68 1 88 14.5t20 44.5q0 30 -15 115l-59 337h-510l-82 -144q-122 -214 -144 -265q-17 -38 -17 -55q0 -20 22.5 -30t156.5 -19v-61q-158 7 -245 7q-96 0 -208 -7
v61q82 4 100 15t96 137l729 1226h97zM858 1232l-344 -586q161 -3 248 -3q80 0 201 3z" />
    <glyph glyph-name="Beta" unicode="&#x392;" horiz-adv-x="1251" 
d="M63 -4l7 53q80 24 94 38.5t22 53.5q38 177 111 637.5t73 512.5q0 42 -30 54q-19 8 -148 17l8 55q141 -8 203 -8q45 0 210 6l122 2q207 0 296 -70q88 -71 88 -200q0 -123 -88 -228t-280 -173q182 -25 251 -76q90 -66 90 -212q0 -174 -153 -308q-180 -158 -390 -158
q-35 0 -133 4q-94 4 -154 4q-69 0 -199 -4zM452 772q66 -4 98 -4q185 0 290.5 99.5t105.5 259.5q0 102 -65.5 158t-200.5 56q-50 0 -127 -7q-47 -179 -101 -562zM347 92q124 -24 201 -24q195 0 281.5 103.5t86.5 264.5q0 128 -77.5 194t-251.5 66q-60 0 -148 -7
q-44 -256 -92 -597z" />
    <glyph glyph-name="Gamma" unicode="&#x393;" horiz-adv-x="1065" 
d="M45 -7l7 57q121 10 139 24t30.5 74.5t97.5 573.5t85 558q0 42 -26 55.5t-155 23.5l9 57q183 -7 283 -7l484 7h155q-22 -93 -34 -310h-54q-4 114 -18 196q-92 31 -270 31q-63 0 -196 -6q-67 -341 -130 -754t-63 -447q0 -42 29.5 -53t177.5 -23l-7 -57q-151 7 -268 7
q-135 0 -276 -7z" />
    <glyph glyph-name="Delta" unicode="&#x394;" horiz-adv-x="1348" 
d="M1183 -7q-327 7 -678 7q-299 0 -530 -7l7 57q114 143 264 394l373 623q141 235 207 360h57l255 -1174q31 -139 53 -203zM144 97q324 -8 428 -8q88 0 403 8l-209 1060z" />
    <glyph glyph-name="Epsilon" unicode="&#x395;" horiz-adv-x="1251" 
d="M78 -9l7 49l35 12q37 14 70 28q61 257 158 849q50 306 50 356q0 37 -23.5 49.5t-160.5 22.5l9 58q176 -6 307 -6l449 6q109 0 192 -8q-25 -128 -35 -301h-56q-6 181 -24 200q-25 25 -293 25q-84 0 -181 -4q-53 -267 -99 -552q132 -5 237 -5q122 0 278 16l10 -11
q-20 -46 -39 -100q-142 12 -358 12l-143 -2q-69 -393 -93 -586q166 -17 346 -17q119 0 214 11q32 4 45.5 14t23.5 35q8 18 53 188h60l-19 -113q-18 -99 -29 -217q-78 -10 -159 -10q-53 0 -157 3q-224 7 -348 7q-155 0 -327 -9z" />
    <glyph glyph-name="Zeta" unicode="&#x396;" horiz-adv-x="1366" 
d="M59 -7v52l325 402l379 477l316 405q-224 4 -298 4q-292 0 -434 -26q-31 -82 -58 -216h-53l9 89q12 115 15 236q576 -8 697 -8q192 0 359 8v-45l-287 -356l-634 -797l-101 -134q279 -8 457 -8q233 0 378 30q44 116 68 230h64q-29 -168 -50 -343q-96 -5 -144 -5
q-42 0 -294 8l-249 6q-290 0 -465 -9z" />
    <glyph glyph-name="Eta" unicode="&#x397;" horiz-adv-x="1593" 
d="M6 -7l8 56q112 4 129.5 13t30 30t49 218.5t96.5 575t60 404.5q0 44 -22 53q-14 5 -153 17l10 56q148 -7 249 -7q110 0 271 7v-56q-136 -4 -155 -18t-36.5 -89t-82.5 -467q175 -8 326 -8q172 0 433 8q39 218 66 410q11 85 11 107q0 33 -19.5 42.5t-147.5 14.5v56
q161 -7 286 -7q110 0 221 7v-56l-63 -4q-54 -2 -68.5 -10.5t-25.5 -27.5t-27 -106l-73 -412l-66 -378q-43 -253 -43 -307q0 -35 24 -47t166 -19l-8 -56q-173 7 -273 7q-101 0 -279 -7l10 56q138 3 158 18.5t39 99.5q40 184 98 529q-168 4 -340 4q-199 0 -418 -4l-85 -515
q-6 -41 -6 -61q0 -39 20.5 -50.5t155.5 -20.5l-7 -56q-153 7 -244 7q-81 0 -275 -7z" />
    <glyph glyph-name="Theta" unicode="&#x398;" horiz-adv-x="1593" 
d="M130 520q0 379 219 647.5t611 268.5q271 0 416 -140t145 -407q0 -356 -224.5 -636t-624.5 -280q-262 0 -402 142t-140 405zM901 1360q-306 0 -449 -243t-143 -590q0 -243 123.5 -355.5t317.5 -112.5q290 0 439 241t149 588q0 472 -437 472zM541 948h69q-8 -59 -8 -80
q0 -47 29 -61.5t210 -14.5q212 0 238.5 19.5t46.5 136.5h69q-57 -250 -82 -465h-69q7 49 7 77q0 59 -31 75t-202 16q-193 0 -227 -23t-63 -145h-69q52 218 82 465z" />
    <glyph glyph-name="Iota" unicode="&#x399;" horiz-adv-x="682" 
d="M6 -7l8 56q121 4 139.5 17t32.5 59q22 72 108.5 594t86.5 578q0 39 -23 48q-15 6 -154 17l10 54q149 -7 250 -7q111 0 272 7v-54q-125 -4 -143.5 -12.5t-30 -28.5t-42.5 -186l-72 -439l-78 -479q-12 -81 -12 -103q0 -34 18 -44q24 -12 158 -21l-7 -56q-153 7 -245 7
q-81 0 -276 -7z" />
    </font>
</defs>
</svg>
