<?xml version="1.0" standalone="no"?>
<!DOCTYPE svg PUBLIC "-//W3C//DTD SVG 1.1//EN" "http://www.w3.org/Graphics/SVG/1.1/DTD/svg11.dtd" >
<svg>
<metadata>
Created by FontForge 20090622 at Thu Sep 13 19:22:42 2018
 By deploy user
Digitized data copyright The Monotype Corporation 1991-1995. All rights reserved. Book Antiqua&#226;&#132;&#162; is a trademark of The Monotype Corporation which may be registered in certain jurisdictions.
</metadata>
<defs>
<font id="BookAntiqua" horiz-adv-x="1024" >
  <font-face 
    font-family="Book Antiqua"
    font-weight="400"
    font-stretch="normal"
    units-per-em="2048"
    panose-1="2 4 6 2 5 3 5 3 3 4"
    ascent="1638"
    descent="-410"
    x-height="940"
    cap-height="1416"
    bbox="-278 -637 2363 2122"
    underline-thickness="119"
    underline-position="-209"
    unicode-range="U+0020-U+F108"
  />
<missing-glyph horiz-adv-x="1536" 
d="M256 0v1280h1024v-1280h-1024zM288 32h960v1216h-960v-1216z" />
    <glyph glyph-name=".notdef" horiz-adv-x="1536" 
d="M256 0v1280h1024v-1280h-1024zM288 32h960v1216h-960v-1216z" />
    <glyph glyph-name="glyph1" horiz-adv-x="0" 
 />
    <glyph glyph-name="glyph2" horiz-adv-x="512" 
 />
    <glyph glyph-name="space" unicode=" " horiz-adv-x="512" 
 />
    <glyph glyph-name="exclam" unicode="!" horiz-adv-x="569" 
d="M331 1409h72l-2 -138q-2 -29 -11 -108q-40 -345 -64 -744l-56 -52l-20 9q-27 387 -46 549q-28 245 -28 339l1 64q78 37 154 81zM283 207q48 0 82 -34t34 -83q0 -48 -34 -82.5t-82 -34.5q-49 0 -83 34.5t-34 82.5q0 49 34 83t83 34z" />
    <glyph glyph-name="quotedbl" unicode="&#x22;" horiz-adv-x="760" 
d="M182 832l-29 448q-3 41 -3 65q0 44 19.5 67.5t47.5 23.5q29 0 48 -23t19 -69q0 -23 -2 -64l-30 -448q-3 -43 -36 -43q-31 0 -34 43zM509 832l-30 448q-3 41 -3 65q0 44 19.5 67.5t47.5 23.5q29 0 48.5 -23t19.5 -69q0 -23 -3 -64l-29 -448q-3 -43 -36 -43q-32 0 -34 43z
" />
    <glyph glyph-name="numbersign" unicode="#" horiz-adv-x="1241" 
d="M1083 583v-138h-216l-64 -445h-141l65 445h-276l-67 -445h-139l68 445h-209v138h230l43 273h-216v139h235l63 414h137l-62 -414h275l60 414h140l-61 -414h191v-139h-211l-39 -273h194zM789 856h-276l-40 -273h274z" />
    <glyph glyph-name="dollar" unicode="$" 
d="M152 391l4 -186q61 -62 128.5 -91.5t174.5 -37.5v568q-185 22 -253 55.5t-106 102.5t-38 172q0 173 100 285t297 143l-5 136h88q-6 -77 -7 -131q112 -7 188 -26t150 -57l6 -15q-18 -94 -30 -250h-59l-15 177q-54 50 -99.5 68t-140.5 28v-530q218 -30 285 -62t108 -102
t41 -171q0 -113 -52 -213t-139 -159.5t-243 -87.5q-1 -132 4 -210h-89q6 81 9 205q-135 5 -213.5 22t-188.5 63q27 136 32 304h63zM459 1329q-85 -12 -133.5 -46t-77.5 -94.5t-29 -141.5q0 -116 66 -173q48 -43 174 -65v520zM535 81q101 20 153 57.5t83.5 104t31.5 147.5
q0 71 -25 119.5t-72.5 75.5t-170.5 52v-556z" />
    <glyph glyph-name="percent" unicode="%" horiz-adv-x="1720" 
d="M503 805q-121 0 -201.5 86t-80.5 226q0 149 91 247t216 98q122 0 203.5 -85.5t81.5 -225.5q0 -153 -89 -249.5t-221 -96.5zM511 854q71 0 115 66.5t44 226.5q0 143 -39 201.5t-106 58.5q-71 0 -109 -59q-52 -81 -52 -237q0 -140 40.5 -198.5t106.5 -58.5zM402 -68
q34 56 66 118l683 1319q32 60 47 108q42 -6 64 -6l38 1q-38 -60 -63 -107l-698 -1336q-27 -51 -45 -97q-30 3 -45 3t-47 -3zM1188 0q-121 0 -201.5 86t-80.5 226q0 149 91 247t216 98q122 0 203.5 -85.5t81.5 -225.5q0 -153 -89 -249.5t-221 -96.5zM1196 49q71 0 115 66.5
t44 226.5q0 143 -39 201.5t-106 58.5q-71 0 -109 -59q-52 -81 -52 -237q0 -140 40.5 -198.5t106.5 -58.5z" />
    <glyph glyph-name="ampersand" unicode="&#x26;" horiz-adv-x="1593" 
d="M872 726l61 91q103 -6 160 -6l126 3q186 5 309 6q-16 -85 -23 -143q-107 17 -288 23q12 -52 12 -88q0 -81 -38.5 -166t-131.5 -183q102 -75 194 -107.5t167 -32.5q38 0 115 48l15 -48q-126 -90 -177 -137q-40 -13 -82 -13q-153 0 -358 166q-115 -94 -209 -130t-206 -36
q-184 0 -301 116t-117 288q0 146 86 259q59 77 228 181q-58 152 -58 257q0 81 24 141q16 41 62 81q118 101 149 117q45 23 105 23q85 0 133.5 -52t48.5 -140q0 -205 -293 -409q164 -303 414 -525q57 69 78.5 127t21.5 122q0 70 -24 116q-11 21 -32 27q-36 10 -166 9z
M551 904q184 148 184 291q0 63 -31 100.5t-78 37.5q-56 0 -91.5 -44.5t-35.5 -136.5q0 -102 52 -248zM872 191q-237 218 -424 552q-96 -67 -135 -136.5t-39 -154.5q0 -140 97 -250t242 -110q125 0 259 99z" />
    <glyph glyph-name="quotesingle" unicode="'" horiz-adv-x="426" 
d="M177 832l-29 448q-3 41 -3 65q0 44 19.5 67.5t47.5 23.5q29 0 48 -23t19 -69q0 -23 -2 -64l-30 -448q-3 -43 -36 -43q-31 0 -34 43z" />
    <glyph glyph-name="parenleft" unicode="(" horiz-adv-x="682" 
d="M644 -502l-50 -49q-168 167 -256.5 316t-137 329.5t-48.5 380.5q0 231 63 426.5t159 331t227 257.5l43 -55q-116 -138 -182.5 -272.5t-101 -294.5t-34.5 -369q0 -220 32 -389.5t91.5 -299.5t194.5 -312z" />
    <glyph glyph-name="parenright" unicode=")" horiz-adv-x="682" 
d="M39 1440l50 50q167 -166 256 -315.5t137.5 -330t48.5 -380.5q0 -231 -63 -426t-159 -330.5t-227 -258.5l-43 55q116 137 182 272t101 295t35 368q0 221 -32.5 391t-92 300t-193.5 310z" />
    <glyph glyph-name="asterisk" unicode="*" horiz-adv-x="797" 
d="M550 724l-36 -2l-122 274l-148 -250l-37 -6q-43 55 -93 105l4 14q99 73 227 179l-303 50l-4 14q21 67 37 137l33 10q135 -83 252 -147l-28 304q80 0 143 3l17 -30q-40 -133 -69 -282l259 128l16 -5q28 -62 60 -120l-17 -25q-108 -10 -301 -35l203 -201l6 -17z" />
    <glyph glyph-name="plus" unicode="+" horiz-adv-x="1241" 
d="M117 635v139h434v434h139v-434h434v-139h-434v-434h-139v434h-434z" />
    <glyph glyph-name="comma" unicode="," horiz-adv-x="512" 
d="M400 276l28 -30q-57 -139 -123.5 -250.5t-176.5 -249.5l-84 -43l-30 31q87 134 127.5 243t54.5 236q116 28 204 63z" />
    <glyph glyph-name="hyphen" unicode="-" horiz-adv-x="682" 
d="M56 399l-13 14q30 76 51 145q146 -7 243 -7q80 0 294 7l8 -15q-33 -76 -49 -144q-137 9 -252 9q-129 0 -282 -9z" />
    <glyph glyph-name="hyphen" unicode="&#xad;" horiz-adv-x="682" 
d="M56 399l-13 14q30 76 51 145q146 -7 243 -7q80 0 294 7l8 -15q-33 -76 -49 -144q-137 9 -252 9q-129 0 -282 -9z" />
    <glyph glyph-name="period" unicode="." horiz-adv-x="512" 
d="M256 207q48 0 82 -34t34 -83q0 -48 -34 -82.5t-82 -34.5q-49 0 -83 34.5t-34 82.5q0 49 34 83t83 34z" />
    <glyph glyph-name="slash" unicode="/" horiz-adv-x="1241" 
d="M73 -438q38 78 66 147l683 1646q31 75 47 135q65 -8 100 -8l58 1q-38 -75 -62 -133l-699 -1667q-27 -63 -45 -121l-73 4q-25 0 -75 -4z" />
    <glyph glyph-name="zero" unicode="0" 
d="M66 703q0 385 128.5 559t343.5 174q132 0 225 -65.5t144.5 -199t51.5 -388.5q0 -444 -128 -627t-341 -183q-147 0 -245 86.5t-144 244.5q-35 121 -35 399zM240 730q0 -409 85 -561q68 -124 196 -124q122 0 185 114q79 143 79 525q0 406 -84 554q-71 126 -200 126
q-121 0 -191 -124.5t-70 -509.5z" />
    <glyph glyph-name="one" unicode="1" 
d="M170 -7v65l78 3q135 4 161.5 38t25.5 275l7 555q0 279 -6 307q-3 17 -18 17q-10 0 -46 -16q-170 -75 -233 -111q-44 -26 -51 -26q-13 0 -15 17l-7 97q314 94 536 211l29 -13l-4 -113l-10 -577l-7 -394q0 -142 12 -188t38.5 -61.5t127.5 -17.5l91 -3v-65q-251 7 -356 7
q-121 0 -353 -7z" />
    <glyph glyph-name="two" unicode="2" 
d="M41 -7v56l346 360q197 204 263.5 331.5t66.5 236.5q0 135 -77.5 216t-205.5 81q-84 0 -152 -30q-49 -22 -70 -55t-62 -186h-61q31 195 34 282q75 79 162 115t197 36q194 0 308.5 -109.5t114.5 -287.5q0 -154 -103.5 -302t-347.5 -373l-193 -198h365q232 0 348 13l10 -9
q-9 -57 -9 -81q0 -19 9 -90l-10 -6q-198 7 -440 7q-254 0 -493 -7z" />
    <glyph glyph-name="three" unicode="3" 
d="M64 1042l54 245q64 75 151 112t197 37q168 0 266 -87t98 -215q0 -86 -42 -160.5t-171 -181.5q64 0 132 -25q94 -35 142.5 -105.5t48.5 -169.5q0 -201 -173 -360t-413 -159q-62 0 -123 13t-122 39q-20 121 -81 299l55 23q63 -145 101.5 -190t100.5 -71.5t149 -26.5
q150 0 234 92.5t84 259.5q0 141 -71 218.5t-188 77.5q-90 0 -190 -51l-14 10l19 114q53 -6 79 -6q122 0 199.5 76t77.5 199q0 112 -67.5 179.5t-176.5 67.5q-72 0 -138.5 -31.5t-98.5 -71.5q-13 -17 -34 -81l-23 -70h-62z" />
    <glyph glyph-name="four" unicode="4" 
d="M317 -7v59l108 6q89 5 107 17t24 44q12 53 12 198v52q-387 0 -547 -10l-18 60l263 450l318 501q53 15 138 55l28 -12q-7 -117 -8 -405v-513q130 0 224 12q-6 -48 -6 -66q0 -13 6 -82q-107 10 -224 10q0 -244 16 -274.5t105 -36.5l103 -6v-59q-189 7 -324 7q-53 0 -325 -7
zM568 1209q-219 -318 -432 -714q115 -4 206 -4q85 0 226 4v714z" />
    <glyph glyph-name="five" unicode="5" 
d="M24 300l51 29l25 -45q68 -122 90 -143q29 -29 88.5 -49t137.5 -20q167 0 260.5 97.5t93.5 280.5q0 160 -86.5 251.5t-228.5 91.5q-82 0 -147 -32t-115 -100l-43 14q14 174 14 444q0 169 -14 294l17 10q157 -14 322 -14q200 0 384 14l12 -10q-9 -50 -9 -78q0 -26 9 -81
l-12 -11q-114 6 -219 6q-210 0 -401 -6q-9 -76 -16 -416q74 58 141 81.5t153 23.5q186 0 299.5 -111t113.5 -289q0 -223 -178.5 -391t-422.5 -168q-62 0 -107.5 11.5t-106.5 44.5q-17 58 -30 92z" />
    <glyph glyph-name="six" unicode="6" 
d="M792 1441l73 -33v-17q-178 -47 -307 -146t-201 -231t-89 -315l113 83q56 45 102 60.5t113 15.5q170 0 265.5 -101t95.5 -285q0 -208 -136 -353.5t-327 -145.5q-188 0 -307 143t-119 410q0 221 83.5 401t252.5 317t388 197zM518 739q-77 0 -143.5 -38t-96.5 -95
q-22 -42 -22 -159q0 -199 83 -309q70 -93 185 -93q112 0 180 86q79 100 79 275q0 163 -73 248t-192 85z" />
    <glyph glyph-name="seven" unicode="7" 
d="M155 979h-63q7 132 7 242q0 98 -11 183l18 18q148 -11 371 -11q360 0 543 14v-60q-504 -903 -680 -1369q-66 4 -95 4q-43 0 -98 -7l-17 26l467 775q154 259 253 447l-11 9l-63 1q-108 0 -420 -8q-129 -4 -146.5 -14t-26.5 -36.5t-22 -156.5z" />
    <glyph glyph-name="eight" unicode="8" 
d="M328 724v8q-117 68 -165 131q-63 84 -63 197q0 164 115 270t305 106q172 0 270.5 -82t98.5 -207q0 -95 -52.5 -174.5t-196.5 -167.5v-9q185 -87 244.5 -165.5t59.5 -196.5q0 -188 -142 -324.5t-346 -136.5q-180 0 -292.5 105t-112.5 263q0 245 277 383zM564 830
q96 56 138.5 125t42.5 159q0 117 -65.5 183.5t-176.5 66.5t-178 -61.5t-67 -160.5q0 -95 56.5 -160t249.5 -152zM409 695q-108 -64 -152 -128q-63 -92 -63 -215q0 -140 81.5 -223.5t210.5 -83.5q134 0 217 82t83 213q0 120 -74.5 187t-302.5 168z" />
    <glyph glyph-name="nine" unicode="9" 
d="M208 -32l-68 35v20q193 43 322 134.5t205.5 224.5t99.5 330l-103 -82q-64 -55 -114 -74t-117 -19q-167 0 -270.5 109.5t-103.5 303.5q0 217 129 351.5t330 134.5q207 0 326.5 -142.5t119.5 -420.5q0 -197 -60.5 -351t-184.5 -281t-279 -202q-98 -47 -232 -71zM233 1017
q0 -174 77 -268t198 -94q122 0 195 81t73 245q0 179 -79.5 281t-195.5 102q-73 0 -133.5 -39.5t-97.5 -121t-37 -186.5z" />
    <glyph glyph-name="colon" unicode=":" horiz-adv-x="512" 
d="M256 940q48 0 82 -34t34 -83q0 -48 -34 -82t-82 -34q-49 0 -83 34t-34 82q0 49 34 83t83 34zM256 207q48 0 82 -34t34 -83q0 -48 -34 -82.5t-82 -34.5q-49 0 -83 34.5t-34 82.5q0 49 34 83t83 34z" />
    <glyph glyph-name="semicolon" unicode=";" horiz-adv-x="512" 
d="M293 940q49 0 83 -34t34 -83q0 -48 -34 -82t-83 -34q-48 0 -82 34t-34 82q0 49 34 83t82 34zM400 276l28 -30q-56 -138 -123.5 -250.5t-175.5 -249.5l-85 -43l-30 23q98 168 133.5 266t48.5 221q116 28 204 63z" />
    <glyph glyph-name="semicolon" unicode="&#x37e;" horiz-adv-x="512" 
d="M293 940q49 0 83 -34t34 -83q0 -48 -34 -82t-83 -34q-48 0 -82 34t-34 82q0 49 34 83t82 34zM400 276l28 -30q-56 -138 -123.5 -250.5t-175.5 -249.5l-85 -43l-30 23q98 168 133.5 266t48.5 221q116 28 204 63z" />
    <glyph glyph-name="less" unicode="&#x3c;" horiz-adv-x="1241" 
d="M1124 336v-152l-1007 458v125l1007 458v-152l-805 -368z" />
    <glyph glyph-name="equal" unicode="=" horiz-adv-x="1241" 
d="M117 806v139h1007v-139h-1007zM117 464v139h1007v-139h-1007z" />
    <glyph glyph-name="greater" unicode="&#x3e;" horiz-adv-x="1241" 
d="M117 336l805 369l-805 368v152l1007 -458v-125l-1007 -458v152z" />
    <glyph glyph-name="question" unicode="?" horiz-adv-x="909" 
d="M95 1124l78 238q61 37 125.5 55.5t132.5 18.5q176 0 279 -93t103 -238q0 -59 -18.5 -113t-55 -101t-156.5 -158q-101 -93 -123 -120q-37 -44 -52 -82q-11 -26 -11 -54q0 -48 46 -103l-43 -32q-51 38 -71 76t-20 86t23 96t112 151q118 135 149 198t31 121q0 95 -71 160.5
t-181 65.5q-31 0 -63.5 -8.5t-67.5 -25.5q-54 -76 -89 -157l-51 7zM407 207q49 0 83 -34.5t34 -82.5t-34 -82.5t-83 -34.5q-48 0 -82 34.5t-34 82.5t34 82.5t82 34.5z" />
    <glyph glyph-name="at" unicode="@" horiz-adv-x="1530" 
d="M1352 376h102q-64 -116 -122 -176q-103 -107 -234 -167t-283 -60q-207 0 -381 96.5t-269.5 261.5t-95.5 364q0 201 97.5 373.5t264.5 270t364 97.5q250 0 457 -158.5t207 -427.5q0 -155 -64.5 -280.5t-183.5 -205.5t-211 -80q-60 0 -104 41t-55 123q-62 -85 -117 -117.5
t-117 -32.5q-111 0 -191.5 84t-80.5 211q0 120 61 227.5t166 172.5t208 65q70 0 115 -35.5t65 -106.5l33 124h141l-148 -554q-12 -46 -12 -74q0 -27 16 -44.5t42 -17.5q67 0 151.5 64t141 185t56.5 249q0 202 -165 352.5t-406 150.5q-180 0 -326.5 -84t-231.5 -235t-85 -334
q0 -180 84.5 -325t239.5 -230.5t342 -85.5q109 0 201.5 35t175 103.5t152.5 180.5zM905 848q0 72 -33 110.5t-83 38.5q-65 0 -135 -52.5t-124.5 -172t-54.5 -225.5q0 -83 45 -135.5t104 -52.5q57 0 116.5 49.5t112 187t52.5 252.5z" />
    <glyph glyph-name="A" unicode="A" horiz-adv-x="1593" 
d="M1049 473h-578l-68 -161q-67 -160 -67 -196q0 -23 12.5 -33t63.5 -16l96 -11v-63q-96 7 -216 7q-144 0 -253 -7v63l30 1q70 2 90.5 14.5t43.5 61.5q71 144 145 311l275 623q110 248 150 360h68l506 -1177q51 -120 68 -144.5t39 -35t99 -14.5v-63q-130 7 -248 7
q-110 0 -293 -7v63l99 6q53 4 63 11q15 11 15 28q0 18 -30 94zM508 555h504l-252 602z" />
    <glyph glyph-name="B" unicode="B" horiz-adv-x="1251" 
d="M770 798q215 -14 310 -99.5t95 -236.5q0 -191 -159.5 -329.5t-405.5 -138.5l-79 2q-100 4 -169 4q-50 0 -123 -4l-83 -3v45q62 30 73.5 46t13.5 53q7 119 7 271v623q0 250 -18 283q-22 39 -107 39h-68v62h83l92 -3q72 -3 113 -3q63 0 249 5l146 3q172 0 257 -60
q107 -76 107 -215q0 -114 -75.5 -200t-258.5 -144zM438 826q50 -3 92 -3q199 0 285 70.5t86 203.5q0 115 -72 176.5t-230 61.5q-70 0 -152 -13q-9 -122 -9 -369v-127zM438 94q93 -14 154 -14q177 0 274.5 94.5t97.5 256.5q0 108 -43 178.5t-120.5 103t-247.5 32.5
q-51 0 -115 -3v-355l1 -126q3 -68 3 -104q0 -27 -4 -63z" />
    <glyph glyph-name="C" unicode="C" horiz-adv-x="1452" 
d="M1286 1055l-8 178q-89 59 -186.5 88t-203.5 29q-270 0 -432.5 -164t-162.5 -439q0 -193 82.5 -344t234.5 -239t321 -88q134 0 265 31q98 23 197 96l21 -20q-21 -46 -39 -93q-117 -58 -235.5 -87.5t-238.5 -29.5q-246 0 -432.5 95t-286.5 262.5t-100 378.5t101 377.5
t285.5 258t453.5 91.5q141 0 330 -46q94 -22 153 -33q-45 -107 -52 -302h-67z" />
    <glyph glyph-name="D" unicode="D" horiz-adv-x="1585" 
d="M222 93q16 155 16 542v290q0 178 -12 307q-7 75 -18.5 87t-82.5 22l-80 12v63q165 -5 222 -5l269 2l219 4q132 2 271 -26t252 -112.5t172 -212t59 -294.5q0 -338 -227.5 -559t-594.5 -221l-123 3q-181 7 -229 7q-81 0 -206 -12v48zM438 98q135 -20 238 -20q280 0 435 144
q187 175 187 510q0 292 -155.5 445t-455.5 153q-105 0 -249 -21q-12 -96 -12 -218v-654q0 -181 12 -339z" />
    <glyph glyph-name="E" unicode="E" horiz-adv-x="1251" 
d="M454 672v-245l1 -141q0 -132 3 -193q146 -11 313 -11q112 0 188 10q49 6 104 26q25 88 51 220h67q-27 -219 -27 -292l2 -45q-115 -11 -226 -11l-157 3q-260 7 -382 7q-117 0 -311 -7v63h31q87 0 109.5 17t30 80t7.5 278v549q0 135 -6.5 221t-14 102.5t-21.5 25.5t-86 16
l-77 8v62h108l106 -3q89 -3 135 -3l384 5l182 1q93 1 188 -8q-38 -118 -42 -307h-68q0 110 -11 183q-118 44 -290 44q-137 0 -287 -12q1 -94 -2 -188l-2 -154v-203q99 -6 175 -6q238 0 269.5 16.5t31.5 102.5v65h68q-7 -151 -7 -241q0 -95 7 -224h-68v58q0 96 -37.5 117.5
t-264.5 21.5q-84 0 -174 -8z" />
    <glyph glyph-name="F" unicode="F" horiz-adv-x="1139" 
d="M430 673v-344q0 -205 22 -239.5t112 -34.5h71v-62q-190 7 -303 7q-114 0 -295 -7v62h80q86 0 105.5 33t19.5 241v755q0 203 -21.5 236t-111.5 33h-72v63q166 -7 299 -7l575 11q90 0 170 -9q-32 -107 -35 -303h-64q-6 104 -24 186q-137 36 -277 36q-122 0 -239 -13
q-12 -130 -12 -236v-318q60 -3 118 -3q150 0 263 8q38 2 51.5 16.5t22.5 77.5l10 76h63q-9 -183 -9 -235l1 -236h-65v77q0 92 -35 112t-268 20q-64 0 -152 -3z" />
    <glyph glyph-name="G" unicode="G" horiz-adv-x="1563" 
d="M1431 466q-15 -84 -15 -171q0 -92 15 -207q-133 -52 -300.5 -83.5t-320.5 -31.5q-236 0 -414.5 92.5t-274.5 257t-96 373.5q0 216 103 384.5t287 262t466 93.5q115 0 212 -15t253 -60l85 -23q-27 -106 -43 -296h-62v66q0 98 -16 115q-30 32 -159 79.5t-295 47.5
q-294 0 -450 -158q-170 -172 -170 -455q0 -272 153 -458q180 -220 491 -220q162 0 351 71q6 84 6 179q0 123 -4 141.5t-14.5 24t-104.5 13.5l-118 10v64q229 -10 340 -10q96 0 165 10v-50z" />
    <glyph glyph-name="H" unicode="H" horiz-adv-x="1704" 
d="M438 699v-279q0 -72 5 -169q6 -136 10 -150.5t29 -29.5t81 -15h68v-63q-130 7 -251 7q-117 0 -335 -7v63h62q105 0 124 35.5t19 325.5v603q0 262 -19.5 297.5t-111.5 35.5h-74v63q165 -7 307 -7q143 0 279 7v-63h-43q-93 0 -115 -15t-27 -49q-8 -55 -8 -267v-228
q178 -8 453 -8q233 0 379 8v195q0 171 -12 287q-4 41 -27 59t-94 18h-72v63q153 -7 290 -7q148 0 308 7v-63h-76q-77 0 -98.5 -17t-26 -62.5t-4.5 -286.5v-553q0 -307 17.5 -342.5t109.5 -35.5h78v-63q-138 7 -285 7q-168 0 -313 -7v63h69q76 0 98 17.5t27 65.5
q11 103 11 300v260q-141 8 -360 8q-312 0 -472 -8z" />
    <glyph glyph-name="I" unicode="I" horiz-adv-x="690" 
d="M61 56h63q93 0 111.5 45t18.5 431v339q0 400 -16 441t-96 41h-81v63q166 -7 328 -7q135 0 245 7v-63h-77q-71 0 -89 -17t-21 -86q-5 -107 -5 -381v-345q0 -389 17 -428.5t109 -39.5h66v-63q-123 7 -268 7q-169 0 -305 -7v63z" />
    <glyph glyph-name="J" unicode="J" horiz-adv-x="682" 
d="M-23 -396q3 44 3 72l-3 85l21 11q54 -34 110 -34q80 0 112 54.5t32 291.5v862q0 330 -19 368.5t-119 38.5h-67v63q108 -7 274 -7q184 0 312 7v-63l-66 -4q-81 -7 -97.5 -18t-22.5 -37.5t-6 -170.5v-861q0 -214 -28 -307q-43 -148 -159.5 -252t-222.5 -104q-19 0 -54 5z
" />
    <glyph glyph-name="K" unicode="K" horiz-adv-x="1487" 
d="M630 781l682 -635l62 -59q19 -19 38.5 -25t64.5 -6v-63q-82 7 -144 7q-65 0 -142 -7l-689 654q-35 33 -43 33q-21 0 -21 -39v-305q0 -223 9 -244q15 -36 108 -36h75v-63q-163 7 -289 7q-132 0 -284 -7v63h81q80 0 96 29.5t16 254.5v669q0 275 -16 309.5t-96 34.5h-81v63
q183 -7 265 -7q59 0 308 7v-63l-79 -3q-68 -3 -86 -18.5t-22.5 -61.5t-4.5 -265v-270h14q82 67 141 122.5t194 194.5l284 294v70q110 -7 182 -7q75 0 166 7v-63h-54q-72 0 -122 -27.5t-231 -193.5z" />
    <glyph glyph-name="L" unicode="L" horiz-adv-x="1251" 
d="M444 91q98 -5 191 -5q188 0 294 10q74 8 153 29l60 235h65q-25 -189 -39 -353q-90 -15 -246 -15l-476 8q-96 0 -299 -11v53q80 35 94.5 75t14.5 317v550q0 300 -14.5 334.5t-81.5 34.5h-109v63q238 -7 316 -7q104 0 282 7v-63h-124q-53 0 -67 -30.5t-14 -253.5v-637
l3 -282z" />
    <glyph glyph-name="M" unicode="M" horiz-adv-x="1937" 
d="M1513 1200l-297 -618q-167 -348 -274 -608h-40q-37 89 -212 457l-358 741v-773q0 -270 21.5 -306.5t133.5 -36.5h37v-63q-139 7 -226 7q-63 0 -251 -7v63h65q66 0 88 19t27 69q13 140 13 302v566q0 205 -9 271q-4 34 -29.5 52t-101.5 18h-53v63q174 -7 219 -7q57 0 162 7
l279 -593l263 -541l243 501q128 263 292 633q125 -7 176 -7q59 0 213 7v-63h-65q-88 0 -107.5 -30.5t-19.5 -219.5v-731q0 -244 20.5 -280t114.5 -36h57v-63q-139 7 -266 7q-140 0 -293 -7v63h66q79 0 95.5 34.5t16.5 296.5v813z" />
    <glyph glyph-name="N" unicode="N" horiz-adv-x="1702" 
d="M330 1190v-691q0 -236 9 -329q7 -71 23.5 -86.5t95.5 -22.5l64 -5v-63q-109 7 -197 7q-61 0 -280 -7v63h72q65 0 85 18t25 71q11 110 11 299v497q0 140 -3 277q-2 58 -15.5 79.5t-39.5 38.5t-73 17h-62v63q127 -7 194 -7q72 0 158 7l186.5 -235.5l181.5 -230.5l342 -420
q185 -226 267 -314v642q0 403 -14.5 440.5t-115.5 47.5l-75 7v63q161 -7 250 -7q93 0 240 7v-63h-77q-93 0 -107 -62q-9 -41 -9 -438v-451q0 -182 16 -435q-136 21 -158 30.5t-42 31.5q-111 123 -233 273z" />
    <glyph glyph-name="O" unicode="O" horiz-adv-x="1610" 
d="M47 705q0 329 212 530t565 201q346 0 542.5 -186.5t196.5 -495.5q0 -333 -228 -557t-575 -224q-217 0 -374 88t-248 257t-91 387zM250 787q0 -226 77.5 -393.5t207.5 -251t297 -83.5q155 0 271 71t182.5 212t66.5 343q0 212 -73.5 362.5t-201.5 226.5t-303 76
q-160 0 -276 -67t-182 -196.5t-66 -299.5z" />
    <glyph glyph-name="P" unicode="P" horiz-adv-x="1237" 
d="M445 1307q-7 -144 -7 -307v-571q0 -301 18 -337t118 -36h69v-63q-177 7 -279 7q-90 0 -319 -7v63h90q63 0 81 15.5t23 63t11 290.5v534l-3 207q-2 129 -27.5 158t-124.5 29h-50v63q125 -5 317 -5q113 0 251 6q91 4 138 4q242 0 352 -88q109 -88 109 -238
q0 -109 -63 -209.5t-178.5 -161.5t-246.5 -61q-60 0 -150 19l-20 76q88 -23 147 -23q138 0 219 83.5t81 228.5q0 140 -86.5 218.5t-257.5 78.5q-97 0 -212 -37z" />
    <glyph glyph-name="Q" unicode="Q" horiz-adv-x="1610" 
d="M826 -26q115 -30 239 -81q259 -106 374 -106q39 0 118 20v-52q-112 -58 -166 -110q-87 11 -157 29.5t-213 71.5q-236 86 -317 86q-23 0 -48.5 -10t-127.5 -67v66q171 115 245 153q-226 0 -386 89.5t-250 255.5t-90 389q0 326 212 527t565 201q346 0 542.5 -186.5
t196.5 -496.5q0 -238 -115.5 -417.5t-302.5 -275.5q-134 -69 -319 -86zM258 789q0 -225 77 -392t206 -250.5t295 -83.5q154 0 269 71t181 211t66 342q0 212 -73 362t-200 225.5t-301 75.5q-159 0 -274 -67t-180.5 -196t-65.5 -298z" />
    <glyph glyph-name="R" unicode="R" horiz-adv-x="1368" 
d="M789 715q98 -141 243 -328l192 -249q51 -64 68 -73t35 -9h26v-63q-83 7 -145 7q-57 0 -120 -7l-354 478q-99 132 -212 258l10 34q58 -5 86 -5q167 0 261.5 86t94.5 230q0 129 -80 201.5t-231 72.5q-105 0 -211 -39q-12 -159 -12 -340v-483q0 -353 17 -391.5t110 -38.5h78
v-63q-166 7 -275 7q-86 0 -311 -7v63h75q86 0 102 37.5t16 394.5v481q0 310 -18.5 347t-120.5 37h-54v64q186 -8 284 -8q66 0 190 5q144 5 207 5q173 0 262.5 -36.5t136 -105.5t46.5 -165q0 -141 -101.5 -249t-294.5 -148z" />
    <glyph glyph-name="S" unicode="S" horiz-adv-x="1075" 
d="M960 1349q-28 -104 -30 -276h-69v80q0 78 -21 106t-109.5 59.5t-186.5 31.5q-160 0 -251.5 -81t-91.5 -208q0 -80 37.5 -137.5t101 -83t269.5 -44.5q206 -20 278.5 -53t116 -106t43.5 -173q0 -201 -168 -346t-448 -145q-96 0 -193.5 19.5t-196.5 57.5q18 120 17 308h68
v-50q0 -97 10 -120t47 -49q55 -39 131 -59.5t164 -20.5q189 0 292 89t103 226q0 80 -35 135.5t-98 82.5t-233 41q-226 18 -307 54t-127 113.5t-46 192.5q0 195 141 319t390 124q100 0 200.5 -21.5t201.5 -65.5z" />
    <glyph glyph-name="T" unicode="T" horiz-adv-x="1255" 
d="M734 1325q-11 -150 -11 -316v-570q0 -318 16 -350.5t114 -32.5h75v-63q-177 7 -300 7q-124 0 -298 -7v63h84q66 0 86 17.5t25 68.5q10 117 10 302v571q0 169 -7 310h-102q-247 0 -272 -11.5t-33 -89.5l-14 -134h-63l2 119q0 72 -12 207q540 -7 635 -7l553 7
q-19 -169 -22 -326h-62l-10 131q-6 68 -17 80.5t-49 15.5q-110 8 -250 8h-78z" />
    <glyph glyph-name="U" unicode="U" horiz-adv-x="1593" 
d="M39 1353v63q205 -7 298 -7q98 0 288 7v-63h-73q-94 0 -113 -36t-19 -326v-392q0 -215 23.5 -299t121.5 -142t262 -58q169 0 285 62q80 43 117 133.5t37 343.5v377q0 262 -23.5 299.5t-129.5 37.5h-52v63q207 -7 263 -7q91 0 226 7v-63h-68q-79 0 -101.5 -42.5
t-22.5 -298.5v-375q0 -257 -25.5 -346.5t-93 -161.5t-180 -114t-264.5 -42q-157 0 -275 37.5t-177.5 92.5t-86 134.5t-26.5 270.5l2 190v305q0 282 -16.5 316t-105.5 34h-71z" />
    <glyph glyph-name="V" unicode="V" horiz-adv-x="1479" 
d="M692 -23q-45 134 -92 251l-358 895q-77 194 -90 212t-86 18h-41v63q157 -7 267 -7q116 0 278 7v-72h-99q-51 0 -66 -9.5t-15 -29.5q0 -13 5 -29l130 -343l270 -689l263 657q133 335 133 392q0 46 -55 48l-41 3l-86 9v63q133 -7 219 -7q90 0 226 7v-63h-40
q-48 0 -69.5 -22.5t-77.5 -159.5l-337 -823q-95 -232 -135 -371h-103z" />
    <glyph glyph-name="W" unicode="W" horiz-adv-x="2048" 
d="M585 297l232 572l214 560h63q59 -185 159 -468l241 -678l183 633q26 91 90 350q6 23 6 38q0 18 -15 27t-74 15l-91 7v63q141 -7 221 -7q86 0 213 7v-63h-52q-34 0 -51 -16q-32 -33 -152 -420q-159 -516 -264 -940h-104q-18 67 -30 100q-44 129 -204 568l-164 450
l-187 -453q-168 -406 -249 -665h-101l-53 246q-22 109 -51 232l-174 748q-25 110 -45 130t-83 20h-42v63q143 -7 247 -7q101 0 273 7v-63h-63q-68 0 -88.5 -12t-20.5 -39q0 -16 5 -37l69 -332z" />
    <glyph glyph-name="X" unicode="X" horiz-adv-x="1366" 
d="M604 706l-150 250q-142 238 -230 323q-49 46 -103 46q-19 0 -63 -5v63l294 47q49 -40 83.5 -84.5t121.5 -191.5l170 -288l374 549h208v-62h-39q-41 0 -63.5 -13.5t-135.5 -158.5q-214 -274 -298 -395l328 -528q100 -161 123.5 -181.5t67.5 -20.5h42v-63q-116 7 -177 7
t-124 -7l-375 631q-82 -106 -223 -324.5t-188 -306.5q-48 7 -94 7q-55 0 -120 -7v63h45q41 0 67 24t219 293z" />
    <glyph glyph-name="Y" unicode="Y" horiz-adv-x="1366" 
d="M743 697q61 92 193 320l229 398h155v-25q-122 -137 -299 -413t-212 -370q-12 -33 -12 -169q0 -181 9 -287q6 -57 20.5 -68.5t102.5 -19.5l76 -8v-62q-174 7 -272 7l-322 -7v62h85q85 0 102 35t17 316q0 82 -5 179q-129 237 -238 410t-184 253q-41 44 -71.5 58t-102.5 14
v62l161 32l79 16q46 -17 74 -43q50 -47 153 -215q79 -129 262 -475z" />
    <glyph glyph-name="Z" unicode="Z" horiz-adv-x="1366" 
d="M315 86h435q271 0 355 7q48 5 69.5 29t31.5 116l12 114h74q-20 -157 -20 -304v-55q-120 -3 -186 -3q-55 0 -240 5q-197 5 -368 5q-280 0 -433 -7v59q107 119 254 315l453 600l262 354q-145 6 -251 6q-180 0 -386 -14q-90 -7 -106 -22t-22 -90l-10 -118h-65q6 109 6 169
q0 59 -6 165l124 1l783 -9q127 0 211 8v-61q-101 -114 -160 -189l-319 -421z" />
    <glyph glyph-name="bracketleft" unicode="[" horiz-adv-x="682" 
d="M198 -438l-12 13q4 80 8 339l7 564q0 768 -15 999l12 13q105 -8 179 -8q114 0 178 6l24 1q21 0 25.5 -6t4.5 -42q0 -23 -7 -27q-5 -4 -63 -6q-116 -5 -134.5 -17t-25.5 -34t-12 -303t-5 -529q0 -255 5 -532t12 -298.5t28.5 -35t131.5 -15.5q55 -1 62.5 -5.5t7.5 -27.5
v-23q0 -24 -24 -24l-30 1q-89 5 -172 5q-88 0 -185 -8z" />
    <glyph glyph-name="backslash" unicode="\" horiz-adv-x="1241" 
d="M1027 -438l-78 4q-14 1 -71 -4q-20 63 -44 121l-699 1667q-28 68 -62 133h82q14 0 75 7q19 -67 47 -135l684 -1646q34 -81 66 -147z" />
    <glyph glyph-name="bracketright" unicode="]" horiz-adv-x="682" 
d="M484 1490l12 -13q-5 -112 -7 -178q-9 -473 -9 -725l11 -845q1 -74 5 -154l-12 -13q-97 8 -173 8q-127 0 -184 -5l-24 -1q-21 0 -25.5 5.5t-4.5 41.5q0 22 5.5 26t92.5 8q91 5 108.5 17t24 36t11.5 302.5t5 531.5q0 263 -5 533.5t-12 292t-28 35t-132 15.5
q-57 1 -63.5 6.5t-6.5 49.5q0 25 24 25l30 -1q100 -6 171 -6q85 0 186 8z" />
    <glyph glyph-name="asciicircum" unicode="^" horiz-adv-x="1241" 
d="M224 666h-120l459 831h114l457 -831h-120l-394 695z" />
    <glyph glyph-name="underscore" unicode="_" 
d="M-12 -154h1048v-102h-1048v102z" />
    <glyph glyph-name="grave" unicode="`" horiz-adv-x="682" 
d="M471 1038l-269 161q-76 45 -98 71q-16 19 -16 43q0 26 18 43.5t49 17.5q19 0 35 -8.5t53 -44.5l295 -283h-67z" />
    <glyph glyph-name="a" unicode="a" 
d="M143 689l1 67l-1 69l109 62q74 42 129.5 58t118.5 16q138 0 222.5 -62t101.5 -158q12 -72 15 -357q2 -269 12 -297t50 -28h78v-66q-114 7 -159 7q-56 0 -150 -7l1 89q0 43 -1 87l-207 -158q-28 -21 -55 -29.5t-75 -8.5q-129 0 -197 63.5t-68 170.5q0 101 48.5 176.5
t138 111.5t415.5 94q-2 127 -56 190q-68 79 -194 79q-48 0 -90 -12t-78 -36q-29 -71 -53 -136zM670 530q-278 -60 -353 -112.5t-75 -162.5q0 -74 43 -118.5t111 -44.5q75 0 143.5 42t130.5 125l-2 222z" />
    <glyph glyph-name="b" unicode="b" horiz-adv-x="1133" 
d="M14 1358v56q87 9 180 29q64 13 136 41q11 5 19 5q21 0 21 -38l-5 -50q-7 -57 -8 -85q-3 -129 -3 -352v-212l122 123q39 38 102.5 61.5t135.5 23.5q161 0 265 -111t104 -295q0 -101 -36.5 -196.5t-88.5 -154.5q-24 -28 -133.5 -107.5t-141.5 -94.5q-60 -28 -143 -28
q-75 0 -134.5 20t-124.5 69l-80 -74l-34 13q19 154 19 324v635q0 147 -9 301q-4 71 -17 84t-59 13h-87zM354 319q0 -108 8 -124q16 -33 86.5 -76t154.5 -43q146 0 226 117t80 284q0 174 -77.5 265.5t-208.5 91.5q-87 0 -159.5 -50t-99.5 -117q-10 -26 -10 -120v-228z" />
    <glyph glyph-name="c" unicode="c" horiz-adv-x="909" 
d="M810 135l27 -24l-41 -64q-68 -37 -140 -55.5t-147 -18.5q-147 0 -249.5 56t-158.5 162t-56 252q0 129 43 224.5t120.5 149.5t193.5 106q82 37 183 37q77 0 132.5 -12.5t119.5 -44.5q-25 -132 -27 -264h-63v50q0 64 -18.5 90.5t-84.5 52.5t-144 26q-135 0 -208 -82.5
t-73 -246.5q0 -211 108 -338q97 -115 250 -115q60 0 118 15t115 44z" />
    <glyph glyph-name="d" unicode="d" horiz-adv-x="1251" 
d="M854 899v362q0 63 -14 79t-64 16h-86v60q178 12 332 74l18 -12q-7 -102 -12 -246l-4 -266l-2 -86v-597q0 -167 10 -186q15 -27 83 -36l71 -9v-59q-123 9 -217 9q-17 0 -126 -9q7 68 11 193q-85 -66 -217 -185q-85 -28 -150 -28q-169 0 -283 127t-114 340q0 133 44 227
t105 136.5t190 107.5q99 49 183 49q57 0 117.5 -15t124.5 -46zM854 727q-69 74 -143.5 111t-155.5 37q-131 0 -211 -95.5t-80 -279.5q0 -187 91.5 -293.5t222.5 -106.5q80 0 147 44.5t98 115.5t31 223v244z" />
    <glyph glyph-name="e" unicode="e" horiz-adv-x="981" 
d="M247 477q5 -197 101 -299t252 -102q70 0 139 23t137 69l17 -15l-32 -84q-83 -48 -171 -72t-181 -24q-203 0 -327.5 128.5t-124.5 348.5q0 168 70 291q46 81 170 150t241 69q177 0 280.5 -104t103.5 -291l-2 -59q-66 -16 -126 -21q-107 -8 -297 -8h-250zM250 552
q155 -7 342 -7q75 0 145 7v56q0 88 -35 167q-22 49 -77 81.5t-127 32.5q-112 0 -179 -82t-69 -255z" />
    <glyph glyph-name="f" unicode="f" horiz-adv-x="682" 
d="M369 786v-389q0 -280 16.5 -313t100.5 -33h88v-58q-164 8 -235 8l-316 -8v58h67q78 0 92 31q19 42 19 315v389l-144 -10v42l144 74v127q0 97 26.5 158t106.5 144q106 111 165 145q39 23 98 23q39 0 87 -13q-3 -51 -3 -82t3 -85l-25 -11q-59 52 -135 52q-84 0 -119.5 -57
t-35.5 -278v-133q162 1 265 10l7 -10l-16 -96l-123 3q-45 0 -133 -3z" />
    <glyph glyph-name="g" unicode="g" horiz-adv-x="1139" 
d="M895 774q23 -64 23 -105q0 -89 -54 -171.5t-154 -133t-216 -50.5l-47 1q-66 -49 -83.5 -73t-17.5 -47q0 -38 39 -60t159 -22q46 0 132 3q123 5 178 5q79 0 121 -25.5t72 -89t30 -143.5q0 -112 -68 -214.5t-198 -164.5t-299 -62q-206 0 -317 89.5t-111 220.5q0 81 58 164
q104 49 175 99q-82 27 -105.5 49.5t-23.5 57.5q0 42 23 83q13 25 66 61l97 69q-120 30 -173 85q-70 74 -70 189q0 101 52 184t153 131q129 61 249 61q76 0 133.5 -20t117.5 -68h84q130 0 202 8l11 -21q-30 -43 -53 -90h-185zM743 616q0 125 -64 201t-161 76
q-96 0 -154.5 -62t-58.5 -172q0 -133 63.5 -208.5t159.5 -75.5t155.5 63.5t59.5 177.5zM471 -21q-71 0 -97 -16q-84 -54 -102 -87q-30 -52 -30 -131q0 -109 81 -180t225 -71q111 0 195 41t130.5 112.5t46.5 147.5q0 65 -32.5 114t-77.5 63q-23 7 -105 7h-234z" />
    <glyph glyph-name="h" unicode="h" horiz-adv-x="1192" 
d="M363 770l131 115q46 43 90.5 59t107.5 16q111 0 192.5 -44.5t113 -114t31.5 -236.5l-6 -296q0 -100 8 -158q3 -24 16.5 -36t58.5 -16l76 -8v-58q-97 7 -189 7q-79 0 -157 -7q18 251 18 494q0 163 -20.5 221t-73.5 92t-134 34q-83 0 -151 -39.5t-94 -91.5
q-18 -37 -18 -176v-174q0 -238 11 -263t80 -31l87 -8v-58q-156 7 -251 7q-99 0 -259 -7v58l63 8q59 7 74 16.5t20 43.5q7 54 7 242v675q0 267 -14 299q-9 22 -81 22h-69v61q155 16 248 45l82 28q16 0 16 -21l-3 -41l-6 -180q-5 -136 -5 -211v-268z" />
    <glyph glyph-name="i" unicode="i" horiz-adv-x="596" 
d="M299 1407q46 0 79 -33.5t33 -80.5t-33 -80t-79 -33q-47 0 -80 33t-33 80t33 80.5t80 33.5zM379 964l24 -15q-7 -75 -9 -165q-7 -292 -7 -431q0 -130 9 -222q4 -36 19 -50t72 -21l68 -9v-58q-146 7 -266 7q-118 0 -238 -7v58l86 9q50 4 61.5 18.5t14.5 96.5q5 127 5 350
q0 155 -5 239q-2 31 -17.5 44t-69.5 13h-75v59q122 18 179.5 33t148.5 51z" />
    <glyph glyph-name="j" unicode="j" horiz-adv-x="479" 
d="M237 1407q47 0 80 -33.5t33 -80.5t-33 -80t-80 -33t-80.5 33t-33.5 80t33.5 80.5t80.5 33.5zM-6 825v57q139 15 250 52l88 31q16 0 16 -20l-2 -20q-2 -17 -8 -146q-12 -263 -12 -439l2 -257q0 -265 -45.5 -392.5t-135 -197.5t-181.5 -70l-31 1l-21 70q33 -6 51 -6
q48 0 79 22q47 35 73.5 106t34 320t7.5 534q0 300 -11 327.5t-82 27.5h-72z" />
    <glyph glyph-name="k" unicode="k" horiz-adv-x="1139" 
d="M381 494v-127q0 -252 16.5 -284t100.5 -32h61v-58l-54 2q-144 5 -190 5l-266 -7v58h59q77 0 91 29t14 285v596q0 331 -15 371q-9 24 -78 24h-85v59q84 0 240 42l101 32q16 0 16 -20l-5 -100q-2 -38 -6 -418v-401l13 -7q91 68 155 122q33 28 150 140l144 135h202v-58h-36
q-35 0 -90 -33q-109 -65 -360 -273q188 -195 231 -234q200 -184 241 -217q25 -21 43 -28.5t51 -11.5v-44q-87 -39 -191 -64q-59 48 -279 268q-161 161 -261 249h-13z" />
    <glyph glyph-name="l" unicode="l" horiz-adv-x="596" 
d="M398 1478q-17 -293 -17 -530v-514q0 -306 13 -347q7 -21 66 -27l85 -9v-58q-109 7 -208 7q-110 0 -288 -7v58l86 7q57 5 65 29q13 39 13 355v511l-1 192l-3 131q0 49 -11 60q-16 16 -67 16h-82v60q208 19 332 78z" />
    <glyph glyph-name="m" unicode="m" horiz-adv-x="1808" 
d="M385 780l134 120q32 29 68 41q52 18 103 18q113 0 181.5 -40.5t125.5 -145.5l129 118q33 30 81 46q63 22 122 22q90 0 163 -42t108.5 -109t35.5 -182l-3 -391q0 -131 15 -154.5t77 -26.5l73 -3v-58l-48 3q-116 6 -157 6q-63 0 -147 -9q14 183 14 428q0 207 -18 272
t-69 102t-128 37q-87 0 -149 -46.5t-77 -111.5q-10 -41 -10 -352q0 -183 3 -208.5t16.5 -36t86.5 -18.5l67 -8v-58q-177 9 -260 9q-66 0 -256 -9v58h67q60 0 78 17t21 80q8 164 8 342q0 159 -21.5 219.5t-73 95.5t-123.5 35q-77 0 -140 -43t-86 -104q-15 -42 -15 -238
q0 -215 4 -316q2 -47 15 -60t86 -20l69 -8v-58q-125 7 -236 7q-126 0 -274 -7v58h76q65 0 78 34.5t13 375.5q0 250 -3 295t-17 57t-85 12h-62v55q147 20 253 55l73 28q18 0 18 -24l-2 -36q-3 -55 -2 -123z" />
    <glyph glyph-name="n" unicode="n" horiz-adv-x="1192" 
d="M362 769l151 134q27 24 57 35q66 22 132 22q107 0 185 -43.5t112 -113t34 -217.5l-5 -315q0 -163 14 -188q19 -32 74 -32h72v-58q-107 7 -185 7q-76 0 -163 -7q19 195 19 527q0 134 -23.5 190t-79 90t-133.5 34q-97 0 -164.5 -49t-83.5 -108q-10 -39 -10 -204
q0 -183 3 -340q1 -47 14 -59q25 -23 82 -23h71v-58q-169 7 -269 7q-106 0 -241 -7v58h72q74 0 86.5 34.5t12.5 415.5q0 171 -4 268q-2 32 -16 44t-79 12h-72v57q86 10 154 27t153 52q9 4 17 4q16 0 16 -23l-1 -38z" />
    <glyph glyph-name="o" unicode="o" horiz-adv-x="1118" 
d="M72 473q0 138 64 249.5t179.5 174.5t262.5 63q213 0 341 -126t128 -336q0 -248 -167 -394q-149 -131 -357 -131q-200 0 -325.5 134.5t-125.5 365.5zM260 544q0 -206 84.5 -352.5t243.5 -146.5q121 0 195.5 92t74.5 279q0 151 -44 261.5t-116 161t-161 50.5
q-79 0 -142.5 -40t-93.5 -107q-41 -91 -41 -198z" />
    <glyph glyph-name="p" unicode="p" horiz-adv-x="1231" 
d="M387 758l140 124q53 47 90 59q59 19 138 19q178 0 288 -110t110 -284q0 -87 -25 -171.5t-61 -138t-81 -89.5q-15 -12 -122 -79l-40 -29q-76 -53 -122.5 -69.5t-106.5 -16.5q-47 0 -99 13.5t-109 39.5v-141q0 -217 6 -306q3 -39 25 -56.5t93 -17.5h54v-56q-189 6 -277 6
q-97 0 -247 -6v56h73q77 0 91 33t14 352v614q0 160 -8 247q-4 42 -19.5 55.5t-72.5 13.5h-78v62q139 15 273 57l61 24q16 0 16 -28l-3 -106zM387 208q64 -72 128 -102t138 -30q158 0 242 119t84 283q0 110 -38.5 188.5t-112.5 123t-159 44.5q-60 0 -117.5 -24t-100.5 -66.5
t-55 -78.5q-9 -27 -9 -143v-314z" />
    <glyph glyph-name="q" unicode="q" horiz-adv-x="1147" 
d="M867 890l104 67l38 -22q-31 -92 -38 -157q-11 -100 -11 -336v-554q0 -306 19 -344t114 -38h45v-57l-157 4l-125 2q-47 0 -242 -6v57h54q91 0 107.5 35.5t16.5 352.5v235q-119 -70 -234 -145q-28 -5 -52 -8t-44 -3q-174 0 -288.5 124t-114.5 330q0 137 42 230.5t120 149.5
q20 14 184 105q87 48 199 48q66 0 131.5 -17.5t131.5 -52.5zM785 773q-62 56 -120.5 79t-129.5 23q-135 0 -218.5 -99t-83.5 -282q0 -189 88.5 -295.5t214.5 -106.5q66 0 128.5 32t127.5 110v191q-3 288 -7 348z" />
    <glyph glyph-name="r" unicode="r" horiz-adv-x="809" 
d="M380 734q40 38 87 100q56 73 104 100t101 27q55 0 84 -13q14 -6 14 -19l-1 -10q-15 -81 -17 -227h-45q-23 51 -54.5 72t-75.5 21q-59 0 -109.5 -40t-67.5 -112t-17 -283q0 -139 11 -234q4 -35 20 -44q38 -21 112 -21h60v-58q-153 7 -290 7q-133 0 -263 -7v58l96 8
q51 4 64.5 19t17.5 97q7 144 7 342q0 241 -19 283q-13 27 -82 27h-84v58q97 11 173 28.5t135 44.5q14 7 23 7q11 0 15 -6t4 -27z" />
    <glyph glyph-name="s" unicode="s" horiz-adv-x="868" 
d="M152 299v-65q0 -78 14 -97q26 -32 101.5 -62t155.5 -30q103 0 168 55.5t65 132.5q0 61 -38 98t-145 59q-199 40 -263 70t-96 80t-32 121q0 133 96.5 216t273.5 83q140 0 279 -56q-8 -68 -13 -228h-59q-2 88 -19 116q-23 37 -84 67t-130 30q-91 0 -145.5 -46.5
t-54.5 -116.5q0 -67 43 -101q43 -35 238 -74q144 -29 190 -54t74 -76t28 -117q0 -135 -115.5 -233t-308.5 -98q-123 0 -276 39q-27 7 -27 21l3 14q4 15 7 53q9 97 9 151l-1 48h62z" />
    <glyph glyph-name="t" unicode="t" horiz-adv-x="668" 
d="M371 779v-392q0 -153 10 -196t40.5 -67t77.5 -24q29 0 56.5 11.5t54.5 34.5l29 -35l-97 -115q-32 -11 -62 -17t-58 -6q-74 0 -125 26.5t-74 69t-23 128.5l3 193v380q-77 0 -159 -7v43q86 33 159 69q-1 143 -8 310q116 49 167 79l26 -20q-8 -78 -17 -369q122 0 199 3l80 4
l-11 -103l-41 1l-192 -1h-35z" />
    <glyph glyph-name="u" unicode="u" horiz-adv-x="1235" 
d="M840 -7l12 180l-59 -64q-69 -75 -140.5 -105.5t-176.5 -30.5q-90 0 -155 38t-94.5 98.5t-29.5 191.5q0 68 3 158l3 161q0 169 -9.5 188t-63.5 19h-89v55q136 12 251 50l83 31q17 0 17 -25l-7 -102q-14 -212 -14 -394t15 -232.5t63 -84t117 -33.5q93 0 170.5 60t101.5 121
q13 35 13 211q0 296 -11 322q-10 21 -90 21h-79v55q103 12 175 28t152 48q10 5 18 5q17 0 17 -19l-4 -93q-15 -342 -15 -602q0 -146 15 -167q22 -31 95 -31h58v-58q-125 7 -212 7q-65 0 -130 -7z" />
    <glyph glyph-name="v" unicode="v" horiz-adv-x="1157" 
d="M723 882v58q103 -7 184 -7q94 0 201 7v-58h-31q-23 0 -45 -9q-16 -7 -26 -18t-72 -139q-113 -233 -173 -368t-152 -364h-103q-132 329 -270 640q-51 114 -62 146q-22 65 -49.5 88.5t-70.5 23.5h-33v58q147 -8 245 -8q105 0 230 8v-58h-44q-61 0 -86 -13q-17 -10 -17 -30
q0 -17 18 -69t242 -605l179 432q61 150 75 208q4 16 4 27q0 19 -13 28t-67 15z" />
    <glyph glyph-name="w" unicode="w" horiz-adv-x="1708" 
d="M521 -16h-102l-190 630l-64 201q-13 33 -38.5 50.5t-58.5 17.5h-50v58q159 -7 244 -7q83 0 245 7v-58h-54q-62 0 -85 -14q-18 -10 -18 -32q0 -49 171 -620l216 472q49 110 112 268h50q43 -122 89 -234l206 -523l153 410q44 121 57 182q5 25 5 40q0 23 -20.5 37t-63.5 14
h-66v58q131 -7 232 -7q88 0 170 7v-58h-45q-35 0 -66 -35.5t-172 -367.5q-118 -277 -184 -496h-97q-45 125 -146 381l-127 322q-140 -297 -227 -501q-39 -92 -76 -202z" />
    <glyph glyph-name="x" unicode="x" horiz-adv-x="1057" 
d="M51 863l191 93q63 -25 104 -72q66 -74 213 -315l265 371q39 -6 65 -6q21 0 88 6v-59q-54 -3 -87 -32q-54 -47 -287 -337q135 -199 226 -318q62 -81 100 -102q24 -13 76 -13v-58q-92 -21 -200 -53q-51 37 -86 81q-22 28 -221 327q-94 -115 -144.5 -186t-128.5 -197
q-42 7 -76 7q-36 0 -98 -7v61q51 0 69 9t98 98q116 129 234 278q-186 277 -240.5 325t-116.5 48q-17 0 -44 -3v54z" />
    <glyph glyph-name="y" unicode="y" horiz-adv-x="1139" 
d="M52 -543l47 156h23q27 -32 54 -48t55 -16q62 0 113 60t157 334l-176 443l-93 229l-75 175q-35 93 -105 93h-40v58q104 -7 184 -7q62 0 289 7v-58h-74q-38 0 -55.5 -13t-17.5 -32q0 -16 19 -69q101 -278 238 -596q132 291 230 561q29 79 29 96q0 32 -68 42l-74 11v58
q118 -7 210 -7q87 0 175 7v-58h-35q-23 0 -47 -13.5t-39 -37.5q-32 -51 -185 -389q-42 -93 -214 -504q-152 -346 -172 -380q-39 -66 -100 -101.5t-132 -35.5q-29 0 -59.5 9t-61.5 26z" />
    <glyph glyph-name="z" unicode="z" 
d="M53 -7l-10 47q97 106 263 310l402 516q-250 -1 -377 -9q-87 -5 -100.5 -17.5t-24.5 -84.5l-14 -85h-58q11 96 11 169l-2 93l8 8q306 -6 464 -6q167 0 329 6v-54q-52 -57 -102 -119l-157 -196l-386 -499l127 -2q208 0 360 14q59 6 76 24t35 123l11 60h59
q-24 -185 -23 -287q-69 -8 -153 -8l-363 4q-223 0 -375 -7z" />
    <glyph glyph-name="braceleft" unicode="{" horiz-adv-x="682" 
d="M239 522q99 -28 148 -82t49 -191v-423q0 -63 21.5 -121.5t71.5 -95.5q37 -27 127 -47q-155 6 -201 16q-59 13 -104.5 55t-61 101.5t-15.5 136.5v412q0 80 -17 119t-55.5 69.5t-115.5 50.5q80 25 110 49q43 36 60.5 76t17.5 116v438q0 108 39 173t127 94q40 14 221 22
l-33 -9q-68 -17 -110 -50t-58 -73q-24 -60 -24 -133v-440q0 -85 -18.5 -130t-60.5 -79q-31 -27 -118 -54z" />
    <glyph glyph-name="bar" unicode="|" horiz-adv-x="1241" 
d="M569 -470v1960h131v-1960h-131z" />
    <glyph glyph-name="braceright" unicode="}" horiz-adv-x="682" 
d="M444 529q-100 29 -148.5 83t-48.5 191v423q0 62 -21.5 121t-71.5 96q-38 28 -127 47q153 -6 198 -16q60 -13 105.5 -54t62 -100.5t16.5 -138.5v-412q0 -80 17 -119.5t55 -69.5t115 -51q-80 -24 -109 -48q-44 -36 -61 -76t-17 -116v-438q0 -109 -40 -174t-127 -94
q-40 -13 -221 -21l33 9q65 16 109.5 49t60.5 77q23 62 23 130v440q0 85 18.5 130t55 75.5t123.5 56.5z" />
    <glyph glyph-name="asciitilde" unicode="~" horiz-adv-x="1241" 
d="M1109 857h45q-5 -150 -62 -220q-70 -87 -183 -87q-46 0 -99 15.5t-274 105.5q-154 64 -219 64q-148 0 -186 -183h-44q1 109 29.5 171t85.5 99t119 37q45 0 99 -16q104 -31 281 -107q94 -40 153 -57q32 -8 69 -8q76 0 126.5 48t59.5 138z" />
    <glyph glyph-name="Adieresis" unicode="&#xc4;" horiz-adv-x="1593" 
d="M1049 473h-578l-68 -161q-67 -160 -67 -196q0 -23 12.5 -33t63.5 -16l96 -11v-63q-96 7 -216 7q-144 0 -253 -7v63l30 1q70 2 90.5 14.5t43.5 61.5q71 144 145 311l275 623q110 248 150 360h68l506 -1177q51 -120 68 -144.5t39 -35t99 -14.5v-63q-130 7 -248 7
q-110 0 -293 -7v63l99 6q53 4 63 11q15 11 15 28q0 18 -30 94zM508 555h504l-252 602zM600 1740q45 0 77 -32t32 -77q0 -46 -32 -78t-77 -32q-46 0 -78 32t-32 78q0 45 32 77t78 32zM1034 1740q45 0 77 -32t32 -77q0 -46 -32 -78t-77 -32t-77.5 32t-32.5 78q0 45 32 77
t78 32z" />
    <glyph glyph-name="Aring" unicode="&#xc5;" horiz-adv-x="1593" 
d="M1049 473h-578l-68 -161q-67 -160 -67 -196q0 -23 12.5 -33t63.5 -16l96 -11v-63q-96 7 -216 7q-144 0 -253 -7v63l30 1q70 2 90.5 14.5t43.5 61.5q71 144 145 311l275 623q110 248 150 360h68l506 -1177q51 -120 68 -144.5t39 -35t99 -14.5v-63q-130 7 -248 7
q-110 0 -293 -7v63l99 6q53 4 63 11q15 11 15 28q0 18 -30 94zM508 555h504l-252 602zM797 1967q86 0 147 -60.5t61 -146.5q0 -85 -61 -146t-147 -61t-147 61t-61 146q0 86 60.5 146.5t147.5 60.5zM797 1865q-40 0 -68.5 -30.5t-28.5 -74.5t28.5 -74t68.5 -30t68.5 30
t28.5 74t-28.5 74.5t-68.5 30.5z" />
    <glyph glyph-name="Ccedilla" unicode="&#xc7;" horiz-adv-x="1452" 
d="M1286 1055l-8 178q-89 59 -186.5 88t-203.5 29q-270 0 -432.5 -164t-162.5 -439q0 -193 82.5 -344t234.5 -239t321 -88q134 0 265 31q98 23 197 96l21 -20q-21 -46 -39 -93q-117 -58 -235.5 -87.5t-238.5 -29.5q-246 0 -432.5 95t-286.5 262.5t-100 378.5t101 377.5
t285.5 258t453.5 91.5q141 0 330 -46q94 -22 153 -33q-45 -107 -52 -302h-67zM893 0l-44 -106q33 6 55 6q69 0 109 -36t40 -91q0 -69 -61.5 -119.5t-167.5 -50.5q-93 0 -193 43l31 60q100 -32 155 -32q52 0 79.5 24t27.5 62q0 35 -24 56.5t-68 21.5q-25 0 -55 -10l-16 13
l71 159h61z" />
    <glyph glyph-name="Eacute" unicode="&#xc9;" horiz-adv-x="1251" 
d="M454 672v-245l1 -141q0 -132 3 -193q146 -11 313 -11q112 0 188 10q49 6 104 26q25 88 51 220h67q-27 -219 -27 -292l2 -45q-115 -11 -226 -11l-157 3q-260 7 -382 7q-117 0 -311 -7v63h31q87 0 109.5 17t30 80t7.5 278v549q0 135 -6.5 221t-14 102.5t-21.5 25.5t-86 16
l-77 8v62h108l106 -3q89 -3 135 -3l384 5l182 1q93 1 188 -8q-38 -118 -42 -307h-68q0 110 -11 183q-118 44 -290 44q-137 0 -287 -12q1 -94 -2 -188l-2 -154v-203q99 -6 175 -6q238 0 269.5 16.5t31.5 102.5v65h68q-7 -151 -7 -241q0 -95 7 -224h-68v58q0 96 -37.5 117.5
t-264.5 21.5q-84 0 -174 -8zM566 1517h-68l296 283q37 36 53 44.5t36 8.5q29 0 47.5 -17.5t18.5 -43.5q0 -24 -19.5 -46.5t-94.5 -67.5z" />
    <glyph glyph-name="Ntilde" unicode="&#xd1;" horiz-adv-x="1702" 
d="M330 1190v-691q0 -236 9 -329q7 -71 23.5 -86.5t95.5 -22.5l64 -5v-63q-109 7 -197 7q-61 0 -280 -7v63h72q65 0 85 18t25 71q11 110 11 299v497q0 140 -3 277q-2 58 -15.5 79.5t-39.5 38.5t-73 17h-62v63q127 -7 194 -7q72 0 158 7l186.5 -235.5l181.5 -230.5l342 -420
q185 -226 267 -314v642q0 403 -14.5 440.5t-115.5 47.5l-75 7v63q161 -7 250 -7q93 0 240 7v-63h-77q-93 0 -107 -62q-9 -41 -9 -438v-451q0 -182 16 -435q-136 21 -158 30.5t-42 31.5q-111 123 -233 273zM540 1580h-54q57 199 221 199q70 0 186 -52q101 -45 143 -45
q84 0 126 104h54q-27 -101 -84.5 -153.5t-131.5 -52.5q-69 0 -175 45q-118 51 -165 51q-81 0 -120 -96z" />
    <glyph glyph-name="Odieresis" unicode="&#xd6;" horiz-adv-x="1610" 
d="M47 705q0 329 212 530t565 201q346 0 542.5 -186.5t196.5 -495.5q0 -333 -228 -557t-575 -224q-217 0 -374 88t-248 257t-91 387zM250 787q0 -226 77.5 -393.5t207.5 -251t297 -83.5q155 0 271 71t182.5 212t66.5 343q0 212 -73.5 362.5t-201.5 226.5t-303 76
q-160 0 -276 -67t-182 -196.5t-66 -299.5zM588 1740q45 0 77 -32t32 -77q0 -46 -32 -78t-77 -32q-46 0 -78 32t-32 78q0 45 32 77t78 32zM1022 1740q45 0 77 -32t32 -77q0 -46 -32 -78t-77 -32t-77.5 32t-32.5 78q0 45 32 77t78 32z" />
    <glyph glyph-name="Udieresis" unicode="&#xdc;" horiz-adv-x="1593" 
d="M39 1353v63q205 -7 298 -7q98 0 288 7v-63h-73q-94 0 -113 -36t-19 -326v-392q0 -215 23.5 -299t121.5 -142t262 -58q169 0 285 62q80 43 117 133.5t37 343.5v377q0 262 -23.5 299.5t-129.5 37.5h-52v63q207 -7 263 -7q91 0 226 7v-63h-68q-79 0 -101.5 -42.5
t-22.5 -298.5v-375q0 -257 -25.5 -346.5t-93 -161.5t-180 -114t-264.5 -42q-157 0 -275 37.5t-177.5 92.5t-86 134.5t-26.5 270.5l2 190v305q0 282 -16.5 316t-105.5 34h-71zM624 1740q45 0 77 -32t32 -77q0 -46 -32 -78t-77 -32q-46 0 -78 32t-32 78q0 45 32 77t78 32z
M1058 1740q45 0 77 -32t32 -77q0 -46 -32 -78t-77 -32t-77.5 32t-32.5 78q0 45 32 77t78 32z" />
    <glyph glyph-name="aacute" unicode="&#xe1;" 
d="M143 689l1 67l-1 69l109 62q74 42 129.5 58t118.5 16q138 0 222.5 -62t101.5 -158q12 -72 15 -357q2 -269 12 -297t50 -28h78v-66q-114 7 -159 7q-56 0 -150 -7l1 89q0 43 -1 87l-207 -158q-28 -21 -55 -29.5t-75 -8.5q-129 0 -197 63.5t-68 170.5q0 101 48.5 176.5
t138 111.5t415.5 94q-2 127 -56 190q-68 79 -194 79q-48 0 -90 -12t-78 -36q-29 -71 -53 -136zM670 530q-278 -60 -353 -112.5t-75 -162.5q0 -74 43 -118.5t111 -44.5q75 0 143.5 42t130.5 125l-2 222zM383 1038h-68l296 283q37 36 53 44.5t36 8.5q29 0 47.5 -17.5
t18.5 -43.5q0 -24 -19.5 -46.5t-94.5 -67.5z" />
    <glyph glyph-name="agrave" unicode="&#xe0;" 
d="M143 689l1 67l-1 69l109 62q74 42 129.5 58t118.5 16q138 0 222.5 -62t101.5 -158q12 -72 15 -357q2 -269 12 -297t50 -28h78v-66q-114 7 -159 7q-56 0 -150 -7l1 89q0 43 -1 87l-207 -158q-28 -21 -55 -29.5t-75 -8.5q-129 0 -197 63.5t-68 170.5q0 101 48.5 176.5
t138 111.5t415.5 94q-2 127 -56 190q-68 79 -194 79q-48 0 -90 -12t-78 -36q-29 -71 -53 -136zM670 530q-278 -60 -353 -112.5t-75 -162.5q0 -74 43 -118.5t111 -44.5q75 0 143.5 42t130.5 125l-2 222zM642 1038l-269 161q-76 45 -98 71q-16 19 -16 43q0 26 18 43.5t49 17.5
q19 0 35 -8.5t53 -44.5l295 -283h-67z" />
    <glyph glyph-name="acircumflex" unicode="&#xe2;" 
d="M143 689l1 67l-1 69l109 62q74 42 129.5 58t118.5 16q138 0 222.5 -62t101.5 -158q12 -72 15 -357q2 -269 12 -297t50 -28h78v-66q-114 7 -159 7q-56 0 -150 -7l1 89q0 43 -1 87l-207 -158q-28 -21 -55 -29.5t-75 -8.5q-129 0 -197 63.5t-68 170.5q0 101 48.5 176.5
t138 111.5t415.5 94q-2 127 -56 190q-68 79 -194 79q-48 0 -90 -12t-78 -36q-29 -71 -53 -136zM670 530q-278 -60 -353 -112.5t-75 -162.5q0 -74 43 -118.5t111 -44.5q75 0 143.5 42t130.5 125l-2 222zM207 1032l257 344h96l258 -344h-63l-245 217l-240 -217h-63z" />
    <glyph glyph-name="adieresis" unicode="&#xe4;" 
d="M143 689l1 67l-1 69l109 62q74 42 129.5 58t118.5 16q138 0 222.5 -62t101.5 -158q12 -72 15 -357q2 -269 12 -297t50 -28h78v-66q-114 7 -159 7q-56 0 -150 -7l1 89q0 43 -1 87l-207 -158q-28 -21 -55 -29.5t-75 -8.5q-129 0 -197 63.5t-68 170.5q0 101 48.5 176.5
t138 111.5t415.5 94q-2 127 -56 190q-68 79 -194 79q-48 0 -90 -12t-78 -36q-29 -71 -53 -136zM670 530q-278 -60 -353 -112.5t-75 -162.5q0 -74 43 -118.5t111 -44.5q75 0 143.5 42t130.5 125l-2 222zM296 1262q45 0 77 -32t32 -77q0 -46 -32 -78t-77 -32q-46 0 -78 32
t-32 78q0 45 32 77t78 32zM730 1262q45 0 77 -32t32 -77q0 -46 -32 -78t-77 -32t-77.5 32t-32.5 78q0 45 32 77t78 32z" />
    <glyph glyph-name="atilde" unicode="&#xe3;" 
d="M143 689l1 67l-1 69l109 62q74 42 129.5 58t118.5 16q138 0 222.5 -62t101.5 -158q12 -72 15 -357q2 -269 12 -297t50 -28h78v-66q-114 7 -159 7q-56 0 -150 -7l1 89q0 43 -1 87l-207 -158q-28 -21 -55 -29.5t-75 -8.5q-129 0 -197 63.5t-68 170.5q0 101 48.5 176.5
t138 111.5t415.5 94q-2 127 -56 190q-68 79 -194 79q-48 0 -90 -12t-78 -36q-29 -71 -53 -136zM670 530q-278 -60 -353 -112.5t-75 -162.5q0 -74 43 -118.5t111 -44.5q75 0 143.5 42t130.5 125l-2 222zM202 1102h-54q57 199 221 199q70 0 186 -52q101 -45 143 -45
q84 0 126 104h54q-27 -101 -84.5 -153.5t-131.5 -52.5q-69 0 -175 45q-118 51 -165 51q-81 0 -120 -96z" />
    <glyph glyph-name="aring" unicode="&#xe5;" 
d="M143 689l1 67l-1 69l109 62q74 42 129.5 58t118.5 16q138 0 222.5 -62t101.5 -158q12 -72 15 -357q2 -269 12 -297t50 -28h78v-66q-114 7 -159 7q-56 0 -150 -7l1 89q0 43 -1 87l-207 -158q-28 -21 -55 -29.5t-75 -8.5q-129 0 -197 63.5t-68 170.5q0 101 48.5 176.5
t138 111.5t415.5 94q-2 127 -56 190q-68 79 -194 79q-48 0 -90 -12t-78 -36q-29 -71 -53 -136zM670 530q-278 -60 -353 -112.5t-75 -162.5q0 -74 43 -118.5t111 -44.5q75 0 143.5 42t130.5 125l-2 222zM513 1489q86 0 147 -60.5t61 -146.5q0 -85 -61 -146t-147 -61t-147 61
t-61 146q0 86 60.5 146.5t147.5 60.5zM513 1387q-40 0 -68.5 -30.5t-28.5 -74.5t28.5 -74t68.5 -30t68.5 30t28.5 74t-28.5 74.5t-68.5 30.5z" />
    <glyph glyph-name="ccedilla" unicode="&#xe7;" horiz-adv-x="909" 
d="M810 135l27 -24l-41 -64q-68 -37 -140 -55.5t-147 -18.5q-147 0 -249.5 56t-158.5 162t-56 252q0 129 43 224.5t120.5 149.5t193.5 106q82 37 183 37q77 0 132.5 -12.5t119.5 -44.5q-25 -132 -27 -264h-63v50q0 64 -18.5 90.5t-84.5 52.5t-144 26q-135 0 -208 -82.5
t-73 -246.5q0 -211 108 -338q97 -115 250 -115q60 0 118 15t115 44zM561 0l-44 -106q33 6 55 6q69 0 109 -36t40 -91q0 -69 -61.5 -119.5t-167.5 -50.5q-93 0 -193 43l31 60q100 -32 155 -32q52 0 79.5 24t27.5 62q0 35 -24 56.5t-68 21.5q-25 0 -55 -10l-16 13l71 159h61z
" />
    <glyph glyph-name="eacute" unicode="&#xe9;" horiz-adv-x="981" 
d="M247 477q5 -197 101 -299t252 -102q70 0 139 23t137 69l17 -15l-32 -84q-83 -48 -171 -72t-181 -24q-203 0 -327.5 128.5t-124.5 348.5q0 168 70 291q46 81 170 150t241 69q177 0 280.5 -104t103.5 -291l-2 -59q-66 -16 -126 -21q-107 -8 -297 -8h-250zM250 552
q155 -7 342 -7q75 0 145 7v56q0 88 -35 167q-22 49 -77 81.5t-127 32.5q-112 0 -179 -82t-69 -255zM361 1038h-68l296 283q37 36 53 44.5t36 8.5q29 0 47.5 -17.5t18.5 -43.5q0 -24 -19.5 -46.5t-94.5 -67.5z" />
    <glyph glyph-name="egrave" unicode="&#xe8;" horiz-adv-x="981" 
d="M247 477q5 -197 101 -299t252 -102q70 0 139 23t137 69l17 -15l-32 -84q-83 -48 -171 -72t-181 -24q-203 0 -327.5 128.5t-124.5 348.5q0 168 70 291q46 81 170 150t241 69q177 0 280.5 -104t103.5 -291l-2 -59q-66 -16 -126 -21q-107 -8 -297 -8h-250zM250 552
q155 -7 342 -7q75 0 145 7v56q0 88 -35 167q-22 49 -77 81.5t-127 32.5q-112 0 -179 -82t-69 -255zM620 1038l-269 161q-76 45 -98 71q-16 19 -16 43q0 26 18 43.5t49 17.5q19 0 35 -8.5t53 -44.5l295 -283h-67z" />
    <glyph glyph-name="ecircumflex" unicode="&#xea;" horiz-adv-x="981" 
d="M247 477q5 -197 101 -299t252 -102q70 0 139 23t137 69l17 -15l-32 -84q-83 -48 -171 -72t-181 -24q-203 0 -327.5 128.5t-124.5 348.5q0 168 70 291q46 81 170 150t241 69q177 0 280.5 -104t103.5 -291l-2 -59q-66 -16 -126 -21q-107 -8 -297 -8h-250zM250 552
q155 -7 342 -7q75 0 145 7v56q0 88 -35 167q-22 49 -77 81.5t-127 32.5q-112 0 -179 -82t-69 -255zM205 1032l257 344h96l258 -344h-63l-245 217l-240 -217h-63z" />
    <glyph glyph-name="edieresis" unicode="&#xeb;" horiz-adv-x="981" 
d="M247 477q5 -197 101 -299t252 -102q70 0 139 23t137 69l17 -15l-32 -84q-83 -48 -171 -72t-181 -24q-203 0 -327.5 128.5t-124.5 348.5q0 168 70 291q46 81 170 150t241 69q177 0 280.5 -104t103.5 -291l-2 -59q-66 -16 -126 -21q-107 -8 -297 -8h-250zM250 552
q155 -7 342 -7q75 0 145 7v56q0 88 -35 167q-22 49 -77 81.5t-127 32.5q-112 0 -179 -82t-69 -255zM314 1262q45 0 77 -32t32 -77q0 -46 -32 -78t-77 -32q-46 0 -78 32t-32 78q0 45 32 77t78 32zM748 1262q45 0 77 -32t32 -77q0 -46 -32 -78t-77 -32t-77.5 32t-32.5 78
q0 45 32 77t78 32z" />
    <glyph glyph-name="iacute" unicode="&#xed;" horiz-adv-x="588" 
d="M375 964l24 -15q-7 -75 -9 -165q-7 -292 -7 -431q0 -130 9 -222q4 -36 19 -50t72 -21l68 -9v-58q-146 7 -266 7q-118 0 -238 -7v58l86 9q50 4 59 16q14 17 17 99q5 127 5 350q0 155 -5 239q-2 31 -17.5 44t-69.5 13h-75v59q122 18 179.5 33t148.5 51zM164 1038h-68
l296 283q37 36 53 44.5t36 8.5q29 0 47.5 -17.5t18.5 -43.5q0 -24 -19.5 -46.5t-94.5 -67.5z" />
    <glyph glyph-name="igrave" unicode="&#xec;" horiz-adv-x="588" 
d="M375 964l24 -15q-7 -75 -9 -165q-7 -292 -7 -431q0 -130 9 -222q4 -36 19 -50t72 -21l68 -9v-58q-146 7 -266 7q-118 0 -238 -7v58l86 9q50 4 59 16q14 17 17 99q5 127 5 350q0 155 -5 239q-2 31 -17.5 44t-69.5 13h-75v59q122 18 179.5 33t148.5 51zM424 1038l-269 161
q-76 45 -98 71q-16 19 -16 43q0 26 18 43.5t49 17.5q19 0 35 -8.5t53 -44.5l295 -283h-67z" />
    <glyph glyph-name="icircumflex" unicode="&#xee;" horiz-adv-x="588" 
d="M376 964l24 -15q-7 -75 -9 -165q-7 -292 -7 -431q0 -130 9 -222q4 -36 19 -50t72 -21l68 -9v-58q-146 7 -266 7q-118 0 -238 -7v58l86 9q50 4 59 16q14 17 17 99q5 127 5 350q0 155 -5 239q-2 31 -17.5 44t-69.5 13h-75v59q122 18 179.5 33t148.5 51zM-11 1032l257 344
h96l258 -344h-63l-245 217l-240 -217h-63z" />
    <glyph glyph-name="idieresis" unicode="&#xef;" horiz-adv-x="588" 
d="M375 964l24 -15q-7 -75 -9 -165q-7 -292 -7 -431q0 -130 9 -222q4 -36 19 -50t72 -21l68 -9v-58q-146 7 -266 7q-118 0 -238 -7v58l86 9q50 4 59 16q14 17 17 99q5 127 5 350q0 155 -5 239q-2 31 -17.5 44t-69.5 13h-75v59q122 18 179.5 33t148.5 51zM77 1262
q45 0 77 -32t32 -77q0 -46 -32 -78t-77 -32q-46 0 -78 32t-32 78q0 45 32 77t78 32zM511 1262q45 0 77 -32t32 -77q0 -46 -32 -78t-77 -32t-77.5 32t-32.5 78q0 45 32 77t78 32z" />
    <glyph glyph-name="ntilde" unicode="&#xf1;" horiz-adv-x="1192" 
d="M362 769l151 134q27 24 57 35q66 22 132 22q107 0 185 -43.5t112 -113t34 -217.5l-5 -315q0 -163 14 -188q19 -32 74 -32h72v-58q-107 7 -185 7q-76 0 -163 -7q19 195 19 527q0 134 -23.5 190t-79 90t-133.5 34q-97 0 -164.5 -49t-83.5 -108q-10 -39 -10 -204
q0 -183 3 -340q1 -47 14 -59q25 -23 82 -23h71v-58q-169 7 -269 7q-106 0 -241 -7v58h72q74 0 86.5 34.5t12.5 415.5q0 171 -4 268q-2 32 -16 44t-79 12h-72v57q86 10 154 27t153 52q9 4 17 4q16 0 16 -23l-1 -38zM286 1102h-54q57 199 221 199q70 0 186 -52
q101 -45 143 -45q84 0 126 104h54q-27 -101 -84.5 -153.5t-131.5 -52.5q-69 0 -175 45q-118 51 -165 51q-81 0 -120 -96z" />
    <glyph glyph-name="oacute" unicode="&#xf3;" horiz-adv-x="1118" 
d="M72 473q0 138 64 249.5t179.5 174.5t262.5 63q213 0 341 -126t128 -336q0 -248 -167 -394q-149 -131 -357 -131q-200 0 -325.5 134.5t-125.5 365.5zM260 544q0 -206 84.5 -352.5t243.5 -146.5q121 0 195.5 92t74.5 279q0 151 -44 261.5t-116 161t-161 50.5
q-79 0 -142.5 -40t-93.5 -107q-41 -91 -41 -198zM430 1038h-68l296 283q37 36 53 44.5t36 8.5q29 0 47.5 -17.5t18.5 -43.5q0 -24 -19.5 -46.5t-94.5 -67.5z" />
    <glyph glyph-name="ograve" unicode="&#xf2;" horiz-adv-x="1118" 
d="M72 473q0 138 64 249.5t179.5 174.5t262.5 63q213 0 341 -126t128 -336q0 -248 -167 -394q-149 -131 -357 -131q-200 0 -325.5 134.5t-125.5 365.5zM260 544q0 -206 84.5 -352.5t243.5 -146.5q121 0 195.5 92t74.5 279q0 151 -44 261.5t-116 161t-161 50.5
q-79 0 -142.5 -40t-93.5 -107q-41 -91 -41 -198zM689 1038l-269 161q-76 45 -98 71q-16 19 -16 43q0 26 18 43.5t49 17.5q19 0 35 -8.5t53 -44.5l295 -283h-67z" />
    <glyph glyph-name="ocircumflex" unicode="&#xf4;" horiz-adv-x="1118" 
d="M72 473q0 138 64 249.5t179.5 174.5t262.5 63q213 0 341 -126t128 -336q0 -248 -167 -394q-149 -131 -357 -131q-200 0 -325.5 134.5t-125.5 365.5zM260 544q0 -206 84.5 -352.5t243.5 -146.5q121 0 195.5 92t74.5 279q0 151 -44 261.5t-116 161t-161 50.5
q-79 0 -142.5 -40t-93.5 -107q-41 -91 -41 -198zM254 1032l257 344h96l258 -344h-63l-245 217l-240 -217h-63z" />
    <glyph glyph-name="odieresis" unicode="&#xf6;" horiz-adv-x="1118" 
d="M72 473q0 138 64 249.5t179.5 174.5t262.5 63q213 0 341 -126t128 -336q0 -248 -167 -394q-149 -131 -357 -131q-200 0 -325.5 134.5t-125.5 365.5zM260 544q0 -206 84.5 -352.5t243.5 -146.5q121 0 195.5 92t74.5 279q0 151 -44 261.5t-116 161t-161 50.5
q-79 0 -142.5 -40t-93.5 -107q-41 -91 -41 -198zM343 1262q45 0 77 -32t32 -77q0 -46 -32 -78t-77 -32q-46 0 -78 32t-32 78q0 45 32 77t78 32zM777 1262q45 0 77 -32t32 -77q0 -46 -32 -78t-77 -32t-77.5 32t-32.5 78q0 45 32 77t78 32z" />
    <glyph glyph-name="otilde" unicode="&#xf5;" horiz-adv-x="1118" 
d="M72 473q0 138 64 249.5t179.5 174.5t262.5 63q213 0 341 -126t128 -336q0 -248 -167 -394q-149 -131 -357 -131q-200 0 -325.5 134.5t-125.5 365.5zM260 544q0 -206 84.5 -352.5t243.5 -146.5q121 0 195.5 92t74.5 279q0 151 -44 261.5t-116 161t-161 50.5
q-79 0 -142.5 -40t-93.5 -107q-41 -91 -41 -198zM249 1102h-54q57 199 221 199q70 0 186 -52q101 -45 143 -45q84 0 126 104h54q-27 -101 -84.5 -153.5t-131.5 -52.5q-69 0 -175 45q-118 51 -165 51q-81 0 -120 -96z" />
    <glyph glyph-name="uacute" unicode="&#xfa;" horiz-adv-x="1235" 
d="M840 -7l12 180l-59 -64q-69 -75 -140.5 -105.5t-176.5 -30.5q-90 0 -155 38t-94.5 98.5t-29.5 191.5q0 68 3 158l3 161q0 169 -9.5 188t-63.5 19h-89v55q136 12 251 50l83 31q17 0 17 -25l-7 -102q-14 -212 -14 -394t15 -232.5t63 -84t117 -33.5q93 0 170.5 60t101.5 121
q13 35 13 211q0 296 -11 322q-10 21 -90 21h-79v55q103 12 175 28t152 48q10 5 18 5q17 0 17 -19l-4 -93q-15 -342 -15 -602q0 -146 15 -167q22 -31 95 -31h58v-58q-125 7 -212 7q-65 0 -130 -7zM488 1038h-68l296 283q37 36 53 44.5t36 8.5q29 0 47.5 -17.5t18.5 -43.5
q0 -24 -19.5 -46.5t-94.5 -67.5z" />
    <glyph glyph-name="ugrave" unicode="&#xf9;" horiz-adv-x="1235" 
d="M840 -7l12 180l-59 -64q-69 -75 -140.5 -105.5t-176.5 -30.5q-90 0 -155 38t-94.5 98.5t-29.5 191.5q0 68 3 158l3 161q0 169 -9.5 188t-63.5 19h-89v55q136 12 251 50l83 31q17 0 17 -25l-7 -102q-14 -212 -14 -394t15 -232.5t63 -84t117 -33.5q93 0 170.5 60t101.5 121
q13 35 13 211q0 296 -11 322q-10 21 -90 21h-79v55q103 12 175 28t152 48q10 5 18 5q17 0 17 -19l-4 -93q-15 -342 -15 -602q0 -146 15 -167q22 -31 95 -31h58v-58q-125 7 -212 7q-65 0 -130 -7zM748 1038l-269 161q-76 45 -98 71q-16 19 -16 43q0 26 18 43.5t49 17.5
q19 0 35 -8.5t53 -44.5l295 -283h-67z" />
    <glyph glyph-name="ucircumflex" unicode="&#xfb;" horiz-adv-x="1235" 
d="M840 -7l12 180l-59 -64q-69 -75 -140.5 -105.5t-176.5 -30.5q-90 0 -155 38t-94.5 98.5t-29.5 191.5q0 68 3 158l3 161q0 169 -9.5 188t-63.5 19h-89v55q136 12 251 50l83 31q17 0 17 -25l-7 -102q-14 -212 -14 -394t15 -232.5t63 -84t117 -33.5q93 0 170.5 60t101.5 121
q13 35 13 211q0 296 -11 322q-10 21 -90 21h-79v55q103 12 175 28t152 48q10 5 18 5q17 0 17 -19l-4 -93q-15 -342 -15 -602q0 -146 15 -167q22 -31 95 -31h58v-58q-125 7 -212 7q-65 0 -130 -7zM313 1032l257 344h96l258 -344h-63l-245 217l-240 -217h-63z" />
    <glyph glyph-name="udieresis" unicode="&#xfc;" horiz-adv-x="1235" 
d="M840 -7l12 180l-59 -64q-69 -75 -140.5 -105.5t-176.5 -30.5q-90 0 -155 38t-94.5 98.5t-29.5 191.5q0 68 3 158l3 161q0 169 -9.5 188t-63.5 19h-89v55q136 12 251 50l83 31q17 0 17 -25l-7 -102q-14 -212 -14 -394t15 -232.5t63 -84t117 -33.5q93 0 170.5 60t101.5 121
q13 35 13 211q0 296 -11 322q-10 21 -90 21h-79v55q103 12 175 28t152 48q10 5 18 5q17 0 17 -19l-4 -93q-15 -342 -15 -602q0 -146 15 -167q22 -31 95 -31h58v-58q-125 7 -212 7q-65 0 -130 -7zM401 1262q45 0 77 -32t32 -77q0 -46 -32 -78t-77 -32q-46 0 -78 32t-32 78
q0 45 32 77t78 32zM835 1262q45 0 77 -32t32 -77q0 -46 -32 -78t-77 -32t-77.5 32t-32.5 78q0 45 32 77t78 32z" />
    <glyph glyph-name="dagger" unicode="&#x2020;" 
d="M412 -357l-13 10q15 122 19 247q8 215 13 909q-219 -3 -350 -17l-12 11q6 50 6 74q0 26 -6 71l12 10q159 -15 350 -19q0 293 -19 466l8 11q50 -7 92 -7q41 0 91 7l8 -11q-19 -170 -19 -466q191 4 350 19l12 -10q-6 -46 -6 -71q0 -24 6 -74l-12 -11q-131 14 -350 17
l9 -814q6 -201 23 -342l-13 -10q-46 5 -100 5q-53 0 -99 -5z" />
    <glyph glyph-name="degree" unicode="&#xb0;" horiz-adv-x="819" 
d="M731 1114q0 -135 -93.5 -228t-227.5 -93t-227 93t-93 231q0 132 95 225.5t227 93.5t225.5 -93.5t93.5 -228.5zM612 1112q0 87 -57.5 146t-141.5 59q-85 0 -144.5 -59.5t-59.5 -143.5q0 -82 60 -142.5t143 -60.5t141.5 59.5t58.5 141.5z" />
    <glyph glyph-name="cent" unicode="&#xa2;" 
d="M612 247q-1 -125 4 -210h-88q5 76 8 210q-189 13 -295 130.5t-106 317.5q0 95 25 172.5t64.5 126t120.5 94.5q132 75 191 92q1 49 -5 143h88q-7 -93 -7 -132q34 4 55 4q107 0 220 -58q-26 -124 -29 -252h-54l-4 47q-6 67 -17.5 85.5t-61 42.5t-109.5 31v-744l42 -2
q41 -1 106 16q51 12 105 40l22 -23l-38 -61q-114 -62 -237 -70zM536 1092q-105 -9 -166 -86.5t-61 -226.5q0 -159 63 -267.5t164 -147.5v728z" />
    <glyph glyph-name="sterling" unicode="&#xa3;" 
d="M83 -29h-53l-2 50l1 23l1 34q42 32 105 66q43 70 61.5 122.5t27.5 128.5q5 43 8 257l-82 2l-61 -3l-48 -1l-11 9l11 80l191 -5q-5 87 -5 125q0 164 40 262q27 70 111 135q115 89 201 134.5t203 45.5q70 0 116.5 -13t98.5 -47q-13 -83 -24 -280h-60l-3 46
q-4 77 -24.5 109.5t-72 57t-120.5 24.5q-156 0 -218.5 -118.5t-67.5 -478.5h210q78 0 162 7l10 -9l-18 -86l-229 5h-139q-18 -164 -50.5 -250t-146.5 -259q106 14 205 14q89 0 289 -11q104 -6 138 -6q49 0 58 23q7 17 29 164h62q-12 -124 -14 -314l-60 -34l-86 -2
q-88 0 -299 37q-189 33 -355 52z" />
    <glyph glyph-name="section" unicode="&#xa7;" 
d="M784 323q58 -37 82 -81.5t24 -110.5q0 -110 -63.5 -216t-169.5 -165t-226 -59q-133 0 -307 84q25 165 25 276l-3 40l66 -1l32 1l-1 -46l-2 -61l3 -81q51 -53 117 -81.5t132 -28.5q75 0 138.5 31.5t96 84t32.5 115.5q0 67 -40 113t-157 88q-289 105 -331 127
q-73 40 -104.5 91t-31.5 117q0 147 150 267q-51 35 -77 85.5t-26 116.5q0 155 128 281t292 126q99 0 270 -48q-14 -168 -15 -322l-69 2l-28 -1q7 79 7 168q-84 82 -224 82q-108 0 -175 -60t-67 -143q0 -52 28 -94.5t89 -71.5t287 -97q154 -46 208 -106q54 -61 54 -157
q0 -77 -32.5 -139.5t-111.5 -125.5zM309 794q-70 -76 -70 -155q0 -41 17 -71t59 -57.5t184.5 -74t225.5 -84.5q59 92 59 163q0 45 -32.5 89t-108.5 74z" />
    <glyph glyph-name="bullet" unicode="&#x2022;" horiz-adv-x="1241" 
d="M620 1053q127 0 217 -90t90 -217q0 -128 -90 -218t-217 -90t-217 90t-90 218q0 127 90 217t217 90z" />
    <glyph glyph-name="paragraph" unicode="&#xb6;" horiz-adv-x="1286" 
d="M1146 1409v-39h-42q-55 0 -78 -15.5t-32.5 -47t-9.5 -146.5v-1616h-75v1807h-193v-1807h-76v1081q-198 8 -294 51.5t-150 133t-54 209.5q0 119 49 194q64 100 163 147.5t255 47.5h537z" />
    <glyph glyph-name="germandbls" unicode="&#xdf;" horiz-adv-x="1139" 
d="M188 784h-131v40l131 67v78q0 120 28.5 187t125.5 164.5t172 133t165 35.5q150 0 238 -84t88 -218q0 -128 -74 -385h-14q-84 44 -144 44q-50 0 -79 -27t-29 -68q0 -39 23 -65q22 -26 116 -74q144 -74 188 -120q60 -64 60 -164q0 -72 -28 -138q-21 -48 -64 -79l-61 -46
q-67 -55 -99 -66q-47 -17 -113 -17q-52 0 -89 11t-88 43v-43q-114 7 -223 7q-128 0 -249 -7v72h41q76 0 92.5 34.5t16.5 292.5v392zM610 233v-96q34 -34 71 -51.5t78 -17.5q69 0 116.5 45t47.5 112q0 57 -33 102q-34 44 -149 115q-109 66 -131 86q-36 32 -51 64t-15 70
q0 34 10 62q7 18 36 53l117 141q84 26 118 24l43 -3q26 103 26 172q0 134 -73 213t-190 79q-137 0 -206 -92t-69 -345v-582q0 -257 8 -279q15 -40 97 -40h49q26 53 45 168h55z" />
    <glyph glyph-name="registered" unicode="&#xae;" horiz-adv-x="1530" 
d="M765 1436q196 0 365.5 -98t267.5 -268t98 -366q0 -195 -98 -365t-267.5 -268t-365.5 -98t-365.5 98t-267.5 268t-98 365q0 196 98 366t267.5 268t365.5 98zM765 1335q-169 0 -315.5 -84.5t-231 -230.5t-84.5 -316q0 -169 84.5 -315t231 -231t315.5 -85t315.5 85t231 231
t84.5 315q0 170 -84.5 316t-231 230.5t-315.5 84.5zM416 1104v58h352q155 0 225.5 -58t70.5 -156q0 -79 -49 -137t-144 -80q58 -38 119 -169.5t81 -155t89 -22.5v-56h-110q-53 0 -86.5 31t-83.5 157q-54 135 -83 160.5t-108 25.5h-49v-245q0 -47 8 -57.5t38 -12.5l57 -5v-54
h-323v54l30 3q53 4 61 11.5t8 51.5v591q0 47 -9.5 54t-93.5 11zM640 765l45 -2q145 0 203.5 45t58.5 131q0 81 -50 122.5t-170 41.5q-61 0 -74 -10t-13 -44v-284z" />
    <glyph glyph-name="copyright" unicode="&#xa9;" horiz-adv-x="1530" 
d="M765 1436q196 0 365.5 -98t267.5 -268t98 -366q0 -195 -98 -365t-267.5 -268t-365.5 -98t-365.5 98t-267.5 268t-98 365q0 196 98 366t267.5 268t365.5 98zM765 1335q-169 0 -315.5 -84.5t-231 -230.5t-84.5 -316q0 -169 84.5 -315t231 -231t315.5 -85t315.5 85t231 231
t84.5 315q0 170 -84.5 316t-231 230.5t-315.5 84.5zM1093 1093v-240h-72q-5 100 -24 136.5t-69.5 62t-122.5 25.5q-135 0 -221.5 -93t-86.5 -251q0 -166 88.5 -267t216.5 -101q80 0 142 39t110 130l61 -23q-38 -104 -132.5 -165t-219.5 -61q-114 0 -206.5 54t-146 155
t-53.5 224q0 181 115 307t327 126q142 0 294 -58z" />
    <glyph glyph-name="trademark" unicode="&#x2122;" horiz-adv-x="2005" 
d="M1940 1409v-61q-82 0 -91.5 -5.5t-9.5 -43.5v-627q0 -47 12.5 -57.5t88.5 -15.5v-65h-329v65q76 1 91.5 13.5t15.5 64.5v556l-290 -699h-47l-299 717v-586q0 -39 6 -48t20 -13t79 -5v-65h-279v65q79 1 90.5 9.5t11.5 58.5v626q0 42 -8.5 48.5t-76.5 6.5v61h231l269 -649
l279 649h236zM773 1409q-5 -46 -5 -93q0 -34 5 -131h-71q-3 85 -17 109t-45.5 34t-161.5 10v-668q0 -50 12.5 -61t79.5 -11l36 1v-65h-380v65q99 0 114.5 10.5t15.5 63.5v665q-117 0 -151 -11t-49.5 -36t-23.5 -106h-71q11 87 13 111.5t2 112.5h697z" />
    <glyph glyph-name="acute" unicode="&#xb4;" horiz-adv-x="682" 
d="M211 1038h-68l296 283q37 36 53 44.5t36 8.5q29 0 47.5 -17.5t18.5 -43.5q0 -24 -19.5 -46.5t-94.5 -67.5z" />
    <glyph glyph-name="dieresis" unicode="&#xa8;" horiz-adv-x="682" 
d="M124 1262q45 0 77 -32t32 -77q0 -46 -32 -78t-77 -32q-46 0 -78 32t-32 78q0 45 32 77t78 32zM558 1262q45 0 77 -32t32 -77q0 -46 -32 -78t-77 -32t-77.5 32t-32.5 78q0 45 32 77t78 32z" />
    <glyph glyph-name="notequal" unicode="&#x2260;" horiz-adv-x="1124" 
d="M384 464h-325v139h389l93 203h-482v139h546l234 511h137l-235 -511h325v-139h-388l-94 -203h482v-139h-546l-234 -511h-137z" />
    <glyph glyph-name="AE" unicode="&#xc6;" horiz-adv-x="1933" 
d="M1153 676v-378q0 -110 4 -206q226 -12 284 -12q198 0 301 42q27 96 48 220h70q-14 -82 -19 -143.5t-5 -190.5q-103 -14 -261 -14l-441 6q-133 0 -271 -7v47q52 21 96 52q12 150 13 408q-101 4 -194 4q-133 0 -306 -4l-54 -96q-71 -126 -113 -227q-16 -38 -16 -56
q0 -22 18 -34t97 -22l68 -9v-63q-125 7 -234 7q-119 0 -234 -7v63h37q41 0 70.5 21t69.5 95l569 1033q53 97 53 115q0 15 -12.5 22t-75.5 11l-116 8v60l485 -9l93 -1l323 8l59 1q144 0 264 -10q-33 -128 -33 -310h-68l2 59q0 46 -14 130q-134 40 -317 40q-72 0 -236 -12
l-4 -217v-329q91 -5 160 -5q224 0 258 17t34 93v76h68q-5 -88 -5 -188q0 -122 5 -275h-68v63q0 93 -29.5 113.5t-199.5 20.5q-103 0 -223 -10zM972 586v376q0 222 -8 384h-24q-184 -311 -308 -545l-114 -215h454z" />
    <glyph glyph-name="Oslash" unicode="&#xd8;" horiz-adv-x="1706" 
d="M133 -30l171 191q-103 106 -155.5 243.5t-52.5 305.5q0 323 210.5 524.5t561.5 201.5q151 0 273.5 -36t217.5 -105l160 178l65 -58l-160 -176q97 -101 141 -218t44 -267q0 -333 -227.5 -557t-568.5 -224q-129 0 -237.5 32.5t-205.5 100.5l-174 -192zM1243 1181
q-83 88 -183.5 128.5t-234.5 40.5q-269 0 -408 -178q-118 -150 -118 -396q0 -269 135 -484zM491 225q157 -166 389 -166q155 0 271 71t182 211t66 342q0 243 -104 425z" />
    <glyph glyph-name="infinity" unicode="&#x221e;" horiz-adv-x="1460" 
d="M654 667q65 149 143.5 213t226.5 64q162 0 272.5 -117t110.5 -300q0 -204 -133 -327q-101 -93 -216 -93q-86 0 -159 53.5t-178 232.5q-66 -128 -143.5 -180.5t-180.5 -52.5q-145 0 -244 103.5t-99 265.5t91 264.5t216 102.5q88 0 153.5 -46t139.5 -183zM750 464
q73 -152 145.5 -207.5t166.5 -55.5q124 0 206 89.5t82 236.5q0 145 -86 242t-196 97q-64 0 -112.5 -29.5t-91.5 -99.5q-29 -49 -114 -273zM625 590q-53 119 -118 166.5t-149 47.5q-106 0 -177.5 -75t-71.5 -199q0 -130 69.5 -211t160.5 -81q81 0 146 62.5t129 255.5z" />
    <glyph glyph-name="plusminus" unicode="&#xb1;" horiz-adv-x="1124" 
d="M59 664v139h434v434h139v-434h434v-139h-434v-434h-139v434h-434zM59 0v139h1007v-139h-1007z" />
    <glyph glyph-name="lessequal" unicode="&#x2264;" horiz-adv-x="1124" 
d="M1066 406v-152l-1007 459v124l1007 459v-152l-805 -369zM59 44v139h1007v-139h-1007z" />
    <glyph glyph-name="greaterequal" unicode="&#x2265;" horiz-adv-x="1124" 
d="M59 406l805 369l-805 369v152l1007 -459v-124l-1007 -459v152zM1066 44h-1007v139h1007v-139z" />
    <glyph glyph-name="yen" unicode="&#xa5;" 
d="M429 310h-367v83h367v201h-367v83h327q-104 253 -208 451q-68 130 -103.5 154.5t-115.5 28.5v63q99 12 201 44q63 -28 101 -71t117 -228q102 -237 162 -442l299 732h148v-35q-40 -44 -64.5 -85.5t-132.5 -266.5q-107 -223 -158 -345h337v-83h-367v-201h367v-83h-367
q3 -192 19.5 -218.5t101.5 -29.5l76 -3v-66q-184 7 -312 7q-127 0 -258 -7v66h78q64 0 82 11.5t25 38.5q9 38 11 155z" />
    <glyph glyph-name="mu1" unicode="&#xb5;" horiz-adv-x="1180" 
d="M196 940h164v-557q0 -170 27 -220q38 -68 116 -68q59 0 117.5 33.5t117.5 100.5v711h165v-678q0 -121 17.5 -151.5t50.5 -30.5q63 0 81 124h42q-9 -119 -62.5 -175.5t-135.5 -56.5q-76 0 -113 49t-45 141q-90 -106 -165.5 -148t-148.5 -42q-51 0 -85 18t-70 68
q0 -59 23 -167q23 -107 23 -151q0 -50 -27 -81.5t-67 -31.5q-38 0 -62.5 29.5t-24.5 80.5q0 44 26 153q25 99 30.5 148t5.5 152v750z" />
    <glyph glyph-name="partialdiff" unicode="&#x2202;" horiz-adv-x="1012" 
d="M426 1138l-135 60q67 149 163.5 221t196.5 72q88 0 162 -56t117 -181.5t43 -327.5q0 -295 -87.5 -514.5t-231.5 -328t-290 -108.5q-138 0 -223 92t-85 255q0 236 164 398q199 196 638 204q-4 191 -29.5 276.5t-72 124t-103.5 38.5q-143 0 -227 -225zM854 796
q-248 -15 -359 -69t-185 -175t-74 -249q0 -83 51 -137t119 -54q87 0 186 73t168.5 224t93.5 387z" />
    <glyph glyph-name="summation" unicode="&#x2211;" horiz-adv-x="1460" 
d="M1356 -578h-1313v37l669 1003l-669 990v37h1278l27 -337h-40q-15 136 -76 196t-173 60h-740l566 -854l-633 -955h818q87 0 152 26t99.5 73t58.5 147l40 -8z" />
    <glyph glyph-name="product" unicode="&#x220f;" horiz-adv-x="1685" 
d="M1240 1411h-795v-1796q0 -83 37 -119t125 -36h36v-38h-597v38h35q93 0 128 37.5t35 117.5v1681q0 84 -37 119.5t-126 35.5h-35v38h1594v-38h-35q-92 0 -127 -37.5t-35 -117.5v-1681q0 -83 37 -119t125 -36h35v-38h-597v38h35q93 0 127.5 37.5t34.5 117.5v1796z" />
    <glyph glyph-name="pi" unicode="&#xf010;" horiz-adv-x="1124" 
d="M0 1063h1124v-158h-162v-905h-189v905h-426v-905h-188v905h-159v158z" />
    <glyph glyph-name="integral" unicode="&#x222b;" horiz-adv-x="561" 
d="M201 948q0 209 16 499q10 184 54 292q25 60 71.5 92t92.5 32q49 0 87 -33t38 -74q0 -46 -26.5 -75t-65.5 -29q-35 0 -76 36q-23 20 -40 20q-18 0 -29 -14.5t-11 -49.5q0 -42 9 -145q37 -410 37 -665q0 -67 -15 -567q-9 -305 -84 -410q-55 -77 -141 -77q-52 0 -85 34
t-33 87q0 44 25.5 71.5t64.5 27.5q40 0 70 -33q28 -31 48 -31q17 0 28 14.5t11 46.5q0 42 -9 120q-37 316 -37 831z" />
    <glyph glyph-name="ordfeminine" unicode="&#xaa;" horiz-adv-x="682" 
d="M91 1256v90l70 40q86 50 164 50q85 0 139.5 -35.5t68.5 -83t16 -261.5q2 -176 8 -194t34 -20l51 -3v-43q-74 5 -106 5q-40 0 -99 -5q3 62 3 117l-138 -104q-22 -17 -38.5 -22t-47.5 -5q-85 0 -130 42t-45 114q0 67 32 117t92 74t272 61q-2 87 -44.5 130.5t-119.5 43.5
q-31 0 -58 -7t-51 -21l-36 -90zM437 1151q-188 -40 -232.5 -75.5t-44.5 -100.5q0 -49 28 -78t74 -29q47 0 91.5 26t86.5 78z" />
    <glyph glyph-name="ordmasculine" unicode="&#xba;" horiz-adv-x="682" 
d="M18 1112q0 141 93.5 232.5t240.5 91.5q140 0 224.5 -84t84.5 -223q0 -153 -98 -251t-247 -98q-133 0 -215.5 89t-82.5 243zM137 1162q0 -137 57 -236t165 -99q82 0 132.5 62t50.5 187q0 156 -66 242q-57 75 -152 75q-88 0 -137.5 -62t-49.5 -169z" />
    <glyph glyph-name="Ohm" unicode="&#x2126;" horiz-adv-x="1573" 
d="M496 160q-126 79 -196.5 167.5t-110 209.5t-39.5 265q0 210 84.5 370.5t231.5 245.5t342 85q323 0 502 -236q145 -190 145 -466q0 -138 -39.5 -256.5t-111.5 -211.5t-193 -173l364 6v-166h-575v177q90 45 144 95q92 88 147.5 219.5t55.5 285.5q0 171 -60.5 305.5
t-155.5 196t-227 61.5q-195 0 -318.5 -147t-123.5 -413q0 -220 92 -374.5t250 -225.5v-180h-577v168z" />
    <glyph glyph-name="ae" unicode="&#xe6;" horiz-adv-x="1552" 
d="M192 680l-53 13v127l218 122q46 18 138 18q91 0 159 -32t128 -108q87 81 159.5 110.5t167.5 29.5q180 0 281 -98.5t101 -273.5q0 -35 -5 -75q-150 -38 -420 -38l-247 2q2 -193 98 -297t249 -104q65 0 135 23t145 69l19 -19l-42 -75q-81 -50 -165 -75.5t-171 -25.5
q-261 0 -388 217q-120 -83 -246 -196q-36 -10 -67 -15.5t-58 -5.5q-122 0 -194.5 70t-72.5 175q0 74 30 136t65 85q57 38 186.5 69.5t316.5 44.5q-10 162 -57 224q-62 81 -175 81q-38 0 -83.5 -13t-99.5 -39zM819 553q164 -6 250 -6q89 0 240 6l1 47q0 141 -63.5 215
t-174.5 74q-121 0 -190 -90q-60 -76 -63 -246zM659 481q-211 -10 -375 -91q-24 -34 -36.5 -67t-12.5 -65q0 -67 46 -112.5t119 -45.5q69 0 132.5 33t126.5 110v238z" />
    <glyph glyph-name="oslash" unicode="&#xf8;" horiz-adv-x="1139" 
d="M63 -22l129 146q-108 148 -108 332q0 242 146.5 373t354.5 131q164 0 287 -79l119 133l60 -53l-116 -132q64 -68 93 -146.5t29 -185.5q0 -257 -176 -402q-147 -122 -350 -122q-158 0 -281 93l-124 -142zM776 778q-93 111 -225 111q-126 0 -202.5 -88.5t-76.5 -261.5
q0 -146 48 -278zM361 184q87 -139 234 -139q123 0 198 92.5t75 279.5q0 148 -51 284z" />
    <glyph glyph-name="questiondown" unicode="&#xbf;" horiz-adv-x="909" 
d="M474 954q49 0 83.5 -34t34.5 -82t-34.5 -82.5t-83.5 -34.5q-48 0 -82.5 34.5t-34.5 82.5t34 82t83 34zM786 -197l-78 -238q-60 -36 -124.5 -54.5t-133.5 -18.5q-176 0 -279 92.5t-103 237.5q0 59 18.5 113t54.5 100.5t157 158.5q100 93 123 120q37 45 52 82q11 25 11 53
q0 49 -46 104l43 32q50 -37 70.5 -75.5t20.5 -86.5t-23.5 -96t-112.5 -150q-117 -136 -148.5 -198.5t-31.5 -120.5q0 -95 71.5 -161t181.5 -66q31 0 64 8.5t67 24.5q55 77 89 157l51 -6z" />
    <glyph glyph-name="exclamdown" unicode="&#xa1;" horiz-adv-x="569" 
d="M286 940q49 0 83 -34t34 -83q0 -48 -34 -82t-83 -34q-48 0 -82 34t-34 82q0 49 34 83t82 34zM238 -491h-72l2 136q2 29 11 110q39 330 65 744l56 52l19 -10q27 -383 45 -541q29 -255 29 -347l-1 -64q-79 -37 -154 -80z" />
    <glyph glyph-name="logicalnot" unicode="&#xac;" horiz-adv-x="1241" 
d="M986 464v342h-869v139h1007v-481h-138z" />
    <glyph glyph-name="radical" unicode="&#x221a;" horiz-adv-x="1124" 
d="M1047 1869h74l-312 -1947l-496 1021l-198 -91l-34 64l301 151l405 -823z" />
    <glyph glyph-name="florin" unicode="&#x192;" 
d="M337 892l7 37q81 28 159 64l18 107q19 114 81 192q93 117 246 229q72 52 130 52q29 0 70 -15q-24 -73 -24 -129l1 -36l-32 -13q-30 32 -52.5 43t-54.5 11q-86 0 -129 -70q-30 -49 -67 -264l-18 -107l100 -2q36 0 165 7l7 -9l-33 -84q-113 5 -253 5l-127 -721
q-21 -117 -81 -192q-94 -118 -249 -229q-61 -45 -133 -45q-37 0 -92 15q23 70 25 165l31 17q60 -57 127 -57q83 0 134 75q35 52 71 257l123 704q-75 -2 -150 -7z" />
    <glyph glyph-name="approxequal" unicode="&#x2248;" horiz-adv-x="1124" 
d="M1051 1019h45q-5 -151 -62 -221q-70 -87 -183 -87q-46 0 -99 15.5t-274 106.5q-154 63 -219 63q-148 0 -186 -183h-44q1 110 29.5 171.5t85.5 99t119 37.5q45 0 99 -16q104 -31 281 -107q94 -40 153 -57q32 -9 69 -9q76 0 126.5 48.5t59.5 138.5zM1051 696h45
q-5 -151 -62 -220q-70 -88 -183 -88q-46 0 -99 15.5t-274 106.5q-154 63 -219 63q-148 0 -186 -182h-44q1 109 29.5 171t85.5 99t119 37q45 0 99 -16q104 -31 281 -107q94 -40 153 -57q32 -9 69 -9q76 0 126.5 48.5t59.5 138.5z" />
    <glyph glyph-name="increment" unicode="&#x2206;" horiz-adv-x="1253" 
d="M1226 0h-1200l628 1387zM990 82l-399 967l-440 -967h839z" />
    <glyph glyph-name="guillemotleft" unicode="&#xab;" 
d="M458 844l52 -34l-241 -330q123 -181 241 -329l-52 -35q-191 196 -358 350v26q138 128 358 352zM872 844l52 -34l-241 -330q123 -181 241 -329l-52 -35q-194 199 -358 350v26q137 127 358 352z" />
    <glyph glyph-name="guillemotright" unicode="&#xbb;" 
d="M566 114l-52 34l241 331q-123 180 -241 329l52 34q185 -190 358 -350v-26q-151 -139 -358 -352zM151 114l-51 34l241 331q-120 176 -241 329l51 34l359 -350v-26q-151 -139 -359 -352z" />
    <glyph glyph-name="ellipsis" unicode="&#x2026;" horiz-adv-x="2048" 
d="M342 207q48 0 82 -34.5t34 -82.5t-34 -82.5t-82 -34.5q-49 0 -83 34.5t-34 82.5q0 49 34 83t83 34zM1024 207q48 0 82 -34.5t34 -82.5t-34 -82.5t-82 -34.5q-49 0 -83 34.5t-34 82.5q0 49 34 83t83 34zM1706 207q48 0 82 -34.5t34 -82.5t-34 -82.5t-82 -34.5
q-49 0 -83 34.5t-34 82.5q0 49 34 83t83 34z" />
    <glyph glyph-name="nbspace" unicode="&#xa0;" horiz-adv-x="512" 
 />
    <glyph glyph-name="Agrave" unicode="&#xc0;" horiz-adv-x="1593" 
d="M1049 473h-578l-68 -161q-67 -160 -67 -196q0 -23 12.5 -33t63.5 -16l96 -11v-63q-96 7 -216 7q-144 0 -253 -7v63l30 1q70 2 90.5 14.5t43.5 61.5q71 144 145 311l275 623q110 248 150 360h68l506 -1177q51 -120 68 -144.5t39 -35t99 -14.5v-63q-130 7 -248 7
q-110 0 -293 -7v63l99 6q53 4 63 11q15 11 15 28q0 18 -30 94zM508 555h504l-252 602zM957 1517l-269 161q-76 45 -98 71q-16 19 -16 43q0 26 18 43.5t49 17.5q19 0 35 -8.5t53 -44.5l295 -283h-67z" />
    <glyph glyph-name="Atilde" unicode="&#xc3;" horiz-adv-x="1593" 
d="M1049 473h-578l-68 -161q-67 -160 -67 -196q0 -23 12.5 -33t63.5 -16l96 -11v-63q-96 7 -216 7q-144 0 -253 -7v63l30 1q70 2 90.5 14.5t43.5 61.5q71 144 145 311l275 623q110 248 150 360h68l506 -1177q51 -120 68 -144.5t39 -35t99 -14.5v-63q-130 7 -248 7
q-110 0 -293 -7v63l99 6q53 4 63 11q15 11 15 28q0 18 -30 94zM508 555h504l-252 602zM506 1580h-54q57 199 221 199q70 0 186 -52q101 -45 143 -45q84 0 126 104h54q-27 -101 -84.5 -153.5t-131.5 -52.5q-69 0 -175 45q-118 51 -165 51q-81 0 -120 -96z" />
    <glyph glyph-name="Otilde" unicode="&#xd5;" horiz-adv-x="1610" 
d="M47 705q0 329 212 530t565 201q346 0 542.5 -186.5t196.5 -495.5q0 -333 -228 -557t-575 -224q-217 0 -374 88t-248 257t-91 387zM250 787q0 -226 77.5 -393.5t207.5 -251t297 -83.5q155 0 271 71t182.5 212t66.5 343q0 212 -73.5 362.5t-201.5 226.5t-303 76
q-160 0 -276 -67t-182 -196.5t-66 -299.5zM494 1580h-54q57 199 221 199q70 0 186 -52q101 -45 143 -45q84 0 126 104h54q-27 -101 -84.5 -153.5t-131.5 -52.5q-69 0 -175 45q-118 51 -165 51q-81 0 -120 -96z" />
    <glyph glyph-name="OE" unicode="&#x152;" horiz-adv-x="2044" 
d="M1303 673v-288q0 -115 8 -288q101 -11 210 -11q150 0 234 11q55 7 112 29q35 100 48 220h68q-16 -109 -24 -338q-123 -17 -247 -17l-162 4l-240 5q-117 0 -297 -15q-132 -12 -196 -12q-233 0 -390 87t-249 247.5t-92 383.5q0 230 90 389.5t267.5 257.5t393.5 98
q78 0 174 -10q183 -17 278 -17q48 0 230 5q157 5 239 5q104 0 193 -8q-35 -129 -36 -307h-65q0 106 -12 186q-137 41 -296 41q-121 0 -231 -15q-8 -112 -8 -285v-257q91 -6 182 -6q191 0 219.5 18.5t28.5 108.5v57h66q-5 -109 -5 -209q0 -108 5 -254h-66v84q0 74 -33 92.5
t-217 18.5q-89 0 -180 -11zM1108 107q14 179 14 397v482q0 171 -14 295q-135 69 -289 69q-162 0 -283.5 -70t-184 -197t-62.5 -323q0 -323 170 -524q150 -177 389 -177q128 0 260 48z" />
    <glyph glyph-name="oe" unicode="&#x153;" horiz-adv-x="1694" 
d="M978 483q5 -179 72 -273q96 -134 276 -134q66 0 122 18t130 67l14 -16l-33 -74q-75 -49 -155 -73.5t-164 -24.5q-108 0 -191 39t-166 133q-82 -92 -169.5 -132t-194.5 -40q-198 0 -325.5 135t-127.5 362q0 224 129 350q143 140 359 140q106 0 190.5 -35.5t160.5 -116.5
q82 83 162 117.5t181 34.5q183 0 282 -100t99 -280q0 -23 -3 -69q-134 -30 -344 -30zM978 564q164 -11 351 -11q50 0 125 3l3 54q0 139 -64 213t-165 74q-105 0 -176 -85.5t-74 -247.5zM820 434q0 220 -98 348q-81 107 -213 107q-119 0 -194 -86t-75 -251q0 -159 46 -279.5
t117.5 -174t160.5 -53.5q113 0 184.5 94t71.5 295z" />
    <glyph glyph-name="endash" unicode="&#x2013;" 
d="M79 399l-13 14q30 78 50 145q148 -7 358 -7q279 0 475 7l9 -15q-33 -74 -50 -144q-137 9 -372 9q-305 0 -457 -9z" />
    <glyph glyph-name="emdash" unicode="&#x2014;" horiz-adv-x="2048" 
d="M331 399l-13 14q30 78 50 145q152 -7 518 -7q631 0 834 7l9 -15q-32 -73 -50 -144q-138 9 -538 9q-652 0 -810 -9z" />
    <glyph glyph-name="quotedblleft" unicode="&#x201c;" 
d="M725 1435l98 55l30 -25q-85 -134 -119.5 -234t-41.5 -216q-86 -21 -201 -57l-29 24q66 150 123 248.5t140 204.5zM322 1435l98 55l30 -25q-86 -135 -120.5 -234.5t-40.5 -215.5q-84 -21 -201 -57l-29 24q66 150 123.5 248.5t139.5 204.5z" />
    <glyph glyph-name="quotedblright" unicode="&#x201d;" 
d="M187 1013l-98 -55l-30 25q85 134 119.5 234t41.5 216q94 24 200 57l30 -24q-65 -149 -123 -248.5t-140 -204.5zM590 1013l-98 -55l-30 25q85 134 119.5 234t41.5 216q94 24 200 57l30 -24q-66 -151 -123 -249t-140 -204z" />
    <glyph glyph-name="quoteleft" unicode="&#x2018;" horiz-adv-x="569" 
d="M296 1435l98 55l30 -25q-86 -135 -120.5 -234.5t-40.5 -215.5q-84 -21 -201 -57l-29 24q66 150 123.5 248.5t139.5 204.5z" />
    <glyph glyph-name="quoteright" unicode="&#x2019;" horiz-adv-x="569" 
d="M161 1013l-98 -55l-30 25q85 135 119.5 234.5t41.5 215.5q94 24 200 57l30 -24q-66 -150 -123 -248t-140 -205z" />
    <glyph glyph-name="divide" unicode="&#xf7;" horiz-adv-x="1124" 
d="M563 1142q48 0 82 -34t34 -83q0 -48 -34 -82.5t-82 -34.5q-49 0 -83 34.5t-34 82.5t34 82.5t83 34.5zM59 635v139h1007v-139h-1007zM563 501q48 0 82 -34.5t34 -82.5t-34 -82.5t-82 -34.5t-82.5 34.5t-34.5 82.5t34 82.5t83 34.5z" />
    <glyph glyph-name="lozenge" unicode="&#x25ca;" horiz-adv-x="1012" 
d="M549 1422l418 -713l-418 -709h-111l-391 709l391 713h111zM495 1325l-340 -616l340 -615l359 615z" />
    <glyph glyph-name="ydieresis" unicode="&#xff;" horiz-adv-x="1139" 
d="M52 -543l47 156h23q27 -32 54 -48t55 -16q62 0 113 60t157 334l-176 443l-93 229l-75 175q-35 93 -105 93h-40v58q104 -7 184 -7q62 0 289 7v-58h-74q-38 0 -55.5 -13t-17.5 -32q0 -16 19 -69q101 -278 238 -596q132 291 230 561q29 79 29 96q0 32 -68 42l-74 11v58
q118 -7 210 -7q87 0 175 7v-58h-35q-23 0 -47 -13.5t-39 -37.5q-32 -51 -185 -389q-42 -93 -214 -504q-152 -346 -172 -380q-39 -66 -100 -101.5t-132 -35.5q-29 0 -59.5 9t-61.5 26zM352 1262q45 0 77 -32t32 -77q0 -46 -32 -78t-77 -32q-46 0 -78 32t-32 78q0 45 32 77
t78 32zM786 1262q45 0 77 -32t32 -77q0 -46 -32 -78t-77 -32t-77.5 32t-32.5 78q0 45 32 77t78 32z" />
    <glyph glyph-name="Ydieresis" unicode="&#x178;" horiz-adv-x="1366" 
d="M743 697q61 92 193 320l229 398h155v-25q-122 -137 -299 -413t-212 -370q-12 -33 -12 -169q0 -181 9 -287q6 -57 20.5 -68.5t102.5 -19.5l76 -8v-62q-174 7 -272 7l-322 -7v62h85q85 0 102 35t17 316q0 82 -5 179q-129 237 -238 410t-184 253q-41 44 -71.5 58t-102.5 14
v62l161 32l79 16q46 -17 74 -43q50 -47 153 -215q79 -129 262 -475zM466 1740q45 0 77 -32t32 -77q0 -46 -32 -78t-77 -32q-46 0 -78 32t-32 78q0 45 32 77t78 32zM900 1740q45 0 77 -32t32 -77q0 -46 -32 -78t-77 -32t-77.5 32t-32.5 78q0 45 32 77t78 32z" />
    <glyph glyph-name="fraction" unicode="&#x2044;" horiz-adv-x="342" 
d="M-278 -68q34 56 66 118l683 1319q32 60 47 108q42 -6 64 -6l38 1q-38 -60 -63 -107l-698 -1336q-27 -51 -45 -97q-30 3 -45 3t-47 -3z" />
    <glyph glyph-name="fraction" unicode="&#x2215;" horiz-adv-x="342" 
d="M-278 -68q34 56 66 118l683 1319q32 60 47 108q42 -6 64 -6l38 1q-38 -60 -63 -107l-698 -1336q-27 -51 -45 -97q-30 3 -45 3t-47 -3z" />
    <glyph glyph-name="Euro" unicode="&#x20ac;" 
d="M1010 1331q-18 -101 -34 -277l-5 -8h-55l-6 8l-8 157q-61 129 -252 129q-149 0 -256.5 -132t-124.5 -363h513l8 -11l-5 -56l-9 -10h-511q-1 -31 -1 -53q0 -40 1 -61h495l8 -11l-5 -56l-9 -10h-483q12 -220 122 -360.5t282 -140.5q149 0 271 75l15 -22l-29 -77
q-128 -79 -306 -79q-505 0 -558 604h-94l-7 10l5 56l8 11h83q-1 28 -1 62q0 25 2 52h-90l-7 10l5 56l8 11h94q33 239 202 415t392 176q211 0 337 -95z" />
    <glyph glyph-name="guilsinglleft" unicode="&#x2039;" horiz-adv-x="678" 
d="M492 844l52 -34l-241 -330q123 -181 241 -329l-52 -35q-191 196 -358 350v26q138 128 358 352z" />
    <glyph glyph-name="guilsinglright" unicode="&#x203a;" horiz-adv-x="678" 
d="M185 114l-51 34l241 331q-120 176 -241 329l51 34l359 -350v-26q-151 -139 -359 -352z" />
    <glyph glyph-name="fi" unicode="&#xf001;" horiz-adv-x="1239" 
d="M368 786v-389q0 -280 16.5 -313t100.5 -33h88v-58q-164 8 -235 8l-316 -8v58h67q78 0 92 31q19 42 19 315v389l-144 -10v42l144 74v127q0 97 26.5 158t106.5 144q106 111 165 145q39 23 98 23q39 0 87 -13q-3 -51 -3 -82t3 -85l-25 -11q-59 52 -135 52q-84 0 -119.5 -57
t-35.5 -278v-133q162 1 265 10l7 -10l-16 -96l-123 3q-45 0 -133 -3zM942 1407q46 0 79 -33.5t33 -80.5t-33 -80t-79 -33q-47 0 -80 33t-33 80t33 80.5t80 33.5zM1022 964l24 -15q-7 -75 -9 -165q-7 -292 -7 -431q0 -130 9 -222q4 -36 19 -50t72 -21l68 -9v-58
q-146 7 -266 7q-118 0 -238 -7v58l86 9q50 4 61.5 18.5t14.5 96.5q5 127 5 350q0 155 -5 239q-2 31 -17.5 44t-69.5 13h-75v59q122 18 179.5 33t148.5 51z" />
    <glyph glyph-name="fi" unicode="&#xfb01;" horiz-adv-x="1239" 
d="M368 786v-389q0 -280 16.5 -313t100.5 -33h88v-58q-164 8 -235 8l-316 -8v58h67q78 0 92 31q19 42 19 315v389l-144 -10v42l144 74v127q0 97 26.5 158t106.5 144q106 111 165 145q39 23 98 23q39 0 87 -13q-3 -51 -3 -82t3 -85l-25 -11q-59 52 -135 52q-84 0 -119.5 -57
t-35.5 -278v-133q162 1 265 10l7 -10l-16 -96l-123 3q-45 0 -133 -3zM942 1407q46 0 79 -33.5t33 -80.5t-33 -80t-79 -33q-47 0 -80 33t-33 80t33 80.5t80 33.5zM1022 964l24 -15q-7 -75 -9 -165q-7 -292 -7 -431q0 -130 9 -222q4 -36 19 -50t72 -21l68 -9v-58
q-146 7 -266 7q-118 0 -238 -7v58l86 9q50 4 61.5 18.5t14.5 96.5q5 127 5 350q0 155 -5 239q-2 31 -17.5 44t-69.5 13h-75v59q122 18 179.5 33t148.5 51z" />
    <glyph glyph-name="fl" unicode="&#xf002;" horiz-adv-x="1245" 
d="M368 786v-389q0 -280 16.5 -313t100.5 -33h88v-58q-164 8 -235 8l-316 -8v58h67q78 0 92 31q19 42 19 315v389l-144 -10v42l144 74v127q0 97 26.5 158t106.5 144q106 111 165 145q39 23 98 23q39 0 87 -13q-3 -51 -3 -82t3 -85l-25 -11q-59 52 -135 52q-84 0 -119.5 -57
t-35.5 -278v-133q162 1 265 10l7 -10l-16 -96l-123 3q-45 0 -133 -3zM1041 1478q-17 -293 -17 -530v-514q0 -306 13 -347q7 -21 66 -27l85 -9v-58q-109 7 -208 7q-110 0 -288 -7v58l86 7q57 5 65 29q13 39 13 355v511l-1 192l-3 131q0 49 -11 60q-16 16 -67 16h-82v60
q208 19 332 78z" />
    <glyph glyph-name="fl" unicode="&#xfb02;" horiz-adv-x="1245" 
d="M368 786v-389q0 -280 16.5 -313t100.5 -33h88v-58q-164 8 -235 8l-316 -8v58h67q78 0 92 31q19 42 19 315v389l-144 -10v42l144 74v127q0 97 26.5 158t106.5 144q106 111 165 145q39 23 98 23q39 0 87 -13q-3 -51 -3 -82t3 -85l-25 -11q-59 52 -135 52q-84 0 -119.5 -57
t-35.5 -278v-133q162 1 265 10l7 -10l-16 -96l-123 3q-45 0 -133 -3zM1041 1478q-17 -293 -17 -530v-514q0 -306 13 -347q7 -21 66 -27l85 -9v-58q-109 7 -208 7q-110 0 -288 -7v58l86 7q57 5 65 29q13 39 13 355v511l-1 192l-3 131q0 49 -11 60q-16 16 -67 16h-82v60
q208 19 332 78z" />
    <glyph glyph-name="daggerdbl" unicode="&#x2021;" 
d="M85 56l-11 11q6 45 6 75q0 28 -6 65l11 11q144 -17 349 -16l1 81q0 100 -16 247q16 146 16 246l-1 81q-213 0 -349 -16l-11 11q6 37 6 65q0 30 -6 75l11 10q193 -19 349 -18q0 269 -21 416l14 16q57 -5 83 -5q30 0 78 5l16 -16q-17 -163 -16 -416q209 -1 351 18l11 -10
q-4 -38 -4 -66q0 -32 4 -74l-11 -11q-183 16 -351 16q0 -123 2 -167t14 -160q-12 -118 -14 -161.5t-2 -166.5q164 -1 351 16l11 -11q-4 -42 -4 -74q0 -29 4 -66l-11 -11q-144 20 -351 18q-1 -252 16 -416l-16 -15q-45 5 -76 5q-33 0 -85 -5l-14 15q21 148 21 416
q-170 0 -349 -18z" />
    <glyph glyph-name="periodcentered" unicode="&#x2219;" horiz-adv-x="512" 
d="M256 596q48 0 82 -34t34 -83q0 -48 -34 -82t-82 -34q-49 0 -83 34t-34 82q0 49 34 83t83 34z" />
    <glyph glyph-name="quotesinglbase" unicode="&#x201a;" horiz-adv-x="569" 
d="M161 -226l-98 -55l-30 25q85 134 119.5 233.5t41.5 216.5q85 21 200 57l30 -24q-65 -149 -122.5 -247t-140.5 -206z" />
    <glyph glyph-name="quotedblbase" unicode="&#x201e;" 
d="M590 -226l-98 -55l-30 25q85 135 119.5 234.5t41.5 215.5q83 21 200 57l30 -24q-65 -148 -123 -247.5t-140 -205.5zM187 -226l-98 -55l-30 25q85 134 119.5 234t41.5 216q85 21 200 57l30 -24q-65 -149 -122.5 -247t-140.5 -206z" />
    <glyph glyph-name="perthousand" unicode="&#x2030;" horiz-adv-x="2343" 
d="M454 805q-121 0 -201.5 86t-80.5 226q0 149 91 247t216 98q122 0 203.5 -85.5t81.5 -225.5q0 -153 -89 -249.5t-221 -96.5zM462 854q71 0 115 66.5t44 226.5q0 143 -39 201.5t-106 58.5q-71 0 -109 -59q-52 -81 -52 -237q0 -140 40.5 -198.5t106.5 -58.5zM353 -68
q34 56 66 118l683 1319q32 60 47 108q42 -6 64 -6l38 1q-38 -60 -63 -107l-698 -1336q-27 -51 -45 -97q-30 3 -45 3t-47 -3zM1139 0q-121 0 -201.5 86t-80.5 226q0 149 91 247t216 98q122 0 203.5 -85.5t81.5 -225.5q0 -153 -89 -249.5t-221 -96.5zM1147 49q71 0 115 66.5
t44 226.5q0 143 -39 201.5t-106 58.5q-71 0 -109 -59q-52 -81 -52 -237q0 -140 40.5 -198.5t106.5 -58.5zM1860 0q-121 0 -201.5 86t-80.5 226q0 149 91 247t216 98q122 0 203.5 -85.5t81.5 -225.5q0 -153 -89 -249.5t-221 -96.5zM1868 49q71 0 115 66.5t44 226.5
q0 143 -39 201.5t-106 58.5q-71 0 -109 -59q-52 -81 -52 -237q0 -140 40.5 -198.5t106.5 -58.5z" />
    <glyph glyph-name="Acircumflex" unicode="&#xc2;" horiz-adv-x="1593" 
d="M1049 473h-578l-68 -161q-67 -160 -67 -196q0 -23 12.5 -33t63.5 -16l96 -11v-63q-96 7 -216 7q-144 0 -253 -7v63l30 1q70 2 90.5 14.5t43.5 61.5q71 144 145 311l275 623q110 248 150 360h68l506 -1177q51 -120 68 -144.5t39 -35t99 -14.5v-63q-130 7 -248 7
q-110 0 -293 -7v63l99 6q53 4 63 11q15 11 15 28q0 18 -30 94zM508 555h504l-252 602zM521 1510l257 344h96l258 -344h-63l-245 217l-240 -217h-63z" />
    <glyph glyph-name="Ecircumflex" unicode="&#xca;" horiz-adv-x="1251" 
d="M454 672v-245l1 -141q0 -132 3 -193q146 -11 313 -11q112 0 188 10q49 6 104 26q25 88 51 220h67q-27 -219 -27 -292l2 -45q-115 -11 -226 -11l-157 3q-260 7 -382 7q-117 0 -311 -7v63h31q87 0 109.5 17t30 80t7.5 278v549q0 135 -6.5 221t-14 102.5t-21.5 25.5t-86 16
l-77 8v62h108l106 -3q89 -3 135 -3l384 5l182 1q93 1 188 -8q-38 -118 -42 -307h-68q0 110 -11 183q-118 44 -290 44q-137 0 -287 -12q1 -94 -2 -188l-2 -154v-203q99 -6 175 -6q238 0 269.5 16.5t31.5 102.5v65h68q-7 -151 -7 -241q0 -95 7 -224h-68v58q0 96 -37.5 117.5
t-264.5 21.5q-84 0 -174 -8zM320 1510l257 344h96l258 -344h-63l-245 217l-240 -217h-63z" />
    <glyph glyph-name="Aacute" unicode="&#xc1;" horiz-adv-x="1593" 
d="M1049 473h-578l-68 -161q-67 -160 -67 -196q0 -23 12.5 -33t63.5 -16l96 -11v-63q-96 7 -216 7q-144 0 -253 -7v63l30 1q70 2 90.5 14.5t43.5 61.5q71 144 145 311l275 623q110 248 150 360h68l506 -1177q51 -120 68 -144.5t39 -35t99 -14.5v-63q-130 7 -248 7
q-110 0 -293 -7v63l99 6q53 4 63 11q15 11 15 28q0 18 -30 94zM508 555h504l-252 602zM667 1517h-68l296 283q37 36 53 44.5t36 8.5q29 0 47.5 -17.5t18.5 -43.5q0 -24 -19.5 -46.5t-94.5 -67.5z" />
    <glyph glyph-name="Edieresis" unicode="&#xcb;" horiz-adv-x="1251" 
d="M454 672v-245l1 -141q0 -132 3 -193q146 -11 313 -11q112 0 188 10q49 6 104 26q25 88 51 220h67q-27 -219 -27 -292l2 -45q-115 -11 -226 -11l-157 3q-260 7 -382 7q-117 0 -311 -7v63h31q87 0 109.5 17t30 80t7.5 278v549q0 135 -6.5 221t-14 102.5t-21.5 25.5t-86 16
l-77 8v62h108l106 -3q89 -3 135 -3l384 5l182 1q93 1 188 -8q-38 -118 -42 -307h-68q0 110 -11 183q-118 44 -290 44q-137 0 -287 -12q1 -94 -2 -188l-2 -154v-203q99 -6 175 -6q238 0 269.5 16.5t31.5 102.5v65h68q-7 -151 -7 -241q0 -95 7 -224h-68v58q0 96 -37.5 117.5
t-264.5 21.5q-84 0 -174 -8zM409 1740q45 0 77 -32t32 -77q0 -46 -32 -78t-77 -32q-46 0 -78 32t-32 78q0 45 32 77t78 32zM843 1740q45 0 77 -32t32 -77q0 -46 -32 -78t-77 -32t-77.5 32t-32.5 78q0 45 32 77t78 32z" />
    <glyph glyph-name="Egrave" unicode="&#xc8;" horiz-adv-x="1251" 
d="M454 672v-245l1 -141q0 -132 3 -193q146 -11 313 -11q112 0 188 10q49 6 104 26q25 88 51 220h67q-27 -219 -27 -292l2 -45q-115 -11 -226 -11l-157 3q-260 7 -382 7q-117 0 -311 -7v63h31q87 0 109.5 17t30 80t7.5 278v549q0 135 -6.5 221t-14 102.5t-21.5 25.5t-86 16
l-77 8v62h108l106 -3q89 -3 135 -3l384 5l182 1q93 1 188 -8q-38 -118 -42 -307h-68q0 110 -11 183q-118 44 -290 44q-137 0 -287 -12q1 -94 -2 -188l-2 -154v-203q99 -6 175 -6q238 0 269.5 16.5t31.5 102.5v65h68q-7 -151 -7 -241q0 -95 7 -224h-68v58q0 96 -37.5 117.5
t-264.5 21.5q-84 0 -174 -8zM755 1517l-269 161q-76 45 -98 71q-16 19 -16 43q0 26 18 43.5t49 17.5q19 0 35 -8.5t53 -44.5l295 -283h-67z" />
    <glyph glyph-name="Iacute" unicode="&#xcd;" horiz-adv-x="690" 
d="M61 56h63q93 0 111.5 45t18.5 431v339q0 400 -16 441t-96 41h-81v63q166 -7 328 -7q135 0 245 7v-63h-77q-71 0 -89 -17t-21 -86q-5 -107 -5 -381v-345q0 -389 17 -428.5t109 -39.5h66v-63q-123 7 -268 7q-169 0 -305 -7v63zM241 1517h-68l296 283q37 36 53 44.5t36 8.5
q29 0 47.5 -17.5t18.5 -43.5q0 -24 -19.5 -46.5t-94.5 -67.5z" />
    <glyph glyph-name="Icircumflex" unicode="&#xce;" horiz-adv-x="690" 
d="M62 56h63q93 0 111.5 45t18.5 431v339q0 400 -16 441t-96 41h-81v63q166 -7 328 -7q135 0 245 7v-63h-77q-71 0 -89 -17t-21 -86q-5 -107 -5 -381v-345q0 -389 17 -428.5t109 -39.5h66v-63q-123 7 -268 7q-169 0 -305 -7v63zM40 1510l257 344h96l258 -344h-63l-245 217
l-240 -217h-63z" />
    <glyph glyph-name="Idieresis" unicode="&#xcf;" horiz-adv-x="690" 
d="M61 56h63q93 0 111.5 45t18.5 431v339q0 400 -16 441t-96 41h-81v63q166 -7 328 -7q135 0 245 7v-63h-77q-71 0 -89 -17t-21 -86q-5 -107 -5 -381v-345q0 -389 17 -428.5t109 -39.5h66v-63q-123 7 -268 7q-169 0 -305 -7v63zM128 1740q45 0 77 -32t32 -77q0 -46 -32 -78
t-77 -32q-46 0 -78 32t-32 78q0 45 32 77t78 32zM562 1740q45 0 77 -32t32 -77q0 -46 -32 -78t-77 -32t-77.5 32t-32.5 78q0 45 32 77t78 32z" />
    <glyph glyph-name="Igrave" unicode="&#xcc;" horiz-adv-x="690" 
d="M61 56h63q93 0 111.5 45t18.5 431v339q0 400 -16 441t-96 41h-81v63q166 -7 328 -7q135 0 245 7v-63h-77q-71 0 -89 -17t-21 -86q-5 -107 -5 -381v-345q0 -389 17 -428.5t109 -39.5h66v-63q-123 7 -268 7q-169 0 -305 -7v63zM475 1517l-269 161q-76 45 -98 71
q-16 19 -16 43q0 26 18 43.5t49 17.5q19 0 35 -8.5t53 -44.5l295 -283h-67z" />
    <glyph glyph-name="Oacute" unicode="&#xd3;" horiz-adv-x="1610" 
d="M47 705q0 329 212 530t565 201q346 0 542.5 -186.5t196.5 -495.5q0 -333 -228 -557t-575 -224q-217 0 -374 88t-248 257t-91 387zM250 787q0 -226 77.5 -393.5t207.5 -251t297 -83.5q155 0 271 71t182.5 212t66.5 343q0 212 -73.5 362.5t-201.5 226.5t-303 76
q-160 0 -276 -67t-182 -196.5t-66 -299.5zM675 1517h-68l296 283q37 36 53 44.5t36 8.5q29 0 47.5 -17.5t18.5 -43.5q0 -24 -19.5 -46.5t-94.5 -67.5z" />
    <glyph glyph-name="Ocircumflex" unicode="&#xd4;" horiz-adv-x="1610" 
d="M47 705q0 329 212 530t565 201q346 0 542.5 -186.5t196.5 -495.5q0 -333 -228 -557t-575 -224q-217 0 -374 88t-248 257t-91 387zM250 787q0 -226 77.5 -393.5t207.5 -251t297 -83.5q155 0 271 71t182.5 212t66.5 343q0 212 -73.5 362.5t-201.5 226.5t-303 76
q-160 0 -276 -67t-182 -196.5t-66 -299.5zM499 1510l257 344h96l258 -344h-63l-245 217l-240 -217h-63z" />
    <glyph glyph-name="apple" unicode="&#xf000;" horiz-adv-x="1618" 
 />
    <glyph glyph-name="Ograve" unicode="&#xd2;" horiz-adv-x="1610" 
d="M47 705q0 329 212 530t565 201q346 0 542.5 -186.5t196.5 -495.5q0 -333 -228 -557t-575 -224q-217 0 -374 88t-248 257t-91 387zM250 787q0 -226 77.5 -393.5t207.5 -251t297 -83.5q155 0 271 71t182.5 212t66.5 343q0 212 -73.5 362.5t-201.5 226.5t-303 76
q-160 0 -276 -67t-182 -196.5t-66 -299.5zM935 1517l-269 161q-76 45 -98 71q-16 19 -16 43q0 26 18 43.5t49 17.5q19 0 35 -8.5t53 -44.5l295 -283h-67z" />
    <glyph glyph-name="Uacute" unicode="&#xda;" horiz-adv-x="1593" 
d="M39 1353v63q205 -7 298 -7q98 0 288 7v-63h-73q-94 0 -113 -36t-19 -326v-392q0 -215 23.5 -299t121.5 -142t262 -58q169 0 285 62q80 43 117 133.5t37 343.5v377q0 262 -23.5 299.5t-129.5 37.5h-52v63q207 -7 263 -7q91 0 226 7v-63h-68q-79 0 -101.5 -42.5
t-22.5 -298.5v-375q0 -257 -25.5 -346.5t-93 -161.5t-180 -114t-264.5 -42q-157 0 -275 37.5t-177.5 92.5t-86 134.5t-26.5 270.5l2 190v305q0 282 -16.5 316t-105.5 34h-71zM667 1517h-68l296 283q37 36 53 44.5t36 8.5q29 0 47.5 -17.5t18.5 -43.5q0 -24 -19.5 -46.5
t-94.5 -67.5z" />
    <glyph glyph-name="Ucircumflex" unicode="&#xdb;" horiz-adv-x="1593" 
d="M39 1353v63q205 -7 298 -7q98 0 288 7v-63h-73q-94 0 -113 -36t-19 -326v-392q0 -215 23.5 -299t121.5 -142t262 -58q169 0 285 62q80 43 117 133.5t37 343.5v377q0 262 -23.5 299.5t-129.5 37.5h-52v63q207 -7 263 -7q91 0 226 7v-63h-68q-79 0 -101.5 -42.5
t-22.5 -298.5v-375q0 -257 -25.5 -346.5t-93 -161.5t-180 -114t-264.5 -42q-157 0 -275 37.5t-177.5 92.5t-86 134.5t-26.5 270.5l2 190v305q0 282 -16.5 316t-105.5 34h-71zM491 1510l257 344h96l258 -344h-63l-245 217l-240 -217h-63z" />
    <glyph glyph-name="Ugrave" unicode="&#xd9;" horiz-adv-x="1593" 
d="M39 1353v63q205 -7 298 -7q98 0 288 7v-63h-73q-94 0 -113 -36t-19 -326v-392q0 -215 23.5 -299t121.5 -142t262 -58q169 0 285 62q80 43 117 133.5t37 343.5v377q0 262 -23.5 299.5t-129.5 37.5h-52v63q207 -7 263 -7q91 0 226 7v-63h-68q-79 0 -101.5 -42.5
t-22.5 -298.5v-375q0 -257 -25.5 -346.5t-93 -161.5t-180 -114t-264.5 -42q-157 0 -275 37.5t-177.5 92.5t-86 134.5t-26.5 270.5l2 190v305q0 282 -16.5 316t-105.5 34h-71zM927 1517l-269 161q-76 45 -98 71q-16 19 -16 43q0 26 18 43.5t49 17.5q19 0 35 -8.5t53 -44.5
l295 -283h-67z" />
    <glyph glyph-name="dotlessi" unicode="&#x131;" horiz-adv-x="588" 
d="M375 964l24 -15q-7 -75 -9 -165q-7 -292 -7 -431q0 -130 9 -222q4 -36 19 -50t72 -21l68 -9v-58q-146 7 -266 7q-118 0 -238 -7v58l86 9q50 4 59 16q14 17 17 99q5 127 5 350q0 155 -5 239q-2 31 -17.5 44t-69.5 13h-75v59q122 18 179.5 33t148.5 51z" />
    <glyph glyph-name="circumflex" unicode="&#x2c6;" horiz-adv-x="682" 
d="M36 1032l257 344h96l258 -344h-63l-245 217l-240 -217h-63z" />
    <glyph glyph-name="tilde" unicode="&#x2dc;" horiz-adv-x="682" 
d="M30 1102h-54q57 199 221 199q70 0 186 -52q101 -45 143 -45q84 0 126 104h54q-27 -101 -84.5 -153.5t-131.5 -52.5q-69 0 -175 45q-118 51 -165 51q-81 0 -120 -96z" />
    <glyph glyph-name="macron" unicode="&#x2c9;" horiz-adv-x="682" 
d="M84 1159v92h514v-92h-514z" />
    <glyph glyph-name="breve" unicode="&#x2d8;" horiz-adv-x="682" 
d="M52 1376h58q10 -107 73 -166t158 -59q94 0 157 59t73 166h59q-8 -158 -63 -235q-78 -109 -226 -109t-226 108q-56 79 -63 236z" />
    <glyph glyph-name="dotaccent" unicode="&#x2d9;" horiz-adv-x="512" 
d="M256 1407q45 0 76.5 -32t31.5 -77q0 -46 -32 -78t-76 -32q-45 0 -77 32t-32 78q0 45 31.5 77t77.5 32z" />
    <glyph glyph-name="ring" unicode="&#x2da;" horiz-adv-x="682" 
d="M341 1489q86 0 147 -60.5t61 -146.5q0 -85 -61 -146t-147 -61t-147 61t-61 146q0 86 60.5 146.5t147.5 60.5zM341 1387q-40 0 -68.5 -30.5t-28.5 -74.5t28.5 -74t68.5 -30t68.5 30t28.5 74t-28.5 74.5t-68.5 30.5z" />
    <glyph glyph-name="cedilla" unicode="&#xb8;" horiz-adv-x="682" 
d="M447 0l-44 -106q33 6 55 6q69 0 109 -36t40 -91q0 -69 -61.5 -119.5t-167.5 -50.5q-93 0 -193 43l31 60q100 -32 155 -32q52 0 79.5 24t27.5 62q0 35 -24 56.5t-68 21.5q-25 0 -55 -10l-16 13l71 159h61z" />
    <glyph glyph-name="hungarumlaut" unicode="&#x2dd;" horiz-adv-x="778" 
d="M107 1028h-55l167 258q44 68 60.5 81t40.5 13q28 0 48 -18t20 -42q0 -18 -11.5 -35.5t-65.5 -67.5zM394 1028h-60l214 256q54 65 73 77.5t41 12.5q28 0 47 -18.5t19 -44.5q0 -20 -12.5 -36t-91.5 -74z" />
    <glyph glyph-name="ogonek" unicode="&#x2db;" horiz-adv-x="641" 
d="M459 0q-96 -41 -144.5 -99t-48.5 -118q0 -55 31 -89t77 -34q29 0 52 11.5t59 50.5l33 -32q-107 -132 -228 -132q-74 0 -120.5 44.5t-46.5 110.5q0 83 65 161t189 126h82z" />
    <glyph glyph-name="caron" unicode="&#x2c7;" horiz-adv-x="682" 
d="M647 1376l-258 -344h-96l-257 344h62l246 -217l240 217h63z" />
    <glyph glyph-name="Lslash" unicode="&#x141;" horiz-adv-x="1251" 
d="M442 91q90 -5 181 -5q194 0 298 10q76 7 155 29l60 235h66q-27 -205 -40 -353q-90 -15 -245 -15l-478 8q-96 0 -300 -11v53q80 34 93 70q16 45 16 322v184l-197 -138v105l197 139v260q0 294 -13.5 326t-82.5 37l-109 6v63q228 -7 323 -7q123 0 275 7v-63l-122 -6
q-57 -3 -70 -32.5t-13 -245.5v-240l348 244v-106l-348 -247v-288q0 -194 6 -341z" />
    <glyph glyph-name="lslash" unicode="&#x142;" horiz-adv-x="596" 
d="M396 1478l-1 -25q-14 -274 -14 -519l164 141v-106l-164 -143v-392q0 -307 13 -347q6 -21 63 -27l88 -9v-58q-119 7 -217 7t-279 -7v58l86 7q58 5 65 29q13 38 13 355v258l-160 -141v108l160 142v144l-1 191l-3 131q0 48 -12 60t-65 15l-83 3v59q206 19 327 78z" />
    <glyph glyph-name="Scaron" unicode="&#x160;" horiz-adv-x="1075" 
d="M960 1349q-28 -104 -30 -276h-69v80q0 78 -21 106t-109.5 59.5t-186.5 31.5q-160 0 -251.5 -81t-91.5 -208q0 -80 37.5 -137.5t101 -83t269.5 -44.5q206 -20 278.5 -53t116 -106t43.5 -173q0 -201 -168 -346t-448 -145q-96 0 -193.5 19.5t-196.5 57.5q18 120 17 308h68
v-50q0 -97 10 -120t47 -49q55 -39 131 -59.5t164 -20.5q189 0 292 89t103 226q0 80 -35 135.5t-98 82.5t-233 41q-226 18 -307 54t-127 113.5t-46 192.5q0 195 141 319t390 124q100 0 200.5 -21.5t201.5 -65.5zM844 1854l-258 -344h-96l-257 344h62l246 -217l240 217h63z
" />
    <glyph glyph-name="scaron" unicode="&#x161;" horiz-adv-x="868" 
d="M152 299v-65q0 -78 14 -97q26 -32 101.5 -62t155.5 -30q103 0 168 55.5t65 132.5q0 61 -38 98t-145 59q-199 40 -263 70t-96 80t-32 121q0 133 96.5 216t273.5 83q140 0 279 -56q-8 -68 -13 -228h-59q-2 88 -19 116q-23 37 -84 67t-130 30q-91 0 -145.5 -46.5
t-54.5 -116.5q0 -67 43 -101q43 -35 238 -74q144 -29 190 -54t74 -76t28 -117q0 -135 -115.5 -233t-308.5 -98q-123 0 -276 39q-27 7 -27 21l3 14q4 15 7 53q9 97 9 151l-1 48h62zM740 1376l-258 -344h-96l-257 344h62l246 -217l240 217h63z" />
    <glyph glyph-name="Zcaron" unicode="&#x17d;" horiz-adv-x="1366" 
d="M315 86h435q271 0 355 7q48 5 69.5 29t31.5 116l12 114h74q-20 -157 -20 -304v-55q-120 -3 -186 -3q-55 0 -240 5q-197 5 -368 5q-280 0 -433 -7v59q107 119 254 315l453 600l262 354q-145 6 -251 6q-180 0 -386 -14q-90 -7 -106 -22t-22 -90l-10 -118h-65q6 109 6 169
q0 59 -6 165l124 1l783 -9q127 0 211 8v-61q-101 -114 -160 -189l-319 -421zM1047 1854l-258 -344h-96l-257 344h62l246 -217l240 217h63z" />
    <glyph glyph-name="zcaron" unicode="&#x17e;" 
d="M53 -7l-10 47q97 106 263 310l402 516q-250 -1 -377 -9q-87 -5 -100.5 -17.5t-24.5 -84.5l-14 -85h-58q11 96 11 169l-2 93l8 8q306 -6 464 -6q167 0 329 6v-54q-52 -57 -102 -119l-157 -196l-386 -499l127 -2q208 0 360 14q59 6 76 24t35 123l11 60h59
q-24 -185 -23 -287q-69 -8 -153 -8l-363 4q-223 0 -375 -7zM818 1376l-258 -344h-96l-257 344h62l246 -217l240 217h63z" />
    <glyph glyph-name="brokenbar" unicode="&#xa6;" horiz-adv-x="1241" 
d="M569 1490h131v-839l-131 -96v935zM569 392l131 95v-957h-131v862z" />
    <glyph glyph-name="Eth" unicode="&#xd0;" horiz-adv-x="1585" 
d="M238 673l-73 1l-61 -2l-48 -2l-11 9l11 81q60 -3 182 -6v171q0 178 -12 307q-7 75 -18.5 87t-82.5 22l-80 12v63q165 -5 222 -5l269 2l219 4q132 2 271 -26t252 -112.5t172 -212t59 -294.5q0 -338 -227.5 -559t-594.5 -221l-123 3q-181 7 -229 7q-81 0 -206 -12v48l93 55
q16 155 16 580zM426 674v-237q0 -181 12 -339q135 -20 238 -20q280 0 435 144q187 175 187 510q0 292 -155.5 445t-455.5 153q-105 0 -249 -21q-12 -96 -12 -218v-334h247q81 0 162 6l9 -8l-17 -87q-145 6 -229 6h-172z" />
    <glyph glyph-name="eth" unicode="&#xf0;" horiz-adv-x="1118" 
d="M505 1288l-211 -117l-65 54l199 114q-121 66 -274 92l28 65q96 -13 168.5 -34.5t172.5 -69.5l228 129l67 -57l-209 -116q213 -132 326.5 -338t113.5 -462q0 -260 -145.5 -417.5t-366.5 -157.5q-208 0 -337.5 134t-129.5 355q0 147 58.5 257.5t168 175.5t230.5 65
q78 0 145 -28t136 -95q-86 286 -303 451zM258 553q0 -161 46 -281t119 -173.5t165 -53.5q123 0 198 95.5t75 294.5q0 217 -93.5 335.5t-234.5 118.5q-123 0 -199 -86.5t-76 -249.5z" />
    <glyph glyph-name="Yacute" unicode="&#xdd;" horiz-adv-x="1366" 
d="M743 697q61 92 193 320l229 398h155v-25q-122 -137 -299 -413t-212 -370q-12 -33 -12 -169q0 -181 9 -287q6 -57 20.5 -68.5t102.5 -19.5l76 -8v-62q-174 7 -272 7l-322 -7v62h85q85 0 102 35t17 316q0 82 -5 179q-129 237 -238 410t-184 253q-41 44 -71.5 58t-102.5 14
v62l161 32l79 16q46 -17 74 -43q50 -47 153 -215q79 -129 262 -475zM603 1517h-68l296 283q37 36 53 44.5t36 8.5q29 0 47.5 -17.5t18.5 -43.5q0 -24 -19.5 -46.5t-94.5 -67.5z" />
    <glyph glyph-name="yacute" unicode="&#xfd;" horiz-adv-x="1139" 
d="M52 -543l47 156h23q27 -32 54 -48t55 -16q62 0 113 60t157 334l-176 443l-93 229l-75 175q-35 93 -105 93h-40v58q104 -7 184 -7q62 0 289 7v-58h-74q-38 0 -55.5 -13t-17.5 -32q0 -16 19 -69q101 -278 238 -596q132 291 230 561q29 79 29 96q0 32 -68 42l-74 11v58
q118 -7 210 -7q87 0 175 7v-58h-35q-23 0 -47 -13.5t-39 -37.5q-32 -51 -185 -389q-42 -93 -214 -504q-152 -346 -172 -380q-39 -66 -100 -101.5t-132 -35.5q-29 0 -59.5 9t-61.5 26zM440 1038h-68l296 283q37 36 53 44.5t36 8.5q29 0 47.5 -17.5t18.5 -43.5
q0 -24 -19.5 -46.5t-94.5 -67.5z" />
    <glyph glyph-name="Thorn" unicode="&#xde;" horiz-adv-x="1237" 
d="M438 436v-37q0 -272 18.5 -307.5t117.5 -35.5h69v-63q-177 7 -279 7q-90 0 -319 -7v63h90q63 0 81 15.5t23 63t11 290.5v559q0 290 -21 338q-14 31 -94 31h-90v63q229 -7 313 -7q98 0 285 7v-63h-69q-93 0 -112.5 -28t-21.5 -207q176 11 326 11q228 0 337 -88.5
t109 -237.5q0 -173 -142 -303t-351 -130q-134 0 -281 66zM438 513q57 -32 129.5 -51.5t134.5 -19.5q137 0 218 83.5t81 229.5q0 138 -87 217t-259 79q-100 0 -217 -35v-503z" />
    <glyph glyph-name="thorn" unicode="&#xfe;" horiz-adv-x="1231" 
d="M387 758l140 124q53 47 90 59q59 19 138 19q178 0 288 -110t110 -284q0 -87 -25 -171.5t-61 -138t-81 -89.5q-15 -12 -122 -79l-40 -29q-76 -53 -122.5 -69.5t-106.5 -16.5q-47 0 -99 13.5t-109 39.5v-141q0 -217 6 -306q3 -39 19 -51q28 -23 99 -23h54v-56
q-189 6 -277 6q-97 0 -247 -6v56h73q77 0 91 33t14 352v1141q0 160 -8 247q-4 43 -19.5 56.5t-72.5 13.5h-78v61q140 16 271 57l64 24q15 0 15 -26q0 -53 -3 -133l-1 -25v-548zM387 208q64 -72 128 -102t138 -30q158 0 242 119t84 283q0 110 -38.5 188.5t-112.5 123
t-159 44.5q-60 0 -117.5 -24t-100.5 -66.5t-55 -78.5q-9 -27 -9 -143v-314z" />
    <glyph glyph-name="minus" unicode="&#x2212;" horiz-adv-x="1241" 
d="M117 635v139h1007v-139h-1007z" />
    <glyph glyph-name="multiply" unicode="&#xd7;" horiz-adv-x="1241" 
d="M186 1041l98 99l337 -337l337 337l98 -99l-337 -336l337 -337l-98 -98l-337 336l-337 -336l-98 98l337 337z" />
    <glyph glyph-name="onesuperior" unicode="&#xb9;" horiz-adv-x="635" 
d="M97 549v53h55q80 0 95 20t15 140l4 342q0 161 -2.5 173.5t-12.5 12.5q-5 0 -33 -11q-65 -26 -146 -69q-10 -6 -17 -6q-17 0 -18 15l-5 63q196 56 339 128l26 -11q-2 -49 -12 -567l-1 -111q0 -83 15 -100t88 -18l63 -1v-53l-227 4q-70 0 -226 -4z" />
    <glyph glyph-name="twosuperior" unicode="&#xb2;" horiz-adv-x="635" 
d="M18 550v43l216 214q124 123 164 196t40 135q0 76 -45.5 122.5t-122.5 46.5q-80 0 -119 -32q-22 -18 -53 -129h-52q21 125 23 176q46 47 103.5 70t125.5 23q124 0 196.5 -67t72.5 -174q0 -81 -51.5 -163.5t-229.5 -240.5l-41 -39l-66 -65h209q140 0 217 8l12 -10
q-5 -36 -5 -50q0 -11 5 -58l-12 -6q-118 3 -201 3q-226 0 -386 -3z" />
    <glyph glyph-name="threesuperior" unicode="&#xb3;" horiz-adv-x="635" 
d="M31 1169l36 155q41 46 96.5 68.5t124.5 22.5q109 0 171.5 -53.5t62.5 -131.5q0 -50 -25.5 -95t-96.5 -101q67 0 128.5 -47.5t61.5 -134.5q0 -121 -108.5 -217t-262.5 -96q-39 0 -78.5 8t-79.5 24q-13 76 -53 185l47 19q47 -98 76 -122q51 -43 139 -43q91 0 141 52.5
t50 144.5q0 78 -42 121t-113 43q-56 0 -119 -31l-16 11l14 78q47 -5 63 -5q72 0 118 43t46 109q0 61 -40.5 99t-108.5 38q-38 0 -76.5 -14.5t-62.5 -36.5q-13 -11 -25 -47l-16 -46h-52z" />
    <glyph glyph-name="onehalf" unicode="&#xbd;" horiz-adv-x="1612" 
d="M97 549v53h55q80 0 95 20t15 140l4 342q0 161 -2.5 173.5t-12.5 12.5q-5 0 -33 -11q-65 -26 -146 -69q-10 -6 -17 -6q-17 0 -18 15l-5 63q196 56 339 128l26 -11q-2 -49 -12 -567l-1 -111q0 -83 15 -100t88 -18l63 -1v-53l-227 4q-70 0 -226 -4zM356 -68q34 56 66 118
l683 1319q32 60 47 108q42 -6 64 -6l38 1q-38 -60 -63 -107l-698 -1336q-27 -51 -45 -97q-30 3 -45 3t-47 -3zM994 -4v43l216 214q124 123 164 196t40 135q0 76 -45.5 122.5t-122.5 46.5q-80 0 -119 -32q-22 -18 -53 -129h-52q21 125 23 176q46 47 103.5 70t125.5 23
q124 0 196.5 -67t72.5 -174q0 -81 -51.5 -163.5t-229.5 -240.5l-41 -39l-66 -65h209q140 0 217 8l12 -10q-5 -36 -5 -50q0 -11 5 -58l-12 -6q-118 3 -201 3q-226 0 -386 -3z" />
    <glyph glyph-name="onequarter" unicode="&#xbc;" horiz-adv-x="1612" 
d="M97 549v53h55q80 0 95 20t15 140l4 342q0 161 -2.5 173.5t-12.5 12.5q-5 0 -33 -11q-65 -26 -146 -69q-10 -6 -17 -6q-17 0 -18 15l-5 63q196 56 339 128l26 -11q-2 -49 -12 -567l-1 -111q0 -83 15 -100t88 -18l63 -1v-53l-227 4q-70 0 -226 -4zM355 -68q34 56 66 118
l683 1319q32 60 47 108q42 -6 64 -6l38 1q-38 -60 -63 -107l-698 -1336q-27 -51 -45 -97q-30 3 -45 3t-47 -3zM1162 -9l1 58l74 3q63 4 71 16q12 18 12 130v23q-226 0 -338 -6l-14 44q166 276 364 566q52 17 89 34l25 -10q-5 -104 -5 -539q74 0 139 8q-3 -31 -3 -51
q0 -19 3 -52q-72 7 -139 6q-2 -130 7.5 -148t61.5 -21l70 -3v-50q-123 5 -192 5zM1320 702q-117 -159 -249 -392l119 -2l130 2v392z" />
    <glyph glyph-name="threequarters" unicode="&#xbe;" horiz-adv-x="1612" 
d="M31 1169l36 155q41 46 96.5 68.5t124.5 22.5q109 0 171.5 -53.5t62.5 -131.5q0 -50 -25.5 -95t-96.5 -101q67 0 128.5 -47.5t61.5 -134.5q0 -121 -108.5 -217t-262.5 -96q-39 0 -78.5 8t-79.5 24q-13 76 -53 185l47 19q47 -98 76 -122q51 -43 139 -43q91 0 141 52.5
t50 144.5q0 78 -42 121t-113 43q-56 0 -119 -31l-16 11l14 78q47 -5 63 -5q72 0 118 43t46 109q0 61 -40.5 99t-108.5 38q-38 0 -76.5 -14.5t-62.5 -36.5q-13 -11 -25 -47l-16 -46h-52zM356 -68q34 56 66 118l683 1319q32 60 47 108q42 -6 64 -6l38 1q-38 -60 -63 -107
l-698 -1336q-27 -51 -45 -97q-30 3 -45 3t-47 -3zM1162 -9l1 58l74 3q63 4 71 16q12 18 12 130v23q-226 0 -338 -6l-14 44q166 276 364 566q52 17 89 34l25 -10q-5 -104 -5 -539q74 0 139 8q-3 -31 -3 -51q0 -19 3 -52q-72 7 -139 6q-2 -130 7.5 -148t61.5 -21l70 -3v-50
q-123 5 -192 5zM1320 702q-117 -159 -249 -392l119 -2l130 2v392z" />
    <glyph glyph-name="franc" unicode="&#x20a3;" horiz-adv-x="1139" 
d="M242 414v670q0 203 -21.5 236t-111.5 33h-72v63q166 -7 299 -7l575 11q90 0 170 -9q-32 -107 -35 -303h-64q-6 104 -24 186q-137 36 -277 36q-122 0 -239 -13q-12 -130 -12 -236v-318q60 -3 118 -3q150 0 263 8q38 2 51.5 16.5t22.5 77.5l10 76h63q-9 -183 -9 -235
l1 -236h-65v77q0 92 -35 112t-268 20q-64 0 -152 -3v-259h75q78 0 162 6l9 -8l-18 -87l-192 6h-36q0 -207 22 -241.5t112 -34.5h71v-62q-190 7 -303 7q-114 0 -295 -7v62h80q79 0 100 25.5t22 139.5l3 111h-104q-28 0 -85 -4l-12 11l12 79q39 -3 100 -3h89z" />
    <glyph glyph-name="Gbreve" unicode="&#x11e;" horiz-adv-x="1563" 
d="M1431 466q-15 -84 -15 -171q0 -92 15 -207q-133 -52 -300.5 -83.5t-320.5 -31.5q-236 0 -414.5 92.5t-274.5 257t-96 373.5q0 216 103 384.5t287 262t466 93.5q115 0 212 -15t253 -60l85 -23q-27 -106 -43 -296h-62v66q0 98 -16 115q-30 32 -159 79.5t-295 47.5
q-294 0 -450 -158q-170 -172 -170 -455q0 -272 153 -458q180 -220 491 -220q162 0 351 71q6 84 6 179q0 123 -4 141.5t-14.5 24t-104.5 13.5l-118 10v64q229 -10 340 -10q96 0 165 10v-50zM553 1854h58q10 -107 73 -166t158 -59q94 0 157 59t73 166h59q-8 -158 -63 -235
q-78 -109 -226 -109t-226 108q-56 79 -63 236z" />
    <glyph glyph-name="gbreve" unicode="&#x11f;" horiz-adv-x="1139" 
d="M895 774q23 -64 23 -105q0 -89 -54 -171.5t-154 -133t-216 -50.5l-47 1q-66 -49 -83.5 -73t-17.5 -47q0 -38 39 -60t159 -22q46 0 132 3q123 5 178 5q79 0 121 -25.5t72 -89t30 -143.5q0 -112 -68 -214.5t-198 -164.5t-299 -62q-206 0 -317 89.5t-111 220.5q0 81 58 164
q104 49 175 99q-82 27 -105.5 49.5t-23.5 57.5q0 42 23 83q13 25 66 61l97 69q-120 30 -173 85q-70 74 -70 189q0 101 52 184t153 131q129 61 249 61q76 0 133.5 -20t117.5 -68h84q130 0 202 8l11 -21q-30 -43 -53 -90h-185zM743 616q0 125 -64 201t-161 76
q-96 0 -154.5 -62t-58.5 -172q0 -133 63.5 -208.5t159.5 -75.5t155.5 63.5t59.5 177.5zM471 -21q-71 0 -97 -16q-84 -54 -102 -87q-30 -52 -30 -131q0 -109 81 -180t225 -71q111 0 195 41t130.5 112.5t46.5 147.5q0 65 -32.5 114t-77.5 63q-23 7 -105 7h-234zM281 1376h58
q10 -107 73 -166t158 -59q94 0 157 59t73 166h59q-8 -158 -63 -235q-78 -109 -226 -109t-226 108q-56 79 -63 236z" />
    <glyph glyph-name="Idot" unicode="&#x130;" horiz-adv-x="690" 
d="M61 56h63q93 0 111.5 45t18.5 431v339q0 400 -16 441t-96 41h-81v63q166 -7 328 -7q135 0 245 7v-63h-77q-71 0 -89 -17t-21 -86q-5 -107 -5 -381v-345q0 -389 17 -428.5t109 -39.5h66v-63q-123 7 -268 7q-169 0 -305 -7v63zM369 1815q45 0 76.5 -32t31.5 -77
q0 -46 -32 -78t-76 -32q-45 0 -77 32t-32 78q0 45 31.5 77t77.5 32z" />
    <glyph glyph-name="Scedilla" unicode="&#x15e;" horiz-adv-x="1075" 
d="M960 1349q-28 -104 -30 -276h-69v80q0 78 -21 106t-109.5 59.5t-186.5 31.5q-160 0 -251.5 -81t-91.5 -208q0 -80 37.5 -137.5t101 -83t269.5 -44.5q206 -20 278.5 -53t116 -106t43.5 -173q0 -201 -168 -346t-448 -145q-96 0 -193.5 19.5t-196.5 57.5q18 120 17 308h68
v-50q0 -97 10 -120t47 -49q55 -39 131 -59.5t164 -20.5q189 0 292 89t103 226q0 80 -35 135.5t-98 82.5t-233 41q-226 18 -307 54t-127 113.5t-46 192.5q0 195 141 319t390 124q100 0 200.5 -21.5t201.5 -65.5zM523 0l-44 -106q33 6 55 6q69 0 109 -36t40 -91
q0 -69 -61.5 -119.5t-167.5 -50.5q-93 0 -193 43l31 60q100 -32 155 -32q52 0 79.5 24t27.5 62q0 35 -24 56.5t-68 21.5q-25 0 -55 -10l-16 13l71 159h61z" />
    <glyph glyph-name="scedilla" unicode="&#x15f;" horiz-adv-x="868" 
d="M152 299v-65q0 -78 14 -97q26 -32 101.5 -62t155.5 -30q103 0 168 55.5t65 132.5q0 61 -38 98t-145 59q-199 40 -263 70t-96 80t-32 121q0 133 96.5 216t273.5 83q140 0 279 -56q-8 -68 -13 -228h-59q-2 88 -19 116q-23 37 -84 67t-130 30q-91 0 -145.5 -46.5
t-54.5 -116.5q0 -67 43 -101q43 -35 238 -74q144 -29 190 -54t74 -76t28 -117q0 -135 -115.5 -233t-308.5 -98q-123 0 -276 39q-27 7 -27 21l3 14q4 15 7 53q9 97 9 151l-1 48h62zM437 0l-44 -106q33 6 55 6q69 0 109 -36t40 -91q0 -69 -61.5 -119.5t-167.5 -50.5
q-93 0 -193 43l31 60q100 -32 155 -32q52 0 79.5 24t27.5 62q0 35 -24 56.5t-68 21.5q-25 0 -55 -10l-16 13l71 159h61z" />
    <glyph glyph-name="Cacute" unicode="&#x106;" horiz-adv-x="1452" 
d="M1286 1055l-8 178q-89 59 -186.5 88t-203.5 29q-270 0 -432.5 -164t-162.5 -439q0 -193 82.5 -344t234.5 -239t321 -88q134 0 265 31q98 23 197 96l21 -20q-21 -46 -39 -93q-117 -58 -235.5 -87.5t-238.5 -29.5q-246 0 -432.5 95t-286.5 262.5t-100 378.5t101 377.5
t285.5 258t453.5 91.5q141 0 330 -46q94 -22 153 -33q-45 -107 -52 -302h-67zM778 1517h-68l296 283q37 36 53 44.5t36 8.5q29 0 47.5 -17.5t18.5 -43.5q0 -24 -19.5 -46.5t-94.5 -67.5z" />
    <glyph glyph-name="cacute" unicode="&#x107;" horiz-adv-x="909" 
d="M810 135l27 -24l-41 -64q-68 -37 -140 -55.5t-147 -18.5q-147 0 -249.5 56t-158.5 162t-56 252q0 129 43 224.5t120.5 149.5t193.5 106q82 37 183 37q77 0 132.5 -12.5t119.5 -44.5q-25 -132 -27 -264h-63v50q0 64 -18.5 90.5t-84.5 52.5t-144 26q-135 0 -208 -82.5
t-73 -246.5q0 -211 108 -338q97 -115 250 -115q60 0 118 15t115 44zM422 1038h-68l296 283q37 36 53 44.5t36 8.5q29 0 47.5 -17.5t18.5 -43.5q0 -24 -19.5 -46.5t-94.5 -67.5z" />
    <glyph glyph-name="Ccaron" unicode="&#x10c;" horiz-adv-x="1452" 
d="M1286 1055l-8 178q-89 59 -186.5 88t-203.5 29q-270 0 -432.5 -164t-162.5 -439q0 -193 82.5 -344t234.5 -239t321 -88q134 0 265 31q98 23 197 96l21 -20q-21 -46 -39 -93q-117 -58 -235.5 -87.5t-238.5 -29.5q-246 0 -432.5 95t-286.5 262.5t-100 378.5t101 377.5
t285.5 258t453.5 91.5q141 0 330 -46q94 -22 153 -33q-45 -107 -52 -302h-67zM1213 1854l-258 -344h-96l-257 344h62l246 -217l240 217h63z" />
    <glyph glyph-name="ccaron" unicode="&#x10d;" horiz-adv-x="909" 
d="M810 135l27 -24l-41 -64q-68 -37 -140 -55.5t-147 -18.5q-147 0 -249.5 56t-158.5 162t-56 252q0 129 43 224.5t120.5 149.5t193.5 106q82 37 183 37q77 0 132.5 -12.5t119.5 -44.5q-25 -132 -27 -264h-63v50q0 64 -18.5 90.5t-84.5 52.5t-144 26q-135 0 -208 -82.5
t-73 -246.5q0 -211 108 -338q97 -115 250 -115q60 0 118 15t115 44zM833 1376l-258 -344h-96l-257 344h62l246 -217l240 217h63z" />
    <glyph glyph-name="dmacron" unicode="&#x111;" horiz-adv-x="1251" 
d="M854 1117h-382v83h382v61q0 63 -14 79t-64 16h-86v60q178 12 332 74l18 -12q-11 -147 -12 -278h158v-83h-160l-4 -237v-597q0 -167 10 -186q15 -27 83 -36l71 -9v-59q-123 9 -217 9q-17 0 -126 -9q7 68 11 193q-85 -66 -217 -185q-85 -28 -150 -28q-169 0 -283 127
t-114 340q0 133 44 227t105 136.5t190 107.5q99 49 183 49q57 0 117.5 -15t124.5 -46v218zM854 727q-69 74 -143.5 111t-155.5 37q-131 0 -211 -95.5t-80 -279.5q0 -187 91.5 -293.5t222.5 -106.5q80 0 147 44.5t98 115.5t31 223v244z" />
    <glyph glyph-name="overscore" unicode="&#xaf;" 
d="M-12 1665h1048v-102h-1048v102z" />
    <glyph glyph-name="middot" unicode="&#xb7;" horiz-adv-x="682" 
d="M626 854q45 0 76.5 -31.5t31.5 -77.5q0 -45 -32 -77.5t-76 -32.5q-45 0 -77 32.5t-32 77.5q0 46 31.5 77.5t77.5 31.5z" />
    <glyph glyph-name="foursuperior" unicode="&#xf003;" horiz-adv-x="635" 
d="M187 540l1 58l74 3q63 4 71 16q12 18 12 130v23q-226 0 -338 -6l-14 44q166 276 364 566q52 17 89 34l25 -10q-5 -104 -5 -539q74 0 139 8q-3 -31 -3 -51q0 -19 3 -52q-72 7 -139 6q-2 -130 7.5 -148t61.5 -21l70 -3v-50q-123 5 -192 5zM345 1251q-117 -159 -249 -392
l119 -2l130 2v392z" />
    <glyph glyph-name="Abreve" unicode="&#x102;" horiz-adv-x="1593" 
d="M1049 473h-578l-68 -161q-67 -160 -67 -196q0 -23 12.5 -33t63.5 -16l96 -11v-63q-96 7 -216 7q-144 0 -253 -7v63l30 1q70 2 90.5 14.5t43.5 61.5q71 144 145 311l275 623q110 248 150 360h68l506 -1177q51 -120 68 -144.5t39 -35t99 -14.5v-63q-130 7 -248 7
q-110 0 -293 -7v63l99 6q53 4 63 11q15 11 15 28q0 18 -30 94zM508 555h504l-252 602zM537 1849h58q10 -107 73 -166t158 -59q94 0 157 59t73 166h59q-8 -158 -63 -235q-78 -109 -226 -109t-226 108q-56 79 -63 236z" />
    <glyph glyph-name="abreve" unicode="&#x103;" 
d="M143 689l1 67l-1 69l109 62q74 42 129.5 58t118.5 16q138 0 222.5 -62t101.5 -158q12 -72 15 -357q2 -269 12 -297t50 -28h78v-66q-114 7 -159 7q-56 0 -150 -7l1 89q0 43 -1 87l-207 -158q-28 -21 -55 -29.5t-75 -8.5q-129 0 -197 63.5t-68 170.5q0 101 48.5 176.5
t138 111.5t415.5 94q-2 127 -56 190q-68 79 -194 79q-48 0 -90 -12t-78 -36q-29 -71 -53 -136zM670 530q-278 -60 -353 -112.5t-75 -162.5q0 -74 43 -118.5t111 -44.5q75 0 143.5 42t130.5 125l-2 222zM223 1376h58q10 -107 73 -166t158 -59q94 0 157 59t73 166h59
q-8 -158 -63 -235q-78 -109 -226 -109t-226 108q-56 79 -63 236z" />
    <glyph glyph-name="Aogonek" unicode="&#x104;" horiz-adv-x="1593" 
d="M1049 473h-578l-68 -161q-67 -160 -67 -196q0 -23 12.5 -33t63.5 -16l96 -11v-63q-96 7 -216 7q-144 0 -253 -7v63l30 1q70 2 90.5 14.5t43.5 61.5q71 144 145 311l275 623q110 248 150 360h68l506 -1177q51 -120 68 -144.5t39 -35t99 -14.5v-63q-130 7 -248 7
q-110 0 -293 -7v63l99 6q53 4 63 11q15 11 15 28q0 18 -30 94zM508 555h504l-252 602zM1359 0q-96 -41 -144.5 -99t-48.5 -118q0 -55 31 -89t77 -34q29 0 52 11.5t59 50.5l33 -32q-107 -132 -228 -132q-74 0 -120.5 44.5t-46.5 110.5q0 83 65 161t189 126h82z" />
    <glyph glyph-name="aogonek" unicode="&#x105;" 
d="M143 689l1 67l-1 69l109 62q74 42 129.5 58t118.5 16q138 0 222.5 -62t101.5 -158q12 -72 15 -357q2 -269 12 -297t50 -28h78v-66q-114 7 -159 7q-56 0 -150 -7l1 89q0 43 -1 87l-207 -158q-28 -21 -55 -29.5t-75 -8.5q-129 0 -197 63.5t-68 170.5q0 101 48.5 176.5
t138 111.5t415.5 94q-2 127 -56 190q-68 79 -194 79q-48 0 -90 -12t-78 -36q-29 -71 -53 -136zM670 530q-278 -60 -353 -112.5t-75 -162.5q0 -74 43 -118.5t111 -44.5q75 0 143.5 42t130.5 125l-2 222zM862 0q-96 -41 -144.5 -99t-48.5 -118q0 -55 31 -89t77 -34
q29 0 52 11.5t59 50.5l33 -32q-107 -132 -228 -132q-74 0 -120.5 44.5t-46.5 110.5q0 83 65 161t189 126h82z" />
    <glyph glyph-name="Dcaron" unicode="&#x10e;" horiz-adv-x="1585" 
d="M222 93q16 155 16 542v290q0 178 -12 307q-7 75 -18.5 87t-82.5 22l-80 12v63q165 -5 222 -5l269 2l219 4q132 2 271 -26t252 -112.5t172 -212t59 -294.5q0 -338 -227.5 -559t-594.5 -221l-123 3q-181 7 -229 7q-81 0 -206 -12v48zM438 98q135 -20 238 -20q280 0 435 144
q187 175 187 510q0 292 -155.5 445t-455.5 153q-105 0 -249 -21q-12 -96 -12 -218v-654q0 -181 12 -339zM1059 1849l-258 -344h-96l-257 344h62l246 -217l240 217h63z" />
    <glyph glyph-name="dcaron" unicode="&#x10f;" horiz-adv-x="1495" 
d="M854 899v362q0 63 -14 79t-64 16h-86v60q178 12 332 74l18 -12q-7 -102 -12 -246l-4 -266l-2 -86v-597q0 -167 10 -186q15 -27 83 -36l71 -9v-59q-123 9 -217 9q-17 0 -126 -9q7 68 11 193q-85 -66 -217 -185q-85 -28 -150 -28q-169 0 -283 127t-114 340q0 133 44 227
t105 136.5t190 107.5q99 49 183 49q57 0 117.5 -15t124.5 -46zM854 727q-69 74 -143.5 111t-155.5 37q-131 0 -211 -95.5t-80 -279.5q0 -187 91.5 -293.5t222.5 -106.5q80 0 147 44.5t98 115.5t31 223v244zM1261 1113l-98 -55l-30 25q85 135 119.5 234.5t41.5 215.5
q94 24 200 57l30 -24q-66 -150 -123 -248t-140 -205z" />
    <glyph glyph-name="Dslash" unicode="&#x110;" horiz-adv-x="1585" 
d="M238 673l-73 1l-61 -2l-48 -2l-11 9l11 81q60 -3 182 -6v171q0 178 -12 307q-7 75 -18.5 87t-82.5 22l-80 12v63q165 -5 222 -5l269 2l219 4q132 2 271 -26t252 -112.5t172 -212t59 -294.5q0 -338 -227.5 -559t-594.5 -221l-123 3q-181 7 -229 7q-81 0 -206 -12v48l93 55
q16 155 16 580zM426 674v-237q0 -181 12 -339q135 -20 238 -20q280 0 435 144q187 175 187 510q0 292 -155.5 445t-455.5 153q-105 0 -249 -21q-12 -96 -12 -218v-334h247q81 0 162 6l9 -8l-17 -87q-145 6 -229 6h-172z" />
    <glyph glyph-name="Eogonek" unicode="&#x118;" horiz-adv-x="1251" 
d="M454 672v-245l1 -141q0 -132 3 -193q146 -11 313 -11q112 0 188 10q49 6 104 26q25 88 51 220h67q-27 -219 -27 -292l2 -45q-115 -11 -226 -11l-157 3q-260 7 -382 7q-117 0 -311 -7v63h31q87 0 109.5 17t30 80t7.5 278v549q0 135 -6.5 221t-14 102.5t-21.5 25.5t-86 16
l-77 8v62h108l106 -3q89 -3 135 -3l384 5l182 1q93 1 188 -8q-38 -118 -42 -307h-68q0 110 -11 183q-118 44 -290 44q-137 0 -287 -12q1 -94 -2 -188l-2 -154v-203q99 -6 175 -6q238 0 269.5 16.5t31.5 102.5v65h68q-7 -151 -7 -241q0 -95 7 -224h-68v58q0 96 -37.5 117.5
t-264.5 21.5q-84 0 -174 -8zM1106 0q-96 -41 -144.5 -99t-48.5 -118q0 -55 31 -89t77 -34q29 0 52 11.5t59 50.5l33 -32q-107 -132 -228 -132q-74 0 -120.5 44.5t-46.5 110.5q0 83 65 161t189 126h82z" />
    <glyph glyph-name="eogonek" unicode="&#x119;" horiz-adv-x="981" 
d="M247 477q5 -197 101 -299t252 -102q70 0 139 23t137 69l17 -15l-32 -84q-83 -48 -171 -72t-181 -24q-203 0 -327.5 128.5t-124.5 348.5q0 168 70 291q46 81 170 150t241 69q177 0 280.5 -104t103.5 -291l-2 -59q-66 -16 -126 -21q-107 -8 -297 -8h-250zM250 552
q155 -7 342 -7q75 0 145 7v56q0 88 -35 167q-22 49 -77 81.5t-127 32.5q-112 0 -179 -82t-69 -255zM659 0q-96 -41 -144.5 -99t-48.5 -118q0 -55 31 -89t77 -34q29 0 52 11.5t59 50.5l33 -32q-107 -132 -228 -132q-74 0 -120.5 44.5t-46.5 110.5q0 83 65 161t189 126h82z
" />
    <glyph glyph-name="Ecaron" unicode="&#x11a;" horiz-adv-x="1251" 
d="M454 672v-245l1 -141q0 -132 3 -193q146 -11 313 -11q112 0 188 10q49 6 104 26q25 88 51 220h67q-27 -219 -27 -292l2 -45q-115 -11 -226 -11l-157 3q-260 7 -382 7q-117 0 -311 -7v63h31q87 0 109.5 17t30 80t7.5 278v549q0 135 -6.5 221t-14 102.5t-21.5 25.5t-86 16
l-77 8v62h108l106 -3q89 -3 135 -3l384 5l182 1q93 1 188 -8q-38 -118 -42 -307h-68q0 110 -11 183q-118 44 -290 44q-137 0 -287 -12q1 -94 -2 -188l-2 -154v-203q99 -6 175 -6q238 0 269.5 16.5t31.5 102.5v65h68q-7 -151 -7 -241q0 -95 7 -224h-68v58q0 96 -37.5 117.5
t-264.5 21.5q-84 0 -174 -8zM963 1849l-258 -344h-96l-257 344h62l246 -217l240 217h63z" />
    <glyph glyph-name="ecaron" unicode="&#x11b;" horiz-adv-x="981" 
d="M247 477q5 -197 101 -299t252 -102q70 0 139 23t137 69l17 -15l-32 -84q-83 -48 -171 -72t-181 -24q-203 0 -327.5 128.5t-124.5 348.5q0 168 70 291q46 81 170 150t241 69q177 0 280.5 -104t103.5 -291l-2 -59q-66 -16 -126 -21q-107 -8 -297 -8h-250zM250 552
q155 -7 342 -7q75 0 145 7v56q0 88 -35 167q-22 49 -77 81.5t-127 32.5q-112 0 -179 -82t-69 -255zM809 1376l-258 -344h-96l-257 344h62l246 -217l240 217h63z" />
    <glyph glyph-name="IJ" unicode="&#x132;" horiz-adv-x="1372" 
d="M61 56h63q79 0 96.5 20t25.5 135t8 321v338q0 420 -17 451.5t-95 31.5h-81v63q152 -7 328 -7q146 0 245 7v-63h-77q-86 0 -100.5 -29t-14.5 -454v-346q0 -365 13 -416.5t113 -51.5h66v-63q-108 7 -268 7q-180 0 -305 -7v63zM666 -396q3 41 3 72q0 22 -3 85l21 11
q51 -34 111 -34q83 0 113.5 57.5t30.5 288.5v862q0 311 -15.5 359t-122.5 48h-67v63q95 -7 274 -7q197 0 311 7v-63l-65 -4q-98 -8 -112.5 -28t-14.5 -198v-861q0 -175 -17 -268t-82 -191t-154 -151t-157 -53q-19 0 -54 5z" />
    <glyph glyph-name="ij" unicode="&#x133;" horiz-adv-x="1075" 
d="M295 1407q47 0 80 -33t33 -81q0 -46 -33 -79.5t-80 -33.5t-80.5 33t-33.5 80t33.5 80.5t80.5 33.5zM833 1407q46 0 79.5 -33t33.5 -81q0 -46 -33.5 -79.5t-79.5 -33.5q-47 0 -80.5 33.5t-33.5 79.5q0 47 33 80.5t81 33.5zM590 825v57q182 18 320 78q11 5 19 5
q15 0 15 -19q0 -8 -2 -21q-4 -26 -12.5 -233t-8.5 -301l2 -338q0 -360 -115 -495t-246 -135q-11 0 -31 1l-21 70q32 -6 51 -6q104 0 149 120.5t45 861.5q0 303 -11.5 329t-81.5 26h-72zM52 882q176 17 317 78q11 5 19 5q15 0 15 -19q0 -8 -2 -21q-12 -77 -12 -539
q0 -170 5 -230t20 -74.5t73 -21.5l68 -9v-58q-134 7 -266 7q-118 0 -237 -7v58l85 9q50 5 62.5 20t15.5 149t3 286q0 266 -13.5 288t-79.5 22h-73v57z" />
    <glyph glyph-name="Lacute" unicode="&#x139;" horiz-adv-x="1251" 
d="M444 91q98 -5 191 -5q188 0 294 10q74 8 153 29l60 235h65q-25 -189 -39 -353q-90 -15 -246 -15l-476 8q-96 0 -299 -11v53q80 35 94.5 75t14.5 317v550q0 300 -14.5 334.5t-81.5 34.5h-109v63q238 -7 316 -7q104 0 282 7v-63h-124q-53 0 -67 -30.5t-14 -253.5v-637
l3 -282zM350 1511h-68l296 283q37 36 53 44.5t36 8.5q29 0 47.5 -17.5t18.5 -43.5q0 -24 -19.5 -46.5t-94.5 -67.5z" />
    <glyph glyph-name="lacute" unicode="&#x13a;" horiz-adv-x="596" 
d="M398 1477q-17 -293 -17 -530v-514q0 -306 13 -347q7 -21 66 -27l85 -9v-58q-109 7 -208 7q-110 0 -288 -7v58l86 7q57 5 65 29q13 39 13 355v511l-1 192l-3 131q0 49 -11 60q-16 16 -67 16h-82v60q208 19 332 78zM132 1560h-68l296 283q37 36 53 44.5t36 8.5
q29 0 47.5 -17.5t18.5 -43.5q0 -24 -19.5 -46.5t-94.5 -67.5z" />
    <glyph glyph-name="Lcaron" unicode="&#x13d;" horiz-adv-x="1251" 
d="M444 91q98 -5 191 -5q188 0 294 10q74 8 153 29l60 235h65q-25 -189 -39 -353q-90 -15 -246 -15l-476 8q-96 0 -299 -11v53q80 35 94.5 75t14.5 317v550q0 300 -14.5 334.5t-81.5 34.5h-109v63q238 -7 316 -7q104 0 282 7v-63h-124q-53 0 -67 -30.5t-14 -253.5v-637
l3 -282zM1053 1479l26 -27q-92 -230 -270 -450l-76 -39l-27 29q144 215 164 431q105 24 183 56z" />
    <glyph glyph-name="lcaron" unicode="&#x13e;" horiz-adv-x="850" 
d="M398 1478q-17 -293 -17 -530v-514q0 -306 13 -347q7 -21 66 -27l85 -9v-58q-109 7 -208 7q-110 0 -288 -7v58l86 7q57 5 65 29q13 39 13 355v511l-1 192l-3 131q0 49 -11 60q-16 16 -67 16h-82v60q208 19 332 78zM784 1499l26 -27q-92 -230 -270 -450l-76 -39l-27 29
q144 215 164 431q105 24 183 56z" />
    <glyph glyph-name="Ldot" unicode="&#x13f;" horiz-adv-x="1251" 
d="M444 91q98 -5 191 -5q188 0 294 10q74 8 153 29l60 235h65q-25 -189 -39 -353q-90 -15 -246 -15l-476 8q-96 0 -299 -11v53q80 35 94.5 75t14.5 317v550q0 300 -14.5 334.5t-81.5 34.5h-109v63q238 -7 316 -7q104 0 282 7v-63h-124q-53 0 -67 -30.5t-14 -253.5v-637
l3 -282zM868 933q45 0 76.5 -32t31.5 -77q0 -46 -32 -78t-76 -32q-45 0 -77 32t-32 78q0 45 31.5 77t77.5 32z" />
    <glyph glyph-name="ldot" unicode="&#x140;" horiz-adv-x="723" 
d="M398 1478q-17 -293 -17 -530v-514q0 -306 13 -347q7 -21 66 -27l85 -9v-58q-109 7 -208 7q-110 0 -288 -7v58l86 7q57 5 65 29q13 39 13 355v511l-1 192l-3 131q0 49 -11 60q-16 16 -67 16h-82v60q208 19 332 78zM583 854q45 0 76.5 -32t31.5 -77q0 -46 -32 -78t-76 -32
q-45 0 -77 32t-32 78q0 45 31.5 77t77.5 32z" />
    <glyph glyph-name="Nacute" unicode="&#x143;" horiz-adv-x="1702" 
d="M330 1190v-691q0 -236 9 -329q7 -71 23.5 -86.5t95.5 -22.5l64 -5v-63q-109 7 -197 7q-61 0 -280 -7v63h72q65 0 85 18t25 71q11 110 11 299v497q0 140 -3 277q-2 58 -15.5 79.5t-39.5 38.5t-73 17h-62v63q127 -7 194 -7q72 0 158 7l186.5 -235.5l181.5 -230.5l342 -420
q185 -226 267 -314v642q0 403 -14.5 440.5t-115.5 47.5l-75 7v63q161 -7 250 -7q93 0 240 7v-63h-77q-93 0 -107 -62q-9 -41 -9 -438v-451q0 -182 16 -435q-136 21 -158 30.5t-42 31.5q-111 123 -233 273zM722 1511h-68l296 283q37 36 53 44.5t36 8.5q29 0 47.5 -17.5
t18.5 -43.5q0 -24 -19.5 -46.5t-94.5 -67.5z" />
    <glyph glyph-name="nacute" unicode="&#x144;" horiz-adv-x="1192" 
d="M362 769l151 134q27 24 57 35q66 22 132 22q107 0 185 -43.5t112 -113t34 -217.5l-5 -315q0 -163 14 -188q19 -32 74 -32h72v-58q-107 7 -185 7q-76 0 -163 -7q19 195 19 527q0 134 -23.5 190t-79 90t-133.5 34q-97 0 -164.5 -49t-83.5 -108q-10 -39 -10 -204
q0 -183 3 -340q1 -47 14 -59q25 -23 82 -23h71v-58q-169 7 -269 7q-106 0 -241 -7v58h72q74 0 86.5 34.5t12.5 415.5q0 171 -4 268q-2 32 -16 44t-79 12h-72v57q86 10 154 27t153 52q9 4 17 4q16 0 16 -23l-1 -38zM507 1038h-68l296 283q37 36 53 44.5t36 8.5
q29 0 47.5 -17.5t18.5 -43.5q0 -24 -19.5 -46.5t-94.5 -67.5z" />
    <glyph glyph-name="Ncaron" unicode="&#x147;" horiz-adv-x="1702" 
d="M330 1190v-691q0 -236 9 -329q7 -71 23.5 -86.5t95.5 -22.5l64 -5v-63q-109 7 -197 7q-61 0 -280 -7v63h72q65 0 85 18t25 71q11 110 11 299v497q0 140 -3 277q-2 58 -15.5 79.5t-39.5 38.5t-73 17h-62v63q127 -7 194 -7q72 0 158 7l186.5 -235.5l181.5 -230.5l342 -420
q185 -226 267 -314v642q0 403 -14.5 440.5t-115.5 47.5l-75 7v63q161 -7 250 -7q93 0 240 7v-63h-77q-93 0 -107 -62q-9 -41 -9 -438v-451q0 -182 16 -435q-136 21 -158 30.5t-42 31.5q-111 123 -233 273zM1218 1849l-258 -344h-96l-257 344h62l246 -217l240 217h63z" />
    <glyph glyph-name="ncaron" unicode="&#x148;" horiz-adv-x="1192" 
d="M362 769l151 134q27 24 57 35q66 22 132 22q107 0 185 -43.5t112 -113t34 -217.5l-5 -315q0 -163 14 -188q19 -32 74 -32h72v-58q-107 7 -185 7q-76 0 -163 -7q19 195 19 527q0 134 -23.5 190t-79 90t-133.5 34q-97 0 -164.5 -49t-83.5 -108q-10 -39 -10 -204
q0 -183 3 -340q1 -47 14 -59q25 -23 82 -23h71v-58q-169 7 -269 7q-106 0 -241 -7v58h72q74 0 86.5 34.5t12.5 415.5q0 171 -4 268q-2 32 -16 44t-79 12h-72v57q86 10 154 27t153 52q9 4 17 4q16 0 16 -23l-1 -38zM913 1376l-258 -344h-96l-257 344h62l246 -217l240 217h63z
" />
    <glyph glyph-name="napostrophe" unicode="&#x149;" horiz-adv-x="1555" 
d="M161 1013l-98 -55l-30 25q155 238 161 450q91 22 200 57l30 -24q-114 -267 -263 -453zM725 769l150 134q65 57 189 57q107 0 190 -46t112 -119.5t29 -207.5l-4 -328q0 -153 16.5 -180.5t71.5 -27.5h72v-58q-99 7 -185 7q-77 0 -163 -7q18 195 18 535q0 166 -56.5 236
t-179.5 70q-93 0 -159.5 -46t-82.5 -93.5t-16 -188.5q0 -116 1.5 -255.5t4.5 -155t22.5 -30t71.5 -14.5h71v-58q-161 7 -269 7q-107 0 -241 -7v58h72q79 0 89 45t10 442q0 240 -11.5 263.5t-87.5 23.5h-72v57q153 16 306 79q10 4 17 4q17 0 17 -22q0 -13 -3 -77v-97z" />
    <glyph glyph-name="Odblacute" unicode="&#x150;" horiz-adv-x="1610" 
d="M47 705q0 329 212 530t565 201q346 0 542.5 -186.5t196.5 -495.5q0 -333 -228 -557t-575 -224q-217 0 -374 88t-248 257t-91 387zM250 787q0 -226 77.5 -393.5t207.5 -251t297 -83.5q155 0 271 71t182.5 212t66.5 343q0 212 -73.5 362.5t-201.5 226.5t-303 76
q-160 0 -276 -67t-182 -196.5t-66 -299.5zM597 1501h-55l167 258q44 68 60.5 81t40.5 13q28 0 48 -18t20 -42q0 -18 -11.5 -35.5t-65.5 -67.5zM884 1501h-60l214 256q54 65 73 77.5t41 12.5q28 0 47 -18.5t19 -44.5q0 -20 -12.5 -36t-91.5 -74z" />
    <glyph glyph-name="odblacute" unicode="&#x151;" horiz-adv-x="1118" 
d="M71 473q0 138 64 249.5t179.5 174.5t262.5 63q213 0 341 -126t128 -336q0 -248 -167 -394q-149 -131 -357 -131q-200 0 -325.5 134.5t-125.5 365.5zM259 544q0 -206 84.5 -352.5t243.5 -146.5q121 0 195.5 92t74.5 279q0 151 -44 261.5t-116 161t-161 50.5
q-79 0 -142.5 -40t-93.5 -107q-41 -91 -41 -198zM336 1028h-55l167 258q44 68 60.5 81t40.5 13q28 0 48 -18t20 -42q0 -18 -11.5 -35.5t-65.5 -67.5zM623 1028h-60l214 256q54 65 73 77.5t41 12.5q28 0 47 -18.5t19 -44.5q0 -20 -12.5 -36t-91.5 -74z" />
    <glyph glyph-name="Racute" unicode="&#x154;" horiz-adv-x="1368" 
d="M789 715q98 -141 243 -328l192 -249q51 -64 68 -73t35 -9h26v-63q-83 7 -145 7q-57 0 -120 -7l-354 478q-99 132 -212 258l10 34q58 -5 86 -5q167 0 261.5 86t94.5 230q0 129 -80 201.5t-231 72.5q-105 0 -211 -39q-12 -159 -12 -340v-483q0 -353 17 -391.5t110 -38.5h78
v-63q-166 7 -275 7q-86 0 -311 -7v63h75q86 0 102 37.5t16 394.5v481q0 310 -18.5 347t-120.5 37h-54v64q186 -8 284 -8q66 0 190 5q144 5 207 5q173 0 262.5 -36.5t136 -105.5t46.5 -165q0 -141 -101.5 -249t-294.5 -148zM535 1511h-68l296 283q37 36 53 44.5t36 8.5
q29 0 47.5 -17.5t18.5 -43.5q0 -24 -19.5 -46.5t-94.5 -67.5z" />
    <glyph glyph-name="racute" unicode="&#x155;" horiz-adv-x="809" 
d="M380 734q40 38 87 100q56 73 104 100t101 27q55 0 84 -13q14 -6 14 -19l-1 -10q-15 -81 -17 -227h-45q-23 51 -54.5 72t-75.5 21q-59 0 -109.5 -40t-67.5 -112t-17 -283q0 -139 11 -234q4 -35 20 -44q38 -21 112 -21h60v-58q-153 7 -290 7q-133 0 -263 -7v58l96 8
q51 4 64.5 19t17.5 97q7 144 7 342q0 241 -19 283q-13 27 -82 27h-84v58q97 11 173 28.5t135 44.5q14 7 23 7q11 0 15 -6t4 -27zM272 1038h-68l296 283q37 36 53 44.5t36 8.5q29 0 47.5 -17.5t18.5 -43.5q0 -24 -19.5 -46.5t-94.5 -67.5z" />
    <glyph glyph-name="Rcaron" unicode="&#x158;" horiz-adv-x="1368" 
d="M789 715q98 -141 243 -328l192 -249q51 -64 68 -73t35 -9h26v-63q-83 7 -145 7q-57 0 -120 -7l-354 478q-99 132 -212 258l10 34q58 -5 86 -5q167 0 261.5 86t94.5 230q0 129 -80 201.5t-231 72.5q-105 0 -211 -39q-12 -159 -12 -340v-483q0 -353 17 -391.5t110 -38.5h78
v-63q-166 7 -275 7q-86 0 -311 -7v63h75q86 0 102 37.5t16 394.5v481q0 310 -18.5 347t-120.5 37h-54v64q186 -8 284 -8q66 0 190 5q144 5 207 5q173 0 262.5 -36.5t136 -105.5t46.5 -165q0 -141 -101.5 -249t-294.5 -148zM976 1849l-258 -344h-96l-257 344h62l246 -217
l240 217h63z" />
    <glyph glyph-name="rcaron" unicode="&#x159;" horiz-adv-x="809" 
d="M380 734q40 38 87 100q56 73 104 100t101 27q55 0 84 -13q14 -6 14 -19l-1 -10q-15 -81 -17 -227h-45q-23 51 -54.5 72t-75.5 21q-59 0 -109.5 -40t-67.5 -112t-17 -283q0 -139 11 -234q4 -35 20 -44q38 -21 112 -21h60v-58q-153 7 -290 7q-133 0 -263 -7v58l96 8
q51 4 64.5 19t17.5 97q7 144 7 342q0 241 -19 283q-13 27 -82 27h-84v58q97 11 173 28.5t135 44.5q14 7 23 7q11 0 15 -6t4 -27zM737 1376l-258 -344h-96l-257 344h62l246 -217l240 217h63z" />
    <glyph glyph-name="Sacute" unicode="&#x15a;" horiz-adv-x="1075" 
d="M960 1349q-28 -104 -30 -276h-69v80q0 78 -21 106t-109.5 59.5t-186.5 31.5q-160 0 -251.5 -81t-91.5 -208q0 -80 37.5 -137.5t101 -83t269.5 -44.5q206 -20 278.5 -53t116 -106t43.5 -173q0 -201 -168 -346t-448 -145q-96 0 -193.5 19.5t-196.5 57.5q18 120 17 308h68
v-50q0 -97 10 -120t47 -49q55 -39 131 -59.5t164 -20.5q189 0 292 89t103 226q0 80 -35 135.5t-98 82.5t-233 41q-226 18 -307 54t-127 113.5t-46 192.5q0 195 141 319t390 124q100 0 200.5 -21.5t201.5 -65.5zM407 1511h-68l296 283q37 36 53 44.5t36 8.5q29 0 47.5 -17.5
t18.5 -43.5q0 -24 -19.5 -46.5t-94.5 -67.5z" />
    <glyph glyph-name="sacute" unicode="&#x15b;" horiz-adv-x="868" 
d="M154 299v-65q0 -78 14 -97q26 -32 101.5 -62t155.5 -30q103 0 168 55.5t65 132.5q0 61 -38 98t-145 59q-199 40 -263 70t-96 80t-32 121q0 133 96.5 216t273.5 83q140 0 279 -56q-8 -68 -13 -228h-59q-2 88 -19 116q-23 37 -84 67t-130 30q-91 0 -145.5 -46.5
t-54.5 -116.5q0 -67 43 -101q43 -35 238 -74q144 -29 190 -54t74 -76t28 -117q0 -135 -115.5 -233t-308.5 -98q-123 0 -276 39q-27 7 -27 21l3 14q4 15 7 53q9 97 9 151l-1 48h62zM293 1038h-68l296 283q37 36 53 44.5t36 8.5q29 0 47.5 -17.5t18.5 -43.5q0 -24 -19.5 -46.5
t-94.5 -67.5z" />
    <glyph glyph-name="Tcedilla" unicode="&#x162;" horiz-adv-x="1255" 
d="M734 1325q-11 -150 -11 -316v-570q0 -318 16 -350.5t114 -32.5h75v-63q-177 7 -300 7q-124 0 -298 -7v63h84q66 0 86 17.5t25 68.5q10 117 10 302v571q0 169 -7 310h-102q-247 0 -272 -11.5t-33 -89.5l-14 -134h-63l2 119q0 72 -12 207q540 -7 635 -7l553 7
q-19 -169 -22 -326h-62l-10 131q-6 68 -17 80.5t-49 15.5q-110 8 -250 8h-78zM706 -121l26 -27q-92 -230 -270 -450l-76 -39l-27 29q144 215 164 431q105 24 183 56z" />
    <glyph glyph-name="tcedilla" unicode="&#x163;" horiz-adv-x="668" 
d="M371 779v-392q0 -153 10 -196t40.5 -67t77.5 -24q29 0 56.5 11.5t54.5 34.5l29 -35l-97 -115q-32 -11 -62 -17t-58 -6q-74 0 -125 26.5t-74 69t-23 128.5l3 193v380q-77 0 -159 -7v43q86 33 159 69q-1 143 -8 310q116 49 167 79l26 -20q-8 -78 -17 -369q122 0 199 3l80 4
l-11 -103l-41 1l-192 -1h-35zM445 -121l26 -27q-92 -230 -270 -450l-76 -39l-27 29q144 215 164 431q105 24 183 56z" />
    <glyph glyph-name="Tcaron" unicode="&#x164;" horiz-adv-x="1255" 
d="M734 1325q-11 -150 -11 -316v-570q0 -318 16 -350.5t114 -32.5h75v-63q-177 7 -300 7q-124 0 -298 -7v63h84q66 0 86 17.5t25 68.5q10 117 10 302v571q0 169 -7 310h-102q-247 0 -272 -11.5t-33 -89.5l-14 -134h-63l2 119q0 72 -12 207q540 -7 635 -7l553 7
q-19 -169 -22 -326h-62l-10 131q-6 68 -17 80.5t-49 15.5q-110 8 -250 8h-78zM934 1849l-258 -344h-96l-257 344h62l246 -217l240 217h63z" />
    <glyph glyph-name="tcaron" unicode="&#x165;" horiz-adv-x="897" 
d="M371 779v-392q0 -153 10 -196t40.5 -67t77.5 -24q29 0 56.5 11.5t54.5 34.5l29 -35l-97 -115q-32 -11 -62 -17t-58 -6q-74 0 -125 26.5t-74 69t-23 128.5l3 193v380q-77 0 -159 -7v43q86 33 159 69q-1 143 -8 310q116 49 167 79l26 -20q-8 -78 -17 -369q122 0 199 3l80 4
l-11 -103l-41 1l-192 -1h-35zM851 1479l26 -27q-92 -230 -270 -450l-76 -39l-27 29q144 215 164 431q105 24 183 56z" />
    <glyph glyph-name="Uring" unicode="&#x16e;" horiz-adv-x="1593" 
d="M39 1353v63q205 -7 298 -7q98 0 288 7v-63h-73q-94 0 -113 -36t-19 -326v-392q0 -215 23.5 -299t121.5 -142t262 -58q169 0 285 62q80 43 117 133.5t37 343.5v377q0 262 -23.5 299.5t-129.5 37.5h-52v63q207 -7 263 -7q91 0 226 7v-63h-68q-79 0 -101.5 -42.5
t-22.5 -298.5v-375q0 -257 -25.5 -346.5t-93 -161.5t-180 -114t-264.5 -42q-157 0 -275 37.5t-177.5 92.5t-86 134.5t-26.5 270.5l2 190v305q0 282 -16.5 316t-105.5 34h-71zM836 1963q86 0 147 -60.5t61 -146.5q0 -85 -61 -146t-147 -61t-147 61t-61 146q0 86 60.5 146.5
t147.5 60.5zM836 1861q-40 0 -68.5 -30.5t-28.5 -74.5t28.5 -74t68.5 -30t68.5 30t28.5 74t-28.5 74.5t-68.5 30.5z" />
    <glyph glyph-name="uring" unicode="&#x16f;" horiz-adv-x="1235" 
d="M840 -7l12 180l-59 -64q-69 -75 -140.5 -105.5t-176.5 -30.5q-90 0 -155 38t-94.5 98.5t-29.5 191.5q0 68 3 158l3 161q0 169 -9.5 188t-63.5 19h-89v55q136 12 251 50l83 31q17 0 17 -25l-7 -102q-14 -212 -14 -394t15 -232.5t63 -84t117 -33.5q93 0 170.5 60t101.5 121
q13 35 13 211q0 296 -11 322q-10 21 -90 21h-79v55q103 12 175 28t152 48q10 5 18 5q17 0 17 -19l-4 -93q-15 -342 -15 -602q0 -146 15 -167q22 -31 95 -31h58v-58q-125 7 -212 7q-65 0 -130 -7zM612 1490q86 0 147 -60.5t61 -146.5q0 -85 -61 -146t-147 -61t-147 61
t-61 146q0 86 60.5 146.5t147.5 60.5zM612 1388q-40 0 -68.5 -30.5t-28.5 -74.5t28.5 -74t68.5 -30t68.5 30t28.5 74t-28.5 74.5t-68.5 30.5z" />
    <glyph glyph-name="Udblacute" unicode="&#x170;" horiz-adv-x="1593" 
d="M39 1353v63q205 -7 298 -7q98 0 288 7v-63h-73q-94 0 -113 -36t-19 -326v-392q0 -215 23.5 -299t121.5 -142t262 -58q169 0 285 62q80 43 117 133.5t37 343.5v377q0 262 -23.5 299.5t-129.5 37.5h-52v63q207 -7 263 -7q91 0 226 7v-63h-68q-79 0 -101.5 -42.5
t-22.5 -298.5v-375q0 -257 -25.5 -346.5t-93 -161.5t-180 -114t-264.5 -42q-157 0 -275 37.5t-177.5 92.5t-86 134.5t-26.5 270.5l2 190v305q0 282 -16.5 316t-105.5 34h-71zM592 1501h-55l167 258q44 68 60.5 81t40.5 13q28 0 48 -18t20 -42q0 -18 -11.5 -35.5t-65.5 -67.5
zM879 1501h-60l214 256q54 65 73 77.5t41 12.5q28 0 47 -18.5t19 -44.5q0 -20 -12.5 -36t-91.5 -74z" />
    <glyph glyph-name="udblacute" unicode="&#x171;" horiz-adv-x="1235" 
d="M840 -7l12 180l-59 -64q-69 -75 -140.5 -105.5t-176.5 -30.5q-90 0 -155 38t-94.5 98.5t-29.5 191.5q0 68 3 158l3 161q0 169 -9.5 188t-63.5 19h-89v55q136 12 251 50l83 31q17 0 17 -25l-7 -102q-14 -212 -14 -394t15 -232.5t63 -84t117 -33.5q93 0 170.5 60t101.5 121
q13 35 13 211q0 296 -11 322q-10 21 -90 21h-79v55q103 12 175 28t152 48q10 5 18 5q17 0 17 -19l-4 -93q-15 -342 -15 -602q0 -146 15 -167q22 -31 95 -31h58v-58q-125 7 -212 7q-65 0 -130 -7zM371 1028h-55l167 258q44 68 60.5 81t40.5 13q28 0 48 -18t20 -42
q0 -18 -11.5 -35.5t-65.5 -67.5zM658 1028h-60l214 256q54 65 73 77.5t41 12.5q28 0 47 -18.5t19 -44.5q0 -20 -12.5 -36t-91.5 -74z" />
    <glyph glyph-name="Zacute" unicode="&#x179;" horiz-adv-x="1366" 
d="M315 86h435q271 0 355 7q48 5 69.5 29t31.5 116l12 114h74q-20 -157 -20 -304v-55q-120 -3 -186 -3q-55 0 -240 5q-197 5 -368 5q-280 0 -433 -7v59q107 119 254 315l453 600l262 354q-145 6 -251 6q-180 0 -386 -14q-90 -7 -106 -22t-22 -90l-10 -118h-65q6 109 6 169
q0 59 -6 165l124 1l783 -9q127 0 211 8v-61q-101 -114 -160 -189l-319 -421zM579 1511h-68l296 283q37 36 53 44.5t36 8.5q29 0 47.5 -17.5t18.5 -43.5q0 -24 -19.5 -46.5t-94.5 -67.5z" />
    <glyph glyph-name="zacute" unicode="&#x17a;" 
d="M53 -7l-10 47q97 106 263 310l402 516q-250 -1 -377 -9q-87 -5 -100.5 -17.5t-24.5 -84.5l-14 -85h-58q11 96 11 169l-2 93l8 8q306 -6 464 -6q167 0 329 6v-54q-52 -57 -102 -119l-157 -196l-386 -499l127 -2q208 0 360 14q59 6 76 24t35 123l11 60h59
q-24 -185 -23 -287q-69 -8 -153 -8l-363 4q-223 0 -375 -7zM426 1038h-68l296 283q37 36 53 44.5t36 8.5q29 0 47.5 -17.5t18.5 -43.5q0 -24 -19.5 -46.5t-94.5 -67.5z" />
    <glyph glyph-name="Zdot" unicode="&#x17b;" horiz-adv-x="1366" 
d="M315 86h435q271 0 355 7q48 5 69.5 29t31.5 116l12 114h74q-20 -157 -20 -304v-55q-120 -3 -186 -3q-55 0 -240 5q-197 5 -368 5q-280 0 -433 -7v59q107 119 254 315l453 600l262 354q-145 6 -251 6q-180 0 -386 -14q-90 -7 -106 -22t-22 -90l-10 -118h-65q6 109 6 169
q0 59 -6 165l124 1l783 -9q127 0 211 8v-61q-101 -114 -160 -189l-319 -421zM699 1815q45 0 76.5 -32t31.5 -77q0 -46 -32 -78t-76 -32q-45 0 -77 32t-32 78q0 45 31.5 77t77.5 32z" />
    <glyph glyph-name="zdot" unicode="&#x17c;" 
d="M53 -7l-10 47q97 106 263 310l402 516q-250 -1 -377 -9q-87 -5 -100.5 -17.5t-24.5 -84.5l-14 -85h-58q11 96 11 169l-2 93l8 8q306 -6 464 -6q167 0 329 6v-54q-52 -57 -102 -119l-157 -196l-386 -499l127 -2q208 0 360 14q59 6 76 24t35 123l11 60h59
q-24 -185 -23 -287q-69 -8 -153 -8l-363 4q-223 0 -375 -7zM554 1407q45 0 76.5 -32t31.5 -77q0 -46 -32 -78t-76 -32q-45 0 -77 32t-32 78q0 45 31.5 77t77.5 32z" />
    <glyph glyph-name="noGamma" unicode="&#xf100;" horiz-adv-x="1271" 
d="M1201 1356l14 -310h-36q-21 142 -109.5 183.5t-214.5 41.5h-403v-1100q-1 -60 44 -96.5t154 -38.5v-36h-605v36q101 0 147.5 33.5t46.5 126.5v970q0 84 -44.5 119t-149.5 35v36h1156z" />
    <glyph glyph-name="noTheta" unicode="&#xf101;" horiz-adv-x="1471" 
d="M1424 681q0 -298 -202 -505t-482 -207q-276 0 -484.5 205t-208.5 505q0 290 201 499t487 209q284 0 486.5 -204.5t202.5 -501.5zM1180 674q0 277 -115 456t-333 179q-204 0 -322.5 -169t-118.5 -459q0 -299 125.5 -467t320.5 -168q198 0 320.5 169.5t122.5 458.5z
M495 916h36q-1 -81 34.5 -118.5t114.5 -37.5h111q78 0 114 37t35 119h36v-480h-36q1 83 -34.5 121t-114.5 38h-111q-78 0 -114 -38t-35 -121h-36v480z" />
    <glyph glyph-name="noPhi" unicode="&#xf102;" horiz-adv-x="1472" 
d="M843 191q12 -155 192 -155v-36h-598v36q175 0 191 155q-265 0 -423 142.5t-158 344.5q0 219 168 353t413 134q-12 155 -191 155v36h598v-36q-179 0 -192 -155q265 0 423.5 -142t158.5 -345q0 -222 -169 -354.5t-413 -132.5zM628 1110q-115 -3 -203 -56.5t-125 -142
t-37 -245.5q0 -405 365 -420v864zM843 1110v-864q140 0 253 92.5t113 351.5q0 405 -366 420z" />
    <glyph glyph-name="noalpha" unicode="&#xf103;" horiz-adv-x="1087" 
d="M774 916h166l-100 -467q-23 -108 -51 -189q20 -169 118 -169q84 0 103 130h36q-11 -118 -55.5 -183.5t-107.5 -65.5q-92 0 -120 215q-106 -215 -339 -215q-165 0 -258.5 127.5t-93.5 354.5q0 231 104 360t251 129q199 0 286 -315zM693 537q-100 348 -248 348
q-84 0 -135.5 -110t-51.5 -332q0 -235 48.5 -321.5t126.5 -86.5q67 0 121.5 71.5t103.5 280.5z" />
    <glyph glyph-name="nodelta" unicode="&#xf104;" horiz-adv-x="948" 
d="M485 854q-57 63 -139 134q-115 100 -140 156t-25 102q0 174 260 174q156 0 259.5 -50t103.5 -123q0 -32 -21.5 -58.5t-57.5 -26.5q-46 0 -108 68q-71 80 -113.5 105t-103.5 25q-79 0 -119.5 -33t-40.5 -76q0 -49 37.5 -96t196.5 -156q162 -111 237 -182t120 -166t45 -204
q0 -189 -130 -332t-302 -143q-156 0 -264.5 113.5t-108.5 308.5q0 190 124 313t290 147zM529 807q-287 -48 -287 -394q0 -184 73.5 -280t164.5 -96q99 0 163 95t64 258q0 119 -34 202.5t-99 159.5q-38 44 -45 55z" />
    <glyph glyph-name="noepsilon" unicode="&#xf105;" horiz-adv-x="876" 
d="M312 486q-197 78 -197 219q0 106 100.5 172t256.5 66q132 0 220 -44t88 -110q0 -35 -26.5 -60.5t-60.5 -25.5q-56 0 -92 75q-50 105 -150 105q-76 0 -128.5 -48.5t-52.5 -143.5q0 -183 188 -183q21 0 47 4q46 7 70 7q61 0 61 -36q0 -39 -61 -39q-22 0 -67 8q-34 5 -53 5
q-198 0 -198 -204q0 -99 53 -159t148 -60q119 0 158 123q21 65 45 90t65 25q33 0 61 -24t28 -65q0 -91 -102 -151t-247 -60q-149 0 -272 76t-123 204q0 156 241 234z" />
    <glyph glyph-name="nosigma" unicode="&#xf106;" horiz-adv-x="1175" 
d="M1142 916v-146h-437q105 -52 197.5 -170.5t92.5 -251.5q0 -170 -135.5 -273t-293.5 -103q-202 0 -348.5 148t-146.5 355q0 145 76 256t177 148t255 37h563zM638 770h-35q-132 0 -201.5 -29t-114 -101t-44.5 -177q0 -175 95.5 -300.5t227.5 -125.5q109 0 182 93t73 237
q0 219 -183 403z" />
    <glyph glyph-name="notau" unicode="&#xf107;" horiz-adv-x="875" 
d="M810 916v-146h-300q-37 -321 -37 -471q0 -83 35.5 -123t87.5 -40q95 0 113 116h36q0 -107 -56 -193.5t-145 -86.5q-178 0 -178 330q0 141 35 468h-88q-81 0 -127 -26.5t-85 -111.5h-36q36 118 79 180.5t85 83t115 20.5h466z" />
    <glyph glyph-name="nophi" unicode="&#xf108;" horiz-adv-x="1124" 
d="M451 943v-36q-205 -55 -205 -412q0 -392 256 -463v584q0 121 14 179.5t66.5 103t126.5 44.5q87 0 168.5 -61t128.5 -164t47 -227q0 -191 -111 -342.5t-337 -172.5v-395h-103v395q-195 18 -313 156t-118 360q0 201 109.5 322.5t270.5 128.5zM605 54q300 47 300 409
q0 161 -64 273t-154 112q-46 0 -64 -42.5t-18 -154.5v-597z" />
    <glyph glyph-name="underscoredbl" unicode="&#x2017;" 
d="M-12 -125h1048v-103h-1048v103zM-12 -328h1048v-103h-1048v103z" />
    <glyph glyph-name="minute" unicode="&#x2032;" horiz-adv-x="426" 
d="M111 851l-2 296q-1 87 -1 96q0 193 125 193q88 0 88 -86q0 -35 -60 -203l-106 -296h-44z" />
    <glyph glyph-name="second" unicode="&#x2033;" horiz-adv-x="760" 
d="M94 851l-2 296q0 52 1 100.5t10.5 86t25 57.5t39 32.5t50.5 12.5q86 0 86 -85q0 -38 -60 -204l-106 -296h-44zM461 851l-4 396q-1 98 35.5 143.5t95.5 45.5q83 0 83 -86q0 -58 -53 -203l-110 -296h-47z" />
    <glyph glyph-name="exclamdbl" unicode="&#x203c;" horiz-adv-x="1022" 
d="M331 1409h72q-1 -143 -13 -246q-40 -347 -64 -744l-56 -52l-20 9q-25 377 -45 544q-29 250 -29 344q0 22 1 64q78 36 154 81zM783 1409h72q-1 -143 -13 -246q-41 -347 -65 -744l-56 -52l-19 9q-26 377 -45 544q-30 250 -30 344q0 22 2 64q77 36 154 81zM283 207
q47 0 81.5 -33.5t34.5 -83.5q0 -48 -34 -82.5t-82 -34.5t-82.5 34.5t-34.5 82.5q0 50 34.5 83.5t82.5 33.5zM734 207q49 0 83 -34t34 -83q0 -48 -34.5 -82.5t-82.5 -34.5t-82 34.5t-34 82.5q0 50 34.5 83.5t81.5 33.5z" />
    <glyph glyph-name="nsuperior" unicode="&#x207f;" horiz-adv-x="836" 
d="M284 1316l74 64q41 35 126 35q112 0 167 -55.5t55 -171.5l-2 -216q0 -67 7.5 -80t34.5 -13h58v-56l-14 1q-61 4 -114 4q-58 0 -119 -5q13 112 13 327q0 94 -32 132t-103 38q-54 0 -92 -24.5t-47.5 -50t-9.5 -105.5q0 -216 2 -231q1 -11 2 -14q0 -16 45 -16h58v-56
q-107 5 -186 5q-76 0 -162 -5v56h59q33 0 40.5 9.5t7.5 92.5l3 233q0 48 -5 77q-2 10 -2 14q-1 11 -44 11h-59v52q114 12 175 37q33 13 43 13q24 0 24 -33q0 -11 -3 -69z" />
    <glyph glyph-name="peseta" unicode="&#x20a7;" horiz-adv-x="2433" 
d="M1748 881q98 79 269 79q140 0 278 -56q-9 -60 -12 -228h-60q-2 80 -16.5 112.5t-77.5 66.5t-139 34q-90 0 -145 -46t-55 -118q0 -75 50 -106.5t231 -67.5q127 -26 176.5 -47t82.5 -74t33 -126q0 -140 -119 -235.5t-288 -95.5q-188 0 -314 50q7 45 7 80l-108 -96
q-38 -34 -111 -34q-217 0 -217 216l2 201v485q0 88 -4 195q-17 -179 -160 -292.5t-330 -113.5q-65 0 -147 18l-20 76q83 -23 147 -23q144 0 222 86.5t78 225.5q0 143 -89.5 220t-253.5 77q-104 0 -213 -37q-7 -139 -7 -307v-571q0 -305 19 -339t117 -34h69v-63
q-169 7 -281 7q-88 0 -317 -7v63h90q79 0 97 39.5t18 329.5v534q0 302 -16.5 348t-138.5 46h-50v63q148 -6 257 -6q141 0 311 7q93 5 158 5q363 0 430 -239q128 52 173 81l27 -20q-8 -50 -18 -369q124 -1 151 -1q97 0 214 7zM1671 780l-148 -2l-140 2v-393q0 -139 8 -186
t38.5 -74t80.5 -27q43 0 66 13t77 63q2 64 2 73q0 16 -2 50h63v-65q0 -71 13.5 -96t92.5 -59t166 -34q94 0 163 52.5t69 137.5q0 58 -36.5 95.5t-145.5 59.5q-162 32 -236 57.5t-115 79t-41 135.5q0 59 25 118z" />
    <glyph glyph-name="afii61248" unicode="&#x2105;" horiz-adv-x="1532" 
d="M294 -68q24 37 67 119l683 1318q35 67 47 108q46 -6 69 -6q11 0 32 1q-34 -52 -62 -107l-699 -1336q-30 -57 -44 -97q-31 3 -45 3q-17 0 -48 -3zM585 935l28 -23l-29 -44q-89 -47 -194 -47q-152 0 -230.5 80.5t-78.5 211.5q0 107 41.5 165.5t139.5 108t177 49.5
q90 0 173 -40q-17 -87 -18 -169h-64v37q0 30 -6.5 46.5t-48.5 33t-92 16.5q-166 0 -166 -194q0 -119 59.5 -194.5t155.5 -75.5q72 0 153 39zM803 286q0 139 93 226t243 87q128 0 220 -72.5t92 -215.5q0 -148 -101.5 -237.5t-245.5 -89.5q-148 0 -224.5 91t-76.5 211z
M948 334q0 -121 52.5 -207t144.5 -86q74 0 118 55.5t44 163.5q0 124 -51 203t-143 79q-79 0 -122 -55t-43 -153z" />
    <glyph glyph-name="afii61289" unicode="&#x2113;" horiz-adv-x="905" 
d="M36 326l198 199v496q0 192 79.5 300t214.5 108q99 0 151.5 -58t52.5 -141q0 -134 -89.5 -274t-248.5 -315v-333q0 -275 175 -275q163 0 249 267h37q-31 -133 -116 -230t-214 -97q-100 0 -172.5 56t-95.5 127.5t-23 217.5v96l-173 -169zM394 698q282 311 282 492
q0 81 -39 131t-101 50q-142 0 -142 -267v-406z" />
    <glyph glyph-name="arrowleft" unicode="&#x2190;" horiz-adv-x="2048" 
d="M492 876h76q-81 -170 -195 -309h1595v-101h-1595q102 -102 198 -309h-78q-223 253 -414 341v45q177 71 413 333z" />
    <glyph glyph-name="arrowup" unicode="&#x2191;" 
d="M153 1050q262 236 333 413h46q87 -192 340 -415v-77q-207 96 -309 197v-1597h-101v1597q-139 -114 -309 -195v77z" />
    <glyph glyph-name="arrowright" unicode="&#x2192;" horiz-adv-x="2048" 
d="M1555 876q237 -262 413 -333v-45q-191 -88 -414 -341h-77q95 207 197 309h-1595v101h1595q-114 139 -195 309h76z" />
    <glyph glyph-name="arrowdown" unicode="&#x2193;" 
d="M153 -16v76q170 -81 309 -195v1598h101v-1598q102 102 309 197v-77q-253 -223 -340 -414h-46q-71 176 -333 413z" />
    <glyph glyph-name="arrowboth" unicode="&#x2194;" horiz-adv-x="2048" 
d="M1968 540v-45q-181 -79 -406 -337h-80q69 172 194 311h-1305q125 -139 194 -311h-80q-224 258 -406 337v45q182 79 406 338h80q-69 -172 -194 -311h1305q-125 139 -194 311h80q225 -259 406 -338z" />
    <glyph glyph-name="arrowupdn" unicode="&#x2195;" 
d="M489 1463h45q79 -182 337 -407v-80q-171 69 -311 195v-1306q140 126 311 194v-79q-258 -225 -337 -407h-45q-79 182 -337 407v79q171 -68 311 -194v1306q-140 -126 -311 -195v80q258 225 337 407z" />
    <glyph glyph-name="arrowupdnbse" unicode="&#x21a8;" 
d="M489 1463h45q79 -182 337 -407v-80q-171 69 -311 195v-1306q140 126 311 194v-79q-258 -225 -337 -407h-45q-79 182 -337 407v79q171 -68 311 -194v1306q-140 -126 -311 -195v80q258 225 337 407zM154 -522h717v-98h-717v98z" />
    <glyph glyph-name="orthogonal" unicode="&#x221f;" horiz-adv-x="2005" 
d="M362 1279h100v-1179h1181v-100h-1281v1279z" />
    <glyph glyph-name="intersection" unicode="&#x2229;" horiz-adv-x="1206" 
d="M239 0h-110v621l2 238q1 116 18.5 209t58.5 169t106 135.5t139.5 89.5t149.5 30q118 0 225 -68.5t165 -174t71.5 -224t13.5 -404.5v-621h-110v628q0 243 -10 348.5t-52 190t-127.5 139.5t-175.5 55t-174.5 -55t-126 -137t-52.5 -189.5t-11 -351.5v-628z" />
    <glyph glyph-name="equivalence" unicode="&#x2261;" horiz-adv-x="1241" 
d="M117 1045v139h1007v-139h-1007zM117 635v139h1007v-139h-1007zM117 225v139h1007v-139h-1007z" />
    <glyph glyph-name="H22073" unicode="&#x25a1;" horiz-adv-x="1237" 
d="M146 944h944v-944h-944v944zM222 868v-792h792v792h-792z" />
    <glyph glyph-name="H18543" unicode="&#x25aa;" horiz-adv-x="726" 
d="M594 909v-464h-463v463z" />
    <glyph glyph-name="H18551" unicode="&#x25ab;" horiz-adv-x="726" 
d="M594 909v-464h-463v463zM518 833l-311 -1v-311h311v312z" />
    <glyph glyph-name="H18533" unicode="&#x25cf;" horiz-adv-x="1237" 
d="M619 1018q181 0 310.5 -129t129.5 -311t-129 -311.5t-311 -129.5t-311.5 129.5t-129.5 311.5q0 189 131.5 314.5t309.5 125.5z" />
    <glyph glyph-name="openbullet" unicode="&#x25e6;" horiz-adv-x="726" 
d="M363 928q101 0 176 -72t75 -179q0 -104 -73.5 -177.5t-177.5 -73.5t-177.5 73.5t-73.5 177.5t74 177.5t177 73.5zM363 852q-71 0 -123 -50t-52 -125q0 -73 51.5 -124t123.5 -51t123.5 51t51.5 124q0 74 -52 124.5t-123 50.5z" />
    <glyph glyph-name="commaaccent" unicode="&#xf004;" horiz-adv-x="682" 
d="M470 -121l26 -27q-92 -230 -270 -450l-76 -39l-27 29q144 215 164 431q105 24 183 56z" />
    <glyph glyph-name="Amacron" unicode="&#x100;" horiz-adv-x="1593" 
d="M1049 473h-578l-68 -161q-67 -160 -67 -196q0 -23 12.5 -33t63.5 -16l96 -11v-63q-96 7 -216 7q-144 0 -253 -7v63l30 1q70 2 90.5 14.5t43.5 61.5q71 144 145 311l275 623q110 248 150 360h68l506 -1177q51 -120 68 -144.5t39 -35t99 -14.5v-63q-130 7 -248 7
q-110 0 -293 -7v63l99 6q53 4 63 11q15 11 15 28q0 18 -30 94zM508 555h504l-252 602zM539 1637v92h514v-92h-514z" />
    <glyph glyph-name="amacron" unicode="&#x101;" 
d="M143 689l1 67l-1 69l109 62q74 42 129.5 58t118.5 16q138 0 222.5 -62t101.5 -158q12 -72 15 -357q2 -269 12 -297t50 -28h78v-66q-114 7 -159 7q-56 0 -150 -7l1 89q0 43 -1 87l-207 -158q-28 -21 -55 -29.5t-75 -8.5q-129 0 -197 63.5t-68 170.5q0 101 48.5 176.5
t138 111.5t415.5 94q-2 127 -56 190q-68 79 -194 79q-48 0 -90 -12t-78 -36q-29 -71 -53 -136zM670 530q-278 -60 -353 -112.5t-75 -162.5q0 -74 43 -118.5t111 -44.5q75 0 143.5 42t130.5 125l-2 222zM267 1159v92h514v-92h-514z" />
    <glyph glyph-name="Ccircumflex" unicode="&#x108;" horiz-adv-x="1452" 
d="M1286 1055l-8 178q-89 59 -186.5 88t-203.5 29q-270 0 -432.5 -164t-162.5 -439q0 -193 82.5 -344t234.5 -239t321 -88q134 0 265 31q98 23 197 96l21 -20q-21 -46 -39 -93q-117 -58 -235.5 -87.5t-238.5 -29.5q-246 0 -432.5 95t-286.5 262.5t-100 378.5t101 377.5
t285.5 258t453.5 91.5q141 0 330 -46q94 -22 153 -33q-45 -107 -52 -302h-67zM499 1510l257 344h96l258 -344h-63l-245 217l-240 -217h-63z" />
    <glyph glyph-name="ccircumflex" unicode="&#x109;" horiz-adv-x="909" 
d="M810 135l27 -24l-41 -64q-68 -37 -140 -55.5t-147 -18.5q-147 0 -249.5 56t-158.5 162t-56 252q0 129 43 224.5t120.5 149.5t193.5 106q82 37 183 37q77 0 132.5 -12.5t119.5 -44.5q-25 -132 -27 -264h-63v50q0 64 -18.5 90.5t-84.5 52.5t-144 26q-135 0 -208 -82.5
t-73 -246.5q0 -211 108 -338q97 -115 250 -115q60 0 118 15t115 44zM213 1032l257 344h96l258 -344h-63l-245 217l-240 -217h-63z" />
    <glyph glyph-name="Cdot" unicode="&#x10a;" horiz-adv-x="1452" 
d="M1286 1055l-8 178q-89 59 -186.5 88t-203.5 29q-270 0 -432.5 -164t-162.5 -439q0 -193 82.5 -344t234.5 -239t321 -88q134 0 265 31q98 23 197 96l21 -20q-21 -46 -39 -93q-117 -58 -235.5 -87.5t-238.5 -29.5q-246 0 -432.5 95t-286.5 262.5t-100 378.5t101 377.5
t285.5 258t453.5 91.5q141 0 330 -46q94 -22 153 -33q-45 -107 -52 -302h-67zM819 1740q45 0 76.5 -32t31.5 -77q0 -46 -32 -78t-76 -32q-45 0 -77 32t-32 78q0 45 31.5 77t77.5 32z" />
    <glyph glyph-name="cdot" unicode="&#x10b;" horiz-adv-x="909" 
d="M810 135l27 -24l-41 -64q-68 -37 -140 -55.5t-147 -18.5q-147 0 -249.5 56t-158.5 162t-56 252q0 129 43 224.5t120.5 149.5t193.5 106q82 37 183 37q77 0 132.5 -12.5t119.5 -44.5q-25 -132 -27 -264h-63v50q0 64 -18.5 90.5t-84.5 52.5t-144 26q-135 0 -208 -82.5
t-73 -246.5q0 -211 108 -338q97 -115 250 -115q60 0 118 15t115 44zM512 1262q45 0 76.5 -32t31.5 -77q0 -46 -32 -78t-76 -32q-45 0 -77 32t-32 78q0 45 31.5 77t77.5 32z" />
    <glyph glyph-name="Emacron" unicode="&#x112;" horiz-adv-x="1251" 
d="M454 672v-245l1 -141q0 -132 3 -193q146 -11 313 -11q112 0 188 10q49 6 104 26q25 88 51 220h67q-27 -219 -27 -292l2 -45q-115 -11 -226 -11l-157 3q-260 7 -382 7q-117 0 -311 -7v63h31q87 0 109.5 17t30 80t7.5 278v549q0 135 -6.5 221t-14 102.5t-21.5 25.5t-86 16
l-77 8v62h108l106 -3q89 -3 135 -3l384 5l182 1q93 1 188 -8q-38 -118 -42 -307h-68q0 110 -11 183q-118 44 -290 44q-137 0 -287 -12q1 -94 -2 -188l-2 -154v-203q99 -6 175 -6q238 0 269.5 16.5t31.5 102.5v65h68q-7 -151 -7 -241q0 -95 7 -224h-68v58q0 96 -37.5 117.5
t-264.5 21.5q-84 0 -174 -8zM360 1637v92h514v-92h-514z" />
    <glyph glyph-name="emacron" unicode="&#x113;" horiz-adv-x="981" 
d="M247 477q5 -197 101 -299t252 -102q70 0 139 23t137 69l17 -15l-32 -84q-83 -48 -171 -72t-181 -24q-203 0 -327.5 128.5t-124.5 348.5q0 168 70 291q46 81 170 150t241 69q177 0 280.5 -104t103.5 -291l-2 -59q-66 -16 -126 -21q-107 -8 -297 -8h-250zM250 552
q155 -7 342 -7q75 0 145 7v56q0 88 -35 167q-22 49 -77 81.5t-127 32.5q-112 0 -179 -82t-69 -255zM233 1159v92h514v-92h-514z" />
    <glyph glyph-name="Ebreve" unicode="&#x114;" horiz-adv-x="1251" 
d="M454 672v-245l1 -141q0 -132 3 -193q146 -11 313 -11q112 0 188 10q49 6 104 26q25 88 51 220h67q-27 -219 -27 -292l2 -45q-115 -11 -226 -11l-157 3q-260 7 -382 7q-117 0 -311 -7v63h31q87 0 109.5 17t30 80t7.5 278v549q0 135 -6.5 221t-14 102.5t-21.5 25.5t-86 16
l-77 8v62h108l106 -3q89 -3 135 -3l384 5l182 1q93 1 188 -8q-38 -118 -42 -307h-68q0 110 -11 183q-118 44 -290 44q-137 0 -287 -12q1 -94 -2 -188l-2 -154v-203q99 -6 175 -6q238 0 269.5 16.5t31.5 102.5v65h68q-7 -151 -7 -241q0 -95 7 -224h-68v58q0 96 -37.5 117.5
t-264.5 21.5q-84 0 -174 -8zM357 1854h58q10 -107 73 -166t158 -59q94 0 157 59t73 166h59q-8 -158 -63 -235q-78 -109 -226 -109t-226 108q-56 79 -63 236z" />
    <glyph glyph-name="ebreve" unicode="&#x115;" horiz-adv-x="981" 
d="M247 477q5 -197 101 -299t252 -102q70 0 139 23t137 69l17 -15l-32 -84q-83 -48 -171 -72t-181 -24q-203 0 -327.5 128.5t-124.5 348.5q0 168 70 291q46 81 170 150t241 69q177 0 280.5 -104t103.5 -291l-2 -59q-66 -16 -126 -21q-107 -8 -297 -8h-250zM250 552
q155 -7 342 -7q75 0 145 7v56q0 88 -35 167q-22 49 -77 81.5t-127 32.5q-112 0 -179 -82t-69 -255zM229 1376h58q10 -107 73 -166t158 -59q94 0 157 59t73 166h59q-8 -158 -63 -235q-78 -109 -226 -109t-226 108q-56 79 -63 236z" />
    <glyph glyph-name="Edot" unicode="&#x116;" horiz-adv-x="1251" 
d="M454 672v-245l1 -141q0 -132 3 -193q146 -11 313 -11q112 0 188 10q49 6 104 26q25 88 51 220h67q-27 -219 -27 -292l2 -45q-115 -11 -226 -11l-157 3q-260 7 -382 7q-117 0 -311 -7v63h31q87 0 109.5 17t30 80t7.5 278v549q0 135 -6.5 221t-14 102.5t-21.5 25.5t-86 16
l-77 8v62h108l106 -3q89 -3 135 -3l384 5l182 1q93 1 188 -8q-38 -118 -42 -307h-68q0 110 -11 183q-118 44 -290 44q-137 0 -287 -12q1 -94 -2 -188l-2 -154v-203q99 -6 175 -6q238 0 269.5 16.5t31.5 102.5v65h68q-7 -151 -7 -241q0 -95 7 -224h-68v58q0 96 -37.5 117.5
t-264.5 21.5q-84 0 -174 -8zM618 1740q45 0 76.5 -32t31.5 -77q0 -46 -32 -78t-76 -32q-45 0 -77 32t-32 78q0 45 31.5 77t77.5 32z" />
    <glyph glyph-name="edot" unicode="&#x117;" horiz-adv-x="981" 
d="M247 477q5 -197 101 -299t252 -102q70 0 139 23t137 69l17 -15l-32 -84q-83 -48 -171 -72t-181 -24q-203 0 -327.5 128.5t-124.5 348.5q0 168 70 291q46 81 170 150t241 69q177 0 280.5 -104t103.5 -291l-2 -59q-66 -16 -126 -21q-107 -8 -297 -8h-250zM250 552
q155 -7 342 -7q75 0 145 7v56q0 88 -35 167q-22 49 -77 81.5t-127 32.5q-112 0 -179 -82t-69 -255zM504 1262q45 0 76.5 -32t31.5 -77q0 -46 -32 -78t-76 -32q-45 0 -77 32t-32 78q0 45 31.5 77t77.5 32z" />
    <glyph glyph-name="Gcircumflex" unicode="&#x11c;" horiz-adv-x="1563" 
d="M1430 466q-15 -84 -15 -171q0 -92 15 -207q-133 -52 -300.5 -83.5t-320.5 -31.5q-236 0 -414.5 92.5t-274.5 257t-96 373.5q0 216 103 384.5t287 262t466 93.5q115 0 212 -15t253 -60l85 -23q-27 -106 -43 -296h-62v66q0 98 -16 115q-30 32 -159 79.5t-295 47.5
q-294 0 -450 -158q-170 -172 -170 -455q0 -272 153 -458q180 -220 491 -220q162 0 351 71q6 84 6 179q0 123 -4 141.5t-14.5 24t-104.5 13.5l-118 10v64q229 -10 340 -10q96 0 165 10v-50zM457 1510l257 344h96l258 -344h-63l-245 217l-240 -217h-63z" />
    <glyph glyph-name="gcircumflex" unicode="&#x11d;" horiz-adv-x="1139" 
d="M895 774q23 -64 23 -105q0 -89 -54 -171.5t-154 -133t-216 -50.5l-47 1q-66 -49 -83.5 -73t-17.5 -47q0 -38 39 -60t159 -22q46 0 132 3q123 5 178 5q79 0 121 -25.5t72 -89t30 -143.5q0 -112 -68 -214.5t-198 -164.5t-299 -62q-206 0 -317 89.5t-111 220.5q0 81 58 164
q104 49 175 99q-82 27 -105.5 49.5t-23.5 57.5q0 42 23 83q13 25 66 61l97 69q-120 30 -173 85q-70 74 -70 189q0 101 52 184t153 131q129 61 249 61q76 0 133.5 -20t117.5 -68h84q130 0 202 8l11 -21q-30 -43 -53 -90h-185zM743 616q0 125 -64 201t-161 76
q-96 0 -154.5 -62t-58.5 -172q0 -133 63.5 -208.5t159.5 -75.5t155.5 63.5t59.5 177.5zM471 -21q-71 0 -97 -16q-84 -54 -102 -87q-30 -52 -30 -131q0 -109 81 -180t225 -71q111 0 195 41t130.5 112.5t46.5 147.5q0 65 -32.5 114t-77.5 63q-23 7 -105 7h-234zM303 1032
l257 344h96l258 -344h-63l-245 217l-240 -217h-63z" />
    <glyph glyph-name="Gdot" unicode="&#x120;" horiz-adv-x="1563" 
d="M1430 466q-15 -84 -15 -171q0 -92 15 -207q-133 -52 -300.5 -83.5t-320.5 -31.5q-236 0 -414.5 92.5t-274.5 257t-96 373.5q0 216 103 384.5t287 262t466 93.5q115 0 212 -15t253 -60l85 -23q-27 -106 -43 -296h-62v66q0 98 -16 115q-30 32 -159 79.5t-295 47.5
q-294 0 -450 -158q-170 -172 -170 -455q0 -272 153 -458q180 -220 491 -220q162 0 351 71q6 84 6 179q0 123 -4 141.5t-14.5 24t-104.5 13.5l-118 10v64q229 -10 340 -10q96 0 165 10v-50zM791 1740q45 0 76.5 -32t31.5 -77q0 -46 -32 -78t-76 -32q-45 0 -77 32t-32 78
q0 45 31.5 77t77.5 32z" />
    <glyph glyph-name="gdot" unicode="&#x121;" horiz-adv-x="1139" 
d="M895 774q23 -64 23 -105q0 -89 -54 -171.5t-154 -133t-216 -50.5l-47 1q-66 -49 -83.5 -73t-17.5 -47q0 -38 39 -60t159 -22q46 0 132 3q123 5 178 5q79 0 121 -25.5t72 -89t30 -143.5q0 -112 -68 -214.5t-198 -164.5t-299 -62q-206 0 -317 89.5t-111 220.5q0 81 58 164
q104 49 175 99q-82 27 -105.5 49.5t-23.5 57.5q0 42 23 83q13 25 66 61l97 69q-120 30 -173 85q-70 74 -70 189q0 101 52 184t153 131q129 61 249 61q76 0 133.5 -20t117.5 -68h84q130 0 202 8l11 -21q-30 -43 -53 -90h-185zM743 616q0 125 -64 201t-161 76
q-96 0 -154.5 -62t-58.5 -172q0 -133 63.5 -208.5t159.5 -75.5t155.5 63.5t59.5 177.5zM471 -21q-71 0 -97 -16q-84 -54 -102 -87q-30 -52 -30 -131q0 -109 81 -180t225 -71q111 0 195 41t130.5 112.5t46.5 147.5q0 65 -32.5 114t-77.5 63q-23 7 -105 7h-234zM566 1262
q45 0 76.5 -32t31.5 -77q0 -46 -32 -78t-76 -32q-45 0 -77 32t-32 78q0 45 31.5 77t77.5 32z" />
    <glyph glyph-name="Gcedilla" unicode="&#x122;" horiz-adv-x="1563" 
d="M876 -25l-34 -81q32 6 55 6q74 0 111.5 -38t37.5 -89q0 -69 -61.5 -119.5t-166.5 -50.5q-99 0 -193 43l31 60q96 -32 156 -32q105 0 105 86q0 78 -92 78q-27 0 -54 -10l-17 13l60 132q-359 0 -574.5 200.5t-215.5 522.5q0 316 220 528t637 212q204 0 464 -75l86 -23
q-28 -100 -43 -296h-63v66q0 85 -7.5 102.5t-66.5 50.5t-163.5 61t-231.5 28q-314 0 -467.5 -175.5t-153.5 -437.5q0 -289 176.5 -483.5t467.5 -194.5q167 0 351 71q7 106 7 193q0 144 -13 150.5t-111 14.5l-118 10v64q221 -10 345 -10q99 0 160 10v-50l-69 -46
q-6 -72 -6 -179q0 -112 6 -199q-244 -98 -555 -113z" />
    <glyph glyph-name="gcedilla" unicode="&#x123;" horiz-adv-x="1139" 
d="M895 774q23 -64 23 -105q0 -89 -54 -171.5t-154 -133t-216 -50.5l-47 1q-66 -49 -83.5 -73t-17.5 -47q0 -38 39 -60t159 -22q46 0 132 3q123 5 178 5q79 0 121 -25.5t72 -89t30 -143.5q0 -112 -68 -214.5t-198 -164.5t-299 -62q-206 0 -317 89.5t-111 220.5q0 81 58 164
q104 49 175 99q-82 27 -105.5 49.5t-23.5 57.5q0 42 23 83q13 25 66 61l97 69q-120 30 -173 85q-70 74 -70 189q0 101 52 184t153 131q129 61 249 61q76 0 133.5 -20t117.5 -68h84q130 0 202 8l11 -21q-30 -43 -53 -90h-185zM743 616q0 125 -64 201t-161 76
q-96 0 -154.5 -62t-58.5 -172q0 -133 63.5 -208.5t159.5 -75.5t155.5 63.5t59.5 177.5zM471 -21q-71 0 -97 -16q-84 -54 -102 -87q-30 -52 -30 -131q0 -109 81 -180t225 -71q111 0 195 41t130.5 112.5t46.5 147.5q0 65 -32.5 114t-77.5 63q-23 7 -105 7h-234zM476 1077
l-21 20q74 169 222 336l62 28l22 -21q-118 -159 -134 -321q-84 -18 -151 -42z" />
    <glyph glyph-name="Hcircumflex" unicode="&#x124;" horiz-adv-x="1704" 
d="M438 699v-279q0 -72 5 -169q6 -136 10 -150.5t29 -29.5t81 -15h68v-63q-130 7 -251 7q-117 0 -335 -7v63h62q105 0 124 35.5t19 325.5v603q0 262 -19.5 297.5t-111.5 35.5h-74v63q165 -7 307 -7q143 0 279 7v-63h-43q-93 0 -115 -15t-27 -49q-8 -55 -8 -267v-228
q178 -8 453 -8q233 0 379 8v195q0 171 -12 287q-4 41 -27 59t-94 18h-72v63q153 -7 290 -7q148 0 308 7v-63h-76q-77 0 -98.5 -17t-26 -62.5t-4.5 -286.5v-553q0 -307 17.5 -342.5t109.5 -35.5h78v-63q-138 7 -285 7q-168 0 -313 -7v63h69q76 0 98 17.5t27 65.5
q11 103 11 300v260q-141 8 -360 8q-312 0 -472 -8zM549 1510l257 344h96l258 -344h-63l-245 217l-240 -217h-63z" />
    <glyph glyph-name="hcircumflex" unicode="&#x125;" horiz-adv-x="1192" 
d="M363 770l131 115q46 43 90.5 59t107.5 16q111 0 192.5 -44.5t113 -114t31.5 -236.5l-6 -296q0 -100 8 -158q3 -24 16.5 -36t58.5 -16l76 -8v-58q-97 7 -189 7q-79 0 -157 -7q18 251 18 494q0 163 -20.5 221t-73.5 92t-134 34q-83 0 -151 -39.5t-94 -91.5
q-18 -37 -18 -176v-174q0 -238 11 -263t80 -31l87 -8v-58q-156 7 -251 7q-99 0 -259 -7v58l63 8q59 7 74 16.5t20 43.5q7 54 7 242v675q0 267 -14 299q-9 22 -81 22h-69v61q155 16 248 45l82 28q16 0 16 -21l-3 -41l-6 -180q-5 -136 -5 -211v-268zM283 1553l257 344h96
l258 -344h-63l-245 217l-240 -217h-63z" />
    <glyph glyph-name="Hbar" unicode="&#x126;" horiz-adv-x="1704" 
d="M249 1070h-192v82h190q-3 147 -22 174t-106 27h-74v63q152 -7 307 -7q152 0 279 7v-63h-43q-107 0 -128 -27t-21 -174h828q-6 142 -23 171.5t-109 29.5h-70v63q141 -7 290 -7q156 0 308 7v-63h-77q-89 0 -108 -28t-19 -173h192v-82h-193v-636q0 -296 15 -337t113 -41h77
v-63q-124 7 -285 7q-178 0 -313 -7v63h70q96 0 115.5 38.5t19.5 344.5v260q-113 8 -360 8q-335 0 -472 -8v-280q0 -72 5 -169l5 -110q1 -57 36.5 -70.5t78.5 -13.5h68v-63q-120 7 -251 7q-127 0 -335 -7v63h62q113 0 128 41.5t15 321.5zM439 1070l-1 -276q236 -11 448 -11
q178 0 384 11q0 260 -1 276h-830z" />
    <glyph glyph-name="hbar" unicode="&#x127;" horiz-adv-x="1192" 
d="M194 1117h-163v83h161q-3 114 -10.5 135.5t-81.5 21.5h-69v59q198 19 312 68q10 5 18 5q16 0 16 -20q0 -13 -3 -42q-4 -42 -8 -227h331v-83h-333l-1 -80v-267l97 85q79 68 127.5 88t113.5 20q140 0 234.5 -75.5t94.5 -253.5l-7 -415q0 -106 14.5 -130.5t68.5 -29.5l76 -8
v-58q-84 7 -189 7q-86 0 -157 -7q18 233 18 493q0 143 -15.5 206.5t-70.5 102.5t-142 39q-94 0 -162.5 -46.5t-84.5 -89.5t-16 -171v-174q0 -121 1 -143q3 -74 3 -76q0 -44 16 -57t71 -18l87 -8v-58q-148 7 -251 7q-108 0 -259 -7v58l63 8q69 8 85 26.5t16 275.5v676z" />
    <glyph glyph-name="Itilde" unicode="&#x128;" horiz-adv-x="690" 
d="M61 56h63q93 0 111.5 45t18.5 431v339q0 400 -16 441t-96 41h-81v63q166 -7 328 -7q135 0 245 7v-63h-77q-71 0 -89 -17t-21 -86q-5 -107 -5 -381v-345q0 -389 17 -428.5t109 -39.5h66v-63q-123 7 -268 7q-169 0 -305 -7v63zM37 1580h-54q57 199 221 199q70 0 186 -52
q101 -45 143 -45q84 0 126 104h54q-27 -101 -84.5 -153.5t-131.5 -52.5q-69 0 -175 45q-118 51 -165 51q-81 0 -120 -96z" />
    <glyph glyph-name="itilde" unicode="&#x129;" horiz-adv-x="596" 
d="M380 964l24 -15q-7 -75 -9 -165q-7 -292 -7 -431q0 -130 9 -222q4 -36 19 -50t72 -21l68 -9v-58q-146 7 -266 7q-118 0 -238 -7v58l86 9q50 4 59 16q14 17 17 99q5 127 5 350q0 155 -5 239q-2 31 -17.5 44t-69.5 13h-75v59q122 18 179.5 33t148.5 51zM-50 1102h-54
q57 199 221 199q70 0 186 -52q101 -45 143 -45q84 0 126 104h54q-27 -101 -84.5 -153.5t-131.5 -52.5q-69 0 -175 45q-118 51 -165 51q-81 0 -120 -96z" />
    <glyph glyph-name="Imacron" unicode="&#x12a;" horiz-adv-x="690" 
d="M61 56h63q93 0 111.5 45t18.5 431v339q0 400 -16 441t-96 41h-81v63q166 -7 328 -7q135 0 245 7v-63h-77q-71 0 -89 -17t-21 -86q-5 -107 -5 -381v-345q0 -389 17 -428.5t109 -39.5h66v-63q-123 7 -268 7q-169 0 -305 -7v63zM91 1637v92h514v-92h-514z" />
    <glyph glyph-name="imacron" unicode="&#x12b;" horiz-adv-x="596" 
d="M380 964l24 -15q-7 -75 -9 -165q-7 -292 -7 -431q0 -130 9 -222q4 -36 19 -50t72 -21l68 -9v-58q-146 7 -266 7q-118 0 -238 -7v58l86 9q50 4 59 16q14 17 17 99q5 127 5 350q0 155 -5 239q-2 31 -17.5 44t-69.5 13h-75v59q122 18 179.5 33t148.5 51zM32 1159v92h514v-92
h-514z" />
    <glyph glyph-name="Ibreve" unicode="&#x12c;" horiz-adv-x="690" 
d="M61 56h63q93 0 111.5 45t18.5 431v339q0 400 -16 441t-96 41h-81v63q166 -7 328 -7q135 0 245 7v-63h-77q-71 0 -89 -17t-21 -86q-5 -107 -5 -381v-345q0 -389 17 -428.5t109 -39.5h66v-63q-123 7 -268 7q-169 0 -305 -7v63zM59 1854h58q10 -107 73 -166t158 -59
q94 0 157 59t73 166h59q-8 -158 -63 -235q-78 -109 -226 -109t-226 108q-56 79 -63 236z" />
    <glyph glyph-name="ibreve" unicode="&#x12d;" horiz-adv-x="596" 
d="M380 964l24 -15q-7 -75 -9 -165q-7 -292 -7 -431q0 -130 9 -222q4 -36 19 -50t72 -21l68 -9v-58q-146 7 -266 7q-118 0 -238 -7v58l86 9q50 4 59 16q14 17 17 99q5 127 5 350q0 155 -5 239q-2 31 -17.5 44t-69.5 13h-75v59q122 18 179.5 33t148.5 51zM15 1376h58
q10 -107 73 -166t158 -59q94 0 157 59t73 166h59q-8 -158 -63 -235q-78 -109 -226 -109t-226 108q-56 79 -63 236z" />
    <glyph glyph-name="Iogonek" unicode="&#x12e;" horiz-adv-x="690" 
d="M495 -1q-171 -81 -171 -207q0 -51 29.5 -87.5t78.5 -36.5q55 0 111 62l33 -32q-104 -132 -228 -132q-73 0 -120 44.5t-47 111.5q0 87 67.5 162.5t164.5 114.5l-123 1q-83 0 -229 -7v63h63q79 0 96.5 20t25.5 135t8 321v338q0 424 -21 453.5t-91 29.5h-81v63
q156 -7 328 -7q144 0 245 7v-63h-77q-90 0 -102.5 -40.5t-12.5 -442.5v-346q0 -365 13 -416.5t113 -51.5h66v-63q-67 4 -139 6z" />
    <glyph glyph-name="iogonek" unicode="&#x12f;" horiz-adv-x="596" 
d="M409 1294q0 -47 -33.5 -80.5t-80.5 -33.5q-46 0 -79.5 33.5t-33.5 79.5q0 49 35.5 82.5t78.5 33.5q47 0 80 -34t33 -81zM358 -1l-116 2q-50 0 -190 -8v58l86 9q50 5 62 20t15.5 158t3.5 321q0 216 -12.5 241t-81.5 25h-73v57q178 17 317 76q11 5 19 5q16 0 16 -19
q0 -8 -2 -21q-12 -77 -12 -538q0 -284 20.5 -301t77.5 -24l67 -9v-58l-117 6q-169 -81 -169 -207q0 -51 29.5 -87.5t78.5 -36.5q55 0 111 62l33 -32q-104 -132 -228 -132q-75 0 -121 45t-46 111q0 87 67.5 162t164.5 115z" />
    <glyph glyph-name="Jcircumflex" unicode="&#x134;" horiz-adv-x="682" 
d="M-24 -396q3 44 3 72l-3 85l21 11q54 -34 110 -34q80 0 112 54.5t32 291.5v862q0 330 -19 368.5t-119 38.5h-67v63q108 -7 274 -7q184 0 312 7v-63l-66 -4q-81 -7 -97.5 -18t-22.5 -37.5t-6 -170.5v-861q0 -214 -28 -307q-43 -148 -159.5 -252t-222.5 -104q-19 0 -54 5z
M20 1510l257 344h96l258 -344h-63l-245 217l-240 -217h-63z" />
    <glyph glyph-name="jcircumflex" unicode="&#x135;" horiz-adv-x="479" 
d="M-145 1032l257 344h96l258 -344h-63l-245 217l-240 -217h-63zM-6 825v57q191 21 320 76q11 5 19 5q16 0 16 -19q0 -8 -3 -21q-3 -25 -11.5 -234.5t-8.5 -280.5l2 -356q0 -359 -115 -494t-247 -135q-10 0 -31 1l-21 70q33 -6 51 -6q105 0 150 120.5t45 861.5
q0 300 -11.5 327.5t-82.5 27.5h-72z" />
    <glyph glyph-name="Kcedilla" unicode="&#x136;" horiz-adv-x="1487" 
d="M630 781l682 -635l62 -59q19 -19 38.5 -25t64.5 -6v-63q-82 7 -144 7q-65 0 -142 -7l-689 654q-35 33 -43 33q-21 0 -21 -39v-305q0 -223 9 -244q15 -36 108 -36h75v-63q-163 7 -289 7q-132 0 -284 -7v63h81q80 0 96 29.5t16 254.5v669q0 275 -16 309.5t-96 34.5h-81v63
q183 -7 265 -7q59 0 308 7v-63l-79 -3q-68 -3 -86 -18.5t-22.5 -61.5t-4.5 -265v-270h14q82 67 141 122.5t194 194.5l284 294v70q110 -7 182 -7q75 0 166 7v-63h-54q-72 0 -122 -27.5t-231 -193.5zM626 -176l-12 42q84 34 154 34q71 0 110 -37t39 -90q0 -70 -62 -120
t-167 -50q-69 0 -158 28l28 64q76 -21 126 -21q49 0 76 24.5t27 61.5q0 78 -90 78q-31 0 -71 -14z" />
    <glyph glyph-name="kcedilla" unicode="&#x137;" horiz-adv-x="1139" 
d="M381 494v-127q0 -252 16.5 -284t100.5 -32h61v-58l-54 2q-144 5 -190 5l-266 -7v58h59q77 0 91 29t14 285v596q0 331 -15 371q-9 24 -78 24h-85v59q84 0 240 42l101 32q16 0 16 -20l-5 -100q-2 -38 -6 -418v-401l13 -7q91 68 155 122q33 28 150 140l144 135h202v-58h-36
q-35 0 -90 -33q-109 -65 -360 -273q188 -195 231 -234q200 -184 241 -217q25 -21 43 -28.5t51 -11.5v-44q-87 -39 -191 -64q-59 48 -279 268q-161 161 -261 249h-13zM452 -176l-12 42q84 34 154 34q71 0 110 -37t39 -90q0 -70 -62 -120t-167 -50q-69 0 -158 28l28 64
q76 -21 126 -21q49 0 76 24.5t27 61.5q0 78 -90 78q-31 0 -71 -14z" />
    <glyph glyph-name="kgreenlandic" unicode="&#x138;" horiz-adv-x="1122" 
d="M364 494v-128q0 -251 16.5 -283t100.5 -32h61v-58q-2 0 -54 2q-144 5 -196 5q-58 0 -260 -7v58h59q86 0 95.5 40.5t9.5 274.5v99q0 333 -18 349t-75 16h-85v60q40 0 149 20.5t171 46.5q13 6 21 6q16 0 16 -20q0 -8 -2 -33l-9 -360l13 -7q131 95 305 262l144 135
q56 -6 102 -6q47 0 100 6v-58h-36q-40 0 -130.5 -58.5t-319.5 -247.5q185 -192 318.5 -317t169.5 -147t78 -27v-44q-86 -40 -191 -64q-41 30 -224 213q-226 226 -316 304h-13z" />
    <glyph glyph-name="Lcedilla" unicode="&#x13b;" horiz-adv-x="1251" 
d="M444 91q98 -5 191 -5q188 0 294 10q74 8 153 29l60 235h65q-25 -189 -39 -353q-90 -15 -246 -15l-476 8q-96 0 -299 -11v53q80 35 94.5 75t14.5 317v550q0 300 -14.5 334.5t-81.5 34.5h-109v63q238 -7 316 -7q104 0 282 7v-63h-124q-53 0 -67 -30.5t-14 -253.5v-637
l3 -282zM508 -176l-12 42q84 34 154 34q71 0 110 -37t39 -90q0 -70 -62 -120t-167 -50q-69 0 -158 28l28 64q76 -21 126 -21q49 0 76 24.5t27 61.5q0 78 -90 78q-31 0 -71 -14z" />
    <glyph glyph-name="lcedilla" unicode="&#x13c;" horiz-adv-x="596" 
d="M398 1478q-17 -293 -17 -530v-514q0 -306 13 -347q7 -21 66 -27l85 -9v-58q-109 7 -208 7q-110 0 -288 -7v58l86 7q57 5 65 29q13 39 13 355v511l-1 192l-3 131q0 49 -11 60q-16 16 -67 16h-82v60q208 19 332 78zM181 -176l-12 42q84 34 154 34q71 0 110 -37t39 -90
q0 -70 -62 -120t-167 -50q-69 0 -158 28l28 64q76 -21 126 -21q49 0 76 24.5t27 61.5q0 78 -90 78q-31 0 -71 -14z" />
    <glyph glyph-name="Ncedilla" unicode="&#x145;" horiz-adv-x="1702" 
d="M330 1190v-691q0 -236 9 -329q7 -71 23.5 -86.5t95.5 -22.5l64 -5v-63q-109 7 -197 7q-61 0 -280 -7v63h72q65 0 85 18t25 71q11 110 11 299v497q0 140 -3 277q-2 58 -15.5 79.5t-39.5 38.5t-73 17h-62v63q127 -7 194 -7q72 0 158 7l186.5 -235.5l181.5 -230.5l342 -420
q185 -226 267 -314v642q0 403 -14.5 440.5t-115.5 47.5l-75 7v63q161 -7 250 -7q93 0 240 7v-63h-77q-93 0 -107 -62q-9 -41 -9 -438v-451q0 -182 16 -435q-136 21 -158 30.5t-42 31.5q-111 123 -233 273zM734 -176l-12 42q84 34 154 34q71 0 110 -37t39 -90q0 -70 -62 -120
t-167 -50q-69 0 -158 28l28 64q76 -21 126 -21q49 0 76 24.5t27 61.5q0 78 -90 78q-31 0 -71 -14z" />
    <glyph glyph-name="ncedilla" unicode="&#x146;" horiz-adv-x="1192" 
d="M362 769l151 134q27 24 57 35q66 22 132 22q107 0 185 -43.5t112 -113t34 -217.5l-5 -315q0 -163 14 -188q19 -32 74 -32h72v-58q-107 7 -185 7q-76 0 -163 -7q19 195 19 527q0 134 -23.5 190t-79 90t-133.5 34q-97 0 -164.5 -49t-83.5 -108q-10 -39 -10 -204
q0 -183 3 -340q1 -47 14 -59q25 -23 82 -23h71v-58q-169 7 -269 7q-106 0 -241 -7v58h72q74 0 86.5 34.5t12.5 415.5q0 171 -4 268q-2 32 -16 44t-79 12h-72v57q86 10 154 27t153 52q9 4 17 4q16 0 16 -23l-1 -38zM479 -176l-12 42q84 34 154 34q71 0 110 -37t39 -90
q0 -70 -62 -120t-167 -50q-69 0 -158 28l28 64q76 -21 126 -21q49 0 76 24.5t27 61.5q0 78 -90 78q-31 0 -71 -14z" />
    <glyph glyph-name="Eng" unicode="&#x14a;" horiz-adv-x="1616" 
d="M438 1145q175 291 516 291q257 0 421.5 -195t164.5 -526q0 -348 -194.5 -545t-459.5 -197q-42 0 -73 6q2 46 2 72q0 13 -2 85l21 11q55 -39 149 -39q105 0 177.5 56t120.5 193t48 349q0 332 -124 480t-312 148q-272 0 -455 -338v-577q0 -287 19 -325t106 -38h68v-63
q-116 7 -251 7q-137 0 -335 -7v63h62q98 0 118 27.5t22 151.5l3 184v601q0 261 -19.5 297t-111.5 36h-74v63h393v-271z" />
    <glyph glyph-name="eng" unicode="&#x14b;" horiz-adv-x="1186" 
d="M635 -576l-21 70q33 -6 51 -6q104 0 148.5 124t44.5 918q0 166 -57.5 235t-178.5 69q-93 0 -159.5 -46t-82.5 -93.5t-16 -188.5q0 -349 4.5 -402t94.5 -53h71v-58q-160 7 -269 7q-111 0 -241 -7v58h72q72 0 86 32.5t14 429.5q0 289 -19.5 300.5t-80.5 11.5h-72v57
q155 16 285 68q31 13 39 13q16 0 16 -22q0 -13 -2 -76q-1 -21 -1 -96l151 134q67 60 189 60q137 0 223 -68t98 -160.5t12 -443.5q0 -277 -10.5 -403.5t-57.5 -235.5t-130.5 -169t-169.5 -60q-10 0 -31 1z" />
    <glyph glyph-name="Omacron" unicode="&#x14c;" horiz-adv-x="1610" 
d="M47 705q0 329 212 530t565 201q346 0 542.5 -186.5t196.5 -495.5q0 -333 -228 -557t-575 -224q-217 0 -374 88t-248 257t-91 387zM250 787q0 -226 77.5 -393.5t207.5 -251t297 -83.5q155 0 271 71t182.5 212t66.5 343q0 212 -73.5 362.5t-201.5 226.5t-303 76
q-160 0 -276 -67t-182 -196.5t-66 -299.5zM548 1637v92h514v-92h-514z" />
    <glyph glyph-name="omacron" unicode="&#x14d;" horiz-adv-x="1118" 
d="M72 473q0 138 64 249.5t179.5 174.5t262.5 63q213 0 341 -126t128 -336q0 -248 -167 -394q-149 -131 -357 -131q-200 0 -325.5 134.5t-125.5 365.5zM260 544q0 -206 84.5 -352.5t243.5 -146.5q121 0 195.5 92t74.5 279q0 151 -44 261.5t-116 161t-161 50.5
q-79 0 -142.5 -40t-93.5 -107q-41 -91 -41 -198zM303 1159v92h514v-92h-514z" />
    <glyph glyph-name="Obreve" unicode="&#x14e;" horiz-adv-x="1610" 
d="M47 705q0 329 212 530t565 201q346 0 542.5 -186.5t196.5 -495.5q0 -333 -228 -557t-575 -224q-217 0 -374 88t-248 257t-91 387zM250 787q0 -226 77.5 -393.5t207.5 -251t297 -83.5q155 0 271 71t182.5 212t66.5 343q0 212 -73.5 362.5t-201.5 226.5t-303 76
q-160 0 -276 -67t-182 -196.5t-66 -299.5zM516 1854h58q10 -107 73 -166t158 -59q94 0 157 59t73 166h59q-8 -158 -63 -235q-78 -109 -226 -109t-226 108q-56 79 -63 236z" />
    <glyph glyph-name="obreve" unicode="&#x14f;" horiz-adv-x="1118" 
d="M72 473q0 138 64 249.5t179.5 174.5t262.5 63q213 0 341 -126t128 -336q0 -248 -167 -394q-149 -131 -357 -131q-200 0 -325.5 134.5t-125.5 365.5zM260 544q0 -206 84.5 -352.5t243.5 -146.5q121 0 195.5 92t74.5 279q0 151 -44 261.5t-116 161t-161 50.5
q-79 0 -142.5 -40t-93.5 -107q-41 -91 -41 -198zM271 1376h58q10 -107 73 -166t158 -59q94 0 157 59t73 166h59q-8 -158 -63 -235q-78 -109 -226 -109t-226 108q-56 79 -63 236z" />
    <glyph glyph-name="Rcedilla" unicode="&#x156;" horiz-adv-x="1368" 
d="M789 715q98 -141 243 -328l192 -249q51 -64 68 -73t35 -9h26v-63q-83 7 -145 7q-57 0 -120 -7l-354 478q-99 132 -212 258l10 34q58 -5 86 -5q167 0 261.5 86t94.5 230q0 129 -80 201.5t-231 72.5q-105 0 -211 -39q-12 -159 -12 -340v-483q0 -353 17 -391.5t110 -38.5h78
v-63q-166 7 -275 7q-86 0 -311 -7v63h75q86 0 102 37.5t16 394.5v481q0 310 -18.5 347t-120.5 37h-54v64q186 -8 284 -8q66 0 190 5q144 5 207 5q173 0 262.5 -36.5t136 -105.5t46.5 -165q0 -141 -101.5 -249t-294.5 -148zM566 -176l-12 42q84 34 154 34q71 0 110 -37
t39 -90q0 -70 -62 -120t-167 -50q-69 0 -158 28l28 64q76 -21 126 -21q49 0 76 24.5t27 61.5q0 78 -90 78q-31 0 -71 -14z" />
    <glyph glyph-name="rcedilla" unicode="&#x157;" horiz-adv-x="809" 
d="M380 734q40 38 87 100q56 73 104 100t101 27q55 0 84 -13q14 -6 14 -19l-1 -10q-15 -81 -17 -227h-45q-23 51 -54.5 72t-75.5 21q-59 0 -109.5 -40t-67.5 -112t-17 -283q0 -139 11 -234q4 -35 20 -44q38 -21 112 -21h60v-58q-153 7 -290 7q-133 0 -263 -7v58l96 8
q51 4 64.5 19t17.5 97q7 144 7 342q0 241 -19 283q-13 27 -82 27h-84v58q97 11 173 28.5t135 44.5q14 7 23 7q11 0 15 -6t4 -27zM287 -176l-12 42q84 34 154 34q71 0 110 -37t39 -90q0 -70 -62 -120t-167 -50q-69 0 -158 28l28 64q76 -21 126 -21q49 0 76 24.5t27 61.5
q0 78 -90 78q-31 0 -71 -14z" />
    <glyph glyph-name="Scircumflex" unicode="&#x15c;" horiz-adv-x="1075" 
d="M960 1349q-28 -104 -30 -276h-69v80q0 78 -21 106t-109.5 59.5t-186.5 31.5q-160 0 -251.5 -81t-91.5 -208q0 -80 37.5 -137.5t101 -83t269.5 -44.5q206 -20 278.5 -53t116 -106t43.5 -173q0 -201 -168 -346t-448 -145q-96 0 -193.5 19.5t-196.5 57.5q18 120 17 308h68
v-50q0 -97 10 -120t47 -49q55 -39 131 -59.5t164 -20.5q189 0 292 89t103 226q0 80 -35 135.5t-98 82.5t-233 41q-226 18 -307 54t-127 113.5t-46 192.5q0 195 141 319t390 124q100 0 200.5 -21.5t201.5 -65.5zM232 1510l257 344h96l258 -344h-63l-245 217l-240 -217h-63z
" />
    <glyph glyph-name="scircumflex" unicode="&#x15d;" horiz-adv-x="868" 
d="M154 299v-65q0 -78 14 -97q26 -32 101.5 -62t155.5 -30q103 0 168 55.5t65 132.5q0 61 -38 98t-145 59q-199 40 -263 70t-96 80t-32 121q0 133 96.5 216t273.5 83q140 0 279 -56q-8 -68 -13 -228h-59q-2 88 -19 116q-23 37 -84 67t-130 30q-91 0 -145.5 -46.5
t-54.5 -116.5q0 -67 43 -101q43 -35 238 -74q144 -29 190 -54t74 -76t28 -117q0 -135 -115.5 -233t-308.5 -98q-123 0 -276 39q-27 7 -27 21l3 14q4 15 7 53q9 97 9 151l-1 48h62zM131 1032l257 344h96l258 -344h-63l-245 217l-240 -217h-63z" />
    <glyph glyph-name="Tbar" unicode="&#x166;" horiz-adv-x="1256" 
d="M723 778h373v-83h-373v-256q0 -294 11 -338.5t119 -44.5h75v-63q-166 7 -300 7q-137 0 -298 -7v63h84q84 0 102.5 40.5t18.5 347.5v251h-387v83h387v237q0 169 -7 310h-102q-262 0 -279.5 -15.5t-25.5 -86.5l-14 -133h-63q2 68 2 119q0 78 -12 207q527 -7 635 -7
q84 0 553 7q-19 -169 -22 -326h-62l-10 133q-6 69 -20 81t-120.5 16.5t-175.5 4.5h-78q-11 -150 -11 -316v-231z" />
    <glyph glyph-name="tbar" unicode="&#x167;" horiz-adv-x="668" 
d="M371 563h285v-83h-285v-91q0 -140 8 -188t38.5 -74.5t81.5 -26.5q61 0 111 46l29 -35l-97 -118q-61 -20 -118 -20q-224 0 -224 215l3 201v91h-159v83h159v223q-83 0 -159 -7v43q104 39 159 70q-1 130 -8 293q125 52 167 79l26 -20q-5 -20 -17 -361q192 0 278 9l7 -9
l-17 -97q-77 2 -139 2q-63 0 -129 -2v-223z" />
    <glyph glyph-name="Utilde" unicode="&#x168;" horiz-adv-x="1593" 
d="M39 1353v63q205 -7 298 -7q98 0 288 7v-63h-73q-94 0 -113 -36t-19 -326v-392q0 -215 23.5 -299t121.5 -142t262 -58q169 0 285 62q80 43 117 133.5t37 343.5v377q0 262 -23.5 299.5t-129.5 37.5h-52v63q207 -7 263 -7q91 0 226 7v-63h-68q-79 0 -101.5 -42.5
t-22.5 -298.5v-375q0 -257 -25.5 -346.5t-93 -161.5t-180 -114t-264.5 -42q-157 0 -275 37.5t-177.5 92.5t-86 134.5t-26.5 270.5l2 190v305q0 282 -16.5 316t-105.5 34h-71zM484 1580h-54q57 199 221 199q70 0 186 -52q101 -45 143 -45q84 0 126 104h54
q-27 -101 -84.5 -153.5t-131.5 -52.5q-69 0 -175 45q-118 51 -165 51q-81 0 -120 -96z" />
    <glyph glyph-name="utilde" unicode="&#x169;" horiz-adv-x="1235" 
d="M840 -7l12 180l-59 -64q-69 -75 -140.5 -105.5t-176.5 -30.5q-90 0 -155 38t-94.5 98.5t-29.5 191.5q0 68 3 158l3 161q0 169 -9.5 188t-63.5 19h-89v55q136 12 251 50l83 31q17 0 17 -25l-7 -102q-14 -212 -14 -394t15 -232.5t63 -84t117 -33.5q93 0 170.5 60t101.5 121
q13 35 13 211q0 296 -11 322q-10 21 -90 21h-79v55q103 12 175 28t152 48q10 5 18 5q17 0 17 -19l-4 -93q-15 -342 -15 -602q0 -146 15 -167q22 -31 95 -31h58v-58q-125 7 -212 7q-65 0 -130 -7zM301 1102h-54q57 199 221 199q70 0 186 -52q101 -45 143 -45q84 0 126 104h54
q-27 -101 -84.5 -153.5t-131.5 -52.5q-69 0 -175 45q-118 51 -165 51q-81 0 -120 -96z" />
    <glyph glyph-name="Umacron" unicode="&#x16a;" horiz-adv-x="1597" 
d="M41 1353v63q205 -7 298 -7q98 0 288 7v-63h-73q-94 0 -113 -36t-19 -326v-392q0 -215 23.5 -299t121.5 -142t262 -58q169 0 285 62q80 43 117 133.5t37 343.5v377q0 262 -23.5 299.5t-129.5 37.5h-52v63q207 -7 263 -7q91 0 226 7v-63h-68q-79 0 -101.5 -42.5
t-22.5 -298.5v-375q0 -257 -25.5 -346.5t-93 -161.5t-180 -114t-264.5 -42q-157 0 -275 37.5t-177.5 92.5t-86 134.5t-26.5 270.5l2 190v305q0 282 -16.5 316t-105.5 34h-71zM540 1637v92h514v-92h-514z" />
    <glyph glyph-name="umacron" unicode="&#x16b;" horiz-adv-x="1235" 
d="M840 -7l12 180l-59 -64q-69 -75 -140.5 -105.5t-176.5 -30.5q-90 0 -155 38t-94.5 98.5t-29.5 191.5q0 68 3 158l3 161q0 169 -9.5 188t-63.5 19h-89v55q136 12 251 50l83 31q17 0 17 -25l-7 -102q-14 -212 -14 -394t15 -232.5t63 -84t117 -33.5q93 0 170.5 60t101.5 121
q13 35 13 211q0 296 -11 322q-10 21 -90 21h-79v55q103 12 175 28t152 48q10 5 18 5q17 0 17 -19l-4 -93q-15 -342 -15 -602q0 -146 15 -167q22 -31 95 -31h58v-58q-125 7 -212 7q-65 0 -130 -7zM355 1159v92h514v-92h-514z" />
    <glyph glyph-name="Ubreve" unicode="&#x16c;" horiz-adv-x="1593" 
d="M39 1353v63q205 -7 298 -7q98 0 288 7v-63h-73q-94 0 -113 -36t-19 -326v-392q0 -215 23.5 -299t121.5 -142t262 -58q169 0 285 62q80 43 117 133.5t37 343.5v377q0 262 -23.5 299.5t-129.5 37.5h-52v63q207 -7 263 -7q91 0 226 7v-63h-68q-79 0 -101.5 -42.5
t-22.5 -298.5v-375q0 -257 -25.5 -346.5t-93 -161.5t-180 -114t-264.5 -42q-157 0 -275 37.5t-177.5 92.5t-86 134.5t-26.5 270.5l2 190v305q0 282 -16.5 316t-105.5 34h-71zM506 1854h58q10 -107 73 -166t158 -59q94 0 157 59t73 166h59q-8 -158 -63 -235
q-78 -109 -226 -109t-226 108q-56 79 -63 236z" />
    <glyph glyph-name="ubreve" unicode="&#x16d;" horiz-adv-x="1235" 
d="M840 -7l12 180l-59 -64q-69 -75 -140.5 -105.5t-176.5 -30.5q-90 0 -155 38t-94.5 98.5t-29.5 191.5q0 68 3 158l3 161q0 169 -9.5 188t-63.5 19h-89v55q136 12 251 50l83 31q17 0 17 -25l-7 -102q-14 -212 -14 -394t15 -232.5t63 -84t117 -33.5q93 0 170.5 60t101.5 121
q13 35 13 211q0 296 -11 322q-10 21 -90 21h-79v55q103 12 175 28t152 48q10 5 18 5q17 0 17 -19l-4 -93q-15 -342 -15 -602q0 -146 15 -167q22 -31 95 -31h58v-58q-125 7 -212 7q-65 0 -130 -7zM323 1376h58q10 -107 73 -166t158 -59q94 0 157 59t73 166h59
q-8 -158 -63 -235q-78 -109 -226 -109t-226 108q-56 79 -63 236z" />
    <glyph glyph-name="Uogonek" unicode="&#x172;" horiz-adv-x="1593" 
d="M1034 7q-188 -88 -188 -215q0 -51 29.5 -87.5t79.5 -36.5q55 0 110 62l33 -32q-104 -132 -228 -132q-76 0 -121.5 45.5t-45.5 110.5q0 148 187 257q-40 -6 -92 -6q-221 0 -356 67.5t-173.5 164.5t-38.5 297l2 196v305q0 304 -22.5 327t-99.5 23h-71v63q198 -7 298 -7
q108 0 288 7v-63h-73q-94 0 -113 -36t-19 -326v-392q0 -215 24 -299.5t122 -142t265 -57.5q120 0 215.5 34t138 83t62 139t19.5 282v378q0 263 -22.5 300t-130.5 37h-52v63l57 -2q143 -5 206 -5q97 0 226 7v-63h-68q-87 0 -105.5 -51t-18.5 -290v-374q0 -237 -21.5 -333.5
t-100.5 -179t-202 -118.5z" />
    <glyph glyph-name="uogonek" unicode="&#x173;" horiz-adv-x="1235" 
d="M1050 0q-171 -81 -171 -208q0 -51 29.5 -87.5t78.5 -36.5q55 0 111 62l32 -32q-103 -132 -228 -132q-75 0 -120.5 45.5t-45.5 110.5q0 88 68.5 163.5t163.5 114.5q-62 0 -128 -7l12 180l-59 -64q-86 -94 -168.5 -115t-148.5 -21q-83 0 -151 35.5t-98 99.5t-30 187
q0 70 3 164q3 136 3 165q0 154 -7 178.5t-66 24.5h-89v55q198 17 316 75q11 6 18 6q17 0 17 -24q0 -10 -7 -103q-14 -211 -14 -393q0 -162 11 -219t61.5 -94.5t122.5 -37.5q64 0 119.5 27.5t105 83t55.5 98t6 162.5q0 314 -10.5 339t-91.5 25h-79v55q193 22 305 68
q32 13 41 13q16 0 16 -19q0 -36 -8 -184q-11 -203 -11 -523q0 -138 21 -162t89 -24h58v-58q-111 7 -132 7z" />
    <glyph glyph-name="Wcircumflex" unicode="&#x174;" horiz-adv-x="2048" 
d="M585 297l232 572l214 560h63q59 -185 159 -468l241 -678l183 633q26 91 90 350q6 23 6 38q0 18 -15 27t-74 15l-91 7v63q141 -7 221 -7q86 0 213 7v-63h-52q-34 0 -51 -16q-32 -33 -152 -420q-159 -516 -264 -940h-104q-18 67 -30 100q-44 129 -204 568l-164 450
l-187 -453q-168 -406 -249 -665h-101l-53 246q-22 109 -51 232l-174 748q-25 110 -45 130t-83 20h-42v63q143 -7 247 -7q101 0 273 7v-63h-63q-68 0 -88.5 -12t-20.5 -39q0 -16 5 -37l69 -332zM747 1510l257 344h96l258 -344h-63l-245 217l-240 -217h-63z" />
    <glyph glyph-name="wcircumflex" unicode="&#x175;" horiz-adv-x="1708" 
d="M521 -16h-102l-190 630l-64 201q-13 33 -38.5 50.5t-58.5 17.5h-50v58q159 -7 244 -7q83 0 245 7v-58h-54q-62 0 -85 -14q-18 -10 -18 -32q0 -49 171 -620l216 472q49 110 112 268h50q43 -122 89 -234l206 -523l153 410q44 121 57 182q5 25 5 40q0 23 -20.5 37t-63.5 14
h-66v58q131 -7 232 -7q88 0 170 7v-58h-45q-35 0 -66 -35.5t-172 -367.5q-118 -277 -184 -496h-97q-45 125 -146 381l-127 322q-140 -297 -227 -501q-39 -92 -76 -202zM562 1032l257 344h96l258 -344h-63l-245 217l-240 -217h-63z" />
    <glyph glyph-name="Ycircumflex" unicode="&#x176;" horiz-adv-x="1366" 
d="M743 697q61 92 193 320l229 398h155v-25q-122 -137 -299 -413t-212 -370q-12 -33 -12 -169q0 -181 9 -287q6 -57 20.5 -68.5t102.5 -19.5l76 -8v-62q-174 7 -272 7l-322 -7v62h85q85 0 102 35t17 316q0 82 -5 179q-129 237 -238 410t-184 253q-41 44 -71.5 58t-102.5 14
v62l161 32l79 16q46 -17 74 -43q50 -47 153 -215q79 -129 262 -475zM404 1510l257 344h96l258 -344h-63l-245 217l-240 -217h-63z" />
    <glyph glyph-name="ycircumflex" unicode="&#x177;" horiz-adv-x="1139" 
d="M52 -542l47 156h23q27 -32 54 -48t55 -16q62 0 113 60t157 334l-176 443l-93 229l-75 175q-35 93 -105 93h-40v58q104 -7 184 -7q62 0 289 7v-58h-74q-38 0 -55.5 -13t-17.5 -32q0 -16 19 -69q101 -278 238 -596q132 291 230 561q29 79 29 96q0 32 -68 42l-74 11v58
q118 -7 210 -7q87 0 175 7v-58h-35q-23 0 -47 -13.5t-39 -37.5q-32 -51 -185 -389q-42 -93 -214 -504q-152 -346 -172 -380q-39 -66 -100 -101.5t-132 -35.5q-29 0 -59.5 9t-61.5 26zM249 1032l257 344h96l258 -344h-63l-245 217l-240 -217h-63z" />
    <glyph glyph-name="longs" unicode="&#x17f;" horiz-adv-x="596" 
d="M383 397l1 -58q0 -185 8.5 -236.5t107.5 -51.5h88v-58q-192 7 -284 7q-80 0 -267 -7v58h67q78 0 94.5 36.5t16.5 309.5v622q0 99 29.5 161.5t113.5 150.5t136 123t117 35q42 0 87 -13q-3 -48 -3 -82q0 -32 3 -85l-25 -11q-54 52 -136 52q-94 0 -124 -65.5t-30 -269.5
v-618z" />
    <glyph glyph-name="Aringacute" unicode="&#x1fa;" horiz-adv-x="1593" 
d="M689 1786h-68l296 283q55 53 89 53q66 0 66 -62q0 -31 -29 -55.5t-85 -57.5zM749 1361q-68 22 -107.5 77.5t-39.5 121.5q0 83 58 144t147 61q90 0 150.5 -61t60.5 -146q0 -68 -40.5 -123t-107.5 -75l477 -1110q61 -144 86 -166.5t120 -27.5v-63q-119 7 -248 7
q-123 0 -293 -7v63l99 6q49 4 63.5 11.5t14.5 26.5t-30 95l-110 278q-111 5 -330 5q-168 0 -248 -5l-68 -161q-67 -160 -67 -199q0 -19 12.5 -29t63.5 -17l96 -11v-63q-84 7 -216 7q-153 0 -253 -7v63q104 2 128.5 19.5t180.5 368.5l275 623q88 198 126 294zM942 1559
q0 55 -39 94t-93 39q-55 0 -93.5 -39t-38.5 -93q0 -55 39 -94t94 -39q54 0 92.5 39t38.5 93zM508 555q100 -5 248 -5t256 5l-252 602z" />
    <glyph glyph-name="aringacute" unicode="&#x1fb;" 
d="M143 689l1 67l-1 69l109 62q74 42 129.5 58t118.5 16q138 0 222.5 -62t101.5 -158q12 -72 15 -357q2 -269 12 -297t50 -28h78v-66q-114 7 -159 7q-56 0 -150 -7l1 89q0 43 -1 87l-207 -158q-28 -21 -55 -29.5t-75 -8.5q-129 0 -197 63.5t-68 170.5q0 101 48.5 176.5
t138 111.5t415.5 94q-2 127 -56 190q-68 79 -194 79q-48 0 -90 -12t-78 -36q-29 -71 -53 -136zM670 530q-278 -60 -353 -112.5t-75 -162.5q0 -74 43 -118.5t111 -44.5q75 0 143.5 42t130.5 125l-2 222zM374 1509h-67l295 283q55 53 89 53q66 0 66 -61q0 -31 -28.5 -55.5
t-85.5 -58.5zM703 1281q0 -85 -61 -145.5t-146 -60.5t-147 61.5t-62 147.5q0 82 58 143.5t149 61.5q86 0 147.5 -61t61.5 -147zM627 1283q0 54 -39 93t-93 39q-55 0 -93.5 -39t-38.5 -93t39 -93t94 -39q54 0 92.5 38.5t38.5 93.5z" />
    <glyph glyph-name="AEacute" unicode="&#x1fc;" horiz-adv-x="1933" 
d="M1153 676v-378q0 -110 4 -206q226 -12 284 -12q198 0 301 42q27 96 48 220h70q-14 -82 -19 -143.5t-5 -190.5q-103 -14 -261 -14l-441 6q-133 0 -271 -7v47q52 21 96 52q12 150 13 408q-101 4 -194 4q-133 0 -306 -4l-54 -96q-71 -126 -113 -227q-16 -38 -16 -56
q0 -22 18 -34t97 -22l68 -9v-63q-125 7 -234 7q-119 0 -234 -7v63h37q41 0 70.5 21t69.5 95l569 1033q53 97 53 115q0 15 -12.5 22t-75.5 11l-116 8v60l485 -9l93 -1l323 8l59 1q144 0 264 -10q-33 -128 -33 -310h-68l2 59q0 46 -14 130q-134 40 -317 40q-72 0 -236 -12
l-4 -217v-329q91 -5 160 -5q224 0 258 17t34 93v76h68q-5 -88 -5 -188q0 -122 5 -275h-68v63q0 93 -29.5 113.5t-199.5 20.5q-103 0 -223 -10zM972 586v376q0 222 -8 384h-24q-184 -311 -308 -545l-114 -215h454zM972 1517h-68l296 283q37 36 53 44.5t36 8.5
q29 0 47.5 -17.5t18.5 -43.5q0 -24 -19.5 -46.5t-94.5 -67.5z" />
    <glyph glyph-name="aeacute" unicode="&#x1fd;" horiz-adv-x="1552" 
d="M192 680l-53 13v127l218 122q46 18 138 18q91 0 159 -32t128 -108q87 81 159.5 110.5t167.5 29.5q180 0 281 -98.5t101 -273.5q0 -35 -5 -75q-150 -38 -420 -38l-247 2q2 -193 98 -297t249 -104q65 0 135 23t145 69l19 -19l-42 -75q-81 -50 -165 -75.5t-171 -25.5
q-261 0 -388 217q-120 -83 -246 -196q-36 -10 -67 -15.5t-58 -5.5q-122 0 -194.5 70t-72.5 175q0 74 30 136t65 85q57 38 186.5 69.5t316.5 44.5q-10 162 -57 224q-62 81 -175 81q-38 0 -83.5 -13t-99.5 -39zM819 553q164 -6 250 -6q89 0 240 6l1 47q0 141 -63.5 215
t-174.5 74q-121 0 -190 -90q-60 -76 -63 -246zM659 481q-211 -10 -375 -91q-24 -34 -36.5 -67t-12.5 -65q0 -67 46 -112.5t119 -45.5q69 0 132.5 33t126.5 110v238zM647 1038h-68l296 283q37 36 53 44.5t36 8.5q29 0 47.5 -17.5t18.5 -43.5q0 -24 -19.5 -46.5t-94.5 -67.5z
" />
    <glyph glyph-name="Oslashacute" unicode="&#x1fe;" horiz-adv-x="1706" 
d="M133 -30l171 191q-103 106 -155.5 243.5t-52.5 305.5q0 323 210.5 524.5t561.5 201.5q151 0 273.5 -36t217.5 -105l160 178l65 -58l-160 -176q97 -101 141 -218t44 -267q0 -333 -227.5 -557t-568.5 -224q-129 0 -237.5 32.5t-205.5 100.5l-174 -192zM1243 1181
q-83 88 -183.5 128.5t-234.5 40.5q-269 0 -408 -178q-118 -150 -118 -396q0 -269 135 -484zM491 225q157 -166 389 -166q155 0 271 71t182 211t66 342q0 243 -104 425zM675 1517h-68l296 283q37 36 53 44.5t36 8.5q29 0 47.5 -17.5t18.5 -43.5q0 -24 -19.5 -46.5
t-94.5 -67.5z" />
    <glyph glyph-name="oslashacute" unicode="&#x1ff;" horiz-adv-x="1139" 
d="M63 -22l129 146q-108 148 -108 332q0 242 146.5 373t354.5 131q164 0 287 -79l119 133l60 -53l-116 -132q64 -68 93 -146.5t29 -185.5q0 -257 -176 -402q-147 -122 -350 -122q-158 0 -281 93l-124 -142zM776 778q-93 111 -225 111q-126 0 -202.5 -88.5t-76.5 -261.5
q0 -146 48 -278zM361 184q87 -139 234 -139q123 0 198 92.5t75 279.5q0 148 -51 284zM430 1038h-68l296 283q37 36 53 44.5t36 8.5q29 0 47.5 -17.5t18.5 -43.5q0 -24 -19.5 -46.5t-94.5 -67.5z" />
    <glyph glyph-name="tonos" unicode="&#x384;" horiz-adv-x="682" 
d="M320 1075l-39 189q-17 87 -17 115q0 93 75 93q35 0 57.5 -21.5t22.5 -54.5q0 -31 -21 -132l-37 -189h-41z" />
    <glyph glyph-name="dieresistonos" unicode="&#x385;" horiz-adv-x="682" 
d="M320 1075l-38 189q-18 87 -18 115q0 93 75 93q35 0 57.5 -21.5t22.5 -54.5q0 -31 -20 -132l-38 -189h-41zM222 1190q0 -41 -29 -70t-69 -29t-69.5 29t-29.5 70t29 70t70 29q40 0 69 -28.5t29 -70.5zM656 1190q0 -41 -29.5 -70t-68.5 -29q-40 0 -69.5 29t-29.5 70t29 70
t70 29q40 0 69 -29t29 -70z" />
    <glyph glyph-name="Alphatonos" unicode="&#x386;" horiz-adv-x="1594" 
d="M1049 473h-578l-68 -161q-67 -160 -67 -196q0 -23 12.5 -33t63.5 -16l96 -11v-63q-96 7 -216 7q-144 0 -253 -7v63l30 1q70 2 90.5 14.5t43.5 61.5q71 144 145 311l275 623q110 248 150 360h68l506 -1177q51 -120 68 -144.5t39 -35t99 -14.5v-63q-130 7 -248 7
q-110 0 -293 -7v63l99 6q53 4 63 11q15 11 15 28q0 18 -30 94zM508 555h504l-252 602zM293 1038l-39 189q-17 87 -17 115q0 93 75 93q35 0 57.5 -21.5t22.5 -54.5q0 -31 -21 -132l-37 -189h-41z" />
    <glyph glyph-name="anoteleia" unicode="&#x387;" horiz-adv-x="682" 
d="M457 823q0 -48 -34 -82t-82 -34q-49 0 -83 34t-34 82t34 82.5t83 34.5q48 0 82 -34.5t34 -82.5z" />
    <glyph glyph-name="Epsilontonos" unicode="&#x388;" horiz-adv-x="1382" 
d="M581 672v-245l1 -141q0 -132 3 -193q146 -11 313 -11q112 0 188 10q49 6 104 26q25 88 51 220h67q-27 -219 -27 -292l2 -45q-115 -11 -226 -11l-157 3q-260 7 -382 7q-117 0 -311 -7v63h31q87 0 109.5 17t30 80t7.5 278v549q0 135 -6.5 221t-14 102.5t-21.5 25.5t-86 16
l-77 8v62h108l106 -3q89 -3 135 -3l384 5l182 1q93 1 188 -8q-38 -118 -42 -307h-68q0 110 -11 183q-118 44 -290 44q-137 0 -287 -12q1 -94 -2 -188l-2 -154v-203q99 -6 175 -6q238 0 269.5 16.5t31.5 102.5v65h68q-7 -151 -7 -241q0 -95 7 -224h-68v58q0 96 -37.5 117.5
t-264.5 21.5q-84 0 -174 -8zM7 1038l-39 189q-17 87 -17 115q0 93 75 93q35 0 57.5 -21.5t22.5 -54.5q0 -31 -21 -132l-37 -189h-41z" />
    <glyph glyph-name="Etatonos" unicode="&#x389;" horiz-adv-x="1843" 
d="M574 699v-279q0 -72 5 -169q6 -136 10 -150.5t29 -29.5t81 -15h68v-63q-130 7 -251 7q-117 0 -335 -7v63h62q105 0 124 35.5t19 325.5v603q0 262 -19.5 297.5t-111.5 35.5h-74v63q165 -7 307 -7q143 0 279 7v-63h-43q-93 0 -115 -15t-27 -49q-8 -55 -8 -267v-228
q178 -8 453 -8q233 0 379 8v195q0 171 -12 287q-4 41 -27 59t-94 18h-72v63q153 -7 290 -7q148 0 308 7v-63h-76q-77 0 -98.5 -17t-26 -62.5t-4.5 -286.5v-553q0 -307 17.5 -342.5t109.5 -35.5h78v-63q-138 7 -285 7q-168 0 -313 -7v63h69q76 0 98 17.5t27 65.5
q11 103 11 300v260q-141 8 -360 8q-312 0 -472 -8zM8 1038l-39 189q-17 87 -17 115q0 93 75 93q35 0 57.5 -21.5t22.5 -54.5q0 -31 -21 -132l-37 -189h-41z" />
    <glyph glyph-name="Iotatonos" unicode="&#x38a;" horiz-adv-x="807" 
d="M181 56h63q93 0 111.5 45t18.5 431v339q0 400 -16 441t-96 41h-81v63q166 -7 328 -7q135 0 245 7v-63h-77q-71 0 -89 -17t-21 -86q-5 -107 -5 -381v-345q0 -389 17 -428.5t109 -39.5h66v-63q-123 7 -268 7q-169 0 -305 -7v63zM8 1038l-39 189q-17 87 -17 115q0 93 75 93
q35 0 57.5 -21.5t22.5 -54.5q0 -31 -21 -132l-37 -189h-41z" />
    <glyph glyph-name="Omicrontonos" unicode="&#x38c;" horiz-adv-x="1679" 
d="M116 705q0 329 212 530t565 201q346 0 542.5 -186.5t196.5 -495.5q0 -333 -228 -557t-575 -224q-217 0 -374 88t-248 257t-91 387zM319 787q0 -226 77.5 -393.5t207.5 -251t297 -83.5q155 0 271 71t182.5 212t66.5 343q0 212 -73.5 362.5t-201.5 226.5t-303 76
q-160 0 -276 -67t-182 -196.5t-66 -299.5zM8 1038l-39 189q-17 87 -17 115q0 93 75 93q35 0 57.5 -21.5t22.5 -54.5q0 -31 -21 -132l-37 -189h-41z" />
    <glyph glyph-name="Upsilontonos" unicode="&#x38e;" horiz-adv-x="1532" 
d="M910 697q61 92 193 320l229 398h155v-25q-122 -137 -299 -413t-212 -370q-12 -33 -12 -169q0 -181 9 -287q6 -57 20.5 -68.5t102.5 -19.5l76 -8v-62q-174 7 -272 7l-322 -7v62h85q85 0 102 35t17 316q0 82 -5 179q-129 237 -238 410t-184 253q-41 44 -71.5 58t-102.5 14
v62l161 32l79 16q46 -17 74 -43q50 -47 153 -215q79 -129 262 -475zM8 1038l-39 189q-17 87 -17 115q0 93 75 93q35 0 57.5 -21.5t22.5 -54.5q0 -31 -21 -132l-37 -189h-41z" />
    <glyph glyph-name="Omegatonos" unicode="&#x38f;" horiz-adv-x="1567" 
d="M112 401h63l6 -58q10 -103 20 -126t23.5 -31t131.5 -14.5t159 -6.5q31 0 67 1l11 9q1 4 6 111q-453 123 -453 548q0 272 192 437t496 165q293 0 470 -162t177 -416q0 -194 -115.5 -345.5t-338.5 -220.5l8 -117l11 -9l67 -1q39 0 156.5 6.5t131.5 13t24.5 30.5t21.5 128
l5 58h63q-6 -106 -6 -206q0 -109 10 -184l-18 -18q-131 14 -271 14q-143 0 -323 -14v58q13 57 29 214q2 29 9 87q198 48 261.5 194t63.5 320q0 226 -129.5 355t-348.5 129q-215 0 -329 -139t-114 -385q0 -202 82.5 -308.5t250.5 -165.5q16 -167 38 -301v-58q-181 14 -323 14
q-139 0 -271 -14l-18 18q11 75 11 184q0 100 -7 206zM8 1038l-39 189q-17 87 -17 115q0 93 75 93q35 0 57.5 -21.5t22.5 -54.5q0 -31 -21 -132l-37 -189h-41z" />
    <glyph glyph-name="iotadieresistonos" unicode="&#x390;" horiz-adv-x="651" 
d="M55 825v57q178 17 317 76q11 5 19 5q15 0 15 -19q0 -7 -3 -21q-5 -26 -12 -210.5t-7 -288.5q0 -227 21 -283t96 -56q62 0 122 61l28 -35q-79 -96 -89 -111q-72 -27 -125 -27q-132 0 -177 87.5t-45 318.5l4 286q0 124 -13.5 142t-77.5 18h-73zM315 1075l-38 189
q-18 87 -18 115q0 93 75 93q35 0 57.5 -21.5t22.5 -54.5q0 -31 -20 -132l-38 -189h-41zM217 1190q0 -41 -29 -70t-69 -29t-69.5 29t-29.5 70t29 70t70 29q40 0 69 -28.5t29 -70.5zM651 1190q0 -41 -29.5 -70t-68.5 -29q-40 0 -69.5 29t-29.5 70t29 70t70 29q40 0 69 -29
t29 -70z" />
    <glyph glyph-name="Alpha" unicode="&#x391;" horiz-adv-x="1593" 
d="M1049 473h-578l-68 -161q-67 -160 -67 -196q0 -23 12.5 -33t63.5 -16l96 -11v-63q-96 7 -216 7q-144 0 -253 -7v63l30 1q70 2 90.5 14.5t43.5 61.5q71 144 145 311l275 623q110 248 150 360h68l506 -1177q51 -120 68 -144.5t39 -35t99 -14.5v-63q-130 7 -248 7
q-110 0 -293 -7v63l99 6q53 4 63 11q15 11 15 28q0 18 -30 94zM508 555h504l-252 602z" />
    <glyph glyph-name="Beta" unicode="&#x392;" horiz-adv-x="1251" 
d="M770 798q215 -14 310 -99.5t95 -236.5q0 -191 -159.5 -329.5t-405.5 -138.5l-79 2q-100 4 -169 4q-50 0 -123 -4l-83 -3v45q62 30 73.5 46t13.5 53q7 119 7 271v623q0 250 -18 283q-22 39 -107 39h-68v62h83l92 -3q72 -3 113 -3q63 0 249 5l146 3q172 0 257 -60
q107 -76 107 -215q0 -114 -75.5 -200t-258.5 -144zM438 826q50 -3 92 -3q199 0 285 70.5t86 203.5q0 115 -72 176.5t-230 61.5q-70 0 -152 -13q-9 -122 -9 -369v-127zM438 94q93 -14 154 -14q177 0 274.5 94.5t97.5 256.5q0 108 -43 178.5t-120.5 103t-247.5 32.5
q-51 0 -115 -3v-355l1 -126q3 -68 3 -104q0 -27 -4 -63z" />
    <glyph glyph-name="Gamma" unicode="&#x393;" horiz-adv-x="1083" 
d="M637 55v-62q-180 7 -305 7q-123 0 -293 -7v62h80q92 0 108.5 37.5t16.5 236.5v754q0 167 -12.5 218.5t-120.5 51.5h-72v63q160 -7 291 -7l584 11q96 0 169 -9q-33 -98 -35 -303h-64q-5 106 -24 186q-129 36 -282 36q-117 0 -234 -13q-12 -129 -12 -234v-754
q0 -205 22 -239.5t112 -34.5h71z" />
    <glyph glyph-name="Delta" unicode="&#x394;" horiz-adv-x="1362" 
d="M1349 -7q-338 7 -764 7q-344 0 -571 -7v63q92 137 163 295l327 716q99 215 150 360h68l471 -1072q79 -180 156 -299v-63zM178 105q345 -5 459 -5q88 0 461 5l-457 1052z" />
    <glyph glyph-name="Epsilon" unicode="&#x395;" horiz-adv-x="1251" 
d="M454 672v-245l1 -141q0 -132 3 -193q146 -11 313 -11q112 0 188 10q49 6 104 26q25 88 51 220h67q-27 -219 -27 -292l2 -45q-115 -11 -226 -11l-157 3q-260 7 -382 7q-117 0 -311 -7v63h31q87 0 109.5 17t30 80t7.5 278v549q0 135 -6.5 221t-14 102.5t-21.5 25.5t-86 16
l-77 8v62h108l106 -3q89 -3 135 -3l384 5l182 1q93 1 188 -8q-38 -118 -42 -307h-68q0 110 -11 183q-118 44 -290 44q-137 0 -287 -12q1 -94 -2 -188l-2 -154v-203q99 -6 175 -6q238 0 269.5 16.5t31.5 102.5v65h68q-7 -151 -7 -241q0 -95 7 -224h-68v58q0 96 -37.5 117.5
t-264.5 21.5q-84 0 -174 -8z" />
    <glyph glyph-name="Zeta" unicode="&#x396;" horiz-adv-x="1366" 
d="M315 86h435q271 0 355 7q48 5 69.5 29t31.5 116l12 114h74q-20 -157 -20 -304v-55q-120 -3 -186 -3q-55 0 -240 5q-197 5 -368 5q-280 0 -433 -7v59q107 119 254 315l453 600l262 354q-145 6 -251 6q-180 0 -386 -14q-90 -7 -106 -22t-22 -90l-10 -118h-65q6 109 6 169
q0 59 -6 165l124 1l783 -9q127 0 211 8v-61q-101 -114 -160 -189l-319 -421z" />
    <glyph glyph-name="Eta" unicode="&#x397;" horiz-adv-x="1704" 
d="M438 699v-279q0 -72 5 -169q6 -136 10 -150.5t29 -29.5t81 -15h68v-63q-130 7 -251 7q-117 0 -335 -7v63h62q105 0 124 35.5t19 325.5v603q0 262 -19.5 297.5t-111.5 35.5h-74v63q165 -7 307 -7q143 0 279 7v-63h-43q-93 0 -115 -15t-27 -49q-8 -55 -8 -267v-228
q178 -8 453 -8q233 0 379 8v195q0 171 -12 287q-4 41 -27 59t-94 18h-72v63q153 -7 290 -7q148 0 308 7v-63h-76q-77 0 -98.5 -17t-26 -62.5t-4.5 -286.5v-553q0 -307 17.5 -342.5t109.5 -35.5h78v-63q-138 7 -285 7q-168 0 -313 -7v63h69q76 0 98 17.5t27 65.5
q11 103 11 300v260q-141 8 -360 8q-312 0 -472 -8z" />
    <glyph glyph-name="Theta" unicode="&#x398;" horiz-adv-x="1610" 
d="M825 1436q340 0 538.5 -184.5t198.5 -497.5q0 -333 -228.5 -557t-574.5 -224q-338 0 -525 208t-187 522q0 340 217 536.5t561 196.5zM773 1350q-239 0 -381 -151t-142 -422q0 -189 66.5 -357t199 -264.5t316.5 -96.5q243 0 381.5 167t138.5 459q0 306 -151.5 485.5
t-427.5 179.5zM463 948h68q0 -85 16 -114t247 -29q244 0 261 27.5t17 115.5h69q-8 -142 -8 -240q0 -101 8 -225h-69q0 114 -33 137t-245 23q-195 0 -229 -23.5t-34 -136.5h-68q7 124 7 225q0 98 -7 240z" />
    <glyph glyph-name="Iota" unicode="&#x399;" horiz-adv-x="690" 
d="M61 56h63q93 0 111.5 45t18.5 431v339q0 400 -16 441t-96 41h-81v63q166 -7 328 -7q135 0 245 7v-63h-77q-71 0 -89 -17t-21 -86q-5 -107 -5 -381v-345q0 -389 17 -428.5t109 -39.5h66v-63q-123 7 -268 7q-169 0 -305 -7v63z" />
    <glyph glyph-name="Kappa" unicode="&#x39a;" horiz-adv-x="1487" 
d="M630 781l682 -635l62 -59q19 -19 38.5 -25t64.5 -6v-63q-82 7 -144 7q-65 0 -142 -7l-689 654q-35 33 -43 33q-21 0 -21 -39v-305q0 -223 9 -244q15 -36 108 -36h75v-63q-163 7 -289 7q-132 0 -284 -7v63h81q80 0 96 29.5t16 254.5v669q0 275 -16 309.5t-96 34.5h-81v63
q183 -7 265 -7q59 0 308 7v-63l-79 -3q-68 -3 -86 -18.5t-22.5 -61.5t-4.5 -265v-270h14q82 67 141 122.5t194 194.5l284 294v70q110 -7 182 -7q75 0 166 7v-63h-54q-72 0 -122 -27.5t-231 -193.5z" />
    <glyph glyph-name="Lambda" unicode="&#x39b;" horiz-adv-x="1594" 
d="M760 1157l-357 -845q-67 -158 -67 -199q0 -19 12.5 -29t63.5 -17l96 -11v-63q-84 7 -216 7q-153 0 -253 -7v63q104 2 128.5 19.5t180.5 368.5l275 623q120 270 150 360h68l506 -1177q61 -144 86 -166.5t120 -27.5v-63q-119 7 -248 7q-123 0 -293 -7v63l99 6
q49 4 63.5 11.5t14.5 26.5q0 22 -30 95z" />
    <glyph glyph-name="Mu" unicode="&#x39c;" horiz-adv-x="1937" 
d="M1513 1200l-297 -618q-167 -348 -274 -608h-40q-37 89 -212 457l-358 741v-773q0 -270 21.5 -306.5t133.5 -36.5h37v-63q-139 7 -226 7q-63 0 -251 -7v63h65q66 0 88 19t27 69q13 140 13 302v566q0 205 -9 271q-4 34 -29.5 52t-101.5 18h-53v63q174 -7 219 -7q57 0 162 7
l279 -593l263 -541l243 501q128 263 292 633q125 -7 176 -7q59 0 213 7v-63h-65q-88 0 -107.5 -30.5t-19.5 -219.5v-731q0 -244 20.5 -280t114.5 -36h57v-63q-139 7 -266 7q-140 0 -293 -7v63h66q79 0 95.5 34.5t16.5 296.5v813z" />
    <glyph glyph-name="Nu" unicode="&#x39d;" horiz-adv-x="1702" 
d="M330 1190v-691q0 -236 9 -329q7 -71 23.5 -86.5t95.5 -22.5l64 -5v-63q-109 7 -197 7q-61 0 -280 -7v63h72q65 0 85 18t25 71q11 110 11 299v497q0 140 -3 277q-2 58 -15.5 79.5t-39.5 38.5t-73 17h-62v63q127 -7 194 -7q72 0 158 7l186.5 -235.5l181.5 -230.5l342 -420
q185 -226 267 -314v642q0 403 -14.5 440.5t-115.5 47.5l-75 7v63q161 -7 250 -7q93 0 240 7v-63h-77q-93 0 -107 -62q-9 -41 -9 -438v-451q0 -182 16 -435q-136 21 -158 30.5t-42 31.5q-111 123 -233 273z" />
    <glyph glyph-name="Xi" unicode="&#x39e;" horiz-adv-x="1309" 
d="M175 1041h-66q6 132 6 211q0 64 -6 164q199 -7 537 -7q368 0 552 7q-5 -100 -5 -164q0 -79 5 -211h-65l-10 81q-10 79 -23 92t-126 23t-328 10q-195 0 -309.5 -10t-128.5 -23t-23 -92zM263 948h69q0 -96 20 -119.5t291 -23.5q284 0 305 22.5t21 120.5h69q-7 -142 -7 -240
q0 -101 7 -225h-69q0 103 -22 131.5t-304 28.5q-248 0 -279.5 -25t-31.5 -135h-69q8 124 8 225q0 98 -8 240zM69 396h74l24 -154q13 -61 70.5 -71t364.5 -10q258 0 359 2t128.5 13.5t38.5 30.5t25 111l12 78h74q-21 -132 -21 -265l1 -138q-257 7 -565 7q-321 0 -565 -7
l1 133q0 138 -21 270z" />
    <glyph glyph-name="Omicron" unicode="&#x39f;" horiz-adv-x="1610" 
d="M47 705q0 329 212 530t565 201q346 0 542.5 -186.5t196.5 -495.5q0 -333 -228 -557t-575 -224q-217 0 -374 88t-248 257t-91 387zM250 787q0 -226 77.5 -393.5t207.5 -251t297 -83.5q155 0 271 71t182.5 212t66.5 343q0 212 -73.5 362.5t-201.5 226.5t-303 76
q-160 0 -276 -67t-182 -196.5t-66 -299.5z" />
    <glyph glyph-name="Pi" unicode="&#x3a0;" horiz-adv-x="1659" 
d="M1020 56h69q96 0 116 40.5t20 342.5v549q0 51 -13 330q-90 8 -321 8q-336 0 -449 -8q-8 -148 -8 -297v-602q0 -72 5 -169l5 -110q1 -57 36.5 -70.5t78.5 -13.5h68v-63q-120 7 -252 7q-126 0 -334 -7v63h62q110 0 126.5 41t16.5 322v602q0 251 -17.5 291.5t-113.5 40.5
h-74v63q638 -8 837 -8q127 0 740 8v-63h-77q-110 0 -119 -45t-9 -320v-554q0 -294 14 -336t114 -42h77v-63q-123 7 -289 7q-173 0 -309 -7v63z" />
    <glyph glyph-name="Rho" unicode="&#x3a1;" horiz-adv-x="1237" 
d="M445 1307q-7 -144 -7 -307v-571q0 -301 18 -337t118 -36h69v-63q-177 7 -279 7q-90 0 -319 -7v63h90q63 0 81 15.5t23 63t11 290.5v534l-3 207q-2 129 -27.5 158t-124.5 29h-50v63q125 -5 317 -5q113 0 251 6q91 4 138 4q242 0 352 -88q109 -88 109 -238
q0 -109 -63 -209.5t-178.5 -161.5t-246.5 -61q-60 0 -150 19l-20 76q88 -23 147 -23q138 0 219 83.5t81 228.5q0 140 -86.5 218.5t-257.5 78.5q-97 0 -212 -37z" />
    <glyph glyph-name="Sigma" unicode="&#x3a3;" horiz-adv-x="1329" 
d="M641 731q-104 137 -301 364.5t-231 260.5v60q62 -7 167 -7l787 8l129 -1q-6 -100 -6 -164t6 -169h-65l-10 118q-7 77 -23.5 91.5t-172.5 24.5t-319 10q-105 0 -226 -6l444 -532l-538 -624h432q263 0 333.5 9t104 57t33.5 152v48h74q-13 -177 -13 -322l1 -116
q-138 -3 -168 -3l-478 9l-566 -6v58q35 36 296 328z" />
    <glyph glyph-name="Tau" unicode="&#x3a4;" horiz-adv-x="1255" 
d="M734 1325q-11 -150 -11 -316v-570q0 -318 16 -350.5t114 -32.5h75v-63q-177 7 -300 7q-124 0 -298 -7v63h84q66 0 86 17.5t25 68.5q10 117 10 302v571q0 169 -7 310h-102q-247 0 -272 -11.5t-33 -89.5l-14 -134h-63l2 119q0 72 -12 207q540 -7 635 -7l553 7
q-19 -169 -22 -326h-62l-10 131q-6 68 -17 80.5t-49 15.5q-110 8 -250 8h-78z" />
    <glyph glyph-name="Upsilon" unicode="&#x3a5;" horiz-adv-x="1366" 
d="M743 697q61 92 193 320l229 398h155v-25q-122 -137 -299 -413t-212 -370q-12 -33 -12 -169q0 -181 9 -287q6 -57 20.5 -68.5t102.5 -19.5l76 -8v-62q-174 7 -272 7l-322 -7v62h85q85 0 102 35t17 316q0 82 -5 179q-129 237 -238 410t-184 253q-41 44 -71.5 58t-102.5 14
v62l161 32l79 16q46 -17 74 -43q50 -47 153 -215q79 -129 262 -475z" />
    <glyph glyph-name="Phi" unicode="&#x3a6;" horiz-adv-x="1495" 
d="M648 1219q-3 103 -31 118.5t-76 15.5h-80v63q155 -7 328 -7q144 0 245 7v-63h-77q-78 0 -93 -22t-18 -112q277 -16 438 -140t161 -325q0 -213 -160.5 -370t-436.5 -192q0 -86 21 -111t98 -25h67v-63q-110 7 -268 7q-179 0 -305 -7v63h63q81 0 98.5 22.5t21.5 113.5
q-276 19 -435 161t-159 350q0 224 169 358t429 158zM651 1139q-408 -46 -408 -390q0 -174 111 -309t294 -168q4 97 4 454q0 350 -1 413zM844 1139q-3 -242 -3 -492q0 -245 6 -375q195 22 296 135t101 296q0 193 -111 306t-289 130z" />
    </font>
</defs>
</svg>
