<?xml version="1.0" standalone="no"?>
<!DOCTYPE svg PUBLIC "-//W3C//DTD SVG 1.1//EN" "http://www.w3.org/Graphics/SVG/1.1/DTD/svg11.dtd" >
<svg>
<metadata>
Created by FontForge 20090622 at Thu Nov 22 10:13:48 2018
 By deploy user
Copyright (c)2016, Okomito designed by Alfredo Marco Pradil (ammpradil@gmail.com). Okomito is a trademark of Alfredo Marco Pradil.
</metadata>
<defs>
<font id="Okomito-Medium" horiz-adv-x="573" >
  <font-face 
    font-family="Okomito Medium"
    font-weight="500"
    font-stretch="normal"
    units-per-em="1000"
    panose-1="0 0 6 0 0 0 0 0 0 0"
    ascent="800"
    descent="-200"
    x-height="512"
    cap-height="690"
    bbox="-638 -245 1042 1045"
    underline-thickness="40"
    underline-position="-60"
    unicode-range="U+0020-U+FB02"
  />
<missing-glyph horiz-adv-x="434" 
d="M17 0v488h400v-488h-400zM67 50h300v388h-300v-388z" />
    <glyph glyph-name="arrowleft" unicode="&#x3c;&#x2d;" horiz-adv-x="1076" 
d="M1037 352v-84h-779l249 -133v-87l-470 264l470 260v-87l-249 -133h779z" />
    <glyph glyph-name="arrowright" unicode="&#x2d;&#x3e;" horiz-adv-x="1076" 
d="M568 48v87l250 133h-779v84h779l-250 133v87l470 -260z" />
    <glyph glyph-name="fi" unicode="fi" horiz-adv-x="575" 
d="M495 512v-512h-101v437h-186v-437h-102v437h-90v75h90v52q0 57 40 91.5t100 34.5h66v-75h-50q-54 0 -54 -51v-52h287zM390 690h110v-102h-110v102z" />
    <glyph glyph-name="fl" unicode="fl" horiz-adv-x="582" 
d="M104 0v436h-88v76h89v33q0 66 40 105.5t111 39.5h73v-77h-58q-31 0 -48.5 -18t-17.5 -50v-33h124v-76h-124v-436h-101zM404 0v690h101v-690h-101z" />
    <glyph glyph-name="f_f" unicode="ff" horiz-adv-x="624" 
d="M553 613q-31 0 -48.5 -18t-17.5 -50v-33h124v-76h-124v-436h-101v436h-88h-93v-436h-101v436h-88v76h89v33q0 66 40 105.5t111 39.5h73v-77h-58q-31 0 -48.5 -18t-17.5 -50v-33h124h58v33q0 66 40.5 105.5t111.5 39.5h72v-77h-58z" />
    <glyph glyph-name="f_f_i" unicode="ffi" horiz-adv-x="863" 
d="M388 545q0 66 40.5 105.5t111.5 39.5h72v-77h-58q-31 0 -48.5 -18t-17.5 -50v-33h124v-76h-124v-436h-101v436h-88h-94v-436h-101v436h-88v76h89v33q0 66 40 105.5t111 39.5h73v-77h-58q-31 0 -48.5 -18t-17.5 -50v-33h124h59v33zM678 690h110v-102h-110v102zM682 0v512
h101v-512h-101z" />
    <glyph glyph-name="f_f_l" unicode="ffl" horiz-adv-x="832" 
d="M376 545q0 66 40.5 105.5t111.5 39.5h72v-77h-58q-31 0 -48.5 -18t-17.5 -50v-33h124v-76h-124v-436h-101v436h-88h-82v-436h-101v436h-88v76h89v33q0 66 40 105.5t111 39.5h73v-77h-58q-31 0 -48.5 -18t-17.5 -50v-33h124h47v33zM653 690h101v-690h-101v690z" />
    <glyph glyph-name=".notdef" horiz-adv-x="434" 
d="M17 0v488h400v-488h-400zM67 50h300v388h-300v-388z" />
    <glyph glyph-name=".null" horiz-adv-x="0" 
 />
    <glyph glyph-name="nonmarkingreturn" horiz-adv-x="333" 
 />
    <glyph glyph-name="space" unicode=" " horiz-adv-x="229" 
 />
    <glyph glyph-name="exclam" unicode="!" horiz-adv-x="271" 
d="M98 199l-14 491h103l-14 -491h-75zM78 0v115h115v-115h-115z" />
    <glyph glyph-name="quotedbl" unicode="&#x22;" horiz-adv-x="372" 
d="M63 418v272h79v-272h-79zM231 418v272h79v-272h-79z" />
    <glyph glyph-name="numbersign" unicode="#" horiz-adv-x="651" 
d="M103 0l42 209h-110v68h125l29 146h-115v66h129l42 201h72l-42 -194h159l41 194h71l-40 -199h110v-68h-124l-29 -146h114v-66h-129l-43 -211h-72l43 204h-158l-42 -204h-73zM232 277h158l29 146h-158z" />
    <glyph glyph-name="dollar" unicode="$" horiz-adv-x="552" 
d="M521 194q0 -85 -55 -139t-148 -62v-83h-88v87q-88 14 -147 71t-59 164h107q0 -76 44.5 -112t114.5 -36q56 0 89.5 26.5t33.5 73.5q0 22 -10 40.5t-21 29.5t-38.5 25t-40.5 19l-50 19q-39 14 -58.5 22t-53 26.5t-50 36.5t-30 48t-13.5 67q0 76 49 124t133 57v82h88v-83
q82 -11 132 -60t50 -136h-106q1 58 -34 85t-93 27q-51 0 -81.5 -23t-30.5 -63q0 -18 9 -34t20 -26.5t34 -22.5t38.5 -18.5t46.5 -18.5q100 -39 135 -63q83 -56 83 -150z" />
    <glyph glyph-name="percent" unicode="%" horiz-adv-x="756" 
d="M137 -8l381 712h94l-381 -712h-94zM178 380q-37 0 -65 16t-42.5 41t-21 51t-6.5 51q0 37 10.5 71t42 62.5t79.5 28.5q65 0 99.5 -49.5t34.5 -112.5t-34 -111t-97 -48zM176 454q24 0 38.5 26t14.5 60q0 36 -14.5 60.5t-39.5 24.5q-26 0 -40 -25t-14 -61q0 -34 14.5 -59.5
t40.5 -25.5zM582 -3q-37 0 -65 16t-42.5 41.5t-21 51.5t-6.5 52q0 37 10.5 71.5t42 63t79.5 28.5q65 0 99.5 -49.5t34.5 -113.5q0 -63 -34 -112t-97 -49zM581 72q24 0 38 26t14 61q0 36 -14.5 61.5t-39.5 25.5t-39.5 -25.5t-14.5 -62.5q0 -36 14.5 -61t41.5 -25z" />
    <glyph glyph-name="ampersand" unicode="&#x26;" horiz-adv-x="676" 
d="M526 161l157 -161h-141l-79 84q-76 -97 -200 -97q-94 0 -159.5 51.5t-65.5 142.5q0 137 154 195q-22 21 -36 38t-29 49t-15 66q0 81 54.5 125t130.5 44t128.5 -43.5t52.5 -122.5q0 -52 -33.5 -94t-108.5 -83l125 -128l82 134h116zM298 613q-35 0 -59 -24.5t-24 -61.5
q0 -48 62 -112q56 29 79 55.5t23 58.5q0 36 -22.5 60t-58.5 24zM265 74q77 0 131 78l-150 159q-48 -21 -73.5 -50.5t-25.5 -75.5q0 -50 35.5 -80.5t82.5 -30.5z" />
    <glyph glyph-name="quotesingle" unicode="'" horiz-adv-x="211" 
d="M63 432v272h85v-272h-85z" />
    <glyph glyph-name="parenleft" unicode="(" horiz-adv-x="283" 
d="M176 -156q-55 68 -93 195.5t-38 251.5q0 120 36.5 239.5t92.5 199.5h81q-127 -175 -127 -440q0 -267 126 -446h-78z" />
    <glyph glyph-name="parenright" unicode=")" horiz-adv-x="282" 
d="M113 -156h-78q126 179 126 446q0 265 -127 440h81q56 -80 92.5 -199.5t36.5 -239.5q0 -124 -38 -251.5t-93 -195.5z" />
    <glyph glyph-name="asterisk" unicode="*" horiz-adv-x="346" 
d="M115 397l-51 39l85 99l-122 18l19 65l111 -48l-14 120h63l-16 -120l112 48l17 -65l-118 -18l83 -99l-50 -39l-60 112z" />
    <glyph glyph-name="plus" unicode="+" horiz-adv-x="654" 
d="M289 40v227h-223v76h223v227h76v-227h223v-76h-223v-227h-76z" />
    <glyph glyph-name="comma" unicode="," horiz-adv-x="267" 
d="M189 0l-70 -151h-58l45 151h-48v125h131v-125z" />
    <glyph glyph-name="hyphen" unicode="-" horiz-adv-x="328" 
d="M28 212v78h271v-78h-271z" />
    <glyph glyph-name="period" unicode="." horiz-adv-x="239" 
d="M54 0v125h131v-125h-131z" />
    <glyph glyph-name="slash" unicode="/" horiz-adv-x="479" 
d="M40 -76l303 765h96l-303 -765h-96z" />
    <glyph glyph-name="zero" unicode="0" horiz-adv-x="558" 
d="M283 -10q-68 0 -118.5 30t-78.5 82t-41 112.5t-13 130.5t13 131t40.5 113t76 82t114.5 30q123 0 186.5 -100.5t63.5 -256.5q0 -155 -62 -254.5t-181 -99.5zM280 85q40 0 68 23.5t42 63.5t20 82.5t6 91.5q0 39 -3.5 73t-13 69t-25 60t-40.5 40.5t-58 15.5
q-140 0 -140 -259q0 -50 6.5 -92t21 -82t44.5 -63t72 -23z" />
    <glyph glyph-name="one" unicode="1" horiz-adv-x="399" 
d="M201 0v572q-72 -79 -160 -81v101q83 5 166 98h98v-690h-104z" />
    <glyph glyph-name="two" unicode="2" horiz-adv-x="562" 
d="M55 0v87q0 53 19 95t49.5 68.5t67.5 48t74.5 40.5t68 39t49.5 49t19 65q0 53 -32.5 85t-82.5 32q-59 0 -92 -40t-31 -109h-104q2 110 61.5 174.5t168.5 64.5q94 0 154 -57.5t60 -146.5q0 -49 -19 -88.5t-49.5 -66t-68 -49t-74.5 -42t-67.5 -39t-49.5 -46.5t-19 -60v-14
h358v-90h-460z" />
    <glyph glyph-name="three" unicode="3" horiz-adv-x="548" 
d="M274 -10q-104 0 -173 56.5t-69 161.5h100q2 -59 43 -93t99 -34q59 0 100.5 33t41.5 91q0 56 -38.5 86.5t-95.5 30.5h-47v88h47q44 0 71 25.5t27 71.5t-33.5 73.5t-84.5 27.5t-84.5 -30.5t-34.5 -81.5h-98q-4 95 58 149.5t159 54.5q93 0 155 -50t62 -135q0 -53 -28 -91
t-68 -50v-7q58 -9 94 -51t38 -113q0 -102 -69 -157.5t-172 -55.5z" />
    <glyph glyph-name="four" unicode="4" horiz-adv-x="551" 
d="M429 259h102v-87h-102v-172h-101v172h-300v90l311 428h90v-431zM328 259v292l-204 -292h204z" />
    <glyph glyph-name="five" unicode="5" horiz-adv-x="556" 
d="M312 459q93 0 153.5 -63t60.5 -164q0 -107 -68.5 -174.5t-173.5 -67.5q-98 0 -169.5 59.5t-72.5 162.5h106q4 -63 44.5 -96t95.5 -33q58 0 95 41.5t37 107.5q0 62 -37.5 101.5t-95.5 39.5q-35 0 -70 -19t-54 -50h-104l69 386h367v-87h-290l-35 -198l2 -1q21 23 59.5 39
t80.5 16z" />
    <glyph glyph-name="six" unicode="6" horiz-adv-x="543" 
d="M275 -9q-108 0 -175 77t-68 232q0 42 1.5 73.5t7 75.5t15.5 76.5t29 67t45 56.5t66 36.5t90 14.5q89 0 149.5 -47t67.5 -138h-102q-5 48 -36.5 72t-81.5 24q-144 0 -149 -228q55 64 154 64q100 0 161 -61t61 -163q0 -98 -67.5 -165t-167.5 -67zM271 82q59 0 98 39t39 100
t-38.5 100t-98.5 39q-59 0 -95.5 -38t-36.5 -99t36.5 -101t95.5 -40z" />
    <glyph glyph-name="seven" unicode="7" horiz-adv-x="459" 
d="M114 0l225 600h-317v90h420v-99l-217 -591h-111z" />
    <glyph glyph-name="eight" unicode="8" horiz-adv-x="554" 
d="M278 -10q-108 0 -177 55.5t-69 144.5q0 65 38 115.5t100 64.5v4q-45 14 -74 56t-29 92q0 77 59 127.5t151 50.5q91 0 150.5 -50.5t59.5 -127.5q0 -51 -29 -93t-74 -55v-4q62 -16 100 -66t38 -114q0 -89 -69 -144.5t-175 -55.5zM279 409q46 0 76.5 29t30.5 74
q0 44 -30.5 73.5t-76.5 29.5q-47 0 -77.5 -29t-30.5 -73q0 -46 30.5 -75t77.5 -29zM277 78q60 0 99 35.5t39 90.5q0 54 -39 89t-99 35q-61 0 -100 -35t-39 -89q0 -56 39 -91t100 -35z" />
    <glyph glyph-name="nine" unicode="9" horiz-adv-x="543" 
d="M268 699q108 0 175 -77t68 -232q0 -42 -1.5 -73.5t-7 -75.5t-15.5 -76.5t-29 -67t-45 -56.5t-66 -36.5t-90 -14.5q-89 0 -149.5 47t-67.5 138h102q5 -48 36.5 -72t81.5 -24q144 0 149 228q-55 -64 -154 -64q-100 0 -161 61t-61 163q0 98 67.5 165t167.5 67zM272 608
q-59 0 -98 -39t-39 -100t38.5 -100t98.5 -39q59 0 95.5 38t36.5 99t-36.5 101t-95.5 40z" />
    <glyph glyph-name="colon" unicode=":" horiz-adv-x="241" 
d="M54 366v124h132v-124h-132zM54 0v125h132v-125h-132z" />
    <glyph glyph-name="semicolon" unicode=";" horiz-adv-x="272" 
d="M194 490v-124h-132v124h132zM196 0h1l-71 -151h-58l45 151h-48v125h131v-125z" />
    <glyph glyph-name="less" unicode="&#x3c;" horiz-adv-x="603" 
d="M526 71l-476 258l476 258v-93l-309 -165l309 -163v-95z" />
    <glyph glyph-name="equal" unicode="=" horiz-adv-x="523" 
d="M66 380v88h391v-88h-391zM66 188v88h391v-88h-391z" />
    <glyph glyph-name="greater" unicode="&#x3e;" horiz-adv-x="613" 
d="M89 71v95l309 163l-309 165v93l477 -258z" />
    <glyph glyph-name="question" unicode="?" horiz-adv-x="468" 
d="M188 197v88q0 36 13 63t26.5 38t38.5 27q27 15 39 23.5t25 30.5t13 51q0 47 -30.5 72t-79.5 25t-81 -28t-33 -76h-89q1 83 55.5 136t143.5 53q87 0 144.5 -46.5t57.5 -134.5q0 -25 -5.5 -46t-11.5 -34t-20 -26.5t-21.5 -19t-26 -16.5l-23.5 -14q-49 -31 -49 -79v-87h-86z
M176 0v115h113v-115h-113z" />
    <glyph glyph-name="at" unicode="@" horiz-adv-x="962" 
d="M487 -168q-177 -3 -301 124.5t-124 309.5q0 180 123 306.5t300 126.5q181 0 304 -124.5t123 -302.5q0 -92 -35.5 -166.5t-100.5 -105.5h-164q-48 34 -42 104q-59 -70 -150 -70q-73 0 -113.5 51.5t-40.5 131.5q0 69 26 134t79 110.5t120 45.5q48 0 83.5 -22.5t46.5 -61.5
l11 60h78l-70 -362q-8 -36 5 -53l114 2q40 26 58.5 85.5t18.5 122.5q0 143 -101.5 245.5t-249.5 102.5q-145 0 -246 -104.5t-101 -253.5q0 -151 101.5 -255.5t247.5 -102.5v-78zM428 110q74 0 120 68.5t46 148.5q0 49 -22.5 76.5t-67.5 27.5q-74 0 -119.5 -67.5
t-45.5 -148.5q0 -105 89 -105z" />
    <glyph glyph-name="A" unicode="A" horiz-adv-x="612" 
d="M497 0l-48 155h-284l-49 -155h-113l233 690h141l234 -690h-114zM192 242h230l-113 360h-3z" />
    <glyph glyph-name="B" unicode="B" horiz-adv-x="649" 
d="M88 0v690h273q102 0 159 -49t57 -136q0 -56 -31.5 -94t-69.5 -49v-3q56 -6 95.5 -52.5t39.5 -114.5q0 -90 -58.5 -141t-157.5 -51h-307zM193 396h160q50 0 85.5 28.5t35.5 76.5q0 98 -114 98h-167v-203zM193 96h191q61 0 92 28.5t31 78.5q0 49 -35.5 77.5t-87.5 28.5
h-191v-213z" />
    <glyph glyph-name="C" unicode="C" horiz-adv-x="668" 
d="M352 -10q-148 0 -231 98t-83 257q0 160 82.5 258t230.5 98q113 0 196.5 -70.5t87.5 -194.5h-98q-9 80 -57.5 125t-127.5 45q-98 0 -154.5 -69t-56.5 -188q0 -122 57.5 -193t155.5 -71q73 0 124.5 47.5t58.5 123.5h98q-4 -124 -87 -195t-196 -71z" />
    <glyph glyph-name="D" unicode="D" horiz-adv-x="670" 
d="M88 0v690h190q172 0 263 -90t91 -259q0 -164 -92 -252.5t-263 -88.5h-189zM193 95h72q261 0 261 251q0 249 -250 249h-83v-500z" />
    <glyph glyph-name="E" unicode="E" horiz-adv-x="592" 
d="M88 0v690h454v-91h-349v-208h313v-91h-313v-208h349v-92h-454z" />
    <glyph glyph-name="F" unicode="F" horiz-adv-x="562" 
d="M88 0v690h459v-91h-354v-208h311v-91h-311v-300h-105z" />
    <glyph glyph-name="G" unicode="G" horiz-adv-x="691" 
d="M38 347q0 152 83.5 253t237.5 101q129 0 211.5 -72t82.5 -188h-100q-4 81 -57.5 123.5t-137.5 42.5q-108 0 -162 -73t-54 -187t53.5 -187.5t162.5 -73.5q87 0 141.5 42.5t54.5 123.5h-196v84h295v-84q0 -116 -82.5 -188t-213.5 -72q-153 0 -236 101t-83 254z" />
    <glyph glyph-name="H" unicode="H" horiz-adv-x="707" 
d="M88 0v689h105v-297h321v297h105v-689h-105v298h-321v-298h-105z" />
    <glyph glyph-name="I" unicode="I" horiz-adv-x="281" 
d="M88 0v690h105v-690h-105z" />
    <glyph glyph-name="J" unicode="J" horiz-adv-x="372" 
d="M98 -10q-52 0 -85 10v97q49 -13 77 -13q113 0 113 155v450h105v-463q0 -110 -52.5 -173t-157.5 -63z" />
    <glyph glyph-name="K" unicode="K" horiz-adv-x="646" 
d="M508 0l-240 317l-75 -80v-237h-105v689h105v-322l288 322h133l-278 -299l306 -390h-134z" />
    <glyph glyph-name="L" unicode="L" horiz-adv-x="497" 
d="M88 0v690h105v-599h295v-91h-400z" />
    <glyph glyph-name="M" unicode="M" horiz-adv-x="875" 
d="M88 0v689h162l187 -577l187 577h164v-689h-106v578h-4l-185 -578h-112l-184 578h-5v-578h-104z" />
    <glyph glyph-name="N" unicode="N" horiz-adv-x="738" 
d="M88 0v690h129l324 -551h4v551h106v-690h-132l-322 554h-4v-554h-105z" />
    <glyph glyph-name="O" unicode="O" horiz-adv-x="714" 
d="M357 -10q-148 0 -233.5 96t-85.5 259t85.5 259t233.5 96q147 0 233 -96t86 -259t-86 -259t-233 -96zM357 84q98 0 154.5 69t56.5 192q0 125 -56.5 193t-154.5 68t-154.5 -68t-56.5 -193q0 -123 56.5 -192t154.5 -69z" />
    <glyph glyph-name="P" unicode="P" horiz-adv-x="640" 
d="M88 0v690h296q108 0 170 -58.5t62 -161.5q0 -101 -61 -156.5t-171 -55.5h-191v-258h-105zM193 348h186q132 0 132 122q0 61 -33.5 94.5t-98.5 33.5h-186v-250z" />
    <glyph glyph-name="Q" unicode="Q" horiz-adv-x="714" 
d="M596 93q37 -15 87 -15v-78q-99 -1 -153 36q-72 -46 -173 -46q-148 0 -233.5 96t-85.5 259t85.5 259t233.5 96q147 0 233 -96t86 -259q0 -158 -80 -252zM146 345q0 -123 56.5 -192t154.5 -69q65 0 111 30q-15 29 -22 40t-24.5 30t-42 26.5t-58.5 7.5v79q24 0 44 -2
t36.5 -8t29 -9.5t24.5 -15t18 -15.5t15.5 -19l12 -19t11.5 -21.5l10 -19.5q46 67 46 177q0 125 -56.5 193t-154.5 68t-154.5 -68t-56.5 -193z" />
    <glyph glyph-name="R" unicode="R" horiz-adv-x="649" 
d="M621 -1h-118l-129 259h-181v-258h-105v690h296q108 0 170 -58.5t62 -161.5q0 -76 -36 -127.5t-103 -71.5zM193 598v-250h186q132 0 132 122q0 61 -33.5 94.5t-98.5 33.5h-186z" />
    <glyph glyph-name="S" unicode="S" horiz-adv-x="552" 
d="M289 -8q-49 0 -93 12.5t-84 38.5t-64 75t-24 114h107q0 -76 44.5 -112t114.5 -36q56 0 89.5 26.5t33.5 73.5q0 22 -10 40.5t-21 29.5t-38.5 25t-40.5 19l-50 19q-39 14 -58.5 22t-53 26.5t-50 36.5t-30 48t-13.5 67q0 85 60 134t159 49q102 0 167.5 -49t65.5 -150h-106
q1 58 -34 85t-93 27q-51 0 -81.5 -23t-30.5 -63q0 -18 9 -34t20 -26.5t34 -22.5t38.5 -18.5t46.5 -18.5q100 -39 135 -63q83 -56 83 -150q0 -92 -63.5 -147t-168.5 -55z" />
    <glyph glyph-name="T" unicode="T" horiz-adv-x="569" 
d="M232 0v599h-224v91h552v-91h-223v-599h-105z" />
    <glyph glyph-name="U" unicode="U" horiz-adv-x="668" 
d="M334 -10q-122 0 -188.5 68.5t-66.5 190.5v441h106v-445q0 -74 39.5 -116.5t109.5 -42.5t109.5 42.5t39.5 116.5v445h106v-436q0 -125 -66.5 -194.5t-188.5 -69.5z" />
    <glyph glyph-name="V" unicode="V" horiz-adv-x="623" 
d="M507 690h110l-233 -690h-145l-233 690h109l197 -609z" />
    <glyph glyph-name="W" unicode="W" horiz-adv-x="918" 
d="M173 0l-165 690h109l130 -594l149 594h125l149 -594l130 594h109l-165 -690h-143l-143 572l-142 -572h-143z" />
    <glyph glyph-name="X" unicode="X" horiz-adv-x="607" 
d="M4 0l230 345l-229 345h129l170 -269l169 269h128l-229 -345l230 -345h-128l-171 264l-170 -264h-129z" />
    <glyph glyph-name="Y" unicode="Y" horiz-adv-x="665" 
d="M279 0v269l-277 421h121l209 -325l209 325h122l-279 -421v-269h-105z" />
    <glyph glyph-name="Z" unicode="Z" horiz-adv-x="580" 
d="M563 690v-80l-413 -519h413v-91h-546v76l416 523h-394v91h524z" />
    <glyph glyph-name="bracketleft" unicode="[" horiz-adv-x="279" 
d="M72 -160v890h192v-78h-108v-732h108v-80h-192z" />
    <glyph glyph-name="backslash" unicode="\" horiz-adv-x="479" 
d="M343 -76l-303 765h96l303 -765h-96z" />
    <glyph glyph-name="bracketright" unicode="]" horiz-adv-x="279" 
d="M15 -160v80h108v732h-108v78h193v-890h-193z" />
    <glyph glyph-name="asciicircum" unicode="^" horiz-adv-x="408" 
d="M8 317l196 372l196 -372h-98l-98 205l-97 -205h-99z" />
    <glyph glyph-name="underscore" unicode="_" horiz-adv-x="398" 
d="M-2 -76v76h401v-76h-401z" />
    <glyph glyph-name="grave" unicode="`" horiz-adv-x="197" 
d="M127 547l-144 119h118l108 -119h-82z" />
    <glyph glyph-name="a" unicode="a" horiz-adv-x="532" 
d="M208 -11q-73 0 -118.5 39.5t-45.5 106.5q0 98 105 146q89 40 234 33v38q0 91 -114 91q-126 0 -126 -89h-93q0 84 62.5 126t151.5 42q93 0 152 -44t59 -132v-346h-92v68q-69 -79 -175 -79zM241 68q41 0 79 22t63 62v96q-106 10 -175 -24q-59 -29 -59 -81q0 -36 25.5 -56
t66.5 -19z" />
    <glyph glyph-name="b" unicode="b" horiz-adv-x="607" 
d="M346 -11q-112 0 -171 83v-72h-99v690h101v-250q57 82 169 82q109 0 165.5 -73t56.5 -193t-57 -193.5t-165 -73.5zM317 76q74 0 112 46.5t38 134.5q0 84 -38 130t-112 46q-67 0 -105.5 -47.5t-38.5 -128.5q0 -85 38.5 -133t105.5 -48z" />
    <glyph glyph-name="c" unicode="c" horiz-adv-x="553" 
d="M286 -11q-110 0 -178.5 69.5t-68.5 195.5q0 128 68 198t179 70q99 0 163.5 -55.5t70.5 -153.5h-97q-4 60 -40.5 91t-95.5 31q-69 0 -108 -45t-39 -136q0 -89 39 -133t108 -44q58 0 94.5 30t40.5 88h98q-7 -97 -71.5 -151.5t-162.5 -54.5z" />
    <glyph glyph-name="d" unicode="d" horiz-adv-x="607" 
d="M261 -11q-108 0 -165 73.5t-57 193.5t56.5 193t165.5 73q112 0 169 -82v250h101v-690h-99v72q-59 -83 -171 -83zM290 76q67 0 105.5 48t38.5 133q0 81 -38.5 128.5t-105.5 47.5q-74 0 -112 -46t-38 -130q0 -88 38 -134.5t112 -46.5z" />
    <glyph glyph-name="e" unicode="e" horiz-adv-x="533" 
d="M496 264q0 -21 -2 -37h-360q6 -74 43 -114.5t101 -40.5q54 0 85 27t37 74h87q-12 -89 -68 -136t-135 -47q-116 0 -181 75t-65 189q0 115 60.5 191.5t175.5 76.5q113 0 167.5 -74.5t54.5 -183.5zM272 439q-62 0 -97.5 -36t-40.5 -101h268q-2 62 -34.5 99.5t-95.5 37.5z
" />
    <glyph glyph-name="f" unicode="f" horiz-adv-x="342" 
d="M104 0v436h-88v76h89v33q0 66 40 105.5t111 39.5h73v-77h-58q-31 0 -48.5 -18t-17.5 -50v-33h124v-76h-124v-436h-101z" />
    <glyph glyph-name="g" unicode="g" horiz-adv-x="500" 
d="M480 512v-86h-64q23 -40 23 -88q0 -77 -54.5 -126t-137.5 -49q-49 0 -95 23q-26 -28 -26 -50q0 -44 86 -44h118q68 0 105.5 -33t37.5 -97q0 -148 -218 -148q-106 0 -161 37t-54 116l33 71q-34 28 -34 77q0 37 13.5 61.5t41.5 53.5q-45 47 -45 108q0 79 57 131.5t141 52.5
q82 0 138 -56q39 46 95 46zM247 243q42 0 71.5 29t29.5 68q0 43 -29.5 72t-71.5 29q-43 0 -72.5 -29t-29.5 -72q0 -39 30 -68t72 -29zM296 7h-113q-20 0 -41 3l-14 -33q-10 -41 25 -65t95 -24q128 0 128 64q0 55 -80 55z" />
    <glyph glyph-name="h" unicode="h" 
d="M76 0v690h101v-243q23 35 65.5 55t91.5 20q80 0 125.5 -51t45.5 -136v-335h-100v320q0 116 -100 116q-56 0 -92 -38.5t-36 -95.5v-302h-101z" />
    <glyph glyph-name="i" unicode="i" horiz-adv-x="261" 
d="M76 588v102h109v-102h-109zM80 0v512h101v-512h-101z" />
    <glyph glyph-name="j" unicode="j" horiz-adv-x="262" 
d="M76 587v103h110v-103h-110zM-22 -178v82q50 0 76.5 26t26.5 69v513h102v-505q0 -185 -205 -185z" />
    <glyph glyph-name="k" unicode="k" horiz-adv-x="532" 
d="M422 0l-180 244l-65 -64v-180h-101v690h101v-391l216 213h124l-210 -205l236 -307h-121z" />
    <glyph glyph-name="l" unicode="l" horiz-adv-x="255" 
d="M77 0v690h101v-690h-101z" />
    <glyph glyph-name="m" unicode="m" horiz-adv-x="847" 
d="M76 0v512h99v-60q50 70 144 70q101 0 136 -85q49 87 159 85q80 -1 122.5 -51t42.5 -137v-334h-101v327q0 109 -93 109q-54 0 -81 -37t-27 -97v-302h-101v328q0 108 -90 108q-55 0 -82 -37.5t-27 -96.5v-302h-101z" />
    <glyph glyph-name="n" unicode="n" 
d="M76 0v512h100v-67q52 77 156 77q79 0 126 -50.5t47 -136.5v-335h-100v314q0 121 -99 121q-58 0 -93.5 -37.5t-35.5 -101.5v-296h-101z" />
    <glyph glyph-name="o" unicode="o" 
d="M286 -11q-110 0 -178.5 69.5t-68.5 195.5q0 128 68 198t179 70t179.5 -70t68.5 -198q0 -126 -68.5 -195.5t-179.5 -69.5zM287 77q69 0 109 44t40 133q0 91 -40 136t-109 45t-108 -45t-39 -136q0 -89 39 -133t108 -44z" />
    <glyph glyph-name="p" unicode="p" horiz-adv-x="606" 
d="M76 -178v690h99v-73q61 83 172 83q102 0 161.5 -74t59.5 -192t-60 -192.5t-162 -74.5q-117 0 -171 82v-249h-99zM316 74q70 0 110.5 48t40.5 135q0 85 -40.5 132.5t-110.5 47.5q-67 0 -107 -48.5t-40 -131.5q0 -85 40 -134t107 -49z" />
    <glyph glyph-name="q" unicode="q" horiz-adv-x="606" 
d="M531 -178h-100v249q-54 -82 -170 -82q-103 0 -162.5 74.5t-59.5 192.5t59.5 192t161.5 74q110 0 171 -83v73h100v-690zM290 74q67 0 107 49t40 134q0 83 -40 131.5t-107 48.5q-70 0 -110 -47.5t-40 -132.5q0 -87 40 -135t110 -48z" />
    <glyph glyph-name="r" unicode="r" horiz-adv-x="353" 
d="M76 0v512h99v-69q37 77 120 77q22 0 51 -8v-93h-14q-26 8 -45 8q-51 0 -80.5 -38.5t-29.5 -96.5v-292h-101z" />
    <glyph glyph-name="s" unicode="s" horiz-adv-x="476" 
d="M266 -11q-105 0 -163 40q-69 48 -69 144h92q0 -57 34 -83q31 -24 94 -24q41 1 67.5 20t26.5 56q0 19 -8.5 32.5t-27.5 22.5t-36.5 14.5t-48.5 12.5q-6 1 -9 2q-33 8 -51 13t-45 16.5t-41 25t-25 36.5t-11 52q0 74 51.5 113.5t137.5 39.5q83 0 132 -34q69 -46 69 -134h-88
q0 50 -33 72q-30 20 -79 19q-43 0 -70 -18t-27 -49q0 -29 29 -43.5t92 -29.5q12 -3 18 -4q39 -10 63.5 -18.5t51.5 -25t40 -42.5t13 -63q0 -77 -51 -120t-128 -43z" />
    <glyph glyph-name="t" unicode="t" horiz-adv-x="333" 
d="M217 0q-128 0 -128 134v302h-75v76h75v118h100v-118h119v-76h-119v-279q0 -42 15 -59t51 -17h53v-81h-91z" />
    <glyph glyph-name="u" unicode="u" 
d="M244 -9q-82 0 -129 51t-47 136v334h101v-315q0 -116 100 -116q58 0 93 37.5t35 96.5v297h101v-512h-100v68q-56 -77 -154 -77z" />
    <glyph glyph-name="v" unicode="v" horiz-adv-x="547" 
d="M419 512h111l-190 -512h-132l-190 512h111l145 -432z" />
    <glyph glyph-name="w" unicode="w" horiz-adv-x="748" 
d="M628 512h109l-121 -512h-139l-104 380l-103 -381h-139l-120 513h109l84 -435l123 435h92l124 -436z" />
    <glyph glyph-name="x" unicode="x" horiz-adv-x="537" 
d="M2 0l198 258l-198 254h125l142 -187l141 187h125l-198 -254l198 -258h-125l-141 191l-142 -191h-125z" />
    <glyph glyph-name="y" unicode="y" horiz-adv-x="498" 
d="M34 -178v84q55 -1 91 13.5t50 32t29 48.5l-195 512h110l133 -390l132 390h110l-202 -532q-37 -97 -96.5 -127.5t-161.5 -30.5z" />
    <glyph glyph-name="z" unicode="z" horiz-adv-x="468" 
d="M441 512v-79l-285 -349h283v-84h-411v73l292 356h-284v83h405z" />
    <glyph glyph-name="braceleft" unicode="{" horiz-adv-x="301" 
d="M216 -206q-59 0 -87 36.5t-28 97.5v229q0 59 -64 71v77q64 12 64 71v229q0 61 28 97.5t87 36.5l61 -3v-78q-46 5 -65.5 -8.5t-19.5 -51.5v-229q0 -37 -15.5 -60t-47.5 -43q32 -19 47.5 -42t15.5 -60v-229q0 -39 19.5 -52t65.5 -8v-78z" />
    <glyph glyph-name="bar" unicode="|" horiz-adv-x="252" 
d="M89 -76v825h74v-825h-74z" />
    <glyph glyph-name="braceright" unicode="}" horiz-adv-x="299" 
d="M85 -206l-61 3v78q46 -5 65.5 8t19.5 52v229q0 37 15.5 60t47.5 42q-32 20 -47.5 43t-15.5 60v229q0 38 -19.5 51.5t-65.5 8.5v78l61 3q59 0 87 -36.5t28 -97.5v-229q0 -59 64 -71v-77q-64 -12 -64 -71v-229q0 -61 -28 -97.5t-87 -36.5z" />
    <glyph glyph-name="asciitilde" unicode="~" horiz-adv-x="443" 
d="M307 180q-29 0 -54 13t-40 29t-33.5 29t-35.5 13q-40 0 -37 -71h-65q-2 61 24.5 98.5t76.5 37.5q35 0 62 -13t41 -28.5t31 -28.5t33 -13q24 0 33.5 19t8.5 61h69q2 -68 -28.5 -107t-85.5 -39z" />
    <glyph glyph-name="exclamdown" unicode="&#xa1;" horiz-adv-x="271" 
d="M78 397v115h115v-115h-115zM84 -189l14 502h75l14 -502h-103z" />
    <glyph glyph-name="cent" unicode="&#xa2;" horiz-adv-x="553" 
d="M287 77q58 0 94.5 30t40.5 88h98q-6 -84 -56 -136.5t-129 -65.5v-101h-82v99q-97 10 -155.5 78.5t-58.5 184.5q0 118 58.5 187t155.5 79v100h82v-102q80 -13 130 -66t55 -139h-97q-4 60 -40.5 91t-95.5 31q-69 0 -108 -45t-39 -136q0 -89 39 -133t108 -44z" />
    <glyph glyph-name="sterling" unicode="&#xa3;" horiz-adv-x="555" 
d="M33 0v81l13 7.5t28.5 20.5t36.5 33t29 43.5t13 53.5q0 30 -11 63h-107v84h87q-21 58 -21 109q0 93 55.5 150.5t143.5 57.5q84 0 135 -45.5t63 -121.5h-93q-11 84 -109 84q-51 0 -81 -34t-30 -95q0 -52 22 -105h208v-84h-187q7 -24 7 -62q0 -33 -7.5 -61t-18 -44.5
t-21 -29t-18.5 -17.5l-7 -4h383v-84h-513z" />
    <glyph glyph-name="currency" unicode="&#xa4;" horiz-adv-x="627" 
d="M126 24l-87 84l97 89q-32 49 -32 110q0 62 32 109l-104 83l86 83l79 -100q49 34 112 35q62 -1 112 -35l82 97l87 -83l-109 -80q32 -46 32 -109q0 -62 -32 -110l105 -89l-87 -84l-79 108q-48 -33 -111 -35q-62 1 -112 35zM309 189q49 1 78.5 33t29.5 85t-29.5 85t-78.5 33
q-49 -1 -79 -33t-30 -85t30 -85t79 -33z" />
    <glyph glyph-name="yen" unicode="&#xa5;" horiz-adv-x="617" 
d="M265 -3v83h-147v71h147v104h-147v71h115l-231 364h101l205 -334l206 334h101l-232 -365h116v-70h-147v-104h147v-71h-147v-83h-87z" />
    <glyph glyph-name="brokenbar" unicode="&#xa6;" horiz-adv-x="259" 
d="M88 372v318h82v-318h-82zM88 -76v304h82v-304h-82z" />
    <glyph glyph-name="section" unicode="&#xa7;" horiz-adv-x="526" 
d="M271 -9q-192 0 -207 166h94q16 -85 117 -85q103 0 103 67q0 32 -30 48.5t-73 24t-86 17.5t-73 39.5t-30 79.5q0 68 51 110q-50 33 -50 98q0 69 51.5 106.5t131.5 37.5q73 0 126.5 -37t63.5 -119h-90q-6 77 -103 77q-44 0 -69.5 -18t-25.5 -50q0 -30 30 -45.5t73 -22.5
t86 -18t73 -41.5t30 -82.5q0 -68 -48 -106q48 -35 48 -96q0 -76 -55 -113t-138 -37zM332 276q25 11 34.5 31t5.5 39q-2 19 -12.5 32.5t-30.5 22t-36 13t-41.5 9t-33.5 6.5q-22 -10 -33.5 -29.5t-9.5 -41.5q1 -18 12 -31.5t31 -21.5t36.5 -12.5t42 -9t35.5 -7.5z" />
    <glyph glyph-name="dieresis" unicode="&#xa8;" horiz-adv-x="295" 
d="M18 563v103h91v-103h-91zM187 563v103h90v-103h-90z" />
    <glyph glyph-name="copyright" unicode="&#xa9;" horiz-adv-x="815" 
d="M407 -27q-152 0 -260.5 109.5t-108.5 263.5t108.5 263t260.5 109t261 -109t109 -263t-109 -263.5t-261 -109.5zM407 27q129 0 222 94.5t93 224.5t-92.5 223.5t-222.5 93.5q-128 0 -221 -93.5t-93 -223.5t93 -224.5t221 -94.5zM414 136q-89 0 -136.5 59.5t-47.5 148.5
t47.5 148.5t136.5 59.5q65 0 110 -38t51 -118h-80q-4 77 -82 77q-53 0 -79.5 -36.5t-26.5 -93.5q0 -56 26 -91.5t79 -35.5q80 0 83 79h80q-5 -78 -51 -118.5t-110 -40.5z" />
    <glyph glyph-name="ordfeminine" unicode="&#xaa;" horiz-adv-x="353" 
d="M141 353q-49 0 -80 27.5t-31 72.5q0 66 71 100q60 26 160 23v25q0 63 -78 63q-86 0 -86 -61h-63q0 57 42.5 86t103.5 29q63 0 103.5 -30t40.5 -90v-237h-63v47q-46 -55 -120 -55zM164 407q62 2 97 58v65q-74 7 -119 -16q-40 -20 -40 -56q0 -24 17 -37.5t45 -13.5z" />
    <glyph glyph-name="guillemotleft" unicode="&#xab;" horiz-adv-x="526" 
d="M257 105l-197 194l197 193v-97l-91 -96l91 -95v-99zM465 105l-198 194l198 193v-97l-91 -96l91 -95v-99z" />
    <glyph glyph-name="logicalnot" unicode="&#xac;" horiz-adv-x="581" 
d="M419 124v176h-353v89h449v-265h-96z" />
    <glyph glyph-name="registered" unicode="&#xae;" horiz-adv-x="623" 
d="M311 172q-107 0 -182.5 77t-75.5 187t75.5 187t182.5 77t183 -77.5t76 -186.5t-76 -186.5t-183 -77.5zM311 219q88 0 151.5 64t63.5 153t-63.5 153.5t-151.5 64.5t-151 -64.5t-63 -153.5t63 -153t151 -64zM223 300v270h105q45 0 69.5 -21t24.5 -60q0 -58 -53 -76l70 -113
h-64l-59 106h-37v-106h-56zM275 454h53q42 0 42 35t-42 35h-53v-70z" />
    <glyph glyph-name="macron" unicode="&#xaf;" horiz-adv-x="320" 
d="M26 579v60h269v-60h-269z" />
    <glyph glyph-name="degree" unicode="&#xb0;" horiz-adv-x="377" 
d="M188 396q-65 0 -109 43.5t-44 108.5t44 108.5t109 43.5q66 0 110 -43.5t44 -108.5t-44 -108.5t-110 -43.5zM188 466q35 0 59 23.5t24 58.5t-24 58.5t-59 23.5q-34 0 -58 -24t-24 -58q0 -35 23.5 -58.5t58.5 -23.5z" />
    <glyph glyph-name="plusminus" unicode="&#xb1;" horiz-adv-x="654" 
d="M289 52v215h-223v76h223v227h76v-227h223v-76h-223v-215h-76zM67 -76v76h521v-76h-521z" />
    <glyph glyph-name="acute" unicode="&#xb4;" horiz-adv-x="197" 
d="M-9 548l108 118h118l-151 -118h-75z" />
    <glyph glyph-name="uni00B5" unicode="&#xb5;" horiz-adv-x="501" 
d="M72 -130v618h97v-287q0 -123 90 -123q55 0 95 40.5t40 94.5v275h97v-488h-97v75q-20 -35 -59 -60.5t-84 -25.5q-47 0 -83 19l-10 -138h-86z" />
    <glyph glyph-name="paragraph" unicode="&#xb6;" horiz-adv-x="562" 
d="M259 -140v444q-90 0 -155.5 52.5t-65.5 140.5t65.5 140.5t155.5 52.5h69v-830h-69zM416 -140v830h69v-830h-69z" />
    <glyph glyph-name="periodcentered" unicode="&#xb7;" horiz-adv-x="244" 
d="M122 328q-29 0 -48.5 19.5t-19.5 47.5q0 29 19.5 48.5t48.5 19.5q28 0 48 -19.5t20 -48.5q0 -28 -20 -47.5t-48 -19.5z" />
    <glyph glyph-name="cedilla" unicode="&#xb8;" horiz-adv-x="184" 
d="M97 -244q-35 0 -61 18t-37 46l52 26q3 -15 14.5 -25t27.5 -10q17 0 29 11.5t13 29.5q1 32 -39 45l-65 19l45 84h69l-39 -60q90 -24 90 -85q0 -44 -29.5 -71.5t-69.5 -27.5z" />
    <glyph glyph-name="ordmasculine" unicode="&#xba;" horiz-adv-x="391" 
d="M197 349q-75 0 -123 51.5t-48 125.5t48 125t123 51q73 0 120.5 -51.5t47.5 -124.5q0 -74 -47.5 -125.5t-120.5 -51.5zM197 410q48 0 72 32.5t24 82.5t-24 83t-72 33q-50 0 -74.5 -32.5t-24.5 -83.5q0 -50 24.5 -82.5t74.5 -32.5z" />
    <glyph glyph-name="guillemotright" unicode="&#xbb;" horiz-adv-x="529" 
d="M63 105v99l91 95l-91 96v97l197 -193zM270 105v99l92 95l-92 96v97l198 -193z" />
    <glyph glyph-name="questiondown" unicode="&#xbf;" horiz-adv-x="455" 
d="M302 512v-115h-114v115h114zM289 315v-88q0 -36 -13 -63t-26.5 -38t-38.5 -27q-27 -15 -39 -23.5t-25 -30.5t-13 -51q0 -47 30.5 -72t79.5 -25t81.5 28t32.5 76h89q0 -83 -55 -136t-143 -53q-87 0 -145 46.5t-58 134.5q0 25 5.5 46t11.5 34t20 26.5t21.5 19t26 16.5
l23.5 14q49 31 49 79v87h86z" />
    <glyph glyph-name="Agrave" unicode="&#xc0;" horiz-adv-x="612" 
d="M348 748h-82l-144 119h118zM497 0l-48 155h-284l-49 -155h-113l233 690h141l234 -690h-114zM192 242h230l-113 360h-3z" />
    <glyph glyph-name="Aacute" unicode="&#xc1;" horiz-adv-x="612" 
d="M496 867l-151 -118h-75l108 118h118zM497 0l-48 155h-284l-49 -155h-113l233 690h141l234 -690h-114zM192 242h230l-113 360h-3z" />
    <glyph glyph-name="Acircumflex" unicode="&#xc2;" horiz-adv-x="612" 
d="M308 809l-63 -72h-81l122 130h43l124 -130h-82zM497 0l-48 155h-284l-49 -155h-113l233 690h141l234 -690h-114zM192 242h230l-113 360h-3z" />
    <glyph glyph-name="Atilde" unicode="&#xc3;" horiz-adv-x="612" 
d="M234 810q-43 0 -43 -62h-61q0 58 24.5 89t72.5 31q35 0 61.5 -17t47.5 -34.5t42 -17.5q44 0 44 68h62q0 -62 -26.5 -93.5t-73.5 -31.5q-34 0 -60.5 17t-48 34t-41.5 17zM497 0l-48 155h-284l-49 -155h-113l233 690h141l234 -690h-114zM192 242h230l-113 360h-3z" />
    <glyph glyph-name="Adieresis" unicode="&#xc4;" horiz-adv-x="612" 
d="M269 867v-103h-91v103h91zM437 867v-103h-90v103h90zM497 0l-48 155h-284l-49 -155h-113l233 690h141l234 -690h-114zM192 242h230l-113 360h-3z" />
    <glyph glyph-name="Aring" unicode="&#xc5;" horiz-adv-x="612" 
d="M497 0l-48 155h-284l-49 -155h-113l226 669q-30 32 -30 76t31.5 75.5t76.5 31.5t76.5 -31t31.5 -76q0 -44 -30 -76l226 -669h-114zM307 800q-25 0 -40 -15t-15 -40q0 -21 12.5 -36t31.5 -19h22q20 4 32.5 19t12.5 36q0 23 -15.5 39t-40.5 16zM192 242h230l-113 360h-3z
" />
    <glyph glyph-name="AE" unicode="&#xc6;" horiz-adv-x="888" 
d="M838 597h-365v-205h322v-94h-322v-203h365v-95h-466v148h-204l-56 -148h-109l268 690h567v-93zM201 238h171v366h-34z" />
    <glyph glyph-name="Ccedilla" unicode="&#xc7;" horiz-adv-x="668" 
d="M354 85q73 0 124.5 47.5t58.5 123.5h98q-4 -112 -72.5 -180.5t-168.5 -82.5l-34 -53q90 -25 90 -93q0 -43 -29 -67t-70 -24q-35 0 -61 18t-37 46l52 26q13 -35 49 -35q13 0 23.5 8.5t11.5 25.5q2 38 -39 52l-65 19l40 75q-136 9 -211.5 106t-75.5 248q0 160 82.5 258
t230.5 98q113 0 196.5 -70.5t87.5 -194.5h-98q-9 80 -57.5 125t-127.5 45q-98 0 -154.5 -69t-56.5 -188q0 -122 57.5 -193t155.5 -71z" />
    <glyph glyph-name="Egrave" unicode="&#xc8;" horiz-adv-x="592" 
d="M275 748l-144 119h118l108 -119h-82zM88 0v690h454v-91h-349v-208h313v-91h-313v-208h349v-92h-454z" />
    <glyph glyph-name="Eacute" unicode="&#xc9;" horiz-adv-x="592" 
d="M278 749l108 118h118l-151 -118h-75zM88 0v690h454v-91h-349v-208h313v-91h-313v-208h349v-92h-454z" />
    <glyph glyph-name="Ecircumflex" unicode="&#xca;" horiz-adv-x="592" 
d="M172 737l122 130h43l124 -130h-82l-63 72l-63 -72h-81zM88 0v690h454v-91h-349v-208h313v-91h-313v-208h349v-92h-454z" />
    <glyph glyph-name="Edieresis" unicode="&#xcb;" horiz-adv-x="592" 
d="M186 764v103h91v-103h-91zM355 764v103h90v-103h-90zM88 0v690h454v-91h-349v-208h313v-91h-313v-208h349v-92h-454z" />
    <glyph glyph-name="Igrave" unicode="&#xcc;" horiz-adv-x="281" 
d="M100 748l-144 119h118l108 -119h-82zM88 0v690h105v-690h-105z" />
    <glyph glyph-name="Iacute" unicode="&#xcd;" horiz-adv-x="281" 
d="M103 749l108 118h118l-151 -118h-75zM88 0v690h105v-690h-105z" />
    <glyph glyph-name="Icircumflex" unicode="&#xce;" horiz-adv-x="281" 
d="M-3 737l122 130h43l124 -130h-82l-63 72l-63 -72h-81zM88 0v690h105v-690h-105z" />
    <glyph glyph-name="Idieresis" unicode="&#xcf;" horiz-adv-x="281" 
d="M11 764v103h91v-103h-91zM180 764v103h90v-103h-90zM88 0v690h105v-690h-105z" />
    <glyph glyph-name="Eth" unicode="&#xd0;" horiz-adv-x="661" 
d="M78 0v311h-58v74h58v305h188q172 0 264 -90.5t92 -259.5q0 -163 -93.5 -251.5t-263.5 -88.5h-187zM177 93h76q124 0 196.5 62t72.5 190q0 253 -258 253h-87v-213h176v-74h-176v-218z" />
    <glyph glyph-name="Ntilde" unicode="&#xd1;" horiz-adv-x="738" 
d="M192 748q0 58 24.5 89t72.5 31q35 0 61.5 -17t47.5 -34.5t42 -17.5q44 0 44 68h62q0 -62 -26.5 -93.5t-73.5 -31.5q-34 0 -60.5 17t-48 34t-41.5 17q-43 0 -43 -62h-61zM88 0v690h129l324 -551h4v551h106v-690h-132l-322 554h-4v-554h-105z" />
    <glyph glyph-name="Ograve" unicode="&#xd2;" horiz-adv-x="714" 
d="M315 748l-144 119h118l108 -119h-82zM357 -10q-148 0 -233.5 96t-85.5 259t85.5 259t233.5 96q147 0 233 -96t86 -259t-86 -259t-233 -96zM357 84q98 0 154.5 69t56.5 192q0 125 -56.5 193t-154.5 68t-154.5 -68t-56.5 -193q0 -123 56.5 -192t154.5 -69z" />
    <glyph glyph-name="Oacute" unicode="&#xd3;" horiz-adv-x="714" 
d="M319 749l108 118h118l-151 -118h-75zM357 -10q-148 0 -233.5 96t-85.5 259t85.5 259t233.5 96q147 0 233 -96t86 -259t-86 -259t-233 -96zM357 84q98 0 154.5 69t56.5 192q0 125 -56.5 193t-154.5 68t-154.5 -68t-56.5 -193q0 -123 56.5 -192t154.5 -69z" />
    <glyph glyph-name="Ocircumflex" unicode="&#xd4;" horiz-adv-x="714" 
d="M212 737l122 130h43l124 -130h-82l-63 72l-63 -72h-81zM357 -10q-148 0 -233.5 96t-85.5 259t85.5 259t233.5 96q147 0 233 -96t86 -259t-86 -259t-233 -96zM357 84q98 0 154.5 69t56.5 192q0 125 -56.5 193t-154.5 68t-154.5 -68t-56.5 -193q0 -123 56.5 -192t154.5 -69
z" />
    <glyph glyph-name="Otilde" unicode="&#xd5;" horiz-adv-x="714" 
d="M179 748q0 58 24.5 89t72.5 31q35 0 61.5 -17t47.5 -34.5t42 -17.5q44 0 44 68h62q0 -62 -26.5 -93.5t-73.5 -31.5q-34 0 -60.5 17t-48 34t-41.5 17q-43 0 -43 -62h-61zM357 -10q-148 0 -233.5 96t-85.5 259t85.5 259t233.5 96q147 0 233 -96t86 -259t-86 -259t-233 -96z
M357 84q98 0 154.5 69t56.5 192q0 125 -56.5 193t-154.5 68t-154.5 -68t-56.5 -193q0 -123 56.5 -192t154.5 -69z" />
    <glyph glyph-name="Odieresis" unicode="&#xd6;" horiz-adv-x="714" 
d="M226 764v103h91v-103h-91zM395 764v103h90v-103h-90zM357 -10q-148 0 -233.5 96t-85.5 259t85.5 259t233.5 96q147 0 233 -96t86 -259t-86 -259t-233 -96zM357 84q98 0 154.5 69t56.5 192q0 125 -56.5 193t-154.5 68t-154.5 -68t-56.5 -193q0 -123 56.5 -192t154.5 -69z
" />
    <glyph glyph-name="multiply" unicode="&#xd7;" horiz-adv-x="482" 
d="M89 98l-55 56l152 152l-152 150l55 55l152 -151l151 152l55 -56l-151 -151l151 -151l-55 -55l-151 151z" />
    <glyph glyph-name="Oslash" unicode="&#xd8;" horiz-adv-x="714" 
d="M677 616l-55 -55q54 -88 54 -216q0 -163 -86 -259t-233 -96q-138 0 -222 84l-50 -50l-50 50l56 56q-53 89 -53 215q0 163 85.5 259t233.5 96q136 0 221 -83l48 48zM146 345q0 -79 24 -136l336 336q-56 61 -149 61q-98 0 -154.5 -68t-56.5 -193zM568 345q0 81 -24 138
l-336 -336q55 -63 149 -63q98 0 154.5 69t56.5 192z" />
    <glyph glyph-name="Ugrave" unicode="&#xd9;" horiz-adv-x="668" 
d="M293 748l-144 119h118l108 -119h-82zM334 -10q-122 0 -188.5 68.5t-66.5 190.5v441h106v-445q0 -74 39.5 -116.5t109.5 -42.5t109.5 42.5t39.5 116.5v445h106v-436q0 -125 -66.5 -194.5t-188.5 -69.5z" />
    <glyph glyph-name="Uacute" unicode="&#xda;" horiz-adv-x="668" 
d="M297 749l108 118h118l-151 -118h-75zM334 -10q-122 0 -188.5 68.5t-66.5 190.5v441h106v-445q0 -74 39.5 -116.5t109.5 -42.5t109.5 42.5t39.5 116.5v445h106v-436q0 -125 -66.5 -194.5t-188.5 -69.5z" />
    <glyph glyph-name="Ucircumflex" unicode="&#xdb;" horiz-adv-x="668" 
d="M190 737l122 130h43l124 -130h-82l-63 72l-63 -72h-81zM334 -10q-122 0 -188.5 68.5t-66.5 190.5v441h106v-445q0 -74 39.5 -116.5t109.5 -42.5t109.5 42.5t39.5 116.5v445h106v-436q0 -125 -66.5 -194.5t-188.5 -69.5z" />
    <glyph glyph-name="Udieresis" unicode="&#xdc;" horiz-adv-x="668" 
d="M204 764v103h91v-103h-91zM373 764v103h90v-103h-90zM334 -10q-122 0 -188.5 68.5t-66.5 190.5v441h106v-445q0 -74 39.5 -116.5t109.5 -42.5t109.5 42.5t39.5 116.5v445h106v-436q0 -125 -66.5 -194.5t-188.5 -69.5z" />
    <glyph glyph-name="Yacute" unicode="&#xdd;" horiz-adv-x="665" 
d="M295 749l108 118h118l-151 -118h-75zM279 0v269l-277 421h121l209 -325l209 325h122l-279 -421v-269h-105z" />
    <glyph glyph-name="Thorn" unicode="&#xde;" horiz-adv-x="591" 
d="M88 0v690h108v-89h148q101 0 161.5 -53.5t60.5 -148.5t-60.5 -146.5t-161.5 -51.5h-148v-201h-108zM196 293h131q132 0 132 106q0 52 -33.5 80.5t-98.5 28.5h-131v-215z" />
    <glyph glyph-name="germandbls" unicode="&#xdf;" horiz-adv-x="561" 
d="M349 -9q-40 0 -90 15v104q49 -25 87 -25q33 0 53.5 19.5t20.5 51.5q0 27 -14 47.5t-34 35l-40.5 30.5t-34.5 43t-14 63q0 34 15.5 57.5t34 34t34 28t15.5 41.5q0 32 -25 54t-72 22q-53 0 -81.5 -29.5t-28.5 -78.5v-504h-103v506q0 89 59.5 141.5t144.5 52.5
q83 0 146.5 -48t63.5 -125q0 -33 -17 -57.5t-38 -35.5t-38 -27.5t-17 -36.5q0 -19 15.5 -35.5t38 -32t44.5 -33.5t37.5 -48t15.5 -68q0 -71 -50.5 -116.5t-127.5 -45.5z" />
    <glyph glyph-name="agrave" unicode="&#xe0;" horiz-adv-x="532" 
d="M225 571l-144 119h118l108 -119h-82zM208 -11q-73 0 -118.5 39.5t-45.5 106.5q0 98 105 146q89 40 234 33v38q0 91 -114 91q-126 0 -126 -89h-93q0 84 62.5 126t151.5 42q93 0 152 -44t59 -132v-346h-92v68q-69 -79 -175 -79zM241 68q41 0 79 22t63 62v96
q-106 10 -175 -24q-59 -29 -59 -81q0 -36 25.5 -56t66.5 -19z" />
    <glyph glyph-name="aacute" unicode="&#xe1;" horiz-adv-x="532" 
d="M229 572l108 118h118l-151 -118h-75zM208 -11q-73 0 -118.5 39.5t-45.5 106.5q0 98 105 146q89 40 234 33v38q0 91 -114 91q-126 0 -126 -89h-93q0 84 62.5 126t151.5 42q93 0 152 -44t59 -132v-346h-92v68q-69 -79 -175 -79zM241 68q41 0 79 22t63 62v96
q-106 10 -175 -24q-59 -29 -59 -81q0 -36 25.5 -56t66.5 -19z" />
    <glyph glyph-name="acircumflex" unicode="&#xe2;" horiz-adv-x="532" 
d="M123 560l122 130h43l124 -130h-82l-63 72l-63 -72h-81zM208 -11q-73 0 -118.5 39.5t-45.5 106.5q0 98 105 146q89 40 234 33v38q0 91 -114 91q-126 0 -126 -89h-93q0 84 62.5 126t151.5 42q93 0 152 -44t59 -132v-346h-92v68q-69 -79 -175 -79zM241 68q41 0 79 22t63 62
v96q-106 10 -175 -24q-59 -29 -59 -81q0 -36 25.5 -56t66.5 -19z" />
    <glyph glyph-name="atilde" unicode="&#xe3;" horiz-adv-x="532" 
d="M89 571q0 58 24.5 89t72.5 31q35 0 61.5 -17.5t47.5 -34.5t42 -17q44 0 44 68h62q0 -62 -26.5 -93.5t-73.5 -31.5q-34 0 -60.5 17t-48 34t-41.5 17q-43 0 -43 -62h-61zM208 -11q-73 0 -118.5 39.5t-45.5 106.5q0 98 105 146q89 40 234 33v38q0 91 -114 91
q-126 0 -126 -89h-93q0 84 62.5 126t151.5 42q93 0 152 -44t59 -132v-346h-92v68q-69 -79 -175 -79zM241 68q41 0 79 22t63 62v96q-106 10 -175 -24q-59 -29 -59 -81q0 -36 25.5 -56t66.5 -19z" />
    <glyph glyph-name="adieresis" unicode="&#xe4;" horiz-adv-x="532" 
d="M137 587v103h91v-103h-91zM306 587v103h90v-103h-90zM208 -11q-73 0 -118.5 39.5t-45.5 106.5q0 98 105 146q89 40 234 33v38q0 91 -114 91q-126 0 -126 -89h-93q0 84 62.5 126t151.5 42q93 0 152 -44t59 -132v-346h-92v68q-69 -79 -175 -79zM241 68q41 0 79 22t63 62v96
q-106 10 -175 -24q-59 -29 -59 -81q0 -36 25.5 -56t66.5 -19z" />
    <glyph glyph-name="aring" unicode="&#xe5;" horiz-adv-x="532" 
d="M265 554q-43 0 -72 29.5t-29 72.5q0 41 29.5 70.5t71.5 29.5t72 -29t30 -71q0 -43 -29.5 -72.5t-72.5 -29.5zM265 603q23 0 38 15.5t15 37.5t-14.5 36.5t-38.5 14.5q-23 0 -37 -14t-14 -37t14.5 -38t36.5 -15zM208 -11q-73 0 -118.5 39.5t-45.5 106.5q0 98 105 146
q89 40 234 33v38q0 91 -114 91q-126 0 -126 -89h-93q0 84 62.5 126t151.5 42q93 0 152 -44t59 -132v-346h-92v68q-69 -79 -175 -79zM241 68q41 0 79 22t63 62v96q-106 10 -175 -24q-59 -29 -59 -81q0 -36 25.5 -56t66.5 -19z" />
    <glyph glyph-name="ae" unicode="&#xe6;" horiz-adv-x="886" 
d="M839 264q0 -21 -2 -37h-360q5 -74 42 -114.5t101 -40.5q108 0 123 101h86q-12 -89 -68 -136t-135 -47q-136 0 -202 103q-99 -104 -216 -104q-73 0 -118.5 39.5t-45.5 106.5q0 94 104 143q88 41 235 36v39q0 92 -112 92q-127 0 -128 -95h-93q1 85 63.5 128.5t150.5 43.5
q127 0 180 -73q63 73 172 73q113 0 168 -74.5t55 -183.5zM614 439q-62 0 -97 -36.5t-40 -100.5h267q-2 62 -34.5 99.5t-95.5 37.5zM241 68q79 0 153 94q-11 36 -13 82q-105 11 -171 -24q-59 -29 -59 -77q0 -36 25.5 -56t64.5 -19z" />
    <glyph glyph-name="ccedilla" unicode="&#xe7;" horiz-adv-x="553" 
d="M287 77q58 0 94.5 30t40.5 88h98q-6 -86 -58.5 -139t-134.5 -64l-34 -52q90 -25 90 -93q0 -43 -29 -67t-70 -24q-35 0 -61 18t-37 46l52 26q13 -35 49 -35q13 0 23.5 8.5t11.5 25.5q2 38 -39 52l-65 19l40 74q-100 9 -159.5 78t-59.5 186q0 128 68 198t179 70
q99 0 163.5 -55.5t70.5 -153.5h-97q-4 60 -40.5 91t-95.5 31q-69 0 -108 -45t-39 -136q0 -89 39 -133t108 -44z" />
    <glyph glyph-name="egrave" unicode="&#xe8;" horiz-adv-x="533" 
d="M313 571h-82l-144 119h118zM496 264q0 -21 -2 -37h-360q6 -74 43 -114.5t101 -40.5q54 0 85 27t37 74h87q-12 -89 -68 -136t-135 -47q-116 0 -181 75t-65 189q0 115 60.5 191.5t175.5 76.5q113 0 167.5 -74.5t54.5 -183.5zM272 439q-62 0 -97.5 -36t-40.5 -101h268
q-2 62 -34.5 99.5t-95.5 37.5z" />
    <glyph glyph-name="eacute" unicode="&#xe9;" horiz-adv-x="533" 
d="M460 690l-151 -118h-75l108 118h118zM496 264q0 -21 -2 -37h-360q6 -74 43 -114.5t101 -40.5q54 0 85 27t37 74h87q-12 -89 -68 -136t-135 -47q-116 0 -181 75t-65 189q0 115 60.5 191.5t175.5 76.5q113 0 167.5 -74.5t54.5 -183.5zM272 439q-62 0 -97.5 -36t-40.5 -101
h268q-2 62 -34.5 99.5t-95.5 37.5z" />
    <glyph glyph-name="ecircumflex" unicode="&#xea;" horiz-adv-x="533" 
d="M272 632l-63 -72h-81l122 130h43l124 -130h-82zM496 264q0 -21 -2 -37h-360q6 -74 43 -114.5t101 -40.5q54 0 85 27t37 74h87q-12 -89 -68 -136t-135 -47q-116 0 -181 75t-65 189q0 115 60.5 191.5t175.5 76.5q113 0 167.5 -74.5t54.5 -183.5zM272 439q-62 0 -97.5 -36
t-40.5 -101h268q-2 62 -34.5 99.5t-95.5 37.5z" />
    <glyph glyph-name="edieresis" unicode="&#xeb;" horiz-adv-x="533" 
d="M233 690v-103h-91v103h91zM401 690v-103h-90v103h90zM496 264q0 -21 -2 -37h-360q6 -74 43 -114.5t101 -40.5q54 0 85 27t37 74h87q-12 -89 -68 -136t-135 -47q-116 0 -181 75t-65 189q0 115 60.5 191.5t175.5 76.5q113 0 167.5 -74.5t54.5 -183.5zM272 439
q-62 0 -97.5 -36t-40.5 -101h268q-2 62 -34.5 99.5t-95.5 37.5z" />
    <glyph glyph-name="igrave" unicode="&#xec;" horiz-adv-x="255" 
d="M86 571l-144 119h118l108 -119h-82zM77 0v512h101v-512h-101z" />
    <glyph glyph-name="iacute" unicode="&#xed;" horiz-adv-x="255" 
d="M89 572l108 118h118l-151 -118h-75zM77 0v512h101v-512h-101z" />
    <glyph glyph-name="icircumflex" unicode="&#xee;" horiz-adv-x="255" 
d="M-17 560l122 130h43l124 -130h-82l-63 72l-63 -72h-81zM77 0v512h101v-512h-101z" />
    <glyph glyph-name="idieresis" unicode="&#xef;" horiz-adv-x="255" 
d="M-3 587v103h91v-103h-91zM166 587v103h90v-103h-90zM77 0v512h101v-512h-101z" />
    <glyph glyph-name="eth" unicode="&#xf0;" horiz-adv-x="556" 
d="M306 680q114 -68 163.5 -170t49.5 -258q0 -107 -65.5 -183.5t-175.5 -76.5q-111 0 -176 76t-65 184q0 107 64 183.5t171 76.5q40 0 76.5 -16t52.5 -40q-29 94 -141 163l-49 -64l-40 31l46 58q-36 19 -80 37l40 59q48 -17 86 -36l46 59l38 -28zM278 80q67 0 101.5 48.5
t34.5 123.5q0 76 -35 124t-101 48q-67 0 -102 -48.5t-35 -123.5t35 -123.5t102 -48.5z" />
    <glyph glyph-name="ntilde" unicode="&#xf1;" 
d="M105 573q0 58 24.5 89t72.5 31q35 0 61.5 -17.5t47.5 -34.5t42 -17q44 0 44 68h62q0 -62 -26.5 -93.5t-73.5 -31.5q-34 0 -60.5 17t-48 34t-41.5 17q-43 0 -43 -62h-61zM76 0v512h100v-67q52 77 156 77q79 0 126 -50.5t47 -136.5v-335h-100v314q0 121 -99 121
q-58 0 -93.5 -37.5t-35.5 -101.5v-296h-101z" />
    <glyph glyph-name="ograve" unicode="&#xf2;" 
d="M245 571l-144 119h118l108 -119h-82zM286 -11q-110 0 -178.5 69.5t-68.5 195.5q0 128 68 198t179 70t179.5 -70t68.5 -198q0 -126 -68.5 -195.5t-179.5 -69.5zM287 77q69 0 109 44t40 133q0 91 -40 136t-109 45t-108 -45t-39 -136q0 -89 39 -133t108 -44z" />
    <glyph glyph-name="oacute" unicode="&#xf3;" 
d="M249 572l108 118h118l-151 -118h-75zM286 -11q-110 0 -178.5 69.5t-68.5 195.5q0 128 68 198t179 70t179.5 -70t68.5 -198q0 -126 -68.5 -195.5t-179.5 -69.5zM287 77q69 0 109 44t40 133q0 91 -40 136t-109 45t-108 -45t-39 -136q0 -89 39 -133t108 -44z" />
    <glyph glyph-name="ocircumflex" unicode="&#xf4;" 
d="M142 560l122 130h43l124 -130h-82l-63 72l-63 -72h-81zM286 -11q-110 0 -178.5 69.5t-68.5 195.5q0 128 68 198t179 70t179.5 -70t68.5 -198q0 -126 -68.5 -195.5t-179.5 -69.5zM287 77q69 0 109 44t40 133q0 91 -40 136t-109 45t-108 -45t-39 -136q0 -89 39 -133
t108 -44z" />
    <glyph glyph-name="otilde" unicode="&#xf5;" 
d="M109 571q0 58 24.5 89t72.5 31q35 0 61.5 -17.5t47.5 -34.5t42 -17q44 0 44 68h62q0 -62 -26.5 -93.5t-73.5 -31.5q-34 0 -60.5 17t-48 34t-41.5 17q-43 0 -43 -62h-61zM286 -11q-110 0 -178.5 69.5t-68.5 195.5q0 128 68 198t179 70t179.5 -70t68.5 -198
q0 -126 -68.5 -195.5t-179.5 -69.5zM287 77q69 0 109 44t40 133q0 91 -40 136t-109 45t-108 -45t-39 -136q0 -89 39 -133t108 -44z" />
    <glyph glyph-name="odieresis" unicode="&#xf6;" 
d="M156 587v103h91v-103h-91zM325 587v103h90v-103h-90zM286 -11q-110 0 -178.5 69.5t-68.5 195.5q0 128 68 198t179 70t179.5 -70t68.5 -198q0 -126 -68.5 -195.5t-179.5 -69.5zM287 77q69 0 109 44t40 133q0 91 -40 136t-109 45t-108 -45t-39 -136q0 -89 39 -133t108 -44z
" />
    <glyph glyph-name="divide" unicode="&#xf7;" horiz-adv-x="590" 
d="M237 421v115h116v-115h-116zM66 232v76h457v-76h-457zM237 -3v114h116v-114h-116z" />
    <glyph glyph-name="oslash" unicode="&#xf8;" 
d="M488 423q46 -66 46 -169q0 -126 -68.5 -195.5t-179.5 -69.5q-104 0 -171 61l-20 -20l-35 36l23 23q-44 66 -44 165q0 128 68 198t179 70q104 0 170 -61l21 21l35 -35zM140 254q0 -56 15 -93l236 235q-39 39 -104 39q-69 0 -108 -45t-39 -136zM287 77q69 0 109 44t40 133
q0 56 -18 99l-236 -236q39 -40 105 -40z" />
    <glyph glyph-name="ugrave" unicode="&#xf9;" 
d="M241 571l-144 119h118l108 -119h-82zM244 -9q-82 0 -129 51t-47 136v334h101v-315q0 -116 100 -116q58 0 93 37.5t35 96.5v297h101v-512h-100v68q-56 -77 -154 -77z" />
    <glyph glyph-name="uacute" unicode="&#xfa;" 
d="M245 572l108 118h118l-151 -118h-75zM244 -9q-82 0 -129 51t-47 136v334h101v-315q0 -116 100 -116q58 0 93 37.5t35 96.5v297h101v-512h-100v68q-56 -77 -154 -77z" />
    <glyph glyph-name="ucircumflex" unicode="&#xfb;" 
d="M139 560l122 130h43l124 -130h-82l-63 72l-63 -72h-81zM244 -9q-82 0 -129 51t-47 136v334h101v-315q0 -116 100 -116q58 0 93 37.5t35 96.5v297h101v-512h-100v68q-56 -77 -154 -77z" />
    <glyph glyph-name="udieresis" unicode="&#xfc;" 
d="M153 587v103h91v-103h-91zM322 587v103h90v-103h-90zM244 -9q-82 0 -129 51t-47 136v334h101v-315q0 -116 100 -116q58 0 93 37.5t35 96.5v297h101v-512h-100v68q-56 -77 -154 -77z" />
    <glyph glyph-name="yacute" unicode="&#xfd;" horiz-adv-x="498" 
d="M213 572l108 118h118l-151 -118h-75zM34 -178v84q55 -1 91 13.5t50 32t29 48.5l-195 512h110l133 -390l132 390h110l-202 -532q-37 -97 -96.5 -127.5t-161.5 -30.5z" />
    <glyph glyph-name="thorn" unicode="&#xfe;" horiz-adv-x="589" 
d="M76 -178v868h102v-261h4q60 69 158 69q97 0 154 -71.5t57 -182.5t-57 -182.5t-154 -71.5q-102 0 -159 69h-4v-237h-101zM311 75q70 0 106.5 47.5t36.5 123.5q0 77 -36.5 125.5t-106.5 48.5q-68 0 -103.5 -49t-35.5 -125q0 -75 35.5 -123t103.5 -48z" />
    <glyph glyph-name="ydieresis" unicode="&#xff;" horiz-adv-x="498" 
d="M120 587v103h91v-103h-91zM289 587v103h90v-103h-90zM34 -178v84q55 -1 91 13.5t50 32t29 48.5l-195 512h110l133 -390l132 390h110l-202 -532q-37 -97 -96.5 -127.5t-161.5 -30.5z" />
    <glyph glyph-name="Amacron" unicode="&#x100;" horiz-adv-x="612" 
d="M443 840v-60h-269v60h269zM497 0l-48 155h-284l-49 -155h-113l233 690h141l234 -690h-114zM192 242h230l-113 360h-3z" />
    <glyph glyph-name="amacron" unicode="&#x101;" horiz-adv-x="532" 
d="M133 603v60h269v-60h-269zM208 -11q-73 0 -118.5 39.5t-45.5 106.5q0 98 105 146q89 40 234 33v38q0 91 -114 91q-126 0 -126 -89h-93q0 84 62.5 126t151.5 42q93 0 152 -44t59 -132v-346h-92v68q-69 -79 -175 -79zM241 68q41 0 79 22t63 62v96q-106 10 -175 -24
q-59 -29 -59 -81q0 -36 25.5 -56t66.5 -19z" />
    <glyph glyph-name="Abreve" unicode="&#x102;" horiz-adv-x="612" 
d="M308 735q-68 0 -109.5 35t-41.5 97h72q0 -33 22.5 -52t56.5 -19t56 19t22 52h73q0 -63 -41.5 -97.5t-109.5 -34.5zM497 0l-48 155h-284l-49 -155h-113l233 690h141l234 -690h-114zM192 242h230l-113 360h-3z" />
    <glyph glyph-name="abreve" unicode="&#x103;" horiz-adv-x="532" 
d="M267 558q-68 0 -109.5 35t-41.5 97h72q0 -33 22.5 -52t56.5 -19t56 19t22 52h73q0 -63 -41.5 -97.5t-109.5 -34.5zM208 -11q-73 0 -118.5 39.5t-45.5 106.5q0 98 105 146q89 40 234 33v38q0 91 -114 91q-126 0 -126 -89h-93q0 84 62.5 126t151.5 42q93 0 152 -44t59 -132
v-346h-92v68q-69 -79 -175 -79zM241 68q41 0 79 22t63 62v96q-106 10 -175 -24q-59 -29 -59 -81q0 -36 25.5 -56t66.5 -19z" />
    <glyph glyph-name="Aogonek" unicode="&#x104;" horiz-adv-x="612" 
d="M627 -130l52 -36q-37 -57 -102 -57q-46 0 -76 26.5t-30 74.5q0 70 74 122h-48l-48 155h-284l-49 -155h-113l233 690h141l234 -690h-1q-39 -34 -58 -59t-19 -53q0 -25 12.5 -37.5t32.5 -10.5q30 2 49 30zM192 242h230l-113 360h-3z" />
    <glyph glyph-name="aogonek" unicode="&#x105;" horiz-adv-x="532" 
d="M491 -130l52 -36q-37 -57 -102 -57q-46 0 -76 26.5t-30 74.5q0 70 74 122h-26v68q-69 -79 -175 -79q-73 0 -118.5 39.5t-45.5 106.5q0 98 105 146q89 40 234 33v38q0 91 -114 91q-126 0 -126 -89h-93q0 84 62.5 126t151.5 42q93 0 152 -44t59 -132v-346h-1
q-39 -34 -58 -59t-19 -53q0 -25 12.5 -37.5t32.5 -10.5q30 2 49 30zM383 152v96q-106 10 -175 -24q-59 -29 -59 -81q0 -36 25.5 -56t66.5 -19q41 0 79 22t63 62z" />
    <glyph glyph-name="Cacute" unicode="&#x106;" horiz-adv-x="668" 
d="M298 749l108 118h118l-151 -118h-75zM352 -10q-148 0 -231 98t-83 257q0 160 82.5 258t230.5 98q113 0 196.5 -70.5t87.5 -194.5h-98q-9 80 -57.5 125t-127.5 45q-98 0 -154.5 -69t-56.5 -188q0 -122 57.5 -193t155.5 -71q73 0 124.5 47.5t58.5 123.5h98
q-4 -124 -87 -195t-196 -71z" />
    <glyph glyph-name="cacute" unicode="&#x107;" horiz-adv-x="553" 
d="M224 572l108 118h118l-151 -118h-75zM286 -11q-110 0 -178.5 69.5t-68.5 195.5q0 128 68 198t179 70q99 0 163.5 -55.5t70.5 -153.5h-97q-4 60 -40.5 91t-95.5 31q-69 0 -108 -45t-39 -136q0 -89 39 -133t108 -44q58 0 94.5 30t40.5 88h98q-7 -97 -71.5 -151.5
t-162.5 -54.5z" />
    <glyph glyph-name="Cdotaccent" unicode="&#x10a;" horiz-adv-x="668" 
d="M292 766v101h87v-101h-87zM352 -10q-148 0 -231 98t-83 257q0 160 82.5 258t230.5 98q113 0 196.5 -70.5t87.5 -194.5h-98q-9 80 -57.5 125t-127.5 45q-98 0 -154.5 -69t-56.5 -188q0 -122 57.5 -193t155.5 -71q73 0 124.5 47.5t58.5 123.5h98q-4 -124 -87 -195t-196 -71
z" />
    <glyph glyph-name="cdotaccent" unicode="&#x10b;" horiz-adv-x="553" 
d="M218 589v101h87v-101h-87zM286 -11q-110 0 -178.5 69.5t-68.5 195.5q0 128 68 198t179 70q99 0 163.5 -55.5t70.5 -153.5h-97q-4 60 -40.5 91t-95.5 31q-69 0 -108 -45t-39 -136q0 -89 39 -133t108 -44q58 0 94.5 30t40.5 88h98q-7 -97 -71.5 -151.5t-162.5 -54.5z" />
    <glyph glyph-name="Ccaron" unicode="&#x10c;" horiz-adv-x="668" 
d="M315 737l-123 130h82l62 -70l63 70h82l-124 -130h-42zM352 -10q-148 0 -231 98t-83 257q0 160 82.5 258t230.5 98q113 0 196.5 -70.5t87.5 -194.5h-98q-9 80 -57.5 125t-127.5 45q-98 0 -154.5 -69t-56.5 -188q0 -122 57.5 -193t155.5 -71q73 0 124.5 47.5t58.5 123.5h98
q-4 -124 -87 -195t-196 -71z" />
    <glyph glyph-name="ccaron" unicode="&#x10d;" horiz-adv-x="553" 
d="M240 560l-123 130h82l62 -70l63 70h82l-124 -130h-42zM286 -11q-110 0 -178.5 69.5t-68.5 195.5q0 128 68 198t179 70q99 0 163.5 -55.5t70.5 -153.5h-97q-4 60 -40.5 91t-95.5 31q-69 0 -108 -45t-39 -136q0 -89 39 -133t108 -44q58 0 94.5 30t40.5 88h98
q-7 -97 -71.5 -151.5t-162.5 -54.5z" />
    <glyph glyph-name="Dcaron" unicode="&#x10e;" horiz-adv-x="670" 
d="M308 737l-123 130h82l62 -70l63 70h82l-124 -130h-42zM88 0v690h190q172 0 263 -90t91 -259q0 -164 -92 -252.5t-263 -88.5h-189zM193 95h72q261 0 261 251q0 249 -250 249h-83v-500z" />
    <glyph glyph-name="dcaron" unicode="&#x10f;" horiz-adv-x="638" 
d="M430 440v250h101v-690h-99v72q-59 -83 -171 -83q-108 0 -165 73.5t-57 193.5t56.5 193t165.5 73q112 0 169 -82zM587 689h114v-107l-61 -131h-50l39 131h-42v107zM290 76q67 0 105.5 48t38.5 133q0 81 -38.5 128.5t-105.5 47.5q-74 0 -112 -46t-38 -130q0 -88 38 -134.5
t112 -46.5z" />
    <glyph glyph-name="Dcroat" unicode="&#x110;" horiz-adv-x="661" 
d="M78 0v311h-58v74h58v305h188q172 0 264 -90.5t92 -259.5q0 -163 -93.5 -251.5t-263.5 -88.5h-187zM177 93h76q124 0 196.5 62t72.5 190q0 253 -258 253h-87v-213h176v-74h-176v-218z" />
    <glyph glyph-name="dcroat" unicode="&#x111;" horiz-adv-x="607" 
d="M614 641v-46h-83v-595h-99v72q-59 -83 -171 -83q-108 0 -165 73.5t-57 193.5t56.5 193t165.5 73q112 0 169 -82v155h-132v46h132v49h101v-49h83zM290 76q67 0 105.5 48t38.5 133q0 81 -38.5 128.5t-105.5 47.5q-74 0 -112 -46t-38 -130q0 -88 38 -134.5t112 -46.5z" />
    <glyph glyph-name="Emacron" unicode="&#x112;" horiz-adv-x="592" 
d="M182 780v60h269v-60h-269zM88 0v690h454v-91h-349v-208h313v-91h-313v-208h349v-92h-454z" />
    <glyph glyph-name="emacron" unicode="&#x113;" horiz-adv-x="533" 
d="M407 663v-60h-269v60h269zM496 264q0 -21 -2 -37h-360q6 -74 43 -114.5t101 -40.5q54 0 85 27t37 74h87q-12 -89 -68 -136t-135 -47q-116 0 -181 75t-65 189q0 115 60.5 191.5t175.5 76.5q113 0 167.5 -74.5t54.5 -183.5zM272 439q-62 0 -97.5 -36t-40.5 -101h268
q-2 62 -34.5 99.5t-95.5 37.5z" />
    <glyph glyph-name="Edotaccent" unicode="&#x116;" horiz-adv-x="592" 
d="M272 766v101h87v-101h-87zM88 0v690h454v-91h-349v-208h313v-91h-313v-208h349v-92h-454z" />
    <glyph glyph-name="edotaccent" unicode="&#x117;" horiz-adv-x="533" 
d="M315 690v-101h-87v101h87zM496 264q0 -21 -2 -37h-360q6 -74 43 -114.5t101 -40.5q54 0 85 27t37 74h87q-12 -89 -68 -136t-135 -47q-116 0 -181 75t-65 189q0 115 60.5 191.5t175.5 76.5q113 0 167.5 -74.5t54.5 -183.5zM272 439q-62 0 -97.5 -36t-40.5 -101h268
q-2 62 -34.5 99.5t-95.5 37.5z" />
    <glyph glyph-name="Eogonek" unicode="&#x118;" horiz-adv-x="592" 
d="M559 -130l52 -36q-37 -57 -102 -57q-46 0 -76 26.5t-30 74.5q0 70 74 122h-389v690h454v-91h-349v-208h313v-91h-313v-208h349v-92q-39 -34 -58 -59t-19 -53q0 -25 12.5 -37.5t32.5 -10.5q30 2 49 30z" />
    <glyph glyph-name="eogonek" unicode="&#x119;" horiz-adv-x="533" 
d="M496 264q0 -21 -2 -37h-360q6 -74 43 -114.5t101 -40.5q54 0 85 27t37 74h87q-14 -111 -98 -157q-45 -45 -45 -83q0 -25 12.5 -37.5t32.5 -10.5q30 2 49 30l52 -36q-37 -57 -102 -57q-46 0 -76 26.5t-30 74.5q0 35 20 68q-6 -1 -18 -1q-116 0 -181 75t-65 189
q0 115 60.5 191.5t175.5 76.5q113 0 167.5 -74.5t54.5 -183.5zM272 439q-62 0 -97.5 -36t-40.5 -101h268q-2 62 -34.5 99.5t-95.5 37.5z" />
    <glyph glyph-name="Ecaron" unicode="&#x11a;" horiz-adv-x="592" 
d="M294 737l-123 130h82l62 -70l63 70h82l-124 -130h-42zM88 0v690h454v-91h-349v-208h313v-91h-313v-208h349v-92h-454z" />
    <glyph glyph-name="ecaron" unicode="&#x11b;" horiz-adv-x="533" 
d="M293 560h-42l-123 130h82l62 -70l63 70h82zM496 264q0 -21 -2 -37h-360q6 -74 43 -114.5t101 -40.5q54 0 85 27t37 74h87q-12 -89 -68 -136t-135 -47q-116 0 -181 75t-65 189q0 115 60.5 191.5t175.5 76.5q113 0 167.5 -74.5t54.5 -183.5zM272 439q-62 0 -97.5 -36
t-40.5 -101h268q-2 62 -34.5 99.5t-95.5 37.5z" />
    <glyph glyph-name="Gbreve" unicode="&#x11e;" horiz-adv-x="691" 
d="M355 735q-68 0 -109.5 35t-41.5 97h72q0 -33 22.5 -52t56.5 -19t56 19t22 52h73q0 -63 -41.5 -97.5t-109.5 -34.5zM38 347q0 152 83.5 253t237.5 101q129 0 211.5 -72t82.5 -188h-100q-4 81 -57.5 123.5t-137.5 42.5q-108 0 -162 -73t-54 -187t53.5 -187.5t162.5 -73.5
q87 0 141.5 42.5t54.5 123.5h-196v84h295v-84q0 -116 -82.5 -188t-213.5 -72q-153 0 -236 101t-83 254z" />
    <glyph glyph-name="gbreve" unicode="&#x11f;" horiz-adv-x="500" 
d="M247 558q-68 0 -109.5 35t-41.5 97h72q0 -33 22.5 -52t56.5 -19t56 19t22 52h73q0 -63 -41.5 -97.5t-109.5 -34.5zM480 512v-86h-64q23 -40 23 -88q0 -77 -54.5 -126t-137.5 -49q-49 0 -95 23q-26 -28 -26 -50q0 -44 86 -44h118q68 0 105.5 -33t37.5 -97
q0 -148 -218 -148q-106 0 -161 37t-54 116l33 71q-34 28 -34 77q0 37 13.5 61.5t41.5 53.5q-45 47 -45 108q0 79 57 131.5t141 52.5q82 0 138 -56q39 46 95 46zM247 243q42 0 71.5 29t29.5 68q0 43 -29.5 72t-71.5 29q-43 0 -72.5 -29t-29.5 -72q0 -39 30 -68t72 -29zM296 7
h-113q-20 0 -41 3l-14 -33q-10 -41 25 -65t95 -24q128 0 128 64q0 55 -80 55z" />
    <glyph glyph-name="Gdotaccent" unicode="&#x120;" horiz-adv-x="691" 
d="M311 766v101h87v-101h-87zM38 347q0 152 83.5 253t237.5 101q129 0 211.5 -72t82.5 -188h-100q-4 81 -57.5 123.5t-137.5 42.5q-108 0 -162 -73t-54 -187t53.5 -187.5t162.5 -73.5q87 0 141.5 42.5t54.5 123.5h-196v84h295v-84q0 -116 -82.5 -188t-213.5 -72
q-153 0 -236 101t-83 254z" />
    <glyph glyph-name="gdotaccent" unicode="&#x121;" horiz-adv-x="500" 
d="M290 690v-101h-87v101h87zM480 512v-86h-64q23 -40 23 -88q0 -77 -54.5 -126t-137.5 -49q-49 0 -95 23q-26 -28 -26 -50q0 -44 86 -44h118q68 0 105.5 -33t37.5 -97q0 -148 -218 -148q-106 0 -161 37t-54 116l33 71q-34 28 -34 77q0 37 13.5 61.5t41.5 53.5
q-45 47 -45 108q0 79 57 131.5t141 52.5q82 0 138 -56q39 46 95 46zM247 243q42 0 71.5 29t29.5 68q0 43 -29.5 72t-71.5 29q-43 0 -72.5 -29t-29.5 -72q0 -39 30 -68t72 -29zM296 7h-113q-20 0 -41 3l-14 -33q-10 -41 25 -65t95 -24q128 0 128 64q0 55 -80 55z" />
    <glyph glyph-name="Gcommaaccent" unicode="&#x122;" horiz-adv-x="691" 
d="M38 347q0 152 83.5 253t237.5 101q129 0 211.5 -72t82.5 -188h-100q-4 81 -57.5 123.5t-137.5 42.5q-108 0 -162 -73t-54 -187t53.5 -187.5t162.5 -73.5q87 0 141.5 42.5t54.5 123.5h-196v84h295v-84q0 -116 -82.5 -188t-213.5 -72q-153 0 -236 101t-83 254zM241 -216
l63 148h113l-116 -148h-60z" />
    <glyph glyph-name="gcommaaccent" unicode="&#x123;" horiz-adv-x="500" 
d="M373 690l-63 -132h-113l116 132h60zM480 512v-86h-64q23 -40 23 -88q0 -77 -54.5 -126t-137.5 -49q-49 0 -95 23q-26 -28 -26 -50q0 -44 86 -44h118q68 0 105.5 -33t37.5 -97q0 -148 -218 -148q-106 0 -161 37t-54 116l33 71q-34 28 -34 77q0 37 13.5 61.5t41.5 53.5
q-45 47 -45 108q0 79 57 131.5t141 52.5q82 0 138 -56q39 46 95 46zM247 243q42 0 71.5 29t29.5 68q0 43 -29.5 72t-71.5 29q-43 0 -72.5 -29t-29.5 -72q0 -39 30 -68t72 -29zM296 7h-113q-20 0 -41 3l-14 -33q-10 -41 25 -65t95 -24q128 0 128 64q0 55 -80 55z" />
    <glyph glyph-name="Hbar" unicode="&#x126;" horiz-adv-x="707" 
d="M669 567v-46h-50v-521h-105v298h-321v-298h-105v521h-50v46h50v122h105v-122h321v122h105v-122h50zM514 392v129h-321v-129h321z" />
    <glyph glyph-name="hbar" unicode="&#x127;" 
d="M334 522q80 0 125.5 -51t45.5 -136v-335h-100v320q0 116 -100 116q-56 0 -92 -38.5t-36 -95.5v-302h-101v572h-81v46h81v72h101v-72h134v-46h-134v-125q23 35 65.5 55t91.5 20z" />
    <glyph glyph-name="Itilde" unicode="&#x128;" horiz-adv-x="281" 
d="M-36 748q0 58 24.5 89t72.5 31q35 0 61.5 -17t47.5 -34.5t42 -17.5q44 0 44 68h62q0 -62 -26.5 -93.5t-73.5 -31.5q-34 0 -60.5 17t-48 34t-41.5 17q-43 0 -43 -62h-61zM88 0v690h105v-690h-105z" />
    <glyph glyph-name="itilde" unicode="&#x129;" horiz-adv-x="255" 
d="M-50 571q0 58 24.5 89t72.5 31q35 0 61.5 -17.5t47.5 -34.5t42 -17q44 0 44 68h62q0 -62 -26.5 -93.5t-73.5 -31.5q-34 0 -60.5 17t-48 34t-41.5 17q-43 0 -43 -62h-61zM77 0v512h101v-512h-101z" />
    <glyph glyph-name="Imacron" unicode="&#x12a;" horiz-adv-x="281" 
d="M7 780v60h269v-60h-269zM88 0v690h105v-690h-105z" />
    <glyph glyph-name="imacron" unicode="&#x12b;" horiz-adv-x="255" 
d="M-7 603v60h269v-60h-269zM77 0v512h101v-512h-101z" />
    <glyph glyph-name="Iogonek" unicode="&#x12e;" horiz-adv-x="281" 
d="M210 -130l52 -36q-37 -57 -102 -57q-46 0 -76 26.5t-30 74.5q0 70 74 122h-40v690h105v-690q-39 -34 -58 -59t-19 -53q0 -25 12.5 -37.5t32.5 -10.5q30 2 49 30z" />
    <glyph glyph-name="iogonek" unicode="&#x12f;" horiz-adv-x="261" 
d="M185 690v-102h-109v102h109zM192 -130l52 -36q-37 -57 -102 -57q-46 0 -76 26.5t-30 74.5q0 70 74 122h-30v512h101v-512h-6q-39 -34 -58 -59t-19 -53q0 -25 12.5 -37.5t32.5 -10.5q30 2 49 30z" />
    <glyph glyph-name="Idotaccent" unicode="&#x130;" horiz-adv-x="281" 
d="M97 766v101h87v-101h-87zM88 0v690h105v-690h-105z" />
    <glyph glyph-name="dotlessi" unicode="&#x131;" horiz-adv-x="255" 
d="M77 0v512h101v-512h-101z" />
    <glyph glyph-name="Kcommaaccent" unicode="&#x136;" horiz-adv-x="646" 
d="M336 390l306 -390h-134l-240 317l-75 -80v-237h-105v689h105v-322l288 322h133zM227 -216l63 148h113l-116 -148h-60z" />
    <glyph glyph-name="kcommaaccent" unicode="&#x137;" horiz-adv-x="532" 
d="M307 307l236 -307h-121l-180 244l-65 -64v-180h-101v690h101v-391l216 213h124zM175 -216l63 148h113l-116 -148h-60z" />
    <glyph glyph-name="kgreenlandic" unicode="&#x138;" horiz-adv-x="532" 
d="M419 0l-179 242l-63 -62v-180h-101v512h101v-212l213 212h127l-210 -205l236 -307h-124z" />
    <glyph glyph-name="Lacute" unicode="&#x139;" horiz-adv-x="497" 
d="M108 750l108 118h118l-151 -118h-75zM88 0v690h105v-599h295v-91h-400z" />
    <glyph glyph-name="lacute" unicode="&#x13a;" horiz-adv-x="255" 
d="M90 750l108 118h118l-151 -118h-75zM77 0v690h101v-690h-101z" />
    <glyph glyph-name="Lcommaaccent" unicode="&#x13b;" horiz-adv-x="497" 
d="M88 0v690h105v-599h295v-91h-400zM149 -216l63 148h113l-116 -148h-60z" />
    <glyph glyph-name="lcommaaccent" unicode="&#x13c;" horiz-adv-x="255" 
d="M77 0v690h101v-690h-101zM8 -216l63 148h113l-116 -148h-60z" />
    <glyph glyph-name="Lcaron" unicode="&#x13d;" horiz-adv-x="497" 
d="M193 690v-599h295v-91h-400v690h105zM365 690h125v-119l-67 -145h-56l43 145h-45v119z" />
    <glyph glyph-name="lcaron" unicode="&#x13e;" horiz-adv-x="327" 
d="M77 0v690h101v-690h-101zM244 690h125v-119l-67 -145h-56l43 145h-45v119z" />
    <glyph glyph-name="Lslash" unicode="&#x141;" horiz-adv-x="497" 
d="M193 91h295v-91h-400v229l-63 -49v89l63 50v371h105v-287l126 100v-93l-126 -99v-220z" />
    <glyph glyph-name="lslash" unicode="&#x142;" horiz-adv-x="255" 
d="M308 545v-95l-130 -101v-349h-101v270l-70 -55v91l70 56v328h101v-248z" />
    <glyph glyph-name="Nacute" unicode="&#x143;" horiz-adv-x="738" 
d="M331 749l108 118h118l-151 -118h-75zM88 0v690h129l324 -551h4v551h106v-690h-132l-322 554h-4v-554h-105z" />
    <glyph glyph-name="nacute" unicode="&#x144;" 
d="M245 574l108 118h118l-151 -118h-75zM76 0v512h100v-67q52 77 156 77q79 0 126 -50.5t47 -136.5v-335h-100v314q0 121 -99 121q-58 0 -93.5 -37.5t-35.5 -101.5v-296h-101z" />
    <glyph glyph-name="Ncommaaccent" unicode="&#x145;" horiz-adv-x="738" 
d="M88 0v690h129l324 -551h4v551h106v-690h-132l-322 554h-4v-554h-105zM249 -216l63 148h113l-116 -148h-60z" />
    <glyph glyph-name="ncommaaccent" unicode="&#x146;" 
d="M76 0v512h100v-67q52 77 156 77q79 0 126 -50.5t47 -136.5v-335h-100v314q0 121 -99 121q-58 0 -93.5 -37.5t-35.5 -101.5v-296h-101zM171 -216l63 148h113l-116 -148h-60z" />
    <glyph glyph-name="Ncaron" unicode="&#x147;" horiz-adv-x="738" 
d="M348 737l-123 130h82l62 -70l63 70h82l-124 -130h-42zM88 0v690h129l324 -551h4v551h106v-690h-132l-322 554h-4v-554h-105z" />
    <glyph glyph-name="ncaron" unicode="&#x148;" 
d="M261 562l-123 130h82l62 -70l63 70h82l-124 -130h-42zM76 0v512h100v-67q52 77 156 77q79 0 126 -50.5t47 -136.5v-335h-100v314q0 121 -99 121q-58 0 -93.5 -37.5t-35.5 -101.5v-296h-101z" />
    <glyph glyph-name="Eng" unicode="&#x14a;" horiz-adv-x="738" 
d="M545 690h106v-690q0 -34 -3.5 -54.5t-15.5 -43t-39.5 -33t-71.5 -10.5h-68v67h34q22 0 35.5 6.5t19 19.5t6.5 22.5t1 25.5h-30l-322 554h-4v-554h-105v690h129l324 -551h4v551z" />
    <glyph glyph-name="eng" unicode="&#x14b;" horiz-adv-x="575" 
d="M303 -141v70h29q72 0 72 72v279q0 53 -23.5 88.5t-75.5 35.5q-55 0 -93 -39t-38 -95v-270h-100v488h98v-79h7q48 87 154 87q87 0 129 -57.5t42 -142.5v-296q0 -18 -1 -30.5t-9 -35.5t-22.5 -37.5t-44.5 -26t-72 -11.5h-52z" />
    <glyph glyph-name="Omacron" unicode="&#x14c;" horiz-adv-x="714" 
d="M222 780v60h269v-60h-269zM357 -10q-148 0 -233.5 96t-85.5 259t85.5 259t233.5 96q147 0 233 -96t86 -259t-86 -259t-233 -96zM357 84q98 0 154.5 69t56.5 192q0 125 -56.5 193t-154.5 68t-154.5 -68t-56.5 -193q0 -123 56.5 -192t154.5 -69z" />
    <glyph glyph-name="omacron" unicode="&#x14d;" 
d="M152 603v60h269v-60h-269zM286 -11q-110 0 -178.5 69.5t-68.5 195.5q0 128 68 198t179 70t179.5 -70t68.5 -198q0 -126 -68.5 -195.5t-179.5 -69.5zM287 77q69 0 109 44t40 133q0 91 -40 136t-109 45t-108 -45t-39 -136q0 -89 39 -133t108 -44z" />
    <glyph glyph-name="Ohungarumlaut" unicode="&#x150;" horiz-adv-x="714" 
d="M216 753l103 114h103l-124 -114h-82zM388 753l103 114h112l-133 -114h-82zM357 -10q-148 0 -233.5 96t-85.5 259t85.5 259t233.5 96q147 0 233 -96t86 -259t-86 -259t-233 -96zM357 84q98 0 154.5 69t56.5 192q0 125 -56.5 193t-154.5 68t-154.5 -68t-56.5 -193
q0 -123 56.5 -192t154.5 -69z" />
    <glyph glyph-name="ohungarumlaut" unicode="&#x151;" 
d="M146 576l103 114h103l-124 -114h-82zM318 576l103 114h112l-133 -114h-82zM286 -11q-110 0 -178.5 69.5t-68.5 195.5q0 128 68 198t179 70t179.5 -70t68.5 -198q0 -126 -68.5 -195.5t-179.5 -69.5zM287 77q69 0 109 44t40 133q0 91 -40 136t-109 45t-108 -45t-39 -136
q0 -89 39 -133t108 -44z" />
    <glyph glyph-name="OE" unicode="&#x152;" horiz-adv-x="1092" 
d="M1042 599h-350v-208h313v-91h-313v-208h350v-92h-455v82q-86 -92 -230 -92q-148 0 -233.5 96t-85.5 259t85.5 259t233.5 96q144 0 230 -92v82h455v-91zM357 84q98 0 154.5 69t56.5 192q0 125 -56.5 193t-154.5 68t-154.5 -68t-56.5 -193q0 -123 56.5 -192t154.5 -69z" />
    <glyph glyph-name="oe" unicode="&#x153;" horiz-adv-x="945" 
d="M898 264q0 -21 -2 -37h-360q6 -74 43 -114.5t101 -40.5q54 0 85 27t37 74h86q-11 -89 -67 -136t-136 -47q-129 0 -197 96q-67 -97 -202 -97q-110 0 -178.5 69.5t-68.5 195.5q0 128 68 198t179 70q133 0 200 -96q65 96 190 96q77 0 128.5 -38.5t72.5 -94.5t21 -125z
M674 439q-62 0 -97.5 -36t-40.5 -101h267q-2 63 -34 100t-95 37zM287 77q69 0 109 44t40 133q0 91 -40 136t-109 45t-108 -45t-39 -136q0 -89 39 -133t108 -44z" />
    <glyph glyph-name="Racute" unicode="&#x154;" horiz-adv-x="649" 
d="M501 867l-151 -118h-75l108 118h118zM621 -1h-118l-129 259h-181v-258h-105v690h296q108 0 170 -58.5t62 -161.5q0 -76 -36 -127.5t-103 -71.5zM193 598v-250h186q132 0 132 122q0 61 -33.5 94.5t-98.5 33.5h-186z" />
    <glyph glyph-name="racute" unicode="&#x155;" horiz-adv-x="353" 
d="M174 572l108 118h118l-151 -118h-75zM76 0v512h99v-69q37 77 120 77q22 0 51 -8v-93h-14q-26 8 -45 8q-51 0 -80.5 -38.5t-29.5 -96.5v-292h-101z" />
    <glyph glyph-name="Rcommaaccent" unicode="&#x156;" horiz-adv-x="649" 
d="M477 271l144 -272h-118l-129 259h-181v-258h-105v690h296q108 0 170 -58.5t62 -161.5q0 -76 -36 -127.5t-103 -71.5zM193 598v-250h186q132 0 132 122q0 61 -33.5 94.5t-98.5 33.5h-186zM210 -216l63 148h113l-116 -148h-60z" />
    <glyph glyph-name="rcommaaccent" unicode="&#x157;" horiz-adv-x="353" 
d="M76 0v512h99v-69q37 77 120 77q22 0 51 -8v-93h-14q-26 8 -45 8q-51 0 -80.5 -38.5t-29.5 -96.5v-292h-101zM6 -216l63 148h113l-116 -148h-60z" />
    <glyph glyph-name="Rcaron" unicode="&#x158;" horiz-adv-x="649" 
d="M334 737h-42l-123 130h82l62 -70l63 70h82zM621 -1h-118l-129 259h-181v-258h-105v690h296q108 0 170 -58.5t62 -161.5q0 -76 -36 -127.5t-103 -71.5zM193 598v-250h186q132 0 132 122q0 61 -33.5 94.5t-98.5 33.5h-186z" />
    <glyph glyph-name="rcaron" unicode="&#x159;" horiz-adv-x="353" 
d="M190 560l-123 130h82l62 -70l63 70h82l-124 -130h-42zM76 0v512h99v-69q37 77 120 77q22 0 51 -8v-93h-14q-26 8 -45 8q-51 0 -80.5 -38.5t-29.5 -96.5v-292h-101z" />
    <glyph glyph-name="Sacute" unicode="&#x15a;" horiz-adv-x="552" 
d="M230 749l108 118h118l-151 -118h-75zM289 -8q-49 0 -93 12.5t-84 38.5t-64 75t-24 114h107q0 -76 44.5 -112t114.5 -36q56 0 89.5 26.5t33.5 73.5q0 22 -10 40.5t-21 29.5t-38.5 25t-40.5 19l-50 19q-39 14 -58.5 22t-53 26.5t-50 36.5t-30 48t-13.5 67q0 85 60 134
t159 49q102 0 167.5 -49t65.5 -150h-106q1 58 -34 85t-93 27q-51 0 -81.5 -23t-30.5 -63q0 -18 9 -34t20 -26.5t34 -22.5t38.5 -18.5t46.5 -18.5q100 -39 135 -63q83 -56 83 -150q0 -92 -63.5 -147t-168.5 -55z" />
    <glyph glyph-name="sacute" unicode="&#x15b;" horiz-adv-x="476" 
d="M194 572l108 118h118l-151 -118h-75zM266 -11q-105 0 -163 40q-69 48 -69 144h92q0 -57 34 -83q31 -24 94 -24q41 1 67.5 20t26.5 56q0 19 -8.5 32.5t-27.5 22.5t-36.5 14.5t-48.5 12.5q-6 1 -9 2q-33 8 -51 13t-45 16.5t-41 25t-25 36.5t-11 52q0 74 51.5 113.5
t137.5 39.5q83 0 132 -34q69 -46 69 -134h-88q0 50 -33 72q-30 20 -79 19q-43 0 -70 -18t-27 -49q0 -29 29 -43.5t92 -29.5q12 -3 18 -4q39 -10 63.5 -18.5t51.5 -25t40 -42.5t13 -63q0 -77 -51 -120t-128 -43z" />
    <glyph glyph-name="Scedilla" unicode="&#x15e;" horiz-adv-x="552" 
d="M521 194q0 -90 -61 -145t-162 -57l-35 -53q90 -25 90 -93q0 -43 -29 -67t-70 -24q-35 0 -61 18t-37 46l52 26q13 -35 49 -35q13 0 23.5 8.5t11.5 25.5q2 38 -39 52l-65 19l44 81q-42 7 -77.5 23t-65.5 43t-47.5 71t-17.5 99h107q0 -76 44.5 -112t114.5 -36
q56 0 89.5 26.5t33.5 73.5q0 22 -10 40.5t-21 29.5t-38.5 25t-40.5 19l-50 19q-39 14 -58.5 22t-53 26.5t-50 36.5t-30 48t-13.5 67q0 85 60 134t159 49q102 0 167.5 -49t65.5 -150h-106q1 58 -34 85t-93 27q-51 0 -81.5 -23t-30.5 -63q0 -18 9 -34t20 -26.5t34 -22.5
t38.5 -18.5t46.5 -18.5q100 -39 135 -63q83 -56 83 -150z" />
    <glyph glyph-name="scedilla" unicode="&#x15f;" horiz-adv-x="476" 
d="M445 152q0 -72 -45 -114.5t-116 -47.5l-32 -50q90 -25 90 -93q0 -43 -29 -67t-70 -24q-35 0 -61 18t-37 46l52 26q13 -35 49 -35q13 0 23.5 8.5t11.5 25.5q2 38 -39 52l-65 19l40 76q-71 6 -114 37q-69 48 -69 144h92q0 -57 34 -83q31 -24 94 -24q41 1 67.5 20t26.5 56
q0 19 -8.5 32.5t-27.5 22.5t-36.5 14.5t-48.5 12.5q-6 1 -9 2q-33 8 -51 13t-45 16.5t-41 25t-25 36.5t-11 52q0 74 51.5 113.5t137.5 39.5q83 0 132 -34q69 -46 69 -134h-88q0 50 -33 72q-30 20 -79 19q-43 0 -70 -18t-27 -49q0 -29 29 -43.5t92 -29.5q12 -3 18 -4
q39 -10 63.5 -18.5t51.5 -25t40 -42.5t13 -63z" />
    <glyph glyph-name="Scaron" unicode="&#x160;" horiz-adv-x="552" 
d="M247 737l-123 130h82l62 -70l63 70h82l-124 -130h-42zM289 -8q-49 0 -93 12.5t-84 38.5t-64 75t-24 114h107q0 -76 44.5 -112t114.5 -36q56 0 89.5 26.5t33.5 73.5q0 22 -10 40.5t-21 29.5t-38.5 25t-40.5 19l-50 19q-39 14 -58.5 22t-53 26.5t-50 36.5t-30 48t-13.5 67
q0 85 60 134t159 49q102 0 167.5 -49t65.5 -150h-106q1 58 -34 85t-93 27q-51 0 -81.5 -23t-30.5 -63q0 -18 9 -34t20 -26.5t34 -22.5t38.5 -18.5t46.5 -18.5q100 -39 135 -63q83 -56 83 -150q0 -92 -63.5 -147t-168.5 -55z" />
    <glyph glyph-name="scaron" unicode="&#x161;" horiz-adv-x="476" 
d="M211 560l-123 130h82l62 -70l63 70h82l-124 -130h-42zM266 -11q-105 0 -163 40q-69 48 -69 144h92q0 -57 34 -83q31 -24 94 -24q41 1 67.5 20t26.5 56q0 19 -8.5 32.5t-27.5 22.5t-36.5 14.5t-48.5 12.5q-6 1 -9 2q-33 8 -51 13t-45 16.5t-41 25t-25 36.5t-11 52
q0 74 51.5 113.5t137.5 39.5q83 0 132 -34q69 -46 69 -134h-88q0 50 -33 72q-30 20 -79 19q-43 0 -70 -18t-27 -49q0 -29 29 -43.5t92 -29.5q12 -3 18 -4q39 -10 63.5 -18.5t51.5 -25t40 -42.5t13 -63q0 -77 -51 -120t-128 -43z" />
    <glyph glyph-name="uni0162" unicode="&#x162;" horiz-adv-x="569" 
d="M337 0h-17l-39 -60q90 -25 90 -93q0 -43 -29 -67t-70 -24q-35 0 -61 18t-37 46l52 26q13 -35 49 -35q13 0 23.5 8.5t11.5 25.5q2 38 -39 52l-65 19l45 84h-19v599h-224v91h552v-91h-223v-599z" />
    <glyph glyph-name="uni0163" unicode="&#x163;" horiz-adv-x="333" 
d="M221 -53q90 -25 90 -93q0 -43 -29 -67t-70 -24q-35 0 -61 18t-37 46l52 26q13 -35 49 -35q13 0 23.5 8.5t11.5 25.5q2 38 -39 52l-65 19l42 79q-99 14 -99 132v302h-75v76h75v118h100v-118h119v-76h-119v-279q0 -42 15 -59t51 -17h53v-81h-53z" />
    <glyph glyph-name="Tcaron" unicode="&#x164;" horiz-adv-x="569" 
d="M262 737l-123 130h82l62 -70l63 70h82l-124 -130h-42zM232 0v599h-224v91h552v-91h-223v-599h-105z" />
    <glyph glyph-name="tcaron" unicode="&#x165;" horiz-adv-x="333" 
d="M276 824h125v-119l-67 -145h-56l43 145h-45v119zM189 630v-118h119v-76h-119v-279q0 -42 15 -59t51 -17h53v-81h-91q-128 0 -128 134v302h-75v76h75v118h100z" />
    <glyph glyph-name="Tbar" unicode="&#x166;" horiz-adv-x="569" 
d="M560 599h-223v-231h104v-46h-104v-322h-105v322h-107v46h107v231h-224v91h552v-91z" />
    <glyph glyph-name="tbar" unicode="&#x167;" horiz-adv-x="333" 
d="M308 436h-119v-157h116v-46h-116v-76q0 -42 15 -59t51 -17h53v-81h-91q-128 0 -128 134v99h-72v46h72v157h-75v76h75v118h100v-118h119v-76z" />
    <glyph glyph-name="Utilde" unicode="&#x168;" horiz-adv-x="668" 
d="M157 748q0 58 24.5 89t72.5 31q35 0 61.5 -17t47.5 -34.5t42 -17.5q44 0 44 68h62q0 -62 -26.5 -93.5t-73.5 -31.5q-34 0 -60.5 17t-48 34t-41.5 17q-43 0 -43 -62h-61zM334 -10q-122 0 -188.5 68.5t-66.5 190.5v441h106v-445q0 -74 39.5 -116.5t109.5 -42.5t109.5 42.5
t39.5 116.5v445h106v-436q0 -125 -66.5 -194.5t-188.5 -69.5z" />
    <glyph glyph-name="utilde" unicode="&#x169;" 
d="M105 571q0 58 24.5 89t72.5 31q35 0 61.5 -17.5t47.5 -34.5t42 -17q44 0 44 68h62q0 -62 -26.5 -93.5t-73.5 -31.5q-34 0 -60.5 17t-48 34t-41.5 17q-43 0 -43 -62h-61zM244 -9q-82 0 -129 51t-47 136v334h101v-315q0 -116 100 -116q58 0 93 37.5t35 96.5v297h101v-512
h-100v68q-56 -77 -154 -77z" />
    <glyph glyph-name="Umacron" unicode="&#x16a;" horiz-adv-x="668" 
d="M200 780v60h269v-60h-269zM334 -10q-122 0 -188.5 68.5t-66.5 190.5v441h106v-445q0 -74 39.5 -116.5t109.5 -42.5t109.5 42.5t39.5 116.5v445h106v-436q0 -125 -66.5 -194.5t-188.5 -69.5z" />
    <glyph glyph-name="umacron" unicode="&#x16b;" 
d="M149 603v60h269v-60h-269zM244 -9q-82 0 -129 51t-47 136v334h101v-315q0 -116 100 -116q58 0 93 37.5t35 96.5v297h101v-512h-100v68q-56 -77 -154 -77z" />
    <glyph glyph-name="Uring" unicode="&#x16e;" horiz-adv-x="668" 
d="M333 731q-43 0 -72 29.5t-29 72.5q0 41 29.5 70.5t71.5 29.5t72 -29t30 -71q0 -43 -29.5 -72.5t-72.5 -29.5zM333 780q23 0 38 15t15 38q0 22 -14.5 36.5t-38.5 14.5q-23 0 -37 -14t-14 -37t14.5 -38t36.5 -15zM334 -10q-122 0 -188.5 68.5t-66.5 190.5v441h106v-445
q0 -74 39.5 -116.5t109.5 -42.5t109.5 42.5t39.5 116.5v445h106v-436q0 -125 -66.5 -194.5t-188.5 -69.5z" />
    <glyph glyph-name="uring" unicode="&#x16f;" 
d="M281 554q-43 0 -72 29.5t-29 72.5q0 41 29.5 70.5t71.5 29.5t72 -29t30 -71q0 -43 -29.5 -72.5t-72.5 -29.5zM281 603q23 0 38 15.5t15 37.5t-14.5 36.5t-38.5 14.5q-23 0 -37 -14t-14 -37t14.5 -38t36.5 -15zM244 -9q-82 0 -129 51t-47 136v334h101v-315
q0 -116 100 -116q58 0 93 37.5t35 96.5v297h101v-512h-100v68q-56 -77 -154 -77z" />
    <glyph glyph-name="Uhungarumlaut" unicode="&#x170;" horiz-adv-x="668" 
d="M194 753l103 114h103l-124 -114h-82zM366 753l103 114h112l-133 -114h-82zM334 -10q-122 0 -188.5 68.5t-66.5 190.5v441h106v-445q0 -74 39.5 -116.5t109.5 -42.5t109.5 42.5t39.5 116.5v445h106v-436q0 -125 -66.5 -194.5t-188.5 -69.5z" />
    <glyph glyph-name="uhungarumlaut" unicode="&#x171;" 
d="M142 576l103 114h103l-124 -114h-82zM314 576l103 114h112l-133 -114h-82zM244 -9q-82 0 -129 51t-47 136v334h101v-315q0 -116 100 -116q58 0 93 37.5t35 96.5v297h101v-512h-100v68q-56 -77 -154 -77z" />
    <glyph glyph-name="Uogonek" unicode="&#x172;" horiz-adv-x="668" 
d="M491 33q-64 -57 -64 -101q0 -25 12.5 -37.5t32.5 -10.5q30 2 49 30l52 -36q-37 -57 -102 -57q-46 0 -76 26.5t-30 74.5q0 38 23 72q-23 -4 -54 -4q-122 0 -188.5 68.5t-66.5 190.5v441h106v-445q0 -74 39.5 -116.5t109.5 -42.5t109.5 42.5t39.5 116.5v445h106v-436
q0 -155 -98 -221z" />
    <glyph glyph-name="uogonek" unicode="&#x173;" 
d="M516 -130l52 -36q-37 -57 -102 -57q-46 0 -76 26.5t-30 74.5q0 70 74 122h-36v68q-56 -77 -154 -77q-82 0 -129 51t-47 136v334h101v-315q0 -116 100 -116q58 0 93 37.5t35 96.5v297h101v-512h1q-39 -34 -58 -59t-19 -53q0 -25 12.5 -37.5t32.5 -10.5q30 2 49 30z" />
    <glyph glyph-name="Wcircumflex" unicode="&#x174;" horiz-adv-x="918" 
d="M315 738l122 130h43l124 -130h-82l-63 72l-63 -72h-81zM173 0l-165 690h109l130 -594l149 594h125l149 -594l130 594h109l-165 -690h-143l-143 572l-142 -572h-143z" />
    <glyph glyph-name="wcircumflex" unicode="&#x175;" horiz-adv-x="748" 
d="M374 632l-63 -72h-81l122 130h43l124 -130h-82zM628 512h109l-121 -512h-139l-104 380l-103 -381h-139l-120 513h109l84 -435l123 435h92l124 -436z" />
    <glyph glyph-name="Ycircumflex" unicode="&#x176;" horiz-adv-x="665" 
d="M188 737l122 130h43l124 -130h-82l-63 72l-63 -72h-81zM279 0v269l-277 421h121l209 -325l209 325h122l-279 -421v-269h-105z" />
    <glyph glyph-name="ycircumflex" unicode="&#x177;" horiz-adv-x="498" 
d="M106 560l122 130h43l124 -130h-82l-63 72l-63 -72h-81zM34 -178v84q55 -1 91 13.5t50 32t29 48.5l-195 512h110l133 -390l132 390h110l-202 -532q-37 -97 -96.5 -127.5t-161.5 -30.5z" />
    <glyph glyph-name="Ydieresis" unicode="&#x178;" horiz-adv-x="665" 
d="M202 764v103h91v-103h-91zM371 764v103h90v-103h-90zM279 0v269l-277 421h121l209 -325l209 325h122l-279 -421v-269h-105z" />
    <glyph glyph-name="Zacute" unicode="&#x179;" horiz-adv-x="580" 
d="M480 867l-151 -118h-75l108 118h118zM563 690v-80l-413 -519h413v-91h-546v76l416 523h-394v91h524z" />
    <glyph glyph-name="zacute" unicode="&#x17a;" horiz-adv-x="468" 
d="M422 690l-151 -118h-75l108 118h118zM441 512v-79l-285 -349h283v-84h-411v73l292 356h-284v83h405z" />
    <glyph glyph-name="Zdotaccent" unicode="&#x17b;" horiz-adv-x="580" 
d="M334 867v-101h-87v101h87zM563 690v-80l-413 -519h413v-91h-546v76l416 523h-394v91h524z" />
    <glyph glyph-name="zdotaccent" unicode="&#x17c;" horiz-adv-x="468" 
d="M277 690v-101h-87v101h87zM441 512v-79l-285 -349h283v-84h-411v73l292 356h-284v83h405z" />
    <glyph glyph-name="Zcaron" unicode="&#x17d;" horiz-adv-x="580" 
d="M312 737h-42l-123 130h82l62 -70l63 70h82zM563 690v-80l-413 -519h413v-91h-546v76l416 523h-394v91h524z" />
    <glyph glyph-name="zcaron" unicode="&#x17e;" horiz-adv-x="468" 
d="M254 560h-42l-123 130h82l62 -70l63 70h82zM441 512v-79l-285 -349h283v-84h-411v73l292 356h-284v83h405z" />
    <glyph glyph-name="florin" unicode="&#x192;" horiz-adv-x="483" 
d="M20 -223v86q91 0 128 32t37 113v395h-87v85h87v68q0 68 37.5 109.5t106.5 41.5q63 0 103.5 -34.5t40.5 -116.5h-81q0 37 -17 54.5t-45 17.5q-60 0 -60 -74v-66h149v-85h-149v-395q0 -112 -65 -171.5t-185 -59.5z" />
    <glyph glyph-name="uni01CD" unicode="&#x1cd;" horiz-adv-x="612" 
d="M328 737h-42l-123 130h82l62 -70l63 70h82zM497 0l-48 155h-284l-49 -155h-113l233 690h141l234 -690h-114zM192 242h230l-113 360h-3z" />
    <glyph glyph-name="uni01CE" unicode="&#x1ce;" horiz-adv-x="532" 
d="M245 560l-123 130h82l62 -70l63 70h82l-124 -130h-42zM208 -11q-73 0 -118.5 39.5t-45.5 106.5q0 98 105 146q89 40 234 33v38q0 91 -114 91q-126 0 -126 -89h-93q0 84 62.5 126t151.5 42q93 0 152 -44t59 -132v-346h-92v68q-69 -79 -175 -79zM241 68q41 0 79 22t63 62
v96q-106 10 -175 -24q-59 -29 -59 -81q0 -36 25.5 -56t66.5 -19z" />
    <glyph glyph-name="uni01CF" unicode="&#x1cf;" horiz-adv-x="281" 
d="M120 737l-123 130h82l62 -70l63 70h82l-124 -130h-42zM88 0v690h105v-690h-105z" />
    <glyph glyph-name="uni01D0" unicode="&#x1d0;" horiz-adv-x="255" 
d="M106 560l-123 130h82l62 -70l63 70h82l-124 -130h-42zM77 0v512h101v-512h-101z" />
    <glyph glyph-name="uni01D1" unicode="&#x1d1;" horiz-adv-x="714" 
d="M335 737l-123 130h82l62 -70l63 70h82l-124 -130h-42zM357 -10q-148 0 -233.5 96t-85.5 259t85.5 259t233.5 96q147 0 233 -96t86 -259t-86 -259t-233 -96zM357 84q98 0 154.5 69t56.5 192q0 125 -56.5 193t-154.5 68t-154.5 -68t-56.5 -193q0 -123 56.5 -192t154.5 -69z
" />
    <glyph glyph-name="uni01D2" unicode="&#x1d2;" 
d="M265 560l-123 130h82l62 -70l63 70h82l-124 -130h-42zM286 -11q-110 0 -178.5 69.5t-68.5 195.5q0 128 68 198t179 70t179.5 -70t68.5 -198q0 -126 -68.5 -195.5t-179.5 -69.5zM287 77q69 0 109 44t40 133q0 91 -40 136t-109 45t-108 -45t-39 -136q0 -89 39 -133t108 -44
z" />
    <glyph glyph-name="uni01D3" unicode="&#x1d3;" horiz-adv-x="668" 
d="M313 737l-123 130h82l62 -70l63 70h82l-124 -130h-42zM334 -10q-122 0 -188.5 68.5t-66.5 190.5v441h106v-445q0 -74 39.5 -116.5t109.5 -42.5t109.5 42.5t39.5 116.5v445h106v-436q0 -125 -66.5 -194.5t-188.5 -69.5z" />
    <glyph glyph-name="uni01D4" unicode="&#x1d4;" 
d="M261 560l-123 130h82l62 -70l63 70h82l-124 -130h-42zM244 -9q-82 0 -129 51t-47 136v334h101v-315q0 -116 100 -116q58 0 93 37.5t35 96.5v297h101v-512h-100v68q-56 -77 -154 -77z" />
    <glyph glyph-name="uni01D5" unicode="&#x1d5;" horiz-adv-x="668" 
d="M200 958v60h269v-60h-269zM204 764v103h91v-103h-91zM373 764v103h90v-103h-90zM334 -10q-122 0 -188.5 68.5t-66.5 190.5v441h106v-445q0 -74 39.5 -116.5t109.5 -42.5t109.5 42.5t39.5 116.5v445h106v-436q0 -125 -66.5 -194.5t-188.5 -69.5z" />
    <glyph glyph-name="uni01D6" unicode="&#x1d6;" 
d="M149 781v60h269v-60h-269zM153 587v103h91v-103h-91zM322 587v103h90v-103h-90zM244 -9q-82 0 -129 51t-47 136v334h101v-315q0 -116 100 -116q58 0 93 37.5t35 96.5v297h101v-512h-100v68q-56 -77 -154 -77z" />
    <glyph glyph-name="uni01D7" unicode="&#x1d7;" horiz-adv-x="668" 
d="M297 927l108 118h118l-151 -118h-75zM204 764v103h91v-103h-91zM373 764v103h90v-103h-90zM334 -10q-122 0 -188.5 68.5t-66.5 190.5v441h106v-445q0 -74 39.5 -116.5t109.5 -42.5t109.5 42.5t39.5 116.5v445h106v-436q0 -125 -66.5 -194.5t-188.5 -69.5z" />
    <glyph glyph-name="uni01D8" unicode="&#x1d8;" 
d="M245 750l108 118h118l-151 -118h-75zM153 587v103h91v-103h-91zM322 587v103h90v-103h-90zM244 -9q-82 0 -129 51t-47 136v334h101v-315q0 -116 100 -116q58 0 93 37.5t35 96.5v297h101v-512h-100v68q-56 -77 -154 -77z" />
    <glyph glyph-name="uni01D9" unicode="&#x1d9;" horiz-adv-x="668" 
d="M313 915l-123 130h82l62 -70l63 70h82l-124 -130h-42zM204 764v103h91v-103h-91zM373 764v103h90v-103h-90zM334 -10q-122 0 -188.5 68.5t-66.5 190.5v441h106v-445q0 -74 39.5 -116.5t109.5 -42.5t109.5 42.5t39.5 116.5v445h106v-436q0 -125 -66.5 -194.5t-188.5 -69.5
z" />
    <glyph glyph-name="uni01DA" unicode="&#x1da;" 
d="M261 738l-123 130h82l62 -70l63 70h82l-124 -130h-42zM153 587v103h91v-103h-91zM322 587v103h90v-103h-90zM244 -9q-82 0 -129 51t-47 136v334h101v-315q0 -116 100 -116q58 0 93 37.5t35 96.5v297h101v-512h-100v68q-56 -77 -154 -77z" />
    <glyph glyph-name="uni01DB" unicode="&#x1db;" horiz-adv-x="668" 
d="M293 926l-144 119h118l108 -119h-82zM204 764v103h91v-103h-91zM373 764v103h90v-103h-90zM334 -10q-122 0 -188.5 68.5t-66.5 190.5v441h106v-445q0 -74 39.5 -116.5t109.5 -42.5t109.5 42.5t39.5 116.5v445h106v-436q0 -125 -66.5 -194.5t-188.5 -69.5z" />
    <glyph glyph-name="uni01DC" unicode="&#x1dc;" 
d="M241 749l-144 119h118l108 -119h-82zM153 587v103h91v-103h-91zM322 587v103h90v-103h-90zM244 -9q-82 0 -129 51t-47 136v334h101v-315q0 -116 100 -116q58 0 93 37.5t35 96.5v297h101v-512h-100v68q-56 -77 -154 -77z" />
    <glyph glyph-name="Oslashacute" unicode="&#x1fe;" horiz-adv-x="714" 
d="M545 867l-151 -118h-75l108 118h118zM677 616l-55 -55q54 -88 54 -216q0 -163 -86 -259t-233 -96q-138 0 -222 84l-50 -50l-50 50l56 56q-53 89 -53 215q0 163 85.5 259t233.5 96q136 0 221 -83l48 48zM146 345q0 -79 24 -136l336 336q-56 61 -149 61q-98 0 -154.5 -68
t-56.5 -193zM568 345q0 81 -24 138l-336 -336q55 -63 149 -63q98 0 154.5 69t56.5 192z" />
    <glyph glyph-name="oslashacute" unicode="&#x1ff;" 
d="M475 690l-151 -118h-75l108 118h118zM488 423q46 -66 46 -169q0 -126 -68.5 -195.5t-179.5 -69.5q-104 0 -171 61l-20 -20l-35 36l23 23q-44 66 -44 165q0 128 68 198t179 70q104 0 170 -61l21 21l35 -35zM140 254q0 -56 15 -93l236 235q-39 39 -104 39q-69 0 -108 -45
t-39 -136zM287 77q69 0 109 44t40 133q0 56 -18 99l-236 -236q39 -40 105 -40z" />
    <glyph glyph-name="Scommaaccent" unicode="&#x218;" horiz-adv-x="552" 
d="M289 -8q-49 0 -93 12.5t-84 38.5t-64 75t-24 114h107q0 -76 44.5 -112t114.5 -36q56 0 89.5 26.5t33.5 73.5q0 22 -10 40.5t-21 29.5t-38.5 25t-40.5 19l-50 19q-39 14 -58.5 22t-53 26.5t-50 36.5t-30 48t-13.5 67q0 85 60 134t159 49q102 0 167.5 -49t65.5 -150h-106
q1 58 -34 85t-93 27q-51 0 -81.5 -23t-30.5 -63q0 -18 9 -34t20 -26.5t34 -22.5t38.5 -18.5t46.5 -18.5q100 -39 135 -63q83 -56 83 -150q0 -92 -63.5 -147t-168.5 -55zM146 -217l63 148h113l-116 -148h-60z" />
    <glyph glyph-name="scommaaccent" unicode="&#x219;" horiz-adv-x="476" 
d="M266 -11q-105 0 -163 40q-69 48 -69 144h92q0 -57 34 -83q31 -24 94 -24q41 1 67.5 20t26.5 56q0 19 -8.5 32.5t-27.5 22.5t-36.5 14.5t-48.5 12.5q-6 1 -9 2q-33 8 -51 13t-45 16.5t-41 25t-25 36.5t-11 52q0 74 51.5 113.5t137.5 39.5q83 0 132 -34q69 -46 69 -134h-88
q0 50 -33 72q-30 20 -79 19q-43 0 -70 -18t-27 -49q0 -29 29 -43.5t92 -29.5q12 -3 18 -4q39 -10 63.5 -18.5t51.5 -25t40 -42.5t13 -63q0 -77 -51 -120t-128 -43zM135 -216l63 148h113l-116 -148h-60z" />
    <glyph glyph-name="uni021A" unicode="&#x21a;" horiz-adv-x="569" 
d="M232 0v599h-224v91h552v-91h-223v-599h-105zM164 -216l63 148h113l-116 -148h-60z" />
    <glyph glyph-name="uni021B" unicode="&#x21b;" horiz-adv-x="333" 
d="M217 0q-128 0 -128 134v302h-75v76h75v118h100v-118h119v-76h-119v-279q0 -42 15 -59t51 -17h53v-81h-91zM103 -209l63 148h113l-116 -148h-60z" />
    <glyph glyph-name="uni0237" unicode="&#x237;" horiz-adv-x="254" 
d="M-22 -178v82h46q53 0 53 58v550h101v-546q0 -144 -139 -144h-61z" />
    <glyph glyph-name="circumflex" unicode="&#x2c6;" horiz-adv-x="319" 
d="M16 538l122 130h43l124 -130h-82l-63 72l-63 -72h-81z" />
    <glyph glyph-name="caron" unicode="&#x2c7;" horiz-adv-x="319" 
d="M138 536l-123 130h82l62 -70l63 70h82l-124 -130h-42z" />
    <glyph glyph-name="breve" unicode="&#x2d8;" horiz-adv-x="295" 
d="M148 534q-68 0 -109.5 35t-41.5 97h72q0 -33 22.5 -52t56.5 -19t56 19t22 52h73q0 -63 -41.5 -97.5t-109.5 -34.5z" />
    <glyph glyph-name="dotaccent" unicode="&#x2d9;" horiz-adv-x="123" 
d="M18 565v101h87v-101h-87z" />
    <glyph glyph-name="ring" unicode="&#x2da;" horiz-adv-x="192" 
d="M95 530q-43 0 -72 29.5t-29 72.5q0 41 29.5 70.5t71.5 29.5t72 -29t30 -71q0 -43 -29.5 -72.5t-72.5 -29.5zM95 579q23 0 38 15.5t15 37.5t-14.5 36.5t-38.5 14.5q-23 0 -37 -14t-14 -37t14.5 -38t36.5 -15z" />
    <glyph glyph-name="ogonek" unicode="&#x2db;" horiz-adv-x="222" 
d="M156 -223q-46 0 -76 26.5t-30 74.5q0 76 85 129l54 -7q-39 -34 -58 -59t-19 -53q0 -25 12.5 -37.5t32.5 -10.5q30 2 49 30l52 -36q-37 -57 -102 -57z" />
    <glyph glyph-name="tilde" unicode="&#x2dc;" horiz-adv-x="345" 
d="M-4 529q0 58 24.5 89t72.5 31q35 0 61.5 -17.5t47.5 -34.5t42 -17q44 0 44 68h62q0 -62 -26.5 -93.5t-73.5 -31.5q-34 0 -60.5 17t-48 34t-41.5 17q-43 0 -43 -62h-61z" />
    <glyph glyph-name="hungarumlaut" unicode="&#x2dd;" horiz-adv-x="362" 
d="M-12 552l103 114h103l-124 -114h-82zM160 552l103 114h112l-133 -114h-82z" />
    <glyph glyph-name="gravecomb" unicode="&#x300;" horiz-adv-x="0" 
d="M-70 547l-144 119h118l108 -119h-82z" />
    <glyph glyph-name="acutecomb" unicode="&#x301;" horiz-adv-x="0" 
d="M-206 548l108 118h118l-151 -118h-75z" />
    <glyph glyph-name="uni0302" unicode="&#x302;" horiz-adv-x="0" 
d="M-303 538l122 130h43l124 -130h-82l-63 72l-63 -72h-81z" />
    <glyph glyph-name="tildecomb" unicode="&#x303;" horiz-adv-x="0" 
d="M-349 529q0 58 24.5 89t72.5 31q35 0 61.5 -17.5t47.5 -34.5t42 -17q44 0 44 68h62q0 -62 -26.5 -93.5t-73.5 -31.5q-34 0 -60.5 17t-48 34t-41.5 17q-43 0 -43 -62h-61z" />
    <glyph glyph-name="uni0304" unicode="&#x304;" horiz-adv-x="0" 
d="M-294 579v60h269v-60h-269z" />
    <glyph glyph-name="uni0306" unicode="&#x306;" horiz-adv-x="0" 
d="M-147 534q-68 0 -109.5 35t-41.5 97h72q0 -33 22.5 -52t56.5 -19t56 19t22 52h73q0 -63 -41.5 -97.5t-109.5 -34.5z" />
    <glyph glyph-name="uni0307" unicode="&#x307;" horiz-adv-x="0" 
d="M-105 565v101h87v-101h-87z" />
    <glyph glyph-name="uni0308" unicode="&#x308;" horiz-adv-x="0" 
d="M-277 563v103h91v-103h-91zM-108 563v103h90v-103h-90z" />
    <glyph glyph-name="uni030A" unicode="&#x30a;" horiz-adv-x="0" 
d="M-97 530q-43 0 -72 29.5t-29 72.5q0 41 29.5 70.5t71.5 29.5t72 -29t30 -71q0 -43 -29.5 -72.5t-72.5 -29.5zM-97 579q23 0 38 15.5t15 37.5t-14.5 36.5t-38.5 14.5q-23 0 -37 -14t-14 -37t14.5 -38t36.5 -15z" />
    <glyph glyph-name="uni030B" unicode="&#x30b;" horiz-adv-x="0" 
d="M-374 552l103 114h103l-124 -114h-82zM-202 552l103 114h112l-133 -114h-82z" />
    <glyph glyph-name="uni030C" unicode="&#x30c;" horiz-adv-x="0" 
d="M-181 536l-123 130h82l62 -70l63 70h82l-124 -130h-42z" />
    <glyph glyph-name="uni0312" unicode="&#x312;" horiz-adv-x="0" 
d="M159 693l-63 -132h-113l116 132h60z" />
    <glyph glyph-name="uni0326" unicode="&#x326;" horiz-adv-x="0" 
d="M-180 -216l63 148h113l-116 -148h-60z" />
    <glyph glyph-name="uni0327" unicode="&#x327;" horiz-adv-x="0" 
d="M-87 -244q-35 0 -61 18t-37 46l52 26q13 -35 49 -35q13 0 23.5 8.5t11.5 25.5q2 38 -39 52l-65 19l45 84h69l-39 -60q90 -25 90 -93q0 -43 -29 -67t-70 -24z" />
    <glyph glyph-name="uni0328" unicode="&#x328;" horiz-adv-x="0" 
d="M-66 -223q-46 0 -76 26.5t-30 74.5q0 76 85 129l54 -7q-39 -34 -58 -59t-19 -53q0 -25 12.5 -37.5t32.5 -10.5q30 2 49 30l52 -36q-37 -57 -102 -57z" />
    <glyph glyph-name="uni0335" unicode="&#x335;" horiz-adv-x="0" 
d="M-490 255v46h316v-46h-316z" />
    <glyph glyph-name="uni0336" unicode="&#x336;" horiz-adv-x="0" 
d="M-614 255v46h631v-46h-631z" />
    <glyph glyph-name="uni0337" unicode="&#x337;" horiz-adv-x="0" 
d="M-434 38v120l394 313v-125z" />
    <glyph glyph-name="uni0338" unicode="&#x338;" horiz-adv-x="0" 
d="M-588 32l-50 50l591 591l51 -49z" />
    <glyph glyph-name="pi" unicode="&#x3c0;" horiz-adv-x="521" 
d="M435 -10q-47 0 -77 34.5t-30 78.5v300h-125v-403h-86v403h-40v85h377v-85h-40v-293q0 -45 33 -45q12 1 27 10l27 -66q-37 -19 -66 -19z" />
    <glyph glyph-name="Wgrave" unicode="&#x1e80;" horiz-adv-x="918" 
d="M418 749l-144 119h118l108 -119h-82zM173 0l-165 690h109l130 -594l149 594h125l149 -594l130 594h109l-165 -690h-143l-143 572l-142 -572h-143z" />
    <glyph glyph-name="wgrave" unicode="&#x1e81;" horiz-adv-x="748" 
d="M414 571h-82l-144 119h118zM628 512h109l-121 -512h-139l-104 380l-103 -381h-139l-120 513h109l84 -435l123 435h92l124 -436z" />
    <glyph glyph-name="Wacute" unicode="&#x1e82;" horiz-adv-x="918" 
d="M422 750l108 118h118l-151 -118h-75zM173 0l-165 690h109l130 -594l149 594h125l149 -594l130 594h109l-165 -690h-143l-143 572l-142 -572h-143z" />
    <glyph glyph-name="wacute" unicode="&#x1e83;" horiz-adv-x="748" 
d="M562 690l-151 -118h-75l108 118h118zM628 512h109l-121 -512h-139l-104 380l-103 -381h-139l-120 513h109l84 -435l123 435h92l124 -436z" />
    <glyph glyph-name="Wdieresis" unicode="&#x1e84;" horiz-adv-x="918" 
d="M329 765v103h91v-103h-91zM498 765v103h90v-103h-90zM173 0l-165 690h109l130 -594l149 594h125l149 -594l130 594h109l-165 -690h-143l-143 572l-142 -572h-143z" />
    <glyph glyph-name="wdieresis" unicode="&#x1e85;" horiz-adv-x="748" 
d="M335 690v-103h-91v103h91zM503 690v-103h-90v103h90zM628 512h109l-121 -512h-139l-104 380l-103 -381h-139l-120 513h109l84 -435l123 435h92l124 -436z" />
    <glyph glyph-name="uni1EBC" unicode="&#x1ebc;" horiz-adv-x="592" 
d="M138 748q0 58 24.5 89t72.5 31q35 0 61.5 -17t47.5 -34.5t42 -17.5q44 0 44 68h62q0 -62 -26.5 -93.5t-73.5 -31.5q-34 0 -60.5 17t-48 34t-41.5 17q-43 0 -43 -62h-61zM88 0v690h454v-91h-349v-208h313v-91h-313v-208h349v-92h-454z" />
    <glyph glyph-name="uni1EBD" unicode="&#x1ebd;" horiz-adv-x="533" 
d="M199 633q-43 0 -43 -62h-61q0 58 24.5 89t72.5 31q35 0 61.5 -17.5t47.5 -34.5t42 -17q44 0 44 68h62q0 -62 -26.5 -93.5t-73.5 -31.5q-34 0 -60.5 17t-48 34t-41.5 17zM496 264q0 -21 -2 -37h-360q6 -74 43 -114.5t101 -40.5q54 0 85 27t37 74h87q-12 -89 -68 -136
t-135 -47q-116 0 -181 75t-65 189q0 115 60.5 191.5t175.5 76.5q113 0 167.5 -74.5t54.5 -183.5zM272 439q-62 0 -97.5 -36t-40.5 -101h268q-2 62 -34.5 99.5t-95.5 37.5z" />
    <glyph glyph-name="Ygrave" unicode="&#x1ef2;" horiz-adv-x="665" 
d="M291 748l-144 119h118l108 -119h-82zM279 0v269l-277 421h121l209 -325l209 325h122l-279 -421v-269h-105z" />
    <glyph glyph-name="ygrave" unicode="&#x1ef3;" horiz-adv-x="498" 
d="M209 571l-144 119h118l108 -119h-82zM34 -178v84q55 -1 91 13.5t50 32t29 48.5l-195 512h110l133 -390l132 390h110l-202 -532q-37 -97 -96.5 -127.5t-161.5 -30.5z" />
    <glyph glyph-name="uni1EF8" unicode="&#x1ef8;" horiz-adv-x="665" 
d="M155 748q0 58 24.5 89t72.5 31q35 0 61.5 -17t47.5 -34.5t42 -17.5q44 0 44 68h62q0 -62 -26.5 -93.5t-73.5 -31.5q-34 0 -60.5 17t-48 34t-41.5 17q-43 0 -43 -62h-61zM279 0v269l-277 421h121l209 -325l209 325h122l-279 -421v-269h-105z" />
    <glyph glyph-name="uni1EF9" unicode="&#x1ef9;" horiz-adv-x="498" 
d="M73 571q0 58 24.5 89t72.5 31q35 0 61.5 -17.5t47.5 -34.5t42 -17q44 0 44 68h62q0 -62 -26.5 -93.5t-73.5 -31.5q-34 0 -60.5 17t-48 34t-41.5 17q-43 0 -43 -62h-61zM34 -178v84q55 -1 91 13.5t50 32t29 48.5l-195 512h110l133 -390l132 390h110l-202 -532
q-37 -97 -96.5 -127.5t-161.5 -30.5z" />
    <glyph glyph-name="endash" unicode="&#x2013;" horiz-adv-x="398" 
d="M18 212v78h361v-78h-361z" />
    <glyph glyph-name="emdash" unicode="&#x2014;" horiz-adv-x="1000" 
d="M0 212v78h1000v-78h-1000z" />
    <glyph glyph-name="quoteleft" unicode="&#x2018;" horiz-adv-x="233" 
d="M124 539h48v-125h-131v125l70 151h58z" />
    <glyph glyph-name="quoteright" unicode="&#x2019;" horiz-adv-x="243" 
d="M62 690h131v-125l-70 -151h-58l45 151h-48v125z" />
    <glyph glyph-name="quotesinglbase" unicode="&#x201a;" horiz-adv-x="267" 
d="M189 0l-70 -151h-58l45 151h-48v125h131v-125z" />
    <glyph glyph-name="quotedblleft" unicode="&#x201c;" horiz-adv-x="443" 
d="M169 690l-45 -151h48v-125h-131v125l70 151h58zM334 539h48v-125h-131v125l70 151h58z" />
    <glyph glyph-name="quotedblright" unicode="&#x201d;" horiz-adv-x="461" 
d="M62 565v125h131v-125l-70 -151h-58l45 151h-48zM280 690h131v-125l-70 -151h-58l45 151h-48v125z" />
    <glyph glyph-name="quotedblbase" unicode="&#x201e;" horiz-adv-x="485" 
d="M189 125v-125l-70 -151h-58l45 151h-48v125h131zM276 125h131v-125l-71 -151h-57l45 151h-48v125z" />
    <glyph glyph-name="dagger" unicode="&#x2020;" horiz-adv-x="406" 
d="M160 -100v507h-108v84h108v199h85v-199h108v-84h-108v-507h-85z" />
    <glyph glyph-name="daggerdbl" unicode="&#x2021;" horiz-adv-x="406" 
d="M160 -100v199h-108v84h108v224h-108v84h108v199h85v-199h108v-84h-108v-224h108v-84h-108v-199h-85z" />
    <glyph glyph-name="bullet" unicode="&#x2022;" horiz-adv-x="414" 
d="M207 83q-73 0 -124.5 52t-51.5 125t51.5 125t124.5 52t124.5 -52t51.5 -125t-51.5 -125t-124.5 -52z" />
    <glyph glyph-name="twodotenleader" unicode="&#x2025;" horiz-adv-x="401" 
d="M44 0v115h110v-115h-110zM246 0v115h110v-115h-110z" />
    <glyph glyph-name="ellipsis" unicode="&#x2026;" horiz-adv-x="827" 
d="M348 0v125h131v-125h-131zM642 0v125h132v-125h-132zM54 0v125h131v-125h-131z" />
    <glyph glyph-name="perthousand" unicode="&#x2030;" horiz-adv-x="1033" 
d="M122 -8l381 712h94l-381 -712h-94zM163 380q-37 0 -65 16t-42.5 41t-21 51t-6.5 51q0 37 10.5 71t42 62.5t79.5 28.5q65 0 99.5 -49.5t34.5 -112.5t-34 -111t-97 -48zM161 454q24 0 38.5 26t14.5 60q0 36 -14.5 60.5t-39.5 24.5q-26 0 -40 -25t-14 -61q0 -34 14.5 -59.5
t40.5 -25.5zM567 -3q-37 0 -65 16t-42.5 41.5t-21 51.5t-6.5 52q0 37 10.5 71.5t42 63t79.5 28.5q65 0 99.5 -49.5t34.5 -113.5q0 -63 -34 -112t-97 -49zM873 -3q-69 0 -102 51t-33 110q0 60 32 111.5t100 51.5q65 0 99.5 -49.5t34.5 -113.5q0 -63 -34 -112t-97 -49zM566 72
q24 0 38 26t14 61q0 36 -14.5 61.5t-39.5 25.5t-39.5 -25.5t-14.5 -62.5q0 -36 14.5 -61t41.5 -25zM871 72q24 0 38.5 26t14.5 61q0 36 -14.5 61.5t-39.5 25.5q-26 0 -40 -25.5t-14 -62.5q0 -36 14.5 -61t40.5 -25z" />
    <glyph glyph-name="guilsinglleft" unicode="&#x2039;" horiz-adv-x="287" 
d="M242 105l-197 194l197 194v-98l-91 -96l91 -95v-99z" />
    <glyph glyph-name="guilsinglright" unicode="&#x203a;" horiz-adv-x="287" 
d="M45 105v99l91 95l-91 96v98l197 -194z" />
    <glyph glyph-name="fraction" unicode="&#x2044;" horiz-adv-x="162" 
d="M-157 0l378 690h99l-380 -690h-97z" />
    <glyph glyph-name="Euro" unicode="&#x20ac;" horiz-adv-x="660" 
d="M564 137l62 -59q-83 -88 -217 -88q-121 0 -197 69.5t-100 183.5h-118l29 57h80q-2 30 -2 45q0 6 0.5 16t0.5 15h-115l30 59h92q21 120 97.5 193t201.5 73q109 0 183 -59l-32 -86q-57 61 -150 61q-86 0 -137.5 -49.5t-69.5 -132.5h309l-26 -60l-291 1q-1 -10 -1 -29
q0 -15 2 -47h261l-23 -57h-228q21 -76 72.5 -121t135.5 -45q92 0 151 60z" />
    <glyph glyph-name="trademark" unicode="&#x2122;" horiz-adv-x="600" 
d="M6 635v55h220v-55h-79v-207h-62v207h-79zM468 690h84v-262h-62v180l-54 -180h-52l-57 181v-181h-62v262h86l58 -197z" />
    <glyph glyph-name="uni2126" unicode="&#x2126;" horiz-adv-x="728" 
d="M33 0v85h148q-67 39 -106.5 113t-39.5 157q0 138 96.5 235t232.5 97t232.5 -98t96.5 -237q0 -82 -37 -155t-101 -114h140v-83h-260v82q74 18 121 92.5t47 170.5q0 116 -69 186t-170 70q-102 0 -170.5 -71.5t-68.5 -182.5q0 -92 48.5 -164.5t119.5 -100.5v-82h-260z" />
    <glyph glyph-name="partialdiff" unicode="&#x2202;" horiz-adv-x="602" 
d="M259 -6q-103 0 -160.5 61.5t-57.5 163.5q0 123 79 210.5t193 87.5q102 0 138 -71q-7 87 -46 130t-100 43q-71 0 -104 -59l-69 43q52 95 175 95q119 0 177 -89t58 -235q0 -170 -74.5 -275t-208.5 -105zM259 82q80 0 130 63.5t50 151.5q0 64 -30 99t-87 35q-81 0 -133 -66
t-52 -149q0 -61 32 -97.5t90 -36.5z" />
    <glyph glyph-name="uni2206" unicode="&#x2206;" horiz-adv-x="569" 
d="M3 0l282 716l282 -716h-564zM128 86h314l-157 411z" />
    <glyph glyph-name="product" unicode="&#x220f;" horiz-adv-x="667" 
d="M128 0v604h-40v86h491v-86h-40v-604h-85v604h-241v-604h-85z" />
    <glyph glyph-name="summation" unicode="&#x2211;" horiz-adv-x="581" 
d="M33 0v43l281 302l-281 302v43h514v-86h-359l248 -259l-248 -259h359v-86h-514z" />
    <glyph glyph-name="radical" unicode="&#x221a;" horiz-adv-x="555" 
d="M231 -105l-132 376h-76v86h138l75 -239l220 577l80 -30z" />
    <glyph glyph-name="infinity" unicode="&#x221e;" horiz-adv-x="797" 
d="M200 161q-87 0 -137 54t-50 144t50 144t137 54q54 0 106 -30t92 -84q41 55 93 84.5t105 29.5q87 0 137 -54t50 -144t-50 -144t-137 -54q-53 0 -105.5 30t-92.5 84q-40 -55 -92 -84.5t-106 -29.5zM215 250q35 -1 73.5 28t65.5 81q-27 52 -65.5 81t-73.5 28q-48 1 -79 -28
t-31 -81q0 -51 31 -80.5t79 -28.5zM581 250q50 -1 80 28t30 81t-30 81t-80 28q-35 1 -73 -28t-65 -81q27 -51 65.5 -80.5t72.5 -28.5z" />
    <glyph glyph-name="integral" unicode="&#x222b;" horiz-adv-x="418" 
d="M8 -223v86q85 0 121 32.5t36 110.5v553q0 64 40.5 106t99.5 42q57 0 105 -40l-56 -66q-24 20 -49 20q-23 0 -38.5 -16t-15.5 -48v-554q0 -109 -65 -167.5t-178 -58.5z" />
    <glyph glyph-name="approxequal" unicode="&#x2248;" horiz-adv-x="518" 
d="M326 342q-28 0 -53 13t-40 29t-34 29t-36 13q-40 0 -37 -71h-65q-2 61 24.5 98.5t76.5 37.5q35 0 62 -13t41 -28.5t31 -28.5t33 -13q44 0 42 80h69q2 -68 -28 -107t-86 -39zM326 150q-28 0 -53 13t-40 29t-34 29t-36 13q-40 0 -37 -71h-65q-2 61 24.5 98.5t76.5 37.5
q35 0 62 -13t41 -28.5t31 -28.5t33 -13q44 0 42 80h69q2 -68 -28 -107t-86 -39z" />
    <glyph glyph-name="notequal" unicode="&#x2260;" horiz-adv-x="599" 
d="M66 0l111 202h-100v83h145l46 86h-191v83h236l129 236h91l-125 -236h106v-83h-154l-47 -86h201v-83h-244l-112 -202h-92z" />
    <glyph glyph-name="lessequal" unicode="&#x2264;" horiz-adv-x="613" 
d="M527 48l-477 258l477 257v-92l-309 -165l309 -163v-95zM527 -76h-480v76h480v-76z" />
    <glyph glyph-name="greaterequal" unicode="&#x2265;" horiz-adv-x="606" 
d="M79 48v95l309 163l-309 165v92l477 -257zM79 -76v76h480v-76h-480z" />
    <glyph glyph-name="lozenge" unicode="&#x25ca;" horiz-adv-x="537" 
d="M223 0l-185 350l185 350h92l183 -350l-183 -350h-92zM268 95l128 255l-128 255l-128 -255z" />
    <glyph glyph-name="i.loclTRK" horiz-adv-x="255" 
d="M83 589v101h87v-101h-87zM77 0v512h101v-512h-101z" />
    <glyph glyph-name="f_t" horiz-adv-x="619" 
d="M594 436h-118v-279q0 -43 14.5 -59.5t50.5 -16.5h53v-81h-91q-127 0 -127 134v302h-76h-95v-436h-101v436h-88v76h89v33q0 66 40 105.5t111 39.5h73v-77h-58q-31 0 -48.5 -18t-17.5 -50v-33h124h47v118h100v-118h118v-76z" />
    <glyph glyph-name="t_t" horiz-adv-x="614" 
d="M589 436h-118v-279q0 -43 14.5 -59.5t51.5 -16.5h52v-81h-90q-128 0 -128 134v302h-75h-107v-279q0 -42 15 -59t51 -17h53v-81h-91q-128 0 -128 134v302h-75v76h75v118h100v-118h119h63v118h100v-118h118v-76z" />
    <glyph glyph-name="HankenDesign" horiz-adv-x="903" 
d="M451 -30q-157 0 -267.5 110.5t-110.5 267.5t110.5 267.5t267.5 110.5t267.5 -110.5t110.5 -267.5t-110.5 -267.5t-267.5 -110.5zM451 5q143 0 243 100.5t100 242.5t-100 242.5t-243 100.5t-243 -100.5t-100 -242.5t100 -242.5t243 -100.5zM254 200q-7 0 -12 5t-5 12v262
q0 7 5 12.5t12 5.5q8 0 13 -5.5t5 -12.5v-262q0 -17 -18 -17zM451 200q-17 0 -17 17v262q0 18 17 18t17 -18v-262q0 -17 -17 -17zM647 200q-7 0 -11 5l-132 131q-4 5 -4 12q0 8 4 12l132 131q4 6 11 6t12.5 -5.5t5.5 -12.5t-5 -12l-119 -119l119 -119q5 -5 5 -12t-5.5 -12
t-12.5 -5zM320 331q-17 0 -17 17t17 17h65q18 0 18 -17t-18 -17h-65z" />
    </font>
</defs>
</svg>
