<?xml version="1.0" standalone="no"?>
<!DOCTYPE svg PUBLIC "-//W3C//DTD SVG 1.1//EN" "http://www.w3.org/Graphics/SVG/1.1/DTD/svg11.dtd" >
<svg xmlns="http://www.w3.org/2000/svg">
<metadata></metadata>
<defs>
<font id="frutiger_lightitalic" horiz-adv-x="1138" >
<font-face units-per-em="2048" ascent="1638" descent="-410" />
<missing-glyph horiz-adv-x="569" />
<glyph horiz-adv-x="2048" />
<glyph horiz-adv-x="2048" />
<glyph unicode="&#xd;" horiz-adv-x="0" />
<glyph unicode=" "  horiz-adv-x="569" />
<glyph unicode="&#x09;" horiz-adv-x="569" />
<glyph unicode="&#xa0;" horiz-adv-x="569" />
<glyph unicode="!" horiz-adv-x="796" d="M209 0l38 173h168l-38 -173h-168zM309 346l203 1071h171l-254 -1071h-120z" />
<glyph unicode="&#x22;" horiz-adv-x="909" d="M313 839l103 578h134l-143 -578h-94zM630 839l103 578h134l-142 -578h-95z" />
<glyph unicode="#" horiz-adv-x="1139" d="M73 429l24 113h216l71 333h-216l23 113h217l92 430h127l-92 -430h261l92 430h127l-92 -430h216l-24 -113h-216l-71 -333h216l-23 -113h-217l-91 -429h-127l91 429h-261l-91 -429h-127l91 429h-216zM440 542h261l71 333h-261z" />
<glyph unicode="$" d="M103 71l43 133q58 -39 134.5 -61.5t149.5 -23.5l131 586l-72 49q-175 119 -175 289q0 143 108 252.5t299 128.5l42 188h100l-42 -185q98 -4 156.5 -17t132.5 -45l-42 -128q-119 70 -274 69l-113 -507l117 -78q89 -61 128.5 -133.5t39.5 -163.5q0 -128 -71.5 -226.5 t-188.5 -152.5q-85 -38 -203 -49l-41 -183h-100l40 180q-86 5 -159.5 24t-139.5 54zM458 1058q0 -109 121 -190l16 -11l98 440q-113 -22 -174 -89.5t-61 -149.5zM531 125q149 27 217 101.5t68 176.5q0 71 -34 126q-26 43 -84 83l-51 34z" />
<glyph unicode="%" horiz-adv-x="1934" d="M213 1007q0 168 101.5 309.5t275.5 141.5q79 0 150.5 -33.5t110 -104t38.5 -170.5q0 -106 -39 -196.5t-90.5 -145.5t-111 -82.5t-141.5 -27.5q-134 0 -214 84t-80 225zM341 998q0 -88 48 -139t124 -51q113 0 180 107t67 238q0 93 -47.5 144.5t-125.5 51.5 q-60 0 -115.5 -38t-93 -128.5t-37.5 -184.5zM521 -45l872 1536h114l-870 -1536h-116zM1159 287q0 167 101.5 308.5t275.5 141.5q79 0 150 -33t110 -103.5t39 -171.5q0 -106 -39 -196.5t-91 -145.5t-111 -82t-141 -27q-134 0 -214 83.5t-80 225.5zM1287 278q0 -89 48 -140 t124 -51q114 0 180.5 108.5t66.5 232.5q0 97 -47.5 148.5t-125.5 51.5q-60 0 -115 -37.5t-93 -128t-38 -184.5z" />
<glyph unicode="&#x26;" horiz-adv-x="1365" d="M64 346q0 87 36.5 163t92 127.5t147.5 95.5q68 32 186 64q-142 179 -142 322q0 83 45 159.5t133.5 117.5t203.5 41q166 0 254.5 -80t88.5 -203q0 -72 -30.5 -136.5t-81 -112t-134.5 -90.5q-57 -29 -164 -65l280 -398q143 158 201 429h128q-36 -165 -100 -291 q-65 -126 -167 -238l168 -251h-154l-104 166q-87 -88 -208 -138t-255 -50q-210 0 -317 110t-107 258zM204 349q0 -116 77.5 -189t214.5 -73q111 0 212 47.5t183 128.5l-310 455q-212 -67 -305 -172q-72 -82 -72 -197zM512 1107q0 -103 128 -277q212 73 276.5 146t64.5 162 q0 83 -57 136t-160 53q-70 0 -130.5 -28.5t-91 -80t-30.5 -111.5z" />
<glyph unicode="'" horiz-adv-x="569" d="M281 839l103 578h133l-143 -578h-93z" />
<glyph unicode="(" horiz-adv-x="569" d="M97 460q0 136 35 270.5t117 284.5q82 151 192 299q69 90 199 236h116q-120 -130 -273 -369q-115 -178 -161 -283q-47 -106 -71 -223q-24 -118 -24 -260q0 -179 46 -383q47 -204 94 -305h-92q-87 191 -132.5 386.5t-45.5 346.5z" />
<glyph unicode=")" horiz-adv-x="569" d="M-85 -273q112 122 263 354q152 233 204 382q62 177 62 400q0 178 -46 381q-47 204 -94 306h92q87 -191 132 -386q46 -195 46 -346q0 -137 -35 -271q-36 -135 -117 -285q-82 -151 -193 -298q-68 -91 -198 -237h-116z" />
<glyph unicode="*" d="M296 1223l38 114l294 -112l-12 311h119l-15 -313l299 114l36 -119l-299 -85l182 -235l-99 -71l-166 249l-185 -268l-95 71l204 254z" />
<glyph unicode="+" horiz-adv-x="1229" d="M104 442v122h447v441h135v-441h446v-122h-446v-442h-135v442h-447z" />
<glyph unicode="," horiz-adv-x="569" d="M-47 -273l209 446h177l-249 -446h-137z" />
<glyph unicode="-" horiz-adv-x="683" d="M81 493l19 111h521l-19 -111h-521z" />
<glyph unicode="." horiz-adv-x="569" d="M95 0l33 173h168l-33 -173h-168z" />
<glyph unicode="/" horiz-adv-x="569" d="M38 -17l474 1496h126l-474 -1496h-126z" />
<glyph unicode="0" d="M114 433q0 218 84 478q95 292 230.5 409t313.5 117q181 0 280.5 -110.5t99.5 -341.5q0 -167 -44 -352q-45 -185 -131 -338q-61 -111 -126.5 -175t-149 -100.5t-181.5 -36.5q-100 0 -169.5 37.5t-110 91.5t-61.5 112q-35 99 -35 209zM256 422q0 -148 66 -239t178 -91 q63 0 119 26.5t109.5 84t100.5 147.5q68 133 109 302t41 343q0 131 -28 198t-82 101t-117 34q-120 0 -226 -97t-193 -362q-77 -232 -77 -447z" />
<glyph unicode="1" d="M360 1171l401 246h106l-301 -1417h-137l268 1259l-271 -183z" />
<glyph unicode="2" d="M7 0l26 109l370 322q195 171 286 266q136 143 178 230q43 88 43 155q0 101 -67.5 164t-193.5 63q-177 0 -341 -124l10 152q168 95 352 95q198 0 293.5 -100.5t95.5 -233.5q0 -85 -40 -176t-154 -221q-57 -66 -206 -201l-417 -377h659l-26 -123h-868z" />
<glyph unicode="3" d="M-5 47l36 126q50 -28 138 -48.5t176 -20.5q127 0 228.5 42t154 120t52.5 169q0 67 -27.5 119t-77.5 82.5t-122 43.5t-156 13q-19 0 -65 -1l28 114q47 -1 67 -1q191 0 293 38t149.5 103.5t47.5 139.5q0 95 -78 160t-234 65q-83 0 -159 -20.5t-157 -62.5l14 137 q146 67 330 67q207 0 316.5 -96t109.5 -236q0 -133 -92 -232t-275 -131q112 -25 173.5 -102.5t61.5 -193.5q0 -215 -206 -356q-145 -99 -373 -99q-184 0 -353 61z" />
<glyph unicode="4" d="M5 337l28 128l861 952h173l-211 -967h211l-21 -113h-214l-73 -337h-133l73 337h-694zM178 450h548l184 835z" />
<glyph unicode="5" d="M81 38l26 128q59 -26 135.5 -43t144.5 -17q138 0 249 51.5t166.5 142.5t55.5 186q0 78 -37.5 144.5t-115 101t-191.5 34.5q-122 0 -272 -48l161 690h752l-23 -119h-627l-104 -436q94 26 181 26q197 0 308 -106t111 -280q0 -140 -74.5 -258.5t-215.5 -183.5t-309 -65 q-72 0 -163 15q-91 16 -158 37z" />
<glyph unicode="6" d="M142 485q0 365 155 620q198 324 547 324q154 0 313 -66l-36 -114q-140 69 -283 69q-90 0 -168 -32t-144 -92.5t-115 -141.5t-77 -165q-21 -63 -36 -159q75 87 161.5 129t191.5 42q186 0 298.5 -111.5t112.5 -289.5q0 -137 -65.5 -262t-179.5 -192.5t-249 -67.5 q-129 0 -228 59.5t-148.5 167.5t-49.5 282zM279 398q0 -81 35 -152t104.5 -111t152.5 -40q93 0 173.5 49t128 141.5t47.5 194.5q0 90 -36.5 162.5t-102 108.5t-148.5 36q-147 0 -250.5 -108t-103.5 -281z" />
<glyph unicode="7" d="M145 0l856 1299h-716l24 118h865l-24 -123l-841 -1294h-164z" />
<glyph unicode="8" d="M78 357q0 147 114 259t299 140q-107 64 -160.5 143t-53.5 168q0 99 53.5 183.5t157.5 135.5t237 51q122 0 213.5 -43t137 -119.5t45.5 -159.5q0 -69 -30 -132.5t-88.5 -113.5t-135.5 -84q-55 -24 -144 -45q168 -68 233.5 -153.5t65.5 -195.5q0 -154 -111 -269 q-136 -142 -377 -142q-142 0 -246.5 49t-157 140.5t-52.5 187.5zM220 364q0 -108 87 -186.5t234 -78.5q98 0 176.5 38.5t119 107.5t40.5 145q0 71 -32.5 125.5t-85.5 93t-169 93.5q-145 -41 -207 -79q-83 -52 -123 -120t-40 -139zM419 1070q0 -149 195 -278q140 46 200 81 q85 48 127.5 108t42.5 125q0 91 -73 156t-202 65q-130 0 -210 -74.5t-80 -182.5z" />
<glyph unicode="9" d="M81 45l36 114q136 -69 276 -69q117 0 206.5 46.5t164 133.5t122.5 204q35 85 53 206q-75 -87 -161.5 -129t-191.5 -42q-184 0 -297 112t-113 286q0 136 65 262.5t178.5 194.5t256.5 68q125 0 219.5 -53t147.5 -162t53 -294q0 -228 -71 -434q-52 -151 -141.5 -265.5 t-212.5 -179.5t-279 -65q-153 0 -311 66zM318 914q0 -142 73 -217.5t204 -75.5q156 0 259.5 107.5t103.5 274.5q0 138 -82.5 224t-203.5 86q-149 0 -251.5 -110t-102.5 -289z" />
<glyph unicode=":" horiz-adv-x="569" d="M100 0l33 173h169l-34 -173h-168zM283 863l33 173h168l-33 -173h-168z" />
<glyph unicode=";" horiz-adv-x="569" d="M-78 -273l209 446h177l-249 -446h-137zM275 863l33 173h169l-34 -173h-168z" />
<glyph unicode="&#x3c;" horiz-adv-x="1229" d="M74 435v134l1028 409v-137l-867 -340l867 -337v-137z" />
<glyph unicode="=" horiz-adv-x="1229" d="M104 246v123h1028v-123h-1028zM104 636v123h1028v-123h-1028z" />
<glyph unicode="&#x3e;" horiz-adv-x="1229" d="M109 27v137l866 337l-866 340v137l1028 -409v-134z" />
<glyph unicode="?" horiz-adv-x="1024" d="M194 0l33 173h171l-38 -173h-166zM294 1256l23 128q137 46 251 46q108 0 198.5 -38.5t133.5 -107.5t43 -154q0 -66 -22 -125.5t-73 -125.5q-52 -66 -123 -125l-128 -107q-70 -58 -99 -92q-30 -35 -51 -84t-33 -125h-118q20 116 49 182q23 49 65 98q27 31 109 99l114 95 q58 49 87 83q48 56 69 106q21 51 21 93q0 82 -64.5 145.5t-198.5 63.5q-53 0 -122 -14t-131 -41z" />
<glyph unicode="@" horiz-adv-x="1638" d="M144 690q0 198 101.5 376t292 278.5t409.5 100.5q192 0 347 -75.5t236.5 -212t81.5 -298.5q0 -98 -29 -187t-74 -151.5t-94 -100.5q-50 -39 -103 -58q-54 -20 -104 -20q-70 0 -112.5 39.5t-42.5 98.5q0 26 11 67q-30 -62 -57 -94q-43 -51 -101 -81t-128 -30 q-116 0 -191.5 80t-75.5 219q0 119 58 235t147.5 177t188.5 61q96 0 158 -47t81 -130l43 148h116l-118 -391q-40 -132 -40 -185q0 -39 24.5 -62t68.5 -23q58 0 128.5 51.5t118.5 161t48 226.5q0 139 -71 257.5t-207.5 183t-308.5 64.5q-202 0 -371 -90t-260.5 -252 t-91.5 -339q0 -146 57 -262.5t140.5 -192.5t179.5 -117q142 -60 318 -60q151 0 280 44q130 44 278 146l44 -57q-154 -111 -296 -160q-143 -49 -310 -49q-228 0 -400.5 92t-271 256.5t-98.5 362.5zM646 634q0 -102 47 -156t117 -54q50 0 94.5 26.5t84 84t71 150t31.5 167.5 q0 85 -45 133t-116 48q-49 0 -93 -25t-86 -76.5t-73.5 -134.5t-31.5 -163z" />
<glyph unicode="A" horiz-adv-x="1365" d="M-88 0l889 1417h168l278 -1417h-143l-73 384h-728l-237 -384h-154zM379 507h628l-144 787z" />
<glyph unicode="B" d="M66 0l303 1417h285q204 0 299 -59q135 -83 135 -255q0 -132 -89.5 -231.5t-254.5 -129.5q123 -22 186 -97t63 -198q0 -108 -48 -194t-131 -146t-189 -83q-106 -24 -263 -24h-296zM230 123h135q117 0 181 13q94 18 158 58.5t103 105t39 145.5q0 78 -38 134t-114 78.5 t-216 22.5h-128zM374 799h128q108 0 183 17.5t120 44.5q69 43 106 105t37 132q0 92 -65.5 146.5t-233.5 54.5h-166z" />
<glyph unicode="C" horiz-adv-x="1252" d="M168 611q0 223 105.5 414.5t294 296.5t426.5 105q98 0 198 -18.5t178 -50.5l-48 -121q-71 39 -160 57.5t-174 18.5q-184 0 -341 -89.5t-245.5 -257.5t-88.5 -349q0 -140 64 -258.5t174 -183t249 -64.5q141 0 309 64l-16 -132q-165 -49 -297 -49q-123 0 -220 30t-177 92.5 t-131 139t-75.5 161.5t-24.5 194z" />
<glyph unicode="D" horiz-adv-x="1365" d="M76 0l301 1417h301q193 0 334.5 -59t223.5 -196.5t82 -323.5q0 -195 -79 -371.5t-208.5 -284t-284.5 -149.5q-119 -33 -307 -33h-363zM242 123h142q155 0 254 17t188.5 63t168 132.5t129 224t50.5 279.5q0 115 -35 204.5t-106 149.5t-174 87q-74 19 -200 19h-166z" />
<glyph unicode="E" horiz-adv-x="1024" d="M76 0l294 1417h706l-23 -118h-567l-104 -505h533l-21 -118h-538l-114 -557h588l-22 -119h-732z" />
<glyph unicode="F" horiz-adv-x="910" d="M57 0l299 1417h678l-24 -118h-543l-104 -505h519l-24 -114h-519l-142 -680h-140z" />
<glyph unicode="G" horiz-adv-x="1479" d="M168 622q0 216 106 409.5t301 296t444 102.5q103 0 210.5 -18.5t197.5 -53.5l-38 -133q-163 83 -372 83q-206 0 -366 -87.5t-247 -247.5t-87 -344q0 -232 138.5 -373t357.5 -141q130 0 268 44l99 481h-336l28 123h476l-151 -706q-68 -25 -183 -43q-115 -19 -213 -19 q-198 0 -335 76.5t-217.5 220t-80.5 330.5z" />
<glyph unicode="H" horiz-adv-x="1365" d="M76 0l303 1417h140l-135 -613h733l135 613h140l-309 -1417h-139l147 685h-733l-142 -685h-140z" />
<glyph unicode="I" horiz-adv-x="455" d="M57 0l303 1417h143l-304 -1417h-142z" />
<glyph unicode="J" horiz-adv-x="683" d="M-71 17l28 120q51 -23 123 -23q84 0 142.5 36t89.5 107q31 72 65 234l197 926h142l-223 -1033q-24 -111 -45 -160q-37 -82 -93.5 -133.5t-126.5 -75t-146 -23.5q-89 0 -153 25z" />
<glyph unicode="K" horiz-adv-x="1252" d="M97 0l303 1417h140l-132 -611l758 611h204l-842 -666l607 -751h-178l-568 723l-150 -723h-142z" />
<glyph unicode="L" horiz-adv-x="910" d="M64 0l303 1417h143l-278 -1296h579l-22 -121h-725z" />
<glyph unicode="M" horiz-adv-x="1820" d="M76 0l303 1417h202l261 -1239l798 1239h211l-303 -1417h-140l278 1273l-821 -1273h-116l-270 1278l-273 -1278h-130z" />
<glyph unicode="N" horiz-adv-x="1365" d="M62 0l306 1417h161l481 -1244l263 1244h131l-301 -1417h-166l-482 1240l-258 -1240h-135z" />
<glyph unicode="O" horiz-adv-x="1479" d="M142 557q0 219 84 412q55 125 146 232.5t206 167.5q145 76 325 76q153 0 277.5 -63t190 -196t65.5 -313q0 -229 -100 -450t-274 -332.5t-383 -111.5q-242 0 -389.5 153t-147.5 425zM284 565q0 -219 112.5 -341t295.5 -122q135 0 236 55t176.5 149.5t122.5 212.5 q67 167 67 348q0 221 -111 338.5t-294 117.5q-130 0 -235.5 -57t-183.5 -155.5t-132 -244t-54 -301.5z" />
<glyph unicode="P" horiz-adv-x="1024" d="M73 0l303 1417h301q160 0 252 -49t131 -130t39 -176q0 -88 -32.5 -163.5t-90.5 -135t-130.5 -91.5t-174.5 -48q-64 -10 -171 -10h-154l-133 -614h-140zM372 732h111q112 0 170 11q87 16 132.5 40t83 62t62 93.5t24.5 120.5q0 114 -73.5 177t-256.5 63h-132z" />
<glyph unicode="Q" horiz-adv-x="1479" d="M142 561q0 206 78 391q55 131 147.5 241.5t205.5 172.5q145 78 328 78q162 0 287 -65.5t187.5 -197.5t62.5 -307q0 -144 -38 -279.5t-96.5 -238.5t-120 -167t-122.5 -102t-154 -73l251 -287h-175l-209 256q-42 -7 -89 -7q-92 0 -185.5 28.5t-162.5 83.5t-119 142 q-35 60 -55.5 143.5t-20.5 187.5zM286 565q0 -219 112.5 -341t293.5 -122q179 0 308 100q161 126 234 329q62 173 62 344q0 214 -111.5 331t-294.5 117q-129 0 -234.5 -57t-183.5 -155.5t-132 -244t-54 -301.5z" />
<glyph unicode="R" d="M81 0l306 1417h296q229 0 325.5 -83t96.5 -231q0 -160 -107.5 -270t-300.5 -127q57 -14 81 -34q33 -26 51 -70q26 -61 67 -232l90 -370h-139l-79 327q-39 165 -60 220q-22 56 -54 77q-50 33 -139 33h-154l-140 -657h-140zM387 780h140q101 0 177.5 19t116.5 45 q60 39 97.5 104.5t37.5 134.5q0 67 -34 120t-97 74q-63 22 -189 22h-138z" />
<glyph unicode="S" horiz-adv-x="1024" d="M38 71l43 133q59 -40 138.5 -62.5t161.5 -22.5q114 0 202 39.5t130 108.5t42 146q0 51 -17 87.5t-54 70.5q-20 19 -87 65l-173 118q-175 119 -175 289q0 144 106 250q132 134 375 134q97 0 182 -18q62 -13 133 -44l-42 -128q-116 69 -277 69q-173 0 -263 -90 q-70 -69 -70 -157q0 -63 36.5 -111t84.5 -80l219 -147q90 -61 129 -131t39 -167q0 -175 -143.5 -302.5t-389.5 -127.5q-184 0 -330 78z" />
<glyph unicode="T" horiz-adv-x="1024" d="M185 1299l24 118h1000l-26 -118h-429l-273 -1299h-144l275 1299h-427z" />
<glyph unicode="U" horiz-adv-x="1365" d="M173 407q0 66 13 155t70 353l109 502h135l-142 -673q-48 -224 -48 -327q0 -143 89 -231.5t234 -88.5q78 0 150.5 26.5t126.5 72.5q39 34 76 95t59 125q15 42 50 203l176 798h130l-164 -768q-40 -190 -60 -251q-36 -107 -80.5 -174t-110 -121.5t-158.5 -88t-207 -33.5 q-202 0 -325 120t-123 306z" />
<glyph unicode="V" horiz-adv-x="1252" d="M213 1417h137l200 -1272l739 1272h147l-837 -1417h-154z" />
<glyph unicode="W" horiz-adv-x="1934" d="M213 1417h137l102 -1253l629 1253h170l83 -1249l638 1249h147l-730 -1417h-171l-81 1263l-628 -1263h-170z" />
<glyph unicode="X" horiz-adv-x="1252" d="M-90 0l690 751l-346 666h154l291 -576l531 576h173l-630 -670l365 -747h-154l-308 647l-586 -647h-180z" />
<glyph unicode="Y" horiz-adv-x="1252" d="M218 1417h149l301 -696l602 696h169l-716 -813l-135 -604h-138l128 602z" />
<glyph unicode="Z" horiz-adv-x="1024" d="M-57 0l24 123l995 1176h-720l26 118h886l-26 -123l-991 -1175h768l-26 -119h-936z" />
<glyph unicode="[" horiz-adv-x="569" d="M19 -268l384 1818h320l-19 -85h-201l-349 -1648h199l-19 -85h-315z" />
<glyph unicode="\" horiz-adv-x="569" d="M-3 1505h126l547 -1546h-126z" />
<glyph unicode="]" horiz-adv-x="569" d="M-85 -268l19 85h201l349 1648h-199l19 85h315l-384 -1818h-320z" />
<glyph unicode="^" horiz-adv-x="1229" d="M281 563l347 854h128l346 -854h-140l-273 693l-267 -693h-141z" />
<glyph unicode="_" horiz-adv-x="1024" d="M0 -154h1024v-102h-1024v102z" />
<glyph unicode="`" horiz-adv-x="455" d="M123 1479h159l173 -296h-85z" />
<glyph unicode="a" horiz-adv-x="1024" d="M36 264q0 171 151 271t434 100q89 0 157 -7q7 49 7 88q0 108 -58.5 163t-179.5 55q-64 0 -132 -17.5t-168 -63.5l14 138q183 59 302 59q109 0 189.5 -35.5t120.5 -108t40 -171.5q0 -37 -7 -88q-7 -52 -33 -178l-45 -215q-27 -128 -38 -254h-121l7 57q7 55 14 99 q-59 -87 -149 -128.5t-195 -41.5q-141 0 -225.5 79.5t-84.5 198.5zM173 272q0 -75 54 -126.5t147 -51.5q151 0 246.5 103t136.5 324q-79 6 -130 6q-100 0 -185 -15q-85 -16 -144.5 -48.5t-92 -82.5t-32.5 -109z" />
<glyph unicode="b" d="M40 0q35 107 59 223l278 1306h130l-142 -659q49 78 137 129t205 51q168 0 265 -106t97 -312q0 -147 -54 -289q-65 -170 -183.5 -265t-284.5 -95q-138 0 -221.5 64t-102.5 164q-16 -96 -53 -211h-130zM275 412q0 -112 41 -184.5t103 -102.5t121 -30q109 0 197.5 69 t141 205.5t52.5 259.5q0 101 -31.5 173t-88 104.5t-129.5 32.5q-60 0 -115 -21t-102.5 -60t-91 -105t-71 -156t-27.5 -185z" />
<glyph unicode="c" horiz-adv-x="910" d="M95 457q0 142 68.5 281.5t204 221t343.5 81.5q145 0 261 -41l-38 -125q-128 50 -257 50q-183 0 -310 -132t-127 -333q0 -164 86 -255t227 -91q101 0 244 45l-17 -131q-141 -34 -253 -34q-127 0 -226.5 58.5t-152.5 167.5t-53 237z" />
<glyph unicode="d" d="M81 402q0 239 119 424q147 226 394 226q135 0 218.5 -61t107.5 -164l147 702h131l-275 -1323q-24 -111 -34 -206h-123q5 86 29 183q-135 -200 -354 -200q-160 0 -260 108.5t-100 310.5zM221 407q0 -107 32.5 -177t87.5 -101.5t123 -31.5q91 0 185.5 62.5t160 200.5 t65.5 275q0 82 -32 154t-94.5 111t-143.5 39q-115 0 -203 -75.5t-134.5 -205t-46.5 -251.5z" />
<glyph unicode="e" horiz-adv-x="1024" d="M83 404q0 168 70 331.5t187 243t272 79.5q196 0 297 -130q69 -88 69 -269q0 -40 -5.5 -93.5t-9.5 -77.5h-745q-7 -28 -7 -73q0 -80 28.5 -151t99 -116.5t172.5 -45.5q64 0 148.5 17t158.5 49l-12 -125q-160 -57 -298 -57q-85 0 -154 21.5t-118.5 58.5t-83 87t-51.5 116.5 t-18 134.5zM240 597h607q4 26 4 81q0 131 -66.5 199.5t-177.5 68.5q-84 0 -161.5 -43t-126 -116.5t-79.5 -189.5z" />
<glyph unicode="f" horiz-adv-x="683" d="M126 927l26 109h223l31 142q29 133 70 209q42 77 111.5 115.5t159.5 38.5q57 0 140 -22l-31 -118q-52 19 -106 19q-79 0 -131.5 -55.5t-91.5 -248.5l-17 -80h261l-26 -109h-259l-199 -927h-137l204 927h-228z" />
<glyph unicode="g" d="M-5 -367l38 132q58 -43 137.5 -67.5t166.5 -24.5q89 0 165 24.5t122 69t78 110.5q23 46 49 147l36 137q-77 -79 -158 -117.5t-179 -38.5q-162 0 -263.5 108.5t-101.5 309.5q0 139 46 268q58 165 178.5 259.5t292.5 94.5q137 0 219.5 -62t105.5 -163q27 144 47 216h128 q-17 -59 -36 -145l-163 -772q-35 -166 -55 -224q-30 -91 -71 -151t-95.5 -97.5t-139 -62.5t-190.5 -25q-185 0 -357 74zM218 416q0 -141 73 -219.5t194 -78.5q89 0 179 57t148 178t58 263q0 154 -75 236t-195 82q-113 0 -198.5 -69.5t-134.5 -197.5t-49 -251z" />
<glyph unicode="h" d="M57 0l332 1529h133l-150 -654q52 81 140.5 129t200.5 48q161 0 238.5 -88t77.5 -222q0 -70 -31 -213l-114 -529h-130l104 498q34 159 34 227q0 56 -24 107.5t-70.5 77.5t-112.5 26q-73 0 -144 -34.5t-120 -95.5t-88 -173q-19 -55 -46 -180l-97 -453h-133z" />
<glyph unicode="i" horiz-adv-x="455" d="M55 0l220 1036h133l-220 -1036h-133zM323 1320l38 173h154l-36 -173h-156z" />
<glyph unicode="j" horiz-adv-x="455" d="M-251 -417l33 116q32 -17 81 -17q83 0 128 67q28 41 66 225l221 1062h135l-223 -1076q-32 -155 -54 -217q-22 -63 -50.5 -97t-78.5 -58t-127 -24q-58 0 -131 19zM327 1320l38 173h154l-35 -173h-157z" />
<glyph unicode="k" horiz-adv-x="1024" d="M66 0l327 1529h130l-196 -910l547 417h192l-633 -465l470 -571h-169l-426 536l-112 -536h-130z" />
<glyph unicode="l" horiz-adv-x="455" d="M66 0l327 1529h130l-327 -1529h-130z" />
<glyph unicode="m" horiz-adv-x="1707" d="M55 0l161 747q33 153 45 289h126l-7 -58q-9 -54 -19 -106q65 92 146.5 135t181.5 43q126 0 189.5 -56t72.5 -167q118 223 356 223q142 0 219 -74.5t77 -206.5q0 -80 -29 -217l-116 -552h-135l120 565q27 126 27 182q0 92 -50 143t-129 51q-62 0 -121 -29t-99 -72.5 t-77 -124t-60 -184.5l-113 -531h-133l114 536q21 102 27 144t6 75q0 86 -46.5 133.5t-126.5 47.5q-72 0 -133 -33t-100.5 -80.5t-79.5 -142.5q-41 -95 -74 -253l-87 -427h-133z" />
<glyph unicode="n" d="M57 0l161 747q33 153 45 289h135q-3 -41 -26 -164q52 81 140.5 129.5t200.5 48.5q150 0 233 -82.5t83 -230.5q0 -68 -31 -211l-114 -526h-130l104 495q21 101 27 145q7 45 7 81q0 59 -24.5 110t-71 77t-111.5 26q-59 0 -115.5 -22t-102 -62t-76.5 -89.5t-56 -117.5 q-17 -48 -48 -193l-97 -450h-133z" />
<glyph unicode="o" d="M81 423q0 119 37.5 231.5t102 195t130 124t144.5 64t164 22.5q190 0 302.5 -117.5t112.5 -325.5q0 -177 -78 -329t-205.5 -232t-285.5 -80q-188 0 -306 122t-118 325zM221 430q0 -165 81.5 -255t209.5 -90q90 0 161.5 39t125 104t88.5 150q47 115 47 232q0 158 -74 249.5 t-212 91.5q-119 0 -218 -67.5t-154 -195t-55 -258.5z" />
<glyph unicode="p" d="M-31 -431l261 1235q24 115 38 232h121q-5 -66 -29 -166q58 87 147.5 134t198.5 47q166 0 264.5 -107t98.5 -309q0 -153 -56 -297q-67 -172 -186 -263.5t-279 -91.5q-125 0 -207.5 59t-113.5 159l-128 -632h-130zM280 414q0 -151 75 -235t185 -84q81 0 149 37t118 106.5 t82 157.5q42 120 42 233q0 101 -31 172.5t-87.5 104.5t-129.5 33q-96 0 -190 -63t-153.5 -194.5t-59.5 -267.5z" />
<glyph unicode="q" d="M85 407q0 143 54 284q66 171 184.5 265t283.5 94q138 0 221.5 -63.5t102.5 -163.5l10 49q14 72 40 164h126q-31 -126 -52 -225l-268 -1242h-131l133 595q-51 -85 -118 -125q-93 -57 -221 -57q-107 0 -189.5 46t-129 146t-46.5 233zM223 404q0 -156 67 -232.5t181 -76.5 q100 0 193 61t152 192.5t59 275.5q0 149 -75.5 232t-185.5 83q-109 0 -197.5 -69.5t-141 -206t-52.5 -259.5z" />
<glyph unicode="r" horiz-adv-x="683" d="M59 0l178 846q19 90 28 190h128q-1 -54 -23 -168q57 94 143 140q62 33 154 33q48 0 110 -12l-31 -135q-46 17 -105 17q-75 0 -146.5 -42.5t-109.5 -114.5q-53 -99 -82 -237l-106 -517h-138z" />
<glyph unicode="s" horiz-adv-x="796" d="M-24 43l40 130q111 -71 251 -71q141 0 220 64q60 49 60 129q0 101 -109 167l-133 81q-86 52 -124.5 108.5t-38.5 120.5q0 72 43 138.5t131.5 105.5t211.5 39q135 0 263 -52l-40 -121q-103 59 -224 59q-124 0 -194 -54q-54 -42 -54 -104q0 -37 21 -68.5t79 -67.5l130 -80 q99 -61 141 -125t42 -138q0 -87 -48.5 -162t-143 -117t-229.5 -42q-145 0 -295 60z" />
<glyph unicode="t" horiz-adv-x="683" d="M126 927l28 109h204l52 242l147 52l-66 -294h273l-26 -109h-268l-112 -517q-28 -133 -28 -184q0 -56 31 -87.5t89 -31.5q56 0 107 19l-11 -117q-71 -18 -134 -18q-99 0 -158.5 59.5t-59.5 160.5q0 54 15 121l128 595h-211z" />
<glyph unicode="u" d="M137 303q0 33 4 65q5 33 28 142l111 526h128l-102 -491q-34 -165 -34 -229q0 -58 25 -109t73.5 -78t111.5 -27q74 0 137.5 34t105 88t81.5 161q41 108 71 249l83 402h131l-159 -747q-34 -157 -45 -289h-126q8 75 29 180q-55 -91 -143 -142.5t-198 -51.5q-141 0 -226.5 86 t-85.5 231z" />
<glyph unicode="v" horiz-adv-x="910" d="M137 1036h130l109 -910l491 910h147l-583 -1036h-154z" />
<glyph unicode="w" horiz-adv-x="1593" d="M133 1036h133l80 -903l493 903h154l102 -906l455 906h145l-543 -1036h-156l-109 903l-491 -903h-154z" />
<glyph unicode="x" horiz-adv-x="910" d="M-85 0l481 550l-237 486h142l183 -394l332 394h163l-433 -491l246 -545h-147l-190 443l-381 -443h-159z" />
<glyph unicode="y" horiz-adv-x="910" d="M-123 -424l31 118q35 -16 81 -16q69 0 122 41q54 42 124 174l45 86l-147 1057h135l109 -908l491 908h140l-666 -1192q-70 -125 -111 -177t-97.5 -80t-142.5 -28q-62 0 -114 17z" />
<glyph unicode="z" horiz-adv-x="910" d="M-43 0l24 119l780 808h-591l24 109h763l-23 -116l-790 -809h628l-21 -111h-794z" />
<glyph unicode="{" horiz-adv-x="569" d="M-39 598l19 85q125 8 205 60q60 39 90 107q20 44 67 245q38 160 57 212q28 75 77.5 125.5t130.5 81.5q82 32 218 36l-17 -84q-106 -6 -175 -51.5t-105 -120.5q-23 -47 -58 -200q-45 -189 -62 -240q-25 -74 -64 -119t-89 -68t-134 -32q101 -30 145.5 -86.5t44.5 -142.5 q0 -43 -21 -151q-41 -209 -41 -273q0 -70 46 -113.5t162 -53.5l-17 -83q-149 -1 -231 73.5t-82 185.5q0 36 7 87t39 227q15 82 15 118q0 78 -63 122.5t-164 52.5z" />
<glyph unicode="|" horiz-adv-x="455" d="M161 -439v2048h134v-2048h-134z" />
<glyph unicode="}" horiz-adv-x="569" d="M-247 -268l17 85q113 7 181 54.5t102 123.5q21 45 56 194q45 193 62 242q24 72 63 117t88.5 68t135.5 32q-79 27 -114.5 53.5t-56 74.5t-20.5 101q0 42 21 150q42 212 42 273q0 48 -23 85t-65 56.5t-121 26.5l18 82q148 1 230 -73t82 -185q0 -69 -38 -268 q-23 -121 -23 -163q0 -49 30 -90.5t86 -63.5q38 -16 111 -22l-19 -86q-120 -7 -189.5 -50t-100.5 -106q-20 -41 -58 -198l-56 -226q-23 -75 -52.5 -119.5t-78.5 -81.5t-120.5 -59t-189.5 -27z" />
<glyph unicode="~" horiz-adv-x="1229" d="M71 355q13 90 33 135q29 63 87 106t133 43q48 0 86 -9q39 -9 275 -86q119 -39 150 -46q32 -7 61 -7q57 0 100.5 38.5t60.5 120.5h89q-15 -140 -85.5 -210.5t-166.5 -70.5q-46 0 -100 13q-82 19 -290 91q-89 31 -120 38q-32 7 -59 7q-59 0 -105 -43.5t-57 -119.5h-92z" />
<glyph unicode="&#xa0;" />
<glyph unicode="&#xa1;" horiz-adv-x="796" d="M114 -351l254 1072h121l-204 -1072h-171zM382 894l38 173h168l-38 -173h-168z" />
<glyph unicode="&#xa2;" d="M194 462q0 129 55.5 251t143 194.5t204.5 105.5q90 25 225 28l79 248h85l-81 -256q38 -3 89.5 -13.5t76.5 -19.5l-38 -125q-66 29 -166 40l-251 -799q24 -1 32 -1q105 0 248 41l-17 -128q-125 -36 -222 -36q-38 0 -79 3l-87 -277h-83l92 291q-75 15 -149 77.5t-115.5 163 t-41.5 212.5zM338 464q0 -139 73 -239q50 -68 127 -92l246 789q-18 1 -30 1q-94 0 -198.5 -60.5t-161 -168.5t-56.5 -230z" />
<glyph unicode="&#xa3;" d="M38 0l28 123h207l123 581h-183l24 104h183l26 124q39 182 104 286q65 105 173 157t245 52q136 0 253 -52l-40 -119q-105 50 -217 50q-85 0 -151.5 -29t-107 -74t-73.5 -121q-24 -54 -46 -162l-24 -112h344l-22 -104h-343l-126 -581h517l-26 -123h-868z" />
<glyph unicode="&#xa4;" d="M148 1103l82 82l131 -131q63 45 116 63q71 25 148 25q70 0 130.5 -20t130.5 -68l131 131l82 -82l-131 -132q88 -120 88 -262q0 -136 -89 -260l132 -132l-82 -82l-133 132q-121 -90 -260 -90q-64 0 -132.5 22t-128.5 68l-132 -132l-82 82l131 131q-42 57 -61 108 q-28 76 -28 154q0 144 88 262zM316 709q0 -79 40.5 -152.5t114 -114.5t153.5 -41t153 41t114 114.5t41 153.5t-41.5 154t-115.5 114t-151 40q-78 0 -152 -40t-115 -114t-41 -155z" />
<glyph unicode="&#xa5;" d="M169 334l21 100h297l36 165h-300l21 99h243l-285 719h146l268 -695l564 695h167l-600 -719h244l-20 -99h-302l-37 -165h303l-20 -100h-306l-75 -334h-138l72 334h-299z" />
<glyph unicode="&#xa6;" horiz-adv-x="455" d="M161 -183v512h134v-512h-134zM161 841v512h134v-512h-134z" />
<glyph unicode="&#xa7;" d="M55 -185l40 121q157 -93 312 -93q94 0 165.5 31.5t105.5 84.5t34 106q0 63 -35 106t-127 85l-144 66q-50 23 -92 58t-61.5 63.5t-29.5 63.5t-10 77q0 103 63.5 185.5t212.5 140.5q-63 31 -99 88.5t-36 129.5q0 80 43 149.5t135.5 113.5t211.5 44q72 0 145 -16 q74 -16 183 -58l-48 -109q-56 34 -129 55t-139 21q-124 0 -193.5 -61t-69.5 -145q0 -99 110 -153l173 -85q74 -36 108 -64q48 -39 71.5 -85.5t23.5 -98.5q0 -77 -57.5 -166t-198.5 -176q56 -30 91 -86.5t35 -126.5q0 -136 -123.5 -242.5t-333.5 -106.5q-180 0 -337 83z M339 607q0 -57 35 -101q36 -45 134 -96l132 -69q118 90 163 156q46 67 46 125q0 42 -25.5 75t-85.5 66l-180 100q-115 -83 -140 -104q-39 -33 -59 -70.5t-20 -81.5z" />
<glyph unicode="&#xa8;" horiz-adv-x="455" d="M102 1233l33 180h157l-36 -180h-154zM467 1233l33 180h154l-33 -180h-154z" />
<glyph unicode="&#xa9;" horiz-adv-x="1638" d="M139 711q0 191 98.5 367.5t274.5 271.5t361 95t360.5 -95t274 -271.5t98.5 -367.5q0 -121 -37 -231q-38 -111 -103 -199q-65 -89 -155 -157q-91 -69 -205 -107t-233 -38q-122 0 -232 37q-111 38 -199 102q-88 65 -157 155t-107.5 204.5t-38.5 233.5zM216 711 q0 -106 34 -208t96 -183t140 -139q79 -58 178 -92q100 -34 209 -34q149 0 284 65q98 47 180 127.5t137.5 201t55.5 262.5q0 171 -88.5 329t-245.5 243t-323 85t-323.5 -85t-245.5 -243t-88 -329zM495 717q0 118 50 219.5t139 155t194 53.5q143 0 240 -85.5t106 -207.5h-104 q-17 93 -81.5 146t-155.5 53q-113 0 -190.5 -88t-77.5 -242q0 -100 36 -179.5t102.5 -120t141.5 -40.5q88 0 149.5 49t81.5 135h103q-16 -119 -109 -198t-226 -79q-107 0 -200 53.5t-146 153.5t-53 222z" />
<glyph unicode="&#xaa;" horiz-adv-x="666" d="M138 963q0 96 75 154q99 77 295 77q24 0 84 -4q3 27 3 41q0 57 -32 86.5t-102 29.5q-40 0 -82 -11t-114 -44l11 109q120 37 195 37q112 0 168.5 -52.5t56.5 -144.5q0 -44 -25 -159l-28 -127q-16 -77 -23 -159h-97l6 46l2 18q-42 -36 -77 -50q-54 -22 -116 -22 q-91 0 -145.5 50.5t-54.5 124.5zM245 968q0 -40 29 -67t81 -27q82 0 139.5 54t80.5 177q-42 2 -64 2q-149 0 -217 -49q-49 -34 -49 -90z" />
<glyph unicode="&#xab;" horiz-adv-x="1024" d="M128 512l389 420h147l-401 -432l308 -405h-130zM503 512l388 420h147l-400 -432l308 -405h-131z" />
<glyph unicode="&#xac;" horiz-adv-x="1229" d="M85 636v123h1028v-513h-126v390h-902z" />
<glyph unicode="&#xad;" horiz-adv-x="683" d="M81 493l19 111h521l-19 -111h-521z" />
<glyph unicode="&#xae;" horiz-adv-x="770" d="M136 1078q0 96 49 184t137 135.5t178 47.5q93 0 180.5 -47.5t136.5 -136t49 -183.5t-48.5 -182t-135.5 -135.5t-181 -48.5t-181 48.5t-135.5 135.5t-48.5 182zM193 1078q0 -80 41 -154t114.5 -115t152.5 -41q80 0 153 41t114 115t41 154t-41.5 155t-115 115t-152.5 40 q-77 0 -150.5 -40.5t-115 -115t-41.5 -154.5zM357 893v375h139q84 0 121 -22q51 -31 51 -88q0 -31 -17 -54t-52 -36q31 -14 47.5 -41.5t16.5 -77.5q0 -24 1.5 -32.5t8.5 -23.5h-72q-8 19 -8 42q-1 51 -9.5 69t-28.5 27q-21 9 -76 9h-52v-147h-70zM427 1096h66 q62 0 83.5 16.5t21.5 43.5q0 26 -20 41t-87 15h-64v-116z" />
<glyph unicode="&#xaf;" horiz-adv-x="455" d="M85 1275l24 105h526l-24 -105h-526z" />
<glyph unicode="&#xb0;" horiz-adv-x="819" d="M224 1127q0 81 41.5 155.5t116 114.5t152.5 40t152.5 -40.5t116 -115t41.5 -154.5q0 -81 -41 -155t-114.5 -115t-154.5 -41q-80 0 -154 41t-115 115t-41 155zM340 1126q0 -80 57 -137t137 -57t137 57t57 137q0 81 -56.5 138t-137.5 57t-137.5 -57t-56.5 -138z" />
<glyph unicode="&#xb1;" horiz-adv-x="1229" d="M104 -20v123h1028v-123h-1028zM104 546v123h447v356h135v-356h446v-123h-446v-354h-135v354h-447z" />
<glyph unicode="&#xb2;" horiz-adv-x="739" d="M100 567l22 87l225 190q194 164 246 237q53 74 53 131q0 49 -36 81.5t-105 32.5q-57 0 -109.5 -21t-112.5 -67l8 129q110 61 227 61q118 0 183 -60t65 -149q0 -52 -25 -107t-95 -132q-35 -41 -125 -119l-220 -192h373l-22 -102h-552z" />
<glyph unicode="&#xb3;" horiz-adv-x="739" d="M93 600l31 105q83 -47 198 -47q119 0 182 52t63 124q0 62 -46.5 98.5t-168.5 36.5q-17 0 -58 -1l25 97q36 -1 51 -1q158 0 219 44t61 104q0 48 -37 77q-47 38 -135 38q-51 0 -96 -12t-112 -47l12 116q98 44 212 44q132 0 201.5 -60.5t69.5 -147.5q0 -51 -23 -95t-64 -74 q-28 -21 -91 -44q99 -53 99 -169q0 -128 -124 -215q-92 -64 -240 -64q-113 0 -229 41z" />
<glyph unicode="&#xb4;" horiz-adv-x="455" d="M244 1183l173 296h161l-239 -296h-95z" />
<glyph unicode="&#xb5;" horiz-adv-x="1139" d="M-99 -425l299 1405h131l-98 -463q-29 -135 -29 -207q0 -107 55 -162.5t153 -55.5q57 0 112 19.5t104.5 59.5t88.5 97q25 36 48 101q24 65 43 155l97 455h132l-208 -979h-127l32 149q-128 -172 -333 -172q-73 0 -123.5 20t-84.5 55q-21 22 -44 68l-116 -545h-132z" />
<glyph unicode="&#xb6;" horiz-adv-x="1229" d="M175 845q0 112 48 226.5t142 195.5t201 115.5t245 34.5h516l-23 -107h-110l-364 -1710h-130l363 1710h-250l-364 -1710h-130l189 890q-98 10 -162 44q-84 44 -127.5 124t-43.5 187z" />
<glyph unicode="&#xb8;" horiz-adv-x="455" d="M-33 -320l14 59q121 -52 193 -52q52 0 79 23.5t27 58.5q0 34 -24 53q-32 26 -88 26q-30 0 -59 -7l59 192h48l-33 -125q117 0 162.5 -36.5t45.5 -95.5q0 -60 -44 -95q-59 -47 -174 -47q-89 0 -206 46z" />
<glyph unicode="&#xb9;" horiz-adv-x="739" d="M275 1266l258 154h87l-187 -853h-114l157 712l-143 -93z" />
<glyph unicode="&#xba;" horiz-adv-x="739" d="M182 1057q0 154 97.5 270.5t266.5 116.5q121 0 192.5 -73t71.5 -200q0 -106 -48.5 -198.5t-129 -141.5t-180.5 -49q-120 0 -195 75.5t-75 199.5zM290 1061q0 -91 46 -141.5t120 -50.5q108 0 177.5 93.5t69.5 204.5q0 93 -44 141.5t-120 48.5q-113 0 -181 -89.5 t-68 -206.5z" />
<glyph unicode="&#xbb;" horiz-adv-x="1024" d="M0 95l401 431l-309 406h131l313 -418l-389 -419h-147zM375 95l400 431l-308 406h130l313 -418l-389 -419h-146z" />
<glyph unicode="&#xbc;" horiz-adv-x="1708" d="M161 1266l258 154h87l-187 -853h-114l157 712l-143 -93zM263 -26l912 1462h114l-913 -1462h-113zM914 195l23 97l523 561h130l-127 -561h126l-19 -97h-128l-44 -195h-111l44 195h-417zM1072 292h282l95 415z" />
<glyph unicode="&#xbd;" horiz-adv-x="1708" d="M203 1266l258 154h87l-187 -853h-114l157 712l-143 -93zM305 -26l912 1462h114l-913 -1462h-113zM958 0l21 87l226 190q194 164 246 238q53 74 53 130q0 49 -36 81.5t-106 32.5q-57 0 -109 -21t-113 -67l9 129q110 61 226 61q118 0 183.5 -60t65.5 -149q0 -52 -25 -107 t-95 -132q-36 -41 -126 -119l-220 -192h374l-22 -102h-552z" />
<glyph unicode="&#xbe;" horiz-adv-x="1708" d="M-6 600l31 105q83 -47 198 -47q119 0 182 52t63 124q0 62 -46.5 98.5t-168.5 36.5q-17 0 -58 -1l25 97q36 -1 51 -1q158 0 219 44t61 104q0 48 -42 81.5t-130 33.5q-51 0 -96 -12t-112 -47l12 116q97 44 211 44q133 0 202.5 -60.5t69.5 -147.5q0 -50 -22.5 -94t-63.5 -75 q-28 -21 -92 -44q99 -54 99 -169q0 -129 -124 -215q-93 -64 -240 -64q-114 0 -229 41zM311 -26l913 1462h114l-913 -1462h-114zM963 195l22 97l524 561h129l-126 -561h126l-19 -97h-128l-44 -195h-111l44 195h-417zM1120 292h282l96 415z" />
<glyph unicode="&#xbf;" horiz-adv-x="1024" d="M76 -63q0 65 22 124.5t73 125.5t123 126l128 107q69 57 99 92t50 81.5t34 127.5h118q-19 -116 -50 -182q-22 -50 -65 -99q-27 -31 -108 -99l-113 -94q-93 -77 -135 -149q-43 -72 -43 -133q0 -55 30 -104.5t90.5 -77.5t143.5 -28q51 0 120 14.5t133 40.5l-24 -128 q-138 -45 -251 -45q-109 0 -199 38.5t-133 107.5t-43 154zM621 894l38 173h166l-33 -173h-171z" />
<glyph unicode="&#xc0;" horiz-adv-x="1365" d="M-88 0l889 1417h168l278 -1417h-143l-73 384h-728l-237 -384h-154zM379 507h628l-144 787zM673 1791h159l173 -296h-85z" />
<glyph unicode="&#xc1;" horiz-adv-x="1365" d="M-88 0l889 1417h168l278 -1417h-143l-73 384h-728l-237 -384h-154zM379 507h628l-144 787zM794 1495l173 296h161l-239 -296h-95z" />
<glyph unicode="&#xc2;" horiz-adv-x="1365" d="M-88 0l889 1417h168l278 -1417h-143l-73 384h-728l-237 -384h-154zM379 507h628l-144 787zM616 1495l239 296h154l150 -296h-74l-158 218l-221 -218h-90z" />
<glyph unicode="&#xc3;" horiz-adv-x="1365" d="M-88 0l889 1417h168l278 -1417h-143l-73 384h-728l-237 -384h-154zM379 507h628l-144 787zM620 1533q9 82 63 135q42 40 115 40q23 0 45 -4q15 -3 87 -24q48 -15 77 -15q34 0 56 15.5t36 48.5h76q-16 -84 -63.5 -126t-115.5 -42q-34 0 -103 21q-69 22 -103 22 q-43 0 -66 -18t-31 -53h-73z" />
<glyph unicode="&#xc4;" horiz-adv-x="1365" d="M-88 0l889 1417h168l278 -1417h-143l-73 384h-728l-237 -384h-154zM379 507h628l-144 787zM651 1544l33 180h157l-36 -180h-154zM1016 1544l33 180h154l-33 -180h-154z" />
<glyph unicode="&#xc5;" horiz-adv-x="1365" d="M-88 0l889 1417h168l278 -1417h-143l-73 384h-728l-237 -384h-154zM379 507h628l-144 787zM718 1663q0 85 60 144.5t144 59.5t144 -59.5t60 -144.5q0 -84 -60 -144t-144 -60t-144 59.5t-60 144.5zM787 1663q0 -56 39.5 -95.5t95.5 -39.5t95.5 39.5t39.5 95.5t-39.5 95.5 t-95.5 39.5t-95.5 -39.5t-39.5 -95.5z" />
<glyph unicode="&#xc6;" horiz-adv-x="1820" d="M-81 0l1083 1417h875l-21 -118h-629l-56 -505h540l-26 -118h-529l-71 -553h543l-28 -123h-671l47 379h-602l-289 -379h-166zM457 498h536l102 818z" />
<glyph unicode="&#xc7;" horiz-adv-x="1252" d="M168 611q0 223 105.5 414.5t294 296.5t426.5 105q98 0 198 -18.5t178 -50.5l-48 -121q-71 39 -160 57.5t-174 18.5q-184 0 -341 -89.5t-245.5 -257.5t-88.5 -349q0 -140 64 -258.5t174 -183t249 -64.5q141 0 309 64l-16 -132q-165 -49 -297 -49q-43 0 -83 4l-24 -90 q118 0 163.5 -36.5t45.5 -95.5q0 -60 -45 -95q-59 -47 -174 -47q-88 0 -205 46l14 59q121 -52 192 -52q53 0 79.5 23.5t26.5 58.5q0 34 -24 53q-31 26 -87 26q-31 0 -59 -7l50 163q-142 20 -258 105.5t-178 210.5t-62 291z" />
<glyph unicode="&#xc8;" horiz-adv-x="1024" d="M76 0l294 1417h706l-23 -118h-567l-104 -505h533l-21 -118h-538l-114 -557h588l-22 -119h-732zM502 1791h159l173 -296h-85z" />
<glyph unicode="&#xc9;" horiz-adv-x="1024" d="M76 0l294 1417h706l-23 -118h-567l-104 -505h533l-21 -118h-538l-114 -557h588l-22 -119h-732zM623 1495l173 296h161l-239 -296h-95z" />
<glyph unicode="&#xca;" horiz-adv-x="1024" d="M76 0l294 1417h706l-23 -118h-567l-104 -505h533l-21 -118h-538l-114 -557h588l-22 -119h-732zM445 1495l239 296h154l150 -296h-74l-158 218l-221 -218h-90z" />
<glyph unicode="&#xcb;" horiz-adv-x="1024" d="M76 0l294 1417h706l-23 -118h-567l-104 -505h533l-21 -118h-538l-114 -557h588l-22 -119h-732zM481 1544l33 180h157l-36 -180h-154zM846 1544l33 180h154l-33 -180h-154z" />
<glyph unicode="&#xcc;" horiz-adv-x="455" d="M57 0l303 1417h143l-304 -1417h-142zM218 1791h159l173 -296h-85z" />
<glyph unicode="&#xcd;" horiz-adv-x="455" d="M57 0l303 1417h143l-304 -1417h-142zM339 1495l173 296h161l-239 -296h-95z" />
<glyph unicode="&#xce;" horiz-adv-x="455" d="M57 0l303 1417h143l-304 -1417h-142zM161 1495l239 296h154l150 -296h-74l-158 218l-221 -218h-90z" />
<glyph unicode="&#xcf;" horiz-adv-x="455" d="M57 0l303 1417h143l-304 -1417h-142zM196 1544l33 180h157l-36 -180h-154zM561 1544l33 180h154l-33 -180h-154z" />
<glyph unicode="&#xd0;" horiz-adv-x="1365" d="M72 709l21 104h155l129 604h301q120 0 239.5 -27t208.5 -99.5t140.5 -188t51.5 -268.5q0 -172 -69.5 -345t-198.5 -288.5t-269.5 -158t-342.5 -42.5h-362l150 709h-154zM242 123h142q160 0 262 18t195.5 70t169.5 144t119 223.5t43 259.5q0 160 -63 264t-170 150.5 t-281 46.5h-166l-103 -486h456l-20 -104h-458z" />
<glyph unicode="&#xd1;" horiz-adv-x="1365" d="M62 0l306 1417h161l481 -1244l263 1244h131l-301 -1417h-166l-482 1240l-258 -1240h-135zM621 1533q9 82 63 135q42 40 115 40q23 0 45 -4q15 -3 87 -24q48 -15 77 -15q34 0 56 15.5t36 48.5h76q-16 -84 -63.5 -126t-115.5 -42q-34 0 -103 21q-69 22 -103 22 q-43 0 -66 -18t-31 -53h-73z" />
<glyph unicode="&#xd2;" horiz-adv-x="1479" d="M142 557q0 219 84 412q55 125 146 232.5t206 167.5q145 76 325 76q153 0 277.5 -63t190 -196t65.5 -313q0 -229 -100 -450t-274 -332.5t-383 -111.5q-242 0 -389.5 153t-147.5 425zM284 565q0 -219 112.5 -341t295.5 -122q135 0 236 55t176.5 149.5t122.5 212.5 q67 167 67 348q0 221 -111 338.5t-294 117.5q-130 0 -235.5 -57t-183.5 -155.5t-132 -244t-54 -301.5zM706 1793h159l173 -296h-85z" />
<glyph unicode="&#xd3;" horiz-adv-x="1479" d="M142 557q0 219 84 412q55 125 146 232.5t206 167.5q145 76 325 76q153 0 277.5 -63t190 -196t65.5 -313q0 -229 -100 -450t-274 -332.5t-383 -111.5q-242 0 -389.5 153t-147.5 425zM284 565q0 -219 112.5 -341t295.5 -122q135 0 236 55t176.5 149.5t122.5 212.5 q67 167 67 348q0 221 -111 338.5t-294 117.5q-130 0 -235.5 -57t-183.5 -155.5t-132 -244t-54 -301.5zM826 1497l173 296h161l-239 -296h-95z" />
<glyph unicode="&#xd4;" horiz-adv-x="1479" d="M142 557q0 219 84 412q55 125 146 232.5t206 167.5q145 76 325 76q153 0 277.5 -63t190 -196t65.5 -313q0 -229 -100 -450t-274 -332.5t-383 -111.5q-242 0 -389.5 153t-147.5 425zM284 565q0 -219 112.5 -341t295.5 -122q135 0 236 55t176.5 149.5t122.5 212.5 q67 167 67 348q0 221 -111 338.5t-294 117.5q-130 0 -235.5 -57t-183.5 -155.5t-132 -244t-54 -301.5zM649 1497l239 296h154l150 -296h-74l-158 218l-221 -218h-90z" />
<glyph unicode="&#xd5;" horiz-adv-x="1479" d="M142 557q0 219 84 412q55 125 146 232.5t206 167.5q145 76 325 76q153 0 277.5 -63t190 -196t65.5 -313q0 -229 -100 -450t-274 -332.5t-383 -111.5q-242 0 -389.5 153t-147.5 425zM284 565q0 -219 112.5 -341t295.5 -122q135 0 236 55t176.5 149.5t122.5 212.5 q67 167 67 348q0 221 -111 338.5t-294 117.5q-130 0 -235.5 -57t-183.5 -155.5t-132 -244t-54 -301.5zM653 1535q9 82 63 135q42 40 115 40q23 0 45 -4q15 -3 87 -24q48 -15 77 -15q34 0 56 15.5t36 48.5h76q-16 -84 -63.5 -126t-115.5 -42q-34 0 -103 21q-69 22 -103 22 q-43 0 -66 -18t-31 -53h-73z" />
<glyph unicode="&#xd6;" horiz-adv-x="1479" d="M142 557q0 219 84 412q55 125 146 232.5t206 167.5q145 76 325 76q153 0 277.5 -63t190 -196t65.5 -313q0 -229 -100 -450t-274 -332.5t-383 -111.5q-242 0 -389.5 153t-147.5 425zM284 565q0 -219 112.5 -341t295.5 -122q135 0 236 55t176.5 149.5t122.5 212.5 q67 167 67 348q0 221 -111 338.5t-294 117.5q-130 0 -235.5 -57t-183.5 -155.5t-132 -244t-54 -301.5zM684 1546l33 180h157l-36 -180h-154zM1049 1546l33 180h154l-33 -180h-154z" />
<glyph unicode="&#xd7;" horiz-adv-x="1229" d="M68 108l394 394l-394 395l93 92l393 -395l395 395l93 -92l-395 -394l394 -395l-92 -92l-394 395l-394 -395z" />
<glyph unicode="&#xd8;" horiz-adv-x="1479" d="M47 24l183 184q-88 136 -88 352q0 210 80 399q54 127 145.5 237.5t224 179.5t308.5 69q117 0 221.5 -37.5t179.5 -119.5l166 167l66 -59l-179 -180q82 -140 82 -345q0 -226 -99.5 -447t-273.5 -333t-384 -112q-245 0 -394 158l-172 -173zM284 568q0 -148 52 -253l864 871 q-115 137 -311 137q-130 0 -236 -57.5t-184 -156.5t-131.5 -244.5t-53.5 -296.5zM385 238q111 -136 305 -136q129 0 229 51t177.5 144.5t127.5 213.5q70 171 70 350q0 149 -46 248z" />
<glyph unicode="&#xd9;" horiz-adv-x="1365" d="M173 407q0 66 13 155t70 353l109 502h135l-142 -673q-48 -224 -48 -327q0 -143 89 -231.5t234 -88.5q78 0 150.5 26.5t126.5 72.5q39 34 76 95t59 125q15 42 50 203l176 798h130l-164 -768q-40 -190 -60 -251q-36 -107 -80.5 -174t-110 -121.5t-158.5 -88t-207 -33.5 q-202 0 -325 120t-123 306zM673 1791h159l173 -296h-85z" />
<glyph unicode="&#xda;" horiz-adv-x="1365" d="M173 407q0 66 13 155t70 353l109 502h135l-142 -673q-48 -224 -48 -327q0 -143 89 -231.5t234 -88.5q78 0 150.5 26.5t126.5 72.5q39 34 76 95t59 125q15 42 50 203l176 798h130l-164 -768q-40 -190 -60 -251q-36 -107 -80.5 -174t-110 -121.5t-158.5 -88t-207 -33.5 q-202 0 -325 120t-123 306zM794 1495l173 296h161l-239 -296h-95z" />
<glyph unicode="&#xdb;" horiz-adv-x="1365" d="M173 407q0 66 13 155t70 353l109 502h135l-142 -673q-48 -224 -48 -327q0 -143 89 -231.5t234 -88.5q78 0 150.5 26.5t126.5 72.5q39 34 76 95t59 125q15 42 50 203l176 798h130l-164 -768q-40 -190 -60 -251q-36 -107 -80.5 -174t-110 -121.5t-158.5 -88t-207 -33.5 q-202 0 -325 120t-123 306zM616 1495l239 296h154l150 -296h-74l-158 218l-221 -218h-90z" />
<glyph unicode="&#xdc;" horiz-adv-x="1365" d="M173 407q0 66 13 155t70 353l109 502h135l-142 -673q-48 -224 -48 -327q0 -143 89 -231.5t234 -88.5q78 0 150.5 26.5t126.5 72.5q39 34 76 95t59 125q15 42 50 203l176 798h130l-164 -768q-40 -190 -60 -251q-36 -107 -80.5 -174t-110 -121.5t-158.5 -88t-207 -33.5 q-202 0 -325 120t-123 306zM623 1544l33 180h157l-36 -180h-154zM988 1544l33 180h154l-33 -180h-154z" />
<glyph unicode="&#xdd;" horiz-adv-x="1252" d="M218 1417h149l301 -696l602 696h169l-716 -813l-135 -604h-138l128 602zM737 1495l173 296h161l-239 -296h-95z" />
<glyph unicode="&#xde;" horiz-adv-x="1024" d="M101 0l303 1417h140l-54 -254h108q127 0 185 -10q95 -17 154.5 -56.5t97.5 -116t38 -172.5q0 -88 -33 -164t-90.5 -135t-130 -91t-174.5 -48q-65 -10 -172 -10h-156l-77 -360h-139zM342 474h112q112 0 170 11q87 16 132.5 39.5t83 62t62 94t24.5 120.5q0 114 -73.5 177 t-256.5 63h-133z" />
<glyph unicode="&#xdf;" d="M69 0l239 1133q44 208 165.5 312.5t293.5 104.5q165 0 258.5 -90.5t93.5 -240.5q0 -151 -93.5 -270t-266.5 -136q137 -17 213 -101.5t76 -218.5q0 -130 -60.5 -251t-172.5 -187.5t-267 -66.5q-92 0 -221 36l38 125q83 -43 182 -43q183 0 269.5 114t86.5 254 q0 157 -114 230q-70 45 -229 43l19 118q189 -1 296 94.5t107 240.5q0 110 -61 172t-163 62q-66 0 -118.5 -24.5t-85.5 -59.5t-67.5 -102t-54.5 -165l-230 -1083h-133z" />
<glyph unicode="&#xe0;" horiz-adv-x="1024" d="M36 264q0 171 151 271t434 100q89 0 157 -7q7 49 7 88q0 108 -58.5 163t-179.5 55q-64 0 -132 -17.5t-168 -63.5l14 138q183 59 302 59q109 0 189.5 -35.5t120.5 -108t40 -171.5q0 -37 -7 -88q-7 -52 -33 -178l-45 -215q-27 -128 -38 -254h-121l7 57q7 55 14 99 q-59 -87 -149 -128.5t-195 -41.5q-141 0 -225.5 79.5t-84.5 198.5zM173 272q0 -75 54 -126.5t147 -51.5q151 0 246.5 103t136.5 324q-79 6 -130 6q-100 0 -185 -15q-85 -16 -144.5 -48.5t-92 -82.5t-32.5 -109zM431 1479h159l173 -296h-85z" />
<glyph unicode="&#xe1;" horiz-adv-x="1024" d="M36 264q0 171 151 271t434 100q89 0 157 -7q7 49 7 88q0 108 -58.5 163t-179.5 55q-64 0 -132 -17.5t-168 -63.5l14 138q183 59 302 59q109 0 189.5 -35.5t120.5 -108t40 -171.5q0 -37 -7 -88q-7 -52 -33 -178l-45 -215q-27 -128 -38 -254h-121l7 57q7 55 14 99 q-59 -87 -149 -128.5t-195 -41.5q-141 0 -225.5 79.5t-84.5 198.5zM173 272q0 -75 54 -126.5t147 -51.5q151 0 246.5 103t136.5 324q-79 6 -130 6q-100 0 -185 -15q-85 -16 -144.5 -48.5t-92 -82.5t-32.5 -109zM552 1183l173 296h161l-239 -296h-95z" />
<glyph unicode="&#xe2;" horiz-adv-x="1024" d="M36 264q0 171 151 271t434 100q89 0 157 -7q7 49 7 88q0 108 -58.5 163t-179.5 55q-64 0 -132 -17.5t-168 -63.5l14 138q183 59 302 59q109 0 189.5 -35.5t120.5 -108t40 -171.5q0 -37 -7 -88q-7 -52 -33 -178l-45 -215q-27 -128 -38 -254h-121l7 57q7 55 14 99 q-59 -87 -149 -128.5t-195 -41.5q-141 0 -225.5 79.5t-84.5 198.5zM173 272q0 -75 54 -126.5t147 -51.5q151 0 246.5 103t136.5 324q-79 6 -130 6q-100 0 -185 -15q-85 -16 -144.5 -48.5t-92 -82.5t-32.5 -109zM355 1183l239 296h154l150 -296h-74l-158 218l-221 -218h-90z " />
<glyph unicode="&#xe3;" horiz-adv-x="1024" d="M36 264q0 171 151 271t434 100q89 0 157 -7q7 49 7 88q0 108 -58.5 163t-179.5 55q-64 0 -132 -17.5t-168 -63.5l14 138q183 59 302 59q109 0 189.5 -35.5t120.5 -108t40 -171.5q0 -37 -7 -88q-7 -52 -33 -178l-45 -215q-27 -128 -38 -254h-121l7 57q7 55 14 99 q-59 -87 -149 -128.5t-195 -41.5q-141 0 -225.5 79.5t-84.5 198.5zM173 272q0 -75 54 -126.5t147 -51.5q151 0 246.5 103t136.5 324q-79 6 -130 6q-100 0 -185 -15q-85 -16 -144.5 -48.5t-92 -82.5t-32.5 -109zM360 1221q9 82 63 135q42 40 115 40q23 0 45 -4q15 -3 87 -24 q48 -15 77 -15q34 0 56 15.5t36 48.5h76q-16 -84 -63.5 -126t-115.5 -42q-34 0 -103 21q-69 22 -103 22q-43 0 -66 -18t-31 -53h-73z" />
<glyph unicode="&#xe4;" horiz-adv-x="1024" d="M36 264q0 171 151 271t434 100q89 0 157 -7q7 49 7 88q0 108 -58.5 163t-179.5 55q-64 0 -132 -17.5t-168 -63.5l14 138q183 59 302 59q109 0 189.5 -35.5t120.5 -108t40 -171.5q0 -37 -7 -88q-7 -52 -33 -178l-45 -215q-27 -128 -38 -254h-121l7 57q7 55 14 99 q-59 -87 -149 -128.5t-195 -41.5q-141 0 -225.5 79.5t-84.5 198.5zM173 272q0 -75 54 -126.5t147 -51.5q151 0 246.5 103t136.5 324q-79 6 -130 6q-100 0 -185 -15q-85 -16 -144.5 -48.5t-92 -82.5t-32.5 -109zM391 1233l33 180h157l-36 -180h-154zM756 1233l33 180h154 l-33 -180h-154z" />
<glyph unicode="&#xe5;" horiz-adv-x="1024" d="M36 264q0 171 151 271t434 100q89 0 157 -7q7 49 7 88q0 108 -58.5 163t-179.5 55q-64 0 -132 -17.5t-168 -63.5l14 138q183 59 302 59q109 0 189.5 -35.5t120.5 -108t40 -171.5q0 -37 -7 -88q-7 -52 -33 -178l-45 -215q-27 -128 -38 -254h-121l7 57q7 55 14 99 q-59 -87 -149 -128.5t-195 -41.5q-141 0 -225.5 79.5t-84.5 198.5zM173 272q0 -75 54 -126.5t147 -51.5q151 0 246.5 103t136.5 324q-79 6 -130 6q-100 0 -185 -15q-85 -16 -144.5 -48.5t-92 -82.5t-32.5 -109zM448 1351q0 85 60 144.5t144 59.5t144 -59.5t60 -144.5 q0 -84 -60 -144t-144 -60t-144 59.5t-60 144.5zM517 1351q0 -56 39.5 -95.5t95.5 -39.5t95.5 39.5t39.5 95.5t-39.5 95.5t-95.5 39.5t-95.5 -39.5t-39.5 -95.5z" />
<glyph unicode="&#xe6;" horiz-adv-x="1593" d="M31 274q0 71 31 132.5t88.5 106t130.5 67.5q73 24 202 33q75 6 252 6q7 47 7 88q0 108 -56.5 166.5t-153.5 58.5q-64 0 -142 -21.5t-134 -54.5l17 132q55 28 136.5 45t153.5 17q76 0 137 -24t94.5 -64.5t51.5 -105.5q115 204 366 204q166 0 252 -92t86 -284 q0 -77 -16 -177h-699q-3 -36 -3 -51q0 -161 60 -242q85 -112 231 -112q58 0 133 17t121 40l-16 -123q-143 -49 -266 -49q-143 0 -239 73.5t-121 190.5q-33 -124 -129 -194.5t-244 -70.5q-149 0 -240 84.5t-91 203.5zM171 276q0 -77 53.5 -129t141.5 -52q140 0 222.5 100.5 t125.5 311.5q-69 3 -91 3q-94 0 -188 -13t-149 -40t-85 -74.5t-30 -106.5zM854 619h566q5 29 5 68q0 126 -56.5 195t-169.5 69t-197 -75q-109 -98 -148 -257z" />
<glyph unicode="&#xe7;" horiz-adv-x="910" d="M95 457q0 142 68.5 281.5t204 221t343.5 81.5q145 0 261 -41l-38 -125q-128 50 -257 50q-183 0 -310 -132t-127 -333q0 -164 86 -255t227 -91q101 0 244 45l-17 -131q-140 -34 -250 -34q-14 0 -35 1l-23 -87q118 0 163.5 -36.5t45.5 -95.5q0 -60 -45 -95 q-59 -47 -174 -47q-89 0 -206 46l14 59q121 -52 193 -52q53 0 79.5 23.5t26.5 58.5q0 34 -24 53q-32 26 -88 26q-30 0 -59 -7l50 159q-101 16 -182 76t-126 161.5t-45 219.5z" />
<glyph unicode="&#xe8;" horiz-adv-x="1024" d="M83 404q0 168 70 331.5t187 243t272 79.5q196 0 297 -130q69 -88 69 -269q0 -40 -5.5 -93.5t-9.5 -77.5h-745q-7 -28 -7 -73q0 -80 28.5 -151t99 -116.5t172.5 -45.5q64 0 148.5 17t158.5 49l-12 -125q-160 -57 -298 -57q-85 0 -154 21.5t-118.5 58.5t-83 87t-51.5 116.5 t-18 134.5zM240 597h607q4 26 4 81q0 131 -66.5 199.5t-177.5 68.5q-84 0 -161.5 -43t-126 -116.5t-79.5 -189.5zM431 1479h159l173 -296h-85z" />
<glyph unicode="&#xe9;" horiz-adv-x="1024" d="M83 404q0 168 70 331.5t187 243t272 79.5q196 0 297 -130q69 -88 69 -269q0 -40 -5.5 -93.5t-9.5 -77.5h-745q-7 -28 -7 -73q0 -80 28.5 -151t99 -116.5t172.5 -45.5q64 0 148.5 17t158.5 49l-12 -125q-160 -57 -298 -57q-85 0 -154 21.5t-118.5 58.5t-83 87t-51.5 116.5 t-18 134.5zM240 597h607q4 26 4 81q0 131 -66.5 199.5t-177.5 68.5q-84 0 -161.5 -43t-126 -116.5t-79.5 -189.5zM553 1183l173 296h161l-239 -296h-95z" />
<glyph unicode="&#xea;" horiz-adv-x="1024" d="M83 404q0 168 70 331.5t187 243t272 79.5q196 0 297 -130q69 -88 69 -269q0 -40 -5.5 -93.5t-9.5 -77.5h-745q-7 -28 -7 -73q0 -80 28.5 -151t99 -116.5t172.5 -45.5q64 0 148.5 17t158.5 49l-12 -125q-160 -57 -298 -57q-85 0 -154 21.5t-118.5 58.5t-83 87t-51.5 116.5 t-18 134.5zM240 597h607q4 26 4 81q0 131 -66.5 199.5t-177.5 68.5q-84 0 -161.5 -43t-126 -116.5t-79.5 -189.5zM374 1183l239 296h154l150 -296h-74l-158 218l-221 -218h-90z" />
<glyph unicode="&#xeb;" horiz-adv-x="1024" d="M83 404q0 168 70 331.5t187 243t272 79.5q196 0 297 -130q69 -88 69 -269q0 -40 -5.5 -93.5t-9.5 -77.5h-745q-7 -28 -7 -73q0 -80 28.5 -151t99 -116.5t172.5 -45.5q64 0 148.5 17t158.5 49l-12 -125q-160 -57 -298 -57q-85 0 -154 21.5t-118.5 58.5t-83 87t-51.5 116.5 t-18 134.5zM240 597h607q4 26 4 81q0 131 -66.5 199.5t-177.5 68.5q-84 0 -161.5 -43t-126 -116.5t-79.5 -189.5zM410 1233l33 180h157l-36 -180h-154zM775 1233l33 180h154l-33 -180h-154z" />
<glyph unicode="&#xec;" horiz-adv-x="455" d="M55 0l220 1036h133l-220 -1036h-133zM147 1479h159l173 -296h-85z" />
<glyph unicode="&#xed;" horiz-adv-x="455" d="M55 0l220 1036h133l-220 -1036h-133zM268 1183l173 296h161l-239 -296h-95z" />
<glyph unicode="&#xee;" horiz-adv-x="455" d="M55 0l220 1036h133l-220 -1036h-133zM90 1183l239 296h154l150 -296h-74l-158 218l-221 -218h-90z" />
<glyph unicode="&#xef;" horiz-adv-x="455" d="M55 0l220 1036h133l-220 -1036h-133zM126 1233l33 180h157l-36 -180h-154zM491 1233l33 180h154l-33 -180h-154z" />
<glyph unicode="&#xf0;" d="M85 418q0 279 172 469q147 163 365 163q112 0 197 -40q60 -29 110 -86q-27 125 -79 215t-147 175l-231 -129l-69 67l221 122q-105 67 -221 104l50 83q59 -13 134 -46q76 -34 148 -81l240 134l70 -67l-233 -127q92 -91 136 -157q60 -91 98.5 -221.5t38.5 -295.5 q0 -348 -167 -537t-409 -189q-119 0 -193 37t-125 96t-78.5 132t-27.5 179zM223 421q0 -159 82.5 -249.5t206.5 -90.5q105 0 201.5 63.5t160 197t63.5 272.5q0 155 -81.5 240.5t-216.5 85.5q-118 0 -214 -66.5t-149 -194t-53 -258.5z" />
<glyph unicode="&#xf1;" d="M57 0l161 747q33 153 45 289h135q-3 -41 -26 -164q52 81 140.5 129.5t200.5 48.5q150 0 233 -82.5t83 -230.5q0 -68 -31 -211l-114 -526h-130l104 495q21 101 27 145q7 45 7 81q0 59 -24.5 110t-71 77t-111.5 26q-59 0 -115.5 -22t-102 -62t-76.5 -89.5t-56 -117.5 q-17 -48 -48 -193l-97 -450h-133zM417 1221q9 82 63 135q42 40 115 40q23 0 45 -4q15 -3 87 -24q48 -15 77 -15q34 0 56 15.5t36 48.5h76q-16 -84 -63.5 -126t-115.5 -42q-34 0 -103 21q-69 22 -103 22q-43 0 -66 -18t-31 -53h-73z" />
<glyph unicode="&#xf2;" d="M81 423q0 119 37.5 231.5t102 195t130 124t144.5 64t164 22.5q190 0 302.5 -117.5t112.5 -325.5q0 -177 -78 -329t-205.5 -232t-285.5 -80q-188 0 -306 122t-118 325zM221 430q0 -165 81.5 -255t209.5 -90q90 0 161.5 39t125 104t88.5 150q47 115 47 232q0 158 -74 249.5 t-212 91.5q-119 0 -218 -67.5t-154 -195t-55 -258.5zM488 1479h159l173 -296h-85z" />
<glyph unicode="&#xf3;" d="M81 423q0 119 37.5 231.5t102 195t130 124t144.5 64t164 22.5q190 0 302.5 -117.5t112.5 -325.5q0 -177 -78 -329t-205.5 -232t-285.5 -80q-188 0 -306 122t-118 325zM221 430q0 -165 81.5 -255t209.5 -90q90 0 161.5 39t125 104t88.5 150q47 115 47 232q0 158 -74 249.5 t-212 91.5q-119 0 -218 -67.5t-154 -195t-55 -258.5zM609 1183l173 296h161l-239 -296h-95z" />
<glyph unicode="&#xf4;" d="M81 423q0 119 37.5 231.5t102 195t130 124t144.5 64t164 22.5q190 0 302.5 -117.5t112.5 -325.5q0 -177 -78 -329t-205.5 -232t-285.5 -80q-188 0 -306 122t-118 325zM221 430q0 -165 81.5 -255t209.5 -90q90 0 161.5 39t125 104t88.5 150q47 115 47 232q0 158 -74 249.5 t-212 91.5q-119 0 -218 -67.5t-154 -195t-55 -258.5zM431 1183l239 296h154l150 -296h-74l-158 218l-221 -218h-90z" />
<glyph unicode="&#xf5;" d="M81 423q0 119 37.5 231.5t102 195t130 124t144.5 64t164 22.5q190 0 302.5 -117.5t112.5 -325.5q0 -177 -78 -329t-205.5 -232t-285.5 -80q-188 0 -306 122t-118 325zM221 430q0 -165 81.5 -255t209.5 -90q90 0 161.5 39t125 104t88.5 150q47 115 47 232q0 158 -74 249.5 t-212 91.5q-119 0 -218 -67.5t-154 -195t-55 -258.5zM436 1221q9 82 63 135q42 40 115 40q23 0 45 -4q15 -3 87 -24q48 -15 77 -15q34 0 56 15.5t36 48.5h76q-16 -84 -63.5 -126t-115.5 -42q-34 0 -103 21q-69 22 -103 22q-43 0 -66 -18t-31 -53h-73z" />
<glyph unicode="&#xf6;" d="M81 423q0 119 37.5 231.5t102 195t130 124t144.5 64t164 22.5q190 0 302.5 -117.5t112.5 -325.5q0 -177 -78 -329t-205.5 -232t-285.5 -80q-188 0 -306 122t-118 325zM221 430q0 -165 81.5 -255t209.5 -90q90 0 161.5 39t125 104t88.5 150q47 115 47 232q0 158 -74 249.5 t-212 91.5q-119 0 -218 -67.5t-154 -195t-55 -258.5zM467 1233l33 180h157l-36 -180h-154zM832 1233l33 180h154l-33 -180h-154z" />
<glyph unicode="&#xf7;" horiz-adv-x="1229" d="M104 441v123h1028v-123h-1028zM534 26v220h168v-220h-168zM534 759v220h168v-220h-168z" />
<glyph unicode="&#xf8;" d="M36 19l124 126q-79 111 -79 279q0 171 76 323t205 232.5t294 80.5q186 0 295 -107l111 114l55 -48l-119 -122q37 -51 56.5 -125.5t19.5 -156.5q0 -175 -78 -327t-205.5 -232t-285.5 -80q-185 0 -297 113l-120 -122zM221 433q0 -111 36 -188l603 615q-72 91 -212 91 q-119 0 -218 -67t-154 -195t-55 -256zM297 181q83 -96 214 -96q90 0 162 38.5t125.5 104t88.5 149.5q47 116 47 231q0 106 -36 187z" />
<glyph unicode="&#xf9;" d="M137 303q0 33 4 65q5 33 28 142l111 526h128l-102 -491q-34 -165 -34 -229q0 -58 25 -109t73.5 -78t111.5 -27q74 0 137.5 34t105 88t81.5 161q41 108 71 249l83 402h131l-159 -747q-34 -157 -45 -289h-126q8 75 29 180q-55 -91 -143 -142.5t-198 -51.5q-141 0 -226.5 86 t-85.5 231zM488 1479h159l173 -296h-85z" />
<glyph unicode="&#xfa;" d="M137 303q0 33 4 65q5 33 28 142l111 526h128l-102 -491q-34 -165 -34 -229q0 -58 25 -109t73.5 -78t111.5 -27q74 0 137.5 34t105 88t81.5 161q41 108 71 249l83 402h131l-159 -747q-34 -157 -45 -289h-126q8 75 29 180q-55 -91 -143 -142.5t-198 -51.5q-141 0 -226.5 86 t-85.5 231zM609 1183l173 296h161l-239 -296h-95z" />
<glyph unicode="&#xfb;" d="M137 303q0 33 4 65q5 33 28 142l111 526h128l-102 -491q-34 -165 -34 -229q0 -58 25 -109t73.5 -78t111.5 -27q74 0 137.5 34t105 88t81.5 161q41 108 71 249l83 402h131l-159 -747q-34 -157 -45 -289h-126q8 75 29 180q-55 -91 -143 -142.5t-198 -51.5q-141 0 -226.5 86 t-85.5 231zM431 1183l239 296h154l150 -296h-74l-158 218l-221 -218h-90z" />
<glyph unicode="&#xfc;" d="M137 303q0 33 4 65q5 33 28 142l111 526h128l-102 -491q-34 -165 -34 -229q0 -58 25 -109t73.5 -78t111.5 -27q74 0 137.5 34t105 88t81.5 161q41 108 71 249l83 402h131l-159 -747q-34 -157 -45 -289h-126q8 75 29 180q-55 -91 -143 -142.5t-198 -51.5q-141 0 -226.5 86 t-85.5 231zM447 1233l33 180h157l-36 -180h-154zM812 1233l33 180h154l-33 -180h-154z" />
<glyph unicode="&#xfd;" horiz-adv-x="910" d="M-123 -424l31 118q35 -16 81 -16q69 0 122 41q54 42 124 174l45 86l-147 1057h135l109 -908l491 908h140l-666 -1192q-70 -125 -111 -177t-97.5 -80t-142.5 -28q-62 0 -114 17zM472 1183l173 296h161l-239 -296h-95z" />
<glyph unicode="&#xfe;" d="M-33 -435l418 1964h130l-103 -478q-5 -25 -33 -133q-3 -11 -9 -31q66 80 146.5 120.5t185.5 40.5q169 0 267 -105t98 -306q0 -162 -62.5 -321.5t-184 -247.5t-275.5 -88q-93 0 -159 31.5t-111 91.5q-30 39 -48 97l-129 -635h-131zM278 406q0 -143 73.5 -229t189.5 -86 q92 0 176.5 57t148 196t63.5 291q0 151 -67.5 226.5t-175.5 75.5q-79 0 -153.5 -39.5t-132 -111.5t-90 -178.5t-32.5 -201.5z" />
<glyph unicode="&#xff;" horiz-adv-x="910" d="M-123 -424l31 118q35 -16 81 -16q69 0 122 41q54 42 124 174l45 86l-147 1057h135l109 -908l491 908h140l-666 -1192q-70 -125 -111 -177t-97.5 -80t-142.5 -28q-62 0 -114 17zM329 1233l33 180h157l-36 -180h-154zM694 1233l33 180h154l-33 -180h-154z" />
<glyph unicode="&#x152;" horiz-adv-x="1820" d="M152 606q0 196 65.5 349.5t165.5 251.5t220 152q150 69 323 69q45 0 150 -5q105 -6 140 -6h664l-23 -118h-572l-106 -505h540l-28 -118h-538l-119 -557h590l-23 -119h-472q-91 0 -164 -2l-227 -5q-151 0 -261 50q-155 70 -240 214t-85 349zM299 614q0 -139 39 -236 q28 -69 81 -129t134 -98t188 -38q62 0 153 13l251 1161q-109 17 -206 17q-160 0 -279 -59q-171 -83 -266 -245.5t-95 -385.5z" />
<glyph unicode="&#x153;" horiz-adv-x="1707" d="M73 420q0 162 71.5 321.5t196.5 239t278 79.5q136 0 224.5 -69t113.5 -185q38 109 139 180t236 71q160 0 246 -92.5t86 -280.5q0 -49 -7.5 -108t-14.5 -88h-675q-8 -26 -8 -74q0 -73 18 -130.5t52.5 -96t83.5 -62t131 -23.5q68 0 140 17t121 42l-12 -125 q-135 -50 -265 -50q-165 0 -251 71.5t-117 181.5q-56 -129 -162 -196t-237 -67q-168 0 -278 118.5t-110 325.5zM208 427q0 -164 75.5 -250.5t189.5 -86.5q67 0 123 25.5t110.5 84.5t91.5 145q24 57 40.5 134.5t16.5 146.5q0 160 -70.5 240t-184.5 80q-84 0 -152.5 -36.5 t-120.5 -102t-85.5 -165.5t-33.5 -215zM990 597h541q6 38 6 94q0 132 -56.5 194.5t-154.5 62.5q-82 0 -149.5 -43t-119.5 -133q-36 -64 -67 -175z" />
<glyph unicode="&#x178;" horiz-adv-x="1252" d="M218 1417h149l301 -696l602 696h169l-716 -813l-135 -604h-138l128 602zM566 1544l33 180h157l-36 -180h-154zM931 1544l33 180h154l-33 -180h-154z" />
<glyph unicode="&#x2c6;" horiz-adv-x="455" d="M66 1183l239 296h154l150 -296h-74l-158 218l-221 -218h-90z" />
<glyph unicode="&#x2dc;" horiz-adv-x="455" d="M71 1221q9 82 63 135q42 40 115 40q23 0 45 -4q15 -3 87 -24q48 -15 77 -15q34 0 56 15.5t36 48.5h76q-16 -84 -63.5 -126t-115.5 -42q-34 0 -103 21q-69 22 -103 22q-43 0 -66 -18t-31 -53h-73z" />
<glyph unicode="&#x2000;" horiz-adv-x="933" />
<glyph unicode="&#x2001;" horiz-adv-x="1867" />
<glyph unicode="&#x2002;" horiz-adv-x="933" />
<glyph unicode="&#x2003;" horiz-adv-x="1867" />
<glyph unicode="&#x2004;" horiz-adv-x="622" />
<glyph unicode="&#x2005;" horiz-adv-x="466" />
<glyph unicode="&#x2006;" horiz-adv-x="311" />
<glyph unicode="&#x2007;" horiz-adv-x="311" />
<glyph unicode="&#x2008;" horiz-adv-x="233" />
<glyph unicode="&#x2009;" horiz-adv-x="373" />
<glyph unicode="&#x200a;" horiz-adv-x="103" />
<glyph unicode="&#x2010;" horiz-adv-x="683" d="M81 493l19 111h521l-19 -111h-521z" />
<glyph unicode="&#x2011;" horiz-adv-x="683" d="M81 493l19 111h521l-19 -111h-521z" />
<glyph unicode="&#x2012;" horiz-adv-x="683" d="M81 493l19 111h521l-19 -111h-521z" />
<glyph unicode="&#x2013;" horiz-adv-x="1024" d="M0 493v114h1024v-114h-1024z" />
<glyph unicode="&#x2014;" horiz-adv-x="2048" d="M241 493l24 114h1541l-24 -114h-1541z" />
<glyph unicode="&#x2018;" horiz-adv-x="569" d="M265 1095l249 446h137l-208 -446h-178z" />
<glyph unicode="&#x2019;" horiz-adv-x="569" d="M280 1095l209 446h177l-249 -446h-137z" />
<glyph unicode="&#x201a;" horiz-adv-x="569" d="M-39 -273l209 446h177l-249 -446h-137z" />
<glyph unicode="&#x201c;" horiz-adv-x="910" d="M242 1095l249 446h137l-208 -446h-178zM583 1095l249 446h138l-209 -446h-178z" />
<glyph unicode="&#x201d;" horiz-adv-x="910" d="M289 1095l209 446h177l-249 -446h-137zM630 1095l209 446h178l-249 -446h-138z" />
<glyph unicode="&#x201e;" horiz-adv-x="910" d="M5 -273l209 446h177l-249 -446h-137zM346 -273l209 446h178l-249 -446h-138z" />
<glyph unicode="&#x2022;" horiz-adv-x="1024" d="M199 709q0 92 47.5 177t132.5 131t174 46q90 0 174.5 -46t132.5 -131t48 -177t-47 -176.5t-131.5 -131.5t-176.5 -47t-176 47t-131 131.5t-47 176.5z" />
<glyph unicode="&#x2026;" horiz-adv-x="2048" d="M196 0v220h168v-220h-168zM878 0v220h169v-220h-169zM1561 0v220h168v-220h-168z" />
<glyph unicode="&#x202f;" horiz-adv-x="373" />
<glyph unicode="&#x2039;" horiz-adv-x="683" d="M154 512l389 420h147l-401 -432l308 -405h-130z" />
<glyph unicode="&#x203a;" horiz-adv-x="683" d="M-9 95l401 431l-309 406h131l313 -418l-389 -419h-147z" />
<glyph unicode="&#x205f;" horiz-adv-x="466" />
<glyph unicode="&#x2122;" horiz-adv-x="2028" d="M325 1332v85h600v-85h-250v-644l-100 1v643h-250zM1056 688v729h149l220 -580l220 580h144v-729h-89v633l-237 -633h-81l-237 633v-633h-89z" />
<glyph unicode="&#x25fc;" horiz-adv-x="1035" d="M0 0v1035h1035v-1035h-1035z" />
<glyph unicode="&#xfb01;" d="M126 927l26 109h223l31 142q29 133 70 209q42 77 111.5 115.5t159.5 38.5q57 0 140 -22l-31 -118q-52 19 -106 19q-79 0 -131.5 -55.5t-91.5 -248.5l-17 -80h261l-26 -109h-259l-199 -927h-137l204 927h-228zM740 0l220 1036h133l-220 -1036h-133zM1008 1320l38 173h154 l-36 -173h-156z" />
<glyph unicode="&#xfb02;" d="M126 927l26 109h223l31 142q29 133 70 209q42 77 111.5 115.5t159.5 38.5q57 0 140 -22l-31 -118q-52 19 -106 19q-79 0 -131.5 -55.5t-91.5 -248.5l-17 -80h261l-26 -109h-259l-199 -927h-137l204 927h-228zM740 0l327 1527h135l-327 -1527h-135z" />
</font>
</defs>
</svg>
