<?xml version="1.0" standalone="no"?>
<!DOCTYPE svg PUBLIC "-//W3C//DTD SVG 1.1//EN" "http://www.w3.org/Graphics/SVG/1.1/DTD/svg11.dtd" >
<svg>
<metadata>
Created by FontForge 20110222 at Wed Jul 31 03:14:29 2013
 By Orthosie Webhosting
Copyright 1988-1991 Adobe Systems Inc.
</metadata>
<defs>
<font id="Frutiger45LightBold" horiz-adv-x="1139" >
  <font-face 
    font-family="Frutiger45LightBold"
    font-weight="700"
    font-stretch="normal"
    units-per-em="2048"
    panose-1="2 11 8 0 0 0 0 0 0 0"
    ascent="1638"
    descent="-410"
    x-height="1055"
    cap-height="1429"
    bbox="-340 -512 2048 1915"
    underline-thickness="102"
    underline-position="-154"
    unicode-range="U+0020-F002"
  />
<missing-glyph horiz-adv-x="0" 
 />
    <glyph glyph-name=".notdef" horiz-adv-x="0" 
 />
    <glyph glyph-name="glyph1" horiz-adv-x="0" 
 />
    <glyph glyph-name="nonmarkingreturn" horiz-adv-x="682" 
 />
    <glyph glyph-name="equal" unicode=" " horiz-adv-x="569" 
 />
    <glyph glyph-name="greater" unicode="!" horiz-adv-x="797" 
d="M281 420h233l43 1009h-315zM256 0h287v287h-287v-287z" />
    <glyph glyph-name="question" unicode="&#x22;" horiz-adv-x="985" 
d="M555 917h250v512h-250v-512zM180 917h250v512h-250v-512z" />
    <glyph glyph-name="at" unicode="#" 
d="M1012 584h-166l35 262h190v164h-166l57 419h-180l-57 -419h-209l57 419h-182l-57 -419h-205v-164h180l-35 -262h-206v-164h184l-60 -420h181l61 420h209l-59 -420h180l59 420h189v164zM700 846l-34 -262h-209l34 262h209z" />
    <glyph glyph-name="A" unicode="$" 
d="M530 889v0q-51 26 -79 59q-33 33 -33 82q0 74 33 115q32 43 79 63v-319zM627 543v0q53 -25 86 -62q32 -39 32 -96q0 -55 -32 -94q-33 -39 -86 -62v314zM530 1601v-151q-168 -17 -286 -119q-123 -102 -125 -313q0 -105 39 -174q39 -74 98 -119q61 -45 133 -78t141 -59
v-383q-20 -4 -39 -4q-172 2 -323 88v0l-27 -258q103 -25 181 -39q75 -17 186 -17q10 0 22 2v-161h97v168q182 20 299 122q116 103 118 302q0 110 -39 184q-38 74 -102 121q-61 47 -133 80q-74 30 -143 55v379q8 2 16 2q154 -2 291 -62v0l26 236q-153 51 -333 51v147h-97z
" />
    <glyph glyph-name="B" unicode="%" horiz-adv-x="2048" 
d="M1493 139q-78 2 -105 76q-28 68 -26 137q-2 72 26 142q27 69 105 71q82 -2 106 -71q21 -70 21 -142q0 -69 -21 -137q-24 -74 -106 -76v0zM502 -45h168l884 1519h-168zM561 700q336 4 340 377q-4 371 -340 377q-340 -6 -344 -377q4 -373 344 -377v0zM561 864
q-78 2 -104 76q-29 68 -27 137q-2 72 27 141q26 70 104 72q82 -2 107 -72q20 -69 20 -141q0 -69 -20 -137q-25 -74 -107 -76v0zM1493 -25q336 7 340 377q-4 371 -340 377q-340 -6 -344 -377q4 -370 344 -377v0z" />
    <glyph glyph-name="C" unicode="&#x26;" horiz-adv-x="1479" 
d="M571 629l318 -355q-47 -45 -111 -65q-65 -21 -139 -21q-100 0 -168 60q-72 57 -74 151q0 86 54 140q49 55 120 90v0zM635 899q-43 43 -86 94q-47 49 -49 109q0 80 51 116q49 35 113 35q65 0 110 -35q45 -36 47 -112q-2 -64 -65 -121q-60 -57 -121 -86v0zM1057 465
l-262 287q118 65 198 151q76 84 78 227q-4 174 -129 250q-125 74 -283 74q-159 0 -290 -80q-140 -82 -144 -246q0 -118 60 -192q55 -76 139 -152q-166 -69 -236 -166q-67 -98 -65 -227q2 -201 149 -307q144 -109 361 -109q108 0 211 39q102 37 178 113v0l96 -127h352
l-256 287q172 211 183 489h-250q-2 -84 -19 -166q-20 -82 -71 -145v0z" />
    <glyph glyph-name="D" unicode="'" horiz-adv-x="569" 
d="M160 917h250v512h-250v-512z" />
    <glyph glyph-name="E" unicode="(" horiz-adv-x="682" 
d="M408 1548q-156 -205 -240 -420q-88 -217 -88 -497q4 -512 328 -918h260q-289 406 -297 918q0 280 84 497q79 215 213 420h-260z" />
    <glyph glyph-name="F" unicode=")" horiz-adv-x="682" 
d="M272 -287q324 406 330 918q0 280 -88 497q-86 215 -242 420h-258q133 -205 215 -420q80 -217 82 -497q-10 -512 -297 -918h258z" />
    <glyph glyph-name="G" unicode="*" 
d="M991 1036l-65 213v0l-273 -114v0l35 294h-233l32 -297v0l-272 117v0l-68 -213l281 -63l-201 -219l187 -136v0l155 254v0l146 -254v0l188 136l-196 219z" />
    <glyph glyph-name="H" unicode="+" horiz-adv-x="1229" 
d="M508 625h-414v-213h414v-412h213v412h414v213h-414v411h-213v-411z" />
    <glyph glyph-name="I" unicode="," horiz-adv-x="569" 
d="M47 -225h242l186 512h-297z" />
    <glyph glyph-name="J" unicode="-" horiz-adv-x="682" 
d="M610 438v226h-538v-226h538z" />
    <glyph glyph-name="K" unicode="." horiz-adv-x="569" 
d="M141 0h287v287h-287v-287z" />
    <glyph glyph-name="L" unicode="/" horiz-adv-x="797" 
d="M43 -25h213l500 1479h-213z" />
    <glyph glyph-name="M" unicode="0" 
d="M567 188q-76 0 -119 58q-43 55 -63 137q-16 84 -23 172q-4 88 -4 156q0 73 4 163q7 88 23 172q20 86 63 140q43 53 119 55q80 -2 125 -55q43 -54 62 -140q20 -84 24 -172q2 -90 2 -163v-156q-4 -88 -24 -172q-19 -82 -62 -137q-45 -58 -127 -58v0zM567 -25q156 2 254 70
t152 176q55 111 76 238q18 127 18 252q0 127 -18 258q-21 131 -74 239q-53 109 -152 178q-100 66 -256 68q-143 0 -237 -64q-97 -65 -154 -172q-55 -106 -80 -237q-24 -133 -24 -270q0 -113 16 -238q16 -127 68 -240q51 -112 151 -182q98 -74 260 -76v0z" />
    <glyph glyph-name="N" unicode="1" 
d="M162 1094l143 -187v0l242 197v0v-1104h286v1429h-253z" />
    <glyph glyph-name="O" unicode="2" 
d="M1034 0v225h-583q186 172 358 379q82 103 131 211q47 109 49 221q-10 418 -448 418q-224 -2 -424 -102l22 -238v0q72 47 156 82q84 33 174 33q94 0 162 -45q69 -49 71 -148q-2 -100 -75 -215q-74 -114 -183 -231q-104 -115 -204 -205q-101 -94 -156 -145v-240h950z" />
    <glyph glyph-name="P" unicode="3" 
d="M109 266l-17 -243q174 -48 375 -48q92 0 188 21q47 12 92 29q43 16 84 36q82 50 134 131q47 84 49 209q0 136 -68 228q-67 92 -205 112v4q115 41 191 121q73 78 76 221q-3 117 -48 189q-47 71 -120 110q-72 41 -154 56q-80 12 -149 12q-224 -2 -400 -72l17 -229v0
q151 76 321 76q102 0 172 -39q35 -21 55 -58q19 -36 19 -92q-2 -92 -86 -139q-84 -49 -232 -49h-131v-225h140q141 0 227 -47q86 -52 88 -177q0 -53 -29 -90q-28 -41 -75 -65q-48 -23 -97 -35q-53 -12 -100 -12q-170 2 -317 65v0z" />
    <glyph glyph-name="Q" unicode="4" 
d="M291 510l354 620h4v-620h-358zM33 297h616v-297h275v297h182v213h-182v919h-357l-534 -901v-231z" />
    <glyph glyph-name="R" unicode="5" 
d="M1003 1429h-821l-14 -768q65 23 129 31q61 8 127 8q129 0 225 -53q101 -57 103 -194q-2 -136 -97 -193q-90 -59 -209 -59q-92 0 -165 26q-74 23 -127 45l-7 -256q156 -39 334 -41q277 5 418 144q139 137 139 342q0 141 -41 231q-43 90 -112 141q-70 54 -148 74
q-82 19 -160 19q-81 -2 -131 -15l7 305h550v213z" />
    <glyph glyph-name="S" unicode="6" 
d="M942 1171l37 232q-146 51 -301 51q-340 -8 -465 -260q-127 -248 -123 -553q0 -127 23 -244q20 -118 71 -213q101 -202 391 -209q242 2 361 142q115 139 115 372q-5 426 -418 437q-178 0 -277 -144l-4 4q4 168 82 301q78 138 258 142q74 0 133 -17q62 -16 117 -41v0z
M569 713q105 -2 150 -80q45 -80 45 -189q0 -98 -43 -174q-45 -80 -146 -82q-102 2 -151 78q-47 72 -47 176q0 111 45 191q45 78 147 80v0z" />
    <glyph glyph-name="T" unicode="7" 
d="M102 1204h633l-530 -1204h311l508 1192v237h-922v-225z" />
    <glyph glyph-name="U" unicode="8" 
d="M334 741q-262 -121 -262 -354q2 -217 149 -313q141 -99 354 -99q218 0 353 101q137 100 139 315q2 244 -274 375v2q118 53 180 147q57 97 57 195q-4 180 -143 264q-140 80 -336 80q-197 0 -324 -90q-129 -94 -131 -287q0 -112 66 -196q63 -86 172 -136v-4zM371 1069
q2 86 67 129q62 43 142 43q84 -2 131 -49q45 -49 45 -131q-2 -68 -47 -125q-50 -57 -113 -82q-37 14 -74 35q-39 18 -74 43q-32 24 -55 59q-22 33 -22 78v0zM358 391q0 92 54 146q51 55 129 90v0q94 -27 166 -84q71 -58 73 -164q-2 -90 -59 -139q-57 -52 -146 -52
q-88 0 -149 60q-66 53 -68 143v0z" />
    <glyph glyph-name="V" unicode="9" 
d="M199 258l-37 -231q145 -52 301 -52q340 9 469 263q121 247 119 550q4 263 -93 461q-51 94 -147 150q-96 53 -246 55q-241 -2 -358 -139t-117 -375q2 -426 418 -436q178 -2 276 143l4 -4q-4 -168 -77 -301q-78 -137 -263 -141q-139 2 -249 57v0zM571 717q-100 2 -147 84
q-47 78 -47 184q0 100 45 178q45 76 143 78q107 -2 154 -76q45 -73 45 -178q0 -111 -43 -188q-45 -80 -150 -82v0z" />
    <glyph glyph-name="W" unicode=":" horiz-adv-x="569" 
d="M141 768h287v287h-287v-287zM141 0h287v287h-287v-287z" />
    <glyph glyph-name="X" unicode=";" horiz-adv-x="569" 
d="M47 -225h242l186 512h-297zM141 768h287v287h-287v-287z" />
    <glyph glyph-name="Y" unicode="&#x3c;" horiz-adv-x="1229" 
d="M1135 -16v208l-764 326l764 326v209v0l-1041 -447v-176l1041 -446v0z" />
    <glyph glyph-name="Z" unicode="=" horiz-adv-x="1229" 
d="M1135 848h-1041v-213h1041v213zM1135 401h-1041v-213h1041v213z" />
    <glyph glyph-name="bracketleft" unicode="&#x3e;" horiz-adv-x="1229" 
d="M94 192v-208v0l1041 446v176l-1041 447v0v-209l764 -326z" />
    <glyph glyph-name="backslash" unicode="?" horiz-adv-x="1024" 
d="M125 1159v0q149 78 315 82q92 0 164 -41q70 -45 72 -145q-2 -78 -45 -133q-45 -56 -107 -119q-57 -60 -100 -150q-47 -90 -49 -235h252q-7 100 47 180q49 78 119 149q71 72 126 154q54 82 56 186q-4 195 -144 283q-139 84 -323 84q-207 -2 -406 -68zM358 0h287v287h-287
v-287z" />
    <glyph glyph-name="bracketright" unicode="@" horiz-adv-x="1638" 
d="M850 913q72 0 112 -45q39 -43 39 -118q0 -99 -63 -181q-64 -84 -164 -86q-72 0 -113 49q-41 48 -41 119q0 96 66 178q61 82 164 84v0zM1292 293q-98 -78 -223 -105q-125 -26 -250 -24q-233 2 -379 158q-149 151 -151 393q2 225 162 387q157 159 417 164q94 0 187 -17
q47 -8 90 -24q43 -19 80 -43q79 -45 127 -127q47 -82 47 -209q-2 -189 -76 -275q-74 -88 -156 -88q-32 0 -30 31q0 33 14 70l113 497h-172l-25 -98v0q-88 131 -238 131q-178 -4 -297 -143q-122 -142 -124 -351q2 -149 96 -241q90 -96 221 -96q65 0 117 32q53 29 90 74h4
q4 -53 37 -78q28 -28 73 -28q56 0 140 32q86 31 170 97q88 67 147 178q57 106 60 262q-7 315 -222 461q-211 141 -473 141q-350 -4 -567 -215q-223 -209 -225 -524q6 -369 239 -553q226 -187 504 -187q408 -4 647 318h-174z" />
    <glyph glyph-name="asciicircum" unicode="A" horiz-adv-x="1479" 
d="M940 553h-418l207 590h4zM18 0h297l125 328h580l123 -328h317l-561 1429h-324z" />
    <glyph glyph-name="underscore" unicode="B" horiz-adv-x="1251" 
d="M453 639h135q55 0 108 -4q51 -8 94 -33q43 -20 68 -63q25 -45 25 -115q-2 -119 -97 -160q-43 -20 -94 -31q-51 -8 -104 -8h-135v414zM453 1204h110q51 0 101 -2q47 -4 88 -22q41 -17 65 -54q23 -37 23 -100q0 -55 -23 -88q-24 -35 -65 -53q-84 -35 -183 -33h-116v352z
M166 0h500q69 0 157 16q86 15 164 58q80 43 131 125t51 215q-2 135 -90 223t-237 102v4q131 25 207 109q75 84 77 211q-2 119 -43 192q-45 72 -116 111q-70 39 -148 53q-82 10 -153 10h-500v-1429z" />
    <glyph glyph-name="grave" unicode="C" horiz-adv-x="1251" 
d="M1194 260v0q-51 -24 -137 -41q-88 -18 -176 -18q-230 2 -357 147q-129 139 -129 363q0 225 131 370q125 146 348 148q78 0 154 -13q76 -18 156 -63v0l20 242q-170 59 -323 59q-770 -8 -785 -764q2 -362 221 -536q211 -179 564 -179q165 2 325 45z" />
    <glyph glyph-name="a" unicode="D" horiz-adv-x="1479" 
d="M166 0h391q168 0 315 33q148 33 263 112q116 82 182 222q65 137 65 348q0 215 -65 354q-66 137 -182 217q-238 147 -578 143h-391v-1429zM453 1204h159q189 0 328 -127t143 -362q-4 -234 -143 -361q-139 -129 -328 -129h-159v979z" />
    <glyph glyph-name="b" unicode="E" 
d="M166 0h848v225h-561v402h509v225h-509v352h557v225h-844v-1429z" />
    <glyph glyph-name="c" unicode="F" horiz-adv-x="1024" 
d="M166 0h287v627h483v225h-483v352h507v225h-794v-1429z" />
    <glyph glyph-name="d" unicode="G" horiz-adv-x="1479" 
d="M1282 1153l18 242q-178 57 -419 59q-770 -8 -785 -764q2 -362 221 -536q211 -179 564 -179q233 5 462 74v770h-577v-225h303v-373q-72 -20 -188 -20q-230 2 -357 147q-129 139 -129 363q0 225 135 370q134 146 383 148q189 0 369 -76v0z" />
    <glyph glyph-name="e" unicode="H" horiz-adv-x="1479" 
d="M166 0h287v627h573v-627h287v1429h-287v-577h-573v577h-287v-1429z" />
    <glyph glyph-name="f" unicode="I" horiz-adv-x="569" 
d="M141 0h287v1429h-287v-1429z" />
    <glyph glyph-name="g" unicode="J" horiz-adv-x="797" 
d="M45 2q111 -27 219 -27q111 2 187 37q75 35 120 90q45 58 66 119q18 64 18 119v1089h-286v-952q2 -82 -23 -162q-14 -36 -53 -63t-111 -27q-82 0 -137 25v-248z" />
    <glyph glyph-name="h" unicode="K" horiz-adv-x="1366" 
d="M166 0h287v664h4l514 -664h374l-612 756l588 673h-352l-516 -614v0v614h-287v-1429z" />
    <glyph glyph-name="i" unicode="L" horiz-adv-x="1024" 
d="M166 0h842v225h-555v1204h-287v-1429z" />
    <glyph glyph-name="j" unicode="M" horiz-adv-x="1933" 
d="M166 0h274v1175l4 5l385 -1180h275l385 1180h4v-1180h274v1429h-458l-340 -1083h-4l-340 1083h-459v-1429z" />
    <glyph glyph-name="k" unicode="N" horiz-adv-x="1479" 
d="M152 0h274v1069h4l547 -1069h350v1429h-274v-1069h-4l-545 1069h-352v-1429z" />
    <glyph glyph-name="l" unicode="O" horiz-adv-x="1593" 
d="M96 719q0 -334 180 -535q177 -204 521 -209q342 5 522 211q176 203 178 533q0 332 -180 530q-180 201 -520 205q-342 -2 -521 -203q-180 -198 -180 -532v0zM395 719q0 198 96 350q95 156 306 160q213 -4 309 -160q92 -152 92 -350q0 -201 -90 -354q-45 -74 -123 -119
t-188 -45q-215 4 -310 164q-94 153 -92 354v0z" />
    <glyph glyph-name="m" unicode="P" 
d="M428 1204h100q115 0 193 -49q37 -25 59 -68q21 -43 21 -106q-2 -121 -80 -168q-80 -47 -193 -45h-100v436zM141 0h287v543h121q237 -2 393 104q156 105 158 350q-4 254 -181 346q-174 88 -415 86h-363v-1429z" />
    <glyph glyph-name="n" unicode="Q" horiz-adv-x="1593" 
d="M1460 -270l-323 321q358 189 360 668q0 332 -180 530q-180 201 -520 205q-342 -2 -521 -203q-180 -198 -180 -532t180 -535q177 -204 521 -209q36 0 67 5l250 -250h346zM395 719q0 198 96 350q95 156 306 160q213 -4 309 -160q92 -152 92 -350q0 -201 -90 -354
q-45 -74 -123 -119t-188 -45q-215 4 -310 164q-94 153 -92 354v0z" />
    <glyph glyph-name="o" unicode="R" horiz-adv-x="1251" 
d="M428 1204h94q55 0 111 -2q53 -6 96 -24q43 -19 72 -56q24 -39 24 -104q0 -64 -24 -105q-29 -39 -72 -59q-43 -21 -96 -27q-56 -8 -111 -8h-94v385zM141 0h287v594h92q88 0 131 -33q41 -35 68 -115l172 -446h319l-229 559q-21 51 -57 96q-37 45 -95 52v4q140 20 217 112
q78 92 78 219q-2 150 -59 230q-60 82 -160 114q-98 35 -217 41q-119 2 -237 2h-310v-1429z" />
    <glyph glyph-name="p" unicode="S" 
d="M934 1167l26 236q-157 51 -342 51q-194 0 -342 -96q-153 -103 -157 -340q0 -86 28 -150q29 -63 72 -108q47 -43 103 -74q53 -33 112 -57q121 -45 215 -95q43 -24 72 -61q24 -37 24 -88q-2 -94 -84 -139q-81 -45 -170 -45q-172 2 -323 88v0l-27 -258q103 -25 181 -39
q75 -17 186 -17q225 0 379 101q153 100 157 332q0 92 -24 157q-29 64 -72 109q-43 47 -100 80q-55 30 -115 53q-59 24 -113 47q-55 20 -102 45q-43 25 -72 55q-28 31 -28 76q0 59 22 98q23 41 56 62q34 22 73 31q37 8 74 8q154 -2 291 -62v0z" />
    <glyph glyph-name="q" unicode="T" 
d="M426 0h287v1204h409v225h-1106v-225h410v-1204z" />
    <glyph glyph-name="r" unicode="U" horiz-adv-x="1479" 
d="M156 516q8 -549 583 -541q576 -8 584 541v913h-287v-825q0 -184 -65 -291q-68 -112 -232 -112q-159 0 -229 112q-70 107 -68 291v825h-286v-913z" />
    <glyph glyph-name="s" unicode="V" horiz-adv-x="1366" 
d="M512 0h352l481 1429h-284l-363 -1122h-4l-366 1122h-308z" />
    <glyph glyph-name="t" unicode="W" horiz-adv-x="2048" 
d="M399 0h371l254 1143h4l258 -1143h369l372 1429h-278l-268 -1142h-4l-252 1142h-389l-244 -1142h-4l-266 1142h-302z" />
    <glyph glyph-name="u" unicode="X" horiz-adv-x="1366" 
d="M20 0h324l334 557v0l330 -557h337l-469 743l431 686h-308l-305 -510v0l-299 510h-332l426 -686z" />
    <glyph glyph-name="v" unicode="Y" horiz-adv-x="1366" 
d="M545 0h286v565l512 864h-303l-344 -600v0l-338 600h-335l522 -864v-565z" />
    <glyph glyph-name="w" unicode="Z" 
d="M74 0h991v225h-692l678 971v233h-951v-225h645l-671 -971v-233z" />
    <glyph glyph-name="x" unicode="[" horiz-adv-x="682" 
d="M147 -287h459v201h-196v1433h196v201h-459v-1835z" />
    <glyph glyph-name="y" unicode="\" horiz-adv-x="797" 
d="M541 -25h213l-500 1479h-213z" />
    <glyph glyph-name="z" unicode="]" horiz-adv-x="682" 
d="M76 1548v-201h196v-1433h-196v-201h458v1835h-458z" />
    <glyph glyph-name="braceleft" unicode="^" horiz-adv-x="1229" 
d="M348 641l266 573v0l267 -573h213l-383 788h-193l-383 -788h213z" />
    <glyph glyph-name="bar" unicode="_" horiz-adv-x="1024" 
d="M0 -154v-102h1024v102h-1024z" />
    <glyph glyph-name="braceright" unicode="`" horiz-adv-x="569" 
d="M340 1497h-281l281 -299h170z" />
    <glyph glyph-name="asciitilde" unicode="a" 
d="M197 764v0q145 112 325 115q123 0 180 -50q58 -51 58 -178h-152q-86 0 -180 -10q-92 -12 -174 -51q-78 -35 -127 -109q-53 -73 -53 -192q2 -152 116 -232q109 -80 252 -82q99 0 189 50q88 47 137 133h4q0 -62 12 -158h242q-8 119 -12 236q-4 110 -4 264v135
q6 450 -455 444q-190 -2 -367 -80zM336 305q0 62 33 98q28 37 75 56q47 18 101 24q24 4 49 4h47h119q2 -125 -58 -217q-65 -92 -192 -94q-76 0 -123 33q-51 31 -51 96v0z" />
    <glyph glyph-name="Adieresis" unicode="b" horiz-adv-x="1251" 
d="M418 530q0 119 57 224q57 108 189 112q67 0 112 -30q45 -31 70 -82q45 -109 45 -224q0 -53 -8 -112q-13 -60 -39 -113q-25 -49 -70 -82q-47 -35 -115 -35q-67 0 -112 35q-45 33 -74 82q-57 107 -55 225v0zM141 0h267v129h4q63 -82 149 -119q86 -35 174 -35q240 5 344 170
q101 162 99 385q2 226 -99 385q-104 160 -344 164q-209 -2 -315 -160h-4v617h-275v-1536z" />
    <glyph glyph-name="Aring" unicode="c" horiz-adv-x="909" 
d="M850 1044q-107 35 -266 35q-246 -2 -377 -157q-133 -154 -133 -390q0 -243 133 -397q129 -158 387 -160q86 0 151 11q66 6 123 24l-12 228q-35 -17 -92 -31q-60 -19 -119 -19q-143 2 -213 101q-72 96 -72 243q0 154 78 244q74 88 201 90q63 0 108 -10q43 -10 78 -29z" />
    <glyph glyph-name="Ccedilla" unicode="d" horiz-adv-x="1251" 
d="M360 530q0 56 13 115q10 59 35 109q51 108 180 112q67 0 114 -30q45 -31 76 -82q55 -105 55 -224q0 -55 -10 -114q-12 -60 -41 -111q-26 -49 -73 -82q-45 -35 -117 -35q-68 0 -111 35q-45 33 -71 82q-52 111 -50 225v0zM844 0h266v1536h-274v-604h-5q-116 147 -315 147
q-240 -4 -342 -164q-102 -159 -100 -385q-2 -223 100 -385q102 -165 342 -170q197 -2 324 144h4v-119z" />
    <glyph glyph-name="Eacute" unicode="e" 
d="M336 631q8 108 69 178q62 67 175 70q114 -3 167 -74q52 -70 56 -174h-467zM987 283v0q-76 -45 -162 -74q-88 -33 -188 -33q-127 0 -209 72q-82 67 -92 194h729q2 283 -103 459q-110 176 -399 178q-244 -4 -366 -162q-123 -159 -123 -395q6 -538 551 -547q217 0 362 84
v224z" />
    <glyph glyph-name="Ntilde" unicode="f" horiz-adv-x="797" 
d="M242 0h274v854h240v201h-240v131q0 63 27 112q26 47 94 49q47 0 74 -10q26 -12 45 -26l22 227q-88 20 -201 22q-163 -2 -247 -98q-88 -98 -88 -260v-147h-203v-201h203v-854z" />
    <glyph glyph-name="Odieresis" unicode="g" horiz-adv-x="1251" 
d="M594 213q-57 0 -100 31q-43 28 -74 75q-60 99 -60 213q-2 129 56 230q53 100 190 104q119 -2 176 -96q54 -92 54 -231q0 -136 -56 -228q-57 -96 -186 -98v0zM848 1055v-144h-4q-115 170 -324 168q-233 -6 -340 -176q-108 -170 -106 -371q-2 -219 100 -370
q98 -158 330 -162q119 0 205 51q84 47 122 117h5q0 -68 -5 -139q-8 -72 -38 -133q-31 -60 -95 -99q-67 -37 -180 -39q-67 2 -153 31q-86 27 -154 62v0l-23 -234q199 -74 365 -72t274 50q111 45 170 122q64 78 90 179q13 49 19 102q4 53 4 104v953h-262z" />
    <glyph glyph-name="Udieresis" unicode="h" horiz-adv-x="1251" 
d="M141 0h275v516q0 53 12 115q10 59 37 112q29 54 74 88q45 35 118 35q66 0 105 -26q37 -29 51 -76q18 -43 20 -96q3 -54 3 -105v-563h274v666q0 182 -84 296q-88 115 -274 117q-222 -4 -332 -168h-4v625h-275v-1536z" />
    <glyph glyph-name="aacute" unicode="i" horiz-adv-x="569" 
d="M147 0h275v1055h-275v-1055zM147 1247h275v262h-275v-262z" />
    <glyph glyph-name="agrave" unicode="j" horiz-adv-x="569" 
d="M-31 -438q60 -17 135 -17q105 2 168 39q62 39 95 95q32 59 45 124q10 64 10 119v1133h-275v-1096q2 -119 -26 -158q-33 -39 -141 -43zM147 1247h275v262h-275v-262z" />
    <glyph glyph-name="acircumflex" unicode="k" 
d="M147 0h275v512h4l352 -512h348l-442 584l393 471h-323l-328 -422h-4v903h-275v-1536z" />
    <glyph glyph-name="adieresis" unicode="l" horiz-adv-x="569" 
d="M147 0h275v1536h-275v-1536z" />
    <glyph glyph-name="atilde" unicode="m" horiz-adv-x="1821" 
d="M137 0h275v512q0 53 8 117q6 59 26 112q21 56 64 90q39 35 106 35q62 0 95 -22q30 -23 45 -60q20 -75 18 -155v-629h275v512q0 53 8 117q6 59 26 112q21 56 64 90q39 35 106 35q62 0 94 -22q31 -23 46 -60q20 -75 18 -155v-629h274v666q2 182 -67 296q-74 115 -266 117
q-99 0 -187 -45q-92 -45 -143 -141v0q-90 188 -311 186q-78 0 -162 -37q-84 -39 -152 -135h-4v148h-256v-1055z" />
    <glyph glyph-name="aring" unicode="n" horiz-adv-x="1251" 
d="M141 0h275v516q0 53 12 115q10 59 37 112q29 54 74 88q45 35 118 35q66 0 105 -26q37 -29 51 -76q18 -43 20 -96q3 -54 3 -105v-563h274v666q0 182 -84 296q-88 115 -274 117q-215 2 -347 -168h-4v144h-260v-1055z" />
    <glyph glyph-name="ccedilla" unicode="o" horiz-adv-x="1251" 
d="M74 520q0 -231 145 -385q143 -155 406 -160q266 5 409 160q144 154 144 385q-3 264 -158 412q-154 145 -395 147q-238 -2 -392 -147q-157 -148 -159 -412v0zM360 553q0 125 68 217q66 94 197 96q135 -2 202 -94q64 -92 64 -219q0 -66 -10 -129q-11 -66 -41 -119
q-31 -53 -82 -84q-54 -33 -133 -33q-78 0 -127 35q-52 31 -82 84q-29 53 -41 119q-6 31 -10 65q-5 31 -5 62v0z" />
    <glyph glyph-name="eacute" unicode="p" horiz-adv-x="1251" 
d="M141 -430h275v551h4q74 -84 149 -115q74 -31 160 -31q246 5 350 170q101 162 99 385q2 226 -99 385q-104 160 -344 164q-239 -6 -327 -174h-5v150h-262v-1485zM664 866q67 0 112 -30q45 -31 70 -82q45 -109 45 -224q0 -53 -8 -112q-13 -60 -39 -113q-25 -49 -70 -82
q-47 -35 -115 -35q-67 0 -112 35q-45 33 -74 82q-57 107 -55 225q0 119 57 224q57 108 189 112v0z" />
    <glyph glyph-name="egrave" unicode="q" horiz-adv-x="1251" 
d="M836 -430h274v1485h-262v-150h-4q-92 170 -322 174q-243 -4 -346 -164q-104 -159 -102 -385q-2 -223 102 -385q103 -165 346 -170q88 0 164 31t145 115h5v-551zM588 866q67 0 114 -30q45 -31 76 -82q55 -105 55 -224q0 -55 -10 -114q-12 -60 -41 -111q-26 -49 -73 -82
q-45 -35 -117 -35q-68 0 -111 35q-45 33 -71 82q-52 111 -50 225q0 56 13 115q10 59 35 109q51 108 180 112v0z" />
    <glyph glyph-name="ecircumflex" unicode="r" horiz-adv-x="797" 
d="M147 0h275v387q0 61 4 133q4 74 25 139q22 70 67 113q45 45 127 45q80 0 123 -22v276q-43 8 -84 8q-123 -4 -199 -94q-77 -88 -90 -170h-4v240h-244v-1055z" />
    <glyph glyph-name="edieresis" unicode="s" horiz-adv-x="909" 
d="M786 1040q-61 17 -131 29q-71 10 -168 10q-165 0 -284 -78q-127 -77 -129 -249q0 -70 22 -117q19 -49 53 -82q35 -33 78 -53q43 -21 86 -35q92 -25 164 -53q35 -15 55 -39q19 -27 19 -68q-2 -74 -64 -100q-59 -29 -116 -29q-142 0 -271 70v0l-16 -226q154 -43 311 -45
q176 0 307 80q131 82 136 264q0 74 -19 125q-20 50 -55 84q-33 33 -74 58q-43 22 -90 37q-43 16 -86 28q-43 13 -78 27q-74 24 -76 84q2 67 56 94q49 23 106 23q76 0 131 -11q56 -12 115 -35z" />
    <glyph glyph-name="iacute" unicode="t" horiz-adv-x="797" 
d="M231 317q2 -333 334 -342q121 0 203 25l-8 217q-47 -29 -125 -29q-76 2 -103 56q-28 49 -26 118v492h244v201h-244v299v0l-275 -88v-211h-202v-201h202v-537z" />
    <glyph glyph-name="igrave" unicode="u" horiz-adv-x="1251" 
d="M1110 1055h-274v-516q0 -52 -9 -111q-8 -59 -37 -113q-24 -53 -71 -88q-49 -39 -125 -39q-64 0 -100 31q-35 29 -54 74q-14 47 -18 100q-2 27 -2 51q-4 25 -4 47v564h-275v-666q0 -180 88 -295q84 -117 271 -119q217 5 346 168h4v-143h260v1055z" />
    <glyph glyph-name="icircumflex" unicode="v" 
d="M416 0h309l389 1055h-274l-254 -768h-4l-263 768h-294z" />
    <glyph glyph-name="idieresis" unicode="w" horiz-adv-x="1821" 
d="M379 0h313l225 805h5l229 -805h323l324 1055h-262l-219 -781h-4l-230 781h-319l-213 -781h-4l-234 781h-290z" />
    <glyph glyph-name="ntilde" unicode="x" 
d="M381 553l-363 -553h301l238 393v0l236 -393h327l-356 553l315 502h-291l-202 -344v0l-207 344h-324z" />
    <glyph glyph-name="oacute" unicode="y" 
d="M326 1055h-303l403 -1108q0 -84 -47 -135q-47 -52 -131 -54q-94 0 -142 19l-18 -203q96 -29 195 -29q106 0 180 41q69 39 114 105q48 65 80 149q33 82 64 168l395 1047h-278l-254 -770h-4z" />
    <glyph glyph-name="ograve" unicode="z" horiz-adv-x="1024" 
d="M96 842h512l-534 -619v-223h876v213h-542l524 616v226h-836v-213z" />
    <glyph glyph-name="ocircumflex" unicode="{" horiz-adv-x="682" 
d="M37 543q61 0 115 -41q51 -47 53 -164v-348q2 -139 94 -207q88 -70 209 -70h153v164h-92q-65 0 -84 41q-20 37 -18 109v340q0 84 -23 135q-22 49 -57 75q-35 27 -74 39q-41 11 -75 13v4q73 4 149 55q35 27 57 76q23 47 23 117v354q-2 72 18 110q19 39 84 39h92v164h-153
q-115 0 -207 -65q-94 -68 -96 -211v-363q0 -51 -13 -88q-16 -37 -40 -59q-54 -45 -115 -43v-176z" />
    <glyph glyph-name="odieresis" unicode="|" horiz-adv-x="455" 
d="M121 1536v-2048h213v2048h-213z" />
    <glyph glyph-name="otilde" unicode="}" horiz-adv-x="682" 
d="M645 719q-57 -2 -111 43q-55 41 -57 147v363q-2 143 -92 211q-90 65 -211 65h-154v-164h93q65 0 86 -39q16 -38 16 -110v-354q0 -70 27 -117q22 -49 57 -76t76 -39q39 -12 69 -16v-4q-71 0 -145 -52q-35 -26 -57 -75q-27 -51 -27 -135v-340q0 -72 -16 -109
q-21 -41 -86 -41h-93v-164h154q121 0 211 68q90 67 92 209v348q0 61 17 100q16 39 40 64q54 41 111 41v176z" />
    <glyph glyph-name="uacute" unicode="~" horiz-adv-x="1229" 
d="M215 336v0q25 57 66 102q41 43 110 45q68 0 121 -20q51 -23 102 -51q54 -29 111 -47q57 -25 127 -25q80 2 139 59q60 54 96 121l-73 180v0q-33 -55 -74 -98q-41 -47 -96 -49q-56 0 -107 24q-53 23 -108 50q-47 28 -105 49q-57 20 -135 20q-94 -2 -153 -57
q-62 -55 -95 -123z" />
    <glyph glyph-name="uni00A0" unicode="&#xa0;" horiz-adv-x="569" 
 />
    <glyph glyph-name="fl" unicode="&#xa1;" horiz-adv-x="797" 
d="M240 -375h315l-45 1010h-227zM252 768h287v287h-287v-287z" />
    <glyph glyph-name="questiondown" unicode="&#xa2;" 
d="M528 297v0q-65 94 -65 235q0 142 65 232q64 88 174 102zM821 1245l-53 -170q-37 4 -82 4q-246 -2 -377 -157q-133 -154 -133 -390q0 -358 268 -503l-65 -213h119l55 176q67 -17 143 -17q86 0 152 11q65 6 123 24l-13 228q-34 -17 -92 -31q-59 -19 -119 -19q-71 0 -124 27
l198 645q62 -10 107 -33l24 217q-33 11 -69 15l57 186h-119z" />
    <glyph glyph-name="exclamdown" unicode="&#xa3;" 
d="M111 0h923v213h-457v448h302v164h-302v137q0 109 64 187q61 78 195 80q61 0 108 -11q49 -10 90 -24l15 225q-105 35 -267 35q-209 -2 -346 -125q-143 -123 -145 -332v-172h-156v-164h156v-448h-180v-213z" />
    <glyph glyph-name="breve" unicode="&#xa4;" 
d="M981 1251v0l-119 -119v0q-135 95 -293 95q-157 0 -293 -95v0l-118 119v0l-121 -121l119 -118q-95 -136 -95 -293q0 -154 95 -293l-119 -119l121 -121v0l118 119v0q136 -94 293 -94q158 0 293 94v0l119 -119v0l121 121l-119 119q94 139 94 295q0 158 -94 291l119 118z
M287 719q2 127 84 209q80 84 198 86q121 -2 201 -86q80 -82 82 -209q-2 -123 -82 -207q-80 -86 -201 -88q-118 2 -198 88q-82 84 -84 207v0z" />
    <glyph glyph-name="quotedblleft" unicode="&#xa5;" 
d="M1161 1429h-268l-316 -630v0l-309 630h-288l356 -673h-205v-164h285l16 -27v-100h-301v-164h301v-301h275v301h301v164h-301v100l14 27h287v164h-201z" />
    <glyph glyph-name="glyph159" unicode="&#xa6;" horiz-adv-x="455" 
d="M121 1382v-716h213v716h-213zM121 358v-716h213v716h-213z" />
    <glyph glyph-name="logicalnot" unicode="&#xa7;" 
d="M348 633q0 51 25 92q20 41 49 59q65 -26 131 -49q63 -20 117 -45q55 -24 90 -57q33 -33 33 -88q-3 -97 -74 -154v0q-39 25 -99 49q-61 21 -124 47q-60 27 -103 64q-45 33 -45 82v0zM901 1190l23 223q-162 39 -328 41q-168 0 -301 -84q-141 -86 -146 -266q0 -82 39 -139
q37 -58 105 -105q-156 -86 -158 -276q2 -129 96 -199q43 -35 97 -59q51 -27 106 -50q119 -38 205 -79q43 -21 68 -52q24 -30 24 -69q-2 -78 -59 -111q-60 -31 -148 -31q-180 5 -344 80v0l-18 -233q186 -55 379 -59q174 0 311 96q137 92 141 274q-2 150 -139 234
q149 90 151 262q-2 139 -92 211q-88 71 -206 108q-115 37 -203 78q-43 20 -68 51q-24 27 -24 66q2 82 61 112q55 27 135 27q154 0 293 -51v0z" />
    <glyph glyph-name="nonbreakingspace" unicode="&#xa8;" horiz-adv-x="569" 
d="M377 1485v-238h237v238h-237zM192 1247v238h-237v-238h237z" />
    <glyph glyph-name="guillemotleft" unicode="&#xa9;" horiz-adv-x="1638" 
d="M1345 715q-2 -258 -151 -414q-150 -160 -375 -162q-225 2 -373 162q-151 156 -153 414q2 260 153 417q148 156 373 158q225 -2 375 -158q149 -157 151 -417v0zM1036 596q-6 -72 -57 -109q-53 -39 -131 -39q-98 0 -156 82q-61 76 -61 193q0 121 57 196q53 72 156 74
q73 0 127 -33q51 -36 65 -110h164q-25 151 -119 229q-96 78 -237 78q-195 -2 -303 -123q-111 -121 -111 -313q0 -189 115 -309q110 -125 303 -127q135 0 235 82q99 77 123 229h-170zM80 715q4 -312 219 -520q209 -215 520 -220q316 5 524 220q211 208 215 520
q-4 315 -215 524q-208 211 -524 215q-311 -4 -520 -215q-215 -209 -219 -524v0z" />
    <glyph glyph-name="Ydieresis" unicode="&#xaa;" horiz-adv-x="739" 
d="M682 803q-10 172 -10 372q2 285 -295 279q-135 0 -246 -51v-135v0q98 61 215 63q72 0 111 -24q39 -29 39 -111h-76q-60 0 -123 -4q-64 -8 -117 -33q-53 -24 -86 -70q-37 -45 -37 -122q0 -50 25 -82q22 -37 59 -58q78 -41 166 -41q64 0 117 23q51 22 76 80h4l6 -86h172z
M233 977q0 43 23 65q20 23 51 31q31 10 66 12h63h62q0 -71 -39 -123q-41 -53 -119 -53q-33 0 -68 15q-39 14 -39 53v0z" />
    <glyph glyph-name="Acircumflex" unicode="&#xab;" 
d="M557 551l242 -420h258l-226 420l226 420h-258zM100 551l242 -420h258l-225 420l225 420h-258z" />
    <glyph glyph-name="daggerdbl" unicode="&#xac;" horiz-adv-x="1229" 
d="M922 221h213v627h-1041v-213h828v-414z" />
    <glyph glyph-name="uni00AD" unicode="&#xad;" horiz-adv-x="682" 
d="M610 438v226h-538v-226h538z" />
    <glyph glyph-name="Delta" unicode="&#xae;" horiz-adv-x="1638" 
d="M80 715q4 -312 219 -520q209 -215 520 -220q316 5 524 220q211 208 215 520q-4 315 -215 524q-208 211 -524 215q-311 -4 -520 -215q-215 -209 -219 -524v0zM293 715q2 260 153 417q148 156 373 158q225 -2 375 -158q149 -157 151 -417q-2 -258 -151 -414
q-150 -160 -375 -162q-225 2 -373 162q-151 156 -153 414v0zM522 307h176v348h84l197 -348h180l-217 357q98 8 158 59q57 51 59 160q0 137 -84 192q-86 53 -244 53h-309v-821zM698 790v203h125q58 0 107 -14q51 -17 53 -80q0 -68 -39 -88q-37 -23 -102 -21h-144z" />
    <glyph glyph-name="Gbreve" unicode="&#xaf;" horiz-adv-x="569" 
d="M580 1266v163h-590v-163h590z" />
    <glyph glyph-name="oslash" unicode="&#xb0;" horiz-adv-x="819" 
d="M410 1304q81 -2 131 -49q47 -49 49 -131q-2 -82 -49 -129q-50 -51 -131 -51q-82 0 -129 51q-52 47 -52 129t52 131q47 47 129 49v0zM410 1454q-140 -2 -232 -96q-96 -92 -98 -234q0 -143 94 -235q92 -94 236 -94q143 2 235 96q92 92 94 233q-2 142 -96 234
q-92 94 -233 96v0z" />
    <glyph glyph-name="oe" unicode="&#xb1;" horiz-adv-x="1229" 
d="M508 766h-414v-213h414v-272h213v272h414v213h-414v270h-213v-270zM94 0h1041v213h-1041v-213z" />
    <glyph glyph-name="uni00B2" unicode="&#xb2;" horiz-adv-x="739" 
d="M680 577v177h-350v4q100 47 221 176q55 63 90 129q35 65 35 127q-2 143 -90 205q-90 59 -226 59q-147 0 -276 -68l14 -178v0q97 70 215 70q125 -2 125 -107q0 -45 -45 -110q-45 -70 -110 -139q-64 -66 -125 -115q-64 -47 -97 -62v-168h619z" />
    <glyph glyph-name="uni00B3" unicode="&#xb3;" horiz-adv-x="739" 
d="M94 1237v0q53 31 113 43q59 10 110 10q58 0 95 -18q34 -21 36 -76q-2 -51 -49 -74q-49 -24 -96 -24q-74 0 -119 2v-172q43 6 115 6q61 0 106 -19q41 -24 43 -82q-2 -51 -51 -75q-51 -29 -112 -29q-103 0 -222 41l-10 -170q139 -35 258 -35q133 0 252 60q55 30 90 82
q33 49 33 120q0 78 -45 135q-47 54 -137 62v4q170 47 170 215q0 61 -31 104q-31 39 -82 64q-106 43 -213 43q-125 0 -264 -49z" />
    <glyph glyph-name="ellipsis" unicode="&#xb4;" horiz-adv-x="569" 
d="M59 1198h170l281 299h-281z" />
    <glyph glyph-name="quotedblright" unicode="&#xb5;" horiz-adv-x="1251" 
d="M141 -430h275v475h4q47 -47 98 -57q51 -13 100 -13q82 2 144 58q61 53 84 110h4v-143h260v1055h-274v-516q0 -52 -9 -111q-8 -59 -37 -113q-24 -53 -71 -88q-49 -39 -125 -39q-64 0 -100 31q-35 29 -54 74q-14 47 -18 100q-2 27 -2 51q-4 25 -4 47v564h-275v-1485z" />
    <glyph glyph-name="florin" unicode="&#xb6;" horiz-adv-x="1270" 
d="M453 -254h213v1520h217v-1520h213v1683h-600q-217 2 -351 -77q-139 -82 -141 -295q4 -350 449 -359v-952z" />
    <glyph glyph-name="scedilla" unicode="&#xb8;" horiz-adv-x="569" 
d="M154 -412q38 -18 96 -28q57 -13 141 -15q96 0 174 50q80 49 82 163q-2 74 -51 109q-49 33 -113 33q-47 0 -84 -13l-4 4l94 109h-129l-120 -152l30 -53q37 19 86 19q39 2 64 -17q26 -18 26 -57q-2 -39 -34 -55q-33 -17 -74 -17q-43 2 -76 13q-37 10 -67 18z" />
    <glyph glyph-name="uni00B9" unicode="&#xb9;" horiz-adv-x="739" 
d="M25 1237l106 -125v0l158 121v0v-656h213v865h-193z" />
    <glyph glyph-name="fraction" unicode="&#xba;" horiz-adv-x="813" 
d="M410 1454q-150 0 -256 -88q-109 -88 -111 -244q2 -157 109 -246q102 -90 256 -90q155 0 258 90q102 89 104 246q-2 156 -106 244q-103 88 -254 88v0zM414 1331q88 -2 123 -65q32 -62 32 -144q0 -84 -28 -145q-35 -66 -131 -68q-97 0 -131 64q-37 61 -35 149q0 86 39 148
q39 59 131 61v0z" />
    <glyph glyph-name="Ecircumflex" unicode="&#xbb;" 
d="M582 551l-242 420h-258l225 -420l-225 -420h258zM1038 551l-241 420h-258l225 -420l-225 -420h258z" />
    <glyph glyph-name="glyph154" unicode="&#xbc;" horiz-adv-x="1708" 
d="M336 -45h168l854 1519h-168zM41 1237l106 -125v0l158 121v0v-656h213v865h-192zM1106 326l233 350h4v-350h-237zM932 162h411v-162h213v162h99v164h-99v538h-256l-368 -528v-174z" />
    <glyph glyph-name="glyph161" unicode="&#xbd;" horiz-adv-x="1708" 
d="M274 -45h168l854 1519h-168zM20 1235l107 -125v0l158 123v0v-656h213v865h-193zM1022 0h618v176h-350v4q100 47 221 176q56 64 90 129q35 66 35 127q-2 144 -90 205q-90 59 -225 59q-148 0 -277 -67l15 -178v0q96 69 215 69q125 -2 125 -106q0 -45 -45 -111
q-45 -69 -111 -139q-63 -65 -125 -115q-63 -47 -96 -61v-168z" />
    <glyph glyph-name="glyph153" unicode="&#xbe;" horiz-adv-x="1708" 
d="M360 -45h168l854 1519h-168zM70 1237v0q53 31 112 43q60 10 111 10q57 0 100 -18q41 -21 43 -76q-2 -51 -51 -74q-49 -24 -106 -24q-74 0 -119 2v-172q43 6 114 6q62 0 111 -19q49 -24 51 -82q-2 -51 -51 -75q-51 -29 -113 -29q-118 0 -233 41l-10 -170q139 -35 258 -35
q133 0 252 60q55 30 90 82q32 49 32 120q0 78 -45 135q-47 54 -137 62v4q170 47 170 215q0 61 -31 104q-30 39 -81 64q-107 43 -213 43q-125 0 -265 -49zM1368 326h-233l229 350h4v-350zM1581 162h98v164h-98v538h-256l-369 -528v-174h412v-162h213v162z" />
    <glyph glyph-name="fi" unicode="&#xbf;" horiz-adv-x="1024" 
d="M899 -104v0q-147 -80 -315 -82q-84 0 -158 41q-33 22 -55 59q-23 35 -23 86q2 82 49 137q45 58 103 117q59 61 104 151q43 91 45 232h-252q6 -96 -43 -176q-49 -78 -121 -152q-69 -71 -124 -153q-58 -82 -60 -189q2 -194 146 -280q137 -86 321 -86q102 0 207 14
q106 14 199 53zM664 1055h-287v-287h287v287z" />
    <glyph glyph-name="Egrave" unicode="&#xc0;" horiz-adv-x="1479" 
d="M940 553h-418l207 590h4zM18 0h297l125 328h580l123 -328h317l-561 1429h-324zM750 1821h-281l281 -299h170z" />
    <glyph glyph-name="zcaron" unicode="&#xc1;" horiz-adv-x="1479" 
d="M940 553h-418l207 590h4zM18 0h297l125 328h580l123 -328h317l-561 1429h-324zM588 1522h170l281 299h-281z" />
    <glyph glyph-name="scaron" unicode="&#xc2;" horiz-adv-x="1479" 
d="M940 553h-418l207 590h4zM18 0h297l125 328h580l123 -328h317l-561 1429h-324zM652 1821l-225 -299h182l144 176v0l139 -176h182l-215 299h-207z" />
    <glyph glyph-name="Iacute" unicode="&#xc3;" horiz-adv-x="1479" 
d="M940 553h-418l207 590h4zM18 0h297l125 328h580l123 -328h317l-561 1429h-324zM498 1559q0 33 24 61q25 27 76 29q62 -2 139 -39q39 -14 82 -25q39 -12 94 -12q97 2 150 74q49 70 49 174h-110q0 -96 -91 -100q-38 0 -73 16q-37 12 -76 29q-39 16 -80 28q-39 13 -86 13
q-90 -2 -147 -76q-60 -76 -62 -172h111z" />
    <glyph glyph-name="ucircumflex" unicode="&#xc4;" horiz-adv-x="1479" 
d="M940 553h-418l207 590h4zM18 0h297l125 328h580l123 -328h317l-561 1429h-324zM843 1809v-238h237v238h-237zM658 1571v238h-237v-238h237z" />
    <glyph glyph-name="udieresis" unicode="&#xc5;" horiz-adv-x="1479" 
d="M940 553h-418l207 590h4zM18 0h297l125 328h580l123 -328h317l-561 1429h-324zM538 1696q2 -90 67 -152q62 -65 152 -65q94 0 155 65q60 62 62 152q-2 92 -62 155q-61 62 -155 64q-90 -2 -152 -64q-65 -63 -67 -155v0zM648 1696q0 47 33 80q29 28 76 28t78 -28
q28 -33 28 -80q0 -45 -28 -74q-31 -33 -78 -33t-76 33q-33 29 -33 74v0z" />
    <glyph glyph-name="Atilde" unicode="&#xc6;" horiz-adv-x="1933" 
d="M1030 553h-405l354 663h4zM18 0h308l176 328h549l24 -328h756v225h-477l-33 402h457v225h-482l-28 352h555v225h-1022z" />
    <glyph glyph-name="dagger" unicode="&#xc7;" horiz-adv-x="1251" 
d="M1194 260v0q-51 -24 -137 -41q-88 -18 -176 -18q-230 2 -357 147q-129 139 -129 363q0 225 131 370q125 146 348 148q78 0 154 -13q76 -18 156 -63v0l20 242q-170 59 -323 59q-770 -8 -785 -764q15 -643 637 -702l-110 -140l30 -53q37 19 86 19q39 2 64 -17
q26 -18 26 -57q-2 -39 -34 -55q-33 -17 -74 -17q-43 2 -76 13q-37 10 -68 18l-40 -111q38 -18 96 -28q57 -13 141 -15q96 0 174 50q80 49 82 163q-2 74 -51 109q-49 33 -113 33q-47 0 -84 -13l-4 4l74 86q12 -2 29 -2q165 2 325 45z" />
    <glyph glyph-name="Eth" unicode="&#xc8;" 
d="M166 0h848v225h-561v402h509v225h-509v352h557v225h-844v-1429zM572 1821h-281l281 -299h170z" />
    <glyph glyph-name="degree" unicode="&#xc9;" 
d="M166 0h848v225h-561v402h509v225h-509v352h557v225h-844v-1429zM410 1522h170l281 299h-281z" />
    <glyph glyph-name="Zcaron" unicode="&#xca;" 
d="M166 0h848v225h-561v402h509v225h-509v352h557v225h-844v-1429zM474 1821l-225 -299h182l144 176v0l139 -176h182l-215 299h-207z" />
    <glyph glyph-name="brokenbar" unicode="&#xcb;" 
d="M166 0h848v225h-561v402h509v225h-509v352h557v225h-844v-1429zM665 1809v-238h237v238h-237zM480 1571v238h-237v-238h237z" />
    <glyph glyph-name="Thorn" unicode="&#xcc;" horiz-adv-x="569" 
d="M141 0h287v1429h-287v-1429zM279 1821h-281l281 -299h170z" />
    <glyph glyph-name="eth" unicode="&#xcd;" horiz-adv-x="569" 
d="M141 0h287v1429h-287v-1429zM115 1522h170l281 299h-281z" />
    <glyph glyph-name="Yacute" unicode="&#xce;" horiz-adv-x="569" 
d="M141 0h287v1429h-287v-1429zM181 1821l-225 -299h182l144 176v0l139 -176h182l-215 299h-207z" />
    <glyph glyph-name="yacute" unicode="&#xcf;" horiz-adv-x="569" 
d="M141 0h287v1429h-287v-1429zM372 1809v-238h237v238h-237zM187 1571v238h-237v-238h237z" />
    <glyph glyph-name="glyph160" unicode="&#xd0;" horiz-adv-x="1479" 
d="M166 0h391q168 0 315 33q148 33 263 112q116 82 182 222q65 137 65 348q0 215 -65 354q-66 137 -182 217q-238 147 -578 143h-391v-565h-131v-176h131v-688zM453 688h299v176h-299v340h159q189 0 328 -127t143 -362q-4 -234 -143 -361q-139 -129 -328 -129h-159v463z" />
    <glyph glyph-name="cent" unicode="&#xd1;" horiz-adv-x="1479" 
d="M152 0h274v1069h4l547 -1069h350v1429h-274v-1069h-4l-545 1069h-352v-1429zM495 1559q0 33 24 61q25 27 76 29q62 -2 139 -39q39 -14 82 -25q39 -12 94 -12q97 2 150 74q49 70 49 174h-110q0 -96 -91 -100q-38 0 -73 16q-37 12 -76 29q-39 16 -80 28q-39 13 -86 13
q-90 -2 -147 -76q-60 -76 -62 -172h111z" />
    <glyph glyph-name="onesuperior" unicode="&#xd2;" horiz-adv-x="1593" 
d="M96 719q0 -334 180 -535q177 -204 521 -209q342 5 522 211q176 203 178 533q0 332 -180 530q-180 201 -520 205q-342 -2 -521 -203q-180 -198 -180 -532v0zM395 719q0 198 96 350q95 156 306 160q213 -4 309 -160q92 -152 92 -350q0 -201 -90 -354q-45 -74 -123 -119
t-188 -45q-215 4 -310 164q-94 153 -92 354v0zM808 1821h-281l281 -299h170z" />
    <glyph glyph-name="thorn" unicode="&#xd3;" horiz-adv-x="1593" 
d="M96 719q0 -334 180 -535q177 -204 521 -209q342 5 522 211q176 203 178 533q0 332 -180 530q-180 201 -520 205q-342 -2 -521 -203q-180 -198 -180 -532v0zM395 719q0 198 96 350q95 156 306 160q213 -4 309 -160q92 -152 92 -350q0 -201 -90 -354q-45 -74 -123 -119
t-188 -45q-215 4 -310 164q-94 153 -92 354v0zM644 1522h170l281 299h-281z" />
    <glyph glyph-name="minus" unicode="&#xd4;" horiz-adv-x="1593" 
d="M96 719q0 -334 180 -535q177 -204 521 -209q342 5 522 211q176 203 178 533q0 332 -180 530q-180 201 -520 205q-342 -2 -521 -203q-180 -198 -180 -532v0zM395 719q0 198 96 350q95 156 306 160q213 -4 309 -160q92 -152 92 -350q0 -201 -90 -354q-45 -74 -123 -119
t-188 -45q-215 4 -310 164q-94 153 -92 354v0zM710 1821l-225 -299h182l144 176v0l139 -176h182l-215 299h-207z" />
    <glyph glyph-name="Icircumflex" unicode="&#xd5;" horiz-adv-x="1593" 
d="M96 719q0 -334 180 -535q177 -204 521 -209q342 5 522 211q176 203 178 533q0 332 -180 530q-180 201 -520 205q-342 -2 -521 -203q-180 -198 -180 -532v0zM395 719q0 198 96 350q95 156 306 160q213 -4 309 -160q92 -152 92 -350q0 -201 -90 -354q-45 -74 -123 -119
t-188 -45q-215 4 -310 164q-94 153 -92 354v0zM556 1559q0 33 24 61q25 27 76 29q62 -2 139 -39q39 -14 82 -25q39 -12 94 -12q97 2 150 74q49 70 49 174h-110q0 -96 -91 -100q-38 0 -73 16q-37 12 -76 29q-39 16 -80 28q-39 13 -86 13q-90 -2 -147 -76q-60 -76 -62 -172
h111z" />
    <glyph glyph-name="sterling" unicode="&#xd6;" horiz-adv-x="1593" 
d="M96 719q0 -334 180 -535q177 -204 521 -209q342 5 522 211q176 203 178 533q0 332 -180 530q-180 201 -520 205q-342 -2 -521 -203q-180 -198 -180 -532v0zM395 719q0 198 96 350q95 156 306 160q213 -4 309 -160q92 -152 92 -350q0 -201 -90 -354q-45 -74 -123 -119
t-188 -45q-215 4 -310 164q-94 153 -92 354v0zM901 1809v-238h237v238h-237zM716 1571v238h-237v-238h237z" />
    <glyph glyph-name="multiply" unicode="&#xd7;" horiz-adv-x="1229" 
d="M467 518l-332 -332l148 -147v0l331 334v0l332 -334v0l148 147l-334 332l334 332l-148 147v0l-332 -331v0l-331 331v0l-148 -147z" />
    <glyph glyph-name="Otilde" unicode="&#xd8;" horiz-adv-x="1593" 
d="M467 397v0q-72 144 -72 322q0 198 96 350q95 156 306 160q153 -2 245 -90zM1118 1042v0q80 -141 80 -323q0 -201 -90 -354q-45 -74 -123 -119t-188 -45q-164 2 -256 98zM1313 1489v0l-111 -144v0q-162 107 -405 109q-342 -2 -521 -203q-180 -198 -180 -532
q0 -350 195 -549l-121 -156l92 -73v0l117 151v0q164 -115 418 -117q342 5 522 211q176 203 178 533q-2 348 -203 551l111 143z" />
    <glyph glyph-name="onehalf" unicode="&#xd9;" horiz-adv-x="1479" 
d="M156 516q8 -549 583 -541q576 -8 584 541v913h-287v-825q0 -184 -65 -291q-68 -112 -232 -112q-159 0 -229 112q-70 107 -68 291v825h-286v-913zM747 1821h-281l281 -299h170z" />
    <glyph glyph-name="twosuperior" unicode="&#xda;" horiz-adv-x="1479" 
d="M156 516q8 -549 583 -541q576 -8 584 541v913h-287v-825q0 -184 -65 -291q-68 -112 -232 -112q-159 0 -229 112q-70 107 -68 291v825h-286v-913zM585 1522h170l281 299h-281z" />
    <glyph glyph-name="threesuperior" unicode="&#xdb;" horiz-adv-x="1479" 
d="M156 516q8 -549 583 -541q576 -8 584 541v913h-287v-825q0 -184 -65 -291q-68 -112 -232 -112q-159 0 -229 112q-70 107 -68 291v825h-286v-913zM649 1821l-225 -299h182l144 176v0l139 -176h182l-215 299h-207z" />
    <glyph glyph-name="section" unicode="&#xdc;" horiz-adv-x="1479" 
d="M156 516q8 -549 583 -541q576 -8 584 541v913h-287v-825q0 -184 -65 -291q-68 -112 -232 -112q-159 0 -229 112q-70 107 -68 291v825h-286v-913zM840 1809v-238h237v238h-237zM655 1571v238h-237v-238h237z" />
    <glyph glyph-name="glyph203" unicode="&#xdd;" horiz-adv-x="1366" 
d="M545 0h286v565l512 864h-303l-344 -600v0l-338 600h-335l522 -864v-565zM533 1522h170l281 299h-281z" />
    <glyph glyph-name="glyph158" unicode="&#xde;" 
d="M428 0v305h121q237 -2 393 103q156 104 158 350q-4 254 -181 346q-174 90 -415 88h-76v237h-287v-1429h287zM428 967h100q115 0 193 -50q37 -24 59 -67q21 -43 21 -107q-2 -120 -80 -168q-80 -47 -193 -45h-100v437z" />
    <glyph glyph-name="approxequal" unicode="&#xdf;" horiz-adv-x="1251" 
d="M422 0v1057q0 110 53 198q53 90 172 92q94 -2 139 -61q43 -61 43 -149q-6 -226 -247 -224v-213q133 2 227 -45q92 -49 94 -186q0 -86 -22 -137q-23 -56 -58 -82q-35 -27 -69 -37q-37 -12 -70 -12q-92 0 -143 22l-9 -213q68 -18 179 -22q213 2 346 123q131 118 133 329
q-2 148 -94 252q-95 105 -252 125v4q272 78 272 363q-4 188 -145 282q-140 94 -320 94q-252 -2 -377 -145q-127 -143 -127 -381v-1034h275z" />
    <glyph glyph-name="paragraph" unicode="&#xe0;" 
d="M197 764v0q145 112 325 115q123 0 180 -50q58 -51 58 -178h-152q-86 0 -180 -10q-92 -12 -174 -51q-78 -35 -127 -109q-53 -73 -53 -192q2 -152 116 -232q109 -80 252 -82q99 0 189 50q88 47 137 133h4q0 -62 12 -158h242q-8 119 -12 236q-4 110 -4 264v135
q6 450 -455 444q-190 -2 -367 -80zM336 305q0 62 33 98q28 37 75 56q47 18 101 24q24 4 49 4h47h119q2 -125 -58 -217q-65 -92 -192 -94q-76 0 -123 33q-51 31 -51 96v0zM538 1497h-281l281 -299h170z" />
    <glyph glyph-name="bullet" unicode="&#xe1;" 
d="M197 764v0q145 112 325 115q123 0 180 -50q58 -51 58 -178h-152q-86 0 -180 -10q-92 -12 -174 -51q-78 -35 -127 -109q-53 -73 -53 -192q2 -152 116 -232q109 -80 252 -82q99 0 189 50q88 47 137 133h4q0 -62 12 -158h242q-8 119 -12 236q-4 110 -4 264v135
q6 450 -455 444q-190 -2 -367 -80zM336 305q0 62 33 98q28 37 75 56q47 18 101 24q24 4 49 4h47h119q2 -125 -58 -217q-65 -92 -192 -94q-76 0 -123 33q-51 31 -51 96v0zM429 1198h170l281 299h-281z" />
    <glyph glyph-name="germandbls" unicode="&#xe2;" 
d="M197 764v0q145 112 325 115q123 0 180 -50q58 -51 58 -178h-152q-86 0 -180 -10q-92 -12 -174 -51q-78 -35 -127 -109q-53 -73 -53 -192q2 -152 116 -232q109 -80 252 -82q99 0 189 50q88 47 137 133h4q0 -62 12 -158h242q-8 119 -12 236q-4 110 -4 264v135
q6 450 -455 444q-190 -2 -367 -80zM336 305q0 62 33 98q28 37 75 56q47 18 101 24q24 4 49 4h47h119q2 -125 -58 -217q-65 -92 -192 -94q-76 0 -123 33q-51 31 -51 96v0zM476 1497l-225 -299h182l144 176v0l139 -176h182l-215 299h-207z" />
    <glyph glyph-name="copyright" unicode="&#xe3;" 
d="M197 764v0q145 112 325 115q123 0 180 -50q58 -51 58 -178h-152q-86 0 -180 -10q-92 -12 -174 -51q-78 -35 -127 -109q-53 -73 -53 -192q2 -152 116 -232q109 -80 252 -82q99 0 189 50q88 47 137 133h4q0 -62 12 -158h242q-8 119 -12 236q-4 110 -4 264v135
q6 450 -455 444q-190 -2 -367 -80zM336 305q0 62 33 98q28 37 75 56q47 18 101 24q24 4 49 4h47h119q2 -125 -58 -217q-65 -92 -192 -94q-76 0 -123 33q-51 31 -51 96v0zM322 1235q0 33 24 61q25 27 76 29q62 -2 139 -39q39 -14 82 -25q39 -12 94 -12q97 2 150 74
q49 70 49 174h-110q0 -96 -91 -100q-38 0 -73 16q-37 12 -76 29q-39 16 -80 28q-39 13 -86 13q-90 -2 -147 -76q-60 -76 -62 -172h111z" />
    <glyph glyph-name="registered" unicode="&#xe4;" 
d="M197 764v0q145 112 325 115q123 0 180 -50q58 -51 58 -178h-152q-86 0 -180 -10q-92 -12 -174 -51q-78 -35 -127 -109q-53 -73 -53 -192q2 -152 116 -232q109 -80 252 -82q99 0 189 50q88 47 137 133h4q0 -62 12 -158h242q-8 119 -12 236q-4 110 -4 264v135
q6 450 -455 444q-190 -2 -367 -80zM336 305q0 62 33 98q28 37 75 56q47 18 101 24q24 4 49 4h47h119q2 -125 -58 -217q-65 -92 -192 -94q-76 0 -123 33q-51 31 -51 96v0zM667 1485v-238h237v238h-237zM482 1247v238h-237v-238h237z" />
    <glyph glyph-name="trademark" unicode="&#xe5;" 
d="M197 764v0q145 112 325 115q123 0 180 -50q58 -51 58 -178h-152q-86 0 -180 -10q-92 -12 -174 -51q-78 -35 -127 -109q-53 -73 -53 -192q2 -152 116 -232q109 -80 252 -82q99 0 189 50q88 47 137 133h4q0 -62 12 -158h242q-8 119 -12 236q-4 110 -4 264v135
q6 450 -455 444q-190 -2 -367 -80zM336 305q0 62 33 98q28 37 75 56q47 18 101 24q24 4 49 4h47h119q2 -125 -58 -217q-65 -92 -192 -94q-76 0 -123 33q-51 31 -51 96v0zM362 1403q2 -90 67 -152q62 -65 152 -65q94 0 155 65q60 62 62 152q-2 92 -62 155q-61 62 -155 64
q-90 -2 -152 -64q-65 -63 -67 -155v0zM472 1403q0 47 33 80q29 28 76 28t78 -28q28 -33 28 -80q0 -45 -28 -74q-31 -33 -78 -33t-76 33q-33 29 -33 74v0z" />
    <glyph glyph-name="guilsinglleft" unicode="&#xe6;" horiz-adv-x="1821" 
d="M1022 631q0 106 65 176q62 69 183 72q114 -3 166 -74q49 -74 49 -174h-463zM1675 283v0q-76 -45 -162 -74q-88 -33 -188 -33q-129 0 -213 70q-88 67 -90 196h725q2 256 -92 443q-103 188 -379 194q-246 -2 -361 -133v0q-36 43 -75 72q-41 26 -84 39q-86 22 -199 22
q-201 -2 -375 -80l8 -235v0q146 112 326 117q137 0 193 -58q51 -57 51 -172h-158q-90 0 -182 -14q-94 -14 -172 -55q-78 -39 -125 -111q-49 -72 -49 -182q2 -170 127 -242q121 -72 276 -72q117 -2 223 48q54 24 99 61q43 33 71 82v0q78 -107 197 -148q117 -43 246 -43
q217 0 362 84v224zM336 289q0 61 31 102q28 39 75 60q47 22 101 30q26 4 51 6h47h119q6 -311 -269 -311q-73 0 -114 35q-41 31 -41 78v0z" />
    <glyph glyph-name="acute" unicode="&#xe7;" horiz-adv-x="909" 
d="M850 1044q-107 35 -266 35q-246 -2 -377 -157q-133 -154 -133 -390q0 -225 110 -372q111 -150 332 -178l-106 -134l30 -53q37 19 86 19q39 2 64 -17q26 -18 26 -57q-2 -39 -34 -55q-33 -17 -74 -17q-43 2 -76 13q-37 10 -67 18l-41 -111q38 -18 96 -28q57 -13 141 -15
q96 0 174 50q80 49 82 163q-2 74 -51 109q-49 33 -113 33q-47 0 -84 -13l-4 4l76 86q131 3 227 33l-12 228q-35 -17 -92 -31q-60 -19 -119 -19q-143 2 -213 101q-72 96 -72 243q0 154 78 244q74 88 201 90q63 0 108 -10q43 -10 78 -29z" />
    <glyph glyph-name="notequal" unicode="&#xe8;" 
d="M336 631q8 108 69 178q62 67 175 70q114 -3 167 -74q52 -70 56 -174h-467zM987 283v0q-76 -45 -162 -74q-88 -33 -188 -33q-127 0 -209 72q-82 67 -92 194h729q2 283 -103 459q-110 176 -399 178q-244 -4 -366 -162q-123 -159 -123 -395q6 -538 551 -547q217 0 362 84
v224zM538 1497h-281l281 -299h170z" />
    <glyph glyph-name="dieresis" unicode="&#xe9;" 
d="M336 631q8 108 69 178q62 67 175 70q114 -3 167 -74q52 -70 56 -174h-467zM987 283v0q-76 -45 -162 -74q-88 -33 -188 -33q-127 0 -209 72q-82 67 -92 194h729q2 283 -103 459q-110 176 -399 178q-244 -4 -366 -162q-123 -159 -123 -395q6 -538 551 -547q217 0 362 84
v224zM429 1198h170l281 299h-281z" />
    <glyph glyph-name="AE" unicode="&#xea;" 
d="M336 631q8 108 69 178q62 67 175 70q114 -3 167 -74q52 -70 56 -174h-467zM987 283v0q-76 -45 -162 -74q-88 -33 -188 -33q-127 0 -209 72q-82 67 -92 194h729q2 283 -103 459q-110 176 -399 178q-244 -4 -366 -162q-123 -159 -123 -395q6 -538 551 -547q217 0 362 84
v224zM476 1497l-225 -299h182l144 176v0l139 -176h182l-215 299h-207z" />
    <glyph glyph-name="Oslash" unicode="&#xeb;" 
d="M336 631q8 108 69 178q62 67 175 70q114 -3 167 -74q52 -70 56 -174h-467zM987 283v0q-76 -45 -162 -74q-88 -33 -188 -33q-127 0 -209 72q-82 67 -92 194h729q2 283 -103 459q-110 176 -399 178q-244 -4 -366 -162q-123 -159 -123 -395q6 -538 551 -547q217 0 362 84
v224zM667 1485v-238h237v238h-237zM482 1247v238h-237v-238h237z" />
    <glyph glyph-name="plusminus" unicode="&#xec;" horiz-adv-x="569" 
d="M422 0v1055h-275v-1055h275zM243 1497h-281l281 -299h170z" />
    <glyph glyph-name="infinity" unicode="&#xed;" horiz-adv-x="569" 
d="M422 0v1055h-275v-1055h275zM133 1198h170l281 299h-281z" />
    <glyph glyph-name="lessequal" unicode="&#xee;" horiz-adv-x="569" 
d="M422 0v1055h-275v-1055h275zM181 1497l-225 -299h182l144 176v0l139 -176h182l-215 299h-207z" />
    <glyph glyph-name="greaterequal" unicode="&#xef;" horiz-adv-x="569" 
d="M422 0v1055h-275v-1055h275zM372 1485v-238h237v238h-237zM187 1247v238h-237v-238h237z" />
    <glyph glyph-name="glyph164" unicode="&#xf0;" horiz-adv-x="1251" 
d="M629 842q69 0 118 -29q50 -31 78 -80q60 -104 60 -219q0 -129 -58 -223q-59 -101 -200 -103q-74 0 -123 33q-51 29 -82 76t-45 104q-17 58 -17 113q0 121 68 221q66 103 201 107v0zM297 1216l104 -96v0l189 123v0q143 -106 217 -254h-4q-45 31 -105 49q-59 17 -147 17
q-229 -4 -354 -160t-123 -375q0 -231 145 -385q143 -155 406 -160q540 7 546 602q-10 504 -399 783l170 108l-104 97v0l-189 -121v0q-123 71 -260 121v0l-125 -140q92 -30 203 -98z" />
    <glyph glyph-name="yen" unicode="&#xf1;" horiz-adv-x="1251" 
d="M141 0h275v516q0 53 12 115q10 59 37 112q29 54 74 88q45 35 118 35q66 0 105 -26q37 -29 51 -76q18 -43 20 -96q3 -54 3 -105v-563h274v666q0 182 -84 296q-88 115 -274 117q-215 2 -347 -168h-4v144h-260v-1055zM379 1235q0 33 24 61q25 27 76 29q62 -2 139 -39
q39 -14 82 -25q39 -12 94 -12q97 2 150 74q49 70 49 174h-110q0 -96 -91 -100q-38 0 -73 16q-37 12 -76 29q-39 16 -80 28q-39 13 -86 13q-90 -2 -147 -76q-60 -76 -62 -172h111z" />
    <glyph glyph-name="partialdiff" unicode="&#xf2;" horiz-adv-x="1251" 
d="M74 520q0 -231 145 -385q143 -155 406 -160q266 5 409 160q144 154 144 385q-3 264 -158 412q-154 145 -395 147q-238 -2 -392 -147q-157 -148 -159 -412v0zM360 553q0 125 68 217q66 94 197 96q135 -2 202 -94q64 -92 64 -219q0 -66 -10 -129q-11 -66 -41 -119
q-31 -53 -82 -84q-54 -33 -133 -33q-78 0 -127 35q-52 31 -82 84q-29 53 -41 119q-6 31 -10 65q-5 31 -5 62v0zM599 1497h-281l281 -299h170z" />
    <glyph glyph-name="mu" unicode="&#xf3;" horiz-adv-x="1251" 
d="M74 520q0 -231 145 -385q143 -155 406 -160q266 5 409 160q144 154 144 385q-3 264 -158 412q-154 145 -395 147q-238 -2 -392 -147q-157 -148 -159 -412v0zM360 553q0 125 68 217q66 94 197 96q135 -2 202 -94q64 -92 64 -219q0 -66 -10 -129q-11 -66 -41 -119
q-31 -53 -82 -84q-54 -33 -133 -33q-78 0 -127 35q-52 31 -82 84q-29 53 -41 119q-6 31 -10 65q-5 31 -5 62v0zM487 1198h170l281 299h-281z" />
    <glyph glyph-name="summation" unicode="&#xf4;" horiz-adv-x="1251" 
d="M74 520q0 -231 145 -385q143 -155 406 -160q266 5 409 160q144 154 144 385q-3 264 -158 412q-154 145 -395 147q-238 -2 -392 -147q-157 -148 -159 -412v0zM360 553q0 125 68 217q66 94 197 96q135 -2 202 -94q64 -92 64 -219q0 -66 -10 -129q-11 -66 -41 -119
q-31 -53 -82 -84q-54 -33 -133 -33q-78 0 -127 35q-52 31 -82 84q-29 53 -41 119q-6 31 -10 65q-5 31 -5 62v0zM535 1497l-225 -299h182l144 176v0l139 -176h182l-215 299h-207z" />
    <glyph glyph-name="pi" unicode="&#xf5;" horiz-adv-x="1251" 
d="M74 520q0 -231 145 -385q143 -155 406 -160q266 5 409 160q144 154 144 385q-3 264 -158 412q-154 145 -395 147q-238 -2 -392 -147q-157 -148 -159 -412v0zM360 553q0 125 68 217q66 94 197 96q135 -2 202 -94q64 -92 64 -219q0 -66 -10 -129q-11 -66 -41 -119
q-31 -53 -82 -84q-54 -33 -133 -33q-78 0 -127 35q-52 31 -82 84q-29 53 -41 119q-6 31 -10 65q-5 31 -5 62v0zM380 1235q0 33 24 61q25 27 76 29q62 -2 139 -39q39 -14 82 -25q39 -12 94 -12q97 2 150 74q49 70 49 174h-110q0 -96 -91 -100q-38 0 -73 16q-37 12 -76 29
q-39 16 -80 28q-39 13 -86 13q-90 -2 -147 -76q-60 -76 -62 -172h111z" />
    <glyph glyph-name="product" unicode="&#xf6;" horiz-adv-x="1251" 
d="M74 520q0 -231 145 -385q143 -155 406 -160q266 5 409 160q144 154 144 385q-3 264 -158 412q-154 145 -395 147q-238 -2 -392 -147q-157 -148 -159 -412v0zM360 553q0 125 68 217q66 94 197 96q135 -2 202 -94q64 -92 64 -219q0 -66 -10 -129q-11 -66 -41 -119
q-31 -53 -82 -84q-54 -33 -133 -33q-78 0 -127 35q-52 31 -82 84q-29 53 -41 119q-6 31 -10 65q-5 31 -5 62v0zM726 1485v-238h237v238h-237zM541 1247v238h-237v-238h237z" />
    <glyph glyph-name="Ugrave" unicode="&#xf7;" horiz-adv-x="1229" 
d="M1135 412v213h-1041v-213h1041zM614 1083q-71 -2 -112 -43q-45 -43 -45 -114q0 -68 45 -113q41 -45 112 -45q72 0 117 45q41 45 41 113q0 71 -41 114q-45 41 -117 43v0zM614 -47q72 2 117 45q41 45 41 113q0 71 -41 114q-45 41 -117 43q-71 -2 -112 -43q-45 -43 -45 -114
q0 -68 45 -113q41 -43 112 -45v0z" />
    <glyph glyph-name="guilsinglright" unicode="&#xf8;" horiz-adv-x="1251" 
d="M397 344v0q-39 96 -37 209q0 125 68 217q66 94 197 96q102 -2 161 -55zM854 725v0q37 -78 37 -172q0 -66 -10 -129q-11 -66 -41 -119q-31 -53 -82 -84q-54 -33 -133 -33q-107 0 -166 62zM1051 1126v0l-111 -133v0q-133 84 -315 86q-238 -2 -392 -147q-157 -148 -159 -412
q0 -235 147 -387l-115 -137l84 -68v0l113 135v0q131 -86 322 -88q266 5 409 160q144 154 144 385q-3 260 -156 406l110 133z" />
    <glyph glyph-name="ordfeminine" unicode="&#xf9;" horiz-adv-x="1251" 
d="M1110 1055h-274v-516q0 -52 -9 -111q-8 -59 -37 -113q-24 -53 -71 -88q-49 -39 -125 -39q-64 0 -100 31q-35 29 -54 74q-14 47 -18 100q-2 27 -2 51q-4 25 -4 47v564h-275v-666q0 -180 88 -295q84 -117 271 -119q217 5 346 168h4v-143h260v1055zM595 1497h-281l281 -299
h170z" />
    <glyph glyph-name="integral" unicode="&#xfa;" horiz-adv-x="1251" 
d="M1110 1055h-274v-516q0 -52 -9 -111q-8 -59 -37 -113q-24 -53 -71 -88q-49 -39 -125 -39q-64 0 -100 31q-35 29 -54 74q-14 47 -18 100q-2 27 -2 51q-4 25 -4 47v564h-275v-666q0 -180 88 -295q84 -117 271 -119q217 5 346 168h4v-143h260v1055zM486 1198h170l281 299
h-281z" />
    <glyph glyph-name="ordmasculine" unicode="&#xfb;" horiz-adv-x="1251" 
d="M1110 1055h-274v-516q0 -52 -9 -111q-8 -59 -37 -113q-24 -53 -71 -88q-49 -39 -125 -39q-64 0 -100 31q-35 29 -54 74q-14 47 -18 100q-2 27 -2 51q-4 25 -4 47v564h-275v-666q0 -180 88 -295q84 -117 271 -119q217 5 346 168h4v-143h260v1055zM533 1497l-225 -299h182
l144 176v0l139 -176h182l-215 299h-207z" />
    <glyph glyph-name="Omega" unicode="&#xfc;" horiz-adv-x="1251" 
d="M1110 1055h-274v-516q0 -52 -9 -111q-8 -59 -37 -113q-24 -53 -71 -88q-49 -39 -125 -39q-64 0 -100 31q-35 29 -54 74q-14 47 -18 100q-2 27 -2 51q-4 25 -4 47v564h-275v-666q0 -180 88 -295q84 -117 271 -119q217 5 346 168h4v-143h260v1055zM724 1485v-238h237v238
h-237zM539 1247v238h-237v-238h237z" />
    <glyph glyph-name="glyph176" unicode="&#xfd;" 
d="M326 1055h-303l403 -1108q0 -84 -47 -135q-47 -52 -131 -54q-94 0 -142 19l-18 -203q96 -29 195 -29q106 0 180 41q69 39 114 105q48 65 80 149q33 82 64 168l395 1047h-278l-254 -770h-4zM430 1198h170l281 299h-281z" />
    <glyph glyph-name="glyph167" unicode="&#xfe;" horiz-adv-x="1251" 
d="M141 -430h275v549h4q49 -62 125 -101q75 -41 190 -43q240 5 344 170q101 162 99 385q2 226 -99 385q-104 160 -344 164q-119 -2 -196 -47q-80 -47 -119 -115h-4v619h-275v-1966zM664 866q67 0 112 -30q45 -31 70 -82q45 -109 45 -224q0 -53 -8 -112q-13 -60 -39 -113
q-25 -49 -70 -82q-47 -35 -115 -35q-67 0 -112 35q-45 33 -74 82q-57 107 -55 225q0 119 57 224q57 108 189 112v0z" />
    <glyph glyph-name="circumflex" unicode="&#xff;" 
d="M326 1055h-303l403 -1108q0 -84 -47 -135q-47 -52 -131 -54q-94 0 -142 19l-18 -203q96 -29 195 -29q106 0 180 41q69 39 114 105q48 65 80 149q33 82 64 168l395 1047h-278l-254 -770h-4zM669 1485v-238h237v238h-237zM484 1247v238h-237v-238h237z" />
    <glyph glyph-name="onequarter" unicode="&#x131;" horiz-adv-x="569" 
d="M422 0v1055h-275v-1055h275z" />
    <glyph glyph-name="glyph142" unicode="&#x141;" horiz-adv-x="1024" 
d="M166 498v-498h842v225h-555v443l344 204v189v0l-344 -205v0v573h-287v-743l-150 -90v-188v0l150 90v0z" />
    <glyph glyph-name="glyph148" unicode="&#x142;" horiz-adv-x="569" 
d="M147 600v-600h275v764l147 88v188v0l-147 -88v0v584h-275v-748l-147 -88v-188v0l147 88v0z" />
    <glyph glyph-name="Idieresis" unicode="&#x152;" horiz-adv-x="1933" 
d="M1003 225q-55 -12 -143 -12q-227 8 -346 143q-119 138 -119 351q0 233 121 372q119 135 336 137q88 -2 151 -12v-979zM1823 1429h-535q-211 7 -422 13q-753 0 -770 -735q0 -224 68 -363q63 -143 168 -221q106 -76 237 -105q127 -30 260 -30q230 8 459 12h543v225h-541
v402h488v225h-488v352h533v225z" />
    <glyph glyph-name="Igrave" unicode="&#x153;" horiz-adv-x="1933" 
d="M360 526q0 127 64 238q61 110 201 115q151 -5 215 -111q57 -107 57 -246q0 -65 -12 -127q-6 -30 -17 -57q-12 -29 -30 -53q-62 -107 -213 -109q-148 2 -207 113q-60 104 -58 237v0zM1859 442q2 258 -92 445q-98 188 -381 192q-108 0 -206 -43q-99 -45 -162 -137v0
q-142 180 -393 180q-238 -2 -392 -147q-157 -148 -159 -412q0 -231 145 -385q143 -155 406 -160q98 -2 208 33q111 35 195 141v0q70 -102 182 -137q113 -37 246 -37q145 2 227 35q41 15 66 27q24 14 37 20l-8 224v0q-140 -105 -314 -105q-125 0 -205 68q-81 63 -88 198h688z
M1171 631q0 100 58 174q55 71 159 74q113 -3 160 -74q47 -72 49 -174h-426z" />
    <glyph glyph-name="glyph208" unicode="&#x160;" 
d="M934 1167l26 236q-157 51 -342 51q-194 0 -342 -96q-153 -103 -157 -340q0 -86 28 -150q29 -63 72 -108q47 -43 103 -74q53 -33 112 -57q121 -45 215 -95q43 -24 72 -61q24 -37 24 -88q-2 -94 -84 -139q-81 -45 -170 -45q-172 2 -323 88v0l-27 -258q103 -25 181 -39
q75 -17 186 -17q225 0 379 101q153 100 157 332q0 92 -24 157q-29 64 -72 109q-43 47 -100 80q-55 30 -115 53q-59 24 -113 47q-55 20 -102 45q-43 25 -72 55q-28 31 -28 76q0 59 22 98q23 41 56 62q34 22 73 31q37 8 74 8q154 -2 291 -62v0zM682 1522l215 299h-182
l-139 -176v0l-144 176h-182l225 -299h207z" />
    <glyph glyph-name="glyph181" unicode="&#x161;" horiz-adv-x="909" 
d="M786 1040q-61 17 -131 29q-71 10 -168 10q-165 0 -284 -78q-127 -77 -129 -249q0 -70 22 -117q19 -49 53 -82q35 -33 78 -53q43 -21 86 -35q92 -25 164 -53q35 -15 55 -39q19 -27 19 -68q-2 -74 -64 -100q-59 -29 -116 -29q-142 0 -271 70v0l-16 -226q154 -43 311 -45
q176 0 307 80q131 82 136 264q0 74 -19 125q-20 50 -55 84q-33 33 -74 58q-43 22 -90 37q-43 16 -86 28q-43 13 -78 27q-74 24 -76 84q2 67 56 94q49 23 106 23q76 0 131 -11q56 -12 115 -35zM564 1198l215 299h-182l-139 -176v0l-144 176h-182l225 -299h207z" />
    <glyph glyph-name="tilde" unicode="&#x178;" horiz-adv-x="1366" 
d="M545 0h286v565l512 864h-303l-344 -600v0l-338 600h-335l522 -864v-565zM788 1809v-238h237v238h-237zM603 1571v238h-237v-238h237z" />
    <glyph glyph-name="quotesinglbase" unicode="&#x192;" 
d="M254 831l-31 -163h232l-144 -723q-6 -54 -32 -117q-29 -66 -115 -70q-55 0 -107 11l-41 -203q52 -14 107 -17q53 -4 106 -4q113 2 185 54q71 49 110 120q41 72 62 148q18 74 26 127l125 674h254l27 163h-248l51 242q15 76 47 123q31 45 97 45q40 0 67 -6q27 -10 51 -17
l37 218q-84 18 -172 18q-180 0 -270 -82q-92 -86 -127 -254l-64 -287h-233z" />
    <glyph glyph-name="threequarters" unicode="&#x2c6;" horiz-adv-x="569" 
d="M186 1497l-225 -299h182l144 176v0l139 -176h182l-215 299h-207z" />
    <glyph glyph-name="Ccaron" unicode="&#x2c7;" horiz-adv-x="569" 
d="M393 1198l215 299h-182l-139 -176v0l-144 176h-182l225 -299h207z" />
    <glyph glyph-name="gbreve" unicode="&#x2d8;" horiz-adv-x="569" 
d="M-49 1495q10 -141 102 -223q92 -88 230 -88q141 0 233 88q92 82 102 223h-127q-40 -162 -208 -164q-166 2 -205 164h-127z" />
    <glyph glyph-name="Idotaccent" unicode="&#x2d9;" horiz-adv-x="569" 
d="M403 1247v238h-237v-238h237z" />
    <glyph glyph-name="Scedilla" unicode="&#x2da;" horiz-adv-x="569" 
d="M68 1403q2 -90 67 -152q62 -65 152 -65q94 0 155 65q60 62 62 152q-2 92 -62 155q-61 62 -155 64q-90 -2 -152 -64q-65 -63 -67 -155v0zM178 1403q0 47 33 80q29 28 76 28t78 -28q28 -33 28 -80q0 -45 -28 -74q-31 -33 -78 -33t-76 33q-33 29 -33 74v0z" />
    <glyph glyph-name="cacute" unicode="&#x2db;" horiz-adv-x="569" 
d="M371 0q-80 -39 -160 -104q-37 -33 -59 -74q-27 -43 -27 -92q0 -92 57 -138q54 -47 144 -47q102 0 161 41q60 41 95 121l-82 17q-19 -25 -49 -45q-31 -21 -66 -23q-86 2 -84 92q2 82 55 146q54 61 115 106h-100z" />
    <glyph glyph-name="glyph130" unicode="&#x2dc;" horiz-adv-x="569" 
d="M33 1235q0 33 24 61q25 27 76 29q62 -2 139 -39q39 -14 82 -25q39 -12 94 -12q97 2 150 74q49 70 49 174h-110q0 -96 -91 -100q-38 0 -73 16q-37 12 -76 29q-39 16 -80 28q-39 13 -86 13q-90 -2 -147 -76q-60 -76 -62 -172h111z" />
    <glyph glyph-name="Oacute" unicode="&#x2013;" horiz-adv-x="1024" 
d="M0 457h1024v188h-1024v-188z" />
    <glyph glyph-name="Ocircumflex" unicode="&#x2014;" horiz-adv-x="2048" 
d="M0 457h2048v188h-2048v-188z" />
    <glyph glyph-name="Uacute" unicode="&#x2018;" horiz-adv-x="569" 
d="M70 917h301l129 512h-244z" />
    <glyph glyph-name="Ucircumflex" unicode="&#x2019;" horiz-adv-x="569" 
d="M70 917h241l189 512h-299z" />
    <glyph glyph-name="Lslash" unicode="&#x201a;" horiz-adv-x="569" 
d="M70 -225h241l189 512h-299z" />
    <glyph glyph-name="apple" unicode="&#x201c;" horiz-adv-x="985" 
d="M70 917h301l129 512h-244zM485 917h301l129 512h-243z" />
    <glyph glyph-name="Ograve" unicode="&#x201d;" horiz-adv-x="985" 
d="M70 917h241l189 512h-299zM485 917h242l188 512h-299z" />
    <glyph glyph-name="lslash" unicode="&#x201e;" horiz-adv-x="985" 
d="M485 -225h242l188 512h-299zM70 -225h241l189 512h-299z" />
    <glyph glyph-name="ae" unicode="&#x2020;" 
d="M121 891h317v-891h262v891h318v213h-318v325h-262v-325h-317v-213z" />
    <glyph glyph-name="ogonek" unicode="&#x2021;" 
d="M121 936h317v-434h-317v-201h317v-301h262v301h318v201h-318v434h318v201h-318v292h-262v-292h-317v-201z" />
    <glyph glyph-name="radical" unicode="&#x2022;" horiz-adv-x="1024" 
d="M156 715q2 -150 106 -252q98 -105 250 -107q152 2 254 107q102 102 104 252q-2 151 -104 254q-102 100 -254 102q-152 -2 -250 -102q-104 -103 -106 -254v0z" />
    <glyph glyph-name="Aacute" unicode="&#x2026;" horiz-adv-x="2048" 
d="M485 0v287h-286v-287h286zM1167 0v287h-286v-287h286zM1849 0v287h-286v-287h286z" />
    <glyph glyph-name="Scaron" unicode="&#x2030;" horiz-adv-x="2048" 
d="M309 893q-37 0 -57 20q-21 17 -31 45q-16 62 -14 142q-2 82 14 143q10 31 31 47q20 17 57 17q39 0 60 -17q20 -16 28 -47q15 -61 13 -143q2 -80 -13 -142q-8 -28 -28 -45q-21 -20 -60 -20v0zM149 -45h168l879 1519h-168zM309 745q86 0 142 29q55 29 88 78q59 102 59 254
q0 153 -59 250q-33 47 -88 73q-56 25 -142 25q-82 0 -137 -25q-57 -26 -92 -73q-14 -21 -27 -49q-12 -29 -20 -60q-15 -63 -15 -141q0 -74 15 -139q14 -66 47 -115q35 -49 92 -78q55 -29 137 -29v0zM1055 123q-37 0 -58 20q-20 17 -30 45q-17 62 -15 142q-2 82 15 143
q10 31 30 47q21 17 58 17q39 0 59 -17q21 -16 29 -47q14 -61 12 -143q2 -80 -12 -142q-8 -28 -29 -45q-20 -20 -59 -20v0zM1055 -25q86 0 141 29t88 78q59 102 59 254q0 153 -59 250q-33 47 -88 73q-55 25 -141 25q-82 0 -138 -25q-57 -26 -92 -73q-14 -21 -26 -49
q-13 -29 -21 -60q-14 -63 -14 -141q0 -74 14 -139q15 -66 47 -115q35 -49 92 -78q56 -29 138 -29v0zM1743 -25q86 0 141 29t88 78q59 102 59 254q0 153 -59 250q-33 47 -88 73q-55 25 -141 25q-82 0 -137 -25q-58 -26 -93 -73q-14 -21 -26 -49q-13 -29 -21 -60
q-14 -63 -14 -141q0 -74 14 -139q15 -66 47 -115q35 -49 93 -78q55 -29 137 -29v0zM1743 123q-37 0 -58 20q-20 17 -30 45q-17 62 -15 142q-2 82 15 143q10 31 30 47q21 17 58 17q39 0 59 -17q21 -16 29 -47q14 -61 12 -143q2 -80 -12 -142q-8 -28 -29 -45q-20 -20 -59 -20
v0z" />
    <glyph glyph-name="dotaccent" unicode="&#x2039;" horiz-adv-x="682" 
d="M100 551l242 -420h258l-225 420l225 420h-258z" />
    <glyph glyph-name="ring" unicode="&#x203a;" horiz-adv-x="682" 
d="M582 551l-242 420h-258l225 -420l-225 -420h258z" />
    <glyph glyph-name="guillemotright" unicode="&#x2122;" horiz-adv-x="2048" 
d="M952 577h201v603h4l217 -603h154l217 603h4v-603h201v852h-297l-201 -532v0l-203 532h-297v-852zM338 577h213v689h239v163h-692v-163h240v-689z" />
    <glyph glyph-name="glyph162" unicode="&#x2212;" horiz-adv-x="1229" 
d="M1135 412v213h-1041v-213h1041z" />
    <glyph glyph-name="macron" unicode="&#x2215;" horiz-adv-x="342" 
d="M-340 -45h168l854 1519h-168z" />
    <glyph glyph-name="caron" unicode="&#x2219;" horiz-adv-x="569" 
d="M285 424q71 0 116 45q41 45 41 113q0 71 -41 114q-45 41 -116 43q-72 -2 -113 -43q-45 -43 -45 -114q0 -68 45 -113q41 -45 113 -45v0z" />
    <glyph glyph-name="cedilla" unicode="&#xf001;" horiz-adv-x="1366" 
d="M944 0h274v1055h-274v-1055zM944 1247h274v262h-274v-262zM242 0h274v854h240v201h-240v131q0 63 27 112q26 47 94 49q47 0 74 -10q26 -12 45 -26l22 227q-88 20 -201 22q-163 -2 -247 -98q-88 -98 -88 -260v-147h-203v-201h203v-854z" />
    <glyph glyph-name="hungarumlaut" unicode="&#xf002;" horiz-adv-x="1366" 
d="M944 0h274v1536h-274v-1536zM242 0h274v854h240v201h-240v131q0 63 27 112q26 47 94 49q47 0 74 -10q26 -12 45 -26l22 227q-88 20 -201 22q-163 -2 -247 -98q-88 -98 -88 -260v-147h-203v-201h203v-854z" />
    </font>
</defs>
</svg>
