<?xml version="1.0" standalone="no"?>
<!DOCTYPE svg PUBLIC "-//W3C//DTD SVG 1.1//EN" "http://www.w3.org/Graphics/SVG/1.1/DTD/svg11.dtd" >
<svg>
<metadata>
Created by FontForge 20090622 at Sat May  6 05:46:33 2017
 By deploy user
Copyright (c) 1988, 1990, 1993, 1996 Adobe Systems Incorporated.  All Rights Reserved.Helvetica is a trademark of Linotype-Hell AG and/or its subsidiaries.
</metadata>
<defs>
<font id="HelveticaNeueCE-Italic" horiz-adv-x="556" >
  <font-face 
    font-family="Helvetica CE 55 Roman"
    font-weight="400"
    font-style="italic"
    font-stretch="normal"
    units-per-em="1000"
    panose-1="2 0 5 3 4 0 0 9 0 4"
    ascent="800"
    descent="-200"
    x-height="517"
    cap-height="714"
    bbox="-166 -256 1106 960"
    underline-thickness="50"
    underline-position="-75"
    slope="-12"
    unicode-range="U+0020-U+FB02"
  />
<missing-glyph horiz-adv-x="278" 
 />
    <glyph glyph-name=".notdef" horiz-adv-x="278" 
 />
    <glyph glyph-name="exclam" unicode="!" horiz-adv-x="259" 
d="M0 0h111l24 111h-111zM252 714h-93l-47 -223l-43 -308h46l90 308z" />
    <glyph glyph-name="quotedbl" unicode="&#x22;" horiz-adv-x="426" 
d="M146 456h68v258h-68v-258zM286 456h68v258h-68v-258z" />
    <glyph glyph-name="numbersign" unicode="#" 
d="M102 0h69l29 206h123l-29 -206h69l29 206h93l9 68h-93l21 150h91l9 68h-91l29 205h-69l-29 -205h-122l29 205h-69l-29 -205h-102l-9 -68h101l-21 -150h-97l-9 -68h97zM353 424l-21 -150h-122l21 150h122z" />
    <glyph glyph-name="dollar" unicode="$" 
d="M259 418l-13 6q-36 12 -63.5 38t-27.5 67q0 37 15.5 61.5t38 39t49 20.5t49.5 6zM293 322q26 -9 50 -16t42.5 -19.5t29.5 -33.5t11 -56q0 -43 -22 -71.5t-52 -45t-62 -22t-51 -0.5zM154 -97h53l17 80q49 -7 101 4.5t94.5 40t69.5 73.5t27 105q0 69 -38.5 114t-113.5 66
l-54 19l49 246q43 -14 66 -49t21 -99h90q3 46 -9 83t-34 64.5t-52.5 46t-66.5 28.5l14 69h-53l-13 -63q-50 5 -96 -8.5t-82 -41.5t-57.5 -69.5t-21.5 -92.5q0 -44 14 -74t38.5 -51t56.5 -35t68 -25l-54 -269q-116 24 -108 169h-90q-5 -103 41 -166.5t141 -79.5z" />
    <glyph glyph-name="percent" unicode="%" horiz-adv-x="926" 
d="M147 458q0 25 7 59t21.5 64.5t37.5 51.5t56 21q73 0 73 -85q0 -32 -6 -67.5t-19.5 -66.5t-35.5 -51t-55 -20q-44 0 -61.5 24t-17.5 70zM79 454q0 -68 38.5 -106.5t105.5 -38.5q50 0 85.5 24t58 61t33 82t10.5 88q0 72 -37 108.5t-109 36.5q-48 0 -83 -24.5t-57.5 -62.5
t-33.5 -83t-11 -85zM513 133q0 -68 38.5 -106.5t105.5 -38.5q50 0 85.5 24t58 61t33 82t10.5 88q0 72 -37 108.5t-109 36.5q-48 0 -83 -24.5t-57.5 -62.5t-33.5 -83t-11 -85zM581 137q0 25 7 59t21.5 64.5t37.5 51.5t56 21q73 0 73 -85q0 -32 -6 -67.5t-19.5 -66.5
t-35.5 -51t-55 -20q-44 0 -61.5 24t-17.5 70zM209 -28h64l435 753h-64z" />
    <glyph glyph-name="ampersand" unicode="&#x26;" horiz-adv-x="630" 
d="M384 130q-19 -16 -36.5 -28.5t-36 -21t-38.5 -13t-44 -4.5t-46 7.5t-39.5 21.5t-27.5 33.5t-10 43.5q0 32 14 58t36 46t49 36t52 29zM468 0h97l-85 130q36 42 61.5 89t41.5 118h-82q-5 -37 -23.5 -76.5t-39.5 -68.5l-112 184q30 16 61 35.5t56.5 44t42 54.5t16.5 68
q0 34 -14 59.5t-36.5 42.5t-52 25.5t-60.5 8.5q-39 0 -71.5 -11.5t-56 -32t-37 -49.5t-13.5 -65q0 -48 19 -86.5t40 -71.5q-35 -18 -70.5 -38.5t-64 -47t-46.5 -60.5t-18 -79q0 -44 15.5 -78t42.5 -58t63 -36.5t78 -12.5q62 0 112.5 23.5t91.5 62.5zM246 551q0 41 26.5 64.5
t65.5 23.5q33 0 56 -20t23 -54q0 -23 -12.5 -42.5t-31.5 -35.5t-41 -29l-41 -24q-17 28 -31 55.5t-14 61.5z" />
    <glyph glyph-name="quotesingle" unicode="'" horiz-adv-x="278" 
d="M142 456h68v258h-68v-258z" />
    <glyph glyph-name="parenleft" unicode="(" horiz-adv-x="259" 
d="M172 -198q-28 81 -40 164t-12 168q0 86 17.5 166t49.5 154t77 143t99 134h-70q-55 -62 -102.5 -125.5t-82 -132t-54 -143.5t-19.5 -160q0 -44 6 -92t17 -96t25.5 -94.5t32.5 -85.5h56z" />
    <glyph glyph-name="parenright" unicode=")" horiz-adv-x="259" 
d="M-47 -198q55 62 102.5 125t82 131.5t54 143.5t19.5 160q0 44 -6 92t-17 96t-25.5 94t-32.5 87h-56q28 -81 40 -164.5t12 -168.5q0 -86 -17.5 -166t-49.5 -154t-76.5 -143t-99.5 -133h70z" />
    <glyph glyph-name="asterisk" unicode="*" horiz-adv-x="352" 
d="M272 714h-54l-22 -105l-96 49l-25 -46l95 -48l-77 -84l37 -37l78 87l47 -103l49 23l-49 100l107 14l-5 48l-110 -11z" />
    <glyph glyph-name="plus" unicode="+" horiz-adv-x="600" 
d="M334 506h-68v-219h-218v-68h218v-219h68v219h218v68h-218v219z" />
    <glyph glyph-name="comma" unicode="," horiz-adv-x="278" 
d="M15 0h56l-10 -33.5t-13 -30t-21 -23t-33 -12.5l-10 -48q52 4 81 29.5t44.5 62t23 80.5t17.5 86h-111z" />
    <glyph glyph-name="hyphen" unicode="-" horiz-adv-x="389" 
d="M26 238h290l16 80h-290z" />
    <glyph glyph-name="hyphen" unicode="&#xad;" horiz-adv-x="389" 
d="M26 238h290l16 80h-290z" />
    <glyph glyph-name="period" unicode="." horiz-adv-x="278" 
d="M15 0h111l24 111h-111z" />
    <glyph glyph-name="slash" unicode="/" horiz-adv-x="333" 
d="M-18 -17h73l296 748h-73z" />
    <glyph glyph-name="zero" unicode="0" 
d="M25 263q0 -57 9.5 -107.5t32.5 -87.5t60.5 -58.5t93.5 -21.5q58 0 103.5 24.5t79.5 64t57.5 89t37.5 100t20.5 97t6.5 78.5q0 142 -49 205t-142 63q-56 0 -100.5 -22t-78.5 -58t-59 -83t-41 -96.5t-23.5 -98t-7.5 -88.5zM115 249q0 25 5 63t16 81t28 86t40.5 77.5
t54.5 56t69 21.5q46 0 68.5 -23t31.5 -56t8.5 -70.5t-0.5 -67.5q0 -16 -4.5 -48t-14 -71.5t-25 -81t-38.5 -75.5t-54 -56t-70 -22q-63 0 -89 50.5t-26 135.5z" />
    <glyph glyph-name="one" unicode="1" 
d="M433 709h-66q-16 -30 -41.5 -53t-56.5 -38.5t-65 -23t-66 -7.5l-14 -68q49 0 92 4.5t91 15.5l-115 -539h90z" />
    <glyph glyph-name="two" unicode="2" 
d="M158 468q2 33 13 63.5t30.5 53t47.5 36t64 13.5q55 0 87 -31.5t32 -87.5q0 -26 -7 -47.5t-19.5 -39.5t-29.5 -33t-36 -30q-35 -26 -73 -48.5l-75 -45t-71 -47.5t-61 -57t-44.5 -72.5t-21.5 -94.5h452l16 75h-369q7 19 19.5 36.5t28.5 33t33.5 28.5t34.5 24q30 19 65 38.5
l70 41t67 46t56.5 54t39.5 65t15 78.5q0 44 -15 79t-41.5 59.5t-63 37.5t-79.5 13q-57 0 -102 -17t-77 -48.5t-51 -76t-25 -99.5h90z" />
    <glyph glyph-name="three" unicode="3" 
d="M214 336q32 0 63.5 -3t56.5 -15t40.5 -35.5t15.5 -63.5q0 -36 -12.5 -65t-34 -49t-51.5 -31t-66 -11q-42 0 -69 13.5t-42 35.5t-20 50t-4 57h-90q-2 -119 58 -175t165 -56q66 0 114 23t79.5 58t47 76t15.5 78q0 47 -20 85.5t-72 61.5q24 7 47 21.5t40.5 35.5t28.5 47.5
t11 57.5q0 90 -55.5 133.5t-149.5 43.5q-57 0 -99 -18t-71 -48t-46 -69.5t-23 -83.5h90q9 74 46.5 109t97.5 35q22 0 43.5 -3.5t38.5 -14t27.5 -30t10.5 -50.5q0 -46 -18 -73t-46.5 -40.5t-63 -17t-68.5 -1.5z" />
    <glyph glyph-name="four" unicode="4" 
d="M387 562h2l-67 -321h-228zM271 0h85l36 166h94l15 75h-94l98 468h-72l-420 -459l-17 -84h311z" />
    <glyph glyph-name="five" unicode="5" 
d="M523 697h-359l-110 -374h76q18 32 53 50.5t73 18.5q69 0 105 -37t36 -106q0 -38 -11.5 -72t-33 -59.5t-53.5 -40t-74 -14.5q-65 0 -96.5 32.5t-31.5 94.5h-90q0 -97 58 -149.5t155 -52.5q55 0 100.5 15.5t86.5 51.5q41 38 60.5 90t19.5 108q0 45 -13 84.5t-38.5 68
t-62.5 45t-85 16.5q-33 0 -66 -9.5t-59 -29.5l-2 2l56 192h291z" />
    <glyph glyph-name="six" unicode="6" 
d="M405 244q0 -35 -9.5 -67.5t-29 -58t-48.5 -40.5t-68 -15q-67 0 -99 40t-32 103q0 36 10 67.5t30 55.5t49 38t67 14q63 0 96.5 -38t33.5 -99zM545 525q-2 86 -50 135t-136 49q-105 0 -168.5 -51t-101.5 -140q-14 -31 -25 -67t-19 -74t-12 -76.5t-4 -73.5q0 -51 12.5 -94.5
t38.5 -76t66 -50.5t96 -18q58 0 105 20t80 55t50.5 82.5t17.5 102.5q0 43 -14.5 81t-41 66.5t-63.5 44.5t-81 16q-22 0 -44.5 -4t-43 -13t-38 -22.5t-29.5 -31.5h-2q11 39 26 83t38.5 81t58 61t84.5 24q56 0 82.5 -27.5t27.5 -81.5h90z" />
    <glyph glyph-name="seven" unicode="7" 
d="M576 697h-457l-17 -75h369q-128 -135 -223.5 -291.5t-150.5 -330.5h97q25 79 63 165t86 169.5t104 159t117 132.5z" />
    <glyph glyph-name="eight" unicode="8" 
d="M194 516q0 54 34 86t88 32q53 0 83 -27t30 -81q0 -51 -32 -83t-83 -32t-85.5 24.5t-34.5 80.5zM249 63q-60 0 -98.5 31.5t-38.5 95.5q0 72 44.5 109t114.5 37q63 0 97 -35.5t34 -92.5q0 -68 -43 -106.5t-110 -38.5zM104 519q0 -42 25 -78t63 -53v-2q-78 -14 -124 -65.5
t-46 -131.5q0 -51 19 -89t51 -63t74 -37t89 -12q46 0 89 15.5t76 44t52.5 68.5t19.5 89q0 55 -24 100t-76 67v2q57 13 92 56.5t35 102.5q0 42 -16.5 74.5t-44 55t-63.5 34.5t-75 12q-44 0 -83 -12.5t-68.5 -36.5t-47 -59.5t-17.5 -81.5z" />
    <glyph glyph-name="nine" unicode="9" 
d="M274 314q-64 0 -97 38t-33 99q0 32 9.5 64.5t28 59t46 43t64.5 16.5q69 0 103 -39.5t34 -105.5q0 -35 -10 -67t-29.5 -56t-48.5 -38t-67 -14zM4 169q-1 -46 12.5 -80t39 -56.5t62 -33.5t80.5 -11q53 0 93 13.5t71 39t54.5 62t43.5 81.5q28 64 43.5 140.5t15.5 146.5
q0 53 -13 97t-40 75.5t-68 48.5t-97 17t-102 -20.5t-78 -56.5t-49.5 -83.5t-17.5 -101.5q0 -43 14.5 -81t40.5 -66t63 -44.5t81 -16.5t87.5 16.5t68.5 53.5l2 -2q-12 -39 -28 -82t-40.5 -79t-59.5 -59.5t-86 -23.5q-53 0 -78 27.5t-25 78.5h-90z" />
    <glyph glyph-name="colon" unicode=":" horiz-adv-x="278" 
d="M15 0h112l23 111h-113zM234 517h-112l-23 -111h112z" />
    <glyph glyph-name="semicolon" unicode=";" horiz-adv-x="278" 
d="M15 0h56l-10 -33.5t-13 -30t-21 -23t-33 -12.5l-10 -48q52 4 81 29.5t44.5 62t23 80.5t17.5 86h-111zM234 517h-111l-24 -111h111z" />
    <glyph glyph-name="semicolon" unicode="&#x37e;" horiz-adv-x="278" 
d="M15 0h56l-10 -33.5t-13 -30t-21 -23t-33 -12.5l-10 -48q52 4 81 29.5t44.5 62t23 80.5t17.5 86h-111zM234 517h-111l-24 -111h111z" />
    <glyph glyph-name="less" unicode="&#x3c;" horiz-adv-x="600" 
d="M554 514l-508 -230v-62l508 -230v68l-425 193l425 193v68z" />
    <glyph glyph-name="equal" unicode="=" horiz-adv-x="600" 
d="M552 388h-504v-68h504v68zM48 118h504v68h-504v-68z" />
    <glyph glyph-name="greater" unicode="&#x3e;" horiz-adv-x="600" 
d="M46 -8l508 230v62l-508 230v-68l425 -193l-425 -193v-68z" />
    <glyph glyph-name="question" unicode="?" 
d="M171 488q3 33 15 62t32 50.5t48 34t64 12.5q51 0 83 -25.5t32 -79.5q0 -24 -8 -44t-21.5 -37.5t-30.5 -32t-35 -26.5q-35 -24 -60.5 -45t-43.5 -45q-23 -29 -33.5 -61.5t-16.5 -67.5h83l4 22q8 37 30 63.5t50 48.5t58.5 43t55.5 47.5t41.5 62t16.5 87.5q0 42 -18.5 73.5
t-47.5 51.5t-66.5 30t-74.5 10q-51 0 -94 -17.5t-75 -49t-51 -74.5t-22 -93h85zM145 0h111l24 111h-111z" />
    <glyph glyph-name="at" unicode="@" horiz-adv-x="800" 
d="M420 505q16 0 30.5 -8t25.5 -20.5t18 -29.5t7 -35q0 -31 -12 -68t-33 -69.5t-49 -54t-61 -21.5q-38 0 -62 27.5t-24 69.5q0 33 12 69.5t33 67.5t50.5 51.5t64.5 20.5zM618 554h-63l-23 -63q-17 45 -47 63.5t-65 18.5q-53 0 -96.5 -25t-74 -65t-47.5 -91t-17 -103
q0 -33 10.5 -62t29 -50t45 -33.5t58.5 -12.5q37 0 69 20.5t55 46.5h3q2 -33 20 -49t44 -16q35 0 76 21t76 59t58.5 91.5t23.5 118.5q0 67 -27 124t-73.5 97.5t-108.5 63.5t-131 23q-76 0 -143.5 -29t-118 -79.5t-80 -118t-29.5 -144.5q0 -79 29 -148t79.5 -120t119 -80
t147.5 -29q48 0 94 12t86.5 34.5t74.5 55.5t58 74h-63q-21 -27 -49 -49.5t-60.5 -38.5t-67.5 -24.5t-71 -8.5q-63 0 -119 24.5t-98.5 67t-67 100.5t-24.5 125q0 66 23.5 124t64.5 102t96.5 69.5t119.5 25.5q52 0 101 -18t87 -51.5t60.5 -81.5t22.5 -107q0 -40 -13 -81
t-33 -74t-44.5 -54t-47.5 -21q-13 0 -18.5 8.5t-5.5 22.5q0 11 3.5 24.5t7.5 26.5z" />
    <glyph glyph-name="A" unicode="A" horiz-adv-x="667" 
d="M410 630h2l53 -335h-246zM-55 0h106l125 215h301l33 -215h98l-129 714h-104z" />
    <glyph glyph-name="B" unicode="B" horiz-adv-x="685" 
d="M167 327h204q29 0 55.5 -4t47 -15t32.5 -32t12 -55q0 -49 -20.5 -77t-48.5 -42.5t-57 -18t-47 -3.5h-230zM7 0h353q53 0 99 15.5t80.5 44t54 69.5t19.5 92q0 57 -29 95.5t-78 52.5v2q31 5 56.5 21.5t43 40t27 52t9.5 58.5q0 81 -47 126t-152 45h-287zM231 634h176
q22 0 46.5 -2.5t45.5 -11.5t34.5 -27.5t13.5 -49.5q0 -67 -38.5 -101.5t-113.5 -34.5h-212z" />
    <glyph glyph-name="C" unicode="C" horiz-adv-x="722" 
d="M565 241q-23 -84 -78 -131t-143 -47q-54 0 -93.5 17t-65.5 47.5t-39 73.5t-13 95q0 64 18.5 128t55.5 114t92.5 81.5t130.5 31.5q78 0 127.5 -41.5t49.5 -125.5h95q0 62 -21 108.5t-57.5 77t-86 46t-107.5 15.5q-92 0 -164.5 -35.5t-123 -95.5t-77.5 -138.5t-27 -165.5
q0 -74 20.5 -132t59.5 -98.5t96 -61.5t130 -21q132 0 210.5 69t105.5 189h-95z" />
    <glyph glyph-name="D" unicode="D" horiz-adv-x="704" 
d="M7 0h274q88 0 161.5 31t125.5 88.5t81 139t29 182.5q0 127 -68.5 200t-201.5 73h-250zM234 634h152q59 0 97.5 -17t60.5 -45t30.5 -65t8.5 -76q0 -65 -18.5 -128t-56 -112.5t-94 -80t-132.5 -30.5h-165z" />
    <glyph glyph-name="E" unicode="E" horiz-adv-x="611" 
d="M7 0h497l18 80h-402l52 247h371l16 80h-370l48 227h397l16 80h-492z" />
    <glyph glyph-name="F" unicode="F" horiz-adv-x="574" 
d="M7 0h95l68 327h330l17 80h-330l47 227h375l17 80h-470z" />
    <glyph glyph-name="G" unicode="G" horiz-adv-x="759" 
d="M563 0h60l78 376h-311l-16 -80h228q-13 -52 -33.5 -95t-51.5 -73.5t-73.5 -47.5t-99.5 -17q-54 0 -93.5 17t-65.5 47.5t-39 73.5t-13 95q0 64 18.5 128t55.5 114t92.5 81.5t130.5 31.5q39 0 74 -9.5t61 -29t41.5 -49.5t15.5 -71h95q0 62 -22.5 107t-61.5 74.5t-91.5 43.5
t-111.5 14q-92 0 -164.5 -35.5t-123 -95.5t-77.5 -138.5t-27 -165.5q0 -74 20.5 -132t59.5 -98.5t96 -61.5t130 -21q58 0 115 21.5t98 66.5z" />
    <glyph glyph-name="H" unicode="H" horiz-adv-x="722" 
d="M7 0h95l69 327h374l-69 -327h95l150 714h-95l-64 -307h-374l65 307h-96z" />
    <glyph glyph-name="I" unicode="I" horiz-adv-x="259" 
d="M7 0h95l150 714h-95z" />
    <glyph glyph-name="J" unicode="J" horiz-adv-x="519" 
d="M525 714h-94l-104 -489q-6 -29 -14.5 -58t-23.5 -52t-38.5 -37.5t-59.5 -14.5q-49 0 -77 23t-28 74q1 19 3.5 37.5t6.5 36.5h-96q-5 -29 -7 -55t-2 -44q0 -37 15 -65.5t41 -47.5t62.5 -29t79.5 -10q54 0 91.5 13t63.5 37.5t42 60.5t26 82z" />
    <glyph glyph-name="K" unicode="K" horiz-adv-x="667" 
d="M7 0h95l51 241l143 121l195 -362h105l-229 420l344 294h-127l-404 -354l-2 2l75 352h-95z" />
    <glyph glyph-name="L" unicode="L" 
d="M7 0h473l17 80h-377l132 634h-95z" />
    <glyph glyph-name="M" unicode="M" horiz-adv-x="870" 
d="M7 0h91l125 625h2l93 -625h91l364 625h2l-146 -625h91l151 714h-132l-353 -614h-2l-95 614h-132z" />
    <glyph glyph-name="N" unicode="N" horiz-adv-x="722" 
d="M7 0h92l121 587h2l253 -587h102l151 714h-92l-119 -591h-2l-255 591h-102z" />
    <glyph glyph-name="O" unicode="O" horiz-adv-x="759" 
d="M38 296q0 -74 20.5 -132t59.5 -98.5t96 -61.5t130 -21q89 0 160.5 36t121 96t76 138t26.5 162q0 66 -20.5 124t-59 100.5t-94 67t-124.5 24.5q-92 0 -164.5 -35.5t-123 -95.5t-77.5 -138.5t-27 -165.5zM133 296q0 64 18.5 128t55.5 114t92.5 81.5t130.5 31.5
q49 0 87 -18.5t64 -50t39 -75t13 -92.5q0 -64 -18.5 -127t-55 -113t-90.5 -81t-125 -31q-54 0 -93.5 17t-65.5 47.5t-39 73.5t-13 95z" />
    <glyph glyph-name="P" unicode="P" horiz-adv-x="648" 
d="M7 0h95l62 292h212q79 0 131.5 22.5t84 56.5t44.5 73.5t13 72.5q0 98 -54.5 147.5t-157.5 49.5h-281zM236 634h201q24 0 45 -6t37 -19.5t25.5 -36t9.5 -55.5q0 -64 -40.5 -104.5t-117.5 -40.5h-215z" />
    <glyph glyph-name="Q" unicode="Q" horiz-adv-x="759" 
d="M663 -18l-87 84q73 61 112.5 153.5t39.5 195.5q0 66 -20.5 124t-59 100.5t-94 67t-124.5 24.5q-92 0 -164.5 -35.5t-123 -95.5t-77.5 -138.5t-27 -165.5q0 -74 20.5 -132t59.5 -98.5t96 -61.5t130 -21q47 0 88.5 10t77.5 29l99 -96zM381 146l65 -62q-45 -21 -102 -21
q-54 0 -93.5 17t-65.5 47.5t-39 73.5t-13 95q0 64 18.5 128t55.5 114t92.5 81.5t130.5 31.5q49 0 87 -18.5t64 -50t39 -75t13 -92.5q0 -41 -7.5 -81.5t-22.5 -78t-37 -71t-52 -58.5l-79 77z" />
    <glyph glyph-name="R" unicode="R" horiz-adv-x="685" 
d="M236 634h197q27 0 52 -4.5t44.5 -16.5t31.5 -33t12 -54q0 -19 -6.5 -43.5t-25.5 -46t-53.5 -36.5t-90.5 -15h-214zM7 0h95l64 305h211h38t42 -12.5t28.5 -44t-1.5 -95.5q-11 -55 -10 -94t8 -59h99q-11 21 -13 43.5t0 45t6 46.5t6 48q3 27 0.5 52t-11 45.5t-24 35.5
t-38.5 22v2q36 5 65.5 22.5t50.5 43t33 58t12 68.5q0 53 -19.5 88t-52.5 56t-75.5 29.5t-87.5 8.5h-275z" />
    <glyph glyph-name="S" unicode="S" horiz-adv-x="648" 
d="M614 503q2 60 -18.5 103t-56.5 70.5t-83.5 41t-100.5 13.5q-48 0 -94.5 -13t-83 -39t-59.5 -64.5t-23 -90.5q0 -39 13 -69t35 -52t51 -36t61 -23l97 -26q26 -7 49 -16t40.5 -22.5t27.5 -33t10 -46.5q0 -36 -15.5 -62t-40.5 -42.5t-57.5 -24.5t-65.5 -8q-44 0 -79.5 8.5
t-61 28.5t-38.5 53t-11 81h-95q-5 -66 14.5 -113t57 -78t91 -45.5t118.5 -14.5q48 0 97.5 13t89.5 40t65.5 68t25.5 96q0 48 -14.5 81t-38.5 54.5t-55 35t-64 22.5l-96 26q-24 7 -45.5 16t-37 22.5t-24.5 32t-9 44.5q0 32 16 54t40.5 36t53.5 20.5t55 6.5q37 0 67.5 -7
t52.5 -24.5t33.5 -46t10.5 -70.5h95z" />
    <glyph glyph-name="T" unicode="T" horiz-adv-x="574" 
d="M653 714h-576l-17 -80h240l-134 -634h95l134 634h240z" />
    <glyph glyph-name="U" unicode="U" horiz-adv-x="722" 
d="M728 714h-95l-90 -428q-11 -50 -24 -91.5t-37 -70.5t-61.5 -45t-95.5 -16q-104 0 -148.5 51.5t-20.5 155.5l94 444h-95l-89 -420q-31 -150 35 -230.5t224 -80.5q45 0 87.5 9.5t79 29.5t65 51.5t46.5 75.5q9 21 18 58t18 79z" />
    <glyph glyph-name="V" unicode="V" horiz-adv-x="611" 
d="M691 714h-101l-339 -621h-2l-73 621h-97l102 -714h107z" />
    <glyph glyph-name="W" unicode="W" horiz-adv-x="926" 
d="M983 714h-98l-260 -603h-2l-40 603h-108l-274 -601h-2l-25 601h-94l45 -714h102l282 616h2l45 -616h99z" />
    <glyph glyph-name="X" unicode="X" horiz-adv-x="611" 
d="M-44 0h109l244 302l144 -302h98l-181 360l294 354h-107l-229 -282l-132 282h-102l172 -341z" />
    <glyph glyph-name="Y" unicode="Y" horiz-adv-x="611" 
d="M193 0h93l62 287l346 427h-110l-271 -346l-146 346h-101l188 -427z" />
    <glyph glyph-name="Z" unicode="Z" horiz-adv-x="611" 
d="M-38 0h567l17 80h-456l540 553l17 81h-521l-20 -80h409l-536 -555z" />
    <glyph glyph-name="bracketleft" unicode="[" horiz-adv-x="259" 
d="M-29 -198h189l14 65h-108l164 799h108l14 65h-189z" />
    <glyph glyph-name="backslash" unicode="\" horiz-adv-x="333" 
d="M133 731h-73l140 -748h73z" />
    <glyph glyph-name="bracketright" unicode="]" horiz-adv-x="259" 
d="M253 731h-189l-14 -65h108l-164 -799h-108l-14 -65h189z" />
    <glyph glyph-name="asciicircum" unicode="^" horiz-adv-x="600" 
d="M50 264h71l178 360l181 -360h70l-218 433h-64z" />
    <glyph glyph-name="underscore" unicode="_" horiz-adv-x="500" 
d="M0 -125h500v50h-500v-50z" />
    <glyph glyph-name="grave" unicode="`" horiz-adv-x="222" 
d="M177 731h-101l101 -143h67z" />
    <glyph glyph-name="a" unicode="a" horiz-adv-x="519" 
d="M75 135q0 25 9.5 41.5t25 27t36.5 16.5t44 9t47 5.5t45.5 6.5t40.5 9.5t33 13.5h2q-9 -36 -16.5 -70t-28.5 -63q-44 -68 -145 -68q-36 0 -64.5 18t-28.5 54zM138 361q4 25 17 42.5t32 29t42.5 16.5t47.5 5q17 0 35.5 -3t33.5 -10.5t25 -20.5t10 -34q0 -26 -7.5 -41
t-23.5 -23t-40.5 -11.5t-58.5 -6.5q-43 -4 -89 -10t-84.5 -22.5t-63 -49t-24.5 -88.5q0 -40 12.5 -67.5t34 -45t50.5 -25.5t61 -8q66 0 106 19.5t67 55.5l2 -2q-4 -34 14 -53.5t53 -19.5q11 0 26.5 3.5t25.5 8.5l13 63l-13.5 -4.5t-13.5 -2.5q-11 0 -18 7t-7 25t5.5 38
t8.5 36l33 141q5 21 10.5 46.5t5.5 47.5q0 39 -15.5 64.5t-41.5 40.5t-60.5 21t-71.5 6q-41 0 -79 -10t-68 -31t-50.5 -52.5t-26.5 -74.5h85z" />
    <glyph glyph-name="b" unicode="b" horiz-adv-x="593" 
d="M454 306q0 -38 -12 -80.5t-36 -78.5t-59 -60t-81 -24q-63 0 -102 34t-39 95q0 41 12 87t37.5 85t65.5 64.5t96 25.5q30 0 52 -11.5t36.5 -31.5t22 -47t7.5 -58zM-5 0h76l19 96h2q4 -19 18.5 -38.5t37 -35t52.5 -25t66 -9.5q66 0 116.5 27t85.5 71.5t53 102t18 117.5
q0 49 -12.5 90.5t-37.5 70.5t-63 45.5t-90 16.5q-48 0 -88.5 -20.5t-69.5 -57.5l-2 2l55 261h-85z" />
    <glyph glyph-name="c" unicode="c" horiz-adv-x="537" 
d="M501 353q-3 91 -54.5 133.5t-139.5 42.5q-69 0 -122.5 -26.5t-90 -71t-55 -102t-18.5 -118.5q0 -105 53.5 -164t159.5 -59q90 0 151.5 47t84.5 134h-85q-18 -48 -57 -77t-94 -29q-36 0 -60.5 12t-39.5 32t-21.5 47t-6.5 57q0 42 13 85.5t38.5 78.5t63 57t86.5 22
q50 0 79.5 -26.5t29.5 -74.5h85z" />
    <glyph glyph-name="d" unicode="d" horiz-adv-x="593" 
d="M102 200q0 43 13 88t39 82t64 60.5t89 23.5q63 0 96.5 -38t33.5 -96q0 -41 -13.5 -86t-39 -83t-63.5 -63t-86 -25q-70 0 -101.5 37t-31.5 100zM606 714h-84l-55 -276h-2q-8 26 -25 43.5t-39.5 28t-47.5 15t-49 4.5q-68 0 -121.5 -29.5t-90 -76.5t-56 -105.5t-19.5 -117.5
q0 -47 13 -86t39 -67t63.5 -43.5t87.5 -15.5q52 0 92.5 18t78.5 68h2l-18 -74h80z" />
    <glyph glyph-name="e" unicode="e" horiz-adv-x="537" 
d="M110 308q9 30 24.5 56.5t37 46.5t50.5 31.5t67 11.5q35 0 59.5 -12.5t38.5 -33t19.5 -47t3.5 -53.5h-300zM487 233q2 11 5 29t3 38q0 109 -52.5 169t-166.5 60q-53 0 -101.5 -24t-85 -68t-58 -105.5t-21.5 -135.5q0 -34 10 -70.5t35 -67t67.5 -50.5t106.5 -20q42 0 80 11
t69 33t53 54.5t32 75.5h-85q-18 -48 -55.5 -73.5t-93.5 -25.5q-26 0 -50 8.5t-43 24t-30 39t-11 53.5q0 22 3 45h389z" />
    <glyph glyph-name="f" unicode="f" horiz-adv-x="296" 
d="M23 0h85l95 442h100l14 75h-99q7 24 12 47t14 41.5t25.5 30t48.5 11.5q18 0 40 -5l14 72q-17 5 -35 6.5t-36 1.5q-51 0 -79.5 -17.5t-44.5 -46t-24.5 -65.5t-18.5 -76h-88l-15 -75h88z" />
    <glyph glyph-name="g" unicode="g" horiz-adv-x="574" 
d="M106 210q0 36 12 78.5t35 79t57 61.5t79 25q67 0 99.5 -37t32.5 -98q0 -39 -11.5 -82.5t-34.5 -80.5t-58.5 -61t-83.5 -24q-32 0 -56 11.5t-39.5 30.5t-23.5 44t-8 53zM552 517h-80l-16 -95h-2v2q-6 24 -21.5 43.5t-38 33t-49.5 21t-55 7.5q-63 0 -113 -28.5t-84.5 -74
t-53 -102.5t-18.5 -114q0 -46 12.5 -85.5t36.5 -68t60.5 -44.5t84.5 -16q49 0 91 18.5t70 60.5l2 -2q-10 -39 -21.5 -76t-31.5 -66.5t-51.5 -47.5t-80.5 -18q-24 0 -47 3.5t-40.5 13t-29 26t-13.5 42.5h-85q1 -43 18.5 -73.5t46 -49.5t65.5 -28t76 -9q83 0 142.5 33
t92.5 111q11 27 21 64t19 77z" />
    <glyph glyph-name="h" unicode="h" 
d="M-5 0h85l60 286q8 31 21 59.5t36 48.5q24 26 58.5 43t69.5 17q38 0 64 -17.5t26 -54.5q0 -7 -1.5 -17.5l-3 -22t-4 -22.5t-3.5 -18l-66 -302h85l63 295q7 30 11 57t4 44q0 69 -35.5 101t-108.5 32q-54 0 -103 -23t-81 -67l-2 2l61 273h-85z" />
    <glyph glyph-name="i" unicode="i" horiz-adv-x="222" 
d="M-5 0h85l108 517h-85zM230 714h-86l-22 -104h86z" />
    <glyph glyph-name="j" unicode="j" horiz-adv-x="222" 
d="M-120 -192q14 -4 28 -5t28 -1q51 0 81 26.5t41 74.5l130 614h-85l-113 -543q-6 -27 -11 -46t-12 -30t-16 -16t-23 -5q-8 0 -16.5 2l-16.5 4zM230 714h-86l-22 -104h86z" />
    <glyph glyph-name="k" unicode="k" horiz-adv-x="481" 
d="M-5 0h85l39 184l102 91l101 -275h95l-128 326l225 191h-111l-260 -225l-2 2l89 420h-84z" />
    <glyph glyph-name="l" unicode="l" horiz-adv-x="222" 
d="M-5 0h85l150 714h-85z" />
    <glyph glyph-name="m" unicode="m" horiz-adv-x="852" 
d="M-5 0h85l58 271q8 38 18 64.5t37 52.5q11 13 26 25t31.5 21t34 14.5t35.5 5.5q35 0 53.5 -18t18.5 -50q0 -9 -4.5 -35t-11.5 -56l-62 -295h85l57 267q7 33 17 63t31 53q11 14 26 27t32 22.5t35.5 15.5t36.5 6q34 0 56.5 -20t22.5 -50q0 -11 -2.5 -27.5t-5.5 -28.5
l-72 -328h85l65 310q5 22 10 51t5 52q0 31 -12 53.5t-32.5 36t-46.5 20t-53 6.5q-52 0 -99.5 -25.5t-77.5 -67.5q-11 51 -46 72t-84 21q-54 0 -100.5 -25t-79.5 -66l-2 2l19 77h-79z" />
    <glyph glyph-name="n" unicode="n" 
d="M-5 0h85l60 286q8 31 21 59.5t36 48.5q24 26 58.5 43t69.5 17q38 0 64 -17.5t26 -54.5q0 -7 -1.5 -17.5l-3 -22t-4 -22.5t-3.5 -18l-66 -302h85l63 295q7 30 11 57t4 44q0 69 -35.5 101t-108.5 32q-54 0 -103 -23t-81 -67h-2l16 78h-82z" />
    <glyph glyph-name="o" unicode="o" horiz-adv-x="574" 
d="M102 205q0 40 12.5 84t37.5 80.5t62 60.5t86 24q35 0 60.5 -11.5t42.5 -31t25 -46.5t8 -57q0 -38 -12.5 -81t-37 -79.5t-60.5 -60.5t-82 -24q-70 0 -106 39t-36 103zM17 204q0 -47 15 -86.5t43 -68.5t68.5 -45t91.5 -16q68 0 121 27.5t90 73t56 104.5t19 122
q0 104 -55.5 159t-159.5 55q-68 0 -121.5 -27t-91 -72t-57 -104t-19.5 -122z" />
    <glyph glyph-name="p" unicode="p" horiz-adv-x="593" 
d="M455 317q0 -43 -13 -88t-39 -82t-64 -60.5t-89 -23.5q-63 0 -96.5 38t-33.5 96q0 40 13.5 85.5t39 83.5t63.5 63t86 25q70 0 101.5 -37t31.5 -100zM-49 -198h84l55 277h2q7 -26 24.5 -43.5t40 -28t47.5 -15t49 -4.5q68 0 121.5 29.5t90 76.5t56 105.5t19.5 117.5
q0 47 -13 86t-39 67t-64 43.5t-87 15.5q-52 0 -92.5 -18t-78.5 -68h-2l18 74h-80z" />
    <glyph glyph-name="q" unicode="q" horiz-adv-x="593" 
d="M561 517h-86l-17 -82h-2q-21 53 -65.5 73.5t-101.5 20.5q-64 0 -114.5 -27t-85.5 -71.5t-53.5 -101.5t-18.5 -117q0 -48 12 -89t36.5 -71t61.5 -47t88 -17q48 0 90.5 20.5t72.5 57.5h2l-56 -264h86zM102 212q0 40 13 83t38 78t61.5 58t83.5 23q63 0 98 -34t35 -93
q0 -41 -11.5 -87.5t-36 -85.5t-61.5 -65t-88 -26q-35 0 -60 12t-41 32t-23.5 47.5t-7.5 57.5z" />
    <glyph glyph-name="r" unicode="r" horiz-adv-x="333" 
d="M-5 0h85l49 229q6 29 16 62.5t27 58.5q20 31 47.5 53t62.5 31q15 4 25 4.5t26 0.5h12q7 0 13 -1l20 91q-8 2 -15 1t-15 -1q-65 0 -111.5 -35t-76.5 -88h-2l25 111h-80z" />
    <glyph glyph-name="s" unicode="s" horiz-adv-x="481" 
d="M440 365q0 45 -17 76.5t-44.5 51t-62.5 28t-71 8.5t-70.5 -10t-61.5 -28.5t-43.5 -46.5t-16.5 -64q0 -29 11.5 -51t31 -38.5t44 -28.5t50.5 -22q25 -11 49.5 -20.5t44 -20.5t31 -24.5t11.5 -32.5q0 -22 -10.5 -37t-27.5 -24.5t-38 -13.5t-42 -4q-27 0 -51.5 5t-43 16.5
t-29 30.5t-8.5 48h-85q0 -50 16 -83.5t44 -53.5t66.5 -29t82.5 -9q37 0 75 9t68 28t49 49.5t19 73.5q0 30 -12 52.5t-31 39.5t-44 29.5t-50 23.5l-50 19.5t-43.5 20.5t-31 24t-11.5 31q0 19 10 32t25.5 20.5t35 10.5t39.5 3q22 0 42 -5.5t35 -17t23 -28t7 -38.5h85z" />
    <glyph glyph-name="t" unicode="t" horiz-adv-x="315" 
d="M253 670h-85l-32 -153h-87l-16 -75h87l-68 -321q-2 -12 -3.5 -22t-1.5 -21q0 -25 9.5 -41t25 -25.5t36.5 -13.5t45 -4q30 0 60 6l15 78q-12 -4 -24 -6.5t-25 -2.5q-20 0 -35.5 7.5t-15.5 27.5q0 9 1 17t2 17l64 304h103l16 75h-103z" />
    <glyph glyph-name="u" unicode="u" 
d="M520 517h-85l-60 -286q-7 -32 -23.5 -62.5t-40.5 -54t-55 -37.5t-66 -14q-38 0 -64 17.5t-26 54.5q0 7 1.5 17.5l3 22t3.5 22.5t4 18l66 302h-85l-63 -295q-7 -30 -11 -57t-4 -44q0 -69 35.5 -101t108.5 -32q54 0 103 23t81 67h2l-16 -78h82z" />
    <glyph glyph-name="v" unicode="v" horiz-adv-x="481" 
d="M494 517h-92l-224 -430h-2l-44 430h-90l74 -517h91z" />
    <glyph glyph-name="w" unicode="w" horiz-adv-x="759" 
d="M762 517h-92l-196 -411h-2l-25 411h-96l-186 -411h-2l-32 411h-90l61 -517h90l185 402h2l26 -402h90z" />
    <glyph glyph-name="x" unicode="x" horiz-adv-x="481" 
d="M-66 0h103l176 212l94 -212h97l-132 267l222 250h-103l-154 -188l-78 188h-98l115 -243z" />
    <glyph glyph-name="y" unicode="y" horiz-adv-x="481" 
d="M505 517h-93l-217 -411h-2l-60 411h-91l91 -517l-52 -86q-15 -25 -33 -40.5t-47 -15.5q-11 0 -25 4t-24 10l-15 -69q12 -6 28 -9.5t31 -3.5q33 0 57 9.5t43.5 26t35 39l31.5 47.5z" />
    <glyph glyph-name="z" unicode="z" horiz-adv-x="444" 
d="M-53 0h421l14 75h-309l363 381l13 61h-393l-15 -75h278l-360 -378z" />
    <glyph glyph-name="braceleft" unicode="{" horiz-adv-x="333" 
d="M395 731h-70q-19 0 -40 -8.5t-40 -25t-34 -41t-21 -56.5l-38 -182q-6 -27 -17.5 -49t-26 -37t-31 -23.5t-32.5 -8.5l-15 -68q26 0 44.5 -20.5t18.5 -55.5q0 -9 -1 -19.5t-3 -21.5l-38 -182q-2 -11 -3 -21.5t-1 -19.5q0 -22 7.5 -39t19.5 -28t27.5 -17t30.5 -6h70l13 60
h-50q-21 0 -27 15.5t-6 38.5q0 17 3 34l37 181q2 11 4 20t2 18q0 27 -7.5 44.5t-18 29t-21.5 16.5t-18 6l1 3q9 2 25.5 10t33.5 24t32.5 40.5t23.5 59.5l37 181q3 16 8.5 32t13.5 28.5t18.5 20t25.5 7.5h50z" />
    <glyph glyph-name="bar" unicode="|" horiz-adv-x="222" 
d="M77 -214h68v1000h-68v-1000z" />
    <glyph glyph-name="braceright" unicode="}" horiz-adv-x="333" 
d="M-91 -198h70q19 0 40 8.5t40 25t34 41t21 56.5l38 182q6 26 17.5 47.5t26 37t31 24t32.5 8.5l15 68q-26 0 -44.5 20.5t-18.5 56.5q0 9 1 19.5t3 21.5l38 182q2 11 3 21.5t1 19.5q0 22 -7.5 39t-19.5 28t-27.5 17t-30.5 6h-70l-13 -60h50q21 0 27 -15.5t6 -38.5
q0 -18 -3 -34l-37 -181q-2 -11 -4 -20t-2 -18q0 -27 7.5 -44.5t18 -29t21.5 -16.5t18 -6l-1 -3q-9 -2 -25.5 -10t-33.5 -24t-33 -40.5t-23 -59.5l-37 -181q-3 -16 -8.5 -32t-13.5 -28.5t-18.5 -20t-25.5 -7.5h-50z" />
    <glyph glyph-name="asciitilde" unicode="~" horiz-adv-x="600" 
d="M495 319l-18 -26.5t-19.5 -24.5t-23 -18t-27.5 -7q-20 0 -47 14t-55 26q-29 13 -57 22.5t-54 9.5q-25 0 -44.5 -7.5t-34.5 -19.5t-26.5 -27.5t-19.5 -31.5l36 -50q6 13 13.5 26.5t18 24.5t23 18t29.5 7q35 0 63 -12.5t52 -26.5q25 -14 49.5 -23.5t52.5 -9.5
q23 0 41.5 7.5t33 19.5t27 27.5t23.5 31.5z" />
    <glyph glyph-name="quotesinglbase" horiz-adv-x="278" 
d="M-2 0h56l-10 -33.5t-13 -30t-21 -23t-33 -12.5l-10 -48q52 4 81 29.5t44.5 62t23 80.5t17.5 86h-111z" />
    <glyph glyph-name="quotesinglbase" unicode="&#x201a;" horiz-adv-x="278" 
d="M-2 0h56l-10 -33.5t-13 -30t-21 -23t-33 -12.5l-10 -48q52 4 81 29.5t44.5 62t23 80.5t17.5 86h-111z" />
    <glyph glyph-name="quotedblbase" horiz-adv-x="426" 
d="M-5 0h56l-10 -33.5t-13 -30t-21 -23t-33 -12.5l-10 -48q52 4 81 29.5t44.5 62t23 80.5t17.5 86h-111zM177 0h56l-10 -33.5t-13 -30t-21 -23t-33 -12.5l-10 -48q52 4 81 29.5t44.5 62t23 80.5t17.5 86h-111z" />
    <glyph glyph-name="quotedblbase" unicode="&#x201e;" horiz-adv-x="426" 
d="M-5 0h56l-10 -33.5t-13 -30t-21 -23t-33 -12.5l-10 -48q52 4 81 29.5t44.5 62t23 80.5t17.5 86h-111zM177 0h56l-10 -33.5t-13 -30t-21 -23t-33 -12.5l-10 -48q52 4 81 29.5t44.5 62t23 80.5t17.5 86h-111z" />
    <glyph glyph-name="ellipsis" unicode="&#x85;" horiz-adv-x="1000" 
d="M39 0h111l24 111h-111zM372 0h111l24 111h-111zM705 0h111l24 111h-111z" />
    <glyph glyph-name="ellipsis" unicode="&#x2026;" horiz-adv-x="1000" 
d="M39 0h111l24 111h-111zM372 0h111l24 111h-111zM705 0h111l24 111h-111z" />
    <glyph glyph-name="dagger" 
d="M128 -155h85l126 597h191l16 75h-191l42 197h-85l-42 -197h-191l-16 -75h191z" />
    <glyph glyph-name="dagger" unicode="&#x2020;" 
d="M128 -155h85l126 597h191l16 75h-191l42 197h-85l-42 -197h-191l-16 -75h191z" />
    <glyph glyph-name="daggerdbl" 
d="M128 -155h85l42 197h191l16 75h-191l68 325h191l16 75h-191l42 197h-85l-42 -197h-191l-16 -75h191l-68 -325h-191l-16 -75h191z" />
    <glyph glyph-name="daggerdbl" unicode="&#x2021;" 
d="M128 -155h85l42 197h191l16 75h-191l68 325h191l16 75h-191l42 197h-85l-42 -197h-191l-16 -75h191l-68 -325h-191l-16 -75h191z" />
    <glyph glyph-name="perthousand" horiz-adv-x="1074" 
d="M723 127q0 -30 6.5 -55.5t21 -44t37.5 -29t57 -10.5q45 0 77.5 19t53.5 49t31 68t10 77q0 59 -29 96.5t-91 37.5q-44 0 -76.5 -17.5t-54.5 -46.5t-32.5 -66.5t-10.5 -77.5zM791 127q-1 23 5 49.5t19 49.5t32 38.5t44 15.5q15 0 26 -7.5t18 -19.5t10.5 -27t3.5 -30
q1 -23 -5 -49.5t-19 -49.5t-32 -38.5t-44 -15.5q-15 0 -26 7.5t-18 19.5t-10.5 27t-3.5 30zM48 501q0 -30 6.5 -55.5t21 -44t37.5 -29t57 -10.5q45 0 77.5 19t53.5 49t31 68t10 77q0 59 -29 96.5t-91 37.5q-44 0 -76.5 -17.5t-54.5 -46.5t-32.5 -66.5t-10.5 -77.5zM116 501
q-1 23 5 49.5t19 49.5t32 38.5t44 15.5q15 0 26 -7.5t18 -19.5t10.5 -27t3.5 -30q1 -23 -5 -49.5t-19 -49.5t-32 -38.5t-44 -15.5q-15 0 -26 7.5t-18 19.5t-10.5 27t-3.5 30zM373 127q0 -30 6.5 -55.5t21 -44t37.5 -29t57 -10.5q45 0 77.5 19t53.5 49t31 68t10 77
q0 59 -29 96.5t-91 37.5q-44 0 -76.5 -17.5t-54.5 -46.5t-32.5 -66.5t-10.5 -77.5zM441 127q-1 23 5 49.5t19 49.5t32 38.5t44 15.5q15 0 26 -7.5t18 -19.5t10.5 -27t3.5 -30q1 -23 -5 -49.5t-19 -49.5t-32 -38.5t-44 -15.5q-15 0 -26 7.5t-18 19.5t-10.5 27t-3.5 30z
M104 -28h64l435 753h-64z" />
    <glyph glyph-name="perthousand" unicode="&#x2030;" horiz-adv-x="1074" 
d="M723 127q0 -30 6.5 -55.5t21 -44t37.5 -29t57 -10.5q45 0 77.5 19t53.5 49t31 68t10 77q0 59 -29 96.5t-91 37.5q-44 0 -76.5 -17.5t-54.5 -46.5t-32.5 -66.5t-10.5 -77.5zM791 127q-1 23 5 49.5t19 49.5t32 38.5t44 15.5q15 0 26 -7.5t18 -19.5t10.5 -27t3.5 -30
q1 -23 -5 -49.5t-19 -49.5t-32 -38.5t-44 -15.5q-15 0 -26 7.5t-18 19.5t-10.5 27t-3.5 30zM48 501q0 -30 6.5 -55.5t21 -44t37.5 -29t57 -10.5q45 0 77.5 19t53.5 49t31 68t10 77q0 59 -29 96.5t-91 37.5q-44 0 -76.5 -17.5t-54.5 -46.5t-32.5 -66.5t-10.5 -77.5zM116 501
q-1 23 5 49.5t19 49.5t32 38.5t44 15.5q15 0 26 -7.5t18 -19.5t10.5 -27t3.5 -30q1 -23 -5 -49.5t-19 -49.5t-32 -38.5t-44 -15.5q-15 0 -26 7.5t-18 19.5t-10.5 27t-3.5 30zM373 127q0 -30 6.5 -55.5t21 -44t37.5 -29t57 -10.5q45 0 77.5 19t53.5 49t31 68t10 77
q0 59 -29 96.5t-91 37.5q-44 0 -76.5 -17.5t-54.5 -46.5t-32.5 -66.5t-10.5 -77.5zM441 127q-1 23 5 49.5t19 49.5t32 38.5t44 15.5q15 0 26 -7.5t18 -19.5t10.5 -27t3.5 -30q1 -23 -5 -49.5t-19 -49.5t-32 -38.5t-44 -15.5q-15 0 -26 7.5t-18 19.5t-10.5 27t-3.5 30z
M104 -28h64l435 753h-64z" />
    <glyph glyph-name="guilsinglleft" horiz-adv-x="259" 
d="M153 114l19 85l-87 90l120 68l21 85l-174 -100l-22 -92z" />
    <glyph glyph-name="guilsinglleft" unicode="&#x2039;" horiz-adv-x="259" 
d="M153 114l19 85l-87 90l120 68l21 85l-174 -100l-22 -92z" />
    <glyph glyph-name="quoteleft" horiz-adv-x="278" 
d="M246 567h-56q4 17 9.5 33.5t13.5 30t21 23t33 12.5l10 48q-53 -5 -81.5 -30t-44 -61.5t-23 -80.5t-17.5 -86h111z" />
    <glyph glyph-name="quoteleft" unicode="&#x2018;" horiz-adv-x="278" 
d="M246 567h-56q4 17 9.5 33.5t13.5 30t21 23t33 12.5l10 48q-53 -5 -81.5 -30t-44 -61.5t-23 -80.5t-17.5 -86h111z" />
    <glyph glyph-name="quoteright" horiz-adv-x="278" 
d="M138 603h56l-10 -33.5t-13 -30t-21 -23t-33 -12.5l-10 -48q52 4 81 29.5t44.5 62t23 80.5t17.5 86h-111z" />
    <glyph glyph-name="quoteright" unicode="&#x2019;" horiz-adv-x="278" 
d="M138 603h56l-10 -33.5t-13 -30t-21 -23t-33 -12.5l-10 -48q52 4 81 29.5t44.5 62t23 80.5t17.5 86h-111z" />
    <glyph glyph-name="quotedblleft" horiz-adv-x="426" 
d="M406 567h-56q4 17 9.5 33.5t13.5 30t21 23t33 12.5l10 48q-53 -5 -81.5 -30t-44 -61.5t-23 -80.5t-17.5 -86h111zM224 567h-56q4 17 9.5 33.5t13.5 30t21 23t33 12.5l10 48q-53 -5 -81.5 -30t-44 -61.5t-23 -80.5t-17.5 -86h111z" />
    <glyph glyph-name="quotedblleft" unicode="&#x201c;" horiz-adv-x="426" 
d="M406 567h-56q4 17 9.5 33.5t13.5 30t21 23t33 12.5l10 48q-53 -5 -81.5 -30t-44 -61.5t-23 -80.5t-17.5 -86h111zM224 567h-56q4 17 9.5 33.5t13.5 30t21 23t33 12.5l10 48q-53 -5 -81.5 -30t-44 -61.5t-23 -80.5t-17.5 -86h111z" />
    <glyph glyph-name="quotedblright" horiz-adv-x="426" 
d="M116 603h56l-10 -33.5t-13 -30t-21 -23t-33 -12.5l-10 -48q52 4 81 29.5t44.5 62t23 80.5t17.5 86h-111zM298 603h56l-10 -33.5t-13 -30t-21 -23t-33 -12.5l-10 -48q52 4 81 29.5t44.5 62t23 80.5t17.5 86h-111z" />
    <glyph glyph-name="quotedblright" unicode="&#x201d;" horiz-adv-x="426" 
d="M116 603h56l-10 -33.5t-13 -30t-21 -23t-33 -12.5l-10 -48q52 4 81 29.5t44.5 62t23 80.5t17.5 86h-111zM298 603h56l-10 -33.5t-13 -30t-21 -23t-33 -12.5l-10 -48q52 4 81 29.5t44.5 62t23 80.5t17.5 86h-111z" />
    <glyph glyph-name="bullet" horiz-adv-x="500" 
d="M72 357q0 -37 14 -69.5t38 -57t56.5 -38.5t69.5 -14t69.5 14t57 38.5t38.5 57t14 69.5t-14 69.5t-38.5 56.5t-57 38t-69.5 14t-69.5 -14t-56.5 -38t-38 -56.5t-14 -69.5z" />
    <glyph glyph-name="bullet" unicode="&#x2022;" horiz-adv-x="500" 
d="M72 357q0 -37 14 -69.5t38 -57t56.5 -38.5t69.5 -14t69.5 14t57 38.5t38.5 57t14 69.5t-14 69.5t-38.5 56.5t-57 38t-69.5 14t-69.5 -14t-56.5 -38t-38 -56.5t-14 -69.5z" />
    <glyph glyph-name="endash" horiz-adv-x="500" 
d="M-23 238h500l16 80h-500z" />
    <glyph glyph-name="endash" unicode="&#x2013;" horiz-adv-x="500" 
d="M-23 238h500l16 80h-500z" />
    <glyph glyph-name="emdash" horiz-adv-x="1000" 
d="M107 238h740l16 80h-740z" />
    <glyph glyph-name="emdash" unicode="&#x2014;" horiz-adv-x="1000" 
d="M107 238h740l16 80h-740z" />
    <glyph glyph-name="trademark" horiz-adv-x="990" 
d="M390 714h-326v-55h129v-357h68v357h129v55zM926 714h-104l-121 -313l-123 313h-105v-412h68v344h2l135 -344h43l135 344h2v-344h68v412z" />
    <glyph glyph-name="trademark" unicode="&#x2122;" horiz-adv-x="990" 
d="M390 714h-326v-55h129v-357h68v357h129v55zM926 714h-104l-121 -313l-123 313h-105v-412h68v344h2l135 -344h43l135 344h2v-344h68v412z" />
    <glyph glyph-name="guilsinglright" horiz-adv-x="259" 
d="M92 442l-19 -85l87 -90l-120 -68l-21 -85l174 100l22 92z" />
    <glyph glyph-name="guilsinglright" unicode="&#x203a;" horiz-adv-x="259" 
d="M92 442l-19 -85l87 -90l-120 -68l-21 -85l174 100l22 92z" />
    <glyph glyph-name="caron" unicode="&#xa1;" horiz-adv-x="222" 
d="M363 731h-78l-93 -93l-51 93h-76l77 -143h86z" />
    <glyph glyph-name="caron" unicode="&#x2c7;" horiz-adv-x="222" 
d="M363 731h-78l-93 -93l-51 93h-76l77 -143h86z" />
    <glyph glyph-name="breve" unicode="&#xa2;" horiz-adv-x="222" 
d="M54 731q-2 -69 33 -104t102 -35q66 0 111.5 36t54.5 103h-45q-14 -45 -41 -64.5t-76 -19.5q-45 0 -69 19t-25 65h-45z" />
    <glyph glyph-name="breve" unicode="&#x2d8;" horiz-adv-x="222" 
d="M54 731q-2 -69 33 -104t102 -35q66 0 111.5 36t54.5 103h-45q-14 -45 -41 -64.5t-76 -19.5q-45 0 -69 19t-25 65h-45z" />
    <glyph glyph-name="currency" unicode="&#xa4;" 
d="M25 555l57 -58q-28 -28 -41 -67t-13 -81t13.5 -79t38.5 -67l-55 -58l48 -48l55 58q30 -27 69 -40.5t83 -13.5q42 0 80.5 14t67.5 41l56 -58l47 47l-55 56q26 31 39 69.5t13 80.5t-13 81t-39 67l55 55l-50 51l-57 -56q-27 23 -65 36.5t-78 13.5q-42 0 -82 -13.5t-69 -37.5
l-56 56zM281 524q34 0 64 -14t51.5 -37.5t34 -55t12.5 -66.5q0 -36 -12.5 -68t-34 -55.5t-51.5 -37.5t-65 -14t-65.5 13.5t-53 36.5t-35.5 55t-13 68q0 37 13 69t35.5 55.5t53 37t66.5 13.5z" />
    <glyph glyph-name="section" unicode="&#xa7;" 
d="M126 351q0 38 30 63q3 3 11.5 8.5t18 10.5t18.5 8.5t14 3.5q15 -23 47.5 -53l64.5 -62.5t56.5 -65t24.5 -60.5q0 -45 -27.5 -68t-69.5 -32l-15 17l-18 19.5l-16 17.5t-10 11l-70 75q-20 21 -39.5 49t-19.5 58zM520 555q3 41 -9.5 74t-36 55.5t-56.5 34.5t-73 12
q-35 0 -68 -10t-58.5 -29.5t-40.5 -48.5t-15 -68q0 -21 5 -41.5t17 -37.5q-63 -14 -101 -51.5t-38 -105.5q0 -19 5.5 -37.5t14.5 -36t20 -33.5t23 -29l134 -145q8 -9 17 -21t16 -25.5t11.5 -27.5t4.5 -27q0 -38 -28 -59t-67 -21q-55 0 -82.5 31t-27.5 83h-80
q0 -40 11.5 -74.5t34 -59.5t55.5 -39.5t75 -15.5q38 1 73 10.5t62 29t43 50t16 72.5q0 20 -7.5 47t-21.5 42q65 8 104 52t39 110q0 29 -9 51t-26 45q-35 48 -77 90l-84 85q-19 20 -33 42t-14 51q0 34 28.5 55.5t66.5 21.5q51 0 74.5 -28t22.5 -73h80z" />
    <glyph glyph-name="dieresis" unicode="&#xa8;" horiz-adv-x="222" 
d="M220 610h89l21 104h-89zM57 610h89l21 104h-89z" />
    <glyph glyph-name="copyright" unicode="&#xa9;" horiz-adv-x="800" 
d="M24 359q0 -81 30 -149.5t81.5 -119t120 -79t145.5 -28.5q76 0 144.5 28.5t119.5 79t81 119t30 149.5q0 79 -30 147t-81 118t-119.5 78.5t-144.5 28.5q-77 0 -145.5 -28.5t-120 -78.5t-81.5 -118t-30 -147zM92 359q0 67 23.5 124.5t65 100.5t98 67.5t122.5 24.5
q65 0 121 -24.5t97.5 -67.5t65 -100.5t23.5 -124.5q0 -69 -23.5 -127.5t-65 -101.5t-97.5 -67.5t-121 -24.5q-66 0 -122.5 24.5t-98 67.5t-65 101.5t-23.5 127.5zM535 285q-7 -45 -39.5 -73.5t-82.5 -28.5q-36 0 -64.5 14.5t-48.5 38.5t-30.5 56t-10.5 67q0 36 10 67
t29 54.5t47.5 36.5t65.5 13q50 0 83 -27.5t41 -69.5h63q-6 37 -22.5 65.5t-41.5 48t-56.5 29t-67.5 9.5q-51 0 -92 -17t-69 -47t-43 -72t-15 -92q0 -49 15.5 -91t44.5 -72.5t70 -48t92 -17.5q69 0 119.5 42t66.5 115h-64z" />
    <glyph glyph-name="guillemotleft" unicode="&#xab;" horiz-adv-x="463" 
d="M153 114l19 85l-87 90l120 68l21 85l-174 -100l-22 -92zM349 114l19 85l-87 90l120 68l21 85l-174 -100l-22 -92z" />
    <glyph glyph-name="logicalnot" horiz-adv-x="600" 
d="M552 388h-504v-68h436v-211h68v279z" />
    <glyph glyph-name="registered" unicode="&#xae;" horiz-adv-x="800" 
d="M212 545q0 -40 15 -74.5t41 -59.5t60 -39.5t73 -14.5q38 0 72 14.5t59.5 39.5t40.5 59.5t15 74.5t-15 74t-40.5 59t-59.5 39t-72 14q-39 0 -73 -14t-60 -39t-41 -59t-15 -74zM246 545q0 34 12 63t32.5 50.5t49 33.5t61.5 12q32 0 60 -12t48.5 -33.5t32.5 -50.5t12 -63
t-12 -63.5t-32.5 -51t-48.5 -33.5t-60 -12q-33 0 -61.5 12t-49 33.5t-32.5 51t-12 63.5zM328 435h34v94h36l59 -94h37l-63 97q25 2 41.5 16t16.5 43q0 63 -77 63h-84v-219zM362 626h45q17 0 32.5 -5.5t15.5 -27.5q0 -26 -17.5 -31t-40.5 -5h-35v69z" />
    <glyph glyph-name="degree" unicode="&#xb0;" horiz-adv-x="400" 
d="M77 561q0 -31 11.5 -58t31.5 -47t47 -31.5t58 -11.5t58 11.5t47 31.5t31.5 47t11.5 58t-11.5 58t-31.5 47t-47 31.5t-58 11.5t-58 -11.5t-47 -31.5t-31.5 -47t-11.5 -58zM127 561q0 42 28 70t70 28t70 -28t28 -70t-28 -70t-70 -28t-70 28t-28 70z" />
    <glyph glyph-name="plusminus" unicode="&#xb1;" horiz-adv-x="600" 
d="M48 271h218v-167h68v167h218v68h-218v166h-68v-166h-218v-68zM48 0h504v68h-504v-68z" />
    <glyph glyph-name="ogonek" unicode="&#xb2;" horiz-adv-x="222" 
d="M100 2q-25 -16 -48 -33t-40.5 -34.5t-28 -36t-10.5 -37.5q0 -22 8 -35.5t21 -21.5t29 -11t31 -3q39 0 67.5 13.5t57.5 48.5l-37 12q-20 -15 -37.5 -19.5t-34.5 -4.5q-37 0 -37 37q0 16 16 35t37 37t42 32.5t31 20.5h-67z" />
    <glyph glyph-name="ogonek" unicode="&#x2db;" horiz-adv-x="222" 
d="M100 2q-25 -16 -48 -33t-40.5 -34.5t-28 -36t-10.5 -37.5q0 -22 8 -35.5t21 -21.5t29 -11t31 -3q39 0 67.5 13.5t57.5 48.5l-37 12q-20 -15 -37.5 -19.5t-34.5 -4.5q-37 0 -37 37q0 16 16 35t37 37t42 32.5t31 20.5h-67z" />
    <glyph glyph-name="acute" unicode="&#xb4;" horiz-adv-x="222" 
d="M137 588h70l136 143h-113z" />
    <glyph glyph-name="mu" unicode="&#xb5;" 
d="M520 517h-85l-60 -286q-7 -32 -23.5 -62.5t-40.5 -54t-55 -37.5t-66 -14q-38 0 -64 17.5t-26 54.5q0 7 1.5 17.5l3 22t3.5 22.5t4 18l66 302h-85l-149 -715h85l47 224h2q8 -12 33 -25t60 -13q44 0 92 23t80 67h2l-16 -78h82z" />
    <glyph glyph-name="mu" unicode="&#x3bc;" 
d="M520 517h-85l-60 -286q-7 -32 -23.5 -62.5t-40.5 -54t-55 -37.5t-66 -14q-38 0 -64 17.5t-26 54.5q0 7 1.5 17.5l3 22t3.5 22.5t4 18l66 302h-85l-149 -715h85l47 224h2q8 -12 33 -25t60 -13q44 0 92 23t80 67h2l-16 -78h82z" />
    <glyph glyph-name="paragraph" unicode="&#xb6;" horiz-adv-x="600" 
d="M142 -155h65l169 814h126l-169 -814h64l181 869h-238q-105 0 -176 -47.5t-91 -144.5q-8 -39 0.5 -73t31 -59t58 -39.5t81.5 -14.5z" />
    <glyph glyph-name="periodcentered" unicode="&#xb7;" horiz-adv-x="278" 
d="M67 253q0 -26 19 -45t45 -19q27 0 45.5 18t18.5 46q0 27 -18.5 45.5t-45.5 18.5q-25 0 -44.5 -18t-19.5 -46z" />
    <glyph glyph-name="periodcentered" unicode="&#x22c5;" horiz-adv-x="278" 
d="M67 253q0 -26 19 -45t45 -19q27 0 45.5 18t18.5 46q0 27 -18.5 45.5t-45.5 18.5q-25 0 -44.5 -18t-19.5 -46z" />
    <glyph glyph-name="cedilla" unicode="&#xb8;" horiz-adv-x="222" 
d="M-41 -188q49 -22 98 -22q20 0 41 5t38.5 15.5t28.5 27t11 39.5q0 20 -8 34t-20.5 23t-29 13t-33.5 4q-7 0 -14 -1t-12 -3h-2l58 66h-47l-74 -90l19 -30q10 5 20.5 6.5t21.5 1.5q17 0 31.5 -7t14.5 -24q0 -20 -18.5 -25t-41.5 -5q-17 0 -32.5 5l-31.5 10z" />
    <glyph glyph-name="guillemotright" unicode="&#xbb;" horiz-adv-x="463" 
d="M100 442l-19 -85l87 -90l-120 -68l-21 -85l174 100l22 92zM296 442l-19 -85l87 -90l-120 -68l-21 -85l174 100l22 92z" />
    <glyph glyph-name="hungarumlaut" unicode="&#xbd;" horiz-adv-x="222" 
d="M13 588h70l136 143h-113zM179 588h70l136 143h-113z" />
    <glyph glyph-name="hungarumlaut" unicode="&#x2dd;" horiz-adv-x="222" 
d="M13 588h70l136 143h-113zM179 588h70l136 143h-113z" />
    <glyph glyph-name="Aacute" unicode="&#xc1;" horiz-adv-x="667" 
d="M410 630h2l53 -335h-246zM-55 0h106l125 215h301l33 -215h98l-129 714h-104zM400 765h70l136 143h-113z" />
    <glyph glyph-name="Acircumflex" unicode="&#xc2;" horiz-adv-x="667" 
d="M410 630h2l53 -335h-246zM-55 0h106l125 215h301l33 -215h98l-129 714h-104zM277 765h82l87 93l51 -93h74l-75 143h-86z" />
    <glyph glyph-name="Adieresis" unicode="&#xc4;" horiz-adv-x="667" 
d="M410 630h2l53 -335h-246zM-55 0h106l125 215h301l33 -215h98l-129 714h-104zM483 787h89l21 104h-89zM320 787h89l21 104h-89z" />
    <glyph glyph-name="Ccedilla" unicode="&#xc7;" horiz-adv-x="722" 
d="M702 484q0 62 -21 108.5t-57.5 77t-86 46t-107.5 15.5q-92 0 -164.5 -35.5t-123 -95.5t-77.5 -138.5t-27 -165.5q0 -136 67 -216.5t192 -92.5l-53 -64l19 -30q10 5 20.5 6.5t21.5 1.5q17 0 31.5 -7t14.5 -24q0 -20 -18.5 -25t-41.5 -5q-17 0 -32.5 5l-31.5 10l-18 -43
q49 -22 98 -22q20 0 41 5t38.5 15.5t28.5 27t11 39.5q0 20 -8 34t-20.5 23t-29 13t-33.5 4q-7 0 -14 -1t-12 -3h-2l32 36h5q132 0 210.5 69t105.5 189h-95q-23 -84 -78 -131t-143 -47q-54 0 -93.5 17t-65.5 47.5t-39 73.5t-13 95q0 64 18.5 128t55.5 114t92.5 81.5
t130.5 31.5q78 0 127.5 -41.5t49.5 -125.5h95z" />
    <glyph glyph-name="Eacute" unicode="&#xc9;" horiz-adv-x="611" 
d="M7 0h497l18 80h-402l52 247h371l16 80h-370l48 227h397l16 80h-492zM372 765h70l136 143h-113z" />
    <glyph glyph-name="Edieresis" unicode="&#xcb;" horiz-adv-x="611" 
d="M7 0h497l18 80h-402l52 247h371l16 80h-370l48 227h397l16 80h-492zM455 787h89l21 104h-89zM292 787h89l21 104h-89z" />
    <glyph glyph-name="Iacute" unicode="&#xcd;" horiz-adv-x="259" 
d="M7 0h95l150 714h-95zM168 765h70l136 143h-113z" />
    <glyph glyph-name="Icircumflex" unicode="&#xce;" horiz-adv-x="259" 
d="M7 0h95l150 714h-95zM69 765h82l87 93l51 -93h74l-75 143h-86z" />
    <glyph glyph-name="Oacute" unicode="&#xd3;" horiz-adv-x="759" 
d="M38 296q0 -74 20.5 -132t59.5 -98.5t96 -61.5t130 -21q89 0 160.5 36t121 96t76 138t26.5 162q0 66 -20.5 124t-59 100.5t-94 67t-124.5 24.5q-92 0 -164.5 -35.5t-123 -95.5t-77.5 -138.5t-27 -165.5zM133 296q0 64 18.5 128t55.5 114t92.5 81.5t130.5 31.5
q49 0 87 -18.5t64 -50t39 -75t13 -92.5q0 -64 -18.5 -127t-55 -113t-90.5 -81t-125 -31q-54 0 -93.5 17t-65.5 47.5t-39 73.5t-13 95zM402 765h70l136 143h-113z" />
    <glyph glyph-name="Ocircumflex" unicode="&#xd4;" horiz-adv-x="759" 
d="M38 296q0 -74 20.5 -132t59.5 -98.5t96 -61.5t130 -21q89 0 160.5 36t121 96t76 138t26.5 162q0 66 -20.5 124t-59 100.5t-94 67t-124.5 24.5q-92 0 -164.5 -35.5t-123 -95.5t-77.5 -138.5t-27 -165.5zM133 296q0 64 18.5 128t55.5 114t92.5 81.5t130.5 31.5
q49 0 87 -18.5t64 -50t39 -75t13 -92.5q0 -64 -18.5 -127t-55 -113t-90.5 -81t-125 -31q-54 0 -93.5 17t-65.5 47.5t-39 73.5t-13 95zM295 765h82l87 93l51 -93h74l-75 143h-86z" />
    <glyph glyph-name="Odieresis" unicode="&#xd6;" horiz-adv-x="759" 
d="M38 296q0 -74 20.5 -132t59.5 -98.5t96 -61.5t130 -21q89 0 160.5 36t121 96t76 138t26.5 162q0 66 -20.5 124t-59 100.5t-94 67t-124.5 24.5q-92 0 -164.5 -35.5t-123 -95.5t-77.5 -138.5t-27 -165.5zM133 296q0 64 18.5 128t55.5 114t92.5 81.5t130.5 31.5
q49 0 87 -18.5t64 -50t39 -75t13 -92.5q0 -64 -18.5 -127t-55 -113t-90.5 -81t-125 -31q-54 0 -93.5 17t-65.5 47.5t-39 73.5t-13 95zM485 787h89l21 104h-89zM322 787h89l21 104h-89z" />
    <glyph glyph-name="Uacute" unicode="&#xda;" horiz-adv-x="722" 
d="M728 714h-95l-90 -428q-11 -50 -24 -91.5t-37 -70.5t-61.5 -45t-95.5 -16q-104 0 -148.5 51.5t-20.5 155.5l94 444h-95l-89 -420q-31 -150 35 -230.5t224 -80.5q45 0 87.5 9.5t79 29.5t65 51.5t46.5 75.5q9 21 18 58t18 79zM403 765h70l136 143h-113z" />
    <glyph glyph-name="Udieresis" unicode="&#xdc;" horiz-adv-x="722" 
d="M728 714h-95l-90 -428q-11 -50 -24 -91.5t-37 -70.5t-61.5 -45t-95.5 -16q-104 0 -148.5 51.5t-20.5 155.5l94 444h-95l-89 -420q-31 -150 35 -230.5t224 -80.5q45 0 87.5 9.5t79 29.5t65 51.5t46.5 75.5q9 21 18 58t18 79zM492 787h89l21 104h-89zM329 787h89l21 104
h-89z" />
    <glyph glyph-name="germandbls" unicode="&#xdf;" horiz-adv-x="537" 
d="M-5 0h86l105 497q6 29 15 57.5t25.5 51t41.5 36.5t63 14q17 0 34.5 -6t31.5 -17.5t23 -28.5t9 -40q0 -38 -16 -65t-41.5 -44t-58 -23.5t-66.5 -4.5l-15 -70q33 1 62 -2.5t51 -16t35 -35.5t13 -62q0 -43 -15 -76t-41.5 -55.5t-61.5 -34.5t-75 -12h-15t-15 2l-14 -72
q18 -3 36 -4t37 -1q54 0 99.5 21t78.5 56.5t52 82.5t19 100q0 27 -7.5 52t-21.5 44.5t-35 33t-49 17.5v2q32 4 59.5 19.5t47.5 40.5t31 56.5t11 67.5q0 41 -15.5 69.5t-41.5 46.5t-60 26t-70 8q-52 0 -90 -16.5t-65 -46.5t-43.5 -71.5t-26.5 -92.5z" />
    <glyph glyph-name="aacute" unicode="&#xe1;" horiz-adv-x="519" 
d="M75 135q0 25 9.5 41.5t25 27t36.5 16.5t44 9t47 5.5t45.5 6.5t40.5 9.5t33 13.5h2q-9 -36 -16.5 -70t-28.5 -63q-44 -68 -145 -68q-36 0 -64.5 18t-28.5 54zM138 361q4 25 17 42.5t32 29t42.5 16.5t47.5 5q17 0 35.5 -3t33.5 -10.5t25 -20.5t10 -34q0 -26 -7.5 -41
t-23.5 -23t-40.5 -11.5t-58.5 -6.5q-43 -4 -89 -10t-84.5 -22.5t-63 -49t-24.5 -88.5q0 -40 12.5 -67.5t34 -45t50.5 -25.5t61 -8q66 0 106 19.5t67 55.5l2 -2q-4 -34 14 -53.5t53 -19.5q11 0 26.5 3.5t25.5 8.5l13 63l-13.5 -4.5t-13.5 -2.5q-11 0 -18 7t-7 25t5.5 38
t8.5 36l33 141q5 21 10.5 46.5t5.5 47.5q0 39 -15.5 64.5t-41.5 40.5t-60.5 21t-71.5 6q-41 0 -79 -10t-68 -31t-50.5 -52.5t-26.5 -74.5h85zM254 588h70l136 143h-113z" />
    <glyph glyph-name="acircumflex" unicode="&#xe2;" horiz-adv-x="519" 
d="M75 135q0 25 9.5 41.5t25 27t36.5 16.5t44 9t47 5.5t45.5 6.5t40.5 9.5t33 13.5h2q-9 -36 -16.5 -70t-28.5 -63q-44 -68 -145 -68q-36 0 -64.5 18t-28.5 54zM138 361q4 25 17 42.5t32 29t42.5 16.5t47.5 5q17 0 35.5 -3t33.5 -10.5t25 -20.5t10 -34q0 -26 -7.5 -41
t-23.5 -23t-40.5 -11.5t-58.5 -6.5q-43 -4 -89 -10t-84.5 -22.5t-63 -49t-24.5 -88.5q0 -40 12.5 -67.5t34 -45t50.5 -25.5t61 -8q66 0 106 19.5t67 55.5l2 -2q-4 -34 14 -53.5t53 -19.5q11 0 26.5 3.5t25.5 8.5l13 63l-13.5 -4.5t-13.5 -2.5q-11 0 -18 7t-7 25t5.5 38
t8.5 36l33 141q5 21 10.5 46.5t5.5 47.5q0 39 -15.5 64.5t-41.5 40.5t-60.5 21t-71.5 6q-41 0 -79 -10t-68 -31t-50.5 -52.5t-26.5 -74.5h85zM147 588h82l87 93l51 -93h74l-75 143h-86z" />
    <glyph glyph-name="adieresis" unicode="&#xe4;" horiz-adv-x="519" 
d="M75 135q0 25 9.5 41.5t25 27t36.5 16.5t44 9t47 5.5t45.5 6.5t40.5 9.5t33 13.5h2q-9 -36 -16.5 -70t-28.5 -63q-44 -68 -145 -68q-36 0 -64.5 18t-28.5 54zM138 361q4 25 17 42.5t32 29t42.5 16.5t47.5 5q17 0 35.5 -3t33.5 -10.5t25 -20.5t10 -34q0 -26 -7.5 -41
t-23.5 -23t-40.5 -11.5t-58.5 -6.5q-43 -4 -89 -10t-84.5 -22.5t-63 -49t-24.5 -88.5q0 -40 12.5 -67.5t34 -45t50.5 -25.5t61 -8q66 0 106 19.5t67 55.5l2 -2q-4 -34 14 -53.5t53 -19.5q11 0 26.5 3.5t25.5 8.5l13 63l-13.5 -4.5t-13.5 -2.5q-11 0 -18 7t-7 25t5.5 38
t8.5 36l33 141q5 21 10.5 46.5t5.5 47.5q0 39 -15.5 64.5t-41.5 40.5t-60.5 21t-71.5 6q-41 0 -79 -10t-68 -31t-50.5 -52.5t-26.5 -74.5h85zM337 610h89l21 104h-89zM174 610h89l21 104h-89z" />
    <glyph glyph-name="ccedilla" unicode="&#xe7;" horiz-adv-x="537" 
d="M501 353q-3 91 -54.5 133.5t-139.5 42.5q-69 0 -122.5 -26.5t-90 -71t-55 -102t-18.5 -118.5q0 -97 46 -155t140 -66l-55 -67l19 -30q10 5 20.5 6.5t21.5 1.5q17 0 31.5 -7t14.5 -24q0 -20 -18.5 -25t-41.5 -5q-17 0 -32.5 5l-31.5 10l-18 -43q49 -22 98 -22q20 0 41 5
t38.5 15.5t28.5 27t11 39.5q0 20 -8 34t-20.5 23t-29 13t-33.5 4q-7 0 -14 -1t-12 -3h-2l37 42q83 5 140 51.5t78 128.5h-85q-18 -48 -57 -77t-94 -29q-36 0 -60.5 12t-39.5 32t-21.5 47t-6.5 57q0 42 13 85.5t38.5 78.5t63 57t86.5 22q50 0 79.5 -26.5t29.5 -74.5h85z" />
    <glyph glyph-name="eacute" unicode="&#xe9;" horiz-adv-x="537" 
d="M110 308q9 30 24.5 56.5t37 46.5t50.5 31.5t67 11.5q35 0 59.5 -12.5t38.5 -33t19.5 -47t3.5 -53.5h-300zM487 233q2 11 5 29t3 38q0 109 -52.5 169t-166.5 60q-53 0 -101.5 -24t-85 -68t-58 -105.5t-21.5 -135.5q0 -34 10 -70.5t35 -67t67.5 -50.5t106.5 -20q42 0 80 11
t69 33t53 54.5t32 75.5h-85q-18 -48 -55.5 -73.5t-93.5 -25.5q-26 0 -50 8.5t-43 24t-30 39t-11 53.5q0 22 3 45h389zM255 588h70l136 143h-113z" />
    <glyph glyph-name="edieresis" unicode="&#xeb;" horiz-adv-x="537" 
d="M110 308q9 30 24.5 56.5t37 46.5t50.5 31.5t67 11.5q35 0 59.5 -12.5t38.5 -33t19.5 -47t3.5 -53.5h-300zM487 233q2 11 5 29t3 38q0 109 -52.5 169t-166.5 60q-53 0 -101.5 -24t-85 -68t-58 -105.5t-21.5 -135.5q0 -34 10 -70.5t35 -67t67.5 -50.5t106.5 -20q42 0 80 11
t69 33t53 54.5t32 75.5h-85q-18 -48 -55.5 -73.5t-93.5 -25.5q-26 0 -50 8.5t-43 24t-30 39t-11 53.5q0 22 3 45h389zM346 610h89l21 104h-89zM183 610h89l21 104h-89z" />
    <glyph glyph-name="iacute" unicode="&#xed;" horiz-adv-x="222" 
d="M-5 0h85l108 517h-85zM117 588h70l136 143h-113z" />
    <glyph glyph-name="icircumflex" unicode="&#xee;" horiz-adv-x="222" 
d="M-5 0h85l108 517h-85zM10 588h82l87 93l51 -93h74l-75 143h-86z" />
    <glyph glyph-name="oacute" unicode="&#xf3;" horiz-adv-x="574" 
d="M102 205q0 40 12.5 84t37.5 80.5t62 60.5t86 24q35 0 60.5 -11.5t42.5 -31t25 -46.5t8 -57q0 -38 -12.5 -81t-37 -79.5t-60.5 -60.5t-82 -24q-70 0 -106 39t-36 103zM17 204q0 -47 15 -86.5t43 -68.5t68.5 -45t91.5 -16q68 0 121 27.5t90 73t56 104.5t19 122
q0 104 -55.5 159t-159.5 55q-68 0 -121.5 -27t-91 -72t-57 -104t-19.5 -122zM281 588h70l136 143h-113z" />
    <glyph glyph-name="ocircumflex" unicode="&#xf4;" horiz-adv-x="574" 
d="M102 205q0 40 12.5 84t37.5 80.5t62 60.5t86 24q35 0 60.5 -11.5t42.5 -31t25 -46.5t8 -57q0 -38 -12.5 -81t-37 -79.5t-60.5 -60.5t-82 -24q-70 0 -106 39t-36 103zM17 204q0 -47 15 -86.5t43 -68.5t68.5 -45t91.5 -16q68 0 121 27.5t90 73t56 104.5t19 122
q0 104 -55.5 159t-159.5 55q-68 0 -121.5 -27t-91 -72t-57 -104t-19.5 -122zM174 588h82l87 93l51 -93h74l-75 143h-86z" />
    <glyph glyph-name="odieresis" unicode="&#xf6;" horiz-adv-x="574" 
d="M102 205q0 40 12.5 84t37.5 80.5t62 60.5t86 24q35 0 60.5 -11.5t42.5 -31t25 -46.5t8 -57q0 -38 -12.5 -81t-37 -79.5t-60.5 -60.5t-82 -24q-70 0 -106 39t-36 103zM17 204q0 -47 15 -86.5t43 -68.5t68.5 -45t91.5 -16q68 0 121 27.5t90 73t56 104.5t19 122
q0 104 -55.5 159t-159.5 55q-68 0 -121.5 -27t-91 -72t-57 -104t-19.5 -122zM364 610h89l21 104h-89zM201 610h89l21 104h-89z" />
    <glyph glyph-name="divide" unicode="&#xf7;" horiz-adv-x="600" 
d="M48 219h504v68h-504v-68zM236 459q0 -26 19.5 -45t45.5 -19q25 0 44 20t19 44q0 26 -19 45t-45 19t-45 -19t-19 -45zM236 47q0 -26 19.5 -45t45.5 -19q25 0 44 20t19 44q0 26 -19 45t-45 19t-45 -19t-19 -45z" />
    <glyph glyph-name="uacute" unicode="&#xfa;" 
d="M520 517h-85l-60 -286q-7 -32 -23.5 -62.5t-40.5 -54t-55 -37.5t-66 -14q-38 0 -64 17.5t-26 54.5q0 7 1.5 17.5l3 22t3.5 22.5t4 18l66 302h-85l-63 -295q-7 -30 -11 -57t-4 -44q0 -69 35.5 -101t108.5 -32q54 0 103 23t81 67h2l-16 -78h82zM272 588h70l136 143h-113z
" />
    <glyph glyph-name="udieresis" unicode="&#xfc;" 
d="M520 517h-85l-60 -286q-7 -32 -23.5 -62.5t-40.5 -54t-55 -37.5t-66 -14q-38 0 -64 17.5t-26 54.5q0 7 1.5 17.5l3 22t3.5 22.5t4 18l66 302h-85l-63 -295q-7 -30 -11 -57t-4 -44q0 -69 35.5 -101t108.5 -32q54 0 103 23t81 67h2l-16 -78h82zM365 610h89l21 104h-89z
M202 610h89l21 104h-89z" />
    <glyph glyph-name="dotaccent" unicode="&#xff;" horiz-adv-x="222" 
d="M137 592h89l21 104h-89z" />
    <glyph glyph-name="dotaccent" unicode="&#x2d9;" horiz-adv-x="222" 
d="M137 592h89l21 104h-89z" />
    <glyph glyph-name="ordfeminine" horiz-adv-x="311" 
d="M135 606q6 29 30.5 41t56.5 12q24 0 45.5 -6.5t21.5 -28.5q0 -17 -10.5 -27t-28 -16t-40.5 -8.5t-47 -4.5q-21 -2 -44 -7t-42 -16t-31.5 -28.5t-12.5 -43.5q0 -53 33 -73t86 -20q29 0 55 12.5t42 33.5h3q-2 -20 9.5 -33t34.5 -13q8 0 17.5 2t16.5 5l8 46q-8 -3 -15 -3
q-6 0 -11.5 2t-5.5 10q0 11 5 28t8 30l20 83q2 12 6 27t4 26q0 20 -13 34t-32.5 22.5t-41.5 12.5t-40 4q-55 0 -97.5 -25.5t-49.5 -77.5h60zM262 499q-9 -33 -32 -49.5t-78 -19.5q-24 0 -41.5 9t-17.5 28q0 30 21.5 41t51.5 15t60.5 6t45.5 15h2z" />
    <glyph glyph-name="ugrave" 
d="M520 517h-85l-60 -286q-7 -32 -23.5 -62.5t-40.5 -54t-55 -37.5t-66 -14q-38 0 -64 17.5t-26 54.5q0 7 1.5 17.5l3 22t3.5 22.5t4 18l66 302h-85l-63 -295q-7 -30 -11 -57t-4 -44q0 -69 35.5 -101t108.5 -32q54 0 103 23t81 67h2l-16 -78h82zM304 731h-101l101 -143h67z
" />
    <glyph glyph-name="atilde" horiz-adv-x="519" 
d="M75 135q0 25 9.5 41.5t25 27t36.5 16.5t44 9t47 5.5t45.5 6.5t40.5 9.5t33 13.5h2q-9 -36 -16.5 -70t-28.5 -63q-44 -68 -145 -68q-36 0 -64.5 18t-28.5 54zM138 361q4 25 17 42.5t32 29t42.5 16.5t47.5 5q17 0 35.5 -3t33.5 -10.5t25 -20.5t10 -34q0 -26 -7.5 -41
t-23.5 -23t-40.5 -11.5t-58.5 -6.5q-43 -4 -89 -10t-84.5 -22.5t-63 -49t-24.5 -88.5q0 -40 12.5 -67.5t34 -45t50.5 -25.5t61 -8q66 0 106 19.5t67 55.5l2 -2q-4 -34 14 -53.5t53 -19.5q11 0 26.5 3.5t25.5 8.5l13 63l-13.5 -4.5t-13.5 -2.5q-11 0 -18 7t-7 25t5.5 38
t8.5 36l33 141q5 21 10.5 46.5t5.5 47.5q0 39 -15.5 64.5t-41.5 40.5t-60.5 21t-71.5 6q-41 0 -79 -10t-68 -31t-50.5 -52.5t-26.5 -74.5h85zM192 597q6 17 16.5 29t30.5 12q11 0 28 -5.5t37 -15.5t39.5 -17.5t36.5 -7.5q23 0 39.5 10t28.5 25.5t20 35t14 38.5h-51
q-9 -17 -18.5 -29t-32.5 -12q-13 -2 -29 5.5t-35 15.5q-19 9 -38 17t-39 8q-22 0 -38 -10.5t-27.5 -26.5t-19.5 -35t-14 -37h52z" />
    <glyph glyph-name="igrave" horiz-adv-x="222" 
d="M-5 0h85l108 517h-85zM135 731h-101l101 -143h67z" />
    <glyph glyph-name="Idieresis" horiz-adv-x="259" 
d="M7 0h95l150 714h-95zM255 787h89l21 104h-89zM92 787h89l21 104h-89z" />
    <glyph glyph-name="dotlessi" unicode="&#x131;" horiz-adv-x="222" 
d="M80 0l108 517h-85l-108 -517h85z" />
    <glyph glyph-name="ydieresis" horiz-adv-x="481" 
d="M505 517h-93l-217 -411h-2l-60 411h-91l91 -517l-52 -86q-15 -25 -33 -40.5t-47 -15.5q-11 0 -25 4t-24 10l-15 -69q12 -6 28 -9.5t31 -3.5q33 0 57 9.5t43.5 26t35 39l31.5 47.5zM330 610h89l21 104h-89zM167 610h89l21 104h-89z" />
    <glyph glyph-name="sterling" 
d="M26 -12q28 16 56.5 29.5t61.5 13.5q26 0 50.5 -7.5t50.5 -16.5q25 -9 51 -16.5t53 -7.5q16 0 34.5 4t36.5 11t35 16t30 18l-32 72l-44 -30t-50 -16q-24 0 -44.5 7.5l-40.5 14.5q-20 6 -40.5 11t-43.5 5q-26 0 -58 -8t-54 -19v2q25 15 49 37t43 47.5t30.5 52.5t11.5 51
q0 17 -2.5 35.5t-7.5 32.5h130l10 45h-154q-11 28 -17 57.5t-6 59.5q0 36 12 66.5t33 53t50 35t64 12.5q34 0 58 -15t39 -39.5t21.5 -55t3.5 -61.5h90q3 51 -10 96t-40.5 78.5t-70 52.5t-98.5 19q-47 0 -91 -17.5t-77.5 -48.5t-53.5 -73.5t-20 -92.5q0 -32 7.5 -64l15.5 -63
h-62l-10 -45h86q6 -23 8 -42.5t2 -37.5q0 -29 -9 -53t-25.5 -46t-39.5 -42.5t-51 -42.5z" />
    <glyph glyph-name="ae" horiz-adv-x="870" 
d="M449 308q7 28 21.5 54.5t36.5 47t50.5 32.5t63.5 12q36 0 60 -12t38.5 -32.5t19 -47t0.5 -54.5h-290zM147 362q11 45 45.5 68.5t82.5 23.5q19 0 39 -2.5t36.5 -10t27 -21t10.5 -35.5q0 -32 -17 -49t-44.5 -26t-62.5 -12.5l-72 -7.5t-72.5 -13.5t-63 -27.5t-44.5 -46.5
t-17 -70.5t14 -70t37 -44.5t53.5 -23t62.5 -6.5q66 0 117.5 27.5t85.5 84.5q11 -33 29.5 -54.5t42.5 -34.5t52 -18t58 -5q73 0 126 28t93 88q9 14 16 28.5t12 29.5h-87q-20 -48 -58 -73.5t-95 -25.5q-32 0 -55.5 9.5t-38.5 26t-22.5 38t-7.5 44.5q0 14 1.5 27t3.5 25h375
q6 23 10 46.5t4 46.5q0 97 -50 150t-149 53q-48 0 -92.5 -21t-72.5 -60q-12 24 -30 39.5t-39.5 25t-46 13t-49.5 3.5q-43 0 -81.5 -9t-69.5 -29t-52 -51.5t-28 -77.5h83zM80 132q0 24 8 40.5t22 27.5t32.5 17.5t40.5 10.5t45.5 7t47 7t45.5 9.5t41 14.5q-3 -19 -8 -41
t-12.5 -43.5t-17.5 -41t-23 -32.5q-25 -25 -57.5 -35t-67.5 -10q-18 0 -35.5 3.5t-31 12t-21.5 21.5t-8 32z" />
    <glyph glyph-name="radical" unicode="&#x221a;" horiz-adv-x="496" 
d="M502 786h-63l-188 -916l-159 332l-100 -48l24 -50l46 22l164 -340h66z" />
    <glyph glyph-name="Aring" horiz-adv-x="667" 
d="M410 630h2l53 -335h-246zM-55 0h106l125 215h301l33 -215h98l-129 714h-104zM374 847q0 29 19.5 48.5t48.5 19.5t48.5 -19.5t19.5 -48.5t-19.5 -48.5t-48.5 -19.5t-48.5 19.5t-19.5 48.5zM329 847q0 -23 9 -43.5t24.5 -36t36 -24.5t43.5 -9t43.5 9t36 24.5t24.5 36
t9 43.5t-9 43.5t-24.5 36t-36 24.5t-43.5 9t-43.5 -9t-36 -24.5t-24.5 -36t-9 -43.5z" />
    <glyph glyph-name="ring" unicode="&#x2da;" horiz-adv-x="222" 
d="M131 662q0 29 19.5 48.5t48.5 19.5t48.5 -19.5t19.5 -48.5t-19.5 -48.5t-48.5 -19.5t-48.5 19.5t-19.5 48.5zM86 662q0 -23 9 -43.5t24.5 -36t36 -24.5t43.5 -9t43.5 9t36 24.5t24.5 36t9 43.5t-9 43.5t-24.5 36t-36 24.5t-43.5 9t-43.5 -9t-36 -24.5t-24.5 -36t-9 -43.5
z" />
    <glyph glyph-name="tilde" unicode="&#x2dc;" horiz-adv-x="222" 
d="M75 597q6 17 16.5 29t30.5 12q11 0 28 -5.5t37 -15.5t39.5 -17.5t36.5 -7.5q23 0 39.5 10t28.5 25.5t20 35t14 38.5h-51q-9 -17 -18.5 -29t-32.5 -12q-13 -2 -29 5.5t-35 15.5q-19 9 -38 17t-39 8q-22 0 -38 -10.5t-27.5 -26.5t-19.5 -35t-14 -37h52z" />
    <glyph glyph-name="ecircumflex" horiz-adv-x="537" 
d="M110 308q9 30 24.5 56.5t37 46.5t50.5 31.5t67 11.5q35 0 59.5 -12.5t38.5 -33t19.5 -47t3.5 -53.5h-300zM487 233q2 11 5 29t3 38q0 109 -52.5 169t-166.5 60q-53 0 -101.5 -24t-85 -68t-58 -105.5t-21.5 -135.5q0 -34 10 -70.5t35 -67t67.5 -50.5t106.5 -20q42 0 80 11
t69 33t53 54.5t32 75.5h-85q-18 -48 -55.5 -73.5t-93.5 -25.5q-26 0 -50 8.5t-43 24t-30 39t-11 53.5q0 22 3 45h389zM156 588h82l87 93l51 -93h74l-75 143h-86z" />
    <glyph glyph-name="ucircumflex" 
d="M520 517h-85l-60 -286q-7 -32 -23.5 -62.5t-40.5 -54t-55 -37.5t-66 -14q-38 0 -64 17.5t-26 54.5q0 7 1.5 17.5l3 22t3.5 22.5t4 18l66 302h-85l-63 -295q-7 -30 -11 -57t-4 -44q0 -69 35.5 -101t108.5 -32q54 0 103 23t81 67h2l-16 -78h82zM167 588h82l87 93l51 -93h74
l-75 143h-86z" />
    <glyph glyph-name="Ecircumflex" horiz-adv-x="611" 
d="M7 0h497l18 80h-402l52 247h371l16 80h-370l48 227h397l16 80h-492zM265 765h82l87 93l51 -93h74l-75 143h-86z" />
    <glyph glyph-name="aring" horiz-adv-x="519" 
d="M75 135q0 25 9.5 41.5t25 27t36.5 16.5t44 9t47 5.5t45.5 6.5t40.5 9.5t33 13.5h2q-9 -36 -16.5 -70t-28.5 -63q-44 -68 -145 -68q-36 0 -64.5 18t-28.5 54zM138 361q4 25 17 42.5t32 29t42.5 16.5t47.5 5q17 0 35.5 -3t33.5 -10.5t25 -20.5t10 -34q0 -26 -7.5 -41
t-23.5 -23t-40.5 -11.5t-58.5 -6.5q-43 -4 -89 -10t-84.5 -22.5t-63 -49t-24.5 -88.5q0 -40 12.5 -67.5t34 -45t50.5 -25.5t61 -8q66 0 106 19.5t67 55.5l2 -2q-4 -34 14 -53.5t53 -19.5q11 0 26.5 3.5t25.5 8.5l13 63l-13.5 -4.5t-13.5 -2.5q-11 0 -18 7t-7 25t5.5 38
t8.5 36l33 141q5 21 10.5 46.5t5.5 47.5q0 39 -15.5 64.5t-41.5 40.5t-60.5 21t-71.5 6q-41 0 -79 -10t-68 -31t-50.5 -52.5t-26.5 -74.5h85zM248 678q0 29 19.5 48.5t48.5 19.5t48.5 -19.5t19.5 -48.5t-19.5 -48.5t-48.5 -19.5t-48.5 19.5t-19.5 48.5zM203 678
q0 -23 9 -43.5t24.5 -36t36 -24.5t43.5 -9t43.5 9t36 24.5t24.5 36t9 43.5t-9 43.5t-24.5 36t-36 24.5t-43.5 9t-43.5 -9t-36 -24.5t-24.5 -36t-9 -43.5z" />
    <glyph glyph-name="lessequal" unicode="&#x2264;" horiz-adv-x="600" 
d="M554 156l-425 145l425 145v68l-508 -182v-62l508 -182v68zM552 68h-504v-68h504v68z" />
    <glyph glyph-name="agrave" horiz-adv-x="519" 
d="M75 135q0 25 9.5 41.5t25 27t36.5 16.5t44 9t47 5.5t45.5 6.5t40.5 9.5t33 13.5h2q-9 -36 -16.5 -70t-28.5 -63q-44 -68 -145 -68q-36 0 -64.5 18t-28.5 54zM138 361q4 25 17 42.5t32 29t42.5 16.5t47.5 5q17 0 35.5 -3t33.5 -10.5t25 -20.5t10 -34q0 -26 -7.5 -41
t-23.5 -23t-40.5 -11.5t-58.5 -6.5q-43 -4 -89 -10t-84.5 -22.5t-63 -49t-24.5 -88.5q0 -40 12.5 -67.5t34 -45t50.5 -25.5t61 -8q66 0 106 19.5t67 55.5l2 -2q-4 -34 14 -53.5t53 -19.5q11 0 26.5 3.5t25.5 8.5l13 63l-13.5 -4.5t-13.5 -2.5q-11 0 -18 7t-7 25t5.5 38
t8.5 36l33 141q5 21 10.5 46.5t5.5 47.5q0 39 -15.5 64.5t-41.5 40.5t-60.5 21t-71.5 6q-41 0 -79 -10t-68 -31t-50.5 -52.5t-26.5 -74.5h85zM284 731h-101l101 -143h67z" />
    <glyph glyph-name="Ugrave" horiz-adv-x="722" 
d="M728 714h-95l-90 -428q-11 -50 -24 -91.5t-37 -70.5t-61.5 -45t-95.5 -16q-104 0 -148.5 51.5t-20.5 155.5l94 444h-95l-89 -420q-31 -150 35 -230.5t224 -80.5q45 0 87.5 9.5t79 29.5t65 51.5t46.5 75.5q9 21 18 58t18 79zM435 908h-101l101 -143h67z" />
    <glyph glyph-name="questiondown" 
d="M346 25q-6 -35 -18.5 -64.5t-32.5 -50.5t-48 -33t-66 -12q-24 0 -44 8t-34.5 23t-23 35t-8.5 44q0 44 27 76t60 56q35 24 62 45.5t46.5 46.5t32.5 56.5t20 76.5h-83q-3 -35 -16.5 -60.5t-33.5 -46t-45 -38.5l-50 -36q-47 -35 -78.5 -78.5t-31.5 -104.5q0 -42 16 -75.5
t43 -56t63 -34.5t75 -12q55 0 99 16.5t76.5 47.5t52 74t25.5 97h-85zM373 517h-113l-22 -111h110z" />
    <glyph glyph-name="cent" 
d="M116 211q0 43 12 85.5t35.5 77.5t58.5 58.5t80 26.5l-84 -398q-28 4 -47.5 17t-31.5 33t-17.5 45.5t-5.5 54.5zM395 169q-17 -48 -52.5 -77.5t-86.5 -33.5l84 399q40 -6 63 -32.5t23 -71.5h85q0 80 -42 122.5t-114 51.5l20 93h-39l-19 -91q-65 0 -118 -26.5t-90.5 -71
t-57.5 -102t-20 -118.5q0 -94 43 -151.5t129 -68.5l-23 -107h39l22 104q92 0 154 47t85 134h-85z" />
    <glyph glyph-name="fi" unicode="&#xfb01;" horiz-adv-x="519" 
d="M292 0h85l108 517h-85zM527 714h-86l-22 -104h86zM23 0h85l95 442h100l14 75h-99q7 24 12 47t14 41.5t25.5 30t48.5 11.5q18 0 40 -5l14 72q-17 5 -35 6.5t-36 1.5q-51 0 -79.5 -17.5t-44.5 -46t-24.5 -65.5t-18.5 -76h-88l-15 -75h88z" />
    <glyph glyph-name="oslash" horiz-adv-x="574" 
d="M425 374q11 -28 11 -66t-12.5 -81t-37 -79.5t-60.5 -60.5t-82 -24q-40 0 -68.5 12.5t-45.5 32.5zM113 142h-1q-10 26 -10 63q0 40 12.5 84t37.5 80.5t62 60.5t86 24q38 0 64.5 -12.5t43.5 -32.5zM-30 13l24 -28l75 68q56 -65 166 -65q68 0 121 27.5t90 73t56 104.5
t19 122q0 72 -28 120l73 66l-25 28l-70 -63q-54 63 -165 63q-68 0 -121.5 -27t-91 -72t-57 -104t-19.5 -122q0 -72 30 -121z" />
    <glyph glyph-name="Ograve" horiz-adv-x="759" 
d="M38 296q0 -74 20.5 -132t59.5 -98.5t96 -61.5t130 -21q89 0 160.5 36t121 96t76 138t26.5 162q0 66 -20.5 124t-59 100.5t-94 67t-124.5 24.5q-92 0 -164.5 -35.5t-123 -95.5t-77.5 -138.5t-27 -165.5zM133 296q0 64 18.5 128t55.5 114t92.5 81.5t130.5 31.5
q49 0 87 -18.5t64 -50t39 -75t13 -92.5q0 -64 -18.5 -127t-55 -113t-90.5 -81t-125 -31q-54 0 -93.5 17t-65.5 47.5t-39 73.5t-13 95zM426 908h-101l101 -143h67z" />
    <glyph glyph-name="Otilde" horiz-adv-x="759" 
d="M38 296q0 -74 20.5 -132t59.5 -98.5t96 -61.5t130 -21q89 0 160.5 36t121 96t76 138t26.5 162q0 66 -20.5 124t-59 100.5t-94 67t-124.5 24.5q-92 0 -164.5 -35.5t-123 -95.5t-77.5 -138.5t-27 -165.5zM133 296q0 64 18.5 128t55.5 114t92.5 81.5t130.5 31.5
q49 0 87 -18.5t64 -50t39 -75t13 -92.5q0 -64 -18.5 -127t-55 -113t-90.5 -81t-125 -31q-54 0 -93.5 17t-65.5 47.5t-39 73.5t-13 95zM340 774q6 17 16.5 29t30.5 12q11 0 28 -5.5t37 -15.5t39.5 -17.5t36.5 -7.5q23 0 39.5 10t28.5 25.5t20 35t14 38.5h-51
q-9 -17 -18.5 -29t-32.5 -12q-13 -2 -29 5.5t-35 15.5q-19 9 -38 17t-39 8q-22 0 -38 -10.5t-27.5 -26.5t-19.5 -35t-14 -37h52z" />
    <glyph glyph-name="fl" unicode="&#xfb02;" horiz-adv-x="519" 
d="M23 0h85l95 442h100l14 75h-99q7 24 12 47t14 41.5t25.5 30t48.5 11.5q18 0 40 -5l14 72q-17 5 -35 6.5t-36 1.5q-51 0 -79.5 -17.5t-44.5 -46t-24.5 -65.5t-18.5 -76h-88l-15 -75h88zM292 0h85l150 714h-85z" />
    <glyph glyph-name="ntilde" 
d="M-5 0h85l60 286q8 31 21 59.5t36 48.5q24 26 58.5 43t69.5 17q38 0 64 -17.5t26 -54.5q0 -7 -1.5 -17.5l-3 -22t-4 -22.5t-3.5 -18l-66 -302h85l63 295q7 30 11 57t4 44q0 69 -35.5 101t-108.5 32q-54 0 -103 -23t-81 -67h-2l16 78h-82zM210 597q6 17 16.5 29t30.5 12
q11 0 28 -5.5t37 -15.5t39.5 -17.5t36.5 -7.5q23 0 39.5 10t28.5 25.5t20 35t14 38.5h-51q-9 -17 -18.5 -29t-32.5 -12q-13 -2 -29 5.5t-35 15.5q-19 9 -38 17t-39 8q-22 0 -38 -10.5t-27.5 -26.5t-19.5 -35t-14 -37h52z" />
    <glyph glyph-name="AE" horiz-adv-x="926" 
d="M480 634h22l-75 -346h-192zM-79 0h109l149 208h230l-43 -208h455l16 80h-357l53 247h329l18 80h-330l47 227h351l17 80h-524z" />
    <glyph glyph-name="circumflex" unicode="&#x2c6;" horiz-adv-x="222" 
d="M30 588h82l87 93l51 -93h74l-75 143h-86z" />
    <glyph glyph-name="Ucircumflex" horiz-adv-x="722" 
d="M728 714h-95l-90 -428q-11 -50 -24 -91.5t-37 -70.5t-61.5 -45t-95.5 -16q-104 0 -148.5 51.5t-20.5 155.5l94 444h-95l-89 -420q-31 -150 35 -230.5t224 -80.5q45 0 87.5 9.5t79 29.5t65 51.5t46.5 75.5q9 21 18 58t18 79zM302 765h82l87 93l51 -93h74l-75 143h-86z" />
    <glyph glyph-name="notequal" unicode="&#x2260;" horiz-adv-x="600" 
d="M48 118h129l-59 -112l59 -31l75 143h300v68h-265l70 134h195v68h-160l53 102l-59 31l-69 -133h-269v-68h234l-70 -134h-164v-68z" />
    <glyph glyph-name="summation" unicode="&#x2211;" horiz-adv-x="600" 
d="M566 786h-527v-56l315 -441l-328 -447v-56h552v61h-472l327 442l-309 435h442v62z" />
    <glyph glyph-name="ordmasculine" horiz-adv-x="344" 
d="M104 513q0 24 8 50t24 47.5t39.5 35t54.5 13.5q45 0 65 -24.5t20 -59.5q0 -27 -9 -53t-25.5 -46.5t-39.5 -33t-52 -12.5q-43 0 -64 24t-21 59zM44 512q-1 -67 39 -99.5t106 -32.5q43 0 77.5 17t58.5 44.5t37 63.5t13 74q0 63 -36.5 96.5t-104.5 33.5q-44 0 -79.5 -16.5
t-60 -44t-37.5 -63t-13 -73.5z" />
    <glyph glyph-name="partialdiff" unicode="&#x2202;" horiz-adv-x="496" 
d="M101 620q19 15 45 30t67 15q12 0 30 -3t37.5 -12.5t39 -28.5t35.5 -51q15 -30 23 -64t11 -65.5t2.5 -58t-0.5 -41.5q-42 50 -87 67t-79 17t-68.5 -12t-62.5 -38t-45.5 -66.5t-17.5 -96.5q0 -49 15 -90t41.5 -71t63 -46.5t79.5 -16.5q37 0 65 11t47.5 25.5t31 29
t16.5 21.5q30 45 47.5 113t17.5 174q0 84 -14.5 143.5t-37.5 99.5t-51.5 63t-55.5 35t-50 15t-36 3q-30 0 -53.5 -6.5t-41.5 -16t-30.5 -19.5l-19.5 -16zM93 210q0 43 13 73.5t33 49.5t44.5 27.5t47.5 8.5q13 0 31 -3.5t38.5 -13.5t42.5 -28t43 -46q-3 -61 -17 -105.5
t-35 -74t-48 -43.5t-55 -14q-23 0 -47.5 10t-44.5 31t-33 52.5t-13 75.5z" />
    <glyph glyph-name="Egrave" horiz-adv-x="611" 
d="M7 0h497l18 80h-402l52 247h371l16 80h-370l48 227h397l16 80h-492zM392 908h-101l101 -143h67z" />
    <glyph glyph-name="florin" unicode="&#x192;" 
d="M150 449l-18 -68h95l-110 -387q-8 -31 -24.5 -55t-52.5 -29q-11 -1 -20.5 0.5t-17.5 3.5l-21 -74q14 -2 28 -3.5t28 -1.5q68 0 105 33t54 98l118 415h111l18 68h-111l24 87q8 28 15 47.5t17 32t25 18t39 5.5q10 0 20.5 -1t19.5 -5l20 73q-16 3 -32 5.5t-33 2.5
q-57 0 -98.5 -22.5t-57.5 -78.5l-46 -164h-95z" />
    <glyph glyph-name="ograve" horiz-adv-x="574" 
d="M102 205q0 40 12.5 84t37.5 80.5t62 60.5t86 24q35 0 60.5 -11.5t42.5 -31t25 -46.5t8 -57q0 -38 -12.5 -81t-37 -79.5t-60.5 -60.5t-82 -24q-70 0 -106 39t-36 103zM17 204q0 -47 15 -86.5t43 -68.5t68.5 -45t91.5 -16q68 0 121 27.5t90 73t56 104.5t19 122
q0 104 -55.5 159t-159.5 55q-68 0 -121.5 -27t-91 -72t-57 -104t-19.5 -122zM311 731h-101l101 -143h67z" />
    <glyph glyph-name="egrave" horiz-adv-x="537" 
d="M110 308q9 30 24.5 56.5t37 46.5t50.5 31.5t67 11.5q35 0 59.5 -12.5t38.5 -33t19.5 -47t3.5 -53.5h-300zM487 233q2 11 5 29t3 38q0 109 -52.5 169t-166.5 60q-53 0 -101.5 -24t-85 -68t-58 -105.5t-21.5 -135.5q0 -34 10 -70.5t35 -67t67.5 -50.5t106.5 -20q42 0 80 11
t69 33t53 54.5t32 75.5h-85q-18 -48 -55.5 -73.5t-93.5 -25.5q-26 0 -50 8.5t-43 24t-30 39t-11 53.5q0 22 3 45h389zM303 731h-101l101 -143h67z" />
    <glyph glyph-name="Igrave" horiz-adv-x="259" 
d="M7 0h95l150 714h-95zM200 908h-101l101 -143h67z" />
    <glyph glyph-name="Ntilde" horiz-adv-x="722" 
d="M7 0h92l121 587h2l253 -587h102l151 714h-92l-119 -591h-2l-255 591h-102zM355 774q6 17 16.5 29t30.5 12q11 0 28 -5.5t37 -15.5t39.5 -17.5t36.5 -7.5q23 0 39.5 10t28.5 25.5t20 35t14 38.5h-51q-9 -17 -18.5 -29t-32.5 -12q-13 -2 -29 5.5t-35 15.5q-19 9 -38 17
t-39 8q-22 0 -38 -10.5t-27.5 -26.5t-19.5 -35t-14 -37h52z" />
    <glyph glyph-name="greaterequal" unicode="&#x2265;" horiz-adv-x="600" 
d="M46 88l508 182v62l-508 182v-68l425 -145l-425 -145v-68zM48 0h504v68h-504v-68z" />
    <glyph glyph-name="Oslash" horiz-adv-x="759" 
d="M-12 10l29 -32l95 93h3q39 -42 96.5 -65t132.5 -23q89 0 160.5 36t121 96t76 138t26.5 162q0 54 -14 102.5t-40 88.5l100 95l-29 32l-98 -93q-38 42 -92.5 66.5t-124.5 24.5q-92 0 -164.5 -35.5t-123 -95.5t-77.5 -138.5t-27 -165.5q0 -57 13 -105t37 -85zM158 173
q-25 53 -25 123q0 64 18.5 128t55.5 114t92.5 81.5t130.5 31.5q51 0 89 -19t64 -53zM606 541q27 -54 27 -126q0 -64 -18.5 -127t-55 -113t-90.5 -81t-125 -31q-57 0 -97 19t-66 53z" />
    <glyph glyph-name="idieresis" horiz-adv-x="222" 
d="M-5 0h85l108 517h-85zM198 610h89l21 104h-89zM35 610h89l21 104h-89z" />
    <glyph glyph-name="yen" 
d="M170 0h89l36 174h146l14 60h-147l9 42l24 33h129l13 60h-96l249 345h-108l-239 -344l-101 344h-98l110 -345h-97l-14 -60h130l8 -23l-8 -52h-144l-14 -60h145z" />
    <glyph glyph-name="Atilde" horiz-adv-x="667" 
d="M410 630h2l53 -335h-246zM-55 0h106l125 215h301l33 -215h98l-129 714h-104zM328 770q6 17 16.5 29t30.5 12q11 0 28 -5.5t37 -15.5t39.5 -17.5t36.5 -7.5q23 0 39.5 10t28.5 25.5t20 35t14 38.5h-51q-9 -17 -18.5 -29t-32.5 -12q-13 -2 -29 5.5t-35 15.5q-19 9 -38 17
t-39 8q-22 0 -38 -10.5t-27.5 -26.5t-19.5 -35t-14 -37h52z" />
    <glyph glyph-name="macron" unicode="&#x2c9;" horiz-adv-x="222" 
d="M53 635h270l11 55h-269z" />
    <glyph glyph-name="lozenge" unicode="&#x25ca;" horiz-adv-x="600" 
d="M331 747h-63l-169 -391l169 -391h63l170 391zM437 356l-137 -325l-136 325l136 325z" />
    <glyph glyph-name="exclamdown" horiz-adv-x="259" 
d="M225 517h-111l-24 -111h111zM-27 -198h93l47 223l43 308h-46l-90 -308z" />
    <glyph glyph-name="Agrave" horiz-adv-x="667" 
d="M410 630h2l53 -335h-246zM-55 0h106l125 215h301l33 -215h98l-129 714h-104zM412 908h-101l101 -143h67z" />
    <glyph glyph-name="otilde" horiz-adv-x="574" 
d="M102 205q0 40 12.5 84t37.5 80.5t62 60.5t86 24q35 0 60.5 -11.5t42.5 -31t25 -46.5t8 -57q0 -38 -12.5 -81t-37 -79.5t-60.5 -60.5t-82 -24q-70 0 -106 39t-36 103zM17 204q0 -47 15 -86.5t43 -68.5t68.5 -45t91.5 -16q68 0 121 27.5t90 73t56 104.5t19 122
q0 104 -55.5 159t-159.5 55q-68 0 -121.5 -27t-91 -72t-57 -104t-19.5 -122zM219 597q6 17 16.5 29t30.5 12q11 0 28 -5.5t37 -15.5t39.5 -17.5t36.5 -7.5q23 0 39.5 10t28.5 25.5t20 35t14 38.5h-51q-9 -17 -18.5 -29t-32.5 -12q-13 -2 -29 5.5t-35 15.5q-19 9 -38 17
t-39 8q-22 0 -38 -10.5t-27.5 -26.5t-19.5 -35t-14 -37h52z" />
    <glyph glyph-name="space" unicode=" " horiz-adv-x="278" 
 />
    <glyph glyph-name="space" unicode="&#xa0;" horiz-adv-x="278" 
 />
    <glyph glyph-name="OE" unicode="&#x152;" horiz-adv-x="648" 
d="M614 503q2 60 -18.5 103t-56.5 70.5t-83.5 41t-100.5 13.5q-48 0 -94.5 -13t-83 -39t-59.5 -64.5t-23 -90.5q0 -39 13 -69t35 -52t51 -36t61 -23l97 -26q26 -7 49 -16t40.5 -22.5t27.5 -33t10 -46.5q0 -36 -15.5 -62t-40.5 -42.5t-57.5 -24.5t-65.5 -8q-44 0 -79.5 8.5
t-61 28.5t-38.5 53t-11 81h-95q-5 -66 14.5 -113t57 -78t91 -45.5t118.5 -14.5q48 0 97.5 13t89.5 40t65.5 68t25.5 96q0 48 -14.5 81t-38.5 54.5t-55 35t-64 22.5l-96 26q-24 7 -45.5 16t-37 22.5t-24.5 32t-9 44.5q0 32 16 54t40.5 36t53.5 20.5t55 6.5q37 0 67.5 -7
t52.5 -24.5t33.5 -46t10.5 -70.5h95zM336 765h70l136 143h-113z" />
    <glyph glyph-name="oe" unicode="&#x153;" horiz-adv-x="481" 
d="M440 365q0 45 -17 76.5t-44.5 51t-62.5 28t-71 8.5t-70.5 -10t-61.5 -28.5t-43.5 -46.5t-16.5 -64q0 -29 11.5 -51t31 -38.5t44 -28.5t50.5 -22q25 -11 49.5 -20.5t44 -20.5t31 -24.5t11.5 -32.5q0 -22 -10.5 -37t-27.5 -24.5t-38 -13.5t-42 -4q-27 0 -51.5 5t-43 16.5
t-29 30.5t-8.5 48h-85q0 -50 16 -83.5t44 -53.5t66.5 -29t82.5 -9q37 0 75 9t68 28t49 49.5t19 73.5q0 30 -12 52.5t-31 39.5t-44 29.5t-50 23.5l-50 19.5t-43.5 20.5t-31 24t-11.5 31q0 19 10 32t25.5 20.5t35 10.5t39.5 3q22 0 42 -5.5t35 -17t23 -28t7 -38.5h85zM223 588
h70l136 143h-113z" />
    <glyph glyph-name="Ydieresis" unicode="&#x178;" horiz-adv-x="444" 
d="M-53 0h421l14 75h-309l363 381l13 61h-393l-15 -75h278l-360 -378zM228 588h70l136 143h-113z" />
    <glyph glyph-name="Scaron" horiz-adv-x="648" 
d="M614 503q2 60 -18.5 103t-56.5 70.5t-83.5 41t-100.5 13.5q-48 0 -94.5 -13t-83 -39t-59.5 -64.5t-23 -90.5q0 -39 13 -69t35 -52t51 -36t61 -23l97 -26q26 -7 49 -16t40.5 -22.5t27.5 -33t10 -46.5q0 -36 -15.5 -62t-40.5 -42.5t-57.5 -24.5t-65.5 -8q-44 0 -79.5 8.5
t-61 28.5t-38.5 53t-11 81h-95q-5 -66 14.5 -113t57 -78t91 -45.5t118.5 -14.5q48 0 97.5 13t89.5 40t65.5 68t25.5 96q0 48 -14.5 81t-38.5 54.5t-55 35t-64 22.5l-96 26q-24 7 -45.5 16t-37 22.5t-24.5 32t-9 44.5q0 32 16 54t40.5 36t53.5 20.5t55 6.5q37 0 67.5 -7
t52.5 -24.5t33.5 -46t10.5 -70.5h95zM576 908h-78l-93 -93l-51 93h-76l77 -143h86z" />
    <glyph glyph-name="Scaron" unicode="&#x160;" horiz-adv-x="648" 
d="M614 503q2 60 -18.5 103t-56.5 70.5t-83.5 41t-100.5 13.5q-48 0 -94.5 -13t-83 -39t-59.5 -64.5t-23 -90.5q0 -39 13 -69t35 -52t51 -36t61 -23l97 -26q26 -7 49 -16t40.5 -22.5t27.5 -33t10 -46.5q0 -36 -15.5 -62t-40.5 -42.5t-57.5 -24.5t-65.5 -8q-44 0 -79.5 8.5
t-61 28.5t-38.5 53t-11 81h-95q-5 -66 14.5 -113t57 -78t91 -45.5t118.5 -14.5q48 0 97.5 13t89.5 40t65.5 68t25.5 96q0 48 -14.5 81t-38.5 54.5t-55 35t-64 22.5l-96 26q-24 7 -45.5 16t-37 22.5t-24.5 32t-9 44.5q0 32 16 54t40.5 36t53.5 20.5t55 6.5q37 0 67.5 -7
t52.5 -24.5t33.5 -46t10.5 -70.5h95zM576 908h-78l-93 -93l-51 93h-76l77 -143h86z" />
    <glyph glyph-name="Sacute" horiz-adv-x="648" 
d="M614 503q2 60 -18.5 103t-56.5 70.5t-83.5 41t-100.5 13.5q-48 0 -94.5 -13t-83 -39t-59.5 -64.5t-23 -90.5q0 -39 13 -69t35 -52t51 -36t61 -23l97 -26q26 -7 49 -16t40.5 -22.5t27.5 -33t10 -46.5q0 -36 -15.5 -62t-40.5 -42.5t-57.5 -24.5t-65.5 -8q-44 0 -79.5 8.5
t-61 28.5t-38.5 53t-11 81h-95q-5 -66 14.5 -113t57 -78t91 -45.5t118.5 -14.5q48 0 97.5 13t89.5 40t65.5 68t25.5 96q0 48 -14.5 81t-38.5 54.5t-55 35t-64 22.5l-96 26q-24 7 -45.5 16t-37 22.5t-24.5 32t-9 44.5q0 32 16 54t40.5 36t53.5 20.5t55 6.5q37 0 67.5 -7
t52.5 -24.5t33.5 -46t10.5 -70.5h95zM336 765h70l136 143h-113z" />
    <glyph glyph-name="Sacute" unicode="&#x15a;" horiz-adv-x="648" 
d="M614 503q2 60 -18.5 103t-56.5 70.5t-83.5 41t-100.5 13.5q-48 0 -94.5 -13t-83 -39t-59.5 -64.5t-23 -90.5q0 -39 13 -69t35 -52t51 -36t61 -23l97 -26q26 -7 49 -16t40.5 -22.5t27.5 -33t10 -46.5q0 -36 -15.5 -62t-40.5 -42.5t-57.5 -24.5t-65.5 -8q-44 0 -79.5 8.5
t-61 28.5t-38.5 53t-11 81h-95q-5 -66 14.5 -113t57 -78t91 -45.5t118.5 -14.5q48 0 97.5 13t89.5 40t65.5 68t25.5 96q0 48 -14.5 81t-38.5 54.5t-55 35t-64 22.5l-96 26q-24 7 -45.5 16t-37 22.5t-24.5 32t-9 44.5q0 32 16 54t40.5 36t53.5 20.5t55 6.5q37 0 67.5 -7
t52.5 -24.5t33.5 -46t10.5 -70.5h95zM336 765h70l136 143h-113z" />
    <glyph glyph-name="Tcaron" horiz-adv-x="574" 
d="M653 714h-576l-17 -80h240l-134 -634h95l134 634h240zM551 908h-78l-93 -93l-51 93h-76l77 -143h86z" />
    <glyph glyph-name="Tcaron" unicode="&#x164;" horiz-adv-x="574" 
d="M653 714h-576l-17 -80h240l-134 -634h95l134 634h240zM551 908h-78l-93 -93l-51 93h-76l77 -143h86z" />
    <glyph glyph-name="Zcaron" horiz-adv-x="611" 
d="M-38 0h567l17 80h-456l540 553l17 81h-521l-20 -80h409l-536 -555zM572 908h-78l-93 -93l-51 93h-76l77 -143h86z" />
    <glyph glyph-name="Zcaron" unicode="&#x17d;" horiz-adv-x="611" 
d="M-38 0h567l17 80h-456l540 553l17 81h-521l-20 -80h409l-536 -555zM572 908h-78l-93 -93l-51 93h-76l77 -143h86z" />
    <glyph glyph-name="Zacute" horiz-adv-x="611" 
d="M-38 0h567l17 80h-456l540 553l17 81h-521l-20 -80h409l-536 -555zM352 765h70l136 143h-113z" />
    <glyph glyph-name="Zacute" unicode="&#x179;" horiz-adv-x="611" 
d="M-38 0h567l17 80h-456l540 553l17 81h-521l-20 -80h409l-536 -555zM352 765h70l136 143h-113z" />
    <glyph glyph-name="scaron" horiz-adv-x="481" 
d="M440 365q0 45 -17 76.5t-44.5 51t-62.5 28t-71 8.5t-70.5 -10t-61.5 -28.5t-43.5 -46.5t-16.5 -64q0 -29 11.5 -51t31 -38.5t44 -28.5t50.5 -22q25 -11 49.5 -20.5t44 -20.5t31 -24.5t11.5 -32.5q0 -22 -10.5 -37t-27.5 -24.5t-38 -13.5t-42 -4q-27 0 -51.5 5t-43 16.5
t-29 30.5t-8.5 48h-85q0 -50 16 -83.5t44 -53.5t66.5 -29t82.5 -9q37 0 75 9t68 28t49 49.5t19 73.5q0 30 -12 52.5t-31 39.5t-44 29.5t-50 23.5l-50 19.5t-43.5 20.5t-31 24t-11.5 31q0 19 10 32t25.5 20.5t35 10.5t39.5 3q22 0 42 -5.5t35 -17t23 -28t7 -38.5h85zM447 731
h-78l-93 -93l-51 93h-76l77 -143h86z" />
    <glyph glyph-name="scaron" unicode="&#x161;" horiz-adv-x="481" 
d="M440 365q0 45 -17 76.5t-44.5 51t-62.5 28t-71 8.5t-70.5 -10t-61.5 -28.5t-43.5 -46.5t-16.5 -64q0 -29 11.5 -51t31 -38.5t44 -28.5t50.5 -22q25 -11 49.5 -20.5t44 -20.5t31 -24.5t11.5 -32.5q0 -22 -10.5 -37t-27.5 -24.5t-38 -13.5t-42 -4q-27 0 -51.5 5t-43 16.5
t-29 30.5t-8.5 48h-85q0 -50 16 -83.5t44 -53.5t66.5 -29t82.5 -9q37 0 75 9t68 28t49 49.5t19 73.5q0 30 -12 52.5t-31 39.5t-44 29.5t-50 23.5l-50 19.5t-43.5 20.5t-31 24t-11.5 31q0 19 10 32t25.5 20.5t35 10.5t39.5 3q22 0 42 -5.5t35 -17t23 -28t7 -38.5h85zM447 731
h-78l-93 -93l-51 93h-76l77 -143h86z" />
    <glyph glyph-name="sacute" horiz-adv-x="481" 
d="M440 365q0 45 -17 76.5t-44.5 51t-62.5 28t-71 8.5t-70.5 -10t-61.5 -28.5t-43.5 -46.5t-16.5 -64q0 -29 11.5 -51t31 -38.5t44 -28.5t50.5 -22q25 -11 49.5 -20.5t44 -20.5t31 -24.5t11.5 -32.5q0 -22 -10.5 -37t-27.5 -24.5t-38 -13.5t-42 -4q-27 0 -51.5 5t-43 16.5
t-29 30.5t-8.5 48h-85q0 -50 16 -83.5t44 -53.5t66.5 -29t82.5 -9q37 0 75 9t68 28t49 49.5t19 73.5q0 30 -12 52.5t-31 39.5t-44 29.5t-50 23.5l-50 19.5t-43.5 20.5t-31 24t-11.5 31q0 19 10 32t25.5 20.5t35 10.5t39.5 3q22 0 42 -5.5t35 -17t23 -28t7 -38.5h85zM223 588
h70l136 143h-113z" />
    <glyph glyph-name="sacute" unicode="&#x15b;" horiz-adv-x="481" 
d="M440 365q0 45 -17 76.5t-44.5 51t-62.5 28t-71 8.5t-70.5 -10t-61.5 -28.5t-43.5 -46.5t-16.5 -64q0 -29 11.5 -51t31 -38.5t44 -28.5t50.5 -22q25 -11 49.5 -20.5t44 -20.5t31 -24.5t11.5 -32.5q0 -22 -10.5 -37t-27.5 -24.5t-38 -13.5t-42 -4q-27 0 -51.5 5t-43 16.5
t-29 30.5t-8.5 48h-85q0 -50 16 -83.5t44 -53.5t66.5 -29t82.5 -9q37 0 75 9t68 28t49 49.5t19 73.5q0 30 -12 52.5t-31 39.5t-44 29.5t-50 23.5l-50 19.5t-43.5 20.5t-31 24t-11.5 31q0 19 10 32t25.5 20.5t35 10.5t39.5 3q22 0 42 -5.5t35 -17t23 -28t7 -38.5h85zM223 588
h70l136 143h-113z" />
    <glyph glyph-name="tcaron" horiz-adv-x="338" 
d="M318 664h44q-3 -13 -7 -26t-11 -24t-17 -18.5t-25 -9.5l-8 -37q41 3 63.5 23t34.5 48.5t18 63t14 67.5h-87zM253 670h-85l-32 -153h-87l-16 -75h87l-68 -321q-2 -12 -3.5 -22t-1.5 -21q0 -25 9.5 -41t25 -25.5t36.5 -13.5t45 -4q30 0 60 6l15 78q-12 -4 -24 -6.5
t-25 -2.5q-20 0 -35.5 7.5t-15.5 27.5q0 9 1 17t2 17l64 304h103l16 75h-103z" />
    <glyph glyph-name="tcaron" unicode="&#x165;" horiz-adv-x="338" 
d="M318 664h44q-3 -13 -7 -26t-11 -24t-17 -18.5t-25 -9.5l-8 -37q41 3 63.5 23t34.5 48.5t18 63t14 67.5h-87zM253 670h-85l-32 -153h-87l-16 -75h87l-68 -321q-2 -12 -3.5 -22t-1.5 -21q0 -25 9.5 -41t25 -25.5t36.5 -13.5t45 -4q30 0 60 6l15 78q-12 -4 -24 -6.5
t-25 -2.5q-20 0 -35.5 7.5t-15.5 27.5q0 9 1 17t2 17l64 304h103l16 75h-103z" />
    <glyph glyph-name="zcaron" horiz-adv-x="444" 
d="M-53 0h421l14 75h-309l363 381l13 61h-393l-15 -75h278l-360 -378zM438 731h-78l-93 -93l-51 93h-76l77 -143h86z" />
    <glyph glyph-name="zcaron" unicode="&#x17e;" horiz-adv-x="444" 
d="M-53 0h421l14 75h-309l363 381l13 61h-393l-15 -75h278l-360 -378zM438 731h-78l-93 -93l-51 93h-76l77 -143h86z" />
    <glyph glyph-name="zacute" horiz-adv-x="444" 
d="M-53 0h421l14 75h-309l363 381l13 61h-393l-15 -75h278l-360 -378zM228 588h70l136 143h-113z" />
    <glyph glyph-name="zacute" unicode="&#x17a;" horiz-adv-x="444" 
d="M-53 0h421l14 75h-309l363 381l13 61h-393l-15 -75h278l-360 -378zM228 588h70l136 143h-113z" />
    <glyph glyph-name="Lslash" unicode="&#xa3;" 
d="M7 0h473l17 80h-377l46 222l221 135l17 83l-221 -136l69 330h-95l-83 -397l-78 -48l-17 -82l78 48z" />
    <glyph glyph-name="Lslash" unicode="&#x141;" 
d="M7 0h473l17 80h-377l46 222l221 135l17 83l-221 -136l69 330h-95l-83 -397l-78 -48l-17 -82l78 48z" />
    <glyph glyph-name="Aogonek" unicode="&#xa5;" horiz-adv-x="667" 
d="M410 630h2l53 -335h-246zM-55 0h106l125 215h301l33 -215h20q-24 -15 -46.5 -32t-40 -34.5t-27.5 -36t-10 -36.5q0 -22 8 -35.5t21 -21.5t29 -11t31 -3q39 0 67.5 13.5t57.5 48.5l-37 12q-20 -15 -37.5 -19.5t-34.5 -4.5q-37 0 -37 37q0 15 15.5 34t36 36.5t41 32
t30.5 20.5h11l-129 714h-104z" />
    <glyph glyph-name="Aogonek" unicode="&#x104;" horiz-adv-x="667" 
d="M410 630h2l53 -335h-246zM-55 0h106l125 215h301l33 -215h20q-24 -15 -46.5 -32t-40 -34.5t-27.5 -36t-10 -36.5q0 -22 8 -35.5t21 -21.5t29 -11t31 -3q39 0 67.5 13.5t57.5 48.5l-37 12q-20 -15 -37.5 -19.5t-34.5 -4.5q-37 0 -37 37q0 15 15.5 34t36 36.5t41 32
t30.5 20.5h11l-129 714h-104z" />
    <glyph glyph-name="brokenbar" unicode="&#xa6;" horiz-adv-x="222" 
d="M77 -89h68v250h-68v-250zM145 661h-68v-250h68v250z" />
    <glyph glyph-name="Scommaaccent" horiz-adv-x="648" 
d="M614 503q2 60 -18.5 103t-56.5 70.5t-83.5 41t-100.5 13.5q-48 0 -94.5 -13t-83 -39t-59.5 -64.5t-23 -90.5q0 -39 13 -69t35 -52t51 -36t61 -23l97 -26q26 -7 49 -16t40.5 -22.5t27.5 -33t10 -46.5q0 -36 -15.5 -62t-40.5 -42.5t-57.5 -24.5t-65.5 -8q-44 0 -79.5 8.5
t-61 28.5t-38.5 53t-11 81h-95q-5 -66 14.5 -113t57 -78t91 -45.5t118.5 -14.5q48 0 97.5 13t89.5 40t65.5 68t25.5 96q0 48 -14.5 81t-38.5 54.5t-55 35t-64 22.5l-96 26q-24 7 -45.5 16t-37 22.5t-24.5 32t-9 44.5q0 32 16 54t40.5 36t53.5 20.5t55 6.5q37 0 67.5 -7
t52.5 -24.5t33.5 -46t10.5 -70.5h95zM212 -141h44q-3 -13 -7 -26t-11 -24t-17 -18.5t-25 -9.5l-8 -37q41 3 63.5 23t34.5 48.5t18 63t14 67.5h-87z" />
    <glyph glyph-name="Zdotaccent" unicode="&#xaf;" horiz-adv-x="611" 
d="M-38 0h567l17 80h-456l540 553l17 81h-521l-20 -80h409l-536 -555zM352 787h89l21 104h-89z" />
    <glyph glyph-name="Zdotaccent" unicode="&#x17b;" horiz-adv-x="611" 
d="M-38 0h567l17 80h-456l540 553l17 81h-521l-20 -80h409l-536 -555zM352 787h89l21 104h-89z" />
    <glyph glyph-name="lslash" unicode="&#xb3;" horiz-adv-x="222" 
d="M145 714l-68 -312l-74 -57l-10 -77l70 54l-68 -322h85l81 397l74 57l10 78l-66 -52l-2 2l53 232h-85z" />
    <glyph glyph-name="lslash" unicode="&#x142;" horiz-adv-x="222" 
d="M145 714l-68 -312l-74 -57l-10 -77l70 54l-68 -322h85l81 397l74 57l10 78l-66 -52l-2 2l53 232h-85z" />
    <glyph glyph-name="aogonek" unicode="&#xb9;" horiz-adv-x="519" 
d="M75 135q0 25 9.5 41.5t25 27t36.5 16.5t44 9t47 5.5t45.5 6.5t40.5 9.5t33 13.5h2q-9 -36 -16.5 -70t-28.5 -63q-44 -68 -145 -68q-36 0 -64.5 18t-28.5 54zM455 63l-13.5 -4.5t-13.5 -2.5q-11 0 -18 7t-7 25t5.5 38t8.5 36l33 141q5 21 10.5 46.5t5.5 47.5
q0 39 -15.5 64.5t-41.5 40.5t-60.5 21t-71.5 6q-41 0 -79 -10t-68 -31t-50.5 -52.5t-26.5 -74.5h85q4 25 17 42.5t32 29t42.5 16.5t47.5 5q17 0 35.5 -3t33.5 -10.5t25 -20.5t10 -34q0 -26 -7.5 -41t-23.5 -23t-40.5 -11.5t-58.5 -6.5q-43 -4 -89 -10t-84.5 -22.5t-63 -49
t-24.5 -88.5q0 -40 12.5 -67.5t34 -45t50.5 -25.5t61 -8q66 0 106 19.5t67 55.5l2 -2q-6 -51 34 -67q-23 -15 -44 -31t-37 -33t-25 -34t-9 -35q0 -22 8 -35.5t21 -21.5t29 -11t31 -3q39 0 67.5 13.5t57.5 48.5l-37 12q-20 -15 -37.5 -19.5t-34.5 -4.5q-37 0 -37 37
q0 14 13 31t31.5 33.5t37.5 30.5t31 22q12 2 19 6z" />
    <glyph glyph-name="aogonek" unicode="&#x105;" horiz-adv-x="519" 
d="M75 135q0 25 9.5 41.5t25 27t36.5 16.5t44 9t47 5.5t45.5 6.5t40.5 9.5t33 13.5h2q-9 -36 -16.5 -70t-28.5 -63q-44 -68 -145 -68q-36 0 -64.5 18t-28.5 54zM455 63l-13.5 -4.5t-13.5 -2.5q-11 0 -18 7t-7 25t5.5 38t8.5 36l33 141q5 21 10.5 46.5t5.5 47.5
q0 39 -15.5 64.5t-41.5 40.5t-60.5 21t-71.5 6q-41 0 -79 -10t-68 -31t-50.5 -52.5t-26.5 -74.5h85q4 25 17 42.5t32 29t42.5 16.5t47.5 5q17 0 35.5 -3t33.5 -10.5t25 -20.5t10 -34q0 -26 -7.5 -41t-23.5 -23t-40.5 -11.5t-58.5 -6.5q-43 -4 -89 -10t-84.5 -22.5t-63 -49
t-24.5 -88.5q0 -40 12.5 -67.5t34 -45t50.5 -25.5t61 -8q66 0 106 19.5t67 55.5l2 -2q-6 -51 34 -67q-23 -15 -44 -31t-37 -33t-25 -34t-9 -35q0 -22 8 -35.5t21 -21.5t29 -11t31 -3q39 0 67.5 13.5t57.5 48.5l-37 12q-20 -15 -37.5 -19.5t-34.5 -4.5q-37 0 -37 37
q0 14 13 31t31.5 33.5t37.5 30.5t31 22q12 2 19 6z" />
    <glyph glyph-name="scommaaccent" horiz-adv-x="481" 
d="M440 365q0 45 -17 76.5t-44.5 51t-62.5 28t-71 8.5t-70.5 -10t-61.5 -28.5t-43.5 -46.5t-16.5 -64q0 -29 11.5 -51t31 -38.5t44 -28.5t50.5 -22q25 -11 49.5 -20.5t44 -20.5t31 -24.5t11.5 -32.5q0 -22 -10.5 -37t-27.5 -24.5t-38 -13.5t-42 -4q-27 0 -51.5 5t-43 16.5
t-29 30.5t-8.5 48h-85q0 -50 16 -83.5t44 -53.5t66.5 -29t82.5 -9q37 0 75 9t68 28t49 49.5t19 73.5q0 30 -12 52.5t-31 39.5t-44 29.5t-50 23.5l-50 19.5t-43.5 20.5t-31 24t-11.5 31q0 19 10 32t25.5 20.5t35 10.5t39.5 3q22 0 42 -5.5t35 -17t23 -28t7 -38.5h85z
M129 -141h44q-3 -13 -7 -26t-11 -24t-17 -18.5t-25 -9.5l-8 -37q41 3 63.5 23t34.5 48.5t18 63t14 67.5h-87z" />
    <glyph glyph-name="Lcaron" unicode="&#xbc;" 
d="M7 0h473l17 80h-377l132 634h-95zM316 627h44q-3 -13 -7 -26t-11 -24t-17 -18.5t-25 -9.5l-8 -37q41 3 63.5 23t34.5 48.5t18 63t14 67.5h-87z" />
    <glyph glyph-name="Lcaron" unicode="&#x13d;" 
d="M7 0h473l17 80h-377l132 634h-95zM316 627h44q-3 -13 -7 -26t-11 -24t-17 -18.5t-25 -9.5l-8 -37q41 3 63.5 23t34.5 48.5t18 63t14 67.5h-87z" />
    <glyph glyph-name="lcaron" unicode="&#xbe;" horiz-adv-x="305" 
d="M-5 0h85l150 714h-85zM277 627h44q-3 -13 -7 -26t-11 -24t-17 -18.5t-25 -9.5l-8 -37q41 3 63.5 23t34.5 48.5t18 63t14 67.5h-87z" />
    <glyph glyph-name="lcaron" unicode="&#x13e;" horiz-adv-x="305" 
d="M-5 0h85l150 714h-85zM277 627h44q-3 -13 -7 -26t-11 -24t-17 -18.5t-25 -9.5l-8 -37q41 3 63.5 23t34.5 48.5t18 63t14 67.5h-87z" />
    <glyph glyph-name="zdotaccent" unicode="&#xbf;" horiz-adv-x="444" 
d="M-53 0h421l14 75h-309l363 381l13 61h-393l-15 -75h278l-360 -378zM228 610h89l21 104h-89z" />
    <glyph glyph-name="zdotaccent" unicode="&#x17c;" horiz-adv-x="444" 
d="M-53 0h421l14 75h-309l363 381l13 61h-393l-15 -75h278l-360 -378zM228 610h89l21 104h-89z" />
    <glyph glyph-name="Racute" unicode="&#xc0;" horiz-adv-x="685" 
d="M236 634h197q27 0 52 -4.5t44.5 -16.5t31.5 -33t12 -54q0 -19 -6.5 -43.5t-25.5 -46t-53.5 -36.5t-90.5 -15h-214zM7 0h95l64 305h211h38t42 -12.5t28.5 -44t-1.5 -95.5q-11 -55 -10 -94t8 -59h99q-11 21 -13 43.5t0 45t6 46.5t6 48q3 27 0.5 52t-11 45.5t-24 35.5
t-38.5 22v2q36 5 65.5 22.5t50.5 43t33 58t12 68.5q0 53 -19.5 88t-52.5 56t-75.5 29.5t-87.5 8.5h-275zM373 765h70l136 143h-113z" />
    <glyph glyph-name="Racute" unicode="&#x154;" horiz-adv-x="685" 
d="M236 634h197q27 0 52 -4.5t44.5 -16.5t31.5 -33t12 -54q0 -19 -6.5 -43.5t-25.5 -46t-53.5 -36.5t-90.5 -15h-214zM7 0h95l64 305h211h38t42 -12.5t28.5 -44t-1.5 -95.5q-11 -55 -10 -94t8 -59h99q-11 21 -13 43.5t0 45t6 46.5t6 48q3 27 0.5 52t-11 45.5t-24 35.5
t-38.5 22v2q36 5 65.5 22.5t50.5 43t33 58t12 68.5q0 53 -19.5 88t-52.5 56t-75.5 29.5t-87.5 8.5h-275zM373 765h70l136 143h-113z" />
    <glyph glyph-name="Abreve" unicode="&#xc3;" horiz-adv-x="667" 
d="M410 630h2l53 -335h-246zM-55 0h106l125 215h301l33 -215h98l-129 714h-104zM317 904q-2 -69 33 -104t102 -35q66 0 111.5 36t54.5 103h-45q-14 -45 -41 -64.5t-76 -19.5q-45 0 -69 19t-25 65h-45z" />
    <glyph glyph-name="Abreve" unicode="&#x102;" horiz-adv-x="667" 
d="M410 630h2l53 -335h-246zM-55 0h106l125 215h301l33 -215h98l-129 714h-104zM317 904q-2 -69 33 -104t102 -35q66 0 111.5 36t54.5 103h-45q-14 -45 -41 -64.5t-76 -19.5q-45 0 -69 19t-25 65h-45z" />
    <glyph glyph-name="Lacute" unicode="&#xc5;" 
d="M7 0h473l17 80h-377l132 634h-95zM184 765h70l136 143h-113z" />
    <glyph glyph-name="Lacute" unicode="&#x139;" 
d="M7 0h473l17 80h-377l132 634h-95zM184 765h70l136 143h-113z" />
    <glyph glyph-name="Cacute" unicode="&#xc6;" horiz-adv-x="722" 
d="M565 241q-23 -84 -78 -131t-143 -47q-54 0 -93.5 17t-65.5 47.5t-39 73.5t-13 95q0 64 18.5 128t55.5 114t92.5 81.5t130.5 31.5q78 0 127.5 -41.5t49.5 -125.5h95q0 62 -21 108.5t-57.5 77t-86 46t-107.5 15.5q-92 0 -164.5 -35.5t-123 -95.5t-77.5 -138.5t-27 -165.5
q0 -74 20.5 -132t59.5 -98.5t96 -61.5t130 -21q132 0 210.5 69t105.5 189h-95zM403 765h70l136 143h-113z" />
    <glyph glyph-name="Cacute" unicode="&#x106;" horiz-adv-x="722" 
d="M565 241q-23 -84 -78 -131t-143 -47q-54 0 -93.5 17t-65.5 47.5t-39 73.5t-13 95q0 64 18.5 128t55.5 114t92.5 81.5t130.5 31.5q78 0 127.5 -41.5t49.5 -125.5h95q0 62 -21 108.5t-57.5 77t-86 46t-107.5 15.5q-92 0 -164.5 -35.5t-123 -95.5t-77.5 -138.5t-27 -165.5
q0 -74 20.5 -132t59.5 -98.5t96 -61.5t130 -21q132 0 210.5 69t105.5 189h-95zM403 765h70l136 143h-113z" />
    <glyph glyph-name="Ccaron" unicode="&#xc8;" horiz-adv-x="722" 
d="M565 241q-23 -84 -78 -131t-143 -47q-54 0 -93.5 17t-65.5 47.5t-39 73.5t-13 95q0 64 18.5 128t55.5 114t92.5 81.5t130.5 31.5q78 0 127.5 -41.5t49.5 -125.5h95q0 62 -21 108.5t-57.5 77t-86 46t-107.5 15.5q-92 0 -164.5 -35.5t-123 -95.5t-77.5 -138.5t-27 -165.5
q0 -74 20.5 -132t59.5 -98.5t96 -61.5t130 -21q132 0 210.5 69t105.5 189h-95zM637 908h-78l-93 -93l-51 93h-76l77 -143h86z" />
    <glyph glyph-name="Ccaron" unicode="&#x10c;" horiz-adv-x="722" 
d="M565 241q-23 -84 -78 -131t-143 -47q-54 0 -93.5 17t-65.5 47.5t-39 73.5t-13 95q0 64 18.5 128t55.5 114t92.5 81.5t130.5 31.5q78 0 127.5 -41.5t49.5 -125.5h95q0 62 -21 108.5t-57.5 77t-86 46t-107.5 15.5q-92 0 -164.5 -35.5t-123 -95.5t-77.5 -138.5t-27 -165.5
q0 -74 20.5 -132t59.5 -98.5t96 -61.5t130 -21q132 0 210.5 69t105.5 189h-95zM637 908h-78l-93 -93l-51 93h-76l77 -143h86z" />
    <glyph glyph-name="Eogonek" unicode="&#xca;" horiz-adv-x="611" 
d="M7 0h430q-24 -15 -46.5 -32t-40 -34.5t-27.5 -36t-10 -36.5q0 -22 8 -35.5t21 -21.5t29 -11t31 -3q39 0 67.5 13.5t57.5 48.5l-37 12q-20 -15 -37.5 -19.5t-34.5 -4.5q-37 0 -37 37q0 15 15.5 34t36 36.5t41 32t30.5 20.5l18 80h-402l52 247h371l16 80h-370l48 227h397
l16 80h-492z" />
    <glyph glyph-name="Eogonek" unicode="&#x118;" horiz-adv-x="611" 
d="M7 0h430q-24 -15 -46.5 -32t-40 -34.5t-27.5 -36t-10 -36.5q0 -22 8 -35.5t21 -21.5t29 -11t31 -3q39 0 67.5 13.5t57.5 48.5l-37 12q-20 -15 -37.5 -19.5t-34.5 -4.5q-37 0 -37 37q0 15 15.5 34t36 36.5t41 32t30.5 20.5l18 80h-402l52 247h371l16 80h-370l48 227h397
l16 80h-492z" />
    <glyph glyph-name="Ecaron" unicode="&#xcc;" horiz-adv-x="611" 
d="M7 0h497l18 80h-402l52 247h371l16 80h-370l48 227h397l16 80h-492zM598 908h-78l-93 -93l-51 93h-76l77 -143h86z" />
    <glyph glyph-name="Ecaron" unicode="&#x11a;" horiz-adv-x="611" 
d="M7 0h497l18 80h-402l52 247h371l16 80h-370l48 227h397l16 80h-492zM598 908h-78l-93 -93l-51 93h-76l77 -143h86z" />
    <glyph glyph-name="Dcaron" unicode="&#xcf;" horiz-adv-x="704" 
d="M7 0h274q88 0 161.5 31t125.5 88.5t81 139t29 182.5q0 127 -68.5 200t-201.5 73h-250zM234 634h152q59 0 97.5 -17t60.5 -45t30.5 -65t8.5 -76q0 -65 -18.5 -128t-56 -112.5t-94 -80t-132.5 -30.5h-165zM600 908h-78l-93 -93l-51 93h-76l77 -143h86z" />
    <glyph glyph-name="Dcaron" unicode="&#x10e;" horiz-adv-x="704" 
d="M7 0h274q88 0 161.5 31t125.5 88.5t81 139t29 182.5q0 127 -68.5 200t-201.5 73h-250zM234 634h152q59 0 97.5 -17t60.5 -45t30.5 -65t8.5 -76q0 -65 -18.5 -128t-56 -112.5t-94 -80t-132.5 -30.5h-165zM600 908h-78l-93 -93l-51 93h-76l77 -143h86z" />
    <glyph glyph-name="Dcroat" unicode="&#xd0;" horiz-adv-x="704" 
d="M7 0h274q88 0 161.5 31t125.5 88.5t81 139t29 182.5q0 127 -68.5 200t-201.5 73h-250l-65 -307h-66l-14 -68h66zM234 634h152q59 0 97.5 -17t60.5 -45t30.5 -65t8.5 -76q0 -65 -18.5 -128t-56 -112.5t-94 -80t-132.5 -30.5h-165l55 259h200l14 68h-200z" />
    <glyph glyph-name="Dcroat" unicode="&#x110;" horiz-adv-x="704" 
d="M7 0h274q88 0 161.5 31t125.5 88.5t81 139t29 182.5q0 127 -68.5 200t-201.5 73h-250l-65 -307h-66l-14 -68h66zM234 634h152q59 0 97.5 -17t60.5 -45t30.5 -65t8.5 -76q0 -65 -18.5 -128t-56 -112.5t-94 -80t-132.5 -30.5h-165l55 259h200l14 68h-200z" />
    <glyph glyph-name="Nacute" unicode="&#xd1;" horiz-adv-x="722" 
d="M7 0h92l121 587h2l253 -587h102l151 714h-92l-119 -591h-2l-255 591h-102zM417 765h70l136 143h-113z" />
    <glyph glyph-name="Nacute" unicode="&#x143;" horiz-adv-x="722" 
d="M7 0h92l121 587h2l253 -587h102l151 714h-92l-119 -591h-2l-255 591h-102zM417 765h70l136 143h-113z" />
    <glyph glyph-name="Ncaron" unicode="&#xd2;" horiz-adv-x="722" 
d="M7 0h92l121 587h2l253 -587h102l151 714h-92l-119 -591h-2l-255 591h-102zM643 908h-78l-93 -93l-51 93h-76l77 -143h86z" />
    <glyph glyph-name="Ncaron" unicode="&#x147;" horiz-adv-x="722" 
d="M7 0h92l121 587h2l253 -587h102l151 714h-92l-119 -591h-2l-255 591h-102zM643 908h-78l-93 -93l-51 93h-76l77 -143h86z" />
    <glyph glyph-name="Ohungarumlaut" unicode="&#xd5;" horiz-adv-x="759" 
d="M38 296q0 -74 20.5 -132t59.5 -98.5t96 -61.5t130 -21q89 0 160.5 36t121 96t76 138t26.5 162q0 66 -20.5 124t-59 100.5t-94 67t-124.5 24.5q-92 0 -164.5 -35.5t-123 -95.5t-77.5 -138.5t-27 -165.5zM133 296q0 64 18.5 128t55.5 114t92.5 81.5t130.5 31.5
q49 0 87 -18.5t64 -50t39 -75t13 -92.5q0 -64 -18.5 -127t-55 -113t-90.5 -81t-125 -31q-54 0 -93.5 17t-65.5 47.5t-39 73.5t-13 95zM332 765h70l136 143h-113zM498 765h70l136 143h-113z" />
    <glyph glyph-name="Ohungarumlaut" unicode="&#x150;" horiz-adv-x="759" 
d="M38 296q0 -74 20.5 -132t59.5 -98.5t96 -61.5t130 -21q89 0 160.5 36t121 96t76 138t26.5 162q0 66 -20.5 124t-59 100.5t-94 67t-124.5 24.5q-92 0 -164.5 -35.5t-123 -95.5t-77.5 -138.5t-27 -165.5zM133 296q0 64 18.5 128t55.5 114t92.5 81.5t130.5 31.5
q49 0 87 -18.5t64 -50t39 -75t13 -92.5q0 -64 -18.5 -127t-55 -113t-90.5 -81t-125 -31q-54 0 -93.5 17t-65.5 47.5t-39 73.5t-13 95zM332 765h70l136 143h-113zM498 765h70l136 143h-113z" />
    <glyph glyph-name="multiply" unicode="&#xd7;" horiz-adv-x="600" 
d="M119 24l182 182l181 -182l48 48l-181 182l180 180l-48 48l-180 -180l-181 180l-48 -48l181 -180l-182 -182z" />
    <glyph glyph-name="Rcaron" unicode="&#xd8;" horiz-adv-x="685" 
d="M236 634h197q27 0 52 -4.5t44.5 -16.5t31.5 -33t12 -54q0 -19 -6.5 -43.5t-25.5 -46t-53.5 -36.5t-90.5 -15h-214zM7 0h95l64 305h211h38t42 -12.5t28.5 -44t-1.5 -95.5q-11 -55 -10 -94t8 -59h99q-11 21 -13 43.5t0 45t6 46.5t6 48q3 27 0.5 52t-11 45.5t-24 35.5
t-38.5 22v2q36 5 65.5 22.5t50.5 43t33 58t12 68.5q0 53 -19.5 88t-52.5 56t-75.5 29.5t-87.5 8.5h-275zM599 908h-78l-93 -93l-51 93h-76l77 -143h86z" />
    <glyph glyph-name="Rcaron" unicode="&#x158;" horiz-adv-x="685" 
d="M236 634h197q27 0 52 -4.5t44.5 -16.5t31.5 -33t12 -54q0 -19 -6.5 -43.5t-25.5 -46t-53.5 -36.5t-90.5 -15h-214zM7 0h95l64 305h211h38t42 -12.5t28.5 -44t-1.5 -95.5q-11 -55 -10 -94t8 -59h99q-11 21 -13 43.5t0 45t6 46.5t6 48q3 27 0.5 52t-11 45.5t-24 35.5
t-38.5 22v2q36 5 65.5 22.5t50.5 43t33 58t12 68.5q0 53 -19.5 88t-52.5 56t-75.5 29.5t-87.5 8.5h-275zM599 908h-78l-93 -93l-51 93h-76l77 -143h86z" />
    <glyph glyph-name="Uring" unicode="&#xd9;" horiz-adv-x="722" 
d="M728 714h-95l-90 -428q-11 -50 -24 -91.5t-37 -70.5t-61.5 -45t-95.5 -16q-104 0 -148.5 51.5t-20.5 155.5l94 444h-95l-89 -420q-31 -150 35 -230.5t224 -80.5q45 0 87.5 9.5t79 29.5t65 51.5t46.5 75.5q9 21 18 58t18 79zM385 839q0 29 19.5 48.5t48.5 19.5t48.5 -19.5
t19.5 -48.5t-19.5 -48.5t-48.5 -19.5t-48.5 19.5t-19.5 48.5zM340 839q0 -23 9 -43.5t24.5 -36t36 -24.5t43.5 -9t43.5 9t36 24.5t24.5 36t9 43.5t-9 43.5t-24.5 36t-36 24.5t-43.5 9t-43.5 -9t-36 -24.5t-24.5 -36t-9 -43.5z" />
    <glyph glyph-name="Uring" unicode="&#x16e;" horiz-adv-x="722" 
d="M728 714h-95l-90 -428q-11 -50 -24 -91.5t-37 -70.5t-61.5 -45t-95.5 -16q-104 0 -148.5 51.5t-20.5 155.5l94 444h-95l-89 -420q-31 -150 35 -230.5t224 -80.5q45 0 87.5 9.5t79 29.5t65 51.5t46.5 75.5q9 21 18 58t18 79zM385 839q0 29 19.5 48.5t48.5 19.5t48.5 -19.5
t19.5 -48.5t-19.5 -48.5t-48.5 -19.5t-48.5 19.5t-19.5 48.5zM340 839q0 -23 9 -43.5t24.5 -36t36 -24.5t43.5 -9t43.5 9t36 24.5t24.5 36t9 43.5t-9 43.5t-24.5 36t-36 24.5t-43.5 9t-43.5 -9t-36 -24.5t-24.5 -36t-9 -43.5z" />
    <glyph glyph-name="Uhungarumlaut" unicode="&#xdb;" horiz-adv-x="722" 
d="M728 714h-95l-90 -428q-11 -50 -24 -91.5t-37 -70.5t-61.5 -45t-95.5 -16q-104 0 -148.5 51.5t-20.5 155.5l94 444h-95l-89 -420q-31 -150 35 -230.5t224 -80.5q45 0 87.5 9.5t79 29.5t65 51.5t46.5 75.5q9 21 18 58t18 79zM323 765h70l136 143h-113zM489 765h70l136 143
h-113z" />
    <glyph glyph-name="Uhungarumlaut" unicode="&#x170;" horiz-adv-x="722" 
d="M728 714h-95l-90 -428q-11 -50 -24 -91.5t-37 -70.5t-61.5 -45t-95.5 -16q-104 0 -148.5 51.5t-20.5 155.5l94 444h-95l-89 -420q-31 -150 35 -230.5t224 -80.5q45 0 87.5 9.5t79 29.5t65 51.5t46.5 75.5q9 21 18 58t18 79zM323 765h70l136 143h-113zM489 765h70l136 143
h-113z" />
    <glyph glyph-name="Yacute" unicode="&#xdd;" horiz-adv-x="611" 
d="M193 0h93l62 287l346 427h-110l-271 -346l-146 346h-101l188 -427zM348 765h70l136 143h-113z" />
    <glyph glyph-name="Tcommaaccent" unicode="&#xde;" horiz-adv-x="574" 
d="M653 714h-576l-17 -80h240l-134 -634h95l134 634h240zM143 -141h44q-3 -13 -7 -26t-11 -24t-17 -18.5t-25 -9.5l-8 -37q41 3 63.5 23t34.5 48.5t18 63t14 67.5h-87z" />
    <glyph glyph-name="Tcommaaccent" unicode="&#x162;" horiz-adv-x="574" 
d="M653 714h-576l-17 -80h240l-134 -634h95l134 634h240zM143 -141h44q-3 -13 -7 -26t-11 -24t-17 -18.5t-25 -9.5l-8 -37q41 3 63.5 23t34.5 48.5t18 63t14 67.5h-87z" />
    <glyph glyph-name="racute" unicode="&#xe0;" horiz-adv-x="333" 
d="M-5 0h85l49 229q6 29 16 62.5t27 58.5q20 31 47.5 53t62.5 31q15 4 25 4.5t26 0.5h12q7 0 13 -1l20 91q-8 2 -15 1t-15 -1q-65 0 -111.5 -35t-76.5 -88h-2l25 111h-80zM123 588h70l136 143h-113z" />
    <glyph glyph-name="racute" unicode="&#x155;" horiz-adv-x="333" 
d="M-5 0h85l49 229q6 29 16 62.5t27 58.5q20 31 47.5 53t62.5 31q15 4 25 4.5t26 0.5h12q7 0 13 -1l20 91q-8 2 -15 1t-15 -1q-65 0 -111.5 -35t-76.5 -88h-2l25 111h-80zM123 588h70l136 143h-113z" />
    <glyph glyph-name="abreve" unicode="&#xe3;" horiz-adv-x="519" 
d="M75 135q0 25 9.5 41.5t25 27t36.5 16.5t44 9t47 5.5t45.5 6.5t40.5 9.5t33 13.5h2q-9 -36 -16.5 -70t-28.5 -63q-44 -68 -145 -68q-36 0 -64.5 18t-28.5 54zM138 361q4 25 17 42.5t32 29t42.5 16.5t47.5 5q17 0 35.5 -3t33.5 -10.5t25 -20.5t10 -34q0 -26 -7.5 -41
t-23.5 -23t-40.5 -11.5t-58.5 -6.5q-43 -4 -89 -10t-84.5 -22.5t-63 -49t-24.5 -88.5q0 -40 12.5 -67.5t34 -45t50.5 -25.5t61 -8q66 0 106 19.5t67 55.5l2 -2q-4 -34 14 -53.5t53 -19.5q11 0 26.5 3.5t25.5 8.5l13 63l-13.5 -4.5t-13.5 -2.5q-11 0 -18 7t-7 25t5.5 38
t8.5 36l33 141q5 21 10.5 46.5t5.5 47.5q0 39 -15.5 64.5t-41.5 40.5t-60.5 21t-71.5 6q-41 0 -79 -10t-68 -31t-50.5 -52.5t-26.5 -74.5h85zM203 731q-2 -69 33 -104t102 -35q66 0 111.5 36t54.5 103h-45q-14 -45 -41 -64.5t-76 -19.5q-45 0 -69 19t-25 65h-45z" />
    <glyph glyph-name="abreve" unicode="&#x103;" horiz-adv-x="519" 
d="M75 135q0 25 9.5 41.5t25 27t36.5 16.5t44 9t47 5.5t45.5 6.5t40.5 9.5t33 13.5h2q-9 -36 -16.5 -70t-28.5 -63q-44 -68 -145 -68q-36 0 -64.5 18t-28.5 54zM138 361q4 25 17 42.5t32 29t42.5 16.5t47.5 5q17 0 35.5 -3t33.5 -10.5t25 -20.5t10 -34q0 -26 -7.5 -41
t-23.5 -23t-40.5 -11.5t-58.5 -6.5q-43 -4 -89 -10t-84.5 -22.5t-63 -49t-24.5 -88.5q0 -40 12.5 -67.5t34 -45t50.5 -25.5t61 -8q66 0 106 19.5t67 55.5l2 -2q-4 -34 14 -53.5t53 -19.5q11 0 26.5 3.5t25.5 8.5l13 63l-13.5 -4.5t-13.5 -2.5q-11 0 -18 7t-7 25t5.5 38
t8.5 36l33 141q5 21 10.5 46.5t5.5 47.5q0 39 -15.5 64.5t-41.5 40.5t-60.5 21t-71.5 6q-41 0 -79 -10t-68 -31t-50.5 -52.5t-26.5 -74.5h85zM203 731q-2 -69 33 -104t102 -35q66 0 111.5 36t54.5 103h-45q-14 -45 -41 -64.5t-76 -19.5q-45 0 -69 19t-25 65h-45z" />
    <glyph glyph-name="lacute" unicode="&#xe5;" horiz-adv-x="222" 
d="M-5 0h85l150 714h-85zM161 765h70l136 143h-113z" />
    <glyph glyph-name="lacute" unicode="&#x13a;" horiz-adv-x="222" 
d="M-5 0h85l150 714h-85zM161 765h70l136 143h-113z" />
    <glyph glyph-name="cacute" unicode="&#xe6;" horiz-adv-x="537" 
d="M501 353q-3 91 -54.5 133.5t-139.5 42.5q-69 0 -122.5 -26.5t-90 -71t-55 -102t-18.5 -118.5q0 -105 53.5 -164t159.5 -59q90 0 151.5 47t84.5 134h-85q-18 -48 -57 -77t-94 -29q-36 0 -60.5 12t-39.5 32t-21.5 47t-6.5 57q0 42 13 85.5t38.5 78.5t63 57t86.5 22
q50 0 79.5 -26.5t29.5 -74.5h85zM295 588h70l136 143h-113z" />
    <glyph glyph-name="cacute" unicode="&#x107;" horiz-adv-x="537" 
d="M501 353q-3 91 -54.5 133.5t-139.5 42.5q-69 0 -122.5 -26.5t-90 -71t-55 -102t-18.5 -118.5q0 -105 53.5 -164t159.5 -59q90 0 151.5 47t84.5 134h-85q-18 -48 -57 -77t-94 -29q-36 0 -60.5 12t-39.5 32t-21.5 47t-6.5 57q0 42 13 85.5t38.5 78.5t63 57t86.5 22
q50 0 79.5 -26.5t29.5 -74.5h85zM295 588h70l136 143h-113z" />
    <glyph glyph-name="ccaron" unicode="&#xe8;" horiz-adv-x="537" 
d="M501 353q-3 91 -54.5 133.5t-139.5 42.5q-69 0 -122.5 -26.5t-90 -71t-55 -102t-18.5 -118.5q0 -105 53.5 -164t159.5 -59q90 0 151.5 47t84.5 134h-85q-18 -48 -57 -77t-94 -29q-36 0 -60.5 12t-39.5 32t-21.5 47t-6.5 57q0 42 13 85.5t38.5 78.5t63 57t86.5 22
q50 0 79.5 -26.5t29.5 -74.5h85zM521 731h-78l-93 -93l-51 93h-76l77 -143h86z" />
    <glyph glyph-name="ccaron" unicode="&#x10d;" horiz-adv-x="537" 
d="M501 353q-3 91 -54.5 133.5t-139.5 42.5q-69 0 -122.5 -26.5t-90 -71t-55 -102t-18.5 -118.5q0 -105 53.5 -164t159.5 -59q90 0 151.5 47t84.5 134h-85q-18 -48 -57 -77t-94 -29q-36 0 -60.5 12t-39.5 32t-21.5 47t-6.5 57q0 42 13 85.5t38.5 78.5t63 57t86.5 22
q50 0 79.5 -26.5t29.5 -74.5h85zM521 731h-78l-93 -93l-51 93h-76l77 -143h86z" />
    <glyph glyph-name="eogonek" unicode="&#xea;" horiz-adv-x="537" 
d="M110 308q9 30 24.5 56.5t37 46.5t50.5 31.5t67 11.5q35 0 59.5 -12.5t38.5 -33t19.5 -47t3.5 -53.5h-300zM487 233q2 11 5 29t3 38q0 109 -52.5 169t-166.5 60q-53 0 -101.5 -24t-85 -68t-58 -105.5t-21.5 -135.5q0 -34 10 -70.5t35 -67t67.5 -50.5t106.5 -20h1
q-44 -29 -75.5 -61t-31.5 -66q0 -22 8 -35.5t21 -21.5t29 -11t31 -3q39 0 67.5 13.5t57.5 48.5l-37 12q-20 -15 -37.5 -19.5t-34.5 -4.5q-37 0 -37 37q0 14 14.5 32.5t35 36.5t43 33t39.5 23q30 14 52 29t38.5 33.5t28.5 42t21 55.5h-85q-18 -48 -55.5 -73.5t-93.5 -25.5
q-26 0 -50 8.5t-43 24t-30 39t-11 53.5q0 22 3 45h389z" />
    <glyph glyph-name="eogonek" unicode="&#x119;" horiz-adv-x="537" 
d="M110 308q9 30 24.5 56.5t37 46.5t50.5 31.5t67 11.5q35 0 59.5 -12.5t38.5 -33t19.5 -47t3.5 -53.5h-300zM487 233q2 11 5 29t3 38q0 109 -52.5 169t-166.5 60q-53 0 -101.5 -24t-85 -68t-58 -105.5t-21.5 -135.5q0 -34 10 -70.5t35 -67t67.5 -50.5t106.5 -20h1
q-44 -29 -75.5 -61t-31.5 -66q0 -22 8 -35.5t21 -21.5t29 -11t31 -3q39 0 67.5 13.5t57.5 48.5l-37 12q-20 -15 -37.5 -19.5t-34.5 -4.5q-37 0 -37 37q0 14 14.5 32.5t35 36.5t43 33t39.5 23q30 14 52 29t38.5 33.5t28.5 42t21 55.5h-85q-18 -48 -55.5 -73.5t-93.5 -25.5
q-26 0 -50 8.5t-43 24t-30 39t-11 53.5q0 22 3 45h389z" />
    <glyph glyph-name="ecaron" unicode="&#xec;" horiz-adv-x="537" 
d="M110 308q9 30 24.5 56.5t37 46.5t50.5 31.5t67 11.5q35 0 59.5 -12.5t38.5 -33t19.5 -47t3.5 -53.5h-300zM487 233q2 11 5 29t3 38q0 109 -52.5 169t-166.5 60q-53 0 -101.5 -24t-85 -68t-58 -105.5t-21.5 -135.5q0 -34 10 -70.5t35 -67t67.5 -50.5t106.5 -20q42 0 80 11
t69 33t53 54.5t32 75.5h-85q-18 -48 -55.5 -73.5t-93.5 -25.5q-26 0 -50 8.5t-43 24t-30 39t-11 53.5q0 22 3 45h389zM497 731h-78l-93 -93l-51 93h-76l77 -143h86z" />
    <glyph glyph-name="ecaron" unicode="&#x11b;" horiz-adv-x="537" 
d="M110 308q9 30 24.5 56.5t37 46.5t50.5 31.5t67 11.5q35 0 59.5 -12.5t38.5 -33t19.5 -47t3.5 -53.5h-300zM487 233q2 11 5 29t3 38q0 109 -52.5 169t-166.5 60q-53 0 -101.5 -24t-85 -68t-58 -105.5t-21.5 -135.5q0 -34 10 -70.5t35 -67t67.5 -50.5t106.5 -20q42 0 80 11
t69 33t53 54.5t32 75.5h-85q-18 -48 -55.5 -73.5t-93.5 -25.5q-26 0 -50 8.5t-43 24t-30 39t-11 53.5q0 22 3 45h389zM497 731h-78l-93 -93l-51 93h-76l77 -143h86z" />
    <glyph glyph-name="dcaron" unicode="&#xef;" horiz-adv-x="682" 
d="M102 200q0 43 13 88t39 82t64 60.5t89 23.5q63 0 96.5 -38t33.5 -96q0 -41 -13.5 -86t-39 -83t-63.5 -63t-86 -25q-70 0 -101.5 37t-31.5 100zM606 714h-84l-55 -276h-2q-8 26 -25 43.5t-39.5 28t-47.5 15t-49 4.5q-68 0 -121.5 -29.5t-90 -76.5t-56 -105.5t-19.5 -117.5
q0 -47 13 -86t39 -67t63.5 -43.5t87.5 -15.5q52 0 92.5 18t78.5 68h2l-18 -74h80zM654 627h44q-3 -13 -7 -26t-11 -24t-17 -18.5t-25 -9.5l-8 -37q41 3 63.5 23t34.5 48.5t18 63t14 67.5h-87z" />
    <glyph glyph-name="dcaron" unicode="&#x10f;" horiz-adv-x="682" 
d="M102 200q0 43 13 88t39 82t64 60.5t89 23.5q63 0 96.5 -38t33.5 -96q0 -41 -13.5 -86t-39 -83t-63.5 -63t-86 -25q-70 0 -101.5 37t-31.5 100zM606 714h-84l-55 -276h-2q-8 26 -25 43.5t-39.5 28t-47.5 15t-49 4.5q-68 0 -121.5 -29.5t-90 -76.5t-56 -105.5t-19.5 -117.5
q0 -47 13 -86t39 -67t63.5 -43.5t87.5 -15.5q52 0 92.5 18t78.5 68h2l-18 -74h80zM654 627h44q-3 -13 -7 -26t-11 -24t-17 -18.5t-25 -9.5l-8 -37q41 3 63.5 23t34.5 48.5t18 63t14 67.5h-87z" />
    <glyph glyph-name="dcroat" unicode="&#xf0;" horiz-adv-x="593" 
d="M102 200q0 43 13 88t39 82t64 60.5t89 23.5q63 0 96.5 -38t33.5 -96q0 -41 -13.5 -86t-39 -83t-63.5 -63t-86 -25q-70 0 -101.5 37t-31.5 100zM375 0h80l126 594h58l11 55h-58l14 65h-84l-13 -65h-128l-12 -55h129l-31 -156h-2q-8 26 -25 43.5t-39.5 28t-47.5 15t-49 4.5
q-68 0 -121.5 -29.5t-90 -76.5t-56 -105.5t-19.5 -117.5q0 -47 13 -86t39 -67t63.5 -43.5t87.5 -15.5q52 0 92.5 18t78.5 68h2z" />
    <glyph glyph-name="dcroat" unicode="&#x111;" horiz-adv-x="593" 
d="M102 200q0 43 13 88t39 82t64 60.5t89 23.5q63 0 96.5 -38t33.5 -96q0 -41 -13.5 -86t-39 -83t-63.5 -63t-86 -25q-70 0 -101.5 37t-31.5 100zM375 0h80l126 594h58l11 55h-58l14 65h-84l-13 -65h-128l-12 -55h129l-31 -156h-2q-8 26 -25 43.5t-39.5 28t-47.5 15t-49 4.5
q-68 0 -121.5 -29.5t-90 -76.5t-56 -105.5t-19.5 -117.5q0 -47 13 -86t39 -67t63.5 -43.5t87.5 -15.5q52 0 92.5 18t78.5 68h2z" />
    <glyph glyph-name="nacute" unicode="&#xf1;" 
d="M-5 0h85l60 286q8 31 21 59.5t36 48.5q24 26 58.5 43t69.5 17q38 0 64 -17.5t26 -54.5q0 -7 -1.5 -17.5l-3 -22t-4 -22.5t-3.5 -18l-66 -302h85l63 295q7 30 11 57t4 44q0 69 -35.5 101t-108.5 32q-54 0 -103 -23t-81 -67h-2l16 78h-82zM286 588h70l136 143h-113z" />
    <glyph glyph-name="nacute" unicode="&#x144;" 
d="M-5 0h85l60 286q8 31 21 59.5t36 48.5q24 26 58.5 43t69.5 17q38 0 64 -17.5t26 -54.5q0 -7 -1.5 -17.5l-3 -22t-4 -22.5t-3.5 -18l-66 -302h85l63 295q7 30 11 57t4 44q0 69 -35.5 101t-108.5 32q-54 0 -103 -23t-81 -67h-2l16 78h-82zM286 588h70l136 143h-113z" />
    <glyph glyph-name="ncaron" unicode="&#xf2;" 
d="M-5 0h85l60 286q8 31 21 59.5t36 48.5q24 26 58.5 43t69.5 17q38 0 64 -17.5t26 -54.5q0 -7 -1.5 -17.5l-3 -22t-4 -22.5t-3.5 -18l-66 -302h85l63 295q7 30 11 57t4 44q0 69 -35.5 101t-108.5 32q-54 0 -103 -23t-81 -67h-2l16 78h-82zM508 731h-78l-93 -93l-51 93h-76
l77 -143h86z" />
    <glyph glyph-name="ncaron" unicode="&#x148;" 
d="M-5 0h85l60 286q8 31 21 59.5t36 48.5q24 26 58.5 43t69.5 17q38 0 64 -17.5t26 -54.5q0 -7 -1.5 -17.5l-3 -22t-4 -22.5t-3.5 -18l-66 -302h85l63 295q7 30 11 57t4 44q0 69 -35.5 101t-108.5 32q-54 0 -103 -23t-81 -67h-2l16 78h-82zM508 731h-78l-93 -93l-51 93h-76
l77 -143h86z" />
    <glyph glyph-name="ohungarumlaut" unicode="&#xf5;" horiz-adv-x="574" 
d="M102 205q0 40 12.5 84t37.5 80.5t62 60.5t86 24q35 0 60.5 -11.5t42.5 -31t25 -46.5t8 -57q0 -38 -12.5 -81t-37 -79.5t-60.5 -60.5t-82 -24q-70 0 -106 39t-36 103zM17 204q0 -47 15 -86.5t43 -68.5t68.5 -45t91.5 -16q68 0 121 27.5t90 73t56 104.5t19 122
q0 104 -55.5 159t-159.5 55q-68 0 -121.5 -27t-91 -72t-57 -104t-19.5 -122zM219 588h70l136 143h-113zM385 588h70l136 143h-113z" />
    <glyph glyph-name="ohungarumlaut" unicode="&#x151;" horiz-adv-x="574" 
d="M102 205q0 40 12.5 84t37.5 80.5t62 60.5t86 24q35 0 60.5 -11.5t42.5 -31t25 -46.5t8 -57q0 -38 -12.5 -81t-37 -79.5t-60.5 -60.5t-82 -24q-70 0 -106 39t-36 103zM17 204q0 -47 15 -86.5t43 -68.5t68.5 -45t91.5 -16q68 0 121 27.5t90 73t56 104.5t19 122
q0 104 -55.5 159t-159.5 55q-68 0 -121.5 -27t-91 -72t-57 -104t-19.5 -122zM219 588h70l136 143h-113zM385 588h70l136 143h-113z" />
    <glyph glyph-name="rcaron" unicode="&#xf8;" horiz-adv-x="333" 
d="M-5 0h85l49 229q6 29 16 62.5t27 58.5q20 31 47.5 53t62.5 31q15 4 25 4.5t26 0.5h12q7 0 13 -1l20 91q-8 2 -15 1t-15 -1q-65 0 -111.5 -35t-76.5 -88h-2l25 111h-80zM419 731h-78l-93 -93l-51 93h-76l77 -143h86z" />
    <glyph glyph-name="rcaron" unicode="&#x159;" horiz-adv-x="333" 
d="M-5 0h85l49 229q6 29 16 62.5t27 58.5q20 31 47.5 53t62.5 31q15 4 25 4.5t26 0.5h12q7 0 13 -1l20 91q-8 2 -15 1t-15 -1q-65 0 -111.5 -35t-76.5 -88h-2l25 111h-80zM419 731h-78l-93 -93l-51 93h-76l77 -143h86z" />
    <glyph glyph-name="uring" unicode="&#xf9;" 
d="M520 517h-85l-60 -286q-7 -32 -23.5 -62.5t-40.5 -54t-55 -37.5t-66 -14q-38 0 -64 17.5t-26 54.5q0 7 1.5 17.5l3 22t3.5 22.5t4 18l66 302h-85l-63 -295q-7 -30 -11 -57t-4 -44q0 -69 35.5 -101t108.5 -32q54 0 103 23t81 67h2l-16 -78h82zM268 662q0 29 19.5 48.5
t48.5 19.5t48.5 -19.5t19.5 -48.5t-19.5 -48.5t-48.5 -19.5t-48.5 19.5t-19.5 48.5zM223 662q0 -23 9 -43.5t24.5 -36t36 -24.5t43.5 -9t43.5 9t36 24.5t24.5 36t9 43.5t-9 43.5t-24.5 36t-36 24.5t-43.5 9t-43.5 -9t-36 -24.5t-24.5 -36t-9 -43.5z" />
    <glyph glyph-name="uring" unicode="&#x16f;" 
d="M520 517h-85l-60 -286q-7 -32 -23.5 -62.5t-40.5 -54t-55 -37.5t-66 -14q-38 0 -64 17.5t-26 54.5q0 7 1.5 17.5l3 22t3.5 22.5t4 18l66 302h-85l-63 -295q-7 -30 -11 -57t-4 -44q0 -69 35.5 -101t108.5 -32q54 0 103 23t81 67h2l-16 -78h82zM268 662q0 29 19.5 48.5
t48.5 19.5t48.5 -19.5t19.5 -48.5t-19.5 -48.5t-48.5 -19.5t-48.5 19.5t-19.5 48.5zM223 662q0 -23 9 -43.5t24.5 -36t36 -24.5t43.5 -9t43.5 9t36 24.5t24.5 36t9 43.5t-9 43.5t-24.5 36t-36 24.5t-43.5 9t-43.5 -9t-36 -24.5t-24.5 -36t-9 -43.5z" />
    <glyph glyph-name="uhungarumlaut" unicode="&#xfb;" 
d="M520 517h-85l-60 -286q-7 -32 -23.5 -62.5t-40.5 -54t-55 -37.5t-66 -14q-38 0 -64 17.5t-26 54.5q0 7 1.5 17.5l3 22t3.5 22.5t4 18l66 302h-85l-63 -295q-7 -30 -11 -57t-4 -44q0 -69 35.5 -101t108.5 -32q54 0 103 23t81 67h2l-16 -78h82zM200 588h70l136 143h-113z
M366 588h70l136 143h-113z" />
    <glyph glyph-name="uhungarumlaut" unicode="&#x171;" 
d="M520 517h-85l-60 -286q-7 -32 -23.5 -62.5t-40.5 -54t-55 -37.5t-66 -14q-38 0 -64 17.5t-26 54.5q0 7 1.5 17.5l3 22t3.5 22.5t4 18l66 302h-85l-63 -295q-7 -30 -11 -57t-4 -44q0 -69 35.5 -101t108.5 -32q54 0 103 23t81 67h2l-16 -78h82zM200 588h70l136 143h-113z
M366 588h70l136 143h-113z" />
    <glyph glyph-name="yacute" unicode="&#xfd;" horiz-adv-x="481" 
d="M505 517h-93l-217 -411h-2l-60 411h-91l91 -517l-52 -86q-15 -25 -33 -40.5t-47 -15.5q-11 0 -25 4t-24 10l-15 -69q12 -6 28 -9.5t31 -3.5q33 0 57 9.5t43.5 26t35 39l31.5 47.5zM247 588h70l136 143h-113z" />
    <glyph glyph-name="tcommaaccent" unicode="&#xfe;" horiz-adv-x="315" 
d="M253 670h-85l-32 -153h-87l-16 -75h87l-68 -321q-2 -12 -3.5 -22t-1.5 -21q0 -25 9.5 -41t25 -25.5t36.5 -13.5t45 -4q30 0 60 6l15 78q-12 -4 -24 -6.5t-25 -2.5q-20 0 -35.5 7.5t-15.5 27.5q0 9 1 17t2 17l64 304h103l16 75h-103zM46 -141h44q-3 -13 -7 -26t-11 -24
t-17 -18.5t-25 -9.5l-8 -37q41 3 63.5 23t34.5 48.5t18 63t14 67.5h-87z" />
    <glyph glyph-name="tcommaaccent" unicode="&#x163;" horiz-adv-x="315" 
d="M253 670h-85l-32 -153h-87l-16 -75h87l-68 -321q-2 -12 -3.5 -22t-1.5 -21q0 -25 9.5 -41t25 -25.5t36.5 -13.5t45 -4q30 0 60 6l15 78q-12 -4 -24 -6.5t-25 -2.5q-20 0 -35.5 7.5t-15.5 27.5q0 9 1 17t2 17l64 304h103l16 75h-103zM46 -141h44q-3 -13 -7 -26t-11 -24
t-17 -18.5t-25 -9.5l-8 -37q41 3 63.5 23t34.5 48.5t18 63t14 67.5h-87z" />
    <glyph glyph-name="onehalf" horiz-adv-x="834" 
d="M286 709h-47q-17 -29 -57 -50t-94 -21l-9 -50q35 0 61.5 3.5t55.5 13.5l-66 -325h66zM542 281q2 41 27 67t70 26q34 0 53 -16.5t19 -46.5q0 -19 -9 -33.5t-22.5 -26.5t-29.5 -22l-31 -19l-64 -40q-32 -20 -55 -37.5t-38.5 -37t-23 -42.5t-7.5 -53h296l10 55h-231
q2 10 12 20.5t25 21t32.5 20.5l33.5 19l63 36q22 12 41.5 26.5t34 32t23 38t8.5 45.5q0 27 -10.5 48t-28.5 36t-42.5 23t-52.5 8q-78 0 -121 -40.5t-50 -107.5h68zM124 -28h64l435 753h-64z" />
    <glyph glyph-name="Ncommaaccent" unicode="&#x145;" horiz-adv-x="722" 
d="M7 0h92l121 587h2l253 -587h102l151 714h-92l-119 -591h-2l-255 591h-102zM237 -141h44q-3 -13 -7 -26t-11 -24t-17 -18.5t-25 -9.5l-8 -37q41 3 63.5 23t34.5 48.5t18 63t14 67.5h-87z" />
    <glyph glyph-name="umacron" unicode="&#x16b;" 
d="M520 517h-85l-60 -286q-7 -32 -23.5 -62.5t-40.5 -54t-55 -37.5t-66 -14q-38 0 -64 17.5t-26 54.5q0 7 1.5 17.5l3 22t3.5 22.5t4 18l66 302h-85l-63 -295q-7 -30 -11 -57t-4 -44q0 -69 35.5 -101t108.5 -32q54 0 103 23t81 67h2l-16 -78h82zM196 635h270l11 55h-269z
" />
    <glyph glyph-name="Delta" unicode="&#x394;" horiz-adv-x="670" 
d="M445 714h-73l-430 -714h642zM393 644l108 -582h-454z" />
    <glyph glyph-name="amacron" unicode="&#x101;" horiz-adv-x="519" 
d="M75 135q0 25 9.5 41.5t25 27t36.5 16.5t44 9t47 5.5t45.5 6.5t40.5 9.5t33 13.5h2q-9 -36 -16.5 -70t-28.5 -63q-44 -68 -145 -68q-36 0 -64.5 18t-28.5 54zM138 361q4 25 17 42.5t32 29t42.5 16.5t47.5 5q17 0 35.5 -3t33.5 -10.5t25 -20.5t10 -34q0 -26 -7.5 -41
t-23.5 -23t-40.5 -11.5t-58.5 -6.5q-43 -4 -89 -10t-84.5 -22.5t-63 -49t-24.5 -88.5q0 -40 12.5 -67.5t34 -45t50.5 -25.5t61 -8q66 0 106 19.5t67 55.5l2 -2q-4 -34 14 -53.5t53 -19.5q11 0 26.5 3.5t25.5 8.5l13 63l-13.5 -4.5t-13.5 -2.5q-11 0 -18 7t-7 25t5.5 38
t8.5 36l33 141q5 21 10.5 46.5t5.5 47.5q0 39 -15.5 64.5t-41.5 40.5t-60.5 21t-71.5 6q-41 0 -79 -10t-68 -31t-50.5 -52.5t-26.5 -74.5h85zM202 635h270l11 55h-269z" />
    <glyph glyph-name=".363" unicode="&#xe003;" horiz-adv-x="611" 
d="M193 0h93l62 287l346 427h-110l-271 -346l-146 346h-101l188 -427zM445 787h89l21 104h-89zM282 787h89l21 104h-89z" />
    <glyph glyph-name="scedilla" unicode="&#xba;" horiz-adv-x="481" 
d="M-9 163q0 -46 14 -78.5t39 -53t59 -30.5t75 -12l-54 -66l19 -30q10 5 20.5 6.5t21.5 1.5q17 0 31.5 -7t14.5 -24q0 -20 -18.5 -25t-41.5 -5q-17 0 -32.5 5l-31.5 10l-18 -43q49 -22 98 -22q20 0 41 5t38.5 15.5t28.5 27t11 39.5q0 20 -8 34t-20.5 23t-29 13t-33.5 4
q-7 0 -14 -1t-12 -3h-2l37 42q35 3 68.5 13t60 29.5t42.5 48t16 68.5q0 30 -12 52.5t-31 39.5t-44 29.5t-50 23.5l-50 19.5t-43.5 20.5t-31 24t-11.5 31q0 19 10 32t25.5 20.5t35 10.5t39.5 3q22 0 42 -5.5t35 -17t23 -28t7 -38.5h85q0 45 -17 76.5t-44.5 51t-62.5 28
t-71 8.5t-70.5 -10t-61.5 -28.5t-43.5 -46.5t-16.5 -64q0 -29 11.5 -51t31 -38.5t44 -28.5t50.5 -22q25 -11 49.5 -20.5t44 -20.5t31 -24.5t11.5 -32.5q0 -22 -10.5 -37t-27.5 -24.5t-38 -13.5t-42 -4q-27 0 -51.5 5t-43 16.5t-29 30.5t-8.5 48h-85z" />
    <glyph glyph-name="scedilla" unicode="&#xf6c2;" horiz-adv-x="481" 
d="M-9 163q0 -46 14 -78.5t39 -53t59 -30.5t75 -12l-54 -66l19 -30q10 5 20.5 6.5t21.5 1.5q17 0 31.5 -7t14.5 -24q0 -20 -18.5 -25t-41.5 -5q-17 0 -32.5 5l-31.5 10l-18 -43q49 -22 98 -22q20 0 41 5t38.5 15.5t28.5 27t11 39.5q0 20 -8 34t-20.5 23t-29 13t-33.5 4
q-7 0 -14 -1t-12 -3h-2l37 42q35 3 68.5 13t60 29.5t42.5 48t16 68.5q0 30 -12 52.5t-31 39.5t-44 29.5t-50 23.5l-50 19.5t-43.5 20.5t-31 24t-11.5 31q0 19 10 32t25.5 20.5t35 10.5t39.5 3q22 0 42 -5.5t35 -17t23 -28t7 -38.5h85q0 45 -17 76.5t-44.5 51t-62.5 28
t-71 8.5t-70.5 -10t-61.5 -28.5t-43.5 -46.5t-16.5 -64q0 -29 11.5 -51t31 -38.5t44 -28.5t50.5 -22q25 -11 49.5 -20.5t44 -20.5t31 -24.5t11.5 -32.5q0 -22 -10.5 -37t-27.5 -24.5t-38 -13.5t-42 -4q-27 0 -51.5 5t-43 16.5t-29 30.5t-8.5 48h-85z" />
    <glyph glyph-name="scedilla" unicode="&#x15f;" horiz-adv-x="481" 
d="M-9 163q0 -46 14 -78.5t39 -53t59 -30.5t75 -12l-54 -66l19 -30q10 5 20.5 6.5t21.5 1.5q17 0 31.5 -7t14.5 -24q0 -20 -18.5 -25t-41.5 -5q-17 0 -32.5 5l-31.5 10l-18 -43q49 -22 98 -22q20 0 41 5t38.5 15.5t28.5 27t11 39.5q0 20 -8 34t-20.5 23t-29 13t-33.5 4
q-7 0 -14 -1t-12 -3h-2l37 42q35 3 68.5 13t60 29.5t42.5 48t16 68.5q0 30 -12 52.5t-31 39.5t-44 29.5t-50 23.5l-50 19.5t-43.5 20.5t-31 24t-11.5 31q0 19 10 32t25.5 20.5t35 10.5t39.5 3q22 0 42 -5.5t35 -17t23 -28t7 -38.5h85q0 45 -17 76.5t-44.5 51t-62.5 28
t-71 8.5t-70.5 -10t-61.5 -28.5t-43.5 -46.5t-16.5 -64q0 -29 11.5 -51t31 -38.5t44 -28.5t50.5 -22q25 -11 49.5 -20.5t44 -20.5t31 -24.5t11.5 -32.5q0 -22 -10.5 -37t-27.5 -24.5t-38 -13.5t-42 -4q-27 0 -51.5 5t-43 16.5t-29 30.5t-8.5 48h-85z" />
    <glyph glyph-name="Omacron" unicode="&#x14c;" horiz-adv-x="759" 
d="M38 296q0 -74 20.5 -132t59.5 -98.5t96 -61.5t130 -21q89 0 160.5 36t121 96t76 138t26.5 162q0 66 -20.5 124t-59 100.5t-94 67t-124.5 24.5q-92 0 -164.5 -35.5t-123 -95.5t-77.5 -138.5t-27 -165.5zM133 296q0 64 18.5 128t55.5 114t92.5 81.5t130.5 31.5
q49 0 87 -18.5t64 -50t39 -75t13 -92.5q0 -64 -18.5 -127t-55 -113t-90.5 -81t-125 -31q-54 0 -93.5 17t-65.5 47.5t-39 73.5t-13 95zM342 807h270l11 55h-269z" />
    <glyph glyph-name="commaaccent" unicode="&#xf004;" horiz-adv-x="278" 
d="M46 -141h44q-3 -13 -7 -26t-11 -24t-17 -18.5t-25 -9.5l-8 -37q41 3 63.5 23t34.5 48.5t18 63t14 67.5h-87z" />
    <glyph glyph-name="commaaccent" unicode="&#xf6c3;" horiz-adv-x="278" 
d="M46 -141h44q-3 -13 -7 -26t-11 -24t-17 -18.5t-25 -9.5l-8 -37q41 3 63.5 23t34.5 48.5t18 63t14 67.5h-87z" />
    <glyph glyph-name=".361" unicode="&#xe000;" horiz-adv-x="1074" 
d="M538 257q-8 -40 -19 -73.5t-41 -62.5t-69.5 -43.5t-80.5 -14.5q-48 0 -84 19.5t-60 51.5t-35.5 73t-11.5 85q0 64 18.5 128.5t54.5 115.5t90.5 83t126.5 32q27 0 58.5 -10t57 -26.5t40.5 -37.5t11 -43zM1106 714h-466l-16 -80q-16 26 -39 44.5t-50.5 30t-57.5 17t-59 5.5
q-87 0 -156.5 -37.5t-118.5 -98.5t-75 -138.5t-26 -156.5q0 -66 17.5 -124t53 -100.5t88 -67.5t122.5 -25q49 0 97.5 18t78.5 56h2l-13 -57h475l16 80h-384l52 247h347l16 80h-347l48 227h379z" />
    <glyph glyph-name="Emacron" unicode="&#x112;" horiz-adv-x="611" 
d="M7 0h497l18 80h-402l52 247h371l16 80h-370l48 227h397l16 80h-492zM288 807h270l11 55h-269z" />
    <glyph glyph-name="uogonek" unicode="&#x173;" 
d="M329 0h5q-24 -15 -46.5 -32t-39.5 -34.5t-27.5 -36t-10.5 -36.5q0 -22 8 -35.5t21 -21.5t29 -11t31 -3q39 0 67.5 13.5t57.5 48.5l-37 12q-20 -15 -37.5 -19.5t-34.5 -4.5q-37 0 -37 37q0 15 15 33.5t35 36t41 32t32 21.5h10l109 517h-85l-60 -286q-7 -32 -23.5 -62.5
t-40.5 -54t-55 -37.5t-66 -14q-38 0 -64 17.5t-26 54.5q0 7 1.5 17.5l3 22t3.5 22.5t4 18l66 302h-85l-63 -295q-7 -30 -11 -57t-4 -44q0 -69 35.5 -101t108.5 -32q54 0 103 23t81 67h2z" />
    <glyph glyph-name="Thorn" horiz-adv-x="648" 
d="M7 0h95l37 178h212q79 0 131.5 22.5t84 56.5t44.5 73.5t13 72.5q0 98 -54.5 147.5t-157.5 49.5h-184l23 114h-95zM211 520h201q24 0 45 -6t37 -19.5t25.5 -36t9.5 -55.5q0 -64 -40.5 -104.5t-117.5 -40.5h-215z" />
    <glyph glyph-name="Eth" horiz-adv-x="704" 
d="M7 0h274q88 0 161.5 31t125.5 88.5t81 139t29 182.5q0 127 -68.5 200t-201.5 73h-250l-65 -307h-66l-14 -68h66zM234 634h152q59 0 97.5 -17t60.5 -45t30.5 -65t8.5 -76q0 -65 -18.5 -128t-56 -112.5t-94 -80t-132.5 -30.5h-165l55 259h200l14 68h-200z" />
    <glyph glyph-name="emacron" unicode="&#x113;" horiz-adv-x="537" 
d="M110 308q9 30 24.5 56.5t37 46.5t50.5 31.5t67 11.5q35 0 59.5 -12.5t38.5 -33t19.5 -47t3.5 -53.5h-300zM487 233q2 11 5 29t3 38q0 109 -52.5 169t-166.5 60q-53 0 -101.5 -24t-85 -68t-58 -105.5t-21.5 -135.5q0 -34 10 -70.5t35 -67t67.5 -50.5t106.5 -20q42 0 80 11
t69 33t53 54.5t32 75.5h-85q-18 -48 -55.5 -73.5t-93.5 -25.5q-26 0 -50 8.5t-43 24t-30 39t-11 53.5q0 22 3 45h389zM211 635h270l11 55h-269z" />
    <glyph glyph-name="edotaccent" unicode="&#x117;" horiz-adv-x="537" 
d="M110 308q9 30 24.5 56.5t37 46.5t50.5 31.5t67 11.5q35 0 59.5 -12.5t38.5 -33t19.5 -47t3.5 -53.5h-300zM487 233q2 11 5 29t3 38q0 109 -52.5 169t-166.5 60q-53 0 -101.5 -24t-85 -68t-58 -105.5t-21.5 -135.5q0 -34 10 -70.5t35 -67t67.5 -50.5t106.5 -20q42 0 80 11
t69 33t53 54.5t32 75.5h-85q-18 -48 -55.5 -73.5t-93.5 -25.5q-26 0 -50 8.5t-43 24t-30 39t-11 53.5q0 22 3 45h389zM279 610h89l21 104h-89z" />
    <glyph glyph-name="gbreve" unicode="&#x11f;" horiz-adv-x="574" 
d="M106 210q0 36 12 78.5t35 79t57 61.5t79 25q67 0 99.5 -37t32.5 -98q0 -39 -11.5 -82.5t-34.5 -80.5t-58.5 -61t-83.5 -24q-32 0 -56 11.5t-39.5 30.5t-23.5 44t-8 53zM552 517h-80l-16 -95h-2v2q-6 24 -21.5 43.5t-38 33t-49.5 21t-55 7.5q-63 0 -113 -28.5t-84.5 -74
t-53 -102.5t-18.5 -114q0 -46 12.5 -85.5t36.5 -68t60.5 -44.5t84.5 -16q49 0 91 18.5t70 60.5l2 -2q-10 -39 -21.5 -76t-31.5 -66.5t-51.5 -47.5t-80.5 -18q-24 0 -47 3.5t-40.5 13t-29 26t-13.5 42.5h-85q1 -43 18.5 -73.5t46 -49.5t65.5 -28t76 -9q83 0 142.5 33
t92.5 111q11 27 21 64t19 77zM230 731q-2 -69 33 -104t102 -35q66 0 111.5 36t54.5 103h-45q-14 -45 -41 -64.5t-76 -19.5q-45 0 -69 19t-25 65h-45z" />
    <glyph glyph-name="threequarters" horiz-adv-x="834" 
d="M627 0h63l22 96h60l13 55h-61l64 278h-58l-269 -275l-11 -58h199zM659 151h-139l178 181h2zM160 477q20 1 40 0.5t35.5 -7t25 -20t9.5 -37.5q0 -42 -28.5 -63.5t-73.5 -21.5q-28 0 -44.5 6.5t-25.5 18t-11.5 27t-1.5 33.5h-68q-3 -66 33.5 -103t115.5 -37q42 0 74 12.5
t53.5 32t33 44.5t11.5 50q0 31 -16 54.5t-49 34.5v2q38 9 63 36t25 62q0 27 -11 47.5t-30 34t-44.5 20t-53.5 6.5q-71 0 -114 -37.5t-46 -95.5h68q2 35 26 56.5t63 21.5q31 0 52.5 -11t21.5 -43q0 -25 -11.5 -40t-29.5 -23t-40 -10t-43 0zM199 -28h64l435 753h-64z" />
    <glyph glyph-name="fraction" unicode="&#x2215;" horiz-adv-x="167" 
d="M-166 -28h64l435 753h-64z" />
    <glyph glyph-name="Edotaccent" unicode="&#x116;" horiz-adv-x="611" 
d="M7 0h497l18 80h-402l52 247h371l16 80h-370l48 227h397l16 80h-492zM372 787h89l21 104h-89z" />
    <glyph glyph-name="Amacron" unicode="&#x100;" horiz-adv-x="667" 
d="M410 630h2l53 -335h-246zM-55 0h106l125 215h301l33 -215h98l-129 714h-104zM316 807h270l11 55h-269z" />
    <glyph glyph-name="imacron" unicode="&#x12b;" horiz-adv-x="222" 
d="M-5 0h85l108 517h-85zM33 634h270l11 55h-269z" />
    <glyph glyph-name="Rcommaaccent" unicode="&#x156;" horiz-adv-x="685" 
d="M236 634h197q27 0 52 -4.5t44.5 -16.5t31.5 -33t12 -54q0 -19 -6.5 -43.5t-25.5 -46t-53.5 -36.5t-90.5 -15h-214zM7 0h95l64 305h211h38t42 -12.5t28.5 -44t-1.5 -95.5q-11 -55 -10 -94t8 -59h99q-11 21 -13 43.5t0 45t6 46.5t6 48q3 27 0.5 52t-11 45.5t-24 35.5
t-38.5 22v2q36 5 65.5 22.5t50.5 43t33 58t12 68.5q0 53 -19.5 88t-52.5 56t-75.5 29.5t-87.5 8.5h-275zM221 -141h44q-3 -13 -7 -26t-11 -24t-17 -18.5t-25 -9.5l-8 -37q41 3 63.5 23t34.5 48.5t18 63t14 67.5h-87z" />
    <glyph glyph-name="Umacron" unicode="&#x16a;" horiz-adv-x="722" 
d="M728 714h-95l-90 -428q-11 -50 -24 -91.5t-37 -70.5t-61.5 -45t-95.5 -16q-104 0 -148.5 51.5t-20.5 155.5l94 444h-95l-89 -420q-31 -150 35 -230.5t224 -80.5q45 0 87.5 9.5t79 29.5t65 51.5t46.5 75.5q9 21 18 58t18 79zM323 807h270l11 55h-269z" />
    <glyph glyph-name="rcommaaccent" unicode="&#x157;" horiz-adv-x="333" 
d="M-5 0h85l49 229q6 29 16 62.5t27 58.5q20 31 47.5 53t62.5 31q15 4 25 4.5t26 0.5h12q7 0 13 -1l20 91q-8 2 -15 1t-15 -1q-65 0 -111.5 -35t-76.5 -88h-2l25 111h-80zM-34 -141h45q-3 -13 -7.5 -26t-11 -24t-17 -18.5t-25.5 -9.5l-8 -37q41 3 64 23t35 48.5t18 63
t14 67.5h-88z" />
    <glyph glyph-name="Scedilla" unicode="&#xaa;" horiz-adv-x="648" 
d="M15 234q-4 -61 12 -106t48.5 -75.5t79 -47t103.5 -20.5l-51 -62l19 -30q10 5 20.5 6.5t21.5 1.5q17 0 31.5 -7t14.5 -24q0 -20 -18.5 -25t-41.5 -5q-17 0 -32.5 5l-31.5 10l-18 -43q49 -22 98 -22q20 0 41 5t38.5 15.5t28.5 27t11 39.5q0 20 -8 34t-20.5 23t-29 13
t-33.5 4q-7 0 -14 -1t-12 -3h-2l32 36q48 1 96.5 14.5t87.5 40.5t63.5 67.5t24.5 94.5q0 48 -14.5 81t-38.5 54.5t-55 35t-64 22.5l-96 26q-24 7 -45.5 16t-37 22.5t-24.5 32t-9 44.5q0 32 16 54t40.5 36t53.5 20.5t55 6.5q37 0 67.5 -7t52.5 -24.5t33.5 -46t10.5 -70.5h95
q2 60 -18.5 103t-56.5 70.5t-83.5 41t-100.5 13.5q-48 0 -94.5 -13t-83 -39t-59.5 -64.5t-23 -90.5q0 -39 13 -69t35 -52t51 -36t61 -23l97 -26q26 -7 49 -16t40.5 -22.5t27.5 -33t10 -46.5q0 -36 -15.5 -62t-40.5 -42.5t-57.5 -24.5t-65.5 -8q-44 0 -79.5 8.5t-61 28.5
t-38.5 53t-11 81h-95z" />
    <glyph glyph-name="Scedilla" unicode="&#xf6c1;" horiz-adv-x="648" 
d="M15 234q-4 -61 12 -106t48.5 -75.5t79 -47t103.5 -20.5l-51 -62l19 -30q10 5 20.5 6.5t21.5 1.5q17 0 31.5 -7t14.5 -24q0 -20 -18.5 -25t-41.5 -5q-17 0 -32.5 5l-31.5 10l-18 -43q49 -22 98 -22q20 0 41 5t38.5 15.5t28.5 27t11 39.5q0 20 -8 34t-20.5 23t-29 13
t-33.5 4q-7 0 -14 -1t-12 -3h-2l32 36q48 1 96.5 14.5t87.5 40.5t63.5 67.5t24.5 94.5q0 48 -14.5 81t-38.5 54.5t-55 35t-64 22.5l-96 26q-24 7 -45.5 16t-37 22.5t-24.5 32t-9 44.5q0 32 16 54t40.5 36t53.5 20.5t55 6.5q37 0 67.5 -7t52.5 -24.5t33.5 -46t10.5 -70.5h95
q2 60 -18.5 103t-56.5 70.5t-83.5 41t-100.5 13.5q-48 0 -94.5 -13t-83 -39t-59.5 -64.5t-23 -90.5q0 -39 13 -69t35 -52t51 -36t61 -23l97 -26q26 -7 49 -16t40.5 -22.5t27.5 -33t10 -46.5q0 -36 -15.5 -62t-40.5 -42.5t-57.5 -24.5t-65.5 -8q-44 0 -79.5 8.5t-61 28.5
t-38.5 53t-11 81h-95z" />
    <glyph glyph-name="Scedilla" unicode="&#x15e;" horiz-adv-x="648" 
d="M15 234q-4 -61 12 -106t48.5 -75.5t79 -47t103.5 -20.5l-51 -62l19 -30q10 5 20.5 6.5t21.5 1.5q17 0 31.5 -7t14.5 -24q0 -20 -18.5 -25t-41.5 -5q-17 0 -32.5 5l-31.5 10l-18 -43q49 -22 98 -22q20 0 41 5t38.5 15.5t28.5 27t11 39.5q0 20 -8 34t-20.5 23t-29 13
t-33.5 4q-7 0 -14 -1t-12 -3h-2l32 36q48 1 96.5 14.5t87.5 40.5t63.5 67.5t24.5 94.5q0 48 -14.5 81t-38.5 54.5t-55 35t-64 22.5l-96 26q-24 7 -45.5 16t-37 22.5t-24.5 32t-9 44.5q0 32 16 54t40.5 36t53.5 20.5t55 6.5q37 0 67.5 -7t52.5 -24.5t33.5 -46t10.5 -70.5h95
q2 60 -18.5 103t-56.5 70.5t-83.5 41t-100.5 13.5q-48 0 -94.5 -13t-83 -39t-59.5 -64.5t-23 -90.5q0 -39 13 -69t35 -52t51 -36t61 -23l97 -26q26 -7 49 -16t40.5 -22.5t27.5 -33t10 -46.5q0 -36 -15.5 -62t-40.5 -42.5t-57.5 -24.5t-65.5 -8q-44 0 -79.5 8.5t-61 28.5
t-38.5 53t-11 81h-95z" />
    <glyph glyph-name="eth" horiz-adv-x="574" 
d="M300 431q70 0 104.5 -37.5t34.5 -94.5q0 -36 -13 -77.5t-38 -77t-61.5 -58.5t-82.5 -23q-70 0 -106 38.5t-36 98.5q0 37 12.5 77.5t37.5 74.5t62 56.5t86 22.5zM464 734l-105 -53q-18 16 -35 27.5l-34 22.5l-64 -45q17 -11 31 -21l28 -21l-113 -56l42 -40l114 57
q13 -9 29 -25t31.5 -36.5t28.5 -44t20 -46.5h-2q-29 32 -62 42.5t-67 10.5q-68 0 -121.5 -25.5t-91 -68t-57 -98t-19.5 -115.5q0 -45 15 -83.5t43 -67t68.5 -44.5t91.5 -16q73 0 128 28t92 76t55.5 112.5t18.5 137.5q0 56 -9.5 99t-26 78t-40.5 64.5t-53 57.5l108 55z" />
    <glyph glyph-name="Uogonek" unicode="&#x172;" horiz-adv-x="722" 
d="M66 294q-31 -150 35 -230.5t224 -80.5h12t11 1q-42 -28 -71.5 -59.5t-29.5 -63.5q0 -22 8 -35.5t21 -21.5t29 -11t31 -3q39 0 67.5 13.5t57.5 48.5l-37 12q-20 -15 -37.5 -19.5t-34.5 -4.5q-37 0 -37 37q0 15 15.5 34.5t37.5 37.5t44 32.5t36 19.5q50 20 90.5 54.5
t64.5 93.5q9 21 18 58t18 79l89 428h-95l-90 -428q-11 -50 -24 -91.5t-37 -70.5t-61.5 -45t-95.5 -16q-104 0 -148.5 51.5t-20.5 155.5l94 444h-95z" />
    <glyph glyph-name="Gbreve" unicode="&#x11e;" horiz-adv-x="759" 
d="M563 0h60l78 376h-311l-16 -80h228q-13 -52 -33.5 -95t-51.5 -73.5t-73.5 -47.5t-99.5 -17q-54 0 -93.5 17t-65.5 47.5t-39 73.5t-13 95q0 64 18.5 128t55.5 114t92.5 81.5t130.5 31.5q39 0 74 -9.5t61 -29t41.5 -49.5t15.5 -71h95q0 62 -22.5 107t-61.5 74.5t-91.5 43.5
t-111.5 14q-92 0 -164.5 -35.5t-123 -95.5t-77.5 -138.5t-27 -165.5q0 -74 20.5 -132t59.5 -98.5t96 -61.5t130 -21q58 0 115 21.5t98 66.5zM343 908q-2 -69 33 -104t102 -35q66 0 111.5 36t54.5 103h-45q-14 -45 -41 -64.5t-76 -19.5q-45 0 -69 19t-25 65h-45z" />
    <glyph glyph-name="onesuperior" horiz-adv-x="333" 
d="M304 709h-47q-17 -29 -57 -50t-94 -21l-9 -50q35 0 61.5 3.5t55.5 13.5l-66 -325h66z" />
    <glyph glyph-name="iogonek" unicode="&#x12f;" horiz-adv-x="222" 
d="M230 714h-86l-22 -104h86zM-5 0h12q-25 -16 -47.5 -32.5t-39.5 -34t-27 -36t-10 -36.5q0 -22 8 -35.5t21 -21.5t29 -11t31 -3q39 0 67.5 13.5t57.5 48.5l-37 12q-20 -15 -37.5 -19.5t-34.5 -4.5q-37 0 -37 37q0 15 15.5 34t36 36.5t41 32t30.5 20.5h6l108 517h-85z" />
    <glyph glyph-name="threesuperior" horiz-adv-x="333" 
d="M160 477q20 1 40 0.5t35.5 -7t25 -20t9.5 -37.5q0 -42 -28.5 -63.5t-73.5 -21.5q-28 0 -44.5 6.5t-25.5 18t-11.5 27t-1.5 33.5h-68q-3 -66 33.5 -103t115.5 -37q42 0 74 12.5t53.5 32t33 44.5t11.5 50q0 31 -16 54.5t-49 34.5v2q38 9 63 36t25 62q0 27 -11 47.5t-30 34
t-44.5 20t-53.5 6.5q-71 0 -114 -37.5t-46 -95.5h68q2 35 26 56.5t63 21.5q31 0 52.5 -11t21.5 -43q0 -25 -11.5 -40t-29.5 -23t-40 -10t-43 0z" />
    <glyph glyph-name="Lcommaaccent" unicode="&#x13b;" 
d="M7 0h473l17 80h-377l132 634h-95zM186 -141h44q-3 -13 -7 -26t-11 -24t-17 -18.5t-25 -9.5l-8 -37q41 3 63.5 23t34.5 48.5t18 63t14 67.5h-87z" />
    <glyph glyph-name="thorn" horiz-adv-x="593" 
d="M455 317q0 -43 -13 -88t-39 -82t-64 -60.5t-89 -23.5q-63 0 -96.5 38t-33.5 96q0 40 13.5 85.5t39 83.5t63.5 63t86 25q70 0 101.5 -37t31.5 -100zM-49 -198h84l55 277h2q7 -26 24.5 -43.5t40 -28t47.5 -15t49 -4.5q68 0 121.5 29.5t90 76.5t56 105.5t19.5 117.5
q0 47 -13 86t-39 67t-64 43.5t-87 15.5q-52 0 -92.5 -18t-78.5 -68h-2l63 271h-85z" />
    <glyph glyph-name="Iogonek" unicode="&#x12e;" horiz-adv-x="259" 
d="M7 0h15q-24 -15 -46.5 -32t-40 -34.5t-27.5 -36t-10 -36.5q0 -22 7.5 -35.5t20.5 -21.5t29 -11t31 -3q40 0 68.5 13.5t57.5 48.5l-37 12q-20 -15 -37.5 -19.5t-34.5 -4.5q-38 0 -38 37q0 15 16 34t36.5 36.5t41 32t30.5 20.5h13l150 714h-95z" />
    <glyph glyph-name="minus" unicode="&#x2212;" horiz-adv-x="600" 
d="M48 219h504v68h-504v-68z" />
    <glyph glyph-name=".362" unicode="&#xe001;" horiz-adv-x="907" 
d="M751 163q-17 -44 -57 -72t-91 -28q-60 0 -95.5 28.5t-35.5 88.5q0 14 2 27.5t5 25.5h379q2 9 4 20.5t3.5 24.5t2.5 25t1 21q0 93 -49.5 149t-150.5 56q-57 0 -109.5 -24.5t-80.5 -76.5q-11 30 -28 49.5t-39.5 31t-49.5 16t-57 4.5q-67 0 -120.5 -30t-90.5 -78t-57 -108.5
t-20 -121.5q0 -105 55.5 -154t152.5 -49q56 0 106 26.5t78 75.5q24 -60 71 -81t108 -21q91 0 156 43.5t94 131.5h-87zM102 195q0 40 12.5 85.5t37.5 84t61 64t84 25.5q51 0 85.5 -27.5t34.5 -81.5q0 -41 -9.5 -90t-31 -91.5t-57.5 -71.5t-89 -29q-32 0 -56 10.5t-40 28.5
t-24 42t-8 51zM667 454q30 0 52 -9.5t36.5 -26t21.5 -37.5t7 -44q0 -8 -0.5 -14.5t-1.5 -14.5h-290q7 31 22 57.5t37 46t51 31t65 11.5z" />
    <glyph glyph-name="ncommaaccent" unicode="&#x146;" 
d="M-5 0h85l60 286q8 31 21 59.5t36 48.5q24 26 58.5 43t69.5 17q38 0 64 -17.5t26 -54.5q0 -7 -1.5 -17.5l-3 -22t-4 -22.5t-3.5 -18l-66 -302h85l63 295q7 30 11 57t4 44q0 69 -35.5 101t-108.5 32q-54 0 -103 -23t-81 -67h-2l16 78h-82zM136 -141h44q-3 -13 -7 -26
t-11 -24t-17 -18.5t-25 -9.5l-8 -37q41 3 63.5 23t34.5 48.5t18 63t14 67.5h-87z" />
    <glyph glyph-name="gcommaaccent" unicode="&#x123;" horiz-adv-x="574" 
d="M106 210q0 36 12 78.5t35 79t57 61.5t79 25q67 0 99.5 -37t32.5 -98q0 -39 -11.5 -82.5t-34.5 -80.5t-58.5 -61t-83.5 -24q-32 0 -56 11.5t-39.5 30.5t-23.5 44t-8 53zM552 517h-80l-16 -95h-2v2q-6 24 -21.5 43.5t-38 33t-49.5 21t-55 7.5q-63 0 -113 -28.5t-84.5 -74
t-53 -102.5t-18.5 -114q0 -46 12.5 -85.5t36.5 -68t60.5 -44.5t84.5 -16q49 0 91 18.5t70 60.5l2 -2q-10 -39 -21.5 -76t-31.5 -66.5t-51.5 -47.5t-80.5 -18q-24 0 -47 3.5t-40.5 13t-29 26t-13.5 42.5h-85q1 -43 18.5 -73.5t46 -49.5t65.5 -28t76 -9q83 0 142.5 33
t92.5 111q11 27 21 64t19 77zM403 675h-44q3 13 7 26t11 24t17 18.5t25 9.5l8 37q-41 -3 -63.5 -23t-34.5 -48.5t-18 -63t-14 -67.5h87z" />
    <glyph glyph-name="twosuperior" horiz-adv-x="333" 
d="M123 561q2 41 27 66t70 27q34 0 53 -16.5t19 -46.5q0 -19 -9 -33.5t-22.5 -26.5t-29.5 -22l-31 -19l-64 -40q-32 -20 -55 -37.5t-38.5 -37t-23 -42.5t-7.5 -53h296l10 55h-231q2 10 12 20.5t25 21t32.5 20.5l33.5 19l63 36q22 12 41.5 26.5t34 32t23 38t8.5 45.5
q0 27 -10.5 48t-28.5 36t-42.5 23t-52.5 8q-78 0 -121 -40.5t-50 -107.5h68z" />
    <glyph glyph-name="lcommaaccent" unicode="&#x13c;" horiz-adv-x="222" 
d="M-5 0h85l150 714h-85zM-33 -141h44q-3 -13 -7 -26t-11 -24t-17 -18.5t-25 -9.5l-8 -37q41 3 63.5 23t34.5 48.5t18 63t14 67.5h-87z" />
    <glyph glyph-name="Imacron" unicode="&#x12a;" horiz-adv-x="259" 
d="M7 0h95l150 714h-95zM84 807h270l11 55h-269z" />
    <glyph glyph-name="Idotaccent" unicode="&#x130;" horiz-adv-x="259" 
d="M7 0h95l150 714h-95zM172 787h93l21 104h-93z" />
    <glyph glyph-name="Kcommaaccent" unicode="&#x136;" horiz-adv-x="667" 
d="M7 0h95l51 241l143 121l195 -362h105l-229 420l344 294h-127l-404 -354l-2 2l75 352h-95zM222 -141h44q-3 -13 -7 -26t-11 -24t-17 -18.5t-25 -9.5l-8 -37q41 3 63.5 23t34.5 48.5t18 63t14 67.5h-87z" />
    <glyph glyph-name="onequarter" horiz-adv-x="834" 
d="M589 0h63l22 96h60l13 55h-61l64 278h-58l-269 -275l-11 -58h199zM482 151l178 181h2l-41 -181h-139zM286 709h-47q-17 -29 -57 -50t-94 -21l-9 -50q35 0 61.5 3.5t55.5 13.5l-66 -325h66zM124 -28h64l435 753h-64z" />
    <glyph glyph-name="Gcommaaccent" unicode="&#x122;" horiz-adv-x="759" 
d="M563 0h60l78 376h-311l-16 -80h228q-13 -52 -33.5 -95t-51.5 -73.5t-73.5 -47.5t-99.5 -17q-54 0 -93.5 17t-65.5 47.5t-39 73.5t-13 95q0 64 18.5 128t55.5 114t92.5 81.5t130.5 31.5q39 0 74 -9.5t61 -29t41.5 -49.5t15.5 -71h95q0 62 -22.5 107t-61.5 74.5t-91.5 43.5
t-111.5 14q-92 0 -164.5 -35.5t-123 -95.5t-77.5 -138.5t-27 -165.5q0 -74 20.5 -132t59.5 -98.5t96 -61.5t130 -21q58 0 115 21.5t98 66.5zM278 -141h44q-3 -13 -7 -26t-11 -24t-17 -18.5t-25 -9.5l-8 -37q41 3 63.5 23t34.5 48.5t18 63t14 67.5h-87z" />
    <glyph glyph-name="omacron" unicode="&#x14d;" horiz-adv-x="574" 
d="M102 205q0 40 12.5 84t37.5 80.5t62 60.5t86 24q35 0 60.5 -11.5t42.5 -31t25 -46.5t8 -57q0 -38 -12.5 -81t-37 -79.5t-60.5 -60.5t-82 -24q-70 0 -106 39t-36 103zM17 204q0 -47 15 -86.5t43 -68.5t68.5 -45t91.5 -16q68 0 121 27.5t90 73t56 104.5t19 122
q0 104 -55.5 159t-159.5 55q-68 0 -121.5 -27t-91 -72t-57 -104t-19.5 -122zM229 635h270l11 55h-269z" />
    <glyph glyph-name="kcommaaccent" unicode="&#x137;" horiz-adv-x="481" 
d="M-5 0h85l39 184l102 91l101 -275h95l-128 326l225 191h-111l-260 -225l-2 2l89 420h-84zM129 -141h44q-3 -13 -7 -26t-11 -24t-17 -18.5t-25 -9.5l-8 -37q41 3 63.5 23t34.5 48.5t18 63t14 67.5h-87z" />
    <glyph glyph-name=".E002h" unicode="&#xe002;" horiz-adv-x="600" 
d="M552 388h-504v-68h436v-211h68v279z" />
    </font>
</defs>
</svg>
