<?xml version="1.0" standalone="no"?>
<!DOCTYPE svg PUBLIC "-//W3C//DTD SVG 1.1//EN" "http://www.w3.org/Graphics/SVG/1.1/DTD/svg11.dtd" >
<svg xmlns="http://www.w3.org/2000/svg">
<metadata></metadata>
<defs>
<font id="caflisch_scriptregular" horiz-adv-x="763" >
<font-face units-per-em="2048" ascent="1638" descent="-410" />
<missing-glyph horiz-adv-x="405" />
<glyph unicode="&#xfb01;" horiz-adv-x="870" d="M-264 -631q0 18 16.5 40t42.5 40q31 23 53 12q12 -4 26.5 5.5t25.5 25.5q45 66 98 215.5t108 376.5q10 43 24.5 98.5t30 114.5t32 116.5t28.5 102.5q4 16 2 22.5t-16 6.5q-31 2 -55.5 5t-24.5 19q0 12 13.5 23.5t31.5 21t37.5 14.5t32.5 5q12 2 20 22q31 88 61.5 156 t65.5 122t75 95t89 76q57 45 116.5 72.5t106.5 27.5h2q35 0 64 -14q12 -4 25.5 -17.5t13.5 -31.5q0 -27 -20.5 -43.5t-39.5 -20.5q-23 -2 -49 4q-31 8 -61 9q-41 0 -94.5 -37t-100.5 -99q-23 -29 -44 -68.5t-39.5 -82.5t-34 -83t-23.5 -67q-4 -14 0 -17t20 -3q92 0 162 6 t98 16q14 6 21.5 15.5t17.5 19.5q20 29 51 29q29 0 46.5 -22.5t21.5 -32.5t2 -24.5t-12 -25.5q-14 -14 -39 -52t-47 -85q-8 -20 -21.5 -57t-27 -77t-24.5 -75t-17 -51q-18 -51 -21.5 -83t12.5 -32q33 0 78 23q14 8 52 31.5t91.5 61.5t116 90t123.5 116q29 29 37 6 q10 -25 -22 -65q-31 -41 -86.5 -94.5t-117 -102.5t-120.5 -89t-96 -56q-41 -18 -73 -29.5t-56 -11.5q-25 0 -42.5 11t-27.5 27q-8 10 -8 32t10 46q10 29 17.5 49.5t17.5 49.5t41 116.5t84 243.5q8 20 -21 14q-33 -8 -104.5 -13t-151.5 -9q-12 0 -17 -5t-9 -16 q-6 -25 -19.5 -70.5t-29 -103t-32.5 -118t-32 -113.5q-8 -33 -30.5 -106.5t-49 -153.5t-49 -147.5t-31.5 -88.5q-14 -33 -39.5 -81t-53 -95t-54.5 -88t-41 -59q-18 -23 -32.5 -30t-30.5 -7q-10 0 -23.5 10t-26 25.5t-19.5 33t-5 33.5z" />
<glyph unicode="&#xfb02;" horiz-adv-x="884" d="M-356 -567q-8 35 4 53t22 27q10 8 26.5 9t33.5 -9q20 -10 35.5 -36t31.5 -59q14 -31 29.5 -43t28.5 -12q29 0 64.5 84t84.5 260q16 59 72.5 264t152.5 541q8 27 -14 27q-33 0 -59.5 5t-26.5 23q0 16 13.5 30.5t29.5 25.5q16 14 37 10q10 -2 24.5 -2h24.5q14 0 23 26 q61 168 123.5 263.5t130.5 158.5q29 29 62.5 51.5t67 39t63.5 24.5t52 8h2q23 0 51.5 -7t47.5 -24q8 -8 13 -4t13 15q23 39 54 12q47 -39 26 -80q-16 -31 -32.5 -66.5t-34.5 -76.5q-12 -27 -39 -91.5t-63 -161.5t-80 -223t-91 -276q-12 -41 -17 -62.5t3 -31.5q8 -12 29 -12 q14 0 59 22.5t104.5 61.5t127 91t126.5 111q33 29 39 7q4 -10 0 -28t-20 -38q-76 -82 -155 -148.5t-152.5 -112.5t-139 -71.5t-114.5 -25.5q-29 0 -45 24q-16 23 -16.5 39t9.5 35q12 23 25.5 61.5t24.5 67.5q16 47 42.5 127t77.5 227q4 14 1 18.5t-21 0.5t-55 -10.5 t-76 -11.5t-74 -9t-49 -4q-16 0 -23.5 -7.5t-11.5 -19.5q-8 -27 -22.5 -73t-31 -103t-34.5 -120.5t-35.5 -122t-32 -108.5t-24.5 -79q-47 -160 -77 -268.5t-58 -186.5q-39 -104 -92.5 -145t-98.5 -41q-14 0 -30.5 9t-34 21.5t-30.5 27t-21 24.5q-14 16 -23.5 22.5 t-28.5 16.5q-23 8 -28 39zM399 655q-4 -16 1.5 -19t17.5 -3q66 0 133 6t102 10q14 4 27.5 9.5t19.5 21.5q18 51 38 104.5t37.5 101.5t31.5 88t24 68q10 25 5 38.5t-15 21.5q-8 4 -21.5 8t-29.5 4h-2q-47 0 -103.5 -41t-107.5 -106q-57 -72 -97 -158t-61 -154z" />
<glyph horiz-adv-x="2048" />
<glyph horiz-adv-x="2048" />
<glyph unicode="&#xd;" horiz-adv-x="405" />
<glyph unicode=" "  horiz-adv-x="405" />
<glyph unicode="&#x09;" horiz-adv-x="405" />
<glyph unicode="&#xa0;" horiz-adv-x="405" />
<glyph unicode="!" horiz-adv-x="356" d="M141 57q0 14 8.5 31.5t20.5 31t27.5 23t29.5 9.5h2q18 0 31.5 -11.5t23 -28t14.5 -34t5 -29.5q0 -35 -26.5 -59.5t-61.5 -24.5q-37 0 -55.5 33t-18.5 59zM263.5 310.5q-5.5 23.5 10.5 97.5q4 16 18.5 65t36 115.5t46 142.5t47.5 146q16 51 59 51h2q29 0 46.5 -31 t25.5 -59q8 -47 -20 -76q-16 -16 -29.5 -32.5t-36.5 -67.5q-23 -47 -53.5 -120t-77.5 -202q-12 -33 -28.5 -43t-26.5 -10q-14 0 -19.5 23.5z" />
<glyph unicode="&#x22;" horiz-adv-x="442" d="M283 692q4 20 14 41q14 31 31.5 74t34 85t28.5 75.5t17 46.5q6 23 12 37t22 14h2q14 0 37 -14q10 -8 25.5 -22.5t11.5 -31.5q-4 -25 -24.5 -64.5t-46 -81.5t-51 -80t-40.5 -56q-37 -45 -59 -45q-18 0 -14 22zM498 696q4 16 26.5 67.5t42.5 115.5q16 59 26.5 89.5 t14.5 43.5q6 23 32 35t48 12h2q27 0 33 -23.5t-10 -64.5q-51 -121 -89 -184.5t-57 -81.5q-37 -37 -57 -37q-16 0 -12 28z" />
<glyph unicode="#" horiz-adv-x="921" d="M175 441.5q1 15.5 15 25.5q14 18 70 18q20 0 55 -2t76 -2q12 0 17.5 4t11.5 15q20 37 36.5 70.5t30.5 62.5q4 10 1 13t-11 3h-47t-39 -4q-25 -4 -27 -3t-16 -1q-14 0 -26.5 7t-20.5 18q-10 12 -8 29.5t14 29.5q23 23 49 20q16 -2 34 -3t38 -1q20 -2 42 -2h44q23 0 31 21 q35 70 56.5 117t43.5 94q12 25 37 24q20 0 32.5 -6t22.5 -14q4 -6 5 -20.5t-19 -49.5q-25 -39 -47.5 -80t-38.5 -71q-8 -16 16 -19q35 0 68 -1t57 -1q16 0 29 23q37 74 55.5 112.5t24.5 55.5q8 16 14 27.5t23 21.5q12 10 21 12t16 2q16 0 24 -8t12 -16q4 -10 5.5 -25.5 t-7.5 -26.5q-14 -18 -39.5 -64t-54.5 -93q-12 -23 10 -23h121q29 0 42 -20.5t13 -32.5q0 -16 -26.5 -30.5t-48.5 -14.5q-4 0 -22.5 2t-41 3t-47 3t-41.5 2q-20 0 -24 -10q-10 -18 -24.5 -47t-43.5 -84q-12 -20 8 -21q47 2 85 3t54 1q25 0 44.5 -15t19.5 -34 q-4 -25 -27.5 -35t-46.5 -10h-68.5t-107.5 2q-23 0 -29 -14q-8 -12 -18 -33.5t-20 -46.5q-23 -45 -31 -78t-13 -55q-4 -23 -10 -47.5t-22 -52.5q-16 -25 -33.5 -40.5t-34.5 -15.5q-10 0 -16 9.5t-10.5 23.5t-5.5 28.5t3 26.5q6 23 21.5 60t32.5 69q10 18 28.5 57.5 t42.5 90.5q10 20 -12 20h-129q-12 0 -17 -3t-10 -13q-29 -53 -38 -88q-16 -39 -15.5 -67.5t-3.5 -45.5q-4 -12 -9 -23.5t-9 -23.5q-4 -6 -14.5 -21.5t-25 -32t-29.5 -28.5t-28 -12q-14 0 -25 22.5t-7 44.5q4 12 10 35t22 54q10 23 33 69.5t53 112.5q10 20 -10 20 q-43 0 -77.5 -1t-45.5 -1q-10 0 -21 3t-22 16q-10 14 -9 29.5zM514 502q-8 -20 6 -21h129q14 0 19.5 4t9.5 15q18 35 35.5 69.5t29.5 63.5q10 14 -10 14q-23 0 -58.5 1t-68.5 1q-23 0 -31 -18q-23 -41 -36 -71t-25 -58z" />
<glyph unicode="$" d="M57 143q0 20 33 43q14 10 30.5 11.5t31.5 -13.5q29 -25 74.5 -41t103.5 -20q8 0 14 1t10 11q16 35 45 105.5t64 154.5q4 12 4 16.5t-10 8.5q-29 14 -57.5 30.5t-51 36t-37 45t-14.5 60.5q0 27 15.5 58.5t39.5 56.5q51 53 121 90t154 51l15 6t9 12q37 96 53.5 139.5 t20.5 51.5q10 29 22.5 36t22.5 7q20 0 35 -19q6 -6 13 -25.5t-7 -41.5q-14 -23 -27.5 -50.5t-42.5 -91.5q-4 -10 -2 -13t13 -3q25 -2 60.5 -8t49.5 -10q25 -8 36 -21.5t11 -25.5q-2 -16 -25.5 -34t-45.5 -18q-23 0 -43 6q-16 4 -40 11.5t-40 9.5q-18 0 -27 -21 q-20 -51 -49 -121.5t-51 -123.5q-4 -10 -1 -13.5t13 -7.5q78 -33 128 -70.5t50 -109.5v-2q0 -51 -35.5 -95t-90 -77t-119 -53.5t-121.5 -26.5q-18 -2 -29 -25q-27 -66 -47.5 -118t-22.5 -76q2 -25 -7 -40t-32 -30q-10 -4 -21 -9t-26 -5q-20 0 -23 24.5t9 51.5q14 31 23.5 49 t16.5 36.5t18.5 43t29.5 67.5q6 12 5 17.5t-17 5.5q-23 0 -50.5 4t-55 9t-51 13.5t-38.5 18.5q-25 16 -32 33.5t-5 27.5zM412 612q0 -35 25.5 -54t56.5 -36q10 -4 15 -2t9 12q23 55 48.5 118t39.5 102q2 10 -12 8q-27 -6 -58.5 -18.5t-59 -32t-46 -44t-18.5 -51.5v-2z M438 139q-6 -16 11 -12q25 4 62.5 14.5t72 28.5t59.5 43t25 57v2q0 29 -22.5 53.5t-88.5 49.5q-10 6 -14 4t-8 -8q-23 -53 -49.5 -118t-47.5 -114z" />
<glyph unicode="%" horiz-adv-x="1337" d="M264 604q0 31 13.5 66t34 68.5t46 63t48.5 52.5q27 23 48 33t40 14q16 6 20 9t21 18q12 16 24 27.5t29 11.5h2q37 0 68.5 -19.5t55 -50.5t37 -70t13.5 -75q0 -43 -12.5 -74t-26.5 -55q-20 -35 -59 -64t-85 -51.5t-93.5 -34.5t-84.5 -12q-61 0 -100 37t-39 106zM311 -72 q-14 31 4 60q6 10 37 46t77 87t101.5 112.5t113.5 125t111.5 123t96.5 106.5q127 139 200.5 222t92.5 101q25 25 47 42.5t39 17.5h2q23 0 38 -14.5t19 -30.5q4 -14 -4 -27.5t-22 -21.5q-10 -6 -28.5 -19.5t-51.5 -43.5t-81 -78t-120 -122q-74 -78 -134.5 -142t-114.5 -122.5 t-105 -116t-109 -120.5q-41 -43 -41 -93q0 -20 -18.5 -41.5t-42.5 -41.5q-29 -25 -46.5 -34t-27.5 -9t-19.5 12t-13.5 22zM373 612q0 -27 18.5 -45t50.5 -18q35 0 74 15.5t73 41t55.5 60t21.5 75.5t-14.5 75t-53.5 34h-2q-18 0 -47 -8t-60 -35q-63 -49 -89.5 -102.5 t-26.5 -92.5zM840 145q0 43 24.5 101.5t81.5 124.5q53 61 106.5 83.5t82.5 22.5h2q37 0 75.5 -10t69.5 -29q47 -29 59.5 -64.5t12.5 -64.5q0 -20 -13.5 -51t-33 -61.5t-43 -59t-43.5 -47.5q-59 -51 -124 -82t-102 -31q-16 0 -42.5 8.5t-51 29t-43 52t-18.5 78.5zM940 160 q0 -33 16.5 -57.5t51.5 -24.5q29 0 65.5 13t73.5 48q49 41 76.5 90.5t27.5 77.5q0 25 -24.5 55.5t-52.5 30.5h-3q-33 0 -61.5 -12t-65.5 -45q-18 -18 -37.5 -42t-34 -48.5t-23.5 -48t-9 -37.5z" />
<glyph unicode="&#x26;" horiz-adv-x="1228" d="M188 174q0 27 8.5 57.5t24.5 53.5q18 33 51 64.5t70 59t75 52t68 45.5q10 8 11.5 13t-2.5 16q-18 55 -19 108q2 86 47 151.5t103 104.5q39 29 82 40t65 11h2q23 0 37 -9t23 -19q16 -18 4 -45q-12 -20 0 -39q10 -10 19 -35t9 -47q0 -37 -18.5 -71t-49 -64.5t-70.5 -59.5 t-81 -55q-12 -8 -13 -14.5t1 -12.5q10 -20 25.5 -49t34 -59.5t38 -62.5t37.5 -56q12 -14 29 -6q82 59 114.5 101t42.5 65q10 20 6 33.5t-10 23.5q-8 10 -4 24.5t23 47.5q16 27 33.5 48t35.5 21t44 -22.5t26 -52.5q0 -27 -13.5 -59t-30.5 -62.5t-36.5 -56t-32.5 -40.5 q-16 -16 -59 -57t-88 -76q-12 -6 -2 -20q41 -43 91 -70.5t105 -27.5q61 0 108.5 35.5t82.5 93.5q8 16 21.5 14t13.5 -19q0 -16 -10 -38q-14 -39 -41 -72t-62 -57.5t-75 -38t-83 -13.5q-72 0 -136 40t-111 91q-14 12 -29 2q-76 -51 -164 -90t-176 -39q-41 0 -77 16.5 t-61.5 44t-41 63.5t-15.5 75zM305 184q0 -47 39 -78.5t102 -31.5h3q45 0 106 28.5t117 63.5q16 10 4 29q-14 20 -32.5 48.5t-38 59.5t-37 60.5t-29.5 52.5q-6 14 -23 4q-25 -16 -60.5 -40t-69.5 -54.5t-57.5 -66.5t-23.5 -75zM580 674q0 -23 2 -44.5t12 -43.5q4 -14 24 -2 t46 30.5t48.5 40t38 46t15.5 51.5q2 29 -7 59.5t-44 30.5h-2q-23 0 -46.5 -14.5t-43 -38t-31.5 -53t-12 -62.5z" />
<glyph unicode="'" horiz-adv-x="237" d="M283 692q4 20 14 41q14 31 31.5 74t34 85t28.5 75.5t17 46.5q6 23 12 37t22 14h2q10 0 18.5 -4t18.5 -10q10 -8 25.5 -22.5t11.5 -31.5q-4 -25 -24.5 -64.5t-46 -81.5t-51 -80t-40.5 -56q-37 -45 -59 -45q-18 0 -14 22z" />
<glyph unicode="(" horiz-adv-x="653" d="M186 119v2q0 61 11.5 128.5t28 131t36 116t37.5 83.5q31 59 75 121.5t93 119t99 102.5t96 76q96 63 139 64q12 0 26.5 -8t24.5 -23q23 -33 -31 -57q-158 -72 -260 -180.5t-184 -266.5q-20 -41 -36.5 -91t-27 -105.5t-16.5 -109.5t-6 -99q0 -104 26.5 -192.5t90.5 -166.5 q29 -35 45 -57t16 -39q0 -16 -19.5 -25.5t-31.5 -9.5t-27.5 7.5t-40.5 25.5q-39 31 -69.5 83t-51 115.5t-32 129t-11.5 125.5z" />
<glyph unicode=")" horiz-adv-x="673" d="M57 -332q-27 25 4 62q16 18 26.5 26t23.5 6q27 0 75 29q92 57 163 133t132 172q72 115 108 234t36 241q0 55 -8.5 110.5t-22.5 105t-35.5 89t-48.5 64.5q-16 14 -32.5 20.5t-31.5 6.5q-33 2 -38 26q-4 14 2 25.5t16 21.5q12 10 27.5 18.5t29.5 8.5h2q18 0 47 -13.5 t60 -48t61.5 -95t55.5 -154.5q16 -78 16 -170q0 -111 -30.5 -223.5t-83 -216t-123 -194.5t-152.5 -159q-55 -49 -96 -76.5t-69 -43t-44 -19.5t-27 -4q-8 0 -19 4t-24 14z" />
<glyph unicode="*" horiz-adv-x="712" d="M248 657q2 10 15 25.5t26 19.5q8 2 52 8.5t122 20.5q16 2 18 7t-8 18q-10 12 -27.5 27.5t-36 29.5t-33 25.5t-18.5 15.5q-10 12 -13 19.5t-1 15.5q2 20 17.5 28.5t25.5 8.5q18 0 43 -27q6 -6 20.5 -19.5t29 -28.5t28.5 -29.5t20 -20.5q10 -8 14.5 -7t8.5 15q6 29 14 65.5 t13 53.5q6 29 23 45t30 16h2q12 0 26.5 -8t18.5 -23q8 -27 -8 -59q-12 -27 -23.5 -55.5t-21.5 -57.5q-6 -16 -4 -20t18 0q12 2 30.5 6l37 8t34 8.5t21.5 6.5q12 6 24.5 12t20.5 6q12 -2 29.5 -12t17.5 -33q0 -16 -16.5 -28.5t-32.5 -16.5q-10 -4 -41 -8t-90 -15 q-20 -4 -21 -6q-2 -6 23 -32q6 -6 19.5 -18.5t26.5 -25t25.5 -24.5t18.5 -19q23 -25 22 -45q0 -12 -9 -25t-21 -18q-29 -16 -41 9q-18 33 -53 70.5t-58 64.5q-18 23 -28 16q-6 -4 -19 -41q-10 -33 -20.5 -69.5t-20.5 -75.5q-4 -23 -11 -28t-15 -5q-16 0 -35 23 q-10 16 -13.5 34.5t7.5 46.5q10 27 24 62t19 51q8 25 -17 19q-66 -10 -104.5 -22.5t-67.5 -29.5q-10 -4 -23.5 -1t-21.5 14q-12 14 -12 32z" />
<glyph unicode="+" horiz-adv-x="1128" d="M322 377q0 18 13 30.5t25 18.5q14 4 47 6t68 0h44t51.5 -1t47 -1h31.5q16 0 21.5 6t5.5 27v55q0 41 2 99.5t4 105.5q4 27 21.5 34t25.5 7q14 0 25.5 -8t21.5 -21q14 -12 16.5 -28.5t-1.5 -38.5q-4 -18 -9.5 -80t-7.5 -127q0 -16 3 -24.5t18 -8.5q16 0 61 1t94 1t89 1 t51 1q33 0 46 -24.5t13 -45.5q0 -16 -17.5 -23t-41.5 -7q-53 0 -136.5 2t-162.5 2q-10 0 -16.5 -10.5t-6.5 -38.5q0 -98 3 -164t7 -94q12 -55 -45 -56q-20 0 -45.5 15.5t-25.5 44.5q0 6 2 30.5t3 57.5t3 69.5t2 67.5v43q0 23 -5 29t-28 6q-61 0 -132 -1t-130 -1 q-23 0 -39 14t-16 29z" />
<glyph unicode="," horiz-adv-x="309" d="M-57 -270q0 10 5 17t21 20q37 29 74 66.5t64.5 78.5t45 82t17.5 78q0 23 -6 40t-17 31q-12 12 -2 39q8 18 29 34.5t43 16.5h2q35 0 56.5 -29.5t23.5 -82.5q0 -57 -24.5 -112.5t-63.5 -103.5t-88 -89t-98 -70q-29 -18 -45.5 -25.5t-24.5 -7.5q-12 0 -12 17z" />
<glyph unicode="-" horiz-adv-x="536" d="M174 258q-10 14 10 45q29 49 113 74q12 4 49 14t79 21.5t80 19.5t54 8q27 0 27 -18v-2q0 -20 -24.5 -49t-65.5 -39q-70 -20 -148 -41t-139 -39q-25 -6 -35 6z" />
<glyph unicode="." horiz-adv-x="309" d="M102 47q0 16 9.5 35.5t24 36t31.5 28t36 11.5h2q31 0 57.5 -30t26.5 -54q0 -16 -11.5 -33.5t-30 -32t-40 -23t-41.5 -8.5q-23 0 -43.5 23t-20.5 47z" />
<glyph unicode="/" horiz-adv-x="743" d="M54.5 -157.5q-1.5 16.5 2.5 30.5q4 10 15.5 25.5t21.5 23.5q6 4 17.5 14.5t36 39t64.5 84t101 151.5q66 100 135.5 201.5t133 189.5t113.5 156.5t79 105.5q25 37 32 54.5t15 33.5t26.5 24.5t33.5 8.5h2q35 0 45 -35q8 -39 -31 -88q-129 -160 -263 -344t-288 -412 q-43 -63 -69.5 -104t-42 -66.5t-19.5 -41t-2 -27.5q2 -16 -8 -31.5t-25.5 -26t-33 -16.5t-31.5 -6q-31 0 -49 25q-10 14 -11.5 30.5z" />
<glyph unicode="0" d="M160 211q0 61 21.5 137t56 150.5t79.5 143.5t95 118q33 33 67.5 62.5t67.5 52t61.5 37t46.5 14.5q10 0 18.5 -5.5t14.5 -11.5q8 -6 37 -6q35 0 63.5 -19.5t49 -51t32 -71.5t11.5 -83v-2q0 -35 -11.5 -84t-30 -102.5t-42 -106.5t-47.5 -94q-27 -45 -61 -86t-69.5 -76 t-70.5 -62.5t-62 -44.5q-35 -23 -77.5 -35t-71.5 -12q-35 0 -64.5 16.5t-60.5 53.5q-29 37 -41 85t-12 83zM283 231q0 -47 10 -77.5t23.5 -49t28.5 -25.5t26 -7q29 0 57.5 13t63.5 44q18 16 44.5 45t55.5 65.5t54.5 78.5t43.5 83q33 76 53.5 149t20.5 120v2q0 20 -4 48 t-13.5 50.5t-27 38.5t-43.5 16q-20 0 -29 -18q-6 -14 -16 -26.5t-37 -14.5q-29 -2 -56.5 -17.5t-68.5 -60.5q-31 -33 -63.5 -85t-60.5 -114.5t-45 -129t-17 -128.5z" />
<glyph unicode="1" horiz-adv-x="657" d="M266 688q0 12 33 25q41 14 123 41.5t164 72.5q16 8 24 16.5t15 16.5q4 6 11 13.5t17 17.5q16 16 42 31.5t44 15.5h2q20 0 30.5 -20.5t14.5 -43.5q4 -16 -4 -28t-18 -21q-29 -25 -43 -52.5t-37 -74.5q-25 -55 -72 -180t-108 -287q-20 -57 -8 -100q16 -45 16 -65 q0 -12 -12.5 -31t-28.5 -35t-33.5 -28.5t-29.5 -12.5q-14 0 -33 16.5t-17 61.5q4 25 11.5 57.5t17.5 67.5q41 129 83 254t85 248q14 37 2 43q-12 2 -53 -15q-27 -8 -62.5 -17t-60.5 -13q-18 -4 -37.5 -3.5t-37 4t-29 9.5t-11.5 16z" />
<glyph unicode="2" d="M55 49q6 33 41 51q6 2 15.5 7.5t27 17.5t43 33.5t64.5 58.5q55 49 99 90t86 82t84 84t91 98q51 53 68.5 90t17.5 72q0 49 -33.5 69.5t-72.5 20.5q-29 0 -61.5 -17.5t-64.5 -44t-58.5 -55t-41.5 -51.5q-10 -14 -29.5 -17t-35.5 7q-31 20 -31 47q0 23 20.5 46.5t49 45 t60.5 41t55 31.5q59 35 108 51.5t72 16.5h2q78 0 130 -48.5t48 -132.5q0 -39 -14.5 -74.5t-34 -66.5t-43 -58.5t-43.5 -47.5q-12 -12 -54 -52.5t-89.5 -85.5t-90.5 -85t-57 -54q-35 -31 -56.5 -56.5t-23.5 -35.5q0 -10 12.5 -15.5t46.5 -9.5q18 -2 43 -3t51.5 -1h50h38.5 q72 0 127 12.5t78 12.5q43 0 28 -45q-10 -18 -38.5 -45t-51.5 -39q-16 -10 -33.5 -9t-36.5 7q-14 4 -51 11t-129 7q-102 0 -160.5 1t-87.5 1q-14 -2 -24 -4t-21 -4q-10 -4 -17 -6t-15 -4q-23 -6 -41 8q-8 8 -13.5 22.5t-3.5 24.5z" />
<glyph unicode="3" d="M84 53q0 29 35 46.5t59 15.5q35 -4 58.5 -13.5t52.5 -31.5q16 -14 35 -15q33 0 68.5 9.5t70.5 23.5t64.5 31.5t50.5 36.5q29 27 49 56.5t20 55.5q0 35 -24.5 67t-67.5 54q-43 23 -88 27t-86 6q-25 0 -51.5 12t-26.5 35q0 20 20.5 37.5t47.5 17.5q14 0 39.5 8.5t57.5 22.5 t64.5 33.5t59.5 44.5q47 37 60.5 61.5t13.5 40.5q0 53 -45.5 80t-108.5 27q-37 0 -52.5 -12.5t-29.5 -41.5q-6 -20 -26.5 -40.5t-36.5 -20.5q-18 0 -37 19.5t-19 37.5q0 20 10.5 42t25.5 39.5t34.5 28.5t36.5 13q10 0 23.5 3t29.5 8q23 4 42 8t40 4h2q61 0 111.5 -24.5 t74.5 -47.5q23 -23 34 -52.5t11 -49.5q0 -35 -16 -64.5t-45 -60.5q-12 -12 -31.5 -27.5t-42 -31t-43 -29t-35.5 -21.5q-18 -8 -21 -17t13 -16q37 -14 72 -30.5t62.5 -40t44 -54t16.5 -73.5q0 -35 -21.5 -80t-58.5 -84q-72 -72 -177.5 -117t-223.5 -55q-12 -2 -24.5 -2h-27.5 q-16 0 -39.5 8t-47 21.5t-40 32t-16.5 38.5z" />
<glyph unicode="4" d="M141 399q0 29 43 76t111 98q25 20 74 56.5t105 76t111.5 76.5t94.5 56q25 12 35 21t14 22q6 23 24.5 42t39.5 19h2q16 0 27.5 -13.5t17.5 -31.5t8 -37.5t0 -30.5q0 -16 -7 -25t-16 -13q-12 -10 -20 -23.5t-19 -32.5q-14 -31 -30.5 -71.5t-32.5 -84.5t-31.5 -87t-27.5 -76 q-8 -25 8 -23q55 2 96 21q35 12 59 4q18 -4 30.5 -17.5t12.5 -23.5q0 -27 -39 -60q-16 -14 -28 -13t-29 5q-16 6 -25.5 8t-21.5 0q-16 -2 -33.5 -4t-34.5 -4q-39 -6 -49 -28q-4 -10 -11 -29t-24 -64q-16 -41 -10 -52t19 -13q12 0 18 -8.5t2 -22.5q-4 -18 -17.5 -36.5 t-23.5 -32.5q-14 -18 -20 -46q-2 -12 -11.5 -30.5t-22.5 -34.5t-27.5 -27.5t-28.5 -11.5q-12 0 -19.5 10.5t-11.5 24.5q-8 49 14 137q8 35 14.5 54.5t12.5 40t17.5 50t29.5 82.5q6 14 4 19.5t-18 5.5h-54q-104 0 -170.5 13.5t-89.5 27.5q-41 23 -41 61zM291 416 q10 -10 50 -21.5t112 -11.5l77 2q18 0 29 31q12 33 27.5 71.5t30 76.5t26.5 72t21 56q12 29 6 33t-29 -8q-25 -12 -63.5 -39t-80.5 -57.5t-79 -58t-56 -42.5q-41 -31 -63.5 -58.5t-7.5 -45.5z" />
<glyph unicode="5" d="M106 82q0 51 54 51q41 0 76 -24q20 -16 33.5 -36t25.5 -36q18 -20 61 -21q43 0 90.5 19.5t87 52.5t65.5 75t26 89q0 39 -17.5 62.5t-40.5 39.5q-12 8 -33.5 19.5t-46 23t-48 19.5t-42.5 14q-35 10 -44 19.5t-13 25.5q-4 12 -5 23.5t5 31.5q4 16 15.5 45t24.5 60 t25.5 58.5t18.5 41.5q14 29 22.5 57.5t12.5 59.5q4 18 21.5 34.5t33.5 26.5q25 10 45 -6q18 -14 46 -23.5t79 -9.5h2q45 0 79 4.5t69 16.5q29 8 55 20.5t45 12.5q20 0 20 -17q0 -12 -18 -32.5t-47 -42.5q-57 -41 -126 -50.5t-167 -9.5q-31 0 -45 -9t-35 -44q-27 -47 -45 -89 t-18 -69t24.5 -46t83.5 -42q39 -16 72 -33.5t56.5 -41t36.5 -56.5t13 -78q0 -41 -19.5 -84t-50 -80.5t-68.5 -69.5t-73 -50q-47 -27 -99 -42.5t-89 -15.5q-23 0 -50.5 6.5t-43.5 16.5q-23 12 -45 20q-41 23 -68 52.5t-27 60.5z" />
<glyph unicode="6" d="M168 295q0 39 10 91t31.5 108.5t55.5 114t81 108.5q45 49 102.5 92t121 76t131 52t133.5 19h2q27 0 53 -8t43 -22q25 -20 24 -47q0 -16 -19 -34t-50 -28q-33 -10 -56 14q-29 33 -71 33q-14 0 -46 -8t-73 -28.5t-89 -53.5t-95 -84q-80 -84 -118 -167t-44 -130 q-6 -35 20 -14q72 53 131.5 86t118.5 33q53 0 97.5 -22.5t72.5 -59.5q25 -29 37 -61.5t12 -61.5q0 -33 -13 -65.5t-32.5 -63.5t-44 -57.5t-47.5 -45.5q-18 -16 -46 -30.5t-56.5 -25.5t-55 -18t-47.5 -7q-59 0 -114.5 25.5t-98.5 82.5q-41 53 -51 109.5t-10 97.5zM297 224.5 q-2 -15.5 6 -38.5q23 -53 59.5 -82.5t90.5 -29.5q27 0 64.5 17.5t70.5 46t56.5 66.5t23.5 81q0 37 -30 76.5t-89 39.5h-2q-16 0 -44 -7t-63 -27q-43 -25 -79.5 -58t-47.5 -49q-14 -20 -16 -35.5z" />
<glyph unicode="7" d="M174 -25q0 25 13.5 44.5t33.5 35.5q18 14 27.5 22.5t15.5 14.5q8 10 21.5 28.5t42.5 49.5q74 80 143.5 161t126.5 150.5t97 120.5t53 70q27 35 47 68.5t20 50.5q0 20 -51 22q-23 2 -51.5 2h-57h-54.5h-40q-35 0 -54.5 -8t-27.5 -21q-16 -23 -47 -22q-20 0 -45 7 t-46.5 18.5t-35.5 25.5t-14 29q0 23 30.5 47t63.5 24q16 0 35.5 -2t38.5 -6q16 -4 29.5 -4t56.5 -2h69.5t110.5 2t112.5 3t71.5 1q29 0 45.5 -11t24.5 -28q12 -33 -16 -77q-29 -49 -73 -107.5t-93 -118t-97.5 -115t-87.5 -96.5q-39 -43 -78.5 -86t-73.5 -80.5t-59.5 -66.5 t-33.5 -41q-27 -35 -22 -58.5t5 -39.5q0 -14 -11 -29.5t-28.5 -28t-37 -20.5t-33.5 -8q-18 0 -42 20.5t-24 58.5z" />
<glyph unicode="8" d="M150 168q2 43 24.5 78t57 65.5t76.5 57t83 53.5q27 14 0 35q-47 43 -64.5 82t-17.5 69q0 45 25.5 87t63.5 76t81 60.5t76 42.5q27 10 20 23q-4 10 5.5 21.5t17.5 17.5q25 20 51 20h2q25 0 60 -24q29 -23 58.5 -46.5t54 -53t40 -63.5t15.5 -77q-2 -39 -29 -74.5t-66 -68.5 t-79.5 -59.5t-69.5 -45.5q-27 -18 -6 -34q53 -47 74.5 -92.5t19.5 -79.5q-2 -41 -21.5 -77t-47 -65.5t-60.5 -52.5t-59 -35q-33 -16 -83.5 -28.5t-91.5 -12.5q-33 0 -70.5 17.5t-69.5 45t-52.5 64.5t-17.5 74zM268 168q0 -49 41 -81t88 -32h2q31 0 67 12.5t68.5 34t54 51 t21.5 62.5q0 31 -12 57.5t-35 49.5q-57 57 -71 57q-8 0 -36 -14.5t-59 -36.5q-57 -39 -93 -79t-36 -81zM422 627q0 -20 15.5 -48t66.5 -71q25 -23 47 -12q25 10 61.5 31.5t71.5 48t59.5 56.5t24.5 58q0 35 -29.5 75t-62.5 56q-18 14 -62 -6q-31 -12 -65.5 -33.5t-62 -47 t-46 -53.5t-18.5 -52v-2z" />
<glyph unicode="9" d="M98 -45q0 29 27 50.5t49 29.5q16 8 45 8q20 -2 49 4q80 18 157 69.5t140.5 117t103.5 138t46 134.5q0 27 -31 2q-23 -18 -55.5 -38.5t-69.5 -38t-75 -30t-70 -12.5q-66 0 -116 41t-50 127q0 29 14 76t55 98q59 76 134 124t174 48q25 0 28 12q2 10 12.5 14.5t22.5 4.5 q20 0 48 -16.5t53.5 -49t43 -79t17.5 -107.5v-2q0 -66 -14.5 -139.5t-38.5 -130.5q-33 -78 -84 -145.5t-116 -124t-137.5 -100.5t-146.5 -71q-18 -6 -26 -12t-19 -14q-20 -18 -47.5 -31.5t-58.5 -13.5q-23 0 -43.5 21.5t-20.5 35.5zM371 575q0 -41 19.5 -66.5t47.5 -25.5 q20 0 64.5 12.5t97.5 45.5q51 33 83 64.5t40 47.5q8 14 10 33t2 47v2q0 29 -13 45.5t-24 16.5q-6 0 -14 1t-12 5q-16 14 -51 14q-29 0 -75 -16.5t-81 -44.5q-41 -39 -67.5 -83t-26.5 -98z" />
<glyph unicode=":" horiz-adv-x="309" d="M104 47q0 16 9.5 35.5t24 36t31.5 28t36 11.5h2q31 0 57.5 -30t26.5 -54q0 -16 -11.5 -33.5t-30 -32t-40 -23t-41.5 -8.5q-23 0 -43.5 23t-20.5 47zM236 467q0 39 27.5 77t68.5 38h2q33 0 58.5 -30t25.5 -54q0 -20 -11.5 -38t-29 -31t-36.5 -21.5t-36 -8.5 q-23 0 -46 19.5t-23 48.5z" />
<glyph unicode=";" horiz-adv-x="309" d="M-55 -270q0 10 5 17t21 20q37 29 74 66.5t64.5 78.5t45 82t17.5 78q0 23 -6 40t-16 31q-12 12 -3 39q8 18 29 34.5t43 16.5h2q35 0 56.5 -29.5t23.5 -82.5q0 -57 -24.5 -112.5t-63.5 -103.5t-88 -89t-98 -70q-29 -18 -45.5 -25.5t-24.5 -7.5q-12 0 -12 17zM233 467 q0 39 29 77t70 38h2q31 0 57.5 -30t26.5 -54q0 -20 -11.5 -38t-29 -31t-38 -21.5t-36.5 -8.5q-23 0 -46.5 19.5t-23.5 48.5z" />
<glyph unicode="&#x3c;" horiz-adv-x="1013" d="M307 319v3q0 18 21.5 33.5t44.5 25.5q16 6 57 27.5t93 50t109.5 62.5t109 64.5t90 53.5t55.5 33q27 16 42 20t25 4q16 0 25.5 -13t7.5 -38q-2 -16 -14 -34.5t-39 -30.5q-98 -45 -191.5 -94.5t-191.5 -102.5q-53 -31 -53 -45q-2 -12 16 -25.5t43 -25.5q150 -78 223.5 -121 t102.5 -64q51 -35 41 -63q-4 -12 -20.5 -23.5t-33.5 -17.5q-14 -6 -22 -4t-21 12q-43 37 -104 76t-128 76t-132.5 67.5t-114.5 46.5q-16 4 -28.5 18.5t-12.5 28.5z" />
<glyph unicode="=" horiz-adv-x="1128" d="M315 238q0 31 45 41q35 8 166 2q74 -4 163 -9.5t161 -5.5h2q119 0 168 13q23 6 41 -2.5t35 -24.5q16 -16 15 -34.5t-19 -27.5q-16 -10 -42 -14t-71 -4q-94 0 -185.5 2t-160.5 6q-72 4 -119 4h-72q-20 0 -32.5 -5t-18.5 -9q-16 -14 -41 2q-35 31 -35 66zM344 530 q0 23 29 35q18 10 69 10h2q18 0 81 -3t149 -7q78 -4 140.5 -5t113.5 -3q68 -4 100 10q31 6 53 -12q23 -23 23 -47q0 -25 -32 -35t-64 -10q-37 0 -83 1t-134 3q-98 2 -175 5t-110 3q-37 0 -58.5 -3t-37.5 -7q-27 -4 -48 22q-8 10 -13 21.5t-5 21.5z" />
<glyph unicode="&#x3e;" horiz-adv-x="1013" d="M244 23q0 20 27.5 42.5t56.5 34.5q39 12 100 39t128 57.5t127 61.5t95 53q35 20 35 35q0 16 -45 45q-43 27 -93 56.5t-102.5 57t-104.5 52.5t-101 41q-35 10 -35 33q0 8 11 19.5t26.5 20.5t31 15t23.5 6q23 0 44 -12t50 -33q14 -10 55 -34.5t90.5 -53.5t96.5 -55.5 t74 -40.5q47 -23 63 -31t33 -16q29 -14 28 -51v-3q0 -12 -13 -32.5t-42 -42.5q-18 -14 -69.5 -44t-122 -69t-156.5 -81t-172 -81q-37 -16 -55.5 -21t-28.5 -5q-16 0 -36.5 10t-18.5 27z" />
<glyph unicode="?" horiz-adv-x="546" d="M221 444q0 29 32 71t73 71q18 12 49 30.5t64.5 37t66.5 37t55 30.5q39 20 54.5 38.5t15.5 39.5q0 25 -22.5 38t-41.5 13q-20 0 -39 -23q-10 -10 -19 -17t-30 -7q-12 0 -32.5 3t-39 10t-33 17.5t-14.5 24.5q0 20 27 36.5t51 23.5q23 6 60 13t59 7h2q27 0 59.5 -9 t60.5 -25.5t47 -41t19 -55.5q0 -41 -35.5 -82t-78.5 -72q-18 -12 -52 -32.5t-70 -42t-66.5 -40t-43.5 -24.5q-55 -35 -55 -68q-2 -20 6 -37.5t19.5 -29.5t25 -18.5t21.5 -6.5q10 0 39 21q16 12 37.5 24.5t42.5 12.5q20 0 38.5 -14.5t18.5 -30.5q0 -12 -13.5 -26.5t-32 -27 t-39 -21.5t-32.5 -11q-20 -4 -35.5 -5.5t-38.5 3.5q-35 4 -73.5 20t-67.5 53q-25 33 -32 53.5t-7 38.5zM231 72q0 35 26 62.5t54 27.5q35 0 62.5 -30t27.5 -71q0 -18 -9 -34.5t-22.5 -29.5t-28.5 -21.5t-30 -8.5h-2q-23 0 -50.5 26.5t-27.5 78.5z" />
<glyph unicode="@" horiz-adv-x="1296" d="M215 225q0 162 69.5 298t178 234.5t242 153t262.5 54.5h2q98 0 171.5 -32t123 -85t74 -123t24.5 -145q0 -80 -35 -158t-91 -140.5t-128 -100.5t-145 -38q-35 0 -66 35t-31 78v76q0 25 -14 10q-8 -8 -29.5 -28.5t-49.5 -43t-56.5 -46t-50.5 -38.5q-37 -25 -67 -34t-48 -9 q-12 0 -35.5 17.5t-23.5 62.5q0 23 14 65t51 107q43 72 110.5 146.5t149.5 128.5q57 37 87 45t46 8q14 0 24.5 -11.5t14.5 -21.5q6 -12 25 -2q6 6 11 8t17 -6q14 -10 21.5 -20.5t-2.5 -28.5q-90 -154 -100 -285q-6 -47 6 -83.5t47 -36.5q43 0 86 26.5t78.5 71.5t58.5 106.5 t23 130.5q0 147 -94.5 226.5t-247.5 79.5q-104 0 -209 -52.5t-189 -136.5t-136 -189.5t-52 -213.5q0 -160 107.5 -256.5t303.5 -96.5q39 0 85 8.5t89.5 19.5t79 23.5t52.5 22.5q20 10 26 -3t-16 -34q-49 -37 -105.5 -60.5t-113 -36.5t-110.5 -18.5t-101 -5.5q-82 0 -157 31 t-132 83t-91 121t-34 142zM614.5 273q1.5 -15 14.5 -15q10 0 31.5 8t44.5 31q25 23 64.5 60.5t74.5 80.5q8 8 19 24.5t22.5 33t22 31t14.5 20.5q6 10 12 24.5t4 24.5q-2 12 -11 23.5t-30 11.5h-2q-10 0 -37 -16.5t-63 -55.5q-78 -74 -117 -140.5t-55 -107.5 q-10 -23 -8.5 -38z" />
<glyph unicode="A" horiz-adv-x="991" d="M72 16q0 18 16 53t64 95q45 59 77.5 99t69.5 87q8 10 9 17.5t1 13.5t2 14t13 25q14 16 24 24.5t27 12.5q16 4 25.5 12t21.5 25q59 76 112.5 142t95.5 120.5t72.5 93.5t45.5 57q35 43 53 53.5t30 10.5h3q10 0 22 -13.5t21 -27.5q4 -12 3 -23.5t-14 -23.5 q-23 -18 -33 -29.5t-12 -28.5q-1 -10 -1 -30q0 -29 2 -81q3 -86 12 -204q2 -12 4 -18.5t12 -6.5q35 0 83 -3t91 -7q31 -4 31 -14q0 -1 -1 -3q-5 -14 -38 -24q-37 -12 -81 -18t-77 -10q-12 0 -15 -4.5t-1 -16.5q10 -90 16 -140t14 -79t21.5 -33t42.5 2q18 4 23.5 -7t3.5 -24 q-4 -51 -37 -80.5t-74 -29.5q-25 0 -46.5 20.5t-33.5 79.5q-6 43 -17.5 124t-15.5 167q-2 10 -6 11t-18 1q-66 -2 -120 -7t-108 -15q-35 -6 -57 -16.5t-39 -28.5q-6 -6 -26.5 -30t-44 -56.5t-44 -68.5t-24.5 -69v-22t2 -25q2 -10 -2 -23t-21 -26q-20 -16 -55 -33.5 t-59 -17.5q-19 -1 -33 17q-13 15 -12 35v5zM543 500q-6 -10 -6 -16q0 -8 12 -8q4 0 10 1q31 4 73 5t77 1h2q16 0 18 4.5t2 14.5q-2 49 -5 91t-5 95q-2 20 -8 22h-1q-6 0 -22 -20q-16 -16 -35.5 -40.5t-40 -51.5t-39 -53.5t-32.5 -44.5z" />
<glyph unicode="B" horiz-adv-x="800" d="M202 100q1 43 17 107q12 51 41 135t61.5 174t64.5 173t52 132q8 16 3 24.5t-40 10.5q-35 4 -14 35q10 23 38 33t44 10q12 0 23 18q8 18 22 37t33 19q14 0 27.5 -7.5t23.5 -17.5q16 -16 10 -39q-2 -10 2 -11t15 -5q31 -6 66.5 -14.5t68.5 -18.5t60.5 -20.5t43.5 -20.5 q29 -16 45.5 -45t16.5 -55v-2q0 -20 -11.5 -42t-28 -42.5t-38 -40t-41.5 -33.5q-47 -35 -90 -59.5t-88 -47.5q-10 -6 -9 -8t11 -6q14 -6 35.5 -15t43 -20.5t40 -23t28.5 -19.5q23 -20 34 -48t11 -56q0 -33 -25.5 -70t-47.5 -59q-12 -12 -39 -34t-60 -43.5t-66.5 -40.5 t-58.5 -32q-18 -8 -39.5 -15t-41 -12t-36 -8.5t-24.5 -3.5q-18 0 -37.5 12.5t-40.5 22.5q-6 4 -13 2t-22 -12q-12 -12 -28 -12q-8 0 -18.5 10t-17.5 36q-6 22 -6 58v10zM332 90q-1 -3 -1 -5q0 -11 23 -11t59 7t83 25q31 12 66.5 33t67.5 45.5t53.5 50t21.5 46.5v2 q0 18 -10.5 35.5t-51.5 39.5q-53 33 -109.5 51.5t-105.5 18.5q-25 0 -33 -18t-18 -45t-19.5 -53.5t-15.5 -50t-6 -38.5q-2 -35 2 -49q6 -27 2 -49q0 -10 -2 -18.5t-6 -16.5zM442 547q-3 -9 -3 -15q0 -16 18 -16q16 0 44.5 4t73.5 23q23 10 62 33.5t77 52t65.5 60.5t27.5 59 v2q0 25 -55 47q-100 35 -177 39q-14 0 -19 -8.5t-11 -22.5q-4 -8 -19.5 -46t-33 -81t-32 -82t-18.5 -49z" />
<glyph unicode="C" horiz-adv-x="808" d="M174 229q0 90 35 192.5t96.5 199t146.5 177.5t185 128q47 23 84 31t70 8h2q39 0 72.5 -20.5t33.5 -67.5q0 -23 -10 -40.5t-24.5 -29.5t-29 -18.5t-22.5 -8.5q-18 -4 -20 4.5t0 16.5q6 10 8 15t2 15t-10.5 19.5t-32.5 9.5q-33 0 -71 -15.5t-76 -41t-72.5 -58t-63.5 -69.5 q-37 -47 -69.5 -100.5t-57 -111.5t-40 -117.5t-15.5 -119.5q0 -72 33.5 -107.5t93.5 -35.5q74 0 150.5 29.5t143 67.5t114 74t63.5 48q23 18 31 7q4 -5 4 -12q0 -9 -6 -22q-12 -27 -79 -88t-175 -120q-78 -45 -154 -69t-147 -24q-53 0 -89 21.5t-59.5 57.5t-34 81t-10.5 94z " />
<glyph unicode="D" horiz-adv-x="978" d="M248 119q-1 11 -1 23q0 22 5 48q8 38 18 74q4 16 18.5 61.5t35 102.5t42 119.5t42 118t35 95.5t18.5 50q10 25 -12 20q-37 -4 -75 -19t-55 -26q-16 -10 -26 6.5t-10 32.5q0 29 16 44.5t39 25.5q29 12 72 20.5t77 8.5q16 0 23 16q2 6 9 16.5t16.5 20.5t19.5 17t20 7 q27 0 44.5 -20t13.5 -43q-2 -10 3 -11t11 -1q96 -6 173 -34t131.5 -71t83 -97t28.5 -112v-2q0 -92 -44 -179t-105.5 -159.5t-126 -125t-107.5 -76.5q-41 -25 -85 -41.5t-85 -26.5t-77 -15t-62 -5q-12 0 -30.5 8t-37 25.5t-34 43t-21.5 60.5zM383 113q8 -12 27.5 -27.5 t44.5 -15.5q51 0 134 49t162.5 127t138 175t58.5 193v2q0 61 -35.5 102.5t-87 67t-110 37t-103.5 13.5q-14 0 -19 -6.5t-15 -24.5q-25 -59 -52.5 -131t-52 -143.5t-45 -135t-33.5 -106.5q-24 -77 -23 -116q-1 -41 11 -60z" />
<glyph unicode="E" horiz-adv-x="843" d="M121 37q0 16 26.5 38.5t38.5 26.5q4 2 9.5 6.5t11.5 18.5q18 41 41.5 111.5t52.5 162.5q8 27 -10 37q-23 16 -27 39q-4 18 23 27q37 16 47 24.5t16 26.5q2 8 7 21.5t11.5 36t16.5 56t25 85.5q6 23 3 31t-16 18q-29 23 -35 34t5 21q18 14 57 27q16 8 24.5 21.5t20.5 47.5 q9 29 28 29h5q12 -2 24.5 -14.5t22.5 -32.5q8 -10 15 -13t28 -3h192q53 0 96.5 -10.5t67.5 -32.5q20 -19 20 -31q0 -6 -5 -10q-10 -10 -50 -2q-25 4 -61.5 4h-87.5q-45 0 -89 -4.5t-87 -8.5q-29 -4 -38 -14t-20 -41q-6 -16 -15 -48t-19.5 -65.5t-18.5 -63.5t-12 -42 q-8 -25 12 -27q33 -4 73 -7q24 -2 57 -2q22 0 48 1q45 0 91.5 5t84.5 14q23 6 18 -9.5t-26 -31.5q-25 -23 -53.5 -34t-62.5 -18q-76 -14 -256 -18q-16 0 -21.5 -5t-9.5 -20q-27 -70 -52.5 -139.5t-48.5 -132.5q-4 -14 -0.5 -20.5t19.5 -10.5q27 -4 80 -7t129 -3q61 0 105 3 t81 9t71 16.5t73 24.5q23 10 26.5 -1t-18.5 -27q-49 -35 -97.5 -57.5t-101.5 -36t-117.5 -20.5t-146.5 -7q-90 0 -176 6q-51 2 -88 12t-37 29z" />
<glyph unicode="F" horiz-adv-x="831" d="M154 39q0 9 6 16q12 16 51 37q12 10 19.5 19.5t13.5 23.5q2 10 10 35t15 53.5t14.5 55t11.5 38.5q4 16 -1 30.5t-15 27.5q-9 12 -9 23q0 19 27 34q27 16 40 27.5t21 29.5q4 8 17.5 48.5t30 89.5t31 96t20.5 70q2 29 -15 28q-45 0 -84 -33q-27 -20 -39 -4q-18 23 -4 52 q8 16 23.5 36.5t32.5 34.5q23 20 47 21.5t47 -10.5q10 -8 14 -6.5t4 8.5q2 8 3 17t6 19q6 29 30 29q33 0 59.5 -24.5t24.5 -47.5q-2 -10 21 -10h182q29 0 39 4t14 15q10 23 43 14q31 -8 67 -29.5t36 -44.5q0 -18 -39 -37q-44 -22 -66 -22q-7 0 -12 2q-12 4 -32.5 10t-47.5 6 q-33 0 -93 1h-38q-38 0 -74 -1q-12 0 -17 -9t-11 -26q-6 -16 -22.5 -61t-34 -94t-32 -89t-16.5 -46q-8 -25 14 -25q6 0 39 2t79 5t99.5 5t102.5 4q48 1 78 1h25q30 -1 42 -3q16 0 22.5 -7t-1.5 -17q-6 -4 -18.5 -12.5t-34.5 -16.5q-23 -8 -72 -18.5t-105 -16.5 q-80 -10 -141 -16t-127 -16q-31 -4 -42 -14.5t-21 -33.5q-23 -55 -41.5 -97t-36.5 -87q-16 -31 10 -43q12 -4 31.5 -6t41 -2t42 3t35.5 7q23 6 26.5 -3t-14.5 -28q-31 -33 -91.5 -56t-121.5 -23q-35 0 -70 7t-53 23q-16 11 -16 27z" />
<glyph unicode="G" horiz-adv-x="919" d="M174 217v2q0 84 26.5 170t79 169t128 159t174.5 139q90 57 163.5 77.5t120.5 20.5q31 0 59.5 -12t43.5 -24q12 -10 15 -25.5t-11 -28.5q-10 -10 -31.5 -23.5t-38.5 -17.5q-18 -5 -33 -5q-26 0 -45 13q-16 8 -29.5 13.5t-29.5 5.5q-35 0 -113 -49t-176 -158 q-86 -96 -132 -206.5t-46 -200.5q0 -82 24.5 -117t57.5 -35q27 0 62.5 13.5t75.5 35t78 47t67 49.5q53 45 93 99.5t46 122.5q2 20 11 34.5t26 30.5q23 20 52.5 38.5t53.5 18.5q10 0 23.5 -5t23.5 -21q7 -7 7 -15q0 -12 -17 -26q-47 -41 -67.5 -96.5t-36.5 -120.5 q-8 -35 -20.5 -81t-26 -96.5t-27.5 -99.5t-27 -90q-14 -43 -38.5 -83t-53.5 -71.5t-58.5 -56t-52.5 -37.5q-51 -30 -99 -30h-3q-18 0 -49 7t-62.5 18.5t-59.5 24.5t-40 25q-16 15 -16 31t16 33q16 18 33.5 25.5t32.5 7.5q18 0 46.5 -16.5t43.5 -26.5q16 -14 33.5 -24.5 t31.5 -10.5q41 0 91.5 43t89.5 149q8 25 16 52.5t15 53t13.5 46t10.5 31.5q12 41 8 50t-16 -1q-20 -16 -50 -38t-61 -41.5t-59.5 -36.5t-46.5 -26q-47 -23 -88 -31.5t-70 -8.5q-18 0 -37.5 11t-38 27.5t-34 38t-23.5 41.5q-18 41 -23.5 69t-5.5 50z" />
<glyph unicode="H" horiz-adv-x="1079" d="M192 0q-1 9 -1 19q0 33 10 81q6 31 19 75t26.5 86t26 76t16.5 44q12 27 -6 29q-16 6 -26.5 14t-10.5 22q0 8 8 16.5t20.5 15.5t25.5 12.5t22 9.5q12 4 17 9t11 17q2 8 13.5 37t27 69t31.5 84t31.5 84t27 70.5t15.5 40.5q10 23 22 39.5t31 16.5q10 0 24.5 -8.5t25.5 -24.5 t12 -40t-13 -56q-4 -10 -23.5 -54.5t-42 -96.5t-42 -97t-23.5 -58q-6 -16 -4 -20t16 -4h72.5t131.5 -1t130 -1h70q16 0 20 3t8 13q4 14 23.5 68.5t43 119t48.5 124t39 84.5q16 27 27.5 35t29.5 8h2q18 0 30.5 -16.5t16.5 -33.5q1 -5 1 -11q0 -32 -27 -87q-23 -47 -57.5 -126 t-63.5 -165q-4 -10 -2 -13t14 -3h43t48.5 1t44 2t32.5 3q23 4 27 -5q1 -2 1 -4q0 -8 -13 -20q-43 -25 -96.5 -37t-110.5 -18q-23 -2 -27 -16q-6 -16 -15 -45t-28 -95q-4 -18 -1 -23t13 -7q12 0 18.5 -11.5t-1.5 -31.5q-10 -31 -26.5 -64t-36 -61.5t-37 -52t-27.5 -31.5 q-18 -16 -35 -17q-23 2 -28 34q-3 18 -3 36q0 14 2 29q4 16 17.5 65t29 104.5t29.5 101.5t18 58q6 20 -10 21q-10 0 -71.5 -2t-134 -3t-137 -3t-81.5 -2q-14 0 -20 -4.5t-14 -18.5q-10 -20 -22.5 -48t-25 -55.5t-21.5 -53t-13 -44.5q-4 -16 -1 -21t13 -9q29 -10 29 -38 q0 -12 -5 -26q-8 -25 -26.5 -46t-28.5 -38q-14 -16 -35.5 -31.5t-44.5 -15.5q-29 0 -33 37z" />
<glyph unicode="I" horiz-adv-x="579" d="M90 42.5q0 16.5 14 27.5q23 23 54.5 31t70.5 8q8 0 11.5 3t7.5 15q25 123 85 289t150 391q10 25 -16 22q-20 0 -45 -2t-41 -6q-31 -6 -41 17q-10 12 -7 28.5t19 28.5t43 16q23 4 60 6.5t55 2.5q14 0 20.5 3t10.5 7q10 20 22 35.5t39 15.5h2q20 0 35.5 -17.5t19.5 -35.5 q2 -16 19 -19q14 -2 31.5 -5t36 -6t34 -7t23.5 -6q16 -4 16 -15q0 -8 -9 -14t-21.5 -10t-24.5 -6t-19 -2h-96q-16 0 -33 -33q-29 -63 -70.5 -159.5t-81.5 -195t-71 -186.5t-39 -135q-4 -14 -2 -20.5t15 -6.5q51 0 93 2t58 2q35 4 60 -4q37 -14 -17 -39q-49 -23 -111.5 -33 t-103.5 -12q-10 0 -22.5 -12t-28.5 -18q-8 -4 -21 -4q-14 0 -30 20q-10 14 -29 14q-16 0 -37.5 -7t-38.5 -11q-10 -4 -18 -1t-19 15q-12 12 -12 28.5z" />
<glyph unicode="J" horiz-adv-x="460" d="M-240 -238q0 23 26 34t44 11q16 0 48 -11t46 -19q27 -16 53 -17q16 0 44 13.5t57 38.5q29 29 55.5 71.5t59.5 130.5q27 70 49 140.5t48.5 159.5t58.5 205t75 278q6 18 -10 18q-25 4 -52.5 17.5t-27.5 31.5q0 12 7 20.5t17 12.5q12 4 26.5 7t31.5 7q16 2 34.5 8.5 t34.5 28.5q23 23 47 23h3q18 0 38.5 -15.5t26.5 -27.5q3 -9 3 -18q0 -25 -23 -50q-18 -23 -33 -59q-6 -16 -15.5 -44t-24.5 -81t-39 -140t-60 -219q-49 -188 -100.5 -318t-112.5 -196q-29 -31 -55.5 -50t-50 -31.5t-41 -18.5t-25.5 -10q-14 -4 -33 -12.5t-29 -12.5 q-27 -10 -51 -10q-23 0 -49.5 9t-53.5 26q-20 10 -33.5 29.5t-13.5 39.5z" />
<glyph unicode="K" horiz-adv-x="1005" d="M180 30q-1 10 -1 21q0 59 34 162q14 41 42 114.5t57.5 151.5t57 147.5t42.5 102.5q23 63 23.5 91t-1.5 40q-2 10 0 22.5t12 28.5q10 12 36 33t48 21q25 0 38.5 -21.5t17.5 -42.5q1 -6 1 -11q0 -35 -22 -67q-4 -6 -11 -19t-20.5 -44t-34 -83t-53.5 -138q-10 -27 7 -27 q14 0 74.5 35t135 84t148.5 100t117 84q41 29 65.5 53.5t42.5 46.5q16 16 31.5 25.5t38.5 9.5h2q16 0 35.5 -16t17.5 -41q0 -25 -14 -42t-31 -28q-16 -8 -29.5 -16t-42.5 -29q-41 -31 -108.5 -75t-137 -88t-128 -80.5t-80.5 -51.5q-18 -12 -21.5 -24.5t6.5 -22.5 q37 -33 86.5 -82t94.5 -97t78.5 -86t42.5 -48q10 -14 19 -10t17 14q20 31 41 31q18 0 29.5 -30t11.5 -52q0 -18 -13 -38t-31.5 -35t-38 -25.5t-29.5 -10.5q-29 0 -60 39q-35 45 -78 98.5t-89 105.5t-94 98t-91 77q-20 16 -33.5 25.5t-17.5 17.5q-12 16 -23 -12 q-10 -23 -22.5 -56.5t-30.5 -87.5q-10 -31 -8 -52t12 -30q7 -7 7 -17q0 -17 -19 -42q-14 -20 -29.5 -49t-30.5 -55q-14 -27 -31.5 -42.5t-33.5 -15.5q-23 1 -31 61z" />
<glyph unicode="L" horiz-adv-x="833" d="M133 78q2 18 17 33q20 20 36 20q14 0 29 33q20 49 48 127t56.5 166t55 174t45.5 153q6 31 -8 29q-18 2 -40 10t-22 25q0 12 14.5 20.5t30.5 14.5q59 18 90 61q16 23 41 23q20 0 42 -17.5t28 -38.5q10 -23 -12 -59q-10 -12 -19.5 -32.5t-15.5 -39.5q-6 -16 -19.5 -54 t-31 -90t-40 -114.5t-46.5 -128.5q-35 -98 -59.5 -160.5t-35.5 -87.5q-14 -31 13 -39q47 -14 117.5 -23t154.5 -9h2q78 0 141.5 17.5t112.5 45.5q31 17 31 -1q0 -13 -17 -32q-53 -53 -137 -87.5t-200 -34.5q-76 0 -127.5 3t-77.5 5q-23 4 -38.5 7t-29.5 3t-26.5 -6 t-26.5 -12q-10 -6 -20 -6q-5 0 -11 2q-16 6 -20 22q-4 12 -9.5 24.5t-11.5 26.5q-5 8 -5 19q0 4 1 8z" />
<glyph unicode="M" horiz-adv-x="1435" d="M90 84q0 35 20.5 47t51.5 6q16 -4 31.5 5.5t29.5 25.5q8 10 35 56t62.5 116t77.5 156t81 178q10 29 10 44t-10 32q-8 10 -15 25.5t-7 29.5q2 18 25.5 34.5t60.5 32.5q14 6 20 11.5t15 19.5q6 10 20 32.5t33 22.5q31 0 50 -32q10 -16 10 -34t-9 -38q-20 -41 -34.5 -76 t-14.5 -86q0 -37 4 -91t10 -114.5t15.5 -121t17.5 -109.5q12 -66 29.5 -90.5t33.5 -24.5h2q16 0 33 13.5t41 35.5q39 35 84 88.5t90 112t88 116.5t77 107.5t57.5 84t29.5 42.5q16 25 27.5 48.5t11.5 39.5q0 57 29 58q14 0 21 4t16 18q10 20 26 21q14 0 26.5 -12.5t18.5 -31 t6 -42t-8 -43.5q-23 -51 -42 -131t-33.5 -161t-22.5 -151.5t-10 -101.5q-2 -33 -2 -59.5v-46.5q2 -18 10 -21.5t24 2.5q29 8 46 8q26 0 26 -18q0 -23 -38 -63t-81 -66q-27 -14 -49 -15q-16 0 -33.5 9.5t-31.5 21.5q-20 20 -4 49q8 10 9 25.5t5 34.5q6 59 12 109t14.5 103.5 t19.5 116t30 146.5q4 14 -1 15t-16 -13q-68 -98 -130 -182t-115.5 -148.5t-94.5 -109.5t-65 -70q-35 -35 -66.5 -64.5t-66.5 -29.5q-31 0 -54.5 29.5t-41 71.5t-27.5 89t-15 82q-10 86 -20 156.5t-14 138.5q-6 33 -23 -6q-31 -72 -66.5 -149.5t-71.5 -150.5t-67.5 -132.5 t-54.5 -91.5q-25 -35 -41 -49.5t-33 -14.5q-18 0 -34.5 14.5t-30 34t-21.5 40t-8 32.5z" />
<glyph unicode="N" horiz-adv-x="1028" d="M141 33q0 16 7.5 38.5t15.5 39.5q35 82 72.5 177t70.5 179t56.5 146.5t29.5 78.5t4 24.5t-12 16.5q-8 6 -14 18.5t0 28.5q10 31 37 49q14 14 12 33q-4 10 4 24.5t18 28.5q10 10 23.5 16.5t21.5 6.5h2q18 0 29.5 -10t22.5 -29q9 -20 9 -37.5t-9 -32.5q-10 -16 -14.5 -23 t-4.5 -18q0 -18 23 -61q53 -102 120.5 -226t139.5 -241q18 -33 31 4q27 86 49 152.5t41.5 122t38 102.5t36.5 90q37 98 60.5 144.5t40.5 64.5q27 31 55 31q16 0 28.5 -14.5t19.5 -34t11.5 -39t4.5 -29.5q0 -35 -35 -37q-27 -4 -38 -13t-22 -32q-35 -74 -64.5 -148.5 t-54 -142t-42 -126t-29.5 -99.5q-16 -53 -20.5 -79.5t-4.5 -47.5q0 -23 7.5 -37t17.5 -29q8 -12 5 -26t-13 -27q-10 -10 -22.5 -18t-28.5 -8q-18 0 -35 12t-27 27q-4 6 -10 17t-17.5 30.5t-28 49.5t-42.5 73q-25 41 -60.5 106.5t-70.5 129t-61.5 114.5t-35.5 63 q-8 12 -13 11t-13 -17q-27 -57 -49.5 -111.5t-41 -100.5t-30.5 -82l-18 -54q-8 -29 -10.5 -44t-4.5 -34q-4 -43 -6 -65.5t-7 -39t-14.5 -33t-27.5 -44.5q-12 -18 -26.5 -25.5t-26.5 -7.5q-25 0 -42.5 19.5t-17.5 54.5z" />
<glyph unicode="O" horiz-adv-x="927" d="M176 244q0 55 19.5 126.5t57.5 147.5t92 150.5t126 136.5q39 33 79 55.5t71.5 35.5t54 18.5t26.5 5.5q14 0 31 20q10 10 28.5 18.5t31.5 8.5h2q59 0 109 -30t85 -77q41 -59 41 -174q0 -82 -25.5 -162t-64.5 -150.5t-87 -131t-93 -101.5q-102 -92 -193.5 -125.5 t-150.5 -33.5q-41 0 -89 18t-89 59q-35 33 -48.5 86.5t-13.5 98.5zM303 231q0 -63 27.5 -111t93.5 -48q37 0 104.5 28.5t133.5 85.5q49 45 98 109.5t88 139.5t63.5 155t24.5 153q0 70 -51 109q-22 15 -32 15h-1q-10 -1 -6 -13q2 -8 1 -20.5t-11 -24.5t-27.5 -21.5 t-34.5 -9.5q-14 0 -21.5 7.5t-9.5 17.5q-4 14 -17 21t-28 7h-2q-31 0 -95 -48t-142 -152q-51 -74 -82 -136.5t-47.5 -112.5t-21.5 -88t-5 -63z" />
<glyph unicode="P" horiz-adv-x="802" d="M150 23q-5 10 -5 19q0 8 5 16q10 16 51 30q27 8 41 51q18 61 44.5 139t55.5 165t58.5 178.5t58.5 177.5q8 29 -15 14q-55 -33 -80.5 -46t-35.5 -13q-27 0 -37 16q-18 23 14 51q39 31 79 51.5t87 38.5q20 8 25 21q8 16 23.5 39.5t33.5 23.5q29 0 61 -51q6 -8 10.5 -10 t20.5 -2q27 0 65 -9.5t74.5 -24.5t68.5 -35.5t50 -45.5q27 -33 33 -63.5t6 -59.5v-2q0 -31 -17.5 -65.5t-43 -67.5t-55 -59.5t-54.5 -40.5q-49 -29 -109.5 -57.5t-117.5 -47.5q-23 -6 -41 -6q-10 0 -26.5 5t-16.5 16q0 6 3 15t13 19q14 14 43 32t64 34q37 18 80 39.5 t79.5 47.5t60 60.5t23.5 81.5q0 41 -20.5 69t-50 44t-64.5 24.5t-63 8.5q-31 0 -41 -25q-12 -25 -32.5 -78t-61.5 -163q-14 -39 -33 -90.5t-38.5 -108.5t-40 -118.5t-36.5 -123.5q-8 -23 -1 -32t28 -15q25 -8 68.5 -10t74.5 -6q23 -2 24 -13.5t-20 -25.5q-18 -14 -60 -24.5 t-102 -10.5q-43 0 -59 -14q-8 -6 -21.5 -13.5t-31.5 -7.5q-33 0 -58.5 16.5t-37.5 41.5z" />
<glyph unicode="Q" horiz-adv-x="899" d="M180 240q0 74 22.5 150.5t56.5 145t73 125t74 93.5q37 39 85 76.5t97 66.5t94 46.5t80 17.5h2q33 0 49 -17q4 -6 29 -6q33 0 62.5 -21.5t53 -54.5t38 -71.5t14.5 -75.5q0 -55 -14.5 -119t-42 -130.5t-66.5 -131t-86 -121.5q-18 -25 -53 -55.5t-72 -59t-72 -53.5t-53 -33 q-20 -10 -24.5 -20t3.5 -27q29 -66 75 -133.5t104.5 -122.5t128 -90t145.5 -35q59 0 119.5 18.5t114 46t95.5 60.5t66 60q10 12 17.5 13t9.5 -5q1 -3 1 -7.5t-1 -9.5q-2 -12 -10 -22q-33 -47 -81 -89t-105.5 -74t-123 -51.5t-133.5 -19.5q-88 0 -164.5 31t-154.5 96 q-41 35 -76 73t-61.5 74t-46 63.5t-27.5 43.5q-25 41 -27 66q-2 23 -24 24q-29 2 -63 21.5t-62.5 54.5t-47 82t-18.5 107zM299 219q0 -102 72 -145q15 -9 25 -9h2q10 1 18 5q18 10 41 6q23 -2 49 7t78 46q47 33 103 104.5t106 165.5q25 45 43 94.5t29.5 95.5t16.5 84t5 62 q0 53 -14.5 82t-41.5 39q-7 2 -12 2q-12 0 -14 -10q-10 -16 -37 -14q-13 2 -26 2q-48 0 -101 -23q-68 -29 -145 -125q-41 -49 -76 -107.5t-62.5 -120t-43 -123t-15.5 -116.5v-2z" />
<glyph unicode="R" horiz-adv-x="1007" d="M139 25q-7 13 -7 23q0 12 11 20q25 18 60 24q12 2 17 8t11 23q27 78 47.5 135t36.5 111q4 10 3 18t-3 14q-4 8 -5 21.5t3 23.5q10 23 27 29q12 6 25 31q10 25 19 49.5t21.5 59t30 84t45.5 122.5q8 23 -10 23q-41 -6 -62.5 -18.5t-33.5 -28.5q-8 -10 -18.5 -20.5 t-22.5 -14.5q-25 -6 -41 10q-18 14 -27 35q-6 16 3.5 31.5t25.5 27.5q55 41 199 60q16 2 22 7t12 19q20 51 50 52q16 0 28 -5.5t23 -13.5q23 -18 18 -45q-4 -8 15 -8q80 -4 143 -37t92 -86q10 -23 14 -43.5t4 -40.5v-2q0 -49 -30.5 -91t-74.5 -77t-95 -61.5t-90 -44.5 q-18 -8 -21.5 -16.5t4.5 -22.5q20 -33 55 -82t71 -98.5t66.5 -89.5t45.5 -54q41 -41 71.5 -51t53.5 -10t53.5 13t48.5 30q15 16 19 6q1 -3 1 -6q0 -10 -8 -25q-23 -37 -69.5 -65.5t-97.5 -28.5q-57 0 -111.5 37t-130.5 133q-20 25 -49 64.5t-56.5 79.5t-49 71t-27.5 37 q-18 18 -45 18q-18 0 -27 -29q-23 -55 -46.5 -124.5t-39.5 -122.5q-4 -14 0 -19.5t20 -9.5q25 -6 55.5 -15t41.5 -16q18 -14 -13 -30q-20 -12 -53 -18.5t-68 -8.5q-10 -2 -19 -4t-19 -6q-18 -14 -43 -15q-23 0 -55.5 16.5t-43.5 37.5zM474 491q0 -6 9 -6q10 0 52.5 13.5 t101.5 42.5q66 35 116 84t50 86v2q0 31 -15.5 55.5t-39 41.5t-53 27.5t-60.5 10.5q-23 0 -33 -25q-10 -20 -27.5 -62t-36 -90t-35 -92t-24.5 -69q-5 -13 -5 -19z" />
<glyph unicode="S" horiz-adv-x="602" d="M86 98q12 12 33.5 19t40.5 -6q27 -16 60.5 -29.5t64.5 -13.5q25 0 51 9t48 26.5t36 45t14 64.5q0 33 -13 85t-40 118q-29 70 -37 109.5t-8 68.5q0 90 81 182t240 156q47 18 75 25.5t48 7.5h2q27 0 43 -19q9 -16 9 -33q0 -10 -3 -20q-11 -27 -33 -45q-20 -17 -54 -17h-7 q-20 2 -42.5 4.5t-51.5 -1.5q-78 -12 -133 -66.5t-55 -132.5q0 -72 47 -201q23 -63 36 -124.5t13 -96.5q0 -47 -21.5 -87t-54.5 -69q-45 -37 -113.5 -56t-132.5 -19q-35 0 -69.5 5t-55.5 15q-38 18 -38 49q0 29 20 47z" />
<glyph unicode="T" horiz-adv-x="1085" d="M311 735q-12 35 -12.5 64t12.5 53q23 35 72 49t121 14q70 0 136.5 -5t121.5 -9q23 -2 33 14q20 41 43 41h2q12 0 24.5 -12t26.5 -29q8 -12 15 -16t26 -6q53 -4 112.5 -6t90.5 -2q27 0 42 14t25 27q12 16 29 16q25 0 49.5 -28.5t24.5 -63.5q0 -27 -24 -49.5t-52 -22.5 q-16 0 -34.5 9.5t-33.5 15.5q-16 6 -27.5 9t-33.5 1q-31 -1 -63 -1h-33q-48 1 -93 3q-20 0 -34 -31q-31 -84 -65 -175t-66.5 -180t-62.5 -169t-54 -139q-6 -12 -2 -15.5t14 -3.5q12 0 33.5 -2t45 -5t44 -7t33.5 -6q23 -6 22.5 -16.5t-18.5 -20.5q-14 -8 -41 -14t-58.5 -10.5 t-62.5 -7.5t-51 -3q-16 0 -22.5 -3t-14.5 -7q-14 -10 -44 -28.5t-52 -18.5q-20 0 -41 17.5t-21 39.5q0 20 10.5 34.5t25.5 24t32.5 15.5t32.5 10q23 2 30 31q20 49 46 124t55.5 164t60.5 185t62 186q4 16 2 20.5t-13 4.5q-18 2 -48 5t-65.5 4t-73.5 1h-75 q-66 -2 -92.5 -24.5t-38.5 -63.5q-4 -16 -14.5 -15t-18.5 19z" />
<glyph unicode="U" horiz-adv-x="1089" d="M209 70q-1 6 -1 13t1 15q2 16 6 33q27 160 77 307.5t116 311.5q12 31 17 62.5t1 53.5q-4 18 3 28.5t24 27.5q16 14 43.5 29.5t46.5 15.5q17 0 33 -28q7 -12 7 -27q0 -20 -12 -46q-31 -68 -61.5 -141.5t-58 -146t-51 -141t-38.5 -126.5q-14 -55 -17 -88t2 -50t13.5 -23.5 t16.5 -6.5q16 0 44 10.5t64 39.5q49 35 93.5 72.5t88.5 82.5t93 100.5t108 122.5q49 55 86 106.5t56 100.5q20 53 32.5 82t22.5 45q27 41 53 41h2q16 0 32.5 -20.5t23.5 -36.5q4 -10 4 -20q0 -24 -19 -56q-72 -123 -124 -282.5t-74 -340.5q-4 -25 3 -30.5t31 10.5 q33 18 72 37.5t82 32.5q30 8 30 -7q0 -16 -22 -28q-31 -20 -68.5 -52t-72.5 -65t-61.5 -61.5t-36.5 -40.5q-14 -20 -31 -21q-20 0 -37 8q-27 12 -31 45q-1 9 -1 20q0 26 7 60q4 27 17.5 82.5t29 115.5t30 115.5t22.5 80.5q6 16 -2.5 17t-18.5 -15q-6 -6 -30.5 -33t-60.5 -66 t-82 -86t-95 -92t-84 -74.5t-59.5 -48t-43 -31t-34.5 -20.5q-35 -20 -70 -31.5t-59 -11.5q-33 0 -54 12q-16 10 -20 26.5t-4 31.5z" />
<glyph unicode="V" horiz-adv-x="1011" d="M310 370v23q0 83 6 162q8 90 24 162q4 14 1 24.5t-6 20.5t-6 20.5t1 26.5q14 57 37.5 103t48.5 46h2q25 0 47 -30q16 -23 20 -47.5t-8 -61.5q-16 -43 -28.5 -97t-19.5 -110t-11 -112q-3 -37 -3 -70q0 -16 1 -31q2 -53 6 -98t14 -72q4 -12 11.5 -12t19.5 16 q29 39 95.5 100.5t144 127t151.5 126t119 101.5q43 41 64.5 73t31.5 64q8 31 13.5 54.5t9.5 48.5t17 34t30 9q25 0 52.5 -24.5t27.5 -72.5q0 -31 -23.5 -67.5t-52.5 -69.5q-25 -27 -72 -71.5t-104.5 -97t-115.5 -105.5t-107 -96q-82 -72 -134.5 -128.5t-82 -99.5t-42 -73.5 t-14.5 -49.5q-4 -23 -25.5 -37t-35.5 -14q-23 0 -35 22.5t-21 43.5q-23 68 -35 156.5t-13 182.5z" />
<glyph unicode="W" horiz-adv-x="1409" d="M309 61v149t2 148.5t8.5 154.5t16.5 167q8 57 8 91t-4 63q-4 23 2 40t27 35q23 16 42 28.5t35 12.5h3q27 0 37 -36q3 -12 3 -27q0 -29 -12 -70q-49 -168 -61 -422q-3 -44 -3 -74v-14q1 -33 3 -49q2 -35 28 -6q29 35 83.5 94.5t111.5 120.5t105.5 112.5t64.5 71.5 q35 39 45 69t14 58q10 53 33 97.5t60 44.5q12 0 28.5 -7.5t31.5 -18.5t25.5 -25.5t10.5 -28.5q0 -23 -17 -35q-16 -10 -39 -35q-10 -12 -19 -28.5t-17.5 -42t-12.5 -65.5t-4 -99q-1 -41 -1 -74v-31q1 -44 2 -77.5t5 -62t9 -59.5q4 -18 12 -16t29 25q43 49 100 111.5 t114.5 121.5t105.5 110.5t73 78.5q47 53 61.5 83.5t14.5 49.5q0 14 -3.5 30.5t-17.5 32.5q-14 18 -6 36.5t31 41.5q16 16 35.5 25.5t31.5 9.5q36 0 52 -31q15 -28 14 -53v-6q-2 -70 -66 -160q-35 -49 -67.5 -91t-72.5 -87t-88 -98.5t-112 -127.5q-57 -63 -94 -109t-59.5 -81 t-32.5 -59.5t-17 -44.5q-10 -43 -49 -43q-23 0 -44 24.5t-34 93.5q-10 53 -20 129t-10 203q0 25 -1 42t-3 38q0 39 -33 8q-20 -16 -69.5 -70.5t-104.5 -118t-105.5 -123t-70.5 -89.5q-14 -23 -19.5 -37t-9.5 -35q-4 -23 -13 -34t-24 -21q-10 -6 -22 -6q-16 0 -37 21.5 t-23 55.5z" />
<glyph unicode="X" horiz-adv-x="1034" d="M59 12q0 10 9.5 27.5t37.5 46.5q68 68 143 139.5t141.5 132t116.5 105.5t66 61q10 10 13.5 18.5t-0.5 20.5q-53 113 -98.5 178.5t-71.5 89.5q-18 16 -37 28.5t-29 21.5q-5 5 -5 12q0 16 30 41q33 31 65 31h2q25 0 41.5 -10.5t34.5 -36.5q25 -41 48.5 -83t43 -81l36 -72 l26.5 -53q8 -14 26 0q57 47 109.5 94t95.5 87t74 70.5t45 43.5q32 28 57 28h2q29 0 56.5 -18.5t31.5 -40.5q1 -5 1 -9q0 -8 -5 -16q-8 -12 -43 -26q-25 -10 -67.5 -39t-95 -71t-109.5 -90t-109 -93q-23 -18 -4 -49q12 -23 37 -72t51.5 -102.5t49 -98.5l28.5 -57 q23 -43 43 -29q16 10 27.5 9.5t19.5 -7.5q10 -6 19.5 -21.5t9.5 -31.5q0 -20 -16.5 -38.5t-34.5 -33.5q-16 -12 -37 -22t-37 -10q-18 0 -36.5 20.5t-35.5 52.5q-6 14 -29.5 65.5t-52 113t-57.5 119t-43 81.5q-8 16 -29 2q-16 -14 -60 -52t-91 -80t-88 -78.5t-51 -45.5 q-23 -23 -27 -36t0 -27t1 -30.5t-28 -37.5q-104 -92 -161 -92q-18 0 -34 14.5t-16 36.5z" />
<glyph unicode="Y" horiz-adv-x="878" d="M316 36q6 23 49 46q20 10 27 18.5t11 28.5q16 63 26.5 105t16.5 73q10 47 12 82q1 7 1 14q0 30 -8 64q-6 23 -19.5 62.5t-30 89t-36 102.5t-33.5 100q-10 31 -10 53.5t6 38t16 25.5t21 16q27 20 67 21q29 0 23 -49q-2 -12 -2 -27q0 -23 4 -54q6 -52 19 -110.5t29.5 -114 t33.5 -88.5q10 -16 26 0q25 23 71 58t96 71.5t96 70.5t69 54q43 39 54.5 75t13.5 63q2 20 12 33.5t27 13.5q35 0 61.5 -29t26.5 -63v-2q0 -20 -20.5 -47t-55.5 -54q-33 -25 -113 -86t-170 -139q-78 -68 -113.5 -113t-54.5 -96q-14 -39 -23.5 -86t-21.5 -119q-6 -33 19 -35 q55 -10 99 -24.5t44 -30.5q0 -14 -29.5 -20.5t-72.5 -8.5q-78 -4 -107 -13t-43 -23q-8 -10 -18.5 -13.5t-20.5 -3.5q-23 0 -42 10.5t-30 22.5q-6 10 -6 22q0 8 3 16z" />
<glyph unicode="Z" horiz-adv-x="1105" d="M166 90q16 23 40.5 39t35.5 18q20 2 94 64q27 25 80 73t126.5 118.5t163 161.5t189.5 202q27 31 0 33q-41 4 -108.5 10t-137.5 16q-47 5 -93 11q-34 4 -64 5q-11 0 -21 -1q-76 0 -115 -34t-67 -75q-10 -16 -16.5 -28.5t-16.5 -12.5t-10 14.5t4 32.5q8 39 27.5 77t49 65.5 t66.5 45t80 17.5h2q47 0 94 -4t90 -12q33 -6 73 -13.5t81 -13.5t79 -10t66 -6q39 0 62 24q16 18 30.5 36t30.5 18q23 0 32 -19.5t9 -46.5q0 -18 -6 -38.5t-16 -35.5q-12 -29 -33 -28q-16 0 -49 -39q-61 -68 -136 -147t-154 -156.5t-155.5 -150.5t-140.5 -128 q-16 -16 -16 -23.5t10 -11.5q31 -4 92.5 -19.5t132.5 -35.5q70 -18 133.5 -29.5t112.5 -11.5q113 0 127 100q4 18 9 26.5t18 18.5q23 16 41 12.5t30 -16.5q12 -10 20.5 -26.5t8.5 -28.5q0 -18 -13.5 -36.5t-34 -36t-44 -33t-41.5 -25.5q-39 -20 -95.5 -33.5t-97.5 -13.5 q-47 0 -106.5 11t-125 27.5t-133 34t-130.5 29.5q-37 8 -58.5 -10t-35.5 -37q-10 -18 -31 -18q-14 0 -35 24q-17 19 -17 40q0 19 13 40z" />
<glyph unicode="[" horiz-adv-x="620" d="M86 -258q4 20 8 32.5t6 26.5q2 16 6.5 42t22.5 89q10 35 28.5 95.5t42 135.5t49 162t48.5 173q25 88 44 150.5t33.5 107.5t26 76.5t19.5 58.5q16 55 32.5 85t34.5 46q16 16 38 21.5t57 5.5h2h72.5t93.5 -5q39 -4 57 -16t18 -27q-2 -8 -8 -13t-22 -5q-10 -2 -36 -4 t-56.5 -4t-57.5 -5t-39 -5q-27 -4 -56.5 -31t-55.5 -111q-12 -39 -34 -108.5t-45.5 -147.5t-45 -151.5t-35.5 -118.5q-16 -47 -33.5 -103.5t-34 -111.5t-31 -103.5t-20.5 -80.5q-10 -43 -9 -70t9 -41t21.5 -20.5t29.5 -8.5q18 -4 34.5 -7t29.5 -7q29 -4 61.5 -11t48.5 -24 q8 -10 5 -18t-11 -13q-12 -10 -45 -6q-16 2 -51 4t-100 2q-31 0 -64 -1t-55 -3q-23 -2 -30 20.5t-3 47.5z" />
<glyph unicode="\" horiz-adv-x="706" d="M277 921.5q8 28.5 24 43.5q18 20 51 20h2q23 0 32 -22.5t9 -51.5q-2 -29 3 -58.5t12 -57.5q6 -20 25.5 -92t47 -170.5t58 -211t61.5 -210.5q31 -104 48.5 -149.5t25.5 -61.5q10 -23 16 -39.5t4 -30.5q0 -16 -17 -27.5t-42 -11.5q-31 0 -49.5 20.5t-32.5 63.5 q-8 29 -20.5 77t-27.5 109.5t-33.5 130t-37.5 138.5q-37 137 -63.5 230t-44 152.5t-27.5 92.5t-16 47q-16 41 -8 69.5z" />
<glyph unicode="]" horiz-adv-x="638" d="M76 -305.5q0 10.5 4 16.5q8 14 43 15q33 -2 84 -2t82 8q25 4 33 17t10 26q8 70 23.5 137.5t41.5 153.5q18 61 45 144t57.5 177t65.5 194.5t70 196.5q35 104 29.5 140t-50.5 40q-29 4 -67.5 5.5t-102.5 3.5q-27 2 -39 5t-12 15q0 23 74 33q20 2 52 7t67 8t66.5 6t54.5 3h2 q29 0 41 -8t22 -24t10 -32.5t-10 -57.5q-8 -39 -26.5 -99.5t-43.5 -132.5q-98 -268 -157.5 -460.5t-81.5 -284.5q-16 -72 -21.5 -121t-3.5 -60q2 -16 0 -32.5t-14 -26.5q-14 -10 -23.5 -18.5t-19.5 -18.5t-25.5 -18t-50.5 -8q-20 0 -53 4t-64.5 10t-59.5 12t-36 10 q-16 6 -16 16.5z" />
<glyph unicode="^" horiz-adv-x="788" d="M211 422q-10 25 16 59q6 8 30 39t55.5 72t67.5 88t67.5 88t55 70.5t27.5 40.5q10 18 16.5 29.5t10.5 21.5q6 16 18.5 26.5t22.5 10.5h2q14 0 37 -23q18 -14 20 -57q0 -18 8.5 -48t20.5 -65t26.5 -70.5t26.5 -68.5q23 -47 43.5 -84t38.5 -62q12 -18 19.5 -31.5t7.5 -23.5 q0 -16 -21.5 -36.5t-38.5 -20.5q-18 0 -41.5 32.5t-48.5 77.5q-10 18 -24.5 51t-29.5 69t-28.5 68t-19.5 48q-16 45 -25 45q-8 0 -25.5 -22.5t-49.5 -63.5q-14 -16 -44 -57t-62 -84t-59.5 -80t-35.5 -47q-25 -27 -43 -27q-10 0 -23.5 12.5t-17.5 22.5z" />
<glyph unicode="_" horiz-adv-x="1024" d="M0 -154h1024v-102h-1024v102z" />
<glyph unicode="`" horiz-adv-x="761" d="M393 1055q8 14 22.5 23t26.5 9h2q31 0 50 -38q23 -45 42 -84t33 -64q16 -29 27.5 -49.5t15.5 -32.5q6 -18 -6 -24.5t-35 8.5q-35 27 -84 77t-86 101q-27 39 -8 74z" />
<glyph unicode="a" horiz-adv-x="784" d="M70 82q0 27 14 79t63 144q41 80 108 172t142 158q63 57 105.5 71.5t58.5 14.5h2q16 0 29.5 -14.5t23.5 -26.5q4 -14 19 -4q20 14 39 2q23 -14 24.5 -28.5t-6.5 -31.5q-47 -102 -73.5 -192t-26.5 -178q0 -68 12 -114t49 -46q33 0 77 32t90 79t90 101t79 101 q12 14 22.5 14.5t14.5 -9.5q2 -4 2 -10q0 -8 -3 -18q-5 -18 -15 -40q-29 -55 -79 -118.5t-107.5 -116t-115 -87t-96.5 -34.5q-37 0 -73.5 42t-42.5 105q-4 33 -5.5 71t-1.5 54q0 18 -16 2q-10 -14 -34.5 -43t-54.5 -60.5t-59.5 -61.5t-50.5 -48q-70 -61 -118 -61 q-6 0 -20.5 5t-29 16t-25.5 30.5t-11 48.5zM199 129q6 -20 26 -20q12 0 35 15t51 42q27 25 67 75t87 111q8 12 20.5 34t23.5 43.5t19.5 37.5t12.5 22q6 16 10 37q2 10 2 20t-2 19q-4 18 -13.5 31.5t-29.5 13.5h-2q-23 0 -54.5 -27.5t-72.5 -76.5q-74 -86 -118 -179.5 t-58 -148.5q-6 -18 -6 -33q0 -8 2 -16z" />
<glyph unicode="b" horiz-adv-x="692" d="M93 124q0 10 3 23q2 12 17.5 68.5t37 132.5t48 155t49.5 138q20 55 41.5 109.5t41 103.5t37 90t29.5 68q27 61 27 125q0 31 29 53q14 12 37.5 25.5t41.5 13.5q23 -1 29 -25q2 -8 2 -18q0 -20 -8 -47q-8 -29 -40 -103.5t-81 -195.5q-18 -41 -37.5 -89.5t-37 -92.5 t-31 -77.5t-15.5 -43.5q-16 -43 19 -7q8 6 27.5 24.5t45 39l51 41t46.5 33.5q41 25 86 40t74 15h2q25 0 42 -14.5t28 -34t17.5 -41t6.5 -35.5q0 -74 -34 -146.5t-79 -138.5q-27 -41 -61.5 -80.5t-71.5 -75.5t-73 -65t-62 -45q-47 -29 -100.5 -47t-81.5 -18q-29 0 -52.5 24.5 t-23.5 44.5q-4 33 -15 47q-11 11 -11 26zM209 143q0 -31 12 -41t29 -10q23 0 63.5 18.5t89.5 59.5q49 37 94.5 94.5t79 114.5t54 107.5t20.5 74.5q0 23 -12 39t-35 16q-25 0 -74 -23.5t-100 -70.5q-53 -47 -94 -93t-74 -105q-16 -31 -33.5 -78t-19.5 -101v-2z" />
<glyph unicode="c" horiz-adv-x="641" d="M121 178q0 70 33.5 171.5t119.5 201.5q31 35 69 65.5t78 54t78 37t68 13.5h2q45 0 67.5 -25.5t22.5 -52.5q0 -35 -21.5 -57.5t-39.5 -32.5q-35 -18 -49 -6q-18 14 -8 39q4 35 -31 35q-16 0 -37.5 -11.5t-45.5 -31t-46.5 -44t-40.5 -51.5q-59 -86 -77.5 -159.5 t-18.5 -120.5q0 -61 28.5 -93t71.5 -32q57 0 125 28.5t135.5 71.5t129 95.5t104.5 99.5q27 27 36 4q1 -4 1 -9q0 -23 -23 -55q-49 -66 -117.5 -125t-144.5 -105t-154 -73.5t-141 -27.5q-29 0 -59.5 9t-56 31.5t-42 60.5t-16.5 95z" />
<glyph unicode="d" horiz-adv-x="872" d="M84 90q0 37 14.5 90t40 113.5t63.5 121t85 111.5q84 90 161.5 128t135.5 38h2q37 0 67 -16q12 -4 17.5 -3t9.5 11q33 82 65.5 165t60.5 151.5t48 119.5t31 72q10 23 18 30t19 7q8 0 18 -6t23 -25q12 -18 13 -35.5t-9 -46.5q-16 -39 -65.5 -149.5t-102.5 -253.5 q-45 -123 -76 -253t-39 -237q-2 -20 -2 -37q0 -38 10 -60q14 -32 37 -32q37 0 90 42t106.5 98.5t96.5 110.5t61 79q29 35 39 8q2 -4 2 -11q0 -19 -18 -54q-29 -51 -79 -117t-110.5 -124t-125 -98t-119.5 -40q-52 0 -72 52q-17 44 -17 95q0 10 1 21q4 59 9 97t13 79 q4 14 0 12t-12 -12q-29 -39 -64.5 -79t-69.5 -76t-62.5 -63.5t-45.5 -39.5q-63 -47 -117.5 -72t-76.5 -25q-25 0 -49.5 21.5t-24.5 91.5zM199 147q0 -43 32 -43q23 0 67 27t101 86q33 35 70 78t67.5 87t53 83t28.5 65q5 13 5 24q0 14 -9 24q-6 8 -22.5 17t-44.5 9h-2 q-25 0 -53.5 -16.5t-60.5 -45t-63.5 -67.5t-60.5 -82q-66 -96 -87 -156.5t-21 -89.5z" />
<glyph unicode="e" horiz-adv-x="643" d="M129 162v2q0 59 37 158.5t96 197.5q12 18 38 53t57.5 69t64.5 58.5t61 24.5q23 0 33 -11.5t12 -25.5q0 -12 23 -18q35 -2 59.5 -27t24.5 -72t-19.5 -94t-48.5 -80q-41 -47 -99 -81.5t-136 -34.5q-25 0 -47 18q-6 4 -10.5 3t-8.5 -11q-8 -16 -16 -50t-8 -63 q0 -49 24.5 -72.5t65.5 -23.5q37 0 88 14.5t116.5 51t143.5 98t166 157.5q27 29 37 5q1 -4 1 -9q0 -23 -24 -55q-66 -88 -142.5 -156.5t-153.5 -114.5t-150.5 -69.5t-132.5 -23.5q-55 0 -103.5 47t-48.5 135zM307 380q4 -5 25 -5h2q37 0 72.5 13t62.5 37t43 52.5t16 59.5 q0 37 -17 56t-38 19q-18 0 -42.5 -22.5t-47.5 -56t-43.5 -71.5t-32.5 -67q-2 -5 -2 -9t2 -6z" />
<glyph unicode="f" horiz-adv-x="376" d="M-315 -723q-8 10 -8 22q0 19 18 42q27 35 43 48t33 17q86 29 147.5 132.5t122.5 301.5q10 37 31.5 117t46 177t49.5 198.5t41 181.5q4 16 0 20.5t-14 4.5q-41 4 -55.5 17t-14.5 24q0 23 29 36q25 12 75 17q12 2 21 24q51 147 116.5 254t161.5 183q68 53 127.5 80.5 t96.5 27.5h2q16 0 31.5 -3t25.5 -13q11 -11 11 -28q0 -16 -15 -32q-10 -16 -25.5 -27.5t-33.5 -11.5q-57 0 -113.5 -34.5t-107 -93t-91.5 -135t-67 -165.5q-8 -23 14 -18q119 12 189.5 27.5t134.5 31.5q35 10 33.5 -5t-23.5 -29q-43 -27 -100.5 -47.5t-111.5 -36t-97 -25.5 t-58 -12q-14 -4 -18 -10.5t-8 -20.5q-4 -16 -15.5 -55t-24 -85t-24.5 -93.5t-20 -77.5q-57 -225 -104.5 -367.5t-90.5 -243.5q-23 -47 -49.5 -96t-60 -93t-73.5 -78t-87 -50q-23 -8 -51 -8q-29 0 -39 10z" />
<glyph unicode="g" horiz-adv-x="681" d="M-221 -621q0 12 9 26.5t23.5 27t32 20.5t31.5 8q16 0 32.5 -12t31.5 -27q16 -14 41.5 -28.5t70.5 -14.5q66 0 142.5 53.5t142.5 151.5q63 94 97 199.5t63 232.5q14 59 22 103.5t12.5 75t6.5 50t4 31.5q4 23 -5.5 17t-25.5 -23q-8 -10 -28.5 -33.5t-47 -51t-56.5 -57.5 t-56 -50q-12 -10 -32 -25.5t-42.5 -30t-46 -25.5t-41.5 -11q-35 0 -54.5 36.5t-19.5 81.5q0 72 36 154t101 172q59 84 135 144.5t138 95.5q41 23 84 38t67 15h2q33 0 54.5 -12.5t35 -29.5t19.5 -36.5t6 -32.5q0 -27 -17.5 -53.5t-48.5 -44.5q-14 -12 -8 -22q6 -16 0 -46 q-6 -35 -20.5 -101t-28.5 -137t-27.5 -130.5t-17.5 -81.5q-41 -180 -111.5 -324.5t-181.5 -253.5q-29 -27 -65.5 -49t-75.5 -38.5t-74 -26t-59 -9.5q-20 0 -42 1.5t-38 5.5t-29.5 7t-38.5 3q-31 0 -66.5 20.5t-35.5 46.5zM219 166q0 -18 5 -30.5t16 -12.5q20 0 52 23.5 t64.5 55t61 62.5t41.5 45q47 51 80.5 103.5t44.5 64.5q25 27 47 31q6 2 13 4t13 10q6 6 12.5 16.5t6.5 20.5q0 25 -22.5 38t-51.5 13q-33 0 -69.5 -14t-72.5 -39t-70 -55.5t-58 -63.5q-20 -27 -40 -61.5t-36 -71.5t-26.5 -72.5t-10.5 -64.5v-2z" />
<glyph unicode="h" horiz-adv-x="876" d="M112 20q-2 16 -2 34q0 27 5 57q2 18 18.5 80.5t41 147.5t52 180t54.5 175q23 70 50 141.5t54 135t51.5 114t42.5 78.5q27 47 45.5 64.5t30.5 17.5q23 0 45 -33q12 -16 15 -32.5t-13 -38.5q-61 -86 -113.5 -199t-93.5 -225.5t-69.5 -210.5t-44.5 -158q-4 -23 1 -27t19 13 q18 20 58 59t88.5 84t94.5 87t76 67q47 35 80 55.5t80 20.5h2q25 0 36 -16.5t-5 -51.5q-12 -27 -30.5 -71t-38 -99t-39 -116.5t-33.5 -119.5q-10 -45 -12.5 -72.5t2 -43t11.5 -21.5t17 -6q27 0 63.5 19.5t78.5 50t85 69.5t81 77t69 72t45 54q12 16 21.5 16.5t13.5 -10.5 q2 -5 2 -10q0 -19 -21 -53q-35 -61 -101.5 -133t-142 -133.5t-146 -102.5t-111.5 -41q-18 0 -34 12.5t-25 42t-9 81t14 128.5q8 39 17.5 79t19.5 77t20.5 67.5t16.5 51.5q4 15 4 24q0 12 -8 12q-10 0 -33 -18q-68 -51 -125 -105.5t-102 -103.5t-77 -90t-46 -65 q-20 -35 -29.5 -59.5t-13.5 -45.5q-4 -35 -24.5 -54t-49.5 -19q-23 0 -29 40z" />
<glyph unicode="i" horiz-adv-x="479" d="M129 170q4 14 14.5 46t21.5 69t22.5 72.5t19.5 58.5q6 18 7 28.5t-3 20.5q-4 12 -3 25.5t9 31.5q12 25 34.5 58.5t49.5 64.5t52.5 52.5t41.5 21.5q14 0 25 -14q10 -10 14 -32t-12 -50q-27 -45 -54.5 -100.5t-52 -114t-45 -114.5t-34.5 -106q-9 -34 -10 -55q0 -15 5 -23 q11 -22 35 -22q41 0 100.5 36t124 90t126 119.5t108.5 125.5q29 33 37 6q3 -6 3 -13q0 -21 -22 -51q-35 -57 -87 -117.5t-111.5 -114.5t-116.5 -97t-100 -62q-41 -20 -66.5 -27.5t-42.5 -7.5h-2q-18 0 -38.5 15.5t-41.5 56.5q-18 30 -18 66q0 27 10 57zM424 1036 q4 49 19.5 63.5t39.5 14.5h2q29 0 47 -16q13 -12 13 -30q0 -6 -2 -13q-9 -37 -13 -79q-2 -27 -3 -49q0 -13 1 -24q2 -20 -10 -23q-3 -1 -6 -1q-11 0 -27 8q-43 23 -53 69q-4 16 -6 37t-2 43z" />
<glyph unicode="j" horiz-adv-x="401" d="M-268 -473q0 18 14 32.5t33 14.5q16 0 35.5 -10t37 -23.5t30 -30t16.5 -28.5q4 -16 10 -18.5t14 -2.5t29.5 14.5t44.5 51.5q20 33 39.5 72t43 100t52.5 154.5t70 232.5q33 113 55.5 190.5t37.5 131t25.5 87t16.5 56.5q6 25 2 31t-21 0q-37 -16 -64.5 -43t-39.5 -50 q-12 -29 -35 -28q-10 0 -19 16.5t-9 38.5q0 31 22.5 58.5t54 49t67.5 38t60 22.5q20 8 33 23q6 8 13.5 12t23.5 4h2q37 0 47 -39q4 -16 4 -34q0 -24 -8 -50q-18 -53 -42 -126t-49.5 -155.5t-51 -167.5t-48 -162t-43 -141.5t-32.5 -103.5q-37 -111 -85 -192.5t-114 -135.5 q-33 -27 -58.5 -35t-41.5 -8q-23 0 -55.5 16.5t-61.5 43.5t-42 53.5t-13 40.5zM409 1070q5 13 14 23.5t21.5 15.5t18.5 5h2q27 0 43 -16.5t25.5 -38t13.5 -43t4 -33.5q0 -27 -12.5 -47.5t-32.5 -32.5q-10 -5 -18 -5q-3 0 -6 1q-9 2 -17 21q-20 49 -31.5 74.5t-21.5 45.5 q-5 10 -5 19q0 5 2 11z" />
<glyph unicode="k" horiz-adv-x="804" d="M102 27q-1 9 -1 20t1 23q2 26 17 77q16 63 60 222t126 385q57 160 105.5 263t78.5 150q20 33 37 46.5t33 13.5t27.5 -6.5t21.5 -18.5q10 -14 12.5 -28.5t-12.5 -34.5q-51 -70 -101 -172.5t-93 -211t-76 -210t-51 -166.5q-6 -20 0 -22.5t16 12.5l49 49t80 76t94 84t92 71 q68 45 102 58.5t58 13.5h2q29 0 49 -21q14 -16 11.5 -32.5t-25.5 -38.5q-12 -10 -24.5 -11.5t-30.5 -3.5q-41 -2 -87 -25.5t-87 -54t-73 -62.5t-46 -48q-16 -18 -20.5 -34.5t10.5 -45.5q12 -29 38.5 -75t58.5 -90t65.5 -76.5t60.5 -32.5q41 0 83 27.5t81 66.5t71.5 81 t55.5 72q10 16 21.5 16.5t15.5 -9.5q1 -4 1 -10q0 -22 -20 -56q-41 -72 -87 -125t-92 -89t-89 -54.5t-76 -18.5q-35 0 -76 30t-80 87q-31 47 -55 86t-51 80q-23 35 -41 36t-41 -22q-41 -45 -58.5 -91t-25.5 -107q-6 -35 -32.5 -57.5t-51.5 -22.5q-10 0 -18.5 7t-12.5 30z " />
<glyph unicode="l" horiz-adv-x="483" d="M129 113v2q0 33 33 175t129 378q55 137 97 232t71.5 157.5t48 95.5t29.5 45q14 18 32 19q18 0 29 -13q24 -28 24 -54v-10q-6 -30 -28 -69q-68 -127 -123 -249t-97 -229.5t-72 -194.5t-44 -144q-14 -51 -17 -83t1 -48.5t12 -22.5t18 -6q27 0 84.5 36t121 86t122.5 104.5 t90 93.5q25 29 35 4q2 -6 2 -12q0 -20 -18 -48q-33 -47 -96.5 -111.5t-137.5 -122.5t-147.5 -100t-126.5 -42q-33 0 -52.5 37.5t-19.5 93.5z" />
<glyph unicode="m" horiz-adv-x="1284" d="M115 127q2 20 12 59t23.5 88.5t31 106.5t35.5 117q6 25 -4 24q-8 0 -13 9.5t3 31.5q6 14 17 43t25.5 57.5t31 50t30.5 21.5q12 0 33 -16q25 -27 32 -52.5t-10 -58.5q-16 -31 -33.5 -81t-32.5 -102t-28.5 -100.5t-21.5 -74.5q-12 -41 -3 -51.5t27 12.5q76 92 155 187.5 t157 172.5q41 43 66.5 67t45.5 44q45 39 62 39h2q23 0 40 -32q8 -15 8 -33q0 -22 -11 -50q-8 -20 -26.5 -72.5t-40 -110.5t-39 -107.5t-21.5 -63.5q-6 -35 2 -43q10 -8 41 24q33 37 73.5 82t81.5 91.5t81 89.5t73 78.5t55.5 60t28.5 31.5q36 36 58 36h1q20 0 39 -23.5 t19 -51.5q-2 -16 -9.5 -25.5t-23.5 -21.5q-10 -8 -20.5 -19.5t-20.5 -32.5q-18 -35 -43 -109.5t-41 -168.5q-8 -49 -8 -84q0 -28 5 -47q11 -43 58 -43q61 0 152.5 76.5t228.5 255.5q25 27 35 6q1 -3 1 -8q0 -21 -24 -60q-63 -98 -125.5 -169t-119 -115t-104.5 -64.5 t-85 -20.5q-29 0 -54.5 15.5t-42.5 45.5q-16 30 -24 74q-4 21 -4 46q0 26 4 57q8 63 20.5 114.5t22.5 90.5q6 37 -24 2q-27 -31 -74 -84t-97 -109.5t-95 -106.5t-68 -73q-31 -31 -48.5 -43t-33.5 -12q-27 0 -31 54q-1 8 -1 17q0 49 20 115q4 18 15 55t23.5 76t22.5 74t17 53 q14 41 0 49q-10 6 -37 -20q-12 -8 -39 -38t-62.5 -72t-74.5 -90t-75 -92t-64.5 -80t-43.5 -52q-23 -25 -39 -39t-28 -14q-24 0 -40 34q-11 22 -10 58q0 20 3 45z" />
<glyph unicode="n" horiz-adv-x="868" d="M112 66q3 28 9 53q45 205 90 350t74 199q29 55 48 69.5t38 14.5h2q27 0 45 -31t18 -53q0 -16 -18 -21q-16 -4 -27.5 -17.5t-25.5 -37.5q-10 -20 -23.5 -54t-27 -74t-24.5 -79t-18 -70q-4 -16 3.5 -19t17.5 11q25 35 65.5 80t84.5 89t83 80t62 52q45 35 62.5 46.5 t31.5 17.5q25 10 39 37q10 12 19.5 21t19.5 9q20 0 41 -26q16 -16 14 -36t-12 -44q-12 -23 -29.5 -47.5t-32.5 -55.5q-29 -61 -54 -136t-42 -138q-14 -57 -14 -96t9 -63.5t25.5 -35t36.5 -10.5q37 0 87.5 37t105.5 90t107.5 115.5t91.5 112.5q20 29 28 6q2 -6 2 -13 q0 -21 -22 -53q-70 -111 -132.5 -185.5t-118.5 -120.5t-105.5 -65.5t-88.5 -19.5q-35 0 -61.5 19.5t-42.5 57.5q-15 38 -19 94q-1 10 -1 20q0 49 14 110q14 68 31.5 125t29.5 92q10 27 11.5 37t-3.5 14q-8 8 -45 -24q-70 -61 -126 -124t-101 -120t-76.5 -106.5t-50.5 -83.5 q-10 -18 -27.5 -40t-33.5 -22q-18 0 -39 25q-6 7 -6 24q0 5 1 13z" />
<glyph unicode="o" horiz-adv-x="628" d="M106 111v2q0 55 19.5 119.5t40.5 111.5q12 23 30.5 53.5t38 61t37 55.5t25.5 35q10 16 17.5 29.5t7.5 31.5q2 23 9 36t19 24q16 18 51 18q16 0 25.5 6t19.5 17q19 30 58 30h2q31 0 42 -15t11 -36v-16t10 -15q37 -27 69 -77t32 -136q0 -23 -8.5 -54.5t-21.5 -68 t-33.5 -73.5t-45.5 -68q-84 -106 -178 -155.5t-166 -49.5q-18 0 -37.5 11.5t-36 30t-27 42t-10.5 50.5zM225 145q0 -31 15.5 -49t38.5 -18q29 0 61.5 14t67.5 49q25 25 53 64t51 83t38 88t15 81q0 23 -3 47t-11 43.5t-23.5 33t-42.5 13.5q-20 0 -39.5 -17.5t-48.5 -52.5 q-25 -29 -54.5 -73.5t-56 -97t-44 -106.5t-17.5 -100v-2z" />
<glyph unicode="p" horiz-adv-x="753" d="M-113 -600q-8 12 -8 29q0 21 12 49q4 12 31 88t66 194.5t86 271t92 318.5q16 57 26.5 97t17.5 70t12 50.5t11 40.5q10 41 19.5 64.5t23.5 42.5q18 29 44 43t47 14q29 0 49 -27q10 -12 7 -22t-13 -21q-35 -29 -58.5 -81t-52.5 -150q-6 -20 2 -21t18 9q20 25 50 54.5t64 59 t71 57t76 46.5q35 16 52 22.5t27 6.5h3q23 0 38 -17.5t25 -41t15 -46t5 -35.5q0 -47 -13 -94t-30.5 -88t-35 -70.5t-27.5 -44.5q-10 -12 -6 -16t20 4q31 12 81 41t104.5 65.5t104.5 76.5t85 75q25 25 30 2q1 -4 1 -8q0 -22 -25 -55q-37 -47 -95 -97.5t-123.5 -94.5t-129 -79 t-111.5 -53q-35 -14 -57 -27.5t-51 -33.5q-16 -10 -44 -23.5t-58.5 -27t-59.5 -24.5t-43 -13q-20 -4 -28.5 -4.5t-16.5 1.5t-16 9.5t-15 15.5q-14 10 -22 -14q-2 -4 -13.5 -36t-28 -79t-35.5 -101.5t-35.5 -102.5t-29 -83t-14.5 -43q-12 -41 15 -51q14 -4 51 -7q16 -1 36 -1 q27 0 62 2q45 2 45 -12q-2 -8 -14.5 -19.5t-42.5 -21.5q-16 -6 -48 -16.5t-67 -19.5t-65.5 -15.5t-47.5 -6.5q-14 0 -24 4.5t-21 20.5zM206 100q5 -12 30 -12q18 0 64 14.5t93 36.5q41 20 67.5 42t47.5 48q18 25 39.5 61t41 77t33 81.5t13.5 75.5q0 18 -9.5 37t-39.5 19h-2 q-6 0 -32 -10.5t-75 -51.5q-115 -96 -176 -186t-94 -197q-3 -13 -3 -22q0 -8 2 -13z" />
<glyph unicode="q" horiz-adv-x="696" d="M80 152q2 43 21.5 95t52 104t75.5 103.5t95 92.5q94 78 195.5 126t187.5 48h2q25 0 38 -11.5t23 -23.5q7 -11 7 -27q0 -6 -1 -13q-4 -23 -16 -38q-10 -14 -13.5 -30.5t-7.5 -51.5q-2 -23 -10 -59.5t-18.5 -77.5t-21.5 -84t-21 -76q-4 -12 -15.5 -44.5t-27 -78t-33 -96.5 t-34.5 -100t-31.5 -90t-24.5 -64q-10 -27 -12.5 -42t0 -25.5t7.5 -17.5t13 -13q16 -14 13 -30.5t-19 -39.5q-12 -16 -30.5 -45.5t-37 -64.5t-37 -73t-30.5 -71q-10 -25 -22.5 -35t-22.5 -10q-16 0 -26 29q-5 12 -5 31q0 25 8 61q6 31 31.5 110t59.5 176t67 194.5l55 162.5 q33 102 46 150.5t22 70.5q6 25 5 34t-7 9t-15.5 -8t-34.5 -35q-47 -53 -83.5 -92t-69.5 -68.5t-60.5 -51t-54.5 -39.5q-68 -41 -110 -41q-29 0 -54 47q-19 38 -19 94q0 14 1 29zM184 158q0 -16 7.5 -34t23.5 -18q12 0 44 16.5t79 59.5q129 121 199.5 212t93.5 141 q12 25 12 41q0 11 -6 18q-8 12 -33 12q-51 0 -122.5 -46t-147.5 -132q-78 -94 -114 -166t-36 -102v-2z" />
<glyph unicode="r" horiz-adv-x="571" d="M121 14q-9 12 -9 30t9 42q14 33 29.5 95.5t30 131t26.5 133t18 101.5q8 45 14.5 65.5t20.5 34.5q12 14 32.5 33.5t37.5 19.5q23 0 35 -23.5t10 -41.5q0 -16 -6.5 -28.5t-14.5 -24.5q-10 -16 -20 -45t-19.5 -62t-17.5 -64.5t-10 -52.5q-6 -43 22 -4q20 31 47 68t57.5 76 t61.5 75.5t62 65.5q41 41 75.5 63.5t67.5 22.5h2q33 1 48 -21q12 -17 12 -38q0 -5 -1 -11q-4 -20 -15 -41.5t-24 -33.5q-25 -29 -47 -11q-10 6 -21 12.5t-26 6.5q-23 0 -52.5 -30t-63.5 -71q-86 -98 -153 -216.5t-124 -245.5q-20 -39 -47 -39q-29 0 -47 28z" />
<glyph unicode="s" horiz-adv-x="479" d="M96 4q2 10 6 19.5t15 19.5q35 35 61 47q25 8 41 -2q14 -6 28.5 -9t35.5 1q16 4 32.5 16.5t16.5 28.5q0 20 -11.5 47t-27.5 51q-20 31 -41 63.5t-31 55.5q-20 41 -20 82q0 55 39 112.5t86 98.5q41 35 95 57.5t99 22.5h2q45 0 72 -15q33 -20 33 -45q0 -18 -18.5 -27.5 t-45.5 -9.5q-43 0 -88 -16t-82 -40.5t-60.5 -56.5t-23.5 -63t13.5 -59.5t37.5 -63.5q31 -43 53.5 -90t22.5 -84q0 -29 -15 -56.5t-36 -43.5q-23 -18 -63.5 -40.5t-73.5 -35.5q-39 -16 -70 -16q-23 0 -50.5 13.5t-31.5 37.5z" />
<glyph unicode="t" horiz-adv-x="544" d="M94 575q10 12 21.5 18.5t34.5 10.5t50 8t56 9q27 2 35 26q4 10 17.5 46t27.5 78t28.5 81t22.5 55q8 23 32.5 43.5t47.5 20.5q20 0 33 -23q10 -16 10 -34t-10 -37q-41 -82 -66.5 -146.5t-32.5 -79.5q-8 -20 21 -16q23 0 63.5 3t89 5t99.5 4t94 2q16 0 20 -6q3 -3 3 -7 q1 -3 -1 -6q-4 -7 -14 -15.5t-22 -12.5q-41 -10 -131.5 -25.5t-237.5 -35.5q-16 -2 -23.5 -6.5t-13.5 -20.5q-14 -35 -29.5 -79t-30 -89t-25.5 -86t-15 -67q-4 -20 -4 -36q0 -66 59 -67h2q33 0 73 14.5t78 33t68.5 38t48.5 31.5q23 16 28 -0.5t-11 -32.5q-27 -27 -97.5 -79 t-195.5 -99q-23 -10 -41 -12t-33 -2q-16 0 -35.5 7t-37 20.5t-29.5 32.5t-12 46q0 35 24 100q8 23 22.5 69t31 95t31.5 92t22 60q8 23 -15 20q-18 -2 -46.5 -5t-45.5 -7q-25 -2 -43 12q-8 8 -8 20q0 16 12 31z" />
<glyph unicode="u" horiz-adv-x="905" d="M115 102q0 12 2 31t9 47.5t19.5 69.5t34.5 98q18 53 40 104.5t42.5 94.5t36.5 73.5t25 43.5q20 31 45 30q25 0 49 -17.5t24 -41.5q0 -10 -7 -26.5t-17 -34t-20.5 -33t-16.5 -21.5q-10 -16 -24.5 -27.5t-24.5 -29.5q-12 -25 -29.5 -70t-46.5 -127q-21 -55 -21 -86 q1 -10 3 -16q8 -30 30 -31q39 0 93.5 51.5t148.5 157.5q37 43 72.5 91t65.5 91t52.5 79t36.5 59q25 41 39.5 53t26.5 12q23 0 41 -25.5t8 -50.5q-4 -16 -11 -30.5t-18 -36.5q-45 -92 -73.5 -191.5t-44.5 -173.5q-10 -46 -10 -73q0 -16 3 -24q9 -24 29 -24h2q29 0 81 35 t111.5 88t121 113.5t108.5 114.5q23 27 33 2q2 -6 2 -13q0 -24 -27 -59q-117 -152 -220 -237t-157 -115q-47 -29 -78.5 -37t-50.5 -8q-35 0 -57 46q-10 22 -10 58q0 38 12 92q8 51 21.5 99.5t21.5 72.5q4 16 -1 20.5t-17 -12.5q-41 -55 -89.5 -107t-97.5 -97t-94 -80 t-80 -56q-49 -30 -84 -30h-2q-23 0 -42 32.5t-19 81.5z" />
<glyph unicode="v" horiz-adv-x="729" d="M129 129q2 20 7 48t14.5 66t26 88t40.5 115q10 25 6 33t-8 13q-4 4 -8 10t0 22q2 25 15.5 55.5t31.5 58.5t40.5 47.5t45.5 19.5t34 -39t11 -76q-2 -27 -10 -48.5t-25 -49.5q-31 -53 -54.5 -111.5t-45.5 -153.5q-9 -44 -9 -71q0 -18 4 -28q11 -26 29 -26q31 0 78 31 q37 27 79 68t83 90t75 103.5t54 107.5q8 25 -4 37q-14 16 -23.5 38.5t-9.5 47.5q0 14 8.5 30.5t20.5 30.5t27.5 23.5t27.5 9.5h2q16 0 28.5 -11.5t20 -27.5t11.5 -33.5t6 -30.5q0 -20 16 -30q39 -27 127 -27q59 0 111.5 12.5t74.5 22.5q24 10 24 -6q0 -14 -19 -29 q-45 -37 -108.5 -57.5t-131.5 -20.5q-41 0 -62.5 3t-33.5 8q-14 2 -23 -19q-37 -80 -89 -151.5t-108.5 -132t-112.5 -104.5t-101 -69q-43 -23 -70 -27.5t-49 -4.5q-10 0 -24.5 7t-26.5 25q-13 16 -20 44q-4 18 -4 41q0 13 1 28z" />
<glyph unicode="w" horiz-adv-x="1095" d="M117 130q2 54 37 142q16 45 37.5 98.5t42 102.5t39 92t30.5 68q14 31 31.5 47t36.5 27q10 4 18 6t19 2q23 0 35 -20.5t12 -43.5q0 -27 -6.5 -42t-26.5 -34q-16 -16 -35.5 -36.5t-34.5 -44.5q-47 -88 -73.5 -160t-36.5 -109q-10 -41 -8 -60.5t12 -25.5t27.5 4.5t33.5 26.5 q14 14 50 53t79 86t87 95.5t79 84.5q55 55 74.5 86t25.5 54q6 20 19.5 33.5t26.5 21.5q27 18 47 6q16 -8 24 -26q7 -11 7 -24q0 -18 -13 -40q-41 -66 -78 -160t-53 -188q-7 -45 -8 -73q0 -27 7 -41q13 -28 30 -27q23 0 55.5 23.5t64.5 55.5q16 18 42 53.5t53.5 79.5t53.5 92 t38 95q8 29 -8 45q-18 16 -33.5 42t-15.5 50q0 31 23.5 53.5t55.5 22.5h2q18 0 33 -12.5t26 -29.5t17 -33.5t8 -22.5q4 -10 8.5 -16.5t14.5 -12.5q23 -14 63 -20q30 -4 63 -3h25q46 2 90 11.5t72 25.5q26 11 26 -6q0 -12 -20 -31q-33 -29 -76.5 -46t-89.5 -24q-41 -6 -80 -6 h-11q-44 1 -78 9q-12 2 -19 -17q-6 -16 -17.5 -44.5t-31.5 -69.5q-25 -47 -62.5 -101.5t-81.5 -104.5t-90.5 -93t-87.5 -66q-23 -14 -46 -24.5t-46 -10.5q-35 -1 -59 47q-21 41 -22 111q0 11 1 23q2 45 8.5 89t18.5 81q6 20 -1 23t-30 -19q-31 -31 -67.5 -70t-73.5 -76 t-67.5 -69.5t-47.5 -51.5q-37 -43 -70.5 -62t-58.5 -19q-23 0 -37 18t-22 47q-6 23 -6 62v21z" />
<glyph unicode="x" horiz-adv-x="907" d="M18 -57q-2 6 -2 12q0 17 17 35q6 8 35.5 36.5t77 70.5t108.5 94.5t129 109.5q10 10 11 17.5t-7 23.5q-27 55 -56.5 132t-49.5 151q-6 23 -8.5 40t6.5 31q6 16 26.5 28.5t42.5 12.5q51 0 52 -55q6 -74 26 -139.5t53 -134.5q6 -14 25 4q8 8 38.5 36.5t67.5 60.5t71 61.5 t50 39.5q23 16 45.5 27.5t38.5 11.5t29.5 -18.5t17.5 -36.5q4 -16 -3 -30.5t-23 -18.5q-35 -10 -76 -36t-82 -57.5t-77 -64.5t-62 -59q-10 -10 -10.5 -16.5t10.5 -22.5q35 -55 72.5 -96t72.5 -68t63.5 -40t47.5 -13q47 0 47 55q0 23 -4 42t-9 32q-4 16 3.5 20t21.5 -6 q16 -10 31.5 -47t15.5 -64q0 -35 -15.5 -57t-36 -35.5t-41 -19.5t-28.5 -6h-2q-31 0 -70.5 16t-95.5 55q-18 14 -40.5 36t-44 44.5t-41 46t-31.5 39.5q-10 12 -14.5 13.5t-14.5 -7.5q-27 -18 -50.5 -38.5t-56.5 -51.5q-16 -16 -21 -29.5t-3 -41.5q0 -25 -23 -41 q-12 -12 -25.5 -16.5t-29.5 -6.5q-10 0 -19.5 -5t-27.5 -17q-18 -10 -41 -24.5t-45 -29.5q-19 -12 -33 -12q-8 0 -14 4q-14 10 -19 23z" />
<glyph unicode="y" horiz-adv-x="585" d="M-274 -664q6 27 18 49.5t39 57.5q31 41 51.5 55.5t32.5 18.5q20 6 33 28q4 8 16 28.5t31.5 49.5t43 61.5t48.5 63.5q16 20 46 59t63.5 83t63.5 83t46 60q12 12 -4 8q-27 -8 -45 -8q-29 0 -41 42q-10 36 -10 113v27l12 274q2 33 0 47.5t-4 24.5q-4 14 -3 31.5t9 34.5 q6 12 14.5 28.5t18.5 31.5t22.5 26.5t24.5 11.5q14 0 22.5 -18.5t12.5 -45t4 -55t-2 -49.5q-2 -25 -6 -69t-9.5 -91t-9.5 -91t-6 -68q-1 -14 -1 -26q0 -37 9 -57q13 -26 29 -26q33 0 92 71.5t141 221.5q33 57 38 81.5t3 37.5q-2 16 -1 31.5t14 35.5q14 23 23 42.5t26 47.5 q10 23 21.5 30t23.5 7q16 0 32.5 -25.5t16.5 -52.5q0 -16 -9 -53t-28 -78q-12 -29 -39.5 -82t-63.5 -113.5t-75 -119.5t-74 -102q-170 -207 -273.5 -344.5t-133.5 -180.5q-14 -25 -4 -26q35 -10 34 -33q0 -16 -19.5 -33.5t-44 -33t-48 -29t-33.5 -19.5q-27 -10 -39 -22.5 t-22 -28.5q-23 -35 -42.5 -55.5t-46.5 -20.5q-23 0 -35 15q-7 8 -7 19q0 9 4 19z" />
<glyph unicode="z" horiz-adv-x="837" d="M123 23q0 14 10 33.5t24.5 39t29 35.5t20.5 27q12 12 12 41q0 35 19.5 58.5t40.5 25.5q16 0 38 -19q10 -6 16.5 -3t14.5 11q63 72 130 140.5t128 134.5q16 16 13 22t-19 9q-98 8 -147.5 12t-67.5 4q-23 0 -32 -8t-15 -19q-11 -22 -11 -52q0 -28 15 -66q8 -18 0 -22.5 t-25 3.5q-6 2 -17 13.5t-22.5 24.5t-20.5 27.5t-15 26.5q-12 23 -10.5 47.5t18.5 40.5q33 35 57.5 55.5t63.5 20.5q35 0 72.5 -4t101.5 -14q43 -4 75.5 -7.5t55.5 -3.5t35 5.5t18 9.5q10 4 19.5 10t25.5 6t38 -9t38 -26q16 -18 11 -36.5t-9 -30.5q-14 -23 -31 -23 q-6 0 -16 1t-21 1q-23 0 -48 -18.5t-52 -42.5q-10 -10 -42 -43t-69.5 -74t-75.5 -82t-63 -69q-16 -16 -16 -25.5t10 -17.5q20 -16 51 -37t67 -37.5t72.5 -27.5t67.5 -11h2q61 0 108.5 22.5t83 54t61.5 65.5t42 59q13 23 25 15q7 -5 6 -14q0 -7 -4 -18q-16 -35 -46 -83 t-74 -91t-100.5 -73.5t-125.5 -30.5q-72 0 -147 35.5t-173 95.5q-16 8 -25.5 6t-21.5 -17q-8 -10 -23.5 -24t-32 -30.5t-32.5 -32t-25 -23.5q-14 -10 -26.5 -9t-18.5 5q-4 4 -10 12t-6 19z" />
<glyph unicode="{" horiz-adv-x="634" d="M102 -248q2 29 8.5 54.5t26.5 70.5q18 47 52 99.5t65 105.5t38 85t9 56q4 31 -9 59.5t-40 43.5q-8 4 -19.5 5t-21.5 1q-16 -4 -27.5 7t-11.5 26q0 12 9 24t23.5 21.5t32 14.5t31.5 5q18 2 43 9t43 26q20 20 31.5 81.5t15.5 127.5q4 63 19.5 121.5t54.5 111.5q37 49 75 78 t79 47q39 18 67.5 24.5t44.5 6.5h2q18 0 29.5 -8t24.5 -19q18 -16 -9 -53q-16 -20 -34.5 -31.5t-40.5 -1.5q-27 12 -54 11q-33 0 -65.5 -35t-48.5 -76t-24.5 -113.5t-16.5 -138.5q-4 -33 -12.5 -67.5t-23.5 -64.5t-40 -52.5t-57 -30.5q-35 -6 -17 -23q31 -37 45.5 -71.5 t10.5 -75.5q-4 -47 -34 -109.5t-73 -128.5q-10 -16 -26.5 -41.5t-31 -53t-25.5 -53.5t-13 -44q-4 -35 15.5 -58.5t49.5 -23.5q23 0 59 11.5t56 11.5q25 0 38 -11.5t13 -21.5q-4 -14 -20 -25q-16 -8 -43 -16t-57.5 -14.5t-59.5 -9.5t-49 -3q-41 0 -68 23q-18 12 -30.5 45 t-8.5 61z" />
<glyph unicode="|" horiz-adv-x="368" d="M260 -512v2048h96v-2048h-96z" />
<glyph unicode="}" horiz-adv-x="647" d="M-4 -332q0 16 22.5 40t47.5 24q16 0 33.5 -9.5t39.5 -9.5q29 0 59.5 19.5t56.5 54.5t43 85t19 112q2 31 4.5 72.5t12.5 78.5q12 70 51 102.5t76 51.5q16 10 21 15t-5 11t-22.5 21.5t-23.5 35t-17 41t-4 40.5q2 37 17 76.5t35.5 79.5t43 79t43.5 74q35 59 49 90t16 59 q2 31 -17 50.5t-58 19.5q-27 0 -62 -7t-57 -18q-16 -6 -27.5 2.5t-1.5 24.5q6 10 19.5 20.5t40.5 20.5q37 16 74.5 26.5t74.5 10.5h2q47 0 87 -36t40 -89q-2 -41 -37 -113.5t-88 -158.5q-49 -84 -62.5 -129.5t-15.5 -71.5q-2 -14 -1 -30.5t7.5 -32t18.5 -25.5t33 -10 q6 0 21.5 2t23.5 2q23 0 38 -21.5t15 -42.5q-2 -18 -16.5 -23.5t-30.5 -5.5q-72 0 -113 -24.5t-60.5 -66.5t-25.5 -95t-8 -110q-2 -55 -19.5 -102.5t-42 -85.5t-54 -66.5t-58.5 -47.5q-39 -27 -96.5 -46t-94.5 -19q-29 0 -48 18.5t-19 36.5z" />
<glyph unicode="~" horiz-adv-x="964" d="M280 314q1 24 13 53q23 51 49.5 82.5t54 49t54 23.5t51.5 6h2q39 0 80 -19.5t94 -66.5q41 -35 74.5 -54t68.5 -19q39 0 69 33.5t42 91.5q6 33 29.5 40t37.5 -8q12 -12 18.5 -35.5t-3.5 -52.5q-27 -78 -85.5 -127t-123.5 -49q-53 0 -102.5 30t-88.5 62q-37 29 -66.5 46.5 t-62.5 17.5q-41 0 -75.5 -39t-44.5 -88q-12 -39 -37 -36t-37 19t-11 40z" />
<glyph unicode="&#xa1;" horiz-adv-x="317" d="M8 -156q-8 43 21 76q18 16 30.5 32.5t34.5 67.5q23 47 53.5 121t77.5 201q12 33 28.5 43t27.5 10q14 0 19 -23.5t-13 -97.5q-4 -16 -18.5 -65t-35 -115.5t-44 -142.5t-46.5 -146q-16 -51 -61 -51h-2q-29 0 -47.5 31t-24.5 59zM264 633q0 35 27.5 59.5t62.5 24.5t53.5 -33 t18.5 -59q0 -16 -8 -33t-20.5 -30t-28 -22.5t-29.5 -9.5h-2q-18 0 -32.5 11.5t-24 28t-13.5 34t-4 29.5z" />
<glyph unicode="&#xa2;" d="M184 315v2q0 70 55.5 170.5t168.5 200.5q66 57 129 81t98 32q16 2 24 24q20 57 33 94t22 59.5l14 35t11 22.5q12 20 22.5 25.5t22.5 5.5t31 -25.5t4 -54.5q-6 -16 -24.5 -57t-46.5 -113q-6 -18 4 -18q12 -2 30.5 -8.5t37 -15.5t30.5 -19.5t12 -20.5q-2 -18 -24.5 -28.5 t-55.5 -14.5q-25 -2 -63 13q-18 6 -23 -15q-43 -102 -88 -213.5t-86 -228.5q-8 -20 8 -17q102 25 185.5 82.5t146.5 128.5q16 16 24.5 13.5t4.5 -17.5q-4 -16 -10.5 -33.5t-34.5 -52.5q-66 -78 -156 -134t-188 -79q-16 -4 -23.5 -10t-13.5 -20q-31 -86 -42 -124t-15 -51 q-4 -16 -13.5 -36.5t-23.5 -36.5q-29 -29 -45 -29q-14 0 -22.5 26.5t11.5 69.5q6 12 26.5 61.5t49.5 114.5q4 12 1 16.5t-15 4.5q-96 0 -144.5 49t-48.5 141zM299 334q0 -66 36 -88.5t81 -24.5q16 0 26 23q43 111 83 223.5t85 224.5q10 23 -10 17q-35 -4 -99.5 -51.5 t-131.5 -145.5q-39 -55 -54.5 -97t-15.5 -79v-2z" />
<glyph unicode="&#xa3;" horiz-adv-x="937" d="M106 43q0 14 13.5 31.5t35 33t45 25.5t46.5 12q14 2 20 9.5t21 31.5q8 14 20 47t26.5 70t27 71t18.5 52q6 20 -10 23q-10 2 -20.5 2h-24.5q-29 0 -54.5 -10.5t-36.5 -20.5q-8 -8 -18 -4t-20 14t-9.5 26.5t11.5 26.5q20 23 57 37.5t90 14.5h53q18 0 25 18 q59 164 114.5 242.5t102.5 107.5q35 20 56.5 27.5t43.5 7.5q27 0 53.5 -9t48 -24.5t36 -38t14.5 -47.5q0 -10 -3 -22.5t-9 -18.5t-15.5 -6t-15.5 8q-12 20 -42 38t-65 18q-20 0 -42.5 -11.5t-53.5 -44.5q-29 -33 -60.5 -99.5t-54.5 -133.5q-8 -20 11 -23q70 -10 137 -15 t121 3q53 10 14 -37q-25 -29 -61.5 -38t-61.5 -9q-37 0 -100 6q-18 4 -41 6t-39 2q-14 2 -21 -16q-6 -18 -21 -56t-31.5 -80t-33 -78t-24.5 -52q-14 -18 6 -25q33 -14 73 -27.5t81 -24.5t80.5 -18.5t74.5 -7.5q72 0 137.5 26t112.5 85q16 23 24.5 16.5t6.5 -18.5 q-4 -23 -27.5 -60.5t-77.5 -76.5q-51 -41 -107 -55.5t-110 -14.5q-33 0 -73.5 8t-84.5 20.5t-87 28t-80 31.5q-14 4 -22.5 0t-22.5 -20q-33 -29 -51.5 -39.5t-34.5 -10.5q-33 0 -62 20.5t-29 45.5z" />
<glyph unicode="&#xa4;" horiz-adv-x="874" d="M152 115q0 25 24 49q12 10 30.5 25.5t36 31t32 27.5t18.5 16q8 12 -8 39q-10 14 -18.5 43t-8.5 64q0 43 9 76.5t23.5 59t30 45t27.5 34.5q20 25 8 39q-10 16 -27.5 39.5t-27.5 39.5q-12 23 -16 45.5t16 45.5q8 10 17.5 10t17.5 -4q6 -4 21.5 -21.5t34 -37t34.5 -36 t20 -22.5q8 -10 21 -2q8 6 24.5 15t37 18.5t44 15.5t45.5 6h3q41 0 80.5 -21.5t54.5 -31.5q14 -10 23 -12t22 6q8 6 24.5 21.5t35 32.5t33.5 33.5t21 22.5q14 20 29 21q23 0 37 -14q16 -16 15 -36t-15 -36q-18 -23 -56 -53.5t-71 -59.5q-16 -14 -18 -23.5t2 -19.5 q4 -14 5 -30.5t1 -34.5q0 -14 -5 -38t-15.5 -49.5t-25 -52t-32.5 -47.5q-10 -16 -11 -26.5t9 -28.5q6 -12 23.5 -34.5t36 -46t34.5 -44t23 -29.5q20 -37 -9 -59q-8 -6 -19 -8t-28 8q-6 2 -21.5 14.5t-38 33t-49 47t-50.5 57.5q-8 10 -17.5 7t-21.5 -7q-59 -29 -107.5 -42.5 t-68.5 -13.5q-14 0 -29.5 4t-28.5 9q-10 4 -22.5 2t-30.5 -17q-6 -4 -23.5 -18.5t-39 -31.5t-39 -32.5t-23.5 -19.5q-18 -14 -39 -6q-8 6 -16 18t-8 25zM369 426q0 -39 13 -65.5t33.5 -42t43 -22.5t39.5 -7q20 0 56 8t64 29q23 16 44.5 39.5t37 51t24.5 56.5t9 55 q2 61 -36 102.5t-95 41.5h-2q-49 0 -91 -20.5t-72.5 -54.5t-49 -79t-18.5 -92z" />
<glyph unicode="&#xa5;" horiz-adv-x="837" d="M139 231q0 23 12.5 36.5t26.5 21.5q45 27 225 30q20 0 23 15q8 20 16.5 42.5t12.5 39.5q6 20 -17 18q-86 -10 -127 -18t-57 -15q-16 -6 -25.5 -6t-17.5 4q-16 6 -20.5 14.5t-4.5 18.5t9.5 22.5t29.5 22.5q16 6 45 11.5t62 9.5t64.5 6t54.5 4q12 2 15 4t5 12q2 25 4 67 t0 83q0 25 -2 50.5t-8 48t-17.5 36.5t-31.5 14q-16 0 -36 -8l-40 -16q-23 -10 -47 10q-18 18 -19 41q0 16 19.5 28.5t47.5 21.5t57.5 13.5t50.5 4.5q68 0 102 -56q12 -25 17 -58.5t6 -70.5t-1 -74.5t-4 -68.5q0 -14 5.5 -17.5t11.5 7.5q12 16 39.5 49t62.5 70.5t71 75.5 t62 63q16 14 40 32.5t50.5 35t54 26.5t54.5 10t53.5 -16.5t26.5 -38.5q0 -10 -10.5 -22.5t-24.5 -18.5q-20 -10 -38.5 -12.5t-43.5 0.5q-23 2 -40 -5.5t-46 -29.5q-16 -14 -50 -49t-71 -75t-70.5 -79t-50.5 -61q-10 -14 11 -15q33 0 67.5 3t65 7.5t55.5 8.5t35 6 q16 8 27.5 -6.5t9.5 -28.5q-2 -20 -15.5 -35.5t-42.5 -15.5q-12 -2 -39.5 -3t-61.5 -3t-72 -3t-74 -4q-33 -4 -41 -18q-10 -16 -18.5 -36.5t-22.5 -51.5q-8 -18 8 -18h92q47 0 74.5 3t46.5 9q18 4 27.5 -9.5t9.5 -31.5t-7.5 -26.5t-19.5 -14.5q-8 -2 -34.5 -3t-62.5 -1 t-77 1t-76 1q-14 0 -24 -19q-12 -33 -23.5 -73.5t-13.5 -61.5q-2 -29 22 -28q20 0 47 -1t52 -1q37 -2 36 -19q0 -23 -69 -35q-72 -16 -146.5 -26.5t-140.5 -10.5q-27 0 -50.5 8.5t-23.5 22.5q0 6 11.5 16.5t40.5 20.5q23 6 43 8t34 6q18 2 27 31q10 29 23.5 68t25.5 73 q4 16 -12 17q-98 -6 -141 -18.5t-56 -18.5q-8 -4 -19 -6t-16 6q-8 8 -8 22z" />
<glyph unicode="&#xa6;" horiz-adv-x="368" d="M260 358h96v-716h-96v716zM260 666v716h96v-716h-96z" />
<glyph unicode="&#xa7;" horiz-adv-x="780" d="M49 -256q-2 31 23 53q33 27 65 21q29 -4 56.5 -20.5t25.5 -39.5q0 -10 7 -11t24 -1q23 0 66.5 15.5t84.5 54.5q33 33 53.5 62.5t20.5 58.5t-15.5 63.5t-74.5 95.5q-35 35 -66.5 69t-56 70.5t-39 75.5t-14.5 86q0 86 46 152.5t110 118.5q23 14 20 24q-2 8 -2 15.5v13.5 q0 35 27.5 84t68.5 82q39 33 87 52t96 28q18 4 34.5 8t28.5 8q27 12 59 12q35 0 55.5 -17t26.5 -32q16 -35 -12 -57q-8 -6 -18.5 -13.5t-26.5 -13.5q-16 -8 -31.5 -8t-27.5 12q-16 10 -30.5 17.5t-31.5 7.5q-27 0 -60.5 -13.5t-63 -34t-50 -45t-20.5 -48.5v-2q0 -20 8 -40 t33 -44q25 -27 68.5 -73t96.5 -112q41 -49 56.5 -96t15.5 -74q0 -63 -22.5 -110t-52 -80t-57.5 -52.5t-40 -29.5q-20 -18 -20 -31q4 -23 2 -55q-4 -49 -33 -95t-68 -84t-83 -64.5t-79 -39.5q-41 -12 -66.5 -14t-45.5 4t-36.5 6t-29.5 -2q-35 -8 -59.5 7.5t-28.5 37.5 q-2 10 -3 18.5t-1 18.5zM309 446q0 -31 11.5 -66.5t50.5 -82.5q37 -47 77.5 -93t69.5 -77q25 -25 45 -10q37 25 70 65.5t33 83.5q0 23 -10.5 51.5t-41.5 71.5q-14 20 -40.5 51t-54 60.5t-51.5 54.5t-30 31q-14 18 -41 2q-8 -4 -22.5 -18.5t-28.5 -34t-25.5 -43t-11.5 -43.5 v-3z" />
<glyph unicode="&#xa8;" horiz-adv-x="761" d="M440 913q0 39 24.5 57.5t59.5 18.5h2q45 0 56.5 -26.5t11.5 -44.5q0 -29 -28.5 -56.5t-55.5 -27.5q-25 0 -47.5 25.5t-22.5 53.5zM678 897q0 31 23.5 59.5t64.5 28.5h2q25 0 48.5 -23.5t23.5 -48.5q0 -35 -34 -57t-69 -22q-16 0 -37.5 17t-21.5 46z" />
<glyph unicode="&#xa9;" horiz-adv-x="1181" d="M238 479q0 88 39.5 171t107.5 148.5t156 105.5t184 40h2q90 0 178 -32.5t156.5 -93t112 -147.5t43.5 -198q0 -84 -42 -168t-114 -151.5t-167 -110.5t-202 -43q-92 0 -175 39t-144.5 104.5t-98 152.5t-36.5 183zM328 459q0 -68 31.5 -134.5t84 -119.5t120 -86t141.5 -33 q80 0 155.5 27.5t135 76t95 115t35.5 144.5q0 90 -29.5 166.5t-85 132t-132 86t-168.5 30.5h-2q-82 0 -152 -32.5t-121 -88t-79.5 -129t-28.5 -155.5zM514 428q0 29 11.5 60.5t28.5 62.5t38.5 57.5t44.5 44.5q25 18 41 30.5t31.5 20t32 10.5t38.5 3h2q35 0 55.5 -9.5 t31 -20.5t13.5 -23.5t3 -18.5q0 -12 -9.5 -22.5t-19.5 -18.5q-18 -12 -37 0q-12 4 -30.5 12.5t-40.5 8.5q-16 0 -39 -19.5t-44.5 -47.5t-36 -60.5t-14.5 -59.5q0 -37 25 -66.5t66 -29.5q23 0 44 6t39 12q16 8 45 21.5t39 13.5q25 0 25 -26q0 -10 -12.5 -26.5t-42.5 -39.5 q-35 -23 -84 -37t-82 -14q-23 0 -51.5 11t-53 32.5t-41 54.5t-16.5 78z" />
<glyph unicode="&#xaa;" horiz-adv-x="602" d="M209 489q0 18 11 58.5t48 107.5q33 59 87.5 129t113.5 119q49 41 81 52.5t52 11.5h2q10 0 21.5 -11.5l21.5 -21.5q8 -12 25 -2q16 16 33 2q31 -18 16 -47q-35 -72 -56.5 -141.5t-25.5 -129.5q-4 -45 6 -74.5t29 -29.5q23 0 46 15.5t48 35.5q16 12 26.5 0t-10.5 -35 q-45 -57 -92 -85.5t-74 -28.5q-23 0 -43 29.5t-24 76.5q-2 25 -2 52.5v37.5q2 6 -3 8.5t-11 -8.5q-8 -10 -29 -29.5t-44.5 -42t-47 -43t-37.5 -32.5q-55 -49 -103 -49q-12 0 -38.5 16t-26.5 59zM333 541.5q3 -13.5 15 -13.5q14 0 58 33q20 16 46.5 44t54.5 60.5t50.5 65.5 t32.5 60q10 23 11 37t-3 24t-14.5 20.5t-22.5 10.5h-2q-10 0 -35.5 -20.5t-54.5 -53.5q-59 -66 -90 -130.5t-41 -100.5q-8 -23 -5 -36.5z" />
<glyph unicode="&#xab;" horiz-adv-x="952" d="M287 301v2q0 10 15 32.5t48 47.5q14 12 53 45t83 71t84 72.5t59 51.5q16 12 25.5 18t19.5 6q12 0 15 -18.5t-1 -30.5q-6 -25 -26 -51q-6 -8 -35 -34t-64 -55.5t-66.5 -57t-43.5 -38.5q-16 -16 -16.5 -26t16.5 -25q8 -6 26.5 -24.5t39 -42t38.5 -46t27 -36.5 q23 -31 25.5 -65t-27.5 -50q-27 -12 -39 16q-10 20 -30.5 47t-44.5 53.5t-49.5 49.5t-43.5 35q-31 16 -49 14q-16 -2 -27.5 9.5t-11.5 29.5zM604 313v2q2 14 21.5 38t44.5 44q37 31 59.5 52.5t42 40t39.5 38t51 45.5q23 18 37 23.5t23 5.5q16 0 23 -19.5t3 -39.5 q-4 -14 -10 -20.5t-16 -10.5q-18 -6 -42 -23.5t-48.5 -40t-47 -45l-36.5 -36.5q-25 -31 -7 -45q35 -29 73 -66t54 -61q20 -29 27.5 -45.5t5.5 -32.5q0 -20 -14 -37q-6 -8 -18.5 -7t-20.5 7q-4 4 -16.5 19.5t-28 36t-32.5 41t-34 36.5q-35 29 -53 39t-27 10q-23 0 -38 13.5 t-15 37.5z" />
<glyph unicode="&#xac;" horiz-adv-x="1128" d="M307 508q0 16 15.5 31.5t29.5 21.5q16 10 45 2q12 -4 62.5 -8t124.5 -4h2h102.5t120.5 1t117.5 2t91.5 5q16 0 32.5 -11t22.5 -22q8 -12 7 -31.5t-5 -54.5q-2 -18 -4 -48t-4 -60.5t-4 -59t-2 -47.5q0 -8 1 -31.5t5 -37.5q6 -27 -16 -50q-10 -10 -28.5 -19t-35.5 -9 q-27 0 -33 41q-4 20 0 68.5t11 95.5q8 61 8 106t-23 60q-10 8 -28.5 11t-55.5 3q-98 0 -205.5 -5t-211.5 -5q-53 0 -97.5 10t-44.5 45z" />
<glyph unicode="&#xad;" horiz-adv-x="536" d="M174 258q-10 14 10 45q29 49 113 74q12 4 49 14t79 21.5t80 19.5t54 8q27 0 27 -18v-2q0 -20 -24.5 -49t-65.5 -39q-70 -20 -148 -41t-139 -39q-25 -6 -35 6z" />
<glyph unicode="&#xae;" horiz-adv-x="739" d="M285 668q0 55 26.5 109t69.5 96t95 68t104 26h2q145 0 229 -73t84 -212q0 -61 -28.5 -117.5t-76 -99.5t-106.5 -67.5t-121 -24.5q-55 0 -105 22.5t-89 62.5t-61.5 93t-22.5 117zM358 680q0 -45 14.5 -89t42 -78t67.5 -54.5t91 -20.5q49 0 95.5 18.5t82 52.5t56 79 t20.5 100q0 53 -20.5 93t-56 66.5t-80.5 40t-95 13.5h-2q-35 0 -72.5 -18.5t-69.5 -49t-52.5 -70.5t-20.5 -83zM455 590q8 29 15 63.5t11 67.5q2 16 0 30.5t-6 24.5q-2 12 17 25q10 8 21 11t17 5q16 4 25.5 5t19.5 1h3q47 0 87 -17.5t40 -60.5q0 -29 -20.5 -43t-33.5 -24 q-8 -4 -2 -14t13.5 -20.5t19.5 -25.5q12 -16 26.5 -24t30.5 -19q18 -6 0 -16q-20 -10 -47 -10q-18 0 -43.5 12t-54.5 53q-23 35 -43 35q-10 0 -12 -4l-7 -14q-8 -43 -10 -58.5t-8 -23.5q-16 -18 -37 -19q-16 0 -21 18.5t-1 41.5zM547 702q0 -6 1 -9t11 -3q16 0 44 12.5 t28 38.5q0 8 -10.5 20.5t-30.5 12.5h-2q-6 0 -11.5 -1t-13.5 -5t-10 -18q-2 -10 -3 -23.5t-3 -24.5z" />
<glyph unicode="&#xaf;" horiz-adv-x="761" d="M449 907q2 31 24.5 47.5t50.5 16.5q51 2 97.5 -1t87.5 -3q23 0 40 2t25 4q12 4 27 4q12 0 27.5 -15.5t15.5 -27.5q0 -10 -2 -17.5t-13 -19.5q-6 -10 -16 -15t-16 -5q-10 0 -21.5 2t-23.5 2h-197h-23.5t-17.5 -4q-12 -4 -29 -5q-14 0 -25 12.5t-11 22.5z" />
<glyph unicode="&#xb0;" horiz-adv-x="575" d="M293 709q0 43 21.5 89t55 83t78 61.5t89.5 24.5h2q35 0 70.5 -9.5t64 -30t47 -55t18.5 -84.5q0 -49 -22.5 -97t-61.5 -86t-88 -61.5t-102 -23.5q-31 0 -61.5 14.5t-55 40t-40 59.5t-15.5 75zM389 731q0 -20 7 -41.5t19.5 -40t30 -31t37.5 -12.5h2q27 0 56.5 15.5t52 39 t38 51t15.5 52.5q0 49 -26.5 83t-90.5 34q-27 0 -52 -12.5t-44.5 -32t-32 -47t-12.5 -58.5z" />
<glyph unicode="&#xb1;" horiz-adv-x="1128" d="M270 55q0 27 22.5 36t65.5 9q104 0 169 -2t128 -6q37 0 78 -1t77 -2t64.5 -1h40.5q27 0 53.5 1t49.5 5q16 4 30.5 1t26.5 -9q16 -12 22.5 -26.5t6.5 -24.5q0 -23 -34 -36t-77 -13h-2q-12 0 -39.5 1t-64.5 2t-81 3t-87 4q-45 0 -93 1t-91 2t-75 1h-44q-23 0 -44.5 -3 t-41.5 -7q-23 0 -41.5 21.5t-18.5 43.5zM295 510q0 18 12 30.5t27 18.5q14 6 40.5 8t55.5 2q16 0 39 -1t46.5 -2t44 -2t30.5 -1q16 0 20 6t4 25v76q0 66 1 105.5t12 62.5q12 25 37 24q16 0 28.5 -6t20.5 -12q20 -25 12 -62q-2 -8 -5 -28.5t-5 -47t-4 -57.5t-2 -59 q0 -18 3 -22.5t19 -4.5h56t82 1t79 1h47q23 0 41.5 -15t18.5 -38t-22.5 -34t-39.5 -11q-53 0 -127.5 4t-140.5 4q-16 0 -16 -22q0 -31 1 -66t3 -65.5t3 -54t1 -31.5q0 -33 -14.5 -52.5t-47.5 -19.5q-18 0 -34.5 16.5t-14.5 46.5q4 49 5 108.5t1 115.5q0 12 -2 16t-18 4 q-61 2 -121.5 1t-108.5 -1q-33 0 -50 12.5t-17 26.5z" />
<glyph unicode="&#xb2;" horiz-adv-x="585" d="M217 440q-4 8 1 19.5t26 29.5q14 12 28.5 21.5t32.5 21.5q10 4 32.5 21.5t50.5 41t56.5 49.5t49.5 48q41 43 58 74t17 47q0 23 -14 39t-37 16t-49.5 -16t-65.5 -64q-16 -18 -25 -25t-22 -7q-25 0 -32 28q-4 10 -1 26.5t13 31.5q16 23 28.5 32t24.5 17q25 14 54.5 30.5 t45.5 26.5q27 16 66 17q23 0 45.5 -13.5t40.5 -33t30.5 -44t12.5 -49.5q0 -35 -23.5 -71.5t-57.5 -71.5t-70.5 -66.5t-63.5 -54.5q-16 -16 -20.5 -27.5t6.5 -15.5q12 -4 39.5 -6t66.5 -2h84q43 0 60.5 -11.5t15.5 -27.5q0 -10 -10.5 -20.5t-23.5 -19.5t-26.5 -17t-21.5 -11 q-12 -4 -24.5 -3t-20.5 10q-6 6 -15.5 9t-31.5 5q-47 4 -113.5 7t-179.5 -7q-27 0 -37 16z" />
<glyph unicode="&#xb3;" horiz-adv-x="585" d="M248 506q2 10 7 20.5t15 20.5q25 20 52 -8q18 -16 58 -31.5t81 -15.5q53 0 87 25.5t34 53.5q0 29 -33 55.5t-80 28.5q-14 0 -27.5 4.5t-29.5 16.5q-16 10 -11 23.5t23 23.5q18 12 36.5 20.5t45.5 20.5q45 18 69.5 35.5t24.5 40.5q0 14 -15.5 27.5t-43.5 13.5 q-12 0 -27.5 -6.5t-24.5 -12.5q-16 -12 -29.5 -18t-33.5 -6t-35.5 16t-15.5 31q0 12 16.5 30.5t38.5 30.5q25 18 51 2q16 -12 51 -4l31 6q10 2 35 2h2q31 0 53.5 -10t35.5 -25.5t20.5 -33t7.5 -29.5q0 -41 -37 -68.5t-80 -50.5q-25 -14 -10 -22q100 -57 100 -131 q0 -43 -26.5 -76t-65.5 -56.5t-85 -35t-85 -11.5q-41 0 -84 14.5t-65 31.5q-16 16 -23.5 27t-7.5 30z" />
<glyph unicode="&#xb4;" horiz-adv-x="761" d="M500 801v2q0 10 20 33q33 29 80 78t117 137q16 18 29.5 28.5t31.5 10.5q31 0 56 -29t-11 -60q-119 -115 -192.5 -157.5t-91.5 -50.5q-16 -4 -27.5 -3t-11.5 11z" />
<glyph unicode="&#xb6;" horiz-adv-x="892" d="M221 444v2q0 51 22.5 96.5t59.5 83.5t82 66.5t88 46.5q59 23 122.5 37.5t125.5 14.5q14 0 22 18q23 59 54.5 119.5t72.5 93.5q31 31 70 31q20 0 33.5 -13.5t13.5 -29.5q-4 -37 -31 -47q-16 -10 -47.5 -55.5t-54.5 -100.5q-10 -20 6 -21q29 -4 59.5 -10t47.5 -18 q12 -10 9 -24.5t-26 -31.5q-12 -8 -27.5 -10t-29.5 0t-28.5 6t-26.5 9q-20 2 -25 -15q-10 -23 -25.5 -62.5t-34 -92t-38 -111.5t-37.5 -121q-8 -20 8 -20q6 0 25.5 1t43 4t48 7t41.5 10q16 6 24.5 2t-0.5 -18q-8 -12 -20 -22.5t-25 -16.5q-10 -6 -29.5 -13.5t-42 -14.5 t-43 -12t-34.5 -7q-18 -2 -25.5 -6t-13.5 -19q-4 -12 -12.5 -36.5t-17.5 -51t-17 -50.5t-10 -36q-4 -18 2 -28.5t16 -14.5l17.5 -14t2.5 -25q-8 -29 -43 -71q-49 -66 -88 -66q-16 0 -24 22.5t-4 53.5q2 10 14 57t27.5 99.5t29 97.5t15.5 53q8 25 -13 25q-10 0 -33.5 1t-54 7 t-63.5 18t-60 33q-35 25 -66.5 69t-31.5 121zM467 455q0 -66 28.5 -109t65.5 -51q12 -2 21 16q4 16 20 68.5t35.5 114t38 118t26.5 80.5q8 23 -6 23q-20 0 -47.5 -7.5t-62.5 -23.5q-53 -29 -86 -92.5t-33 -134.5v-2z" />
<glyph unicode="&#xb7;" horiz-adv-x="309" d="M184 328q0 16 9.5 35.5t23.5 36t31.5 27.5t36.5 11h2q31 0 57.5 -29.5t26.5 -54.5q0 -16 -11.5 -33.5t-30 -32t-40 -22.5t-41.5 -8q-23 0 -43.5 22.5t-20.5 47.5z" />
<glyph unicode="&#xb8;" horiz-adv-x="761" d="M135 -360q0 12 9.5 25t23.5 23.5t28.5 17.5t24.5 7q12 0 24.5 -12t18.5 -23q4 -10 14.5 -12t20.5 -2q14 0 40 11.5t26 29.5q2 16 -9.5 31.5t-44.5 38.5q-16 16 -26.5 29.5t-10.5 29.5q0 20 16.5 51t39 60.5t49.5 51t49 21.5h2q14 0 14 -13t-16 -36q-16 -16 -33.5 -45.5 t-17.5 -44.5q0 -16 17.5 -34.5t39.5 -37.5q18 -16 24.5 -36.5t6.5 -38.5q-2 -23 -18.5 -49.5t-45.5 -53.5q-18 -14 -41.5 -22t-47 -12.5t-42 -4.5h-24.5q-10 2 -16.5 1t-22.5 -5q-25 -6 -53 17q-18 23 -19 37z" />
<glyph unicode="&#xb9;" horiz-adv-x="585" d="M334 792.5q-2 10.5 20 20.5q20 10 55 25.5t73 33t76 36t65 34.5q16 10 27.5 17.5t23.5 7.5h2q25 0 43 -23q20 -27 -2 -67q-16 -29 -30.5 -54.5t-28 -54.5t-28 -63.5t-28.5 -79.5q-16 -47 -17 -68.5t5 -46.5q10 -39 -25 -64q-43 -31 -76 -30q-35 0 -26 65q4 20 18.5 67.5 t32.5 98.5t36.5 98.5t29.5 69.5q12 25 -17 12q-43 -18 -65.5 -27t-55.5 -20q-23 -4 -47 -5t-41 3q-18 4 -20 14.5z" />
<glyph unicode="&#xba;" horiz-adv-x="524" d="M229 539q0 27 19.5 91t60.5 136q18 35 50 70.5t69 64.5t74 47.5t65 18.5h2q31 0 52 -21q14 -16 8 -37q-4 -6 0 -12t8 -10q23 -16 40 -43t17 -66q0 -72 -39 -144.5t-92 -125.5q-61 -53 -109 -74.5t-89 -21.5q-53 0 -94.5 37.5t-41.5 89.5zM336 547q0 -33 10 -43t25 -10 q14 0 28.5 3t34.5 17q47 33 84 76t60 102q10 20 12 39t2 37q0 37 -19.5 59.5t-44.5 22.5h-2q-29 0 -56.5 -22.5t-68.5 -84.5q-20 -31 -42.5 -88t-22.5 -108z" />
<glyph unicode="&#xbb;" horiz-adv-x="827" d="M164 125q0 18 19.5 37.5t39.5 38.5q12 8 38 29.5t53.5 44t50 41t26.5 22.5q12 10 8 20.5t-14 18.5q-4 6 -22.5 28.5t-40 49t-42 50t-28.5 30.5q-14 12 -13 28.5t17 30.5q16 12 22.5 16t16.5 4q14 0 29 -16q12 -14 39.5 -55t62.5 -78q25 -29 48.5 -46.5t41.5 -33.5 q16 -10 21.5 -21.5t5.5 -21.5v-2q0 -16 -20.5 -28.5t-49.5 -24.5t-51.5 -24.5t-56.5 -35.5q-35 -25 -45.5 -38t-14.5 -29t-14 -27.5t-29 -28.5q-16 -12 -26.5 -17t-24.5 -5t-30.5 13.5t-16.5 29.5zM414 86q2 18 19.5 35.5t37.5 30.5q37 27 64.5 47t52 40.5t47 42t51.5 48.5 q8 12 12 21t-6 20q-4 6 -17 23.5t-30.5 40t-36 47t-33.5 42.5q-23 29 -27.5 44.5t-4.5 23.5q0 16 19.5 27.5t35.5 11.5q23 0 36 -16.5t28 -43.5q29 -53 48 -82.5t44 -52.5q35 -39 55 -41q14 -2 22.5 -17.5t8.5 -27.5v-2q0 -27 -31 -41q-43 -25 -67.5 -41t-45 -32.5t-44 -38 t-64.5 -54.5q-8 -10 -14.5 -16t-10.5 -14q-8 -14 -26 -31q-12 -8 -26.5 -16.5t-31.5 -18.5q-16 -10 -27.5 -7t-21.5 9q-23 18 -16 39z" />
<glyph unicode="&#xbc;" horiz-adv-x="1468" d="M326 792.5q-2 10.5 20 20.5q20 10 55 25.5t73 33t76 36t64 34.5q16 10 27.5 17.5t26.5 7.5h2q23 0 41 -23q20 -27 -2 -67q-16 -29 -29.5 -54.5t-28 -54.5t-28 -63.5t-27.5 -79.5q-16 -47 -18.5 -68.5t4.5 -46.5q10 -39 -25 -64q-43 -31 -76 -30q-35 0 -26 65 q4 20 18 67.5t32.5 98.5t37 98.5t28.5 69.5q12 25 -16 12q-43 -18 -65.5 -27t-55.5 -20q-23 -4 -47.5 -5t-40.5 3q-18 4 -20 14.5zM381 30.5q4 16.5 20 35.5q6 6 39 40.5t82 86t109.5 116t122 129t119 125t100.5 105.5q66 74 108.5 120t69.5 74.5t41 43t27 24.5q14 10 23 15 t22 5h2q16 0 32.5 -23.5t16.5 -45.5q0 -25 -21 -33q-10 -4 -27.5 -15.5t-47.5 -35.5q-14 -12 -70.5 -68.5t-136.5 -137.5t-176.5 -178.5t-190.5 -191.5q-16 -16 -26.5 -28.5t-15.5 -23.5t-8 -20.5t-5 -21.5q-2 -10 -13.5 -27.5t-25.5 -37t-30.5 -38t-28.5 -30.5 q-20 -20 -35 -27.5t-29 -7.5q-12 0 -20.5 6t-20.5 29q-10 20 -6 36.5zM891 209q-10 31 51 63q33 18 73 41t74.5 45.5t62.5 39t38 22.5q29 18 42 27.5t17 31.5q6 39 39 25q25 -27 60 -2q23 10 34 -13q16 -37 -12 -59q-16 -12 -24.5 -20.5t-13.5 -17.5t-9 -22.5t-12 -35.5 q-6 -20 -13.5 -46t-17.5 -65q-4 -16 0 -21t20 -5q39 0 65 4t36 16q14 23 47 -10q33 -27 16 -53q-12 -18 -56 -25.5t-136 -7.5q-23 0 -29 -21q-2 -6 -5 -17t-7 -22q-4 -16 3 -26t17 -23q8 -10 3 -22.5t-23 -34.5q-49 -57 -86 -57h-2q-16 0 -22.5 24.5t-0.5 59.5 q10 37 16.5 63.5t12.5 48.5q10 27 -10 27q-18 0 -44 2t-50.5 5t-46 5t-29.5 4q-37 6 -53.5 26.5t-24.5 45.5zM1012.5 225.5q-0.5 -10.5 19.5 -16.5q16 -4 50 -8t63 -4h2q16 0 24.5 5t14.5 23q14 45 23.5 68.5t13.5 46.5q6 23 -3.5 18.5t-31.5 -14.5q-16 -8 -28.5 -15 t-29 -16.5t-37 -23t-51.5 -33.5q-29 -20 -29.5 -30.5z" />
<glyph unicode="&#xbd;" horiz-adv-x="1468" d="M289 12q0 20 12 40t27 38q20 23 67 67t92 85q12 12 47 41.5t82.5 72.5t105.5 96.5t120 112.5q61 57 122.5 120t112.5 116t86 90t43 47q16 18 26.5 25.5t24.5 7.5h3q4 0 15 -4t22.5 -10.5t19.5 -15.5t8 -17q0 -16 -25 -43q-6 -6 -36.5 -35t-75.5 -72t-100.5 -95 t-111.5 -104.5t-109.5 -100.5t-92.5 -81q-119 -104 -178 -158.5t-80 -76.5q-33 -39 -39 -68q-4 -16 -6 -28.5t-6 -24.5t-16.5 -19.5t-24.5 -7.5q-10 0 -28.5 -18.5t-30.5 -28.5q-23 -12 -48 4q-10 10 -18 20.5t-10 24.5zM311.5 792.5q-2.5 10.5 20.5 20.5q20 8 55 23.5 t73 33t75.5 37t64.5 35.5q16 10 27.5 17.5t23.5 7.5h2q25 0 43 -23q20 -27 -2 -67q-16 -29 -30.5 -54.5t-27.5 -54.5t-26.5 -63.5t-27.5 -79.5q-16 -47 -18.5 -68.5t3.5 -46.5q10 -39 -24 -64q-43 -31 -76 -30q-35 0 -27 65q4 20 18.5 66.5t33 98.5t37 99.5t28.5 69.5 q12 25 -16 12q-43 -18 -65.5 -27t-55.5 -20q-23 -4 -47.5 -5t-40.5 3q-18 4 -20.5 14.5zM862 6q-4 8 1 19.5t26 29.5q12 12 27.5 21.5t31.5 21.5q10 4 34 21.5t51.5 41t56 49.5t49.5 48q41 43 58 73.5t17 47.5q0 23 -14 39t-37 16t-49.5 -16.5t-64.5 -63.5q-31 -33 -48 -32 q-25 0 -32 28q-4 10 -1 26.5t13 31.5q16 23 28.5 33t24.5 16q31 16 57.5 31.5t43.5 25.5q27 16 65 16q23 0 45.5 -12t41 -32.5t30.5 -45t12 -49.5q0 -35 -23.5 -71.5t-57.5 -71.5t-70.5 -66.5t-63.5 -54.5q-16 -16 -20 -26.5t6 -14.5q27 -10 106 -10h84q43 0 60.5 -11.5 t15.5 -27.5q0 -10 -10 -20.5t-23.5 -19.5t-27 -17.5t-21.5 -10.5q-12 -4 -24.5 -3t-20.5 9q-6 6 -15.5 9.5t-31.5 5.5q-47 4 -113.5 7t-179.5 -7q-31 0 -37 16z" />
<glyph unicode="&#xbe;" horiz-adv-x="1468" d="M225 506q2 10 7.5 20.5t15.5 20.5q25 20 51 -8q18 -16 58 -31.5t81 -15.5q53 0 87 25.5t34 53.5q0 29 -32.5 55.5t-80.5 28.5q-14 2 -27 5.5t-30 15.5q-16 12 -11 24.5t23 22.5q18 12 37 20.5t47 20.5q45 18 70 35.5t25 40.5q0 14 -15.5 27.5t-44.5 13.5 q-12 0 -27.5 -6.5t-23.5 -12.5q-16 -12 -29.5 -18t-33.5 -6t-36 16t-16 31q0 12 16.5 30.5t39.5 30.5q25 18 51 2q16 -12 51 -4q16 4 29.5 6t36.5 2h2q31 0 53 -10t35.5 -25.5t20.5 -33t7 -29.5q0 -41 -36.5 -68.5t-81.5 -50.5q-25 -14 -11 -22q100 -57 101 -131 q0 -43 -27 -76t-65.5 -56.5t-85 -35t-84.5 -11.5q-41 0 -84 14.5t-66 31.5q-16 16 -23.5 27t-7.5 30zM401 -18q0 18 19.5 54t48.5 68q14 18 27.5 36t29 37.5t35 45t47.5 60.5q55 68 195.5 212t384.5 390q39 41 69.5 59.5t49.5 18.5h2q14 0 22 -16.5t19 -28.5q10 -14 13 -32 t-7 -36q-10 -16 -27.5 -23.5t-32.5 -3.5q-14 8 -29.5 0t-37.5 -24q-14 -10 -33.5 -28.5t-52.5 -49.5t-79 -77l-114 -114q-131 -135 -200.5 -207.5t-102.5 -109.5q-25 -27 -27 -47.5t7 -30.5q12 -14 7 -27.5t-16 -21.5q-16 -14 -39.5 -34.5t-52.5 -45.5q-41 -35 -65.5 -48 t-36.5 -13q-23 0 -23 37zM883 209q-8 31 53 63q33 18 72 41t74.5 45.5t62 39t37.5 22.5q29 18 43 27.5t18 31.5q4 18 15.5 24.5t23.5 0.5q27 -29 59 -2q23 10 35 -13q20 -37 -12 -57q-16 -12 -24.5 -21.5t-14.5 -18.5t-10 -22.5t-10 -35.5q-4 -20 -12.5 -46t-18.5 -65 q-4 -16 0 -21t20 -5q35 0 63.5 4t37.5 16q6 10 16 9t33 -19q33 -27 10 -55q-12 -18 -53 -24.5t-137 -6.5q-23 0 -29 -21q-2 -6 -5 -17t-5 -22q-4 -16 2 -26t16 -23q8 -10 3 -22.5t-23 -34.5q-49 -57 -84 -57h-2q-16 0 -23.5 23.5t0.5 60.5t15.5 63.5t13.5 48.5q8 27 -13 27 q-18 0 -43.5 2t-50 5t-45 5t-28.5 4q-37 6 -54.5 26.5t-25.5 45.5zM1006.5 225.5q-0.5 -10.5 19.5 -16.5q16 -4 49 -8t64 -4h2q16 0 24.5 5t12.5 23q16 45 24 68.5t15 46.5q6 23 -3.5 19.5t-27.5 -13.5q-16 -8 -30.5 -16t-31 -17.5t-37 -24t-51.5 -34.5q-29 -18 -29.5 -28.5 z" />
<glyph unicode="&#xbf;" horiz-adv-x="507" d="M-6 -127q0 41 36 82t79 72q18 12 52 32.5t68.5 42t65.5 40t43 24.5q55 33 55 67q2 20 -6 38t-19.5 30t-24.5 18.5t-21 6.5t-15.5 -5.5t-23.5 -15.5q-16 -12 -37 -24.5t-43 -12.5q-20 0 -38 14.5t-18 30.5q0 12 13.5 26.5t32 27t39 20.5t32.5 12q18 4 34.5 5.5t37.5 -3.5 q35 -4 74 -20t67 -53q25 -33 32 -53.5t7 -38.5q0 -29 -31.5 -71t-72.5 -71q-18 -12 -49 -30.5t-65 -37t-66.5 -37t-55.5 -30.5q-37 -20 -52 -38.5t-15 -39.5q0 -25 22.5 -38t40.5 -13q16 0 39 23q10 10 19.5 17t27.5 7q12 0 32.5 -3t40 -10t33 -17.5t13.5 -24.5 q0 -20 -26.5 -36.5t-51.5 -23.5q-20 -6 -57 -13t-60 -7h-2q-27 0 -59.5 9t-60 25.5t-47 41t-19.5 55.5zM336 623q0 18 9 34.5t22.5 29.5t29 21.5t29.5 8.5h2q23 0 50.5 -26.5t27.5 -78.5q0 -35 -26.5 -62.5t-55.5 -27.5q-33 0 -60.5 30t-27.5 71z" />
<glyph unicode="&#xc0;" horiz-adv-x="991" d="M72 16q0 18 16 53t64 95q45 59 77.5 99t69.5 87q8 10 9 17.5t1 13.5t2 14t13 25q14 16 24 24.5t27 12.5q16 4 25.5 12t21.5 25q59 76 112.5 142t95.5 120.5t72.5 93.5t45.5 57q35 43 53 53.5t30 10.5h3q10 0 22 -13.5t21 -27.5q4 -12 3 -23.5t-14 -23.5 q-23 -18 -33 -29.5t-12 -28.5q-2 -25 1 -111.5t12 -203.5q2 -12 4 -18.5t12 -6.5q35 0 83 -3t91 -7q35 -4 30 -17.5t-38 -23.5q-37 -12 -81 -18t-77 -10q-12 0 -15 -4.5t-1 -16.5q10 -90 16 -140t14 -79t21.5 -33t42.5 2q18 4 23.5 -7t3.5 -24q-4 -51 -37 -80.5t-74 -29.5 q-25 0 -46.5 20.5t-33.5 79.5q-6 43 -17.5 124t-15.5 167q-2 10 -6 11t-18 1q-66 -2 -120 -7t-108 -15q-35 -6 -57 -16.5t-39 -28.5q-6 -6 -26.5 -30t-44 -56.5t-44 -68.5t-24.5 -69v-22t2 -25q2 -10 -2 -23t-21 -26q-20 -16 -55 -33.5t-59 -17.5q-18 0 -32.5 17.5 t-12.5 39.5zM543 500q-18 -29 16 -23q31 4 73 5t77 1h2q16 0 18 4.5t2 14.5q-2 49 -5 91t-5 95q-2 20 -8 21.5t-23 -19.5q-16 -16 -35.5 -40.5t-40 -51.5t-39 -53.5t-32.5 -44.5zM672 1235q14 31 51 31h2q12 0 26.5 -8.5t26.5 -26.5q10 -16 35 -53t43 -62q20 -29 33.5 -48 t17.5 -32q6 -16 -9 -21t-32 5q-43 27 -98 67.5t-86 77.5q-29 31 -10 70z" />
<glyph unicode="&#xc1;" horiz-adv-x="991" d="M72 16q0 18 16 53t64 95q45 59 77.5 99t69.5 87q8 10 9 17.5t1 13.5t2 14t13 25q14 16 24 24.5t27 12.5q16 4 25.5 12t21.5 25q59 76 112.5 142t95.5 120.5t72.5 93.5t45.5 57q35 43 53 53.5t30 10.5h3q10 0 22 -13.5t21 -27.5q4 -12 3 -23.5t-14 -23.5 q-23 -18 -33 -29.5t-12 -28.5q-2 -25 1 -111.5t12 -203.5q2 -12 4 -18.5t12 -6.5q35 0 83 -3t91 -7q35 -4 30 -17.5t-38 -23.5q-37 -12 -81 -18t-77 -10q-12 0 -15 -4.5t-1 -16.5q10 -90 16 -140t14 -79t21.5 -33t42.5 2q18 4 23.5 -7t3.5 -24q-4 -51 -37 -80.5t-74 -29.5 q-25 0 -46.5 20.5t-33.5 79.5q-6 43 -17.5 124t-15.5 167q-2 10 -6 11t-18 1q-66 -2 -120 -7t-108 -15q-35 -6 -57 -16.5t-39 -28.5q-6 -6 -26.5 -30t-44 -56.5t-44 -68.5t-24.5 -69v-22t2 -25q2 -10 -2 -23t-21 -26q-20 -16 -55 -33.5t-59 -17.5q-18 0 -32.5 17.5 t-12.5 39.5zM543 500q-18 -29 16 -23q31 4 73 5t77 1h2q16 0 18 4.5t2 14.5q-2 49 -5 91t-5 95q-2 20 -8 21.5t-23 -19.5q-16 -16 -35.5 -40.5t-40 -51.5t-39 -53.5t-32.5 -44.5zM750 1024v2q0 10 4 19.5t20 21.5l73 73t79 87q31 39 59 39q33 0 57 -29q16 -20 10.5 -37.5 t-24.5 -36.5q-84 -72 -149.5 -105.5t-85.5 -39.5q-12 -4 -27.5 -4t-15.5 10z" />
<glyph unicode="&#xc2;" horiz-adv-x="991" d="M72 16q0 18 16 53t64 95q45 59 77.5 99t69.5 87q8 10 9 17.5t1 13.5t2 14t13 25q14 16 24 24.5t27 12.5q16 4 25.5 12t21.5 25q59 76 112.5 142t95.5 120.5t72.5 93.5t45.5 57q35 43 53 53.5t30 10.5h3q10 0 22 -13.5t21 -27.5q4 -12 3 -23.5t-14 -23.5 q-23 -18 -33 -29.5t-12 -28.5q-2 -25 1 -111.5t12 -203.5q2 -12 4 -18.5t12 -6.5q35 0 83 -3t91 -7q35 -4 30 -17.5t-38 -23.5q-37 -12 -81 -18t-77 -10q-12 0 -15 -4.5t-1 -16.5q10 -90 16 -140t14 -79t21.5 -33t42.5 2q18 4 23.5 -7t3.5 -24q-4 -51 -37 -80.5t-74 -29.5 q-25 0 -46.5 20.5t-33.5 79.5q-6 43 -17.5 124t-15.5 167q-2 10 -6 11t-18 1q-66 -2 -120 -7t-108 -15q-35 -6 -57 -16.5t-39 -28.5q-6 -6 -26.5 -30t-44 -56.5t-44 -68.5t-24.5 -69v-22t2 -25q2 -10 -2 -23t-21 -26q-20 -16 -55 -33.5t-59 -17.5q-18 0 -32.5 17.5 t-12.5 39.5zM543 500q-18 -29 16 -23q31 4 73 5t77 1h2q16 0 18 4.5t2 14.5q-2 49 -5 91t-5 95q-2 20 -8 21.5t-23 -19.5q-16 -16 -35.5 -40.5t-40 -51.5t-39 -53.5t-32.5 -44.5zM617.5 1030q0.5 12 17.5 25q47 33 105.5 79t97.5 93q23 25 55 24h2q12 0 19.5 -11t11.5 -23 q10 -33 34.5 -80t51.5 -76q18 -23 -11 -45q-6 -6 -17 -8t-21 -2q-29 0 -52.5 36.5t-42.5 73.5q-4 8 -10 8t-16 -10q-29 -31 -55.5 -52.5t-45.5 -35.5q-20 -14 -41.5 -22.5t-44.5 -8.5q-12 0 -30 15q-8 8 -7.5 20z" />
<glyph unicode="&#xc3;" horiz-adv-x="991" d="M72 16q0 18 16 53t64 95q45 59 77.5 99t69.5 87q8 10 9 17.5t1 13.5t2 14t13 25q14 16 24 24.5t27 12.5q16 4 25.5 12t21.5 25q59 76 112.5 142t95.5 120.5t72.5 93.5t45.5 57q35 43 53 53.5t30 10.5h3q10 0 22 -13.5t21 -27.5q4 -12 3 -23.5t-14 -23.5 q-23 -18 -33 -29.5t-12 -28.5q-2 -25 1 -111.5t12 -203.5q2 -12 4 -18.5t12 -6.5q35 0 83 -3t91 -7q35 -4 30 -17.5t-38 -23.5q-37 -12 -81 -18t-77 -10q-12 0 -15 -4.5t-1 -16.5q10 -90 16 -140t14 -79t21.5 -33t42.5 2q18 4 23.5 -7t3.5 -24q-4 -51 -37 -80.5t-74 -29.5 q-25 0 -46.5 20.5t-33.5 79.5q-6 43 -17.5 124t-15.5 167q-2 10 -6 11t-18 1q-66 -2 -120 -7t-108 -15q-35 -6 -57 -16.5t-39 -28.5q-6 -6 -26.5 -30t-44 -56.5t-44 -68.5t-24.5 -69v-22t2 -25q2 -10 -2 -23t-21 -26q-20 -16 -55 -33.5t-59 -17.5q-18 0 -32.5 17.5 t-12.5 39.5zM543 500q-18 -29 16 -23q31 4 73 5t77 1h2q16 0 18 4.5t2 14.5q-2 49 -5 91t-5 95q-2 20 -8 21.5t-23 -19.5q-16 -16 -35.5 -40.5t-40 -51.5t-39 -53.5t-32.5 -44.5zM631 1085q2 18 14 44t31.5 47.5t42 37t47.5 15.5h2q23 0 44.5 -18.5t41.5 -41.5t37.5 -39 t32.5 -16q20 0 32.5 31t16.5 51q4 10 12 19.5t23 9.5q27 0 33 -22.5t1 -45.5q-2 -23 -13 -47.5t-28.5 -43.5t-39 -32.5t-43.5 -15.5q-31 -2 -54.5 16.5t-52.5 50.5q-41 43 -57 43q-23 -2 -36 -33.5t-18 -52.5q-4 -23 -28 -22q-16 0 -30.5 14.5t-10.5 50.5z" />
<glyph unicode="&#xc4;" horiz-adv-x="991" d="M72 16q0 18 16 53t64 95q45 59 77.5 99t69.5 87q8 10 9 17.5t1 13.5t2 14t13 25q14 16 24 24.5t27 12.5q16 4 25.5 12t21.5 25q59 76 112.5 142t95.5 120.5t72.5 93.5t45.5 57q35 43 53 53.5t30 10.5h3q10 0 22 -13.5t21 -27.5q4 -12 3 -23.5t-14 -23.5 q-23 -18 -33 -29.5t-12 -28.5q-2 -25 1 -111.5t12 -203.5q2 -12 4 -18.5t12 -6.5q35 0 83 -3t91 -7q35 -4 30 -17.5t-38 -23.5q-37 -12 -81 -18t-77 -10q-12 0 -15 -4.5t-1 -16.5q10 -90 16 -140t14 -79t21.5 -33t42.5 2q18 4 23.5 -7t3.5 -24q-4 -51 -37 -80.5t-74 -29.5 q-25 0 -46.5 20.5t-33.5 79.5q-6 43 -17.5 124t-15.5 167q-2 10 -6 11t-18 1q-66 -2 -120 -7t-108 -15q-35 -6 -57 -16.5t-39 -28.5q-6 -6 -26.5 -30t-44 -56.5t-44 -68.5t-24.5 -69v-22t2 -25q2 -10 -2 -23t-21 -26q-20 -16 -55 -33.5t-59 -17.5q-18 0 -32.5 17.5 t-12.5 39.5zM543 500q-18 -29 16 -23q31 4 73 5t77 1h2q16 0 18 4.5t2 14.5q-2 49 -5 91t-5 95q-2 20 -8 21.5t-23 -19.5q-16 -16 -35.5 -40.5t-40 -51.5t-39 -53.5t-32.5 -44.5zM639 1098q0 37 24.5 55t59.5 18h2q45 0 56.5 -26.5t11.5 -42.5q0 -29 -29 -57.5t-55 -28.5 q-25 0 -47.5 25.5t-22.5 56.5zM879 1079q0 29 23.5 59.5t64.5 30.5h2q25 0 48 -24.5t23 -48.5q0 -35 -33.5 -57.5t-68.5 -22.5q-16 0 -37.5 17.5t-21.5 45.5z" />
<glyph unicode="&#xc5;" horiz-adv-x="991" d="M72 16q0 18 16 53t64 95q45 59 77.5 99t69.5 87q8 10 9 17.5t1 13.5t2 14t13 25q14 16 24 24.5t27 12.5q16 4 25.5 12t21.5 25q59 76 112.5 142t95.5 120.5t72.5 93.5t45.5 57q35 43 53 53.5t30 10.5h3q10 0 22 -13.5t21 -27.5q4 -12 4 -23.5t-15 -23.5 q-23 -18 -33 -29.5t-12 -28.5q-2 -25 1 -111.5t12 -203.5q2 -12 4 -18.5t12 -6.5q37 0 84 -3t90 -7q33 -4 28 -17.5t-36 -23.5q-39 -12 -82 -18t-76 -10q-12 0 -15 -4.5t-1 -16.5q10 -90 16 -140t14 -79t21.5 -33t42.5 2q18 4 22.5 -7t4.5 -24q-6 -51 -38 -80.5t-73 -29.5 q-25 0 -46.5 20.5t-33.5 79.5q-6 43 -17.5 124t-15.5 167q-2 10 -6 11t-18 1q-66 -2 -120 -7t-108 -15q-35 -6 -57 -16.5t-39 -28.5q-6 -6 -26.5 -30t-44 -56.5t-44 -68.5t-24.5 -69v-22t2 -25q2 -10 -2 -23t-21 -26q-20 -16 -55 -33.5t-59 -17.5q-18 0 -32.5 17.5 t-12.5 39.5zM543 500q-18 -29 16 -23q31 4 73 5t77 1h2q16 0 18 4.5t2 14.5q-2 49 -5 91t-5 95q-2 20 -8 21.5t-23 -19.5q-16 -16 -35.5 -40.5t-40 -51.5t-39 -53.5t-32.5 -44.5zM690 1153q0 31 15.5 60.5t40 54t54 40t60.5 15.5h2q70 0 110 -37t40 -106q0 -31 -19.5 -62 t-49.5 -54.5t-63.5 -37.5t-62.5 -14q-25 0 -48.5 13t-40.5 33.5t-27.5 45t-10.5 49.5zM770 1167q0 -27 16.5 -52t51.5 -25q41 0 69.5 27.5t28.5 56.5q0 35 -24.5 53t-59.5 18h-2q-20 0 -50 -19.5t-30 -58.5z" />
<glyph unicode="&#xc6;" horiz-adv-x="1327" d="M76 30.5q0 18.5 8 35.5q12 25 35.5 49t48.5 49q12 10 29.5 26.5t46.5 51.5q63 72 153 166t185.5 191t184.5 186l151 151q45 45 61 55t27 10q20 0 36 -28q12 -25 9 -51q0 -10 20 -13q29 -4 112 -4h212q25 0 33 -9t8 -19q0 -18 -27 -44t-43 -34q-31 -14 -55 2 q-4 4 -19.5 11t-40.5 9q-27 0 -81 1t-117 -5q-16 -2 -20.5 -6t-8.5 -16q-29 -80 -47.5 -143.5t-38.5 -127.5q-6 -23 16 -22h308q117 0 110 -25q0 -4 -13 -10t-30.5 -12t-37 -11.5t-31.5 -7.5q-86 -10 -160 -15t-166 -11q-16 0 -22.5 -5.5t-10.5 -21.5q-23 -74 -36 -119 t-23 -92q-10 -43 3 -61.5t42 -24.5q39 -10 83 -13t93 -3q94 0 159.5 8t94.5 20q29 10 40 13.5t11 -7.5q0 -20 -29 -38q-49 -35 -112.5 -52.5t-118.5 -25.5q-27 -4 -59.5 -5t-83.5 -1q-111 0 -176.5 13t-73.5 19q-10 10 -17.5 33t-1.5 47q6 27 17.5 64t25 75.5t25.5 77.5 t22 70q4 14 0 17t-14 1q-23 -4 -62.5 -7t-78.5 -3q-41 0 -82 23q-10 4 -19.5 -1t-29.5 -26q-35 -33 -88.5 -86t-102.5 -100q-25 -27 -32 -43.5t-3 -28.5t4.5 -26.5t-4.5 -28.5q-6 -18 -24.5 -35t-42 -30t-46 -21.5t-36.5 -8.5q-12 0 -25.5 5.5t-19.5 17.5q-4 12 -4 30.5z M633 500q12 -6 29.5 -8.5t33.5 -2.5h2q16 0 51 1.5t56 5.5q20 6 29 34q2 10 11 37t19 58.5t20.5 63.5t16.5 50q16 51 4 58q-10 6 -49 -31q-27 -25 -60.5 -60.5t-65.5 -69.5t-58.5 -62.5t-36.5 -41.5q-18 -25 -2 -32z" />
<glyph unicode="&#xc7;" horiz-adv-x="808" d="M174 229v2q0 90 35 192.5t96.5 198t146.5 176.5t185 128q47 23 84 31t70 8q41 0 74.5 -20.5t33.5 -67.5q0 -23 -10 -40.5t-24.5 -29.5t-29 -19.5t-22.5 -7.5q-18 -4 -20 4.5t0 16.5q6 10 8 15t2 15t-10.5 19.5t-32.5 9.5q-33 0 -71 -15.5t-76 -41t-72.5 -58t-63.5 -69.5 q-72 -96 -127 -213t-55 -236q0 -74 33.5 -109.5t93.5 -35.5q74 0 151.5 30.5t148.5 73.5t129 89.5t93 78.5q23 18 31 8t-2 -26q-18 -29 -49 -62.5t-71 -68.5t-88 -70t-99 -65q-98 -57 -185 -78q-20 -25 -39.5 -54.5t-19.5 -46.5q0 -16 19.5 -33.5t39.5 -39.5 q18 -18 24.5 -37t6.5 -37q0 -25 -17.5 -52.5t-45.5 -53.5q-18 -14 -42 -21.5t-47.5 -11.5t-42 -5t-24.5 -1q-10 4 -17.5 3t-21.5 -5q-23 -8 -55 16q-18 23 -19 37q0 12 9.5 25.5t23.5 23.5t28.5 17.5t24.5 7.5q14 0 26.5 -12.5t18.5 -22.5q4 -10 13.5 -12.5t21.5 -2.5 q14 0 40 11.5t28 29.5q0 10 -9.5 26.5t-37.5 41.5q-23 18 -34 31.5t-11 33.5q0 29 24.5 68t46.5 61q-59 -6 -100 12.5t-67.5 54.5t-39 84t-12.5 101z" />
<glyph unicode="&#xc8;" horiz-adv-x="843" d="M121 37q0 16 26.5 38.5t38.5 26.5q4 2 9.5 6.5t11.5 18.5q18 41 41.5 111.5t52.5 162.5q8 27 -10 37q-23 16 -27 39q-4 18 23 27q37 16 47 24.5t16 26.5q2 8 7 21.5t11.5 36t16.5 56t25 85.5q6 23 3 31t-16 18q-29 23 -35 34t5 21q18 14 57 27q16 8 24.5 21.5t20.5 47.5 q10 33 33 29q12 -2 24.5 -14.5t22.5 -32.5q8 -10 15 -13t28 -3h192q53 0 96.5 -10.5t67.5 -32.5q31 -29 15 -41q-10 -10 -50 -2q-25 4 -61.5 4h-87.5q-45 0 -89 -4.5t-87 -8.5q-29 -4 -38 -14t-20 -41q-6 -16 -15 -48t-19.5 -65.5t-18.5 -63.5t-12 -42q-8 -25 12 -27 q33 -4 73 -7t105 -1q45 0 91.5 5t84.5 14q23 6 18 -9.5t-26 -31.5q-25 -23 -53.5 -34t-62.5 -18q-76 -14 -256 -18q-16 0 -21.5 -5t-9.5 -20q-27 -70 -52.5 -139.5t-48.5 -132.5q-4 -14 -0.5 -20.5t19.5 -10.5q27 -4 80 -7t129 -3q61 0 105 3t81 9t71 16.5t73 24.5 q23 10 26.5 -1t-18.5 -27q-49 -35 -97.5 -57.5t-101.5 -36t-117.5 -20.5t-146.5 -7q-90 0 -176 6q-51 2 -88 12t-37 29zM541 1225q20 33 51 32h2q31 0 53 -34q12 -16 37 -53t41 -62q23 -29 36 -48.5t17 -31.5q6 -16 -9 -21.5t-34 5.5q-43 27 -98 67.5t-86 77.5 q-29 31 -10 68z" />
<glyph unicode="&#xc9;" horiz-adv-x="843" d="M121 37q0 16 26.5 38.5t38.5 26.5q4 2 9.5 6.5t11.5 18.5q18 41 41.5 111.5t52.5 162.5q8 27 -10 37q-23 16 -27 39q-4 18 23 27q37 16 47 24.5t16 26.5q2 8 7 21.5t11.5 36t16.5 56t25 85.5q6 23 3 31t-16 18q-29 23 -35 34t5 21q18 14 57 27q16 8 24.5 21.5t20.5 47.5 q10 33 33 29q12 -2 24.5 -14.5t22.5 -32.5q8 -10 15 -13t28 -3h192q53 0 96.5 -10.5t67.5 -32.5q31 -29 15 -41q-10 -10 -50 -2q-25 4 -61.5 4h-87.5q-45 0 -89 -4.5t-87 -8.5q-29 -4 -38 -14t-20 -41q-6 -16 -15 -48t-19.5 -65.5t-18.5 -63.5t-12 -42q-8 -25 12 -27 q33 -4 73 -7t105 -1q45 0 91.5 5t84.5 14q23 6 18 -9.5t-26 -31.5q-25 -23 -53.5 -34t-62.5 -18q-76 -14 -256 -18q-16 0 -21.5 -5t-9.5 -20q-27 -70 -52.5 -139.5t-48.5 -132.5q-4 -14 -0.5 -20.5t19.5 -10.5q27 -4 80 -7t129 -3q61 0 105 3t81 9t71 16.5t73 24.5 q23 10 26.5 -1t-18.5 -27q-49 -35 -97.5 -57.5t-101.5 -36t-117.5 -20.5t-146.5 -7q-90 0 -176 6q-51 2 -88 12t-37 29zM653 1008v2q0 8 4.5 17t20.5 24q31 29 73 71.5t78 85.5q31 39 60 39q35 0 57 -28q27 -33 -14 -74q-84 -72 -149.5 -104.5t-86.5 -41.5q-12 -4 -27.5 -3 t-15.5 12z" />
<glyph unicode="&#xca;" horiz-adv-x="843" d="M121 37q0 16 26.5 38.5t38.5 26.5q4 2 9.5 6.5t11.5 18.5q18 41 41.5 111.5t52.5 162.5q8 27 -10 37q-23 16 -27 39q-4 18 23 27q37 16 47 24.5t16 26.5q2 8 7 21.5t11.5 36t16.5 56t25 85.5q6 23 3 31t-16 18q-29 23 -35 34t5 21q18 14 57 27q16 8 24.5 21.5t20.5 47.5 q10 33 33 29q12 -2 24.5 -14.5t22.5 -32.5q8 -10 15 -13t28 -3h192q53 0 96.5 -10.5t67.5 -32.5q31 -29 15 -41q-10 -10 -50 -2q-25 4 -61.5 4h-87.5q-45 0 -89 -4.5t-87 -8.5q-29 -4 -38 -14t-20 -41q-6 -16 -15 -48t-19.5 -65.5t-18.5 -63.5t-12 -42q-8 -25 12 -27 q33 -4 73 -7t105 -1q45 0 91.5 5t84.5 14q23 6 18 -9.5t-26 -31.5q-25 -23 -53.5 -34t-62.5 -18q-76 -14 -256 -18q-16 0 -21.5 -5t-9.5 -20q-27 -70 -52.5 -139.5t-48.5 -132.5q-4 -14 -0.5 -20.5t19.5 -10.5q27 -4 80 -7t129 -3q61 0 105 3t81 9t71 16.5t73 24.5 q23 10 26.5 -1t-18.5 -27q-49 -35 -97.5 -57.5t-101.5 -36t-117.5 -20.5t-146.5 -7q-90 0 -176 6q-51 2 -88 12t-37 29zM532.5 1058.5q-0.5 12.5 18.5 24.5q47 33 104.5 79t98.5 93q18 25 55 25h2q12 0 19.5 -11.5t11.5 -23.5q8 -33 33.5 -80t50.5 -75q10 -10 6 -22.5 t-14 -23.5q-12 -10 -39 -10q-31 0 -53.5 37t-41.5 74q-10 16 -26 -2q-29 -31 -56.5 -52.5t-46.5 -35.5q-20 -14 -41.5 -22.5t-44.5 -8.5q-14 0 -28 14q-8 8 -8.5 20.5z" />
<glyph unicode="&#xcb;" horiz-adv-x="843" d="M121 37q0 16 26.5 38.5t38.5 26.5q4 2 9.5 6.5t11.5 18.5q18 41 41.5 111.5t52.5 162.5q8 27 -10 37q-23 16 -27 39q-4 18 23 27q37 16 47 24.5t16 26.5q2 8 7 21.5t11.5 36t16.5 56t25 85.5q6 23 3 31t-16 18q-29 23 -35 34t5 21q18 14 57 27q16 8 24.5 21.5t20.5 47.5 q10 33 33 27q25 -2 47 -45q8 -10 15 -13t28 -3h190q53 0 96.5 -10.5t67.5 -32.5q31 -29 15 -41q-10 -10 -50 -2q-23 4 -60.5 4h-86.5q-47 0 -90 -4.5t-86 -8.5q-29 -4 -38 -14t-20 -41q-6 -16 -15 -48t-19.5 -65.5t-18.5 -63.5t-12 -42q-8 -25 12 -27q33 -4 73 -7t105 -1 q43 0 90.5 5t83.5 14q23 6 19 -9.5t-25 -31.5q-27 -23 -55.5 -34t-62.5 -18q-39 -8 -103.5 -12t-150.5 -6q-16 0 -21.5 -5t-9.5 -20q-27 -70 -52.5 -139.5t-48.5 -132.5q-4 -14 -0.5 -20.5t19.5 -10.5q27 -4 80 -7t129 -3q61 0 105 3t81 9t71 16.5t70 24.5q25 10 28 -1 t-19 -27q-49 -35 -96.5 -57.5t-100.5 -36t-117.5 -20.5t-146.5 -7q-90 0 -176 6q-51 2 -88 12t-37 29zM537 1108q0 37 24.5 55.5t59.5 18.5h2q45 0 56 -27t11 -43q0 -29 -28.5 -57.5t-55.5 -28.5q-25 0 -47 25.5t-22 56.5zM774 1090q0 29 23.5 59.5t64.5 30.5h2 q25 0 48.5 -25t23.5 -49q0 -35 -34 -57.5t-68 -22.5q-16 0 -38 17.5t-22 46.5z" />
<glyph unicode="&#xcc;" horiz-adv-x="579" d="M90 42.5q0 16.5 14 27.5q23 23 54.5 31t70.5 8q8 0 11.5 3t7.5 15q25 123 85 289t150 391q10 25 -16 22q-20 0 -45 -2t-41 -6q-31 -6 -41 17q-10 12 -7 28.5t19 28.5t43 16q23 4 60 6.5t55 2.5q14 0 20.5 3t10.5 7q10 20 22 35.5t39 15.5h2q20 0 35.5 -17.5t19.5 -35.5 q2 -16 19 -19q14 -2 31.5 -5t36 -6t34 -7t23.5 -6q16 -4 16 -15q0 -8 -9 -14t-21.5 -10t-24.5 -6t-19 -2h-96q-16 0 -33 -33q-29 -63 -70.5 -159.5t-81.5 -195t-71 -186.5t-39 -135q-4 -14 -2 -20.5t15 -6.5q51 0 93 2t58 2q35 4 60 -4q37 -14 -17 -39q-49 -23 -111.5 -33 t-103.5 -12q-10 0 -22.5 -12t-28.5 -18q-8 -4 -21 -4q-14 0 -30 20q-10 14 -29 14q-16 0 -37.5 -7t-38.5 -11q-10 -4 -18 -1t-19 15q-12 12 -12 28.5zM453 1229q16 33 51 33h2q12 0 26.5 -8.5t26.5 -26.5q10 -16 36 -53t42 -62q20 -29 33.5 -49.5t19.5 -30.5q6 -16 -9 -21 t-34 5q-43 27 -98 67.5t-86 77.5q-29 31 -10 68z" />
<glyph unicode="&#xcd;" horiz-adv-x="579" d="M90 42.5q0 16.5 14 27.5q23 23 54.5 31t70.5 8q8 0 11.5 3t7.5 15q25 123 85 289t150 391q10 25 -16 22q-20 0 -45 -2t-41 -6q-31 -6 -41 17q-10 12 -7 28.5t19 28.5t43 16q23 4 60 6.5t55 2.5q14 0 20.5 3t10.5 7q10 20 22 35.5t39 15.5h2q20 0 35.5 -17.5t19.5 -35.5 q2 -16 19 -19q14 -2 31.5 -5t36 -6t34 -7t23.5 -6q16 -4 16 -15q0 -8 -9 -14t-21.5 -10t-24.5 -6t-19 -2h-96q-16 0 -33 -33q-29 -63 -70.5 -159.5t-81.5 -195t-71 -186.5t-39 -135q-4 -14 -2 -20.5t15 -6.5q51 0 93 2t58 2q35 4 60 -4q37 -14 -17 -39q-49 -23 -111.5 -33 t-103.5 -12q-10 0 -22.5 -12t-28.5 -18q-8 -4 -21 -4q-14 0 -30 20q-10 14 -29 14q-16 0 -37.5 -7t-38.5 -11q-10 -4 -18 -1t-19 15q-12 12 -12 28.5zM553 1032v2q0 16 25 41q31 31 72.5 73t78.5 85q29 41 59 41q33 0 58 -31q16 -18 10 -36.5t-25 -35.5 q-84 -72 -148.5 -105.5t-86.5 -41.5q-12 -4 -27.5 -3t-15.5 11z" />
<glyph unicode="&#xce;" horiz-adv-x="579" d="M90 42.5q0 16.5 14 27.5q23 23 54.5 31t70.5 8q8 0 11.5 3t7.5 15q25 123 85 289t150 391q10 25 -16 22q-20 0 -45 -2t-41 -6q-31 -6 -41 17q-10 12 -7 28.5t19 28.5t43 16q23 4 60 6.5t55 2.5q14 0 20.5 3t10.5 7q10 20 22 35.5t39 15.5h2q20 0 35.5 -17.5t19.5 -35.5 q2 -16 19 -19q14 -2 31.5 -5t36 -6t34 -7t23.5 -6q16 -4 16 -15q0 -8 -9 -14t-21.5 -10t-24.5 -6t-19 -2h-96q-16 0 -33 -33q-29 -63 -70.5 -159.5t-81.5 -195t-71 -186.5t-39 -135q-4 -14 -2 -20.5t15 -6.5q51 0 93 2t58 2q35 4 60 -4q37 -14 -17 -39q-49 -23 -111.5 -33 t-103.5 -12q-10 0 -22.5 -12t-28.5 -18q-8 -4 -21 -4q-14 0 -30 20q-10 14 -29 14q-16 0 -37.5 -7t-38.5 -11q-10 -4 -18 -1t-19 15q-12 12 -12 28.5zM423 1034.5q1 12.5 17 24.5q47 33 104.5 79t98.5 93q23 25 55 24h2q12 0 19.5 -11t11.5 -23q8 -33 34 -80t52 -76 q18 -23 -10 -45q-12 -10 -39 -10q-31 0 -53.5 36.5t-40.5 73.5q-10 16 -27 -2q-29 -31 -55.5 -52.5t-44.5 -35.5q-47 -31 -86 -31q-16 0 -31 15q-8 8 -7 20.5z" />
<glyph unicode="&#xcf;" horiz-adv-x="579" d="M90 42.5q0 16.5 14 27.5q23 23 54.5 31t70.5 8q8 0 11.5 3t7.5 15q25 123 85 289t150 391q10 25 -16 22q-18 0 -44 -2t-42 -6q-31 -6 -41 17q-10 12 -7 28.5t19 28.5q18 14 43 16q23 4 60 6.5t57 2.5q23 0 27 10q10 20 23 35.5t40 15.5h2q20 0 35.5 -17.5t19.5 -35.5 q2 -16 17 -19q29 -4 69.5 -12t57.5 -12q16 -4 16 -15q0 -8 -9 -14t-20.5 -10t-23.5 -6t-18 -2h-97q-12 0 -18 -7.5t-17 -25.5q-29 -63 -70.5 -159.5t-81.5 -195t-71 -186.5t-39 -135q-4 -14 -2 -20.5t15 -6.5q51 0 93 2t58 2q33 2 62 -4q16 -6 13 -16t-32 -23 q-49 -23 -111.5 -33t-103.5 -12q-10 0 -22.5 -12t-28.5 -18q-8 -4 -21 -4q-14 0 -30 20q-10 14 -29 14q-16 0 -37.5 -7t-38.5 -11q-10 -4 -18 -1t-19 15q-12 12 -12 28.5zM455 1108q0 37 24.5 55.5t59.5 18.5h2q45 0 56 -27t11 -43q0 -29 -28.5 -57.5t-55.5 -28.5 q-25 0 -47 25.5t-22 56.5zM694 1090q0 29 23.5 59.5t64.5 30.5h2q25 0 48.5 -25t23.5 -49q0 -35 -34 -57.5t-68 -22.5q-16 0 -38 17.5t-22 46.5z" />
<glyph unicode="&#xd0;" horiz-adv-x="1046" d="M219 498q0 23 19.5 38t42.5 15t50 -6t83 -6q12 0 18 3t10 15q33 94 57.5 164t30.5 92q6 16 3 19.5t-13 3.5q-41 -2 -88 -23.5t-82 -40.5q-12 -10 -25.5 5.5t-13.5 33.5q0 29 27 47.5t55 28.5q51 20 97.5 28.5t64.5 10.5q16 0 25 20q16 29 28.5 45.5t30.5 28.5 q16 10 33 10q18 0 30 -10q18 -16 17.5 -36.5t-12.5 -45.5q-6 -10 -4 -11t12 -1q98 -4 175 -32t129 -71t79.5 -97t27.5 -114v-2q0 -92 -44 -179t-104 -159.5t-125 -125t-105 -76.5q-82 -47 -166 -67.5t-144 -20.5q-25 0 -47 15t-39.5 39.5t-28 52.5t-10.5 52q0 23 10.5 63 t23.5 83t27.5 82t22.5 63q10 27 -6 27h-59.5t-55.5 -10q-18 -6 -40 16q-10 10 -13.5 18.5t-3.5 14.5zM442 162q0 -41 25 -67.5t68 -26.5q33 0 82 21.5t103 59t107.5 90t95.5 113t68.5 128t26.5 136.5v2q0 68 -35 110t-85 66.5t-109.5 34t-108.5 11.5q-16 0 -22.5 -4.5 t-12.5 -18.5q-27 -68 -51.5 -134.5t-40.5 -125.5q-8 -23 14 -22q63 0 120.5 -3.5t82.5 -7.5q37 -6 37 -32q0 -14 -17.5 -25.5t-41 -19t-45 -11.5t-29.5 -4q-20 0 -33 10q-10 6 -20.5 10.5t-34.5 4.5h-54q-10 0 -14 -5.5t-8 -17.5q-10 -29 -21.5 -64.5t-21.5 -72.5t-17.5 -73 t-7.5 -62z" />
<glyph unicode="&#xd1;" horiz-adv-x="1028" d="M141 33q0 16 7.5 38.5t15.5 39.5q35 82 72.5 177t70.5 179t56.5 146.5t29.5 78.5t4 24.5t-12 16.5q-8 6 -14 18.5t0 28.5q10 31 37 49q14 14 12 33q-4 10 4 24.5t18 28.5q10 10 23.5 16.5t21.5 6.5h2q18 0 29.5 -10t22.5 -29q18 -41 0 -70q-10 -16 -14.5 -23t-4.5 -18 q0 -18 23 -61q53 -102 120.5 -226t139.5 -241q18 -33 31 4q27 86 49 152.5t41.5 122t38 102.5t36.5 90q37 98 60.5 144.5t40.5 64.5q27 31 55 31q16 0 28.5 -14.5t19.5 -34t11.5 -39t4.5 -29.5q0 -35 -35 -37q-27 -4 -38 -13t-22 -32q-35 -74 -64.5 -148.5t-54 -142 t-42 -126t-29.5 -99.5q-16 -53 -20.5 -79.5t-4.5 -47.5q0 -23 7.5 -37t17.5 -29q8 -12 5 -26t-13 -27q-10 -10 -22.5 -18t-28.5 -8q-18 0 -35 12t-27 27q-4 6 -10 17t-17.5 30.5t-28 49.5t-42.5 73q-25 41 -60.5 106.5t-70.5 129t-61.5 114.5t-35.5 63q-8 12 -13 11t-13 -17 q-27 -57 -49.5 -111.5t-41 -100.5t-30.5 -82l-18 -54q-8 -29 -10.5 -44t-4.5 -34q-4 -43 -6 -65.5t-7 -39t-14.5 -33t-27.5 -44.5q-12 -18 -26.5 -25.5t-26.5 -7.5q-25 0 -42.5 19.5t-17.5 54.5zM600 1028q2 18 14.5 44t32 47.5t42 36.5t46.5 15h2q25 0 45.5 -17t40.5 -40 q23 -23 40.5 -39t29.5 -16q20 0 33.5 30.5t17.5 51.5q4 10 12.5 19t22.5 9q25 0 32 -22.5t3 -44.5q-6 -47 -43 -91t-82 -48q-31 -2 -54.5 16t-54.5 51q-41 41 -57 41q-23 -2 -36 -32.5t-17 -51.5q-4 -20 -29 -20q-16 -2 -30.5 12t-10.5 49z" />
<glyph unicode="&#xd2;" horiz-adv-x="927" d="M176 244q0 55 19.5 126.5t57.5 147.5t92 150.5t126 136.5q39 33 79 55.5t71.5 35.5t54 18.5t26.5 5.5q14 0 31 20q10 10 28.5 18.5t31.5 8.5h2q59 0 109 -30t85 -77q41 -59 41 -174q0 -82 -25.5 -162t-64.5 -150.5t-87 -131t-93 -101.5q-102 -92 -193.5 -125.5 t-150.5 -33.5q-41 0 -89 18t-89 59q-35 33 -48.5 86.5t-13.5 98.5zM303 231q0 -63 27.5 -111t93.5 -48q37 0 104.5 28.5t133.5 85.5q49 45 98 109.5t88 139.5t63.5 155t24.5 153q0 70 -51 109q-23 16 -33 15t-6 -13q2 -8 1 -20.5t-11 -24.5t-27.5 -21.5t-34.5 -9.5 q-14 0 -21.5 7.5t-9.5 17.5q-4 14 -17 21t-28 7h-2q-31 0 -95 -48t-142 -152q-51 -74 -82 -136.5t-47.5 -112.5t-21.5 -88t-5 -63zM635 1239q18 31 53 31h2q29 0 53 -33q10 -18 36 -55t42 -62q20 -29 33.5 -48t19.5 -32q6 -16 -9 -21t-34 5q-43 27 -99 68t-87 77 q-27 33 -10 70z" />
<glyph unicode="&#xd3;" horiz-adv-x="927" d="M176 244q0 55 19.5 126.5t57.5 147.5t92 150.5t126 136.5q39 33 79 55.5t71.5 35.5t54 18.5t26.5 5.5q14 0 31 20q10 10 28.5 18.5t31.5 8.5h2q59 0 109 -30t85 -77q41 -59 41 -174q0 -82 -25.5 -162t-64.5 -150.5t-87 -131t-93 -101.5q-102 -92 -193.5 -125.5 t-150.5 -33.5q-41 0 -89 18t-89 59q-35 33 -48.5 86.5t-13.5 98.5zM303 231q0 -63 27.5 -111t93.5 -48q37 0 104.5 28.5t133.5 85.5q49 45 98 109.5t88 139.5t63.5 155t24.5 153q0 70 -51 109q-23 16 -33 15t-6 -13q2 -8 1 -20.5t-11 -24.5t-27.5 -21.5t-34.5 -9.5 q-14 0 -21.5 7.5t-9.5 17.5q-4 14 -17 21t-28 7h-2q-31 0 -95 -48t-142 -152q-51 -74 -82 -136.5t-47.5 -112.5t-21.5 -88t-5 -63zM741 1026v2q0 16 25 41q33 29 74 72t78 86q33 39 59 39q35 0 57 -29q27 -33 -14 -74q-84 -72 -148.5 -104.5t-87.5 -40.5q-12 -4 -27.5 -3 t-15.5 11z" />
<glyph unicode="&#xd4;" horiz-adv-x="927" d="M176 244q0 55 19.5 126.5t57.5 147.5t92 150.5t126 136.5q39 33 79 55.5t71.5 35.5t54 18.5t26.5 5.5q14 0 31 20q10 10 28.5 18.5t31.5 8.5h2q59 0 109 -30t85 -77q41 -59 41 -174q0 -82 -25.5 -162t-64.5 -150.5t-87 -131t-93 -101.5q-102 -92 -193.5 -125.5 t-150.5 -33.5q-41 0 -89 18t-89 59q-35 33 -48.5 86.5t-13.5 98.5zM303 231q0 -63 27.5 -111t93.5 -48q37 0 104.5 28.5t133.5 85.5q49 45 98 109.5t88 139.5t63.5 155t24.5 153q0 70 -51 109q-23 16 -33 15t-6 -13q2 -8 1 -20.5t-11 -24.5t-27.5 -21.5t-34.5 -9.5 q-14 0 -21.5 7.5t-9.5 17.5q-4 14 -17 21t-28 7h-2q-31 0 -95 -48t-142 -152q-51 -74 -82 -136.5t-47.5 -112.5t-21.5 -88t-5 -63zM603 1034.5q1 12.5 18 24.5q47 33 105 79t99 93q18 25 56 24h2q10 0 18 -11t12 -23q8 -33 33 -80t51 -76q18 -23 -10 -45q-10 -10 -37 -10 q-31 0 -53.5 36.5t-42.5 73.5q-10 16 -25 -2q-29 -31 -56.5 -52.5t-45.5 -35.5q-20 -14 -41.5 -22.5t-44.5 -8.5q-10 0 -16.5 4.5t-14.5 10.5q-8 8 -7 20.5z" />
<glyph unicode="&#xd5;" horiz-adv-x="927" d="M176 244q0 55 19.5 126.5t57.5 147.5t92 150.5t126 136.5q39 33 79 55.5t71.5 35.5t54 18.5t26.5 5.5q14 0 31 20q10 10 28.5 18.5t31.5 8.5h2q59 0 109 -30t85 -77q41 -59 41 -174q0 -82 -25.5 -162t-64.5 -150.5t-87 -131t-93 -101.5q-102 -92 -193.5 -125.5 t-150.5 -33.5q-41 0 -89 18t-89 59q-35 33 -48.5 86.5t-13.5 98.5zM303 231q0 -63 27.5 -111t93.5 -48q37 0 104.5 28.5t133.5 85.5q49 45 98 109.5t88 139.5t63.5 155t24.5 153q0 70 -51 109q-23 16 -33 15t-6 -13q2 -8 1 -20.5t-11 -24.5t-27.5 -21.5t-34.5 -9.5 q-14 0 -21.5 7.5t-9.5 17.5q-4 14 -17 21t-28 7h-2q-31 0 -95 -48t-142 -152q-51 -74 -82 -136.5t-47.5 -112.5t-21.5 -88t-5 -63zM606 1092q2 18 15.5 43.5t33 47t42 37t46.5 15.5h2q23 0 44.5 -17.5t41.5 -39.5q20 -23 38 -39.5t32 -16.5q23 0 34 31t15 51q4 10 12.5 19.5 t22.5 9.5q25 0 32 -22.5t3 -45.5q-2 -23 -13.5 -47t-28.5 -43.5t-38.5 -33t-44.5 -15.5q-31 -2 -54.5 16.5t-54.5 49.5q-41 43 -55 43q-23 -2 -37 -33t-18 -53q-4 -20 -29 -21q-16 -2 -30.5 13.5t-10.5 50.5z" />
<glyph unicode="&#xd6;" horiz-adv-x="927" d="M176 244q0 55 19.5 126.5t57.5 147.5t93 150.5t127 136.5q39 33 78 55.5t71.5 35.5t54 18.5t25.5 5.5q14 0 31 20q10 10 28.5 18.5t31.5 8.5h2q59 0 109 -30t85 -77q41 -59 41 -174q0 -82 -25.5 -162t-64.5 -150.5t-86 -131t-92 -101.5q-102 -92 -194.5 -125.5 t-151.5 -33.5q-41 0 -89 18t-89 59q-35 33 -48.5 86.5t-13.5 98.5zM303 231q0 -63 27.5 -111t93.5 -48q37 0 104.5 28.5t133.5 85.5q49 45 98 109.5t88 139.5t63.5 155t24.5 153q0 70 -51 109q-23 16 -33 15t-6 -13q2 -8 1 -20.5t-11 -24.5t-27.5 -21.5t-34.5 -9.5 q-14 0 -20 7.5t-11 17.5q-10 29 -43 28h-2q-31 0 -96 -48t-143 -152q-51 -74 -82 -136.5t-47.5 -112.5t-21.5 -88t-5 -63zM641 1116q0 37 24.5 55.5t59.5 18.5h2q45 0 56.5 -26.5t11.5 -43.5q0 -29 -29 -57.5t-55 -28.5q-25 0 -47.5 25.5t-22.5 56.5zM879 1098 q0 29 23.5 59.5t64.5 30.5h2q25 0 48 -24.5t23 -49.5q0 -35 -33.5 -57.5t-68.5 -22.5q-16 0 -37.5 17.5t-21.5 46.5z" />
<glyph unicode="&#xd7;" horiz-adv-x="1128" d="M338 53q0 10 4 19.5t20 23.5q27 23 61 54.5t68.5 64.5t66.5 62.5t54 50.5q14 12 12.5 21t-12.5 22q-82 94 -129 143t-73 80q-29 33 -13 65q10 25 26.5 29t31.5 0q18 -4 36.5 -24.5t34.5 -38.5q18 -23 58.5 -71t105.5 -118q10 -12 18.5 -12t24.5 14q25 18 64 52t76.5 69 t70.5 62.5l45 37.5q16 14 26.5 17.5t18.5 3.5h2q16 0 38 -16.5t22 -32.5q0 -12 -18.5 -28.5t-55.5 -45.5q-23 -14 -55.5 -39.5t-66.5 -52.5t-62.5 -51.5t-42.5 -36.5q-27 -25 -11 -41q98 -104 155.5 -158.5t74.5 -71.5q14 -14 22 -25t8 -24q0 -16 -22.5 -33.5t-38.5 -17.5 q-25 0 -74 55q-41 45 -94 103.5t-94 101.5q-12 14 -21.5 13.5t-23.5 -13.5q-55 -49 -108.5 -103t-114.5 -116q-16 -16 -30.5 -28.5t-25.5 -12.5q-20 0 -39.5 13.5t-19.5 33.5z" />
<glyph unicode="&#xd8;" horiz-adv-x="954" d="M35 -266q4 27 14 42t23 23q25 18 45 54q6 6 18 26.5t29.5 47t39 57t44.5 61.5q8 16 -2 29q-29 37 -42.5 98t-13.5 115q0 59 23 139t76 166q39 66 100.5 132.5t128 120.5t133 88t115.5 34h2q20 0 31.5 -4.5t19.5 -10.5t29 -6q14 0 31.5 -1t29.5 -5q8 -2 14.5 0t16.5 12 q92 115 139 174.5t64 81.5q33 37 55 37q16 0 27.5 -10t15.5 -25q10 -29 -12 -53q-8 -8 -22.5 -23.5t-40 -45t-64.5 -72.5t-94 -107q-6 -8 -7.5 -12t7.5 -12q31 -29 48 -75t17 -93q0 -35 -8 -77t-18 -67q-61 -166 -171 -300t-233 -218q-63 -41 -125.5 -59.5t-99.5 -18.5 q-23 0 -46.5 7.5t-45.5 23.5q-10 4 -15.5 3t-13.5 -11q-27 -37 -52.5 -74t-43.5 -65q-23 -35 -28 -56.5t-1 -33.5q4 -16 0 -30.5t-20 -35.5q-41 -57 -76 -57q-18 0 -33.5 24.5t-7.5 61.5zM299 258q0 -31 5 -55.5t13 -40.5q6 -14 19 0q23 31 59.5 82t83.5 113.5t99.5 132 t103.5 137t98 128t82 103.5q6 6 4 8t-8 6q-8 4 -19.5 6.5t-21.5 2.5t-18 -4q-16 -10 -39 -11h-2q-41 -2 -103.5 -49t-136.5 -123q-45 -45 -85 -99t-69.5 -110.5t-47 -115t-17.5 -111.5zM377 106q-8 -14 4 -26q10 -6 24.5 -10t24.5 -4h2q37 0 92.5 19t128.5 83 q51 43 105.5 116.5t99.5 155.5t75 161t30 130q0 23 -4.5 44.5t-14.5 33.5q-8 14 -22 -4q-39 -47 -90.5 -110.5t-107.5 -134.5t-111.5 -141.5t-102.5 -133t-83 -109.5t-50 -70z" />
<glyph unicode="&#xd9;" horiz-adv-x="1089" d="M209 70q-2 12 0 28.5t6 32.5q27 160 77 307.5t116 311.5q12 31 17 62.5t1 53.5q-4 18 3 28.5t24 27.5q16 14 43.5 29.5t46.5 15.5q18 0 33.5 -28t-5.5 -73q-31 -68 -61.5 -141.5t-58 -146t-51 -141t-38.5 -126.5q-14 -55 -17 -88t2 -50t13.5 -23.5t16.5 -6.5 q16 0 44 10.5t64 39.5q49 35 93.5 72.5t88.5 82.5t93 100.5t108 122.5q49 55 86 106.5t56 100.5q20 53 32.5 82t22.5 45q27 41 53 41h2q16 0 32.5 -20.5t23.5 -36.5q12 -31 -15 -76q-72 -123 -124 -282.5t-74 -340.5q-4 -25 3 -30.5t31 10.5q33 18 72 37.5t82 32.5 q31 8 30 -7.5t-22 -27.5q-31 -20 -68.5 -52t-72.5 -65t-61.5 -61.5t-36.5 -40.5q-14 -20 -31 -21q-20 0 -37 8q-27 12 -31 45t6 80q4 27 17.5 82.5t29 115.5t30 115.5t22.5 80.5q6 16 -2.5 17t-18.5 -15q-6 -6 -30.5 -33t-60.5 -66t-82 -86t-95 -92t-84 -74.5t-59.5 -48 t-43 -31t-34.5 -20.5q-35 -20 -70 -31.5t-59 -11.5q-33 0 -54 12q-16 10 -20 26.5t-4 31.5zM659 1198q16 33 52 33h2q29 0 53 -35q6 -8 15.5 -22.5t20.5 -31t22.5 -33.5t19.5 -30q43 -57 53 -78q6 -16 -9.5 -21t-33.5 5q-43 25 -98.5 66t-85.5 77q-29 33 -11 70z" />
<glyph unicode="&#xda;" horiz-adv-x="1089" d="M209 70q-2 12 0 28.5t6 32.5q27 160 77 307.5t116 311.5q12 31 17 62.5t1 53.5q-4 18 3 28.5t24 27.5q16 14 43.5 29.5t46.5 15.5q18 0 33.5 -28t-5.5 -73q-31 -68 -61.5 -141.5t-58 -146t-51 -141t-38.5 -126.5q-14 -55 -17 -88t2 -50t13.5 -23.5t16.5 -6.5 q16 0 44 10.5t64 39.5q49 35 93.5 72.5t88.5 82.5t93 100.5t108 122.5q49 55 86 106.5t56 100.5q20 53 32.5 82t22.5 45q27 41 53 41h2q16 0 32.5 -20.5t23.5 -36.5q12 -31 -15 -76q-72 -123 -124 -282.5t-74 -340.5q-4 -25 3 -30.5t31 10.5q33 18 72 37.5t82 32.5 q31 8 30 -7.5t-22 -27.5q-31 -20 -68.5 -52t-72.5 -65t-61.5 -61.5t-36.5 -40.5q-14 -20 -31 -21q-20 0 -37 8q-27 12 -31 45t6 80q4 27 17.5 82.5t29 115.5t30 115.5t22.5 80.5q6 16 -2.5 17t-18.5 -15q-6 -6 -30.5 -33t-60.5 -66t-82 -86t-95 -92t-84 -74.5t-59.5 -48 t-43 -31t-34.5 -20.5q-35 -20 -70 -31.5t-59 -11.5q-33 0 -54 12q-16 10 -20 26.5t-4 31.5zM731 979v2q0 16 25 41q33 29 74.5 72t76.5 86q33 39 60 39q35 0 59 -29q27 -35 -16 -74q-84 -72 -148.5 -104.5t-85.5 -40.5q-14 -4 -29.5 -3t-15.5 11z" />
<glyph unicode="&#xdb;" horiz-adv-x="1089" d="M209 70q-2 12 0 28.5t6 32.5q27 160 77 307.5t116 311.5q12 31 17 62.5t1 53.5q-4 18 3 28.5t24 27.5q16 14 43.5 29.5t46.5 15.5q18 0 33.5 -28t-5.5 -73q-31 -68 -61.5 -141.5t-58 -146t-51 -141t-38.5 -126.5q-14 -55 -17 -88t2 -50t13.5 -23.5t16.5 -6.5 q16 0 44 10.5t64 39.5q49 35 93.5 72.5t88.5 82.5t93 100.5t108 122.5q49 55 85 106.5t57 100.5q18 53 30.5 82t22.5 45q27 41 55 41h2q16 0 32.5 -20.5t23.5 -36.5q12 -31 -15 -76q-72 -123 -124 -282.5t-74 -340.5q-4 -25 3 -30.5t31 10.5q33 18 72 37.5t82 32.5 q31 8 30 -7.5t-22 -27.5q-31 -20 -68.5 -52t-72.5 -65t-61.5 -61.5t-36.5 -40.5q-14 -20 -31 -21q-20 0 -37 8q-27 12 -31 45t6 80q4 27 17.5 82.5t29 115.5t30 115.5t22.5 80.5q6 16 -2.5 17t-18.5 -15q-6 -6 -30.5 -33t-61.5 -66t-83 -86t-95 -92t-83 -74.5t-58.5 -48 t-43 -31t-34.5 -20.5q-35 -20 -70 -31.5t-59 -11.5q-33 0 -54 12q-16 10 -20 26.5t-4 31.5zM639 1030q0 12 18 25q47 33 104.5 79t98.5 95q18 25 55 24h3q10 0 18 -11t12 -25q8 -33 34 -80t50 -76q10 -10 6 -22.5t-14 -20.5q-16 -12 -39 -12q-31 0 -53.5 36.5t-42.5 73.5 q-8 16 -25 -2q-29 -31 -56.5 -52.5t-45.5 -33.5q-41 -31 -86 -31q-16 0 -29 13q-8 8 -8 20z" />
<glyph unicode="&#xdc;" horiz-adv-x="1089" d="M209 70q-2 12 0 28.5t6 32.5q27 160 77 307.5t116 311.5q12 31 17 62.5t1 53.5q-4 18 3 28.5t24 27.5q16 14 43.5 29.5t46.5 15.5q18 0 33.5 -28t-5.5 -73q-31 -68 -61.5 -141.5t-58 -146t-51 -141t-38.5 -126.5q-14 -55 -17 -88t2 -50t13.5 -23.5t16.5 -6.5 q16 0 44 10.5t64 39.5q49 35 93.5 72.5t88.5 82.5t93 100.5t108 122.5q49 55 86 106.5t56 100.5q20 53 32.5 82t22.5 45q27 41 53 41h2q16 0 32.5 -20.5t23.5 -36.5q12 -31 -15 -76q-72 -123 -124 -282.5t-74 -340.5q-4 -25 3 -30.5t31 10.5q33 18 72 37.5t82 32.5 q31 8 30 -7.5t-22 -27.5q-31 -20 -68.5 -52t-72.5 -65t-61.5 -61.5t-36.5 -40.5q-14 -20 -31 -21q-20 0 -37 8q-27 12 -31 45t6 80q4 27 17.5 82.5t29 115.5t30 115.5t22.5 80.5q6 16 -2.5 17t-18.5 -15q-6 -6 -30.5 -33t-60.5 -66t-82 -86t-95 -92t-84 -74.5t-59.5 -48 t-43 -31t-34.5 -20.5q-35 -20 -70 -31.5t-59 -11.5q-33 0 -54 12q-16 10 -20 26.5t-4 31.5zM649 1106q0 37 24.5 55.5t59.5 18.5h2q45 0 56.5 -27t11.5 -43q0 -29 -29 -57.5t-55 -28.5q-25 0 -47.5 25.5t-22.5 56.5zM887 1087q0 29 23.5 60t64.5 31h2q25 0 48.5 -25 t23.5 -49q0 -35 -34 -57.5t-69 -22.5q-16 0 -37.5 17.5t-21.5 45.5z" />
<glyph unicode="&#xdd;" horiz-adv-x="878" d="M315.5 36.5q6.5 22.5 49.5 45.5q20 10 27 18.5t11 28.5q16 63 26.5 105t16.5 73q10 47 12.5 82t-7.5 78q-6 23 -19.5 62.5t-30 89t-36 102.5t-33.5 100q-10 31 -10 53.5t6 38t16 25.5t21 16q27 20 67 21q29 0 23 -49q-4 -29 2 -81t19 -110.5t29.5 -114t33.5 -88.5 q10 -16 26 0q25 23 71 58t96 71.5t96 70.5t69 54q43 39 54.5 75t13.5 63q2 20 12 33.5t27 13.5q35 0 61.5 -29t26.5 -63v-2q0 -20 -20.5 -47t-55.5 -54q-33 -25 -113 -86t-170 -139q-78 -68 -113.5 -113t-54.5 -96q-14 -39 -23.5 -86t-21.5 -119q-6 -33 19 -35 q55 -10 99 -24.5t44 -30.5q0 -14 -29.5 -20.5t-72.5 -8.5q-78 -4 -107 -13t-43 -23q-8 -10 -18.5 -13.5t-20.5 -3.5q-23 0 -42 10.5t-30 22.5q-10 16 -3.5 38.5zM608 961v2q0 16 25 41q33 31 74 73.5t77 87.5q33 39 62 39q31 0 57 -30q27 -35 -16 -72q-84 -74 -148.5 -107.5 t-85.5 -42.5q-14 -4 -29.5 -3t-15.5 12z" />
<glyph unicode="&#xde;" horiz-adv-x="796" d="M186 49q2 12 20.5 23.5t33.5 17.5q8 4 10 11.5t6 21.5q6 43 13 76.5t17.5 67.5t24 70t31.5 85q35 94 55.5 145t30.5 76q16 35 -6 27q-29 -10 -54.5 -23.5t-41.5 -34.5q-12 -12 -16.5 -14t-12.5 -2q-12 0 -28.5 10t-16.5 29q0 10 2 19.5t10 15.5q35 31 92.5 54.5 t102.5 31.5q18 2 24 16q4 10 16.5 42t20.5 52t3 24.5t-13 4.5q-6 0 -21.5 2t-30 6t-25.5 10.5t-11 14.5q0 20 39 26q43 6 71.5 13.5t57.5 27.5q16 14 35 15q14 0 25.5 -12.5t19.5 -28.5q12 -27 -6 -49q-12 -16 -22.5 -37t-19 -40.5t-14.5 -37t-8 -25.5q-4 -10 1 -11t15 -1 q57 0 119 -12.5t107 -50.5q29 -29 41 -69t12 -83v-2q0 -33 -18.5 -69t-46 -68.5t-60.5 -60t-61 -42.5q-41 -23 -88.5 -38t-67.5 -15q-16 0 -34.5 2t-36 7t-33 15.5t-23.5 26.5q-8 18 -18 -2q-4 -6 -14.5 -34.5t-22 -61.5t-21.5 -61.5t-10 -34.5q0 -20 13.5 -26.5t41.5 -6.5 q92 0 133 12q29 8 33 -3t-12 -30q-18 -18 -52 -34.5t-71 -26.5t-72 -16.5t-55 -6.5q-31 0 -61 15q-37 20 -44.5 33.5t-7.5 23.5zM443 388q-1 -3 6 -3q6 2 12 3t16 1q8 0 15.5 -6t15.5 -14q6 -8 22.5 -17.5t38.5 -9.5q16 0 39 6t56 25q14 8 33.5 24.5t38 41t31.5 56t13 70.5 v2q0 43 -37.5 80t-113.5 37q-37 0 -51 -6q-18 -2 -33 -31q-10 -18 -23.5 -53t-29 -73t-27.5 -70.5t-19 -49.5q-2 -10 -3 -13z" />
<glyph unicode="&#xdf;" horiz-adv-x="884" d="M-174 -654.5q0 15.5 10 42.5q6 14 23.5 39.5t37 50t37 45t23.5 26.5q12 16 23.5 34t21.5 42q18 41 31.5 86t26 98.5t25.5 118t32 146.5q25 115 54.5 237.5t86.5 270.5q78 197 171 329.5t235 216.5q61 35 81 35q14 0 23 19q8 12 28.5 26.5t55.5 14.5h2q72 0 116 -39 t44 -94q0 -59 -43 -104.5t-90 -80.5q-59 -41 -96 -71.5t-60 -56t-32 -47t-9 -42.5q-2 -41 10.5 -85t31.5 -86t40.5 -79t36.5 -63q10 -16 28 -10q86 25 167 52t141 62q37 25 40 10.5t-16 -36.5q-35 -35 -110.5 -77t-206.5 -89q-10 -2 -11 -7.5t-1 -15.5q-4 -72 -35 -118 t-88 -87q-27 -18 -58.5 -32.5t-62.5 -24.5t-57.5 -15t-45.5 -5q-35 0 -55 18q-12 16 -13 38.5t7 45.5q14 39 76.5 102.5t185.5 122.5q14 10 8 25q-16 31 -37.5 68.5t-40 78.5t-32 83t-13.5 83q0 55 28 103.5t68 90.5t87 76.5t84 59.5q29 20 46 41.5t17 38.5q0 20 -16.5 39.5 t-61.5 19.5q-18 0 -41.5 -10t-50.5 -27q-72 -53 -130 -111.5t-109.5 -142.5t-99.5 -204.5t-101 -296.5q-61 -201 -93 -334t-50 -189q-14 -43 -16.5 -62.5t-0.5 -33.5q2 -10 1 -23.5t-7 -33.5q-4 -16 -16.5 -40t-32.5 -50q-59 -72 -100 -134.5t-58 -97.5q-27 -43 -49 -43 q-25 0 -37 31q-8 16 -8 31.5zM543 96q0 -23 26 -22q12 0 40 11t56.5 30.5t50 47t21.5 62.5q0 16 -22 8q-102 -45 -137 -80.5t-35 -54.5v-2z" />
<glyph unicode="&#xe0;" horiz-adv-x="784" d="M70 82q0 27 14 79t63 144q41 80 108 172t142 158q63 57 105.5 71.5t58.5 14.5h2q16 0 29.5 -14.5t23.5 -26.5q4 -14 19 -4q20 14 39 2q23 -14 24.5 -28.5t-6.5 -31.5q-47 -102 -73.5 -192t-26.5 -178q0 -68 12 -114t49 -46q33 0 77 32t90 79t90 101t79 101 q12 14 22.5 14.5t14.5 -9.5t-1 -28t-15 -40q-29 -55 -79 -118.5t-107.5 -116t-115 -87t-96.5 -34.5q-37 0 -73.5 42t-42.5 105q-4 33 -5.5 71t-1.5 54q0 18 -16 2q-10 -14 -34.5 -43t-54.5 -60.5t-59.5 -61.5t-50.5 -48q-70 -61 -118 -61q-6 0 -20.5 5t-29 16t-25.5 30.5 t-11 48.5zM199 129q6 -20 26 -20q12 0 35 15t51 42q27 25 67 75t87 111q8 12 20.5 34t23.5 43.5t19.5 37.5t12.5 22q6 16 10 37t0 39t-13.5 31.5t-29.5 13.5h-2q-23 0 -54.5 -27.5t-72.5 -76.5q-74 -86 -118 -179.5t-58 -148.5q-10 -29 -4 -49zM377 1055q10 14 23.5 23 t27.5 9h2q31 0 49 -38q23 -45 41.5 -84t32.5 -64q16 -29 27.5 -50.5t15.5 -31.5q6 -18 -6 -24.5t-33 8.5q-35 27 -85 76t-87 102q-27 39 -8 74z" />
<glyph unicode="&#xe1;" horiz-adv-x="784" d="M70 82q0 27 14 79t63 144q41 80 108 172t142 158q63 57 105.5 71.5t58.5 14.5h2q16 0 29.5 -14.5t23.5 -26.5q4 -14 19 -4q20 14 39 2q23 -14 24.5 -28.5t-6.5 -31.5q-47 -102 -73.5 -192t-26.5 -178q0 -68 12 -114t49 -46q33 0 77 32t90 79t90 101t79 101 q12 14 22.5 14.5t14.5 -9.5t-1 -28t-15 -40q-29 -55 -79 -118.5t-107.5 -116t-115 -87t-96.5 -34.5q-37 0 -73.5 42t-42.5 105q-4 33 -5.5 71t-1.5 54q0 18 -16 2q-10 -14 -34.5 -43t-54.5 -60.5t-59.5 -61.5t-50.5 -48q-70 -61 -118 -61q-6 0 -20.5 5t-29 16t-25.5 30.5 t-11 48.5zM199 129q6 -20 26 -20q12 0 35 15t51 42q27 25 67 75t87 111q8 12 20.5 34t23.5 43.5t19.5 37.5t12.5 22q6 16 10 37t0 39t-13.5 31.5t-29.5 13.5h-2q-23 0 -54.5 -27.5t-72.5 -76.5q-74 -86 -118 -179.5t-58 -148.5q-10 -29 -4 -49zM487 801v2q0 12 21 33 q33 29 79 79t118 136q16 18 29.5 28.5t31.5 10.5q31 0 55 -29q23 -29 -10 -60q-119 -115 -192.5 -157.5t-94.5 -48.5q-16 -6 -26.5 -5t-10.5 11z" />
<glyph unicode="&#xe2;" horiz-adv-x="784" d="M70 82q0 27 14 79t63 144q41 80 108 172t142 158q63 57 105.5 71.5t58.5 14.5h2q16 0 29.5 -14.5t23.5 -26.5q4 -14 19 -4q20 14 39 2q23 -14 24.5 -28.5t-6.5 -31.5q-47 -102 -73.5 -192t-26.5 -178q0 -68 12 -114t49 -46q33 0 77 32t90 79t90 101t79 101 q12 14 22.5 14.5t14.5 -9.5t-1 -28t-15 -40q-29 -55 -79 -118.5t-107.5 -116t-115 -87t-96.5 -34.5q-37 0 -73.5 42t-42.5 105q-4 33 -5.5 71t-1.5 54q0 18 -16 2q-10 -14 -34.5 -43t-54.5 -60.5t-59.5 -61.5t-50.5 -48q-70 -61 -118 -61q-6 0 -20.5 5t-29 16t-25.5 30.5 t-11 48.5zM199 129q6 -20 26 -20q12 0 35 15t51 42q27 25 67 75t87 111q8 12 20.5 34t23.5 43.5t19.5 37.5t12.5 22q6 16 10 37t0 39t-13.5 31.5t-29.5 13.5h-2q-23 0 -54.5 -27.5t-72.5 -76.5q-74 -86 -118 -179.5t-58 -148.5q-10 -29 -4 -49zM359 827.5q3 12.5 20 26.5 q41 39 94 92t90 111q16 27 45 26h2q14 0 21.5 -12t11.5 -27q4 -18 12.5 -43.5t19.5 -52t21.5 -49t18.5 -31.5q14 -16 11 -31.5t-13 -23.5q-14 -10 -35 -10q-23 0 -37 22q-6 8 -14.5 23.5t-15.5 33t-12 33t-7 21.5q-8 20 -27 -2q-29 -37 -55.5 -64.5t-42.5 -42.5 q-18 -16 -38.5 -25t-37.5 -9q-18 0 -29 14q-6 8 -3 20.5z" />
<glyph unicode="&#xe3;" horiz-adv-x="784" d="M70 82q0 27 14 79t63 144q41 80 108 172t142 158q63 57 105.5 71.5t58.5 14.5h2q16 0 29.5 -14.5t23.5 -26.5q4 -14 19 -4q20 14 39 2q23 -14 24.5 -28.5t-6.5 -31.5q-47 -102 -73.5 -192t-26.5 -178q0 -68 12 -114t49 -46q33 0 77 32t90 79t90 101t79 101 q12 14 22.5 14.5t14.5 -9.5t-1 -28t-15 -40q-29 -55 -79 -118.5t-107.5 -116t-115 -87t-96.5 -34.5q-37 0 -73.5 42t-42.5 105q-4 33 -5.5 71t-1.5 54q0 18 -16 2q-10 -14 -34.5 -43t-54.5 -60.5t-59.5 -61.5t-50.5 -48q-70 -61 -118 -61q-6 0 -20.5 5t-29 16t-25.5 30.5 t-11 48.5zM199 129q6 -20 26 -20q12 0 35 15t51 42q27 25 67 75t87 111q8 12 20.5 34t23.5 43.5t19.5 37.5t12.5 22q6 16 10 37t0 39t-13.5 31.5t-29.5 13.5h-2q-23 0 -54.5 -27.5t-72.5 -76.5q-74 -86 -118 -179.5t-58 -148.5q-10 -29 -4 -49zM367 877q2 18 14 43.5 t31.5 47t42 37t47.5 15.5h2q25 0 45 -17.5t41 -39.5q20 -23 37.5 -39.5t31.5 -16.5q20 0 33 31t17 51q4 10 12 19.5t22 9.5q27 0 33 -22.5t2 -45.5q-2 -23 -13 -47t-28.5 -43.5t-39 -33t-44.5 -15.5q-31 -2 -54.5 16.5t-51.5 49.5q-41 43 -58 43q-23 -2 -36 -33t-17 -53 q-4 -20 -33 -21q-12 0 -26.5 14.5t-9.5 49.5z" />
<glyph unicode="&#xe4;" horiz-adv-x="784" d="M70 82q0 27 14 79t63 144q41 80 108 172t142 158q63 57 105.5 71.5t58.5 14.5h2q16 0 29.5 -14.5t23.5 -26.5q4 -14 19 -4q20 14 39 2q23 -14 24.5 -28.5t-6.5 -31.5q-47 -102 -73.5 -192t-26.5 -178q0 -68 12 -114t49 -46q33 0 77 32t90 79t90 101t79 101 q12 14 22.5 14.5t14.5 -9.5t-1 -28t-15 -40q-29 -55 -79 -118.5t-107.5 -116t-115 -87t-96.5 -34.5q-37 0 -73.5 42t-42.5 105q-4 33 -5.5 71t-1.5 54q0 18 -16 2q-10 -14 -34.5 -43t-54.5 -60.5t-59.5 -61.5t-50.5 -48q-70 -61 -118 -61q-6 0 -20.5 5t-29 16t-25.5 30.5 t-11 48.5zM199 129q6 -20 26 -20q12 0 34 15t50 42q27 25 67 75t87 111q10 12 22.5 34t23.5 43.5t19.5 37.5t10.5 22q8 16 12 37t0 39t-14.5 31.5t-30.5 13.5h-2q-23 0 -54.5 -27.5t-72.5 -76.5q-72 -86 -116 -179.5t-58 -148.5q-10 -29 -4 -49zM375 905q0 39 24.5 57.5 t59.5 18.5h2q45 0 56 -26.5t11 -45.5q0 -29 -28.5 -56.5t-55.5 -27.5q-25 0 -47 26t-22 54zM614 889q0 29 24 58.5t64 29.5h3q25 0 48 -23.5t23 -48.5q0 -35 -33.5 -57.5t-68.5 -22.5q-16 0 -38 17.5t-22 46.5z" />
<glyph unicode="&#xe5;" horiz-adv-x="784" d="M70 82q0 27 14 79t63 144q41 80 108 172t140 158q63 57 105.5 71.5t60.5 14.5h2q16 0 29.5 -14.5t23.5 -26.5q4 -14 21 -4q16 14 39 2q23 -14 23.5 -28.5t-7.5 -31.5q-47 -102 -73.5 -192t-26.5 -178q0 -68 12 -114t49 -46q33 0 77 32t90 79t91 101t78 101 q12 14 22.5 14.5t14.5 -9.5q6 -23 -16 -68q-29 -55 -79 -118.5t-106.5 -116t-114 -87t-96.5 -34.5t-75.5 42t-42.5 105q-4 33 -5.5 71t-1.5 54q0 18 -16 2q-10 -14 -34.5 -43t-54.5 -60.5t-59.5 -61.5t-50.5 -48q-70 -61 -118 -61q-6 0 -20.5 5t-29 16t-25.5 30.5t-11 48.5z M199 129q6 -20 26 -20q12 0 35 15t51 42q25 25 65 75t87 111q10 12 22.5 34t23.5 43.5t19.5 37.5t10.5 22q8 16 12 37t0 39t-14.5 31.5t-30.5 13.5h-2q-23 0 -54.5 -27.5t-72.5 -76.5q-72 -86 -116 -179.5t-58 -148.5q-10 -29 -4 -49zM428 944q0 31 15.5 60.5t40 54t54 40 t60.5 15.5h2q70 0 110 -37t40 -106q0 -31 -19.5 -61.5t-49.5 -54.5t-63.5 -38t-62.5 -14q-25 0 -48.5 13t-40.5 33.5t-27.5 45.5t-10.5 49zM508 958q0 -27 16.5 -52t50.5 -25q41 0 70 27.5t29 56.5q0 35 -24.5 53t-59.5 18h-2q-20 0 -50 -19.5t-30 -58.5z" />
<glyph unicode="&#xe6;" horiz-adv-x="1036" d="M68 92q0 31 10 64.5t26.5 69.5t37 70t42.5 62q33 43 62.5 76t57.5 58.5t56.5 46t59.5 41.5q25 18 55.5 31.5t59 22.5t52 14t36.5 5h2q14 0 31.5 -5t25.5 -15q6 -4 13 8t18 27q37 55 80 55q39 0 24 -41q-4 -14 -15 -34.5t-18 -31.5q-2 -4 7.5 -2t23.5 17q8 8 29.5 21.5 t48.5 26.5t53.5 22.5t44.5 9.5q25 0 45.5 -19.5t22.5 -54.5q2 -20 -8.5 -46t-27.5 -51.5t-38.5 -47t-42.5 -35.5q-10 -10 -5 -13.5t21 0.5q12 4 54.5 15.5t97.5 29t117.5 40t118.5 46.5q23 12 23.5 -3t-15.5 -31q-39 -33 -120 -71t-170 -71.5t-171 -58.5t-125 -31 q-25 -4 -42 -4t-28 4q-18 6 -28 17q-8 6 -15 -9q-16 -35 -26.5 -75.5t-10.5 -81.5q0 -37 25 -55.5t57 -18.5q37 0 89.5 17.5t105.5 44t99 57.5t69 55q10 10 16 8t8.5 -9t1 -19.5t-7.5 -20.5q-8 -16 -53 -56t-109.5 -80t-140.5 -70.5t-145 -30.5q-27 0 -49.5 13t-39 33.5 t-25.5 45t-9 47.5q0 20 4 43.5t10 50.5q6 33 -22 0q-31 -31 -65 -59.5t-66.5 -54t-59 -45t-43.5 -29.5q-29 -20 -60.5 -32.5t-49.5 -12.5q-25 0 -57.5 26.5t-32.5 83.5zM201 150q0 -16 9 -30t28 -14q16 0 46.5 17.5t77.5 58.5q35 29 75 68t77 79t66.5 76.5t44.5 63.5 q18 33 19 50.5t-7 25.5q-18 18 -51 18q-16 0 -44 -11t-63 -34.5t-73.5 -57.5t-75.5 -79q-68 -80 -98.5 -140.5t-30.5 -88.5v-2zM696 420q-14 -25 29 -25h2q10 0 31.5 5.5t46.5 19.5q16 10 39.5 29.5t44 41t35 44t14.5 40.5q0 29 -35 29q-25 0 -56.5 -18.5t-62 -45t-54 -59 t-34.5 -61.5z" />
<glyph unicode="&#xe7;" horiz-adv-x="641" d="M84 -346q0 12 9 25.5t23.5 23.5t29 17.5t24.5 7.5q12 0 25.5 -12.5t17.5 -22.5q6 -10 15.5 -12.5t19.5 -2.5q16 0 40.5 11.5t24.5 29.5q2 16 -9 32t-44 38q-16 16 -26.5 28.5t-10.5 30.5q0 14 8.5 34t19.5 38.5t24.5 34.5t23.5 27q-25 0 -55.5 7t-58 28.5t-46 60.5 t-18.5 100v2q0 68 34.5 169.5t118.5 199.5q31 37 69 67.5t78 54t78 37t68 13.5q43 0 65.5 -25.5t22.5 -50.5q0 -33 -21.5 -55.5t-41.5 -34.5q-29 -16 -45 -6q-14 14 -6 39q4 33 -31 33q-16 0 -37.5 -11.5t-45.5 -31t-46.5 -44t-40.5 -51.5q-59 -86 -77.5 -159.5 t-18.5 -120.5q0 -61 28.5 -93t71.5 -32q57 0 122.5 28.5t130.5 71.5t123 95.5t101 99.5q10 12 20.5 12t14.5 -6q8 -16 -14 -53q-43 -55 -98.5 -108.5t-116 -97.5t-124 -78t-120.5 -48q0 -2 -9 -14.5t-19.5 -27.5t-19.5 -31.5t-9 -29.5q0 -16 17 -33.5t40 -35.5 q18 -16 24.5 -37t6.5 -39q-2 -23 -18.5 -49.5t-45.5 -52.5q-18 -14 -41.5 -22.5t-46 -12.5t-41 -4h-24.5q-10 2 -17.5 1t-23.5 -5q-23 -6 -52 16q-8 10 -14 18.5t-6 18.5z" />
<glyph unicode="&#xe8;" horiz-adv-x="643" d="M129 162v2q0 59 37 158.5t96 197.5q12 18 38 53t57.5 69t64.5 58.5t61 24.5q23 0 33 -11.5t12 -25.5q0 -12 23 -18q35 -2 59.5 -27t24.5 -72t-19.5 -94t-48.5 -80q-41 -47 -99 -81.5t-136 -34.5q-25 0 -47 18q-6 4 -10.5 3t-8.5 -11q-8 -16 -16 -50t-8 -63 q0 -49 24.5 -72.5t65.5 -23.5q37 0 88 14.5t116.5 51t143.5 98t166 157.5q27 29 37 5q6 -25 -23 -64q-66 -88 -142.5 -156.5t-153.5 -114.5t-150.5 -69.5t-132.5 -23.5q-55 0 -103.5 47t-48.5 135zM307 380q4 -5 25 -5h2q37 0 72.5 13t62.5 37t43 52.5t16 59.5q0 37 -17 56 t-38 19q-18 0 -42.5 -22.5t-47.5 -56t-43.5 -71.5t-32.5 -67q-4 -10 0 -15zM326 1055q8 16 22 25.5t29 9.5h2q27 0 47 -39q23 -45 42 -85t34 -63q16 -29 27.5 -50.5t15.5 -31.5q6 -20 -7.5 -25t-33.5 9q-35 25 -84 75t-86 101q-29 41 -8 74z" />
<glyph unicode="&#xe9;" horiz-adv-x="643" d="M129 162v2q0 59 37 158.5t96 197.5q12 18 38 53t57.5 69t64.5 58.5t61 24.5q23 0 33 -11.5t12 -25.5q0 -12 23 -18q35 -2 59.5 -27t24.5 -72t-19.5 -94t-48.5 -80q-41 -47 -99 -81.5t-136 -34.5q-25 0 -47 18q-6 4 -10.5 3t-8.5 -11q-8 -16 -16 -50t-8 -63 q0 -49 24.5 -72.5t65.5 -23.5q37 0 88 14.5t116.5 51t143.5 98t166 157.5q27 29 37 5q6 -25 -23 -64q-66 -88 -142.5 -156.5t-153.5 -114.5t-150.5 -69.5t-132.5 -23.5q-55 0 -103.5 47t-48.5 135zM307 380q4 -5 25 -5h2q37 0 72.5 13t62.5 37t43 52.5t16 59.5q0 37 -17 56 t-38 19q-18 0 -42.5 -22.5t-47.5 -56t-43.5 -71.5t-32.5 -67q-4 -10 0 -15zM397 795v2q0 10 21 32q33 29 80 78t116 137q16 18 29.5 28.5t32.5 10.5q31 0 55 -28q25 -29 -10 -60q-119 -115 -192.5 -157.5t-94.5 -49.5q-16 -6 -26.5 -5t-10.5 12z" />
<glyph unicode="&#xea;" horiz-adv-x="643" d="M129 162v2q0 59 37 158.5t96 197.5q12 18 38 53t57.5 69t64.5 58.5t61 24.5q23 0 33 -11.5t12 -25.5q0 -12 23 -18q35 -2 59.5 -27t24.5 -72t-19.5 -94t-48.5 -80q-41 -47 -99 -81.5t-136 -34.5q-25 0 -47 18q-6 4 -10.5 3t-8.5 -11q-8 -16 -16 -50t-8 -63 q0 -49 24.5 -72.5t65.5 -23.5q37 0 88 14.5t116.5 51t143.5 98t166 157.5q27 29 37 5q6 -25 -23 -64q-66 -88 -142.5 -156.5t-153.5 -114.5t-150.5 -69.5t-132.5 -23.5q-55 0 -103.5 47t-48.5 135zM303 818q2 13 19 26q43 41 95 93t91 112q16 25 45 24h2q14 0 21.5 -12 t11.5 -27q4 -18 12 -43.5t19.5 -52.5t21.5 -48.5t18 -31.5q14 -16 11.5 -30.5t-13.5 -24.5q-14 -10 -34 -10q-23 0 -37 22q-6 8 -14.5 23.5t-15.5 33t-12 33t-7 21.5q-8 23 -27 -2q-29 -35 -55.5 -62.5t-42.5 -42.5q-41 -37 -78 -37q-16 0 -27 15q-6 8 -4 21zM307 380 q4 -5 25 -5h2q37 0 72.5 13t62.5 37t43 52.5t16 59.5q0 37 -17 56t-38 19q-18 0 -42.5 -22.5t-47.5 -56t-43.5 -71.5t-32.5 -67q-4 -10 0 -15z" />
<glyph unicode="&#xeb;" horiz-adv-x="643" d="M129 162v2q0 59 37 158.5t96 197.5q12 18 38 53t57.5 69t64.5 58.5t61 24.5q23 0 33 -11.5t12 -25.5q0 -12 23 -18q35 -2 59.5 -27t24.5 -72t-19.5 -94t-48.5 -80q-41 -47 -99 -81.5t-136 -34.5q-25 0 -47 18q-6 4 -10.5 3t-8.5 -11q-8 -16 -16 -50t-8 -63 q0 -49 24.5 -72.5t65.5 -23.5q37 0 88 14.5t116.5 51t143.5 98t166 157.5q27 29 37 5q6 -25 -23 -64q-66 -88 -142.5 -156.5t-153.5 -114.5t-150.5 -69.5t-132.5 -23.5q-55 0 -103.5 47t-48.5 135zM307 380q4 -5 25 -5h2q37 0 72.5 13t62.5 37t43 52.5t16 59.5q0 37 -17 56 t-38 19q-18 0 -42.5 -22.5t-47.5 -56t-43.5 -71.5t-32.5 -67q-4 -10 0 -15zM338 907q0 39 24.5 57.5t59.5 18.5h2q45 0 56.5 -26.5t11.5 -45.5q0 -29 -29 -56.5t-55 -27.5q-25 0 -47.5 26t-22.5 54zM575 891q0 29 24 58.5t65 29.5h2q25 0 48 -23.5t23 -48.5 q0 -35 -33.5 -57.5t-68.5 -22.5q-16 0 -38 17.5t-22 46.5z" />
<glyph unicode="&#xec;" horiz-adv-x="516" d="M127 170q4 14 14.5 46t21.5 69t22.5 72.5t19.5 58.5q6 18 7 28.5t-3 20.5q-4 12 -4 25.5t10 33.5t27.5 47t39 52.5t44 47t43.5 36.5q31 23 53 -2q8 -10 11 -32t-13 -50q-27 -45 -54.5 -100.5t-52 -114t-45 -114.5t-35.5 -106q-16 -57 -4.5 -78.5t35.5 -21.5 q43 0 104.5 36t128 90t130 119.5t110.5 125.5q27 33 37 6q6 -23 -18 -64q-35 -57 -89.5 -117.5t-116 -115.5t-121.5 -97t-103 -63q-41 -18 -64.5 -25.5t-40.5 -7.5h-2q-23 0 -43 15.5t-41 56.5q-31 53 -8 123zM246 1053q8 16 22.5 25t26.5 9h2q31 0 49 -38q23 -45 41.5 -85 t34.5 -63q16 -29 27.5 -50.5t15.5 -31.5q6 -20 -7.5 -25.5t-33.5 9.5q-35 27 -85 76t-87 100q-25 43 -6 74z" />
<glyph unicode="&#xed;" horiz-adv-x="516" d="M127 170q4 14 14.5 46t21.5 69t22.5 72.5t19.5 58.5q6 18 7 28.5t-3 20.5q-4 12 -4 25.5t10 33.5t27.5 47t39 52.5t44 47t43.5 36.5q31 23 53 -2q8 -10 11 -32t-13 -50q-27 -45 -54.5 -100.5t-52 -114t-45 -114.5t-35.5 -106q-16 -57 -4.5 -78.5t35.5 -21.5 q43 0 104.5 36t128 90t130 119.5t110.5 125.5q27 33 37 6q6 -23 -18 -64q-35 -57 -89.5 -117.5t-116 -115.5t-121.5 -97t-103 -63q-41 -18 -64.5 -25.5t-40.5 -7.5h-2q-23 0 -43 15.5t-41 56.5q-31 53 -8 123zM299 801v2q0 10 20 33q33 29 79 78t118 137q16 18 29.5 28.5 t32.5 10.5q31 0 55 -29q25 -29 -10 -60q-119 -115 -193 -157.5t-94 -50.5q-16 -4 -26.5 -3t-10.5 11z" />
<glyph unicode="&#xee;" horiz-adv-x="516" d="M127 170q4 14 14.5 46t21.5 69t22.5 72.5t19.5 58.5q6 18 7 28.5t-3 20.5q-4 12 -4 25.5t10 33.5t27.5 47t39 52.5t44 47t43.5 36.5q31 23 53 -2q8 -10 11 -32t-13 -50q-27 -45 -54.5 -100.5t-52 -114t-45 -114.5t-35.5 -106q-16 -57 -4.5 -78.5t35.5 -21.5 q43 0 104.5 36t128 90t130 119.5t110.5 125.5q27 33 37 6q6 -23 -18 -64q-35 -57 -89.5 -117.5t-116 -115.5t-121.5 -97t-103 -63q-41 -18 -64.5 -25.5t-40.5 -7.5h-2q-23 0 -43 15.5t-41 56.5q-31 53 -8 123zM215 805q-16 23 16 49q43 39 95.5 91t91.5 112q16 25 45 24h2 q12 0 19.5 -11t11.5 -28q4 -18 13 -43.5t19.5 -51t21.5 -48t19 -31.5q12 -18 9 -32.5t-11 -22.5q-16 -10 -37 -10q-18 0 -36 20q-6 8 -13.5 24.5t-14.5 34t-12 33t-8 21.5q-8 20 -26 -2q-63 -76 -101 -107q-18 -16 -38.5 -25t-36.5 -9t-29 12z" />
<glyph unicode="&#xef;" horiz-adv-x="516" d="M127 170q4 14 14.5 46t21.5 69t22.5 72.5t19.5 58.5q6 18 7 28.5t-3 20.5q-4 12 -4 25.5t10 33.5t27.5 47t39 52.5t44 47t43.5 36.5q33 25 53 -2q8 -10 11 -32t-13 -50q-27 -45 -54.5 -100.5t-52 -114t-45 -114.5t-35.5 -106q-16 -57 -4.5 -78.5t35.5 -21.5 q43 0 104.5 36t128 90t130 119.5t110.5 125.5q27 33 37 6q6 -23 -18 -64q-35 -57 -89.5 -117.5t-116 -115.5t-121.5 -97t-103 -63q-41 -18 -64.5 -25.5t-40.5 -7.5h-2q-23 0 -43 15.5t-41 56.5q-31 53 -8 123zM225 905q0 39 24.5 57.5t59.5 18.5h2q45 0 56.5 -26.5 t11.5 -45.5q0 -29 -28.5 -56.5t-55.5 -27.5q-25 0 -47.5 26t-22.5 54zM463 889q0 29 23.5 58.5t64.5 29.5h2q25 0 48.5 -23.5t23.5 -48.5q0 -35 -34 -57.5t-69 -22.5q-16 0 -37.5 17.5t-21.5 46.5z" />
<glyph unicode="&#xf0;" horiz-adv-x="671" d="M133 158q0 35 15.5 96t50.5 127q37 80 92 141.5t112 102.5q20 14 46 28.5t52.5 26.5t51.5 20.5t41 8.5q27 0 41 -19q8 -8 14 -12t10 6q2 10 2.5 22.5t0.5 32.5q0 47 -8.5 103.5t-28.5 111.5q-4 10 -9.5 11.5t-19.5 -7.5q-61 -33 -111.5 -61.5t-97.5 -62.5 q-20 -18 -37 -11q-12 8 -8 35q2 16 9 31.5t18 28.5q12 14 36.5 30.5t53 31.5t57.5 30.5t49 25.5q14 6 6 23q-25 43 -64.5 81t-76.5 54q-31 16 -59.5 19.5t-53.5 -1.5q-29 -6 -28 15q0 16 26.5 39.5t55.5 23.5h2q45 0 88 -17.5t81 -45t67.5 -61t49.5 -66.5q4 -8 9.5 -8 t15.5 4q43 23 66.5 35t56.5 30q16 12 32.5 18.5t26.5 6.5t21.5 -5t11.5 -22q0 -23 -18.5 -46t-34.5 -32q-29 -16 -61.5 -30.5t-61.5 -30.5q-12 -8 -6 -25q18 -55 26.5 -97t12.5 -78t4 -65.5v-60.5q0 -82 -23.5 -171t-58.5 -173q-18 -43 -45 -85t-56.5 -78.5t-59.5 -67.5 t-54 -51q-43 -35 -90 -60.5t-105 -25.5q-57 0 -96 53t-39 123zM242 152q0 -33 13 -59.5t40 -26.5h2q16 0 46 13t56 34q12 10 44 45t69 92t74 137t59 180q6 27 -4 27q-14 0 -35 8q-29 16 -63 4q-41 -12 -93.5 -58t-99.5 -116q-23 -35 -42 -72.5t-34.5 -74.5t-23.5 -72t-8 -61 z" />
<glyph unicode="&#xf1;" horiz-adv-x="868" d="M112 66.5q3 27.5 9 52.5q45 205 90 350t74 199q29 55 48 69.5t38 14.5h2q27 0 45 -31t18 -53q0 -16 -18 -21q-16 -4 -27.5 -17.5t-25.5 -37.5q-10 -20 -23.5 -54t-27 -74t-24.5 -79t-18 -70q-4 -16 3.5 -19t17.5 11q25 35 65.5 80t84.5 89t83 80t62 52q45 35 62.5 46.5 t31.5 17.5q25 10 39 37q10 12 19.5 21t19.5 9q20 0 41 -26q16 -16 14 -36t-12 -44q-12 -23 -29.5 -47.5t-32.5 -55.5q-29 -61 -54 -136t-42 -138q-14 -57 -14 -96t9 -63.5t25.5 -35t36.5 -10.5q37 0 87.5 37t105.5 90t107.5 115.5t91.5 112.5q20 29 28 6q10 -23 -20 -66 q-70 -111 -132.5 -185.5t-118.5 -120.5t-105.5 -65.5t-88.5 -19.5q-35 0 -61.5 19.5t-42.5 57.5t-19.5 94t13.5 130q14 68 31.5 125t29.5 92q10 27 11.5 37t-3.5 14q-8 8 -45 -24q-70 -61 -126 -124t-101 -120t-76.5 -106.5t-50.5 -83.5q-10 -18 -27.5 -40t-33.5 -22 q-18 0 -39 25q-8 10 -5 37.5zM385 883q2 20 14.5 44.5t32 47t42 38t46.5 15.5h2q25 0 45.5 -17.5t40.5 -39.5q23 -25 40.5 -41.5t29.5 -16.5q23 0 35 32t16 52q4 10 11.5 19.5t21.5 9.5q27 0 33 -22.5t2 -47.5q-4 -47 -41 -91t-82 -48q-33 -2 -56.5 16.5t-52.5 51.5 q-41 43 -57 43q-23 -2 -36 -33t-17 -53q-4 -20 -33 -21q-12 -2 -26.5 12.5t-10.5 49.5z" />
<glyph unicode="&#xf2;" horiz-adv-x="628" d="M106 111v2q0 55 19.5 119.5t40.5 111.5q12 23 30.5 53.5t38 61t37 55.5t25.5 35q10 16 17.5 29.5t7.5 31.5q2 23 9 36t19 24q16 18 51 18q16 0 25.5 6t19.5 17q20 31 60 30q31 0 42 -15t11 -36v-16t10 -15q37 -27 69 -77t32 -136q0 -23 -8.5 -54.5t-21.5 -68t-33.5 -73.5 t-45.5 -68q-84 -106 -178 -155.5t-166 -49.5q-18 0 -37.5 11.5t-36 30t-27 42t-10.5 50.5zM225 145q0 -31 15.5 -49t38.5 -18q29 0 61.5 14t67.5 49q25 25 53 64t51 83t38 88t15 81q0 23 -3 47t-11 43.5t-23.5 33t-42.5 13.5q-20 0 -39.5 -17.5t-48.5 -52.5 q-25 -29 -54.5 -73.5t-56 -97t-44 -106.5t-17.5 -100v-2zM346 1057q8 14 22.5 23.5t26.5 9.5h2q31 0 49 -37q23 -47 42.5 -86t33.5 -64q16 -29 27.5 -49t15.5 -33q6 -18 -6 -24t-35 8q-35 27 -85 77t-87 101q-25 39 -6 74z" />
<glyph unicode="&#xf3;" horiz-adv-x="628" d="M106 111v2q0 55 19.5 119.5t40.5 111.5q12 23 30.5 53.5t38 61t37 55.5t25.5 35q10 16 17.5 29.5t7.5 31.5q2 23 9 36t19 24q16 18 51 18q16 0 25.5 6t19.5 17q20 31 60 30q31 0 42 -15t11 -36v-16t10 -15q37 -27 69 -77t32 -136q0 -23 -8.5 -54.5t-21.5 -68t-33.5 -73.5 t-45.5 -68q-84 -106 -178 -155.5t-166 -49.5q-18 0 -37.5 11.5t-36 30t-27 42t-10.5 50.5zM225 145q0 -31 15.5 -49t38.5 -18q29 0 61.5 14t67.5 49q25 25 53 64t51 83t38 88t15 81q0 23 -3 47t-11 43.5t-23.5 33t-42.5 13.5q-20 0 -39.5 -17.5t-48.5 -52.5 q-25 -29 -54.5 -73.5t-56 -97t-44 -106.5t-17.5 -100v-2zM428 811v2q0 10 21 33q33 29 79.5 78t118.5 137q16 18 29.5 28.5t30.5 10.5q29 0 57 -29q23 -29 -12 -59q-119 -115 -192 -158t-93 -49q-16 -6 -27.5 -5t-11.5 11z" />
<glyph unicode="&#xf4;" horiz-adv-x="628" d="M106 111v2q0 55 19.5 119.5t40.5 111.5q12 23 30.5 53.5t38 61t37 55.5t25.5 35q10 16 17.5 29.5t7.5 31.5q2 23 9 36t19 24q16 18 51 18q16 0 25.5 6t19.5 17q20 31 60 30q31 0 42 -15t11 -36v-16t10 -15q37 -27 69 -77t32 -136q0 -23 -8.5 -54.5t-21.5 -68t-33.5 -73.5 t-45.5 -68q-84 -106 -178 -155.5t-166 -49.5q-18 0 -37.5 11.5t-36 30t-27 42t-10.5 50.5zM225 145q0 -31 15.5 -49t38.5 -18q29 0 61.5 14t67.5 49q25 25 53 64t51 83t38 88t15 81q0 23 -3 47t-11 43.5t-23.5 33t-42.5 13.5q-20 0 -39.5 -17.5t-48.5 -52.5 q-25 -29 -54.5 -73.5t-56 -97t-44 -106.5t-17.5 -100v-2zM328 826.5q2 13.5 18 27.5q43 39 95.5 91t90.5 112q16 25 46 24h2q14 0 21 -12t11 -27q4 -18 12.5 -43.5t19.5 -52t21.5 -48t18.5 -32.5q14 -16 11 -30.5t-13 -24.5q-14 -10 -35 -10q-20 0 -37 22q-6 8 -14 23.5 t-15.5 33t-12.5 33t-7 21.5q-8 23 -26 -2q-29 -35 -55.5 -62.5t-43.5 -42.5q-41 -37 -78 -36q-14 0 -28 14q-4 8 -2 21.5z" />
<glyph unicode="&#xf5;" horiz-adv-x="628" d="M106 111v2q0 55 19.5 119.5t40.5 111.5q12 23 30.5 53.5t38 61t37 55.5t25.5 35q10 16 17.5 29.5t7.5 31.5q2 23 9 36t19 24q16 18 51 18q16 0 25.5 6t19.5 17q20 31 60 30q31 0 42 -15t11 -36v-16t10 -15q37 -27 69 -77t32 -136q0 -23 -8.5 -54.5t-21.5 -68t-33.5 -73.5 t-45.5 -68q-84 -106 -178 -155.5t-166 -49.5q-18 0 -37.5 11.5t-36 30t-27 42t-10.5 50.5zM225 145q0 -31 15.5 -49t38.5 -18q29 0 61.5 14t67.5 49q25 25 53 64t51 83t38 88t15 81q0 23 -3 47t-11 43.5t-23.5 33t-42.5 13.5q-20 0 -39.5 -17.5t-48.5 -52.5 q-25 -29 -54.5 -73.5t-56 -97t-44 -106.5t-17.5 -100v-2zM330 883q2 20 14 44.5t31.5 47t42 38t47.5 15.5h2q25 0 45 -17.5t41 -39.5q23 -25 40 -41.5t30 -16.5q23 0 35 32t16 52q4 10 12 19.5t23 9.5q25 0 32 -22.5t2 -47.5q-6 -47 -42.5 -91t-82.5 -48q-31 -2 -54 16.5 t-54 51.5q-41 43 -57 43q-23 -2 -36.5 -34t-17.5 -52t-32 -21q-12 -2 -26.5 12.5t-10.5 49.5z" />
<glyph unicode="&#xf6;" horiz-adv-x="628" d="M106 111v2q0 55 19.5 119.5t40.5 111.5q12 23 30.5 53.5t38 61t37 55.5t25.5 35q10 16 17.5 29.5t7.5 31.5q2 23 9 36t19 24q16 18 51 18q16 0 25.5 6t19.5 17q20 31 60 30q31 0 42 -15t11 -36v-16t10 -15q37 -27 69 -77t32 -136q0 -23 -8.5 -54.5t-21.5 -68t-33.5 -73.5 t-45.5 -68q-84 -106 -178 -155.5t-166 -49.5q-18 0 -37.5 11.5t-36 30t-27 42t-10.5 50.5zM225 145q0 -31 15.5 -49t38.5 -18q29 0 61.5 14t67.5 49q25 25 53 64t51 83t38 88t15 81q0 23 -3 47t-11 43.5t-23.5 33t-42.5 13.5q-20 0 -39.5 -17.5t-48.5 -52.5 q-25 -29 -54.5 -73.5t-56 -97t-44 -106.5t-17.5 -100v-2zM336 903q0 39 24.5 57.5t59.5 18.5h2q45 0 56 -26.5t11 -45.5q0 -29 -28.5 -56.5t-54.5 -27.5q-25 0 -47.5 25.5t-22.5 54.5zM573 887q0 31 24 59.5t65 28.5h2q25 0 48 -23.5t23 -48.5q0 -35 -33.5 -57.5 t-68.5 -22.5q-16 0 -38 17.5t-22 46.5z" />
<glyph unicode="&#xf7;" horiz-adv-x="1128" d="M338 397q4 23 42 35t118 12h2q59 0 125.5 -2t128 -4t113 -4t79.5 -2q35 -2 60.5 -1t54.5 5q10 2 21.5 3t21.5 1q16 0 33.5 -15t17.5 -38q0 -31 -35 -42t-96 -11q-109 0 -219.5 4t-226.5 6q-74 2 -114 -1t-63 -11q-25 -8 -41 4q-16 10 -21 27.5t-1 33.5zM647 647 q0 35 33 61.5t68 26.5h2q12 0 23 -9t20.5 -22.5t14.5 -27.5t5 -25q0 -39 -19.5 -64.5t-50.5 -25.5q-14 0 -31.5 7t-31.5 19.5t-23.5 28t-9.5 31.5zM655 123q0 31 23.5 56.5t54.5 25.5h2q14 0 29.5 -11.5t28 -27.5t20.5 -35.5t8 -36.5q0 -14 -10 -26.5t-24.5 -21.5t-30 -14 t-27.5 -5q-29 0 -51.5 30.5t-22.5 65.5z" />
<glyph unicode="&#xf8;" horiz-adv-x="673" d="M-16 -281q2 8 13 26.5t32.5 53.5t56.5 90.5t88 135.5q16 18 6 30q-33 43 -38 87t-5 71q2 74 35 146.5t78 135t91 109.5t73 68q41 31 64.5 41t45.5 10h2q23 0 39.5 -9t30.5 -20q8 -6 18 8q70 106 115 161t80 79q23 14 35 8t16 -16t1 -22.5t-19 -28.5q-12 -16 -56.5 -67.5 t-93.5 -119.5q-10 -14 -2 -20q29 -25 38 -72t7 -82q-4 -84 -33.5 -156.5t-70.5 -133t-84 -103.5t-70 -63q-53 -43 -105.5 -66t-84.5 -23q-16 0 -37 11q-8 4 -12.5 5t-12.5 -13q-31 -47 -54.5 -86t-44 -73t-37.5 -67t-38 -65q-14 -25 -28.5 -27t-24.5 6q-27 16 -14 51z M227 197q0 -14 2 -30.5t7 -27.5q2 -6 7 -6t9 8q90 139 167 258t136 207q8 14 -6 10q-10 -6 -20.5 -6h-26.5q-29 0 -61.5 -34.5t-69.5 -79.5q-16 -20 -41 -55t-47.5 -77t-39 -85t-16.5 -80v-2zM297 90q-14 -25 6 -24h2q20 0 52 13t63 44q27 27 64.5 75t72.5 105t60.5 114.5 t27.5 104.5q2 18 1 37t-5 27q-6 20 -20 4q-27 -37 -68 -98.5t-86 -132t-90 -142.5t-80 -127z" />
<glyph unicode="&#xf9;" horiz-adv-x="905" d="M115 102q0 12 2 31t9 47.5t19.5 69.5t34.5 98q18 53 40 104.5t42.5 94.5t36.5 73.5t25 43.5q20 31 45 30q25 0 49 -17.5t24 -41.5q0 -10 -7 -26.5t-17 -34t-20.5 -33t-16.5 -21.5q-10 -16 -24.5 -27.5t-24.5 -29.5q-12 -25 -29.5 -70t-46.5 -127q-27 -72 -18.5 -102.5 t30.5 -30.5q39 0 93.5 51.5t148.5 157.5q37 43 72.5 91t65.5 91t52.5 79t36.5 59q25 41 39.5 53t26.5 12q23 0 41 -25.5t8 -50.5q-4 -16 -11 -30.5t-18 -36.5q-45 -92 -73.5 -191.5t-44.5 -173.5q-16 -72 -7 -96.5t29 -24.5h2q29 0 81 35t111.5 88t121 113.5t108.5 114.5 q23 27 33 2q10 -27 -25 -72q-117 -152 -220 -237t-157 -115q-47 -29 -78.5 -37t-50.5 -8q-35 0 -56.5 46t1.5 150q8 51 21.5 99.5t21.5 72.5q4 16 -1 20.5t-17 -12.5q-41 -55 -89.5 -107t-97.5 -97t-94 -80t-80 -56q-51 -31 -86 -30q-23 0 -42 32.5t-19 81.5zM418 1032 q8 16 22.5 25.5t26.5 9.5h2q31 0 49 -39q23 -45 41.5 -85t34.5 -62q16 -29 26.5 -50.5t14.5 -31.5q6 -20 -6.5 -25.5t-32.5 8.5q-35 27 -84 76t-86 100q-27 43 -8 74z" />
<glyph unicode="&#xfa;" horiz-adv-x="905" d="M115 102q0 12 2 31t9 47.5t19.5 69.5t34.5 98q18 53 40 104.5t42.5 94.5t36.5 73.5t25 43.5q20 31 45 30q25 0 49 -17.5t24 -41.5q0 -10 -7 -26.5t-17 -34t-20.5 -33t-16.5 -21.5q-10 -16 -24.5 -27.5t-24.5 -29.5q-12 -25 -29.5 -70t-46.5 -127q-27 -72 -18.5 -102.5 t30.5 -30.5q39 0 93.5 51.5t148.5 157.5q37 43 72.5 91t65.5 91t52.5 79t36.5 59q25 41 39.5 53t26.5 12q23 0 41 -25.5t8 -50.5q-4 -16 -11 -30.5t-18 -36.5q-45 -92 -73.5 -191.5t-44.5 -173.5q-16 -72 -7 -96.5t29 -24.5h2q29 0 81 35t111.5 88t121 113.5t108.5 114.5 q23 27 33 2q10 -27 -25 -72q-117 -152 -220 -237t-157 -115q-47 -29 -78.5 -37t-50.5 -8q-35 0 -56.5 46t1.5 150q8 51 21.5 99.5t21.5 72.5q4 16 -1 20.5t-17 -12.5q-41 -55 -89.5 -107t-97.5 -97t-94 -80t-80 -56q-51 -31 -86 -30q-23 0 -42 32.5t-19 81.5zM510 776v2 q0 12 22 33q31 29 78 78t119 137q16 18 29.5 28.5t29.5 10.5q31 0 56 -29t-10 -59q-119 -115 -192 -158t-93 -49q-16 -6 -27.5 -5t-11.5 11z" />
<glyph unicode="&#xfb;" horiz-adv-x="905" d="M115 102q0 12 2 31t9 47.5t19.5 69.5t34.5 98q18 53 40 104.5t42.5 94.5t36.5 73.5t25 43.5q20 31 45 30q25 0 49 -17.5t24 -41.5q0 -10 -7 -26.5t-17 -34t-20.5 -33t-16.5 -21.5q-10 -16 -24.5 -27.5t-24.5 -29.5q-12 -25 -29.5 -70t-46.5 -127q-27 -72 -18.5 -102.5 t30.5 -30.5q39 0 93.5 51.5t148.5 157.5q37 43 72.5 91t65.5 91t52.5 79t36.5 59q25 41 39.5 53t26.5 12q23 0 41 -25.5t8 -50.5q-4 -16 -11 -30.5t-18 -36.5q-45 -92 -73.5 -191.5t-44.5 -173.5q-16 -72 -7 -96.5t29 -24.5h2q29 0 81 35t111.5 88t121 113.5t108.5 114.5 q23 27 33 2q10 -27 -25 -72q-117 -152 -220 -237t-157 -115q-47 -29 -78.5 -37t-50.5 -8q-35 0 -56.5 46t1.5 150q8 51 21.5 99.5t21.5 72.5q4 16 -1 20.5t-17 -12.5q-41 -55 -89.5 -107t-97.5 -97t-94 -80t-80 -56q-51 -31 -86 -30q-23 0 -42 32.5t-19 81.5zM416 805 q-14 23 14 49q43 39 95.5 91t90.5 112q16 25 46 24h2q12 0 19 -11t11 -28q4 -18 13.5 -43.5t20.5 -51t21.5 -48t18.5 -31.5q12 -18 9 -32.5t-11 -22.5q-16 -10 -37 -10q-18 0 -37 20q-6 8 -13 24.5t-14.5 34t-12.5 33t-7 21.5q-8 20 -27 -2q-29 -37 -55 -64.5t-43 -42.5 q-18 -16 -39.5 -25t-38.5 -9q-14 0 -26 12z" />
<glyph unicode="&#xfc;" horiz-adv-x="905" d="M115 102q0 12 2 31t9 47.5t19.5 69.5t34.5 98q18 53 40 104.5t42.5 94.5t36.5 73.5t25 43.5q20 31 45 30q25 0 49 -17.5t24 -41.5q0 -10 -7 -26.5t-17 -34t-20.5 -33t-16.5 -21.5q-10 -16 -24.5 -27.5t-24.5 -29.5q-12 -25 -29.5 -70t-46.5 -127q-27 -72 -18.5 -102.5 t30.5 -30.5q39 0 93.5 51.5t148.5 157.5q37 43 72.5 91t65.5 91t52.5 79t36.5 59q25 41 39.5 53t26.5 12q23 0 41 -25.5t8 -50.5q-4 -16 -11 -30.5t-18 -36.5q-45 -92 -73.5 -191.5t-44.5 -173.5q-16 -72 -7 -96.5t29 -24.5h2q29 0 81 35t111.5 88t121 113.5t108.5 114.5 q23 27 33 2q10 -27 -25 -72q-117 -152 -220 -237t-157 -115q-47 -29 -78.5 -37t-50.5 -8q-35 0 -56.5 46t1.5 150q8 51 21.5 99.5t21.5 72.5q4 16 -1 20.5t-17 -12.5q-41 -55 -89.5 -107t-97.5 -97t-94 -80t-80 -56q-51 -31 -86 -30q-23 0 -42 32.5t-19 81.5zM422 901 q0 39 24.5 57.5t59.5 18.5h2q45 0 56 -26.5t11 -45.5q0 -29 -28.5 -56.5t-54.5 -27.5q-25 0 -47.5 25.5t-22.5 54.5zM659 885q0 29 24 58.5t65 29.5h2q25 0 48 -23.5t23 -48.5q0 -35 -33.5 -57.5t-68.5 -22.5q-16 0 -38 17.5t-22 46.5z" />
<glyph unicode="&#xfd;" horiz-adv-x="585" d="M-274 -664q6 27 18 49.5t39 57.5q31 41 51.5 55.5t32.5 18.5q20 6 33 28q4 8 16 28.5t31.5 49.5t43 61.5t48.5 63.5q16 20 46 59t63.5 83t63.5 83t46 60q12 12 -4 8q-27 -8 -45 -8q-29 0 -41 42t-10 140l12 274q2 33 0 47.5t-4 24.5q-4 14 -3 31.5t9 34.5q6 12 14.5 28.5 t18.5 31.5t22.5 26.5t24.5 11.5q14 0 22.5 -18.5t12.5 -45t4 -55t-2 -49.5q-2 -25 -6 -69t-9.5 -91t-9.5 -91t-6 -68q-4 -57 8.5 -83t28.5 -26q33 0 92 71.5t141 221.5q33 57 38 81.5t3 37.5q-2 16 -1 31.5t14 35.5q14 23 23 42.5t26 47.5q10 23 21.5 30t23.5 7 q16 0 32.5 -25.5t16.5 -52.5q0 -16 -9 -53t-28 -78q-12 -29 -39.5 -82t-63.5 -113.5t-75 -119.5t-74 -102q-170 -207 -273.5 -344.5t-133.5 -180.5q-14 -25 -4 -26q35 -10 34 -33q0 -16 -19.5 -33.5t-44 -33t-48 -29t-33.5 -19.5q-27 -10 -39 -22.5t-22 -28.5 q-23 -35 -42.5 -55.5t-46.5 -20.5q-23 0 -35 14.5t-3 38.5zM369 766v2q0 12 22 35q31 29 78 78t119 137q16 18 29.5 28.5t29.5 10.5q33 0 58 -29q20 -29 -11 -59q-119 -115 -192.5 -159t-93.5 -50q-16 -4 -27.5 -4t-11.5 10z" />
<glyph unicode="&#xfe;" horiz-adv-x="788" d="M-121 -526q43 117 89 244.5t87 244.5q18 57 55 178t86.5 274.5t104.5 324.5t109 329q6 20 3 23.5t-20 -2.5q-25 -10 -52.5 -29t-35.5 -25q-23 -16 -53 15q-14 14 -12 31.5t12 33.5q8 12 20.5 21.5t28.5 11.5q6 0 25.5 6t43 13.5t44 15.5t28.5 12q10 4 16.5 12.5 t12.5 24.5q8 23 19.5 31t21.5 8q16 0 35.5 -10.5t30.5 -32.5q16 -39 -11 -64l-32 -32t-13 -23q-23 -59 -46 -132t-49 -150.5t-52.5 -158.5t-50.5 -159q-6 -20 -3 -25.5t13 4.5q16 18 44 45t59.5 53.5t64.5 51.5t57 39q55 33 84 33h2q18 0 33.5 -17.5t26 -42t15.5 -49 t5 -39.5q-2 -59 -19.5 -113.5t-58.5 -119.5q-20 -37 15 -25q74 25 145.5 57.5t130.5 65.5t99 58.5t50 33.5q23 20 25 2t-14 -37q-57 -59 -138 -109t-161 -89t-145.5 -65.5t-90.5 -39.5q-66 -33 -119 -65.5t-94 -61t-68.5 -48t-41.5 -25.5q-41 -18 -60 0q-14 10 -24 -17 q-25 -66 -44.5 -116t-36 -96t-31.5 -92t-34 -101q-20 -57 27 -58q39 0 78 12.5t63 26.5q18 10 23.5 0t-8.5 -30t-39 -44t-66 -47q-18 -12 -43 -21t-48.5 -17.5t-44 -12.5t-28.5 -4q-25 0 -45 41q-12 35 0 68zM206 82q5 -8 21 6q10 8 28.5 20.5t41 25.5t46.5 27.5t44 26.5 q51 31 94 70t74 82t48.5 87t17.5 83q0 29 -8.5 55.5t-28.5 26.5h-2q-16 0 -50 -21.5t-75 -62.5q-47 -47 -82 -86t-62.5 -83t-52 -97.5t-51.5 -126.5q-8 -25 -3 -33z" />
<glyph unicode="&#xff;" horiz-adv-x="585" d="M-274 -664q6 27 18 49.5t39 57.5q31 41 51.5 55.5t32.5 18.5q20 6 33 28q4 8 16 28.5t31.5 49.5t43 61.5t48.5 63.5q16 20 46 59t63.5 83t63.5 83t46 60q12 12 -4 8q-27 -8 -45 -8q-29 0 -41 42t-10 140l12 274q2 33 0 47.5t-4 24.5q-4 14 -3 31.5t9 34.5q6 12 14.5 28.5 t18.5 31.5t22.5 26.5t24.5 11.5q14 0 22.5 -18.5t12.5 -45t4 -55t-2 -49.5q-2 -25 -6 -69t-9.5 -91t-9.5 -91t-6 -68q-4 -57 8.5 -83t28.5 -26q33 0 92 71.5t141 221.5q33 57 38 81.5t3 37.5q-2 16 -1 31.5t14 35.5q14 23 23 42.5t26 47.5q10 23 21.5 30t23.5 7 q16 0 32.5 -25.5t16.5 -52.5q0 -16 -9 -53t-28 -78q-12 -29 -39.5 -82t-63.5 -113.5t-75 -119.5t-74 -102q-170 -207 -273.5 -344.5t-133.5 -180.5q-14 -25 -4 -26q35 -10 34 -33q0 -16 -19.5 -33.5t-44 -33t-48 -29t-33.5 -19.5q-27 -10 -39 -22.5t-22 -28.5 q-23 -35 -42.5 -55.5t-46.5 -20.5q-23 0 -35 14.5t-3 38.5zM279 905q0 39 24.5 57.5t58.5 18.5h3q45 0 56 -26.5t11 -45.5q0 -29 -28.5 -56.5t-55.5 -27.5q-25 0 -47 26t-22 54zM516 889q0 31 23.5 59.5t64.5 28.5h2q25 0 48.5 -23.5t23.5 -48.5q0 -35 -34 -57.5t-69 -22.5 q-16 0 -37.5 17.5t-21.5 46.5z" />
<glyph unicode="&#x152;" horiz-adv-x="1464" d="M174 225q0 59 19.5 134t51 151t73.5 144.5t85 113.5q37 37 81 71.5t92.5 62.5t99.5 45.5t102 17.5h2q33 0 53.5 -15.5t38.5 -21.5q35 -14 60.5 -35t40.5 -43q23 -35 31 -10q4 16 11 31.5t15 37.5q10 25 26.5 43.5t39.5 18.5q25 0 41 -14.5t12 -43.5q-4 -14 1 -18t21 -8 q29 -6 71 -10.5t112 -4.5q63 0 109 1t69 4q16 4 31.5 3t21.5 -6q18 -10 -8 -30q-53 -35 -128 -47.5t-153 -12.5q-45 0 -89 2t-64 2q-35 0 -51 -38q-29 -66 -48.5 -122.5t-27.5 -80.5q-8 -23 -5 -32t21 -11q12 0 70.5 -1t129.5 -1h132t80 4q29 4 29 -10.5t-25 -30.5 q-12 -8 -37 -16.5t-53.5 -15.5t-61 -12t-59.5 -7q-31 -2 -65.5 -4t-68.5 -4.5t-60.5 -3.5t-38.5 -1q-23 0 -31 -9t-19 -32q-29 -72 -34 -141q-6 -47 6 -70.5t47 -37.5q29 -12 87 -23.5t140 -11.5q96 0 175 19.5t122 35.5q20 8 29.5 6t8.5 -10t-9 -17.5t-21 -17.5 q-74 -47 -173 -78.5t-222 -31.5q-82 0 -145.5 11t-100.5 27t-49 53.5t-6 90.5q2 10 -2 15t-19 -9q-10 -8 -35.5 -28.5t-59.5 -45t-70.5 -48t-67.5 -38.5q-66 -31 -101.5 -41t-64.5 -10q-27 0 -67.5 20.5t-73.5 59.5q-39 45 -56.5 86t-17.5 100zM307 231q0 -70 33 -119 t104 -49q68 0 193 84q59 43 118.5 101.5t94.5 130.5q16 35 32.5 78t30 85t22.5 76.5t11 53.5q6 53 -19.5 98t-66.5 68q-18 10 -26.5 10t-24.5 -10q-35 -23 -61 -2q-23 25 -48 24h-2q-20 0 -48.5 -14.5t-61.5 -42.5q-135 -127 -208 -265.5t-73 -306.5z" />
<glyph unicode="&#x153;" horiz-adv-x="995" d="M100 109q0 49 16.5 106t44 114.5t63.5 111t75 96.5q20 23 53 52t69 55t72.5 44.5t65.5 18.5q23 0 31 -19q4 -6 6 -13t10 -11q37 -16 48.5 -46t17.5 -63q4 -16 11 -15t17 13q72 78 129.5 104.5t85.5 26.5q16 0 29 12q14 14 35 15q20 0 37.5 -11.5t31 -29t20.5 -38t7 -38.5 v-2q0 -31 -17.5 -60.5t-42 -57.5t-54 -50.5t-54.5 -36.5q-49 -29 -101 -52.5t-126 -45.5q-33 -14 -41 -37q-10 -27 -10 -74q-2 -45 24.5 -64.5t51.5 -19.5q45 0 95 20.5t96 50.5t85 60.5t61 50.5q14 12 24.5 12.5t8.5 -14.5q0 -10 -4 -23t-12 -24q-6 -12 -25.5 -33.5 t-47.5 -47t-63.5 -52t-74.5 -49.5q-66 -37 -113 -50t-76 -13t-50 11t-36.5 29.5t-26.5 42t-20 48.5q-6 31 -28 12q-23 -16 -60 -43t-78 -51.5t-82.5 -43t-74.5 -18.5q-35 0 -69 40t-34 100zM221 160q0 -31 15.5 -53.5t39.5 -22.5h3q18 0 43.5 10t64.5 39q98 66 152.5 155 t54.5 195q0 27 -5 57.5t-28 30.5q-10 0 -26 -8q-10 -4 -22.5 -1t-25.5 3q-29 0 -61 -26q-14 -10 -48 -49t-69 -93.5t-61.5 -117t-26.5 -119.5zM703.5 389.5q-1.5 -8.5 13.5 -4.5q27 8 69.5 24.5t82.5 40t69 53t29 64.5v2q0 14 -9.5 27.5t-29.5 13.5q-35 0 -70 -21.5 t-64.5 -52t-52 -65.5t-32.5 -61q-4 -12 -5.5 -20.5z" />
<glyph unicode="&#x178;" horiz-adv-x="878" d="M315.5 36.5q6.5 22.5 49.5 45.5q20 10 27 18.5t11 28.5q16 63 26.5 105t16.5 73q10 47 12.5 82t-7.5 78q-6 23 -19.5 62.5t-30 89t-36 102.5t-33.5 100q-10 31 -10 53.5t6 38t16 25.5t21 16q27 20 67 21q29 0 23 -49q-4 -29 2 -81t19 -110.5t29.5 -114t33.5 -88.5 q10 -16 26 0q25 23 71 58t96 71.5t95 70.5t68 54q45 39 55.5 75t12.5 63q2 20 13 33.5t28 13.5q33 0 59.5 -29t26.5 -63v-2q0 -20 -20.5 -47t-53.5 -54q-35 -25 -115 -86t-168 -139q-78 -68 -113.5 -113t-54.5 -96q-14 -39 -23.5 -86t-21.5 -119q-6 -33 19 -35 q55 -10 98 -24.5t43 -30.5q0 -14 -28.5 -20.5t-71.5 -8.5q-78 -4 -107 -13t-43 -23q-8 -10 -18.5 -13.5t-20.5 -3.5q-23 0 -42 10.5t-30 22.5q-10 16 -3.5 38.5zM524 1083q0 37 24.5 55.5t59.5 18.5h2q45 0 56.5 -26.5t11.5 -43.5q0 -29 -28.5 -57.5t-55.5 -28.5 q-25 0 -47.5 26t-22.5 56zM762 1065q0 29 23.5 59.5t64.5 30.5h2q25 0 48.5 -24.5t23.5 -49.5q0 -35 -34 -57.5t-69 -22.5q-16 0 -37.5 17.5t-21.5 46.5z" />
<glyph unicode="&#x2c6;" horiz-adv-x="761" d="M432 827.5q2 12.5 19 26.5q43 39 95 92t91 113q16 25 45 24h2q14 0 21.5 -12t11.5 -27q4 -18 12 -43.5t19.5 -52t21.5 -49t18 -31.5q14 -16 11.5 -31.5t-13.5 -23.5q-14 -10 -34 -10q-23 0 -37 22q-6 8 -14.5 23.5t-15.5 33t-12 33t-7 21.5q-8 23 -27 -2 q-29 -35 -55.5 -63.5t-42.5 -41.5q-41 -37 -78 -36q-16 0 -27 14q-6 8 -4 20.5z" />
<glyph unicode="&#x2dc;" horiz-adv-x="761" d="M444 895q2 18 14.5 44t32 47.5t42 36.5t47.5 15h2q25 0 46 -17t40 -40q23 -23 40 -39t29 -16q23 0 35 30.5t16 51.5q4 10 12.5 19t22.5 9q25 0 32 -22.5t3 -44.5q-2 -23 -13 -47.5t-28.5 -44t-39 -33t-44.5 -15.5q-31 -2 -54.5 16.5t-53.5 49.5q-41 43 -58 43 q-23 -2 -36 -33t-17 -53q-4 -20 -33 -21q-12 -2 -26.5 13.5t-10.5 50.5z" />
<glyph unicode="&#x2000;" horiz-adv-x="768" />
<glyph unicode="&#x2001;" horiz-adv-x="1536" />
<glyph unicode="&#x2002;" horiz-adv-x="768" />
<glyph unicode="&#x2003;" horiz-adv-x="1536" />
<glyph unicode="&#x2004;" horiz-adv-x="512" />
<glyph unicode="&#x2005;" horiz-adv-x="384" />
<glyph unicode="&#x2006;" horiz-adv-x="256" />
<glyph unicode="&#x2007;" horiz-adv-x="256" />
<glyph unicode="&#x2008;" horiz-adv-x="192" />
<glyph unicode="&#x2009;" horiz-adv-x="307" />
<glyph unicode="&#x200a;" horiz-adv-x="85" />
<glyph unicode="&#x2010;" horiz-adv-x="536" d="M174 258q-10 14 10 45q29 49 113 74q12 4 49 14t79 21.5t80 19.5t54 8q27 0 27 -18v-2q0 -20 -24.5 -49t-65.5 -39q-70 -20 -148 -41t-139 -39q-25 -6 -35 6z" />
<glyph unicode="&#x2011;" horiz-adv-x="536" d="M174 258q-10 14 10 45q29 49 113 74q12 4 49 14t79 21.5t80 19.5t54 8q27 0 27 -18v-2q0 -20 -24.5 -49t-65.5 -39q-70 -20 -148 -41t-139 -39q-25 -6 -35 6z" />
<glyph unicode="&#x2012;" horiz-adv-x="536" d="M174 258q-10 14 10 45q29 49 113 74q12 4 49 14t79 21.5t80 19.5t54 8q27 0 27 -18v-2q0 -20 -24.5 -49t-65.5 -39q-70 -20 -148 -41t-139 -39q-25 -6 -35 6z" />
<glyph unicode="&#x2013;" horiz-adv-x="999" d="M203 319q-33 33 8 64q16 10 33.5 12t29.5 2h2q129 0 259.5 -2t261.5 -2h56t48 -4q31 -4 46.5 -18.5t15.5 -34.5q0 -16 -14.5 -27.5t-37.5 -11.5q-16 0 -36.5 1t-49.5 3q-123 2 -241.5 2h-229.5h-29.5t-29.5 -4q-14 -2 -23.5 -3t-19.5 -1q-20 0 -49 24z" />
<glyph unicode="&#x2014;" horiz-adv-x="1998" d="M231 322q-31 37 7 61q16 12 33.5 14t29.5 2h2h105.5t172 -1t218.5 -2t240.5 -1t239.5 -1t217 -2t173 -1h107q35 0 56 -1t48 -1q31 -4 46.5 -19.5t15.5 -31.5t-19.5 -29.5t-36.5 -13.5q-16 0 -36.5 2t-49.5 4q-29 0 -100.5 1t-167.5 1t-212 1t-234.5 1h-234.5h-212h-166 h-98h-34t-26 -4q-14 -4 -21 -4h-18q-20 0 -45 25z" />
<glyph unicode="&#x2018;" horiz-adv-x="251" d="M279 829q0 53 36.5 109.5t92.5 89.5q18 12 48.5 26.5t47.5 14.5q10 0 21.5 -4t11.5 -16q0 -10 -10.5 -19.5t-26.5 -15.5q-33 -16 -76 -52t-53 -77q-2 -16 20 -17q25 -2 40 -16t15 -37q0 -33 -29.5 -62.5t-64.5 -29.5h-2q-33 0 -52 34t-19 72z" />
<glyph unicode="&#x2019;" horiz-adv-x="251" d="M260 737q0 10 16.5 21.5t30.5 19.5q82 27 123 111q18 25 -8 24q-23 0 -42.5 14.5t-19.5 41.5q0 29 28 61.5t63 32.5h2q35 0 53 -33t18 -67q0 -72 -39 -125.5t-96 -87.5q-25 -16 -50.5 -24.5t-37.5 -8.5q-14 0 -27.5 3t-13.5 17z" />
<glyph unicode="&#x201a;" horiz-adv-x="294" d="M-20 -174q0 10 16 21.5t33 17.5q80 31 121 110q16 25 -9 25q-23 0 -42 15.5t-19 41.5q0 31 28.5 63t61.5 32h2q37 0 54.5 -33t17.5 -68q0 -70 -39 -125t-94 -90q-27 -16 -53.5 -23.5t-39.5 -7.5q-12 0 -25 4.5t-13 16.5z" />
<glyph unicode="&#x201c;" horiz-adv-x="489" d="M279 829q0 53 36.5 109.5t90.5 89.5q20 16 50.5 28.5t47.5 12.5q10 0 21.5 -4t11.5 -16q0 -10 -10.5 -19.5t-26.5 -15.5q-33 -16 -76 -52t-53 -77q-2 -16 20 -17q25 -2 40 -16t15 -37q0 -33 -29.5 -62.5t-64.5 -29.5h-2q-33 0 -52 34t-19 72zM518 825q0 68 39 119t96 86 q23 16 47.5 25.5t38.5 9.5q10 0 22.5 -4t12.5 -14q0 -12 -15.5 -22.5t-25.5 -16.5q-18 -6 -36.5 -19.5t-36 -29t-30 -33t-18.5 -31.5q-10 -23 19 -27q20 -2 35.5 -15t15.5 -36q0 -14 -7 -30.5t-19.5 -31t-29 -23.5t-32.5 -9h-2q-39 0 -56.5 34t-17.5 68z" />
<glyph unicode="&#x201d;" horiz-adv-x="495" d="M260 737q0 10 16.5 22.5t30.5 18.5q82 27 123 111q18 25 -8 24q-23 0 -42.5 14.5t-19.5 41.5q0 29 28 61.5t63 32.5h2q35 0 53 -33t18 -67q0 -72 -39 -125.5t-96 -87.5q-25 -16 -50.5 -24.5t-37.5 -8.5q-14 0 -27.5 3t-13.5 17zM522 739q0 10 10.5 19.5t20.5 15.5 q12 6 33.5 22.5t42 36t36 39t15.5 33.5t-29 19q-47 6 -47 49q0 33 27.5 61.5t64.5 28.5h2q35 0 55.5 -36t20.5 -73q0 -49 -37 -103t-90 -89q-18 -10 -48 -25.5t-48 -15.5q-10 0 -19.5 4t-9.5 14z" />
<glyph unicode="&#x201e;" horiz-adv-x="524" d="M-20 -174q0 10 16 21.5t33 17.5q80 31 121 110q16 25 -9 25q-23 0 -42 15.5t-19 41.5q0 31 28.5 63t61.5 32h2q37 0 54.5 -33t17.5 -68q0 -70 -38 -125t-93 -90q-27 -16 -54.5 -23.5t-40.5 -7.5q-12 0 -25 4.5t-13 16.5zM242 -170q0 10 10 17.5t20 13.5q12 8 43 29.5 t60 54.5q25 33 24 47q0 16 -28 20q-47 6 -47 47q0 35 27.5 64t64.5 29h2q35 0 55.5 -35t20.5 -74q0 -49 -37 -103.5t-90 -89.5q-16 -12 -47 -26t-50 -14q-10 0 -18 5t-10 15z" />
<glyph unicode="&#x2022;" horiz-adv-x="423" d="M211 362q0 23 13.5 51.5t34 53.5t46 42t49.5 17h2q23 0 44.5 -12t38 -29.5t26.5 -38t10 -38.5q0 -23 -15.5 -47.5t-40 -44t-55 -33t-63.5 -13.5q-12 0 -28.5 8.5t-30 20.5t-22.5 28.5t-9 34.5z" />
<glyph unicode="&#x2026;" horiz-adv-x="1998" d="M227 43q0 18 9.5 36.5t22.5 34t30.5 26t34.5 10.5h2q29 0 54.5 -25t25.5 -47q0 -16 -11.5 -34.5t-28 -33t-38 -24t-41.5 -9.5q-23 0 -41.5 21.5t-18.5 44.5zM893 47q0 14 9 32.5t23.5 36t33 29t36.5 11.5q29 0 54.5 -31t25.5 -59q0 -35 -40 -62t-81 -27h-2 q-20 0 -39.5 20.5t-19.5 49.5zM1559 39q0 16 8 35.5t22.5 36t31.5 28t34 11.5q14 0 28.5 -8.5t26.5 -19.5t19.5 -24.5t7.5 -23.5q0 -37 -35 -67t-82 -30h-2q-18 0 -38.5 20.5t-20.5 41.5z" />
<glyph unicode="&#x202f;" horiz-adv-x="307" />
<glyph unicode="&#x2039;" horiz-adv-x="696" d="M287 301v2q0 10 15 32.5t48 47.5q14 12 53 45t83 71t84 72.5t59 51.5q16 12 25.5 18t19.5 6q12 0 15 -18.5t-1 -30.5q-6 -25 -26 -51q-6 -8 -35 -34t-64 -55.5t-66.5 -57t-43.5 -38.5q-16 -16 -16.5 -26t16.5 -25q8 -6 26.5 -24.5t39 -42t38.5 -46t27 -36.5 q23 -31 25.5 -65t-27.5 -50q-27 -12 -39 16q-10 20 -30.5 47t-44.5 53.5t-49.5 49.5t-43.5 35q-31 16 -49 14q-16 -2 -27.5 9.5t-11.5 29.5z" />
<glyph unicode="&#x203a;" horiz-adv-x="552" d="M139 86q2 18 19.5 35.5t40.5 30.5q37 27 64.5 47t51 40.5t47 42t50.5 48.5q8 12 12 21t-4 20q-6 6 -19.5 23.5t-30 40t-36 47t-33.5 42.5q-20 29 -26.5 44.5t-6.5 23.5q0 16 19.5 27.5t36.5 11.5q23 0 36 -16.5t27 -43.5q29 -53 48.5 -82.5t43.5 -52.5q35 -39 56 -41 q14 -2 22 -17.5t8 -27.5v-2q0 -27 -30 -41q-43 -25 -68 -41t-45.5 -32.5t-44 -38t-64.5 -54.5q-8 -10 -14 -16t-10 -14q-8 -14 -27 -31q-12 -8 -25.5 -16.5t-31.5 -18.5q-16 -10 -27.5 -7t-21.5 9q-20 16 -17 39z" />
<glyph unicode="&#x205f;" horiz-adv-x="384" />
<glyph unicode="&#x2122;" horiz-adv-x="1089" d="M299 838q2 12 10 22t21 21q14 10 53 24.5t106 14.5q43 0 90.5 -2.5t65.5 -2.5q14 0 24.5 5.5t20.5 15.5q18 12 31 6q8 -4 22 -16q16 -14 5 -39q-4 -12 -14.5 -25.5t-20.5 -23.5q-23 -18 -33 0q-4 8 -12.5 13t-24.5 3q-16 2 -37.5 3t-38.5 1q-18 0 -28 -20 q-4 -14 -19.5 -54.5t-34.5 -109.5q-4 -16 7 -21q6 -2 16 -4t24 -4q14 0 19.5 -7t-8.5 -17q-6 -4 -20.5 -10.5t-33 -10.5t-38 -7t-33.5 -3h-2q-23 0 -43 16q-8 6 -5 16.5t7 20.5q4 8 12 11t14 3q4 0 17 35q2 10 8 30.5t12 43t12.5 42t10.5 30.5q2 18 -10 18q-23 0 -48.5 -6 t-48.5 -25q-16 -14 -32 -14q-14 0 -19.5 9t-3.5 18zM682 623.5q2 11.5 6 21.5q6 10 20.5 26.5t24.5 28.5q6 6 17.5 31t24.5 53.5t23.5 54t12.5 35.5q4 14 9 26.5t9 19.5q10 14 17.5 17t21.5 3h2q14 0 29 -14q10 -8 15.5 -21.5t11.5 -48.5q8 -35 13 -66.5t13 -60.5 q2 -6 6.5 -7t8.5 5q12 12 32.5 33.5t40 43t37 40t25.5 26.5q12 12 16 19.5t6 13.5q4 12 19.5 26.5t30.5 14.5q16 0 27 -9t16 -20q4 -23 -7 -38q-6 -12 -8 -19.5t-4 -13.5q0 -10 -3 -35t-5 -52.5t-3 -51t-1 -29.5q0 -23 22 -10q8 6 25.5 17t34.5 24q14 14 18 8t2 -17 q-2 -27 -33 -49q-10 -10 -32.5 -27.5t-36.5 -27.5q-16 -10 -27.5 -14.5t-23.5 -4.5q-18 0 -23.5 19.5t-1.5 46.5q2 12 4 31.5t4 43t4 45t4 36.5q2 10 -2 12t-10 -8q-10 -10 -29.5 -31.5t-39 -45.5t-36 -42t-20.5 -23q-4 -8 -12 -20t-14 -23q-4 -10 -17.5 -20t-23.5 -10 t-17.5 12t-11.5 43q-4 39 -13.5 88t-13.5 78q-4 20 -16 -2q-12 -33 -25.5 -56.5t-19.5 -37.5q-4 -12 -9 -28.5t-10 -35.5q0 -8 -5 -17t-21 -22q-23 -16 -33 -21t-18 -5q-16 0 -25 18q-4 12 -2 23.5z" />
<glyph unicode="&#x25fc;" horiz-adv-x="737" d="M0 0v737h737v-737h-737z" />
</font>
</defs>
</svg>
