<?xml version="1.0" standalone="no"?>
<!DOCTYPE svg PUBLIC "-//W3C//DTD SVG 1.1//EN" "http://www.w3.org/Graphics/SVG/1.1/DTD/svg11.dtd" >
<svg>
<metadata>
Created by FontForge 20090622 at Fri Jun 14 05:18:39 2019
 By deploy user
Copyright &#194;&#169; 2000 Adobe Systems Incorporated. All Rights Reserved. U.S. Patent Des. pending.
</metadata>
<defs>
<font id="MyriadPro-Light" horiz-adv-x="300" >
  <font-face 
    font-family="Myriad Pro Light"
    font-weight="300"
    font-stretch="normal"
    units-per-em="1000"
    panose-1="2 11 4 3 3 4 3 2 2 4"
    ascent="750"
    descent="-250"
    x-height="480"
    cap-height="674"
    bbox="-49 -250 1046 883"
    underline-thickness="50"
    underline-position="-50"
    unicode-range="U+0020-U+FB04"
  />
<missing-glyph horiz-adv-x="500" 
d="M0 0v700h500v-700h-500zM250 395l170 255h-340zM280 350l170 -255v510zM80 50h340l-170 255zM50 605v-510l170 255z" />
    <glyph glyph-name="f_f_j" unicode="ffj" horiz-adv-x="762" 
d="M658 688l-22 -37q-39 30 -97 30q-128 0 -128 -173v-28h272v-447q0 -69 -11 -113.5t-40 -76.5q-46 -49 -127 -52l-6 39q68 3 100 40q20 24 28 64t8 131v376h-224v-441h-48v441h-231v-441h-48v441h-69v39h69v23q0 106 55 165q43 43 110 43q44 0 85 -24l-18 -38
q-36 22 -71 22q-48 0 -74 -31q-39 -42 -39 -140v-20h231v31q0 96 46.5 153t138.5 57q30 0 61.5 -9.5t48.5 -23.5z" />
    <glyph glyph-name="f_j" unicode="fj" horiz-adv-x="483" 
d="M132 0h-48v441h-69v39h69v31q0 96 46.5 153t137.5 57q30 0 61.5 -9.5t48.5 -23.5l-22 -37q-39 30 -97 30q-127 0 -127 -173v-28h271v-447q0 -69 -11 -113.5t-40 -76.5q-46 -49 -126 -52l-6 39q67 3 99 40q20 24 28 64t8 131v376h-223v-441z" />
    <glyph glyph-name="ff" unicode="ff" horiz-adv-x="542" 
d="M411 0h-48v441h-231v-441h-48v441h-69v39h69v19q0 119 54 173q39 39 104 39q41 0 71 -19l-16 -37q-28 16 -60 16q-105 0 -105 -167v-24h231v26q0 120 53 173q43 42 107 42q44 0 72 -17l-15 -36q-26 13 -61 13q-62 0 -85 -47t-23 -127v-27h128v-39h-128v-441z" />
    <glyph glyph-name="fi" unicode="fi" horiz-adv-x="484" 
d="M132 0h-48v441h-69v39h69v31q0 96 46.5 153t137.5 57q30 0 61.5 -9.5t48.5 -23.5l-22 -37q-39 30 -97 30q-127 0 -127 -173v-28h271v-480h-48v441h-223v-441z" />
    <glyph glyph-name="fl" unicode="fl" horiz-adv-x="484" 
d="M132 0h-48v441h-69v39h69v21q0 114 65 175q50 45 136 45q68 0 118 -26v-695h-48v666q-28 15 -81 15q-76 0 -109 -48t-33 -125v-28h128v-39h-128v-441z" />
    <glyph glyph-name="ffi" unicode="ffi" horiz-adv-x="763" 
d="M658 688l-22 -37q-39 30 -97 30q-128 0 -128 -173v-28h272v-480h-48v441h-224v-441h-48v441h-231v-441h-48v441h-69v39h69v23q0 106 55 165q43 43 110 43q44 0 85 -24l-18 -38q-36 22 -71 22q-48 0 -74 -31q-39 -42 -39 -140v-20h231v31q0 96 46.5 153t138.5 57
q30 0 61.5 -9.5t48.5 -23.5z" />
    <glyph glyph-name="ffl" unicode="ffl" horiz-adv-x="763" 
d="M334 690l-19 -38q-32 19 -69 19q-47 0 -75 -31q-39 -42 -39 -139v-21h231v21q0 114 65 175q51 45 136 45q69 0 119 -26v-695h-48v666q-28 15 -81 15q-77 0 -110 -48t-33 -125v-28h128v-39h-128v-441h-48v441h-231v-441h-48v441h-69v39h69v14q0 117 54 174q43 43 112 43
q45 0 84 -21z" />
    <glyph glyph-name=".notdef" horiz-adv-x="500" 
d="M0 0v700h500v-700h-500zM250 395l170 255h-340zM280 350l170 -255v510zM80 50h340l-170 255zM50 605v-510l170 255z" />
    <glyph glyph-name=".null" horiz-adv-x="0" 
 />
    <glyph glyph-name="nonmarkingreturn" horiz-adv-x="333" 
 />
    <glyph glyph-name="space" unicode=" " horiz-adv-x="219" 
 />
    <glyph glyph-name="space" unicode="&#xa0;" horiz-adv-x="219" 
 />
    <glyph glyph-name="exclam" unicode="!" horiz-adv-x="207" 
d="M122 177h-39l-10 497h59zM104 -11h-1q-17 0 -28.5 13t-10.5 31q0 19 11.5 32t28.5 13q18 0 29 -12.5t11 -32.5q0 -19 -11 -31.5t-29 -12.5z" />
    <glyph glyph-name="quotedbl" unicode="&#x22;" horiz-adv-x="301" 
d="M60 692h57l-12 -221h-32zM183 692h57l-12 -221h-32z" />
    <glyph glyph-name="numbersign" unicode="#" horiz-adv-x="465" 
d="M167 245h112l20 165h-112zM136 0h-42l26 206h-83v39h88l21 165h-88v39h93l26 201h41l-26 -201h113l26 201h40l-25 -201h83v-39h-88l-21 -165h89v-39h-94l-26 -206h-41l26 206h-112z" />
    <glyph glyph-name="dollar" unicode="$" horiz-adv-x="488" 
d="M255 -84h-41v103q-85 0 -142 45l21 37q53 -43 128 -43q60 0 97 34t37 86q0 47 -29.5 79.5t-87.5 58.5q-80 35 -118 72.5t-38 95.5q0 59 38.5 100.5t100.5 50.5v104h41v-103q70 -3 120 -37l-21 -37q-48 35 -115 35q-59 0 -89 -32t-30 -73q0 -45 28 -72.5t98 -58.5
q75 -34 111.5 -75.5t36.5 -103.5q0 -59 -38.5 -105t-107.5 -57v-104z" />
    <glyph glyph-name="percent" unicode="%" horiz-adv-x="737" 
d="M174 661h1q60 0 97 -49.5t37 -144.5q0 -99 -39.5 -151.5t-100.5 -52.5q-57 0 -96.5 49.5t-40.5 145.5q0 99 42 151t100 52zM171 627h-1q-44 0 -69.5 -47t-25.5 -118q-2 -71 24 -118t71 -47q48 0 72 46t24 121q0 72 -23 117.5t-72 45.5zM193 -13h-39l388 676h39zM570 392
h1q60 0 97 -49.5t37 -144.5q0 -99 -39.5 -151.5t-100.5 -52.5q-57 0 -96.5 49.5t-40.5 145.5q0 98 42 150.5t100 52.5zM567 358h-1q-44 0 -69.5 -47t-25.5 -118q-2 -71 24.5 -118t70.5 -47q48 0 72 46t24 121q0 72 -23 117.5t-72 45.5z" />
    <glyph glyph-name="ampersand" unicode="&#x26;" horiz-adv-x="560" 
d="M560 0h-60l-74 76q-91 -87 -205 -87q-82 0 -136 54.5t-54 133.5q0 121 133 199v3q-58 78 -58 147q0 64 41 111.5t111 47.5q55 0 92 -37t37 -97q0 -56 -36 -99t-121 -85v-3l196 -225q47 71 70 216h45q-28 -169 -88 -244zM232 28h1q99 0 166 77l-213 241
q-107 -64 -107 -163q0 -68 43 -111.5t110 -43.5zM251 646h-1q-47 0 -73 -33.5t-26 -82.5q0 -61 55 -136q68 36 102 70.5t34 81.5q0 41 -23 70.5t-68 29.5z" />
    <glyph glyph-name="quotesingle" unicode="'" horiz-adv-x="178" 
d="M60 692h57l-12 -221h-32z" />
    <glyph glyph-name="parenleft" unicode="(" horiz-adv-x="265" 
d="M208 697h45q-140 -174 -140 -413q0 -225 140 -407h-45q-141 176 -141 408t141 412z" />
    <glyph glyph-name="parenright" unicode=")" horiz-adv-x="265" 
d="M57 -123h-45q140 180 140 411q0 229 -140 409h45q141 -176 141 -410q0 -230 -141 -410z" />
    <glyph glyph-name="asterisk" unicode="*" horiz-adv-x="391" 
d="M259 685l44 -25l-88 -122v-2l146 12v-47l-145 12v-2l88 -119l-46 -26l-63 132h-2l-69 -133l-39 27l87 120v2l-142 -13v47l141 -11v2l-86 120l44 25l65 -130h2z" />
    <glyph glyph-name="plus" unicode="+" horiz-adv-x="596" 
d="M277 532h43v-245h236v-40h-236v-247h-43v247h-236v40h236v245z" />
    <glyph glyph-name="comma" unicode="," horiz-adv-x="174" 
d="M64 -121l-38 -5q12 32 28.5 99t23.5 113l63 10q-13 -53 -38.5 -123.5t-38.5 -93.5z" />
    <glyph glyph-name="hyphen" unicode="-" horiz-adv-x="298" 
d="M30 296h238v-42h-238v42z" />
    <glyph glyph-name="hyphen" unicode="&#xad;" horiz-adv-x="298" 
d="M30 296h238v-42h-238v42z" />
    <glyph glyph-name="period" unicode="." horiz-adv-x="174" 
d="M94 -11h-1q-17 0 -28.5 13.5t-10.5 31.5q0 20 11.5 32.5t29.5 12.5t29 -12.5t11 -32.5q0 -19 -11.5 -32t-29.5 -13z" />
    <glyph glyph-name="slash" unicode="/" horiz-adv-x="351" 
d="M35 -40h-46l318 725h49z" />
    <glyph glyph-name="zero" unicode="0" horiz-adv-x="488" 
d="M238 -11h-1q-83 0 -140 84t-59 249q0 166 62 252.5t151 86.5q90 0 144.5 -82.5t54.5 -244.5q0 -170 -56.5 -257.5t-155.5 -87.5zM242 29h1q78 0 117.5 81t39.5 219q0 134 -38.5 213t-117.5 79q-70 0 -113 -81t-43 -211q-2 -135 40.5 -217.5t113.5 -82.5z" />
    <glyph glyph-name="one" unicode="1" horiz-adv-x="488" 
d="M236 0v601h-2l-106 -62l-12 38l123 73h44v-650h-47z" />
    <glyph glyph-name="two" unicode="2" horiz-adv-x="488" 
d="M433 0h-387v29l60 62q147 143 203.5 222.5t56.5 158.5q0 64 -32.5 105.5t-108.5 41.5q-73 0 -138 -56l-19 33q72 65 166 65q92 0 136.5 -55t44.5 -124q0 -89 -58.5 -172t-197.5 -220l-46 -48v-2h320v-40z" />
    <glyph glyph-name="three" unicode="3" horiz-adv-x="488" 
d="M45 33l19 38q21 -15 59.5 -28t80.5 -13q47 0 81.5 15t51.5 39t24 48t7 48q-1 76 -56 114.5t-135 38.5h-41v40h43q62 0 112.5 34.5t50.5 96.5q0 50 -31 83t-95 33q-67 0 -126 -45l-19 35q26 21 67 36t84 15q86 0 128 -44.5t42 -106.5q0 -50 -31.5 -91t-89.5 -63v-2
q64 -13 105.5 -58.5t41.5 -113.5q0 -79 -57 -136t-163 -57q-94 0 -153 44z" />
    <glyph glyph-name="four" unicode="4" horiz-adv-x="488" 
d="M366 0h-46v191h-310v32l317 427h39v-419h99v-40h-99v-191zM67 231h253v263q0 46 3 90l-3 1q-21 -39 -51 -82l-202 -270v-2z" />
    <glyph glyph-name="five" unicode="5" horiz-adv-x="488" 
d="M406 650v-42h-245l-32 -209q25 5 60 5q65 0 121 -28q42 -21 71.5 -65t29.5 -104q0 -96 -63.5 -157t-155.5 -61q-94 0 -150 42l19 38q57 -39 134 -39q71 0 120 47.5t48 120.5q-1 74 -48 119.5t-140 45.5q-53 0 -93 -7l42 294h282z" />
    <glyph glyph-name="six" unicode="6" horiz-adv-x="488" 
d="M390 661v-44q-38 0 -70 -7q-101 -21 -162 -98.5t-71 -178.5h2q25 39 68.5 65t99.5 26q88 0 141 -58.5t53 -150.5q0 -91 -54.5 -158.5t-148.5 -67.5q-92 0 -151.5 72t-59.5 201q0 184 106 295q73 76 182 96q32 8 65 8zM251 29h1q66 0 107.5 50t41.5 132q0 83 -43 127.5
t-113 44.5q-46 0 -86 -25.5t-63 -68.5q-11 -20 -11 -38q0 -100 43.5 -161t122.5 -61z" />
    <glyph glyph-name="seven" unicode="7" horiz-adv-x="488" 
d="M62 650h380v-34l-293 -616h-47l290 608v2h-330v40z" />
    <glyph glyph-name="eight" unicode="8" horiz-adv-x="488" 
d="M250 661h1q79 0 126 -45.5t47 -110.5q0 -104 -115 -156v-4q138 -54 138 -172q0 -80 -60.5 -132t-143.5 -52q-87 0 -145 49.5t-58 123.5q0 123 136 181v4q-110 47 -110 147q0 73 52.5 120t131.5 47zM242 29h1q70 0 112.5 38.5t42.5 98.5q0 65 -41 102t-126 61
q-68 -20 -104.5 -61.5t-36.5 -95.5q-3 -60 39 -101.5t113 -41.5zM247 622h-1q-62 0 -97.5 -35t-35.5 -86q-1 -56 36 -88.5t107 -50.5q119 41 119 139q0 50 -32 85.5t-96 35.5z" />
    <glyph glyph-name="nine" unicode="9" horiz-adv-x="488" 
d="M100 -11v44q27 -3 74 5q82 12 141 76q71 76 88 206l-3 -1q-65 -84 -168 -84q-86 0 -135.5 58t-49.5 139q0 93 58 161t150 68q87 0 141.5 -71.5t54.5 -199.5q0 -197 -111 -308q-64 -67 -152 -84q-53 -11 -88 -9zM247 621h-1q-66 0 -108.5 -52.5t-42.5 -133.5
q0 -72 40.5 -115.5t105.5 -43.5q50 0 91 23.5t63 60.5q9 18 9 29q0 106 -40 169t-117 63z" />
    <glyph glyph-name="colon" unicode=":" horiz-adv-x="174" 
d="M94 361h-1q-17 0 -28.5 13.5t-10.5 31.5q0 20 11.5 32.5t29.5 12.5t29 -12.5t11 -32.5q0 -19 -11.5 -32t-29.5 -13zM94 -11h-1q-17 0 -28.5 13.5t-10.5 31.5q0 20 11.5 32.5t29.5 12.5t29 -12.5t11 -32.5q0 -19 -11.5 -32t-29.5 -13z" />
    <glyph glyph-name="semicolon" unicode=";" horiz-adv-x="174" 
d="M64 -120l-38 -5q12 32 28.5 99t23.5 113l62 10q-12 -52 -37.5 -123t-38.5 -94zM103 361h-1q-17 0 -28.5 13.5t-10.5 31.5q0 20 11.5 32.5t29.5 12.5t29 -12.5t11 -32.5q0 -19 -11.5 -32t-29.5 -13z" />
    <glyph glyph-name="less" unicode="&#x3c;" horiz-adv-x="596" 
d="M71 248v35l454 248v-46l-408 -219v-2l408 -218v-46z" />
    <glyph glyph-name="equal" unicode="=" horiz-adv-x="596" 
d="M556 345h-516v40h516v-40zM556 155h-516v40h516v-40z" />
    <glyph glyph-name="greater" unicode="&#x3e;" horiz-adv-x="596" 
d="M525 283v-35l-454 -248v46l408 218v2l-408 219v46z" />
    <glyph glyph-name="question" unicode="?" horiz-adv-x="381" 
d="M188 175h-44l-4 26q-13 88 64 183q41 48 59 83.5t18 73.5q0 47 -28 74.5t-81 27.5q-63 0 -101 -32l-19 35q51 40 129 40q73 0 112 -41.5t39 -100.5q0 -44 -20.5 -83.5t-65.5 -93.5q-67 -82 -60 -162zM164 -11h-1q-17 0 -28.5 13.5t-10.5 31.5q0 20 11.5 32.5t29.5 12.5
t29 -12.5t11 -32.5q0 -19 -11.5 -32t-29.5 -13z" />
    <glyph glyph-name="at" unicode="@" horiz-adv-x="717" 
d="M452 258l25 124q-22 10 -61 10q-76 0 -131 -61t-55 -144q0 -37 20 -60.5t57 -23.5q49 0 92 51t53 104zM496 -28l14 -34q-73 -43 -174 -43q-126 0 -212 86t-86 226q0 160 100 273t260 113q128 0 205.5 -81.5t77.5 -207.5q0 -109 -51 -173.5t-119 -64.5q-30 0 -51 24
t-16 70h-3q-57 -94 -150 -94q-43 0 -74 33.5t-31 88.5q0 96 69.5 168.5t168.5 72.5q55 0 100 -19l-36 -179q-26 -125 33 -127q44 -2 79.5 52.5t35.5 138.5q0 118 -65 189.5t-180 71.5q-130 0 -219 -95.5t-89 -250.5q0 -123 73 -199.5t185 -76.5q90 0 155 38z" />
    <glyph glyph-name="A" unicode="A" horiz-adv-x="585" 
d="M429 236h-267l-83 -236h-49l244 674h46l243 -674h-49zM177 276h237l-82 225q-16 48 -35 119h-2q-11 -45 -35 -117z" />
    <glyph glyph-name="B" unicode="B" horiz-adv-x="505" 
d="M81 0v664q63 15 136 15q121 0 176 -56q42 -41 42 -110q0 -51 -32.5 -91.5t-83.5 -58.5v-3q54 -12 98.5 -55t44.5 -117q0 -76 -50 -129q-64 -64 -214 -64q-23 0 -45.5 1t-42.5 2.5t-29 1.5zM129 632v-254h98q72 0 115.5 37.5t43.5 94.5q0 129 -172 129q-59 0 -85 -7z
M129 339v-299q25 -5 83 -5q87 0 143.5 36t56.5 116q0 75 -56 113.5t-142 38.5h-85z" />
    <glyph glyph-name="C" unicode="C" horiz-adv-x="570" 
d="M524 62l14 -38q-68 -34 -182 -34q-63 0 -119 20.5t-101.5 61t-72 108t-26.5 153.5q0 153 92.5 252t249.5 99q98 0 156 -29l-15 -40q-58 29 -140 29q-137 0 -215 -83.5t-78 -228.5q0 -139 75.5 -220t209.5 -81q88 0 152 31z" />
    <glyph glyph-name="D" unicode="D" horiz-adv-x="647" 
d="M81 0v664q87 15 173 15q185 0 272 -92q84 -87 84 -234q0 -158 -88 -255q-93 -103 -291 -103q-89 0 -150 5zM129 628v-588q34 -5 109 -5q159 0 241 83.5t82 232.5q2 134 -75.5 211t-234.5 77q-69 0 -122 -11z" />
    <glyph glyph-name="E" unicode="E" horiz-adv-x="466" 
d="M398 375v-40h-269v-295h301v-40h-349v674h333v-40h-285v-259h269z" />
    <glyph glyph-name="F" unicode="F" horiz-adv-x="462" 
d="M81 0v674h333v-40h-285v-268h262v-40h-262v-326h-48z" />
    <glyph glyph-name="G" unicode="G" horiz-adv-x="624" 
d="M565 334v-305q-87 -36 -197 -36q-147 0 -238 88q-93 90 -93 254q0 147 93.5 246.5t258.5 99.5q97 0 157 -30l-16 -39q-60 29 -144 29q-138 0 -218.5 -83t-80.5 -221q0 -142 77.5 -223t211.5 -81q98 0 141 24v238h-156v39h204z" />
    <glyph glyph-name="H" unicode="H" horiz-adv-x="630" 
d="M81 674h48v-297h372v297h48v-674h-48v337h-372v-337h-48v674z" />
    <glyph glyph-name="I" unicode="I" horiz-adv-x="211" 
d="M81 674h48v-674h-48v674z" />
    <glyph glyph-name="J" unicode="J" horiz-adv-x="345" 
d="M223 219v455h48v-466q0 -219 -182 -219q-48 0 -82 16l10 38q32 -13 71 -13q69 0 102 41t33 148z" />
    <glyph glyph-name="K" unicode="K" horiz-adv-x="498" 
d="M81 0v674h48v-341h3q18 23 58 70l239 271h58l-256 -286l280 -388h-57l-256 355l-69 -76v-279h-48z" />
    <glyph glyph-name="L" unicode="L" horiz-adv-x="448" 
d="M81 0v674h48v-634h300v-40h-348z" />
    <glyph glyph-name="M" unicode="M" horiz-adv-x="778" 
d="M670 0l-20 319q-14 236 -14 299h-2q-49 -144 -91 -252l-142 -366h-33l-133 358q-66 183 -87 260h-2q-4 -152 -15 -308l-21 -310h-47l49 674h55l145 -389q46 -122 74 -218h3q18 65 75 218l151 389h57l45 -674h-47z" />
    <glyph glyph-name="N" unicode="N" horiz-adv-x="638" 
d="M128 0h-46v674h45l262 -398q86 -132 127 -212l2 1q-8 104 -8 273v336h46v-674h-44l-257 392q-96 147 -131 218l-2 -1q6 -100 6 -268v-341z" />
    <glyph glyph-name="O" unicode="O" horiz-adv-x="671" 
d="M333 -11h-1q-127 0 -211 93.5t-84 247.5q0 162 86.5 258.5t216.5 96.5q129 0 211.5 -93.5t82.5 -247.5q0 -169 -88 -262t-213 -93zM334 29h1q115 0 182 90.5t67 221.5q0 55 -15.5 107.5t-44.5 97.5t-77.5 72t-109.5 27q-82 0 -140 -46.5t-84 -115.5t-26 -151
q0 -122 67 -212.5t180 -90.5z" />
    <glyph glyph-name="P" unicode="P" horiz-adv-x="502" 
d="M81 0v666q72 13 145 13q119 0 178 -57q52 -49 52 -132t-47 -135q-66 -75 -198 -75q-55 0 -82 8v-288h-48zM129 631v-301q29 -10 86 -10q92 0 142.5 42.5t50.5 122.5q0 77 -50 115.5t-134 38.5q-59 0 -95 -8z" />
    <glyph glyph-name="Q" unicode="Q" horiz-adv-x="671" 
d="M641 -44l-15 -44q-109 25 -253 68q-31 9 -38 9q-129 3 -213.5 93.5t-84.5 246.5q0 164 86 260t218 96q128 0 210.5 -93.5t82.5 -247.5q0 -135 -57 -221t-156 -117v-4q166 -37 220 -46zM333 29h1q116 0 183 90.5t67 221.5q0 44 -9 86.5t-29 82t-48.5 69.5t-69.5 48t-89 18
q-62 0 -111.5 -27t-79.5 -72t-45.5 -100t-15.5 -116q0 -121 67 -211t179 -90z" />
    <glyph glyph-name="R" unicode="R" horiz-adv-x="505" 
d="M81 0v665q65 14 146 14q124 0 182 -56q47 -45 47 -120q0 -130 -132 -176v-2q79 -25 104 -143q32 -148 50 -182h-49q-13 24 -43 164q-16 74 -51 108t-101 37h-105v-309h-48zM129 631v-283h107q78 0 125 40t47 107q0 74 -49 109.5t-133 35.5q-59 0 -97 -9z" />
    <glyph glyph-name="S" unicode="S" horiz-adv-x="464" 
d="M42 35l18 39q64 -44 147 -44q75 0 119 38.5t44 101.5q0 56 -32 92.5t-105 64.5q-173 62 -173 186q0 74 55 122.5t141 48.5t134 -31l-18 -41q-44 32 -119 32q-74 0 -110 -38t-36 -85q0 -54 32.5 -87.5t107.5 -62.5q88 -36 129 -80t41 -116q0 -78 -55.5 -131.5
t-158.5 -53.5q-44 0 -89.5 13t-71.5 32z" />
    <glyph glyph-name="T" unicode="T" horiz-adv-x="465" 
d="M209 0v634h-220v40h488v-40h-220v-634h-48z" />
    <glyph glyph-name="U" unicode="U" horiz-adv-x="626" 
d="M81 674h48v-407q0 -122 49.5 -180t129.5 -58q88 0 138.5 59t50.5 179v407h48v-403q0 -146 -67 -214t-172 -68q-47 0 -85.5 14.5t-71 45t-50.5 85.5t-18 130v410z" />
    <glyph glyph-name="V" unicode="V" horiz-adv-x="509" 
d="M269 0h-45l-224 674h50l119 -361q61 -186 79 -258h3q23 86 86 258l131 361h51z" />
    <glyph glyph-name="W" unicode="W" horiz-adv-x="820" 
d="M238 0h-45l-178 674h49l98 -380q45 -179 56 -231h2q12 67 62 231l110 380h46l100 -377q44 -163 55 -234h2q10 51 61 232l111 379h49l-202 -674h-46l-101 388q-41 150 -52 228h-2q-13 -74 -60 -227z" />
    <glyph glyph-name="X" unicode="X" horiz-adv-x="546" 
d="M515 0h-55l-102 166q-56 84 -89 140h-2q-42 -74 -85 -141l-97 -165h-55l214 341l-205 333h54l109 -180q43 -68 69 -116h2q12 23 71 116l113 180h56l-215 -328z" />
    <glyph glyph-name="Y" unicode="Y" horiz-adv-x="503" 
d="M277 0h-48v292l-214 382h53l111 -201q52 -95 77 -145h2q12 28 78 146l115 200h53l-227 -383v-291z" />
    <glyph glyph-name="Z" unicode="Z" horiz-adv-x="539" 
d="M34 0v31l406 600v3h-373v40h434v-32l-407 -599v-3h412v-40h-472z" />
    <glyph glyph-name="bracketleft" unicode="[" horiz-adv-x="265" 
d="M261 -112h-171v798h171v-37h-127v-724h127v-37z" />
    <glyph glyph-name="backslash" unicode="\" horiz-adv-x="348" 
d="M359 -40h-48l-316 725h48z" />
    <glyph glyph-name="bracketright" unicode="]" horiz-adv-x="265" 
d="M6 686h170v-798h-170v37h126v724h-126v37z" />
    <glyph glyph-name="asciicircum" unicode="^" horiz-adv-x="596" 
d="M525 196h-46l-179 408h-2l-180 -408h-46l205 454h43z" />
    <glyph glyph-name="underscore" unicode="_" horiz-adv-x="500" 
d="M0 -75h500v-50h-500v50z" />
    <glyph glyph-name="grave" unicode="`" 
d="M33 688h70l89 -138h-37z" />
    <glyph glyph-name="a" unicode="a" horiz-adv-x="454" 
d="M380 302v-188q0 -71 7 -114h-44l-7 69h-2q-21 -32 -61 -56t-93 -24q-68 0 -104.5 39.5t-36.5 92.5q0 85 74.5 131t218.5 45v13q0 142 -123 141q-71 0 -121 -36l-15 35q62 41 141 41q166 0 166 -189zM332 154v103q-243 7 -243 -128q0 -49 27.5 -74.5t68.5 -25.5
q56 0 92 28t50 68q5 13 5 29z" />
    <glyph glyph-name="b" unicode="b" horiz-adv-x="552" 
d="M80 112v599h48v-321h2q52 101 176 101q91 0 148 -69t57 -177q0 -121 -64 -188.5t-150 -67.5q-115 0 -172 97h-2l-4 -86h-43q4 45 4 112zM128 281v-96q0 -19 4 -35q16 -55 59 -88t99 -33q81 0 127 59.5t46 155.5q0 87 -45.5 147t-123.5 60q-54 0 -98.5 -34.5t-61.5 -93.5
q-6 -24 -6 -42z" />
    <glyph glyph-name="c" unicode="c" horiz-adv-x="446" 
d="M399 59l13 -38q-65 -31 -141 -31q-103 0 -166.5 68t-63.5 177q0 114 69.5 185t177.5 71q84 0 126 -30l-17 -39q-46 28 -113 28q-93 0 -144 -60.5t-51 -150.5q0 -94 53 -151t137 -57q59 0 120 28z" />
    <glyph glyph-name="d" unicode="d" horiz-adv-x="544" 
d="M416 711h48v-600q0 -66 4 -111h-43l-4 91h-2q-21 -44 -64.5 -73t-106.5 -29q-90 0 -148.5 67.5t-58.5 174.5q-1 117 62 188.5t154 71.5q58 0 98.5 -25t58.5 -60h2v305zM416 194v96q0 26 -5 44q-13 50 -53.5 83.5t-97.5 33.5q-78 0 -124.5 -60.5t-46.5 -154.5
q0 -87 43.5 -147t124.5 -60q53 0 96 33.5t58 91.5q5 15 5 40z" />
    <glyph glyph-name="e" unicode="e" horiz-adv-x="485" 
d="M442 245h-354q0 -108 51.5 -161t131.5 -53q77 0 133 27l12 -37q-56 -31 -151 -31q-102 0 -163 67t-61 174q0 118 60.5 189t155.5 71q45 0 79.5 -16t54.5 -40t32.5 -55t16.5 -56.5t4 -49.5q0 -20 -2 -29zM91 283h303q0 28 -6 55t-21 53.5t-45 43t-71 16.5q-72 0 -112 -51
t-48 -117z" />
    <glyph glyph-name="f" unicode="f" horiz-adv-x="262" 
d="M132 0h-48v441h-69v39h69v26q0 120 53 173q43 42 107 42q44 0 72 -17l-15 -36q-26 13 -61 13q-62 0 -85 -47t-23 -127v-27h128v-39h-128v-441z" />
    <glyph glyph-name="g" unicode="g" horiz-adv-x="544" 
d="M464 356v-286q0 -159 -66 -222q-60 -57 -163 -57q-97 0 -153 42l17 38q62 -40 143 -40q174 0 174 194v68h-2q-21 -40 -63.5 -66.5t-103.5 -26.5q-90 0 -148 68t-58 168q0 118 65 186.5t151 68.5q116 0 162 -92h2l3 81h44q-4 -48 -4 -124zM416 199v96q0 30 -6 47
q-16 47 -54.5 78t-94.5 31q-77 0 -124.5 -57.5t-47.5 -152.5q0 -86 44.5 -143.5t125.5 -57.5q49 0 90 29t59 79q8 26 8 51z" />
    <glyph glyph-name="h" unicode="h" horiz-adv-x="536" 
d="M81 0v711h48v-317h2q22 43 65 69q46 28 97 28q17 0 35 -3.5t43 -16.5t43.5 -33.5t32 -59t13.5 -89.5v-289h-48v284q0 72 -31.5 118.5t-100.5 46.5q-49 0 -89 -31t-56 -77q-6 -18 -6 -48v-293h-48z" />
    <glyph glyph-name="i" unicode="i" horiz-adv-x="209" 
d="M129 0h-48v480h48v-480zM104 576h-1q-16 0 -26.5 12t-10.5 29t11.5 29.5t27.5 12.5t27 -12.5t11 -29.5t-11 -29t-28 -12z" />
    <glyph glyph-name="j" unicode="j" horiz-adv-x="214" 
d="M-42 -209l-7 39q68 3 100 40q20 24 28 64t8 131v415h48v-447q0 -69 -11 -113.5t-40 -76.5q-46 -49 -126 -52zM110 576h-1q-16 0 -26.5 12.5t-10.5 28.5q0 17 11.5 29.5t28.5 12.5q16 0 26.5 -12.5t10.5 -29.5t-10.5 -29t-28.5 -12z" />
    <glyph glyph-name="k" unicode="k" horiz-adv-x="423" 
d="M128 711v-462h2q21 27 46 53l170 178h58l-194 -199l221 -281h-58l-196 252l-49 -52v-200h-48v711h48z" />
    <glyph glyph-name="l" unicode="l" horiz-adv-x="212" 
d="M81 0v711h48v-711h-48z" />
    <glyph glyph-name="m" unicode="m" horiz-adv-x="819" 
d="M81 0v365q0 64 -4 115h45l3 -84h2q54 95 156 95q48 0 85 -29t53 -75h2q18 39 49 65q48 39 114 39q17 0 34.5 -4t40.5 -17t40.5 -34.5t29.5 -61t12 -91.5v-283h-48v279q0 82 -32 127t-93 45q-43 0 -77 -27.5t-49 -67.5q-8 -28 -8 -48v-308h-48v301q0 67 -31 108.5
t-88 41.5q-46 0 -82.5 -31.5t-50.5 -76.5q-7 -25 -7 -47v-296h-48z" />
    <glyph glyph-name="n" unicode="n" horiz-adv-x="536" 
d="M81 0v365q0 64 -4 115h45l3 -86h2q20 42 64.5 69.5t100.5 27.5q17 0 35.5 -3.5t43.5 -16.5t43.5 -33.5t32 -59.5t13.5 -90v-288h-48v284q0 73 -32 120t-101 47q-50 0 -90 -31.5t-54 -79.5q-6 -22 -6 -42v-298h-48z" />
    <glyph glyph-name="o" unicode="o" horiz-adv-x="532" 
d="M262 -11h-1q-95 0 -157.5 68t-62.5 179q0 118 66.5 186.5t160.5 68.5q100 0 161.5 -68.5t61.5 -178.5q0 -64 -20.5 -114.5t-54.5 -80t-73.5 -45t-80.5 -15.5zM263 29h1q76 0 127.5 60.5t51.5 152.5q0 35 -10 70t-30 67t-55.5 52t-80.5 20q-86 0 -132 -63t-46 -149
q0 -90 50 -150t124 -60z" />
    <glyph glyph-name="p" unicode="p" horiz-adv-x="552" 
d="M80 -198v525q0 92 -4 153h46l3 -91h2q57 102 178 102q92 0 149 -68.5t57 -174.5q0 -123 -63 -191t-155 -68q-112 0 -163 89h-2v-276h-48zM128 283v-94q0 -22 4 -38q15 -55 58.5 -88.5t99.5 -33.5q81 0 127 59.5t46 157.5q0 85 -45.5 145t-123.5 60q-54 0 -99 -34.5
t-60 -92.5q-7 -30 -7 -41z" />
    <glyph glyph-name="q" unicode="q" horiz-adv-x="542" 
d="M416 -198v281h-2q-20 -40 -63 -67t-103 -27q-89 0 -148 68t-59 174q0 66 20 118t53 82t70.5 45t77.5 15q58 0 98.5 -27t58.5 -66h2l3 82h44q-4 -48 -4 -124v-554h-48zM416 188v103q0 27 -5 43q-13 50 -53.5 83.5t-96.5 33.5q-78 0 -125 -59.5t-47 -154.5q0 -88 42.5 -148
t125.5 -60q50 0 91 29.5t59 82.5q9 25 9 47z" />
    <glyph glyph-name="r" unicode="r" horiz-adv-x="295" 
d="M80 0v336q0 81 -4 144h44l2 -97h3q16 48 52.5 78t83.5 30q8 0 20 -2v-45q-7 1 -23 1q-48 0 -82 -37.5t-44 -96.5q-4 -19 -4 -46v-265h-48z" />
    <glyph glyph-name="s" unicode="s" horiz-adv-x="373" 
d="M44 23l17 40q54 -33 108 -33q55 0 83.5 25.5t28.5 65.5q0 39 -23.5 63t-77.5 46q-122 46 -122 131q0 55 40.5 92.5t107.5 37.5q64 0 106 -30l-18 -39q-41 29 -96 29q-44 0 -68.5 -24t-24.5 -59t22.5 -55.5t76.5 -42.5q62 -25 93 -58t31 -85q0 -62 -44.5 -99.5
t-117.5 -37.5q-69 0 -122 33z" />
    <glyph glyph-name="t" unicode="t" horiz-adv-x="309" 
d="M99 568l48 18v-106h137v-39h-137v-312q0 -99 70 -99q34 0 55 7l6 -36q-29 -11 -67 -11q-55 0 -82 33q-30 34 -30 115v303h-81v39h81v88z" />
    <glyph glyph-name="u" unicode="u" horiz-adv-x="531" 
d="M451 480v-363q0 -68 4 -117h-45l-3 86h-2q-21 -39 -63.5 -68t-100.5 -29q-27 0 -52 8.5t-52 29t-43.5 65.5t-16.5 109v279h48v-270q0 -179 127 -179q49 0 87 28.5t55 68.5q9 27 9 53v299h48z" />
    <glyph glyph-name="v" unicode="v" horiz-adv-x="452" 
d="M15 480h51l112 -298q30 -74 47 -128h2q5 16 49 128l114 298h50l-195 -480h-42z" />
    <glyph glyph-name="w" unicode="w" horiz-adv-x="722" 
d="M23 480h49l81 -273q31 -110 41 -150h2q14 53 48 150l96 273h45l92 -270q29 -86 47 -153h2q12 52 44 151l85 272h49l-160 -480h-41l-91 268q-36 103 -50 163h-2q-16 -65 -52 -165l-95 -266h-42z" />
    <glyph glyph-name="x" unicode="x" horiz-adv-x="429" 
d="M21 480h54l82 -117q24 -32 55 -82h2q13 21 56 82l82 117h53l-167 -234l173 -246h-55l-85 121l-20 29l-21.5 33t-18.5 28h-2q-14 -23 -60 -90l-84 -121h-54l176 245z" />
    <glyph glyph-name="y" unicode="y" horiz-adv-x="440" 
d="M11 480h51l126 -314q19 -50 35 -103h2l37 106l117 311h51l-144 -358q-48 -123 -83 -188.5t-79 -104.5q-41 -34 -84 -50l-15 40q45 17 84 53q50 50 80 121q6 15 6 21t-6 21z" />
    <glyph glyph-name="z" unicode="z" horiz-adv-x="403" 
d="M16 0v29l259 341l55 69v2h-293v39h351l-1 -32l-259 -341l-51 -66v-2h312v-39h-373z" />
    <glyph glyph-name="braceleft" unicode="{" horiz-adv-x="265" 
d="M26 270l1 35q49 -1 66.5 21t17.5 58t-9 86q-10 58 -10 87q0 65 38.5 97t102.5 32h12v-37h-18q-49 -1 -70 -24.5t-21 -71.5q0 -33 9 -80q9 -61 9 -80q0 -84 -64 -104v-2q29 -8 46.5 -35.5t17.5 -68.5q0 -22 -9 -80q-9 -49 -9 -82q0 -95 91 -96h18v-37h-12q-64 0 -102.5 33
t-38.5 104q0 30 10 84q9 50 9 83q0 80 -85 78z" />
    <glyph glyph-name="bar" unicode="|" horiz-adv-x="212" 
d="M84 750h43v-1000h-43v1000z" />
    <glyph glyph-name="braceright" unicode="}" horiz-adv-x="265" 
d="M239 305l-1 -35q-84 2 -84 -78q0 -36 10 -83q9 -61 9 -84q0 -71 -38.5 -104t-102.5 -33h-12v37h18q91 1 91 96q0 33 -9 82q-9 59 -9 80q0 41 17.5 68.5t46.5 35.5v2q-64 20 -64 104q0 19 9 80q9 47 9 80q0 48 -21 71.5t-70 24.5h-18v37h12q64 0 102.5 -32t38.5 -97
q0 -22 -9 -87q-10 -47 -10 -86q0 -37 17.5 -58.5t67.5 -20.5z" />
    <glyph glyph-name="asciitilde" unicode="~" horiz-adv-x="596" 
d="M90 221h-38q-4 58 27.5 94t79.5 36q27 0 55.5 -9t87.5 -35q99 -44 142 -44q65 0 63 87h37q3 -66 -27.5 -98t-76.5 -32q-48 0 -147 43q-6 2 -28 12.5t-30 13.5l-24.5 9t-29 8t-24.5 2q-67 0 -67 -87z" />
    <glyph glyph-name="exclamdown" unicode="&#xa1;" horiz-adv-x="207" 
d="M133 -198h-59l10 494h39zM104 485h1q18 0 28.5 -12.5t10.5 -32.5q0 -19 -11 -31.5t-29 -12.5t-29.5 13t-10.5 31q0 19 11.5 32t28.5 13z" />
    <glyph glyph-name="cent" unicode="&#xa2;" horiz-adv-x="488" 
d="M301 -16h-41v104q-86 8 -141 66q-57 60 -57 171q0 100 55 166.5t143 78.5v104h41v-103q70 0 117 -29l-17 -39q-45 29 -114 29q-80 0 -129.5 -60t-49.5 -145q0 -91 48.5 -145.5t124.5 -54.5q67 0 123 29l13 -35q-42 -29 -116 -33v-104z" />
    <glyph glyph-name="sterling" unicode="&#xa3;" horiz-adv-x="488" 
d="M449 0h-390v30q56 31 85.5 81.5t29.5 110.5q0 48 -6 89h-106v39h101q-13 86 -13 124q0 85 48 136t122 51q66 0 104 -25l-16 -37q-34 22 -93 22t-89 -39t-30 -105q0 -60 13 -127h147v-39h-142q8 -97 -1 -138q-18 -77 -81 -130v-2h317v-41z" />
    <glyph glyph-name="currency" unicode="&#xa4;" horiz-adv-x="488" 
d="M243 524h1q72 0 113 -43l69 69l30 -31l-72 -66q36 -50 36 -119q0 -78 -35 -124l68 -69l-30 -31l-66 70q-44 -44 -116 -44q-71 0 -113 40l-64 -66l-29 31l65 65q-38 47 -38 120q0 74 41 127l-68 65l31 32l63 -69q46 43 114 43zM241 485h-1q-61 0 -97 -46t-36 -111
q0 -75 41.5 -114t91.5 -39q54 -1 94.5 38t40.5 120q0 60 -35 106t-99 46z" />
    <glyph glyph-name="yen" unicode="&#xa5;" horiz-adv-x="488" 
d="M260 0h-46v185h-154v36h154v78h-154v36h137l-171 315h51l124 -234q27 -54 39 -80h3q10 27 39 83l131 231h50l-184 -315h136v-36h-155v-78h155v-36h-155v-185z" />
    <glyph glyph-name="brokenbar" unicode="&#xa6;" horiz-adv-x="212" 
d="M84 174h43v-350h-43v350zM84 674h43v-350h-43v350z" />
    <glyph glyph-name="section" unicode="&#xa7;" horiz-adv-x="493" 
d="M111 357v-1q0 -31 26 -56.5t91 -48.5q78 -29 112 -52q42 36 42 92q0 71 -101 107q-85 29 -119 51q-51 -38 -51 -92zM389 648l-20 -36q-46 34 -112 34q-46 0 -79.5 -25t-33.5 -65q0 -23 9 -40t32.5 -31t39.5 -20.5t55 -20.5q71 -24 108.5 -57t37.5 -90q0 -69 -59 -120
q35 -35 35 -86q0 -67 -49 -105.5t-122 -38.5q-90 0 -139 40l21 36q46 -39 121 -39q54 0 89 26.5t35 73.5q0 42 -27.5 68.5t-104.5 53.5q-82 31 -120 63t-38 86q0 62 67 114q-35 26 -35 79q0 60 47 97t116 37q74 0 126 -34z" />
    <glyph glyph-name="dieresis" unicode="&#xa8;" 
d="M66 578h-2q-16 0 -26 11.5t-10 27.5q0 15 11.5 27t26.5 12q16 0 26.5 -11.5t10.5 -27.5t-10 -27.5t-27 -11.5zM235 578h-2q-16 0 -26 11.5t-10 27.5q0 15 11.5 27t26.5 12q16 0 26.5 -11.5t10.5 -27.5t-10 -27.5t-27 -11.5z" />
    <glyph glyph-name="copyright" unicode="&#xa9;" horiz-adv-x="677" 
d="M340 648h1q125 0 211 -90t86 -218q0 -130 -86 -220t-212 -90q-127 0 -214 90t-87 220q0 128 87 218t214 90zM340 616h-1q-111 0 -185.5 -80t-74.5 -200q0 -116 74.5 -195t186.5 -79q109 -1 183.5 79t74.5 199q0 117 -74.5 196.5t-183.5 79.5zM474 494l-10 -31
q-42 24 -99 24q-74 0 -111.5 -42t-37.5 -108q0 -65 39 -108t112 -43q63 0 103 27l10 -29q-45 -31 -123 -31q-84 0 -133 51.5t-49 129.5q0 82 55.5 134t133.5 52q77 0 110 -26z" />
    <glyph glyph-name="ordfeminine" unicode="&#xaa;" horiz-adv-x="326" 
d="M282 266h-38l-5 47h-2q-37 -52 -102 -52q-48 0 -74.5 26.5t-26.5 67.5q0 53 52.5 84.5t149.5 27.5v12q0 14 -4.5 29t-24.5 31t-53 16q-50 0 -82 -27l-13 30q43 33 103 33q115 0 115 -141v-107q0 -45 5 -77zM236 366v67q-159 5 -159 -77q0 -28 19.5 -44t46.5 -16
q50 0 80 41q13 18 13 29z" />
    <glyph glyph-name="guillemotleft" unicode="&#xab;" horiz-adv-x="392" 
d="M222 432l-142 -180l143 -180h-50l-143 180l142 180h50zM367 432l-142 -180l143 -180h-50l-143 180l143 180h49z" />
    <glyph glyph-name="logicalnot" unicode="&#xac;" horiz-adv-x="596" 
d="M40 385h516v-255h-43v215h-473v40z" />
    <glyph glyph-name="registered" unicode="&#xae;" horiz-adv-x="395" 
d="M169 505v-70h-31v167q28 5 58 5q36 0 52 -13q17 -12 17 -36q0 -28 -32 -39v-2q20 -8 27 -41q6 -31 13 -41h-32q-6 7 -14 43q-6 27 -38 27h-20zM169 581v-52h21q43 0 43 26q0 28 -40 28q-14 0 -24 -2zM198 682h1q67 0 113.5 -46t46.5 -113q0 -68 -46.5 -114.5
t-114.5 -46.5t-115.5 46.5t-47.5 114.5q0 67 47.5 113t115.5 46zM198 654h-1q-54 0 -90.5 -38.5t-36.5 -92.5q0 -56 37 -94t92 -38q53 -1 89 37.5t36 93.5t-36 93.5t-90 38.5z" />
    <glyph glyph-name="macron" unicode="&#xaf;" 
d="M46 629h210v-40h-210v40z" />
    <glyph glyph-name="macron" unicode="&#x2c9;" 
d="M46 629h210v-40h-210v40z" />
    <glyph glyph-name="degree" unicode="&#xb0;" horiz-adv-x="294" 
d="M151 686h1q55 0 87 -35.5t32 -84.5q0 -55 -37 -90t-85 -35q-52 0 -85.5 35t-33.5 84q0 54 35 90t86 36zM150 653h-1q-39 0 -60 -28.5t-21 -64.5t23.5 -61t58.5 -25q36 0 59.5 26t23.5 64q0 33 -20 61t-63 28z" />
    <glyph glyph-name="plusminus" unicode="&#xb1;" horiz-adv-x="596" 
d="M277 567h43v-207h236v-40h-236v-215h-43v215h-236v40h236v207zM41 40h515v-40h-515v40z" />
    <glyph glyph-name="twosuperior" unicode="&#xb2;" horiz-adv-x="286" 
d="M11 443v25l64 61q69 65 100 108.5t31 83.5q0 36 -21.5 59t-64.5 23q-40 0 -83 -33l-15 27q43 41 108 41q62 0 91 -33.5t29 -73.5q0 -54 -34.5 -101.5t-109.5 -115.5l-35 -33v-2h185v-36h-245z" />
    <glyph glyph-name="threesuperior" unicode="&#xb3;" horiz-adv-x="279" 
d="M44 776l-14 31q44 31 99 31q56 0 82.5 -26.5t26.5 -64.5q0 -64 -74 -92v-2q40 -6 65 -33.5t25 -65.5q0 -47 -37.5 -81.5t-105.5 -34.5q-64 0 -103 27l15 33q36 -26 90 -26q50 0 74.5 25t23.5 56q-1 42 -35 62.5t-82 20.5h-26v32h27q36 0 67.5 19.5t32.5 57.5
q0 24 -17.5 41.5t-52.5 17.5q-45 0 -81 -28z" />
    <glyph glyph-name="acute" unicode="&#xb4;" 
d="M206 688h70l-122 -138h-37z" />
    <glyph glyph-name="mu" unicode="&#xb5;" horiz-adv-x="534" 
d="M409 80h-2q-21 -36 -59.5 -63t-90.5 -27q-96 0 -129 68v-71q0 -139 11 -185h-44q-15 46 -15 179v499h48v-294q0 -67 31.5 -111t98.5 -44q49 0 85.5 28t53.5 69q9 27 9 53v299h48v-363q0 -47 10 -67t38 -22l-6 -38q-9 -1 -15 -1q-29 0 -49 21.5t-23 69.5z" />
    <glyph glyph-name="paragraph" unicode="&#xb6;" horiz-adv-x="493" 
d="M287 -51h-41v315h-8q-77 0 -139.5 51t-63.5 140q0 42 12.5 78.5t41 69.5t82 52t127.5 19q62 0 101 -7v-718h-41v686h-71v-686z" />
    <glyph glyph-name="periodcentered" unicode="&#xb7;" horiz-adv-x="174" 
d="M86 221h-1q-17 0 -28.5 13t-10.5 31q0 20 11.5 32.5t29.5 12.5t29 -12.5t11 -32.5q0 -19 -11.5 -31.5t-29.5 -12.5z" />
    <glyph glyph-name="periodcentered" unicode="&#x2219;" horiz-adv-x="174" 
d="M86 221h-1q-17 0 -28.5 13t-10.5 31q0 20 11.5 32.5t29.5 12.5t29 -12.5t11 -32.5q0 -19 -11.5 -31.5t-29.5 -12.5z" />
    <glyph glyph-name="cedilla" unicode="&#xb8;" 
d="M145 1h37l-36 -55q28 -4 48 -22t20 -45q0 -39 -26.5 -58t-67.5 -19q-32 0 -60 16l12 34q23 -13 54 -13q21 0 34.5 8.5t12.5 26.5q-1 38 -78 45z" />
    <glyph glyph-name="onesuperior" unicode="&#xb9;" horiz-adv-x="210" 
d="M142 443h-41v350h-2l-67 -34l-9 33l82 41h37v-390z" />
    <glyph glyph-name="ordmasculine" unicode="&#xba;" horiz-adv-x="337" 
d="M169 591h1q69 0 111 -46t42 -118q-1 -81 -47.5 -123.5t-107.5 -42.5q-66 0 -109.5 45t-43.5 117q0 76 46.5 122t107.5 46zM168 556h-1q-52 0 -81 -40t-29 -91q0 -56 33.5 -92.5t77.5 -36.5q48 0 80 36t32 94q0 49 -28.5 89.5t-83.5 40.5z" />
    <glyph glyph-name="guillemotright" unicode="&#xbb;" horiz-adv-x="392" 
d="M166 252l-143 180h50l143 -180l-143 -180h-49zM311 252l-143 180h50l143 -180l-143 -180h-49z" />
    <glyph glyph-name="onequarter" unicode="&#xbc;" horiz-adv-x="715" 
d="M167 266h-41v350h-2l-67 -34l-9 33l82 41h37v-390zM157 -11h-40l386 672h40zM615 0h-41v110h-203v25l207 260h37v-251h65v-34h-65v-110zM574 144v145q0 33 3 56h-2l-32 -48l-121 -152v-1h152z" />
    <glyph glyph-name="onehalf" unicode="&#xbd;" horiz-adv-x="715" 
d="M151 266h-41v350h-2l-67 -34l-9 33l82 41h37v-390zM140 -11h-40l386 672h40zM413 0v25l64 61q69 65 100 108.5t31 82.5q0 36 -21.5 59.5t-64.5 23.5q-40 0 -83 -33l-15 27q43 41 108 41q62 0 91 -33.5t29 -74.5q0 -53 -34.5 -99.5t-109.5 -116.5l-35 -33v-2h185v-36h-245
z" />
    <glyph glyph-name="threequarters" unicode="&#xbe;" horiz-adv-x="715" 
d="M68 599l-15 30q43 32 98 32q56 0 83 -26.5t27 -64.5q0 -30 -19 -54.5t-54 -37.5v-2q40 -6 65 -33.5t25 -65.5q0 -47 -37.5 -81.5t-105.5 -34.5q-64 0 -103 27l15 33q36 -26 90 -26q50 0 74.5 25t23.5 56q-1 42 -35 62.5t-83 20.5h-26v32h27q36 0 67.5 19.5t32.5 57.5
q0 24 -17.5 41.5t-52.5 17.5q-44 0 -80 -28zM197 -11h-40l386 672h40zM627 0h-41v110h-203v25l207 260h37v-251h65v-34h-65v-110zM586 144v145q0 33 3 56h-2q-4 -5 -14.5 -22.5t-16.5 -25.5l-123 -152v-1h153z" />
    <glyph glyph-name="questiondown" unicode="&#xbf;" horiz-adv-x="381" 
d="M231 485h1q17 0 28 -12.5t11 -32.5q0 -19 -11.5 -32t-29.5 -13t-29.5 13.5t-10.5 31.5q0 20 11 32.5t30 12.5zM208 299h44l4 -26q13 -89 -64 -183q-41 -49 -59 -84.5t-18 -72.5q0 -48 28 -75.5t81 -27.5q60 0 102 32l18 -35q-53 -40 -129 -40q-73 0 -112 41.5t-39 100.5
q0 44 20.5 83.5t65.5 93.5q67 82 60 162z" />
    <glyph glyph-name="Agrave" unicode="&#xc0;" horiz-adv-x="585" 
d="M429 236h-267l-83 -236h-49l244 674h46l243 -674h-49zM177 276h237l-82 225q-16 48 -35 119h-2q-11 -45 -35 -117zM166 823h73l98 -113h-40z" />
    <glyph glyph-name="Aacute" unicode="&#xc1;" horiz-adv-x="585" 
d="M429 236h-267l-83 -236h-49l244 674h46l243 -674h-49zM177 276h237l-82 225q-16 48 -35 119h-2q-11 -45 -35 -117zM355 823h73l-131 -113h-40z" />
    <glyph glyph-name="Acircumflex" unicode="&#xc2;" horiz-adv-x="585" 
d="M429 236h-267l-83 -236h-49l244 674h46l243 -674h-49zM177 276h237l-82 225q-16 48 -35 119h-2q-11 -45 -35 -117zM281 819h38l107 -109h-53l-72 74h-2l-72 -74h-50z" />
    <glyph glyph-name="Atilde" unicode="&#xc3;" horiz-adv-x="585" 
d="M429 236h-267l-83 -236h-49l244 674h46l243 -674h-49zM177 276h237l-82 225q-16 48 -35 119h-2q-11 -45 -35 -117zM215 716h-33q-1 36 16 61t47 25q20 0 57 -21q32 -17 50 -17q25 0 27 37h33q0 -80 -60 -80q-22 0 -59 20q-38 19 -50 19q-23 0 -28 -44z" />
    <glyph glyph-name="Adieresis" unicode="&#xc4;" horiz-adv-x="585" 
d="M429 236h-267l-83 -236h-49l244 674h46l243 -674h-49zM177 276h237l-82 225q-16 48 -35 119h-2q-11 -45 -35 -117zM211 723h-1q-16 0 -26 11.5t-10 28.5q0 16 11 28t26 12q16 0 26.5 -11.5t10.5 -28.5t-10 -28.5t-27 -11.5zM383 723h-1q-16 0 -26 11.5t-10 28.5
q0 16 11 28t26 12q16 0 26.5 -11.5t10.5 -28.5t-10 -28.5t-27 -11.5z" />
    <glyph glyph-name="Aring" unicode="&#xc5;" horiz-adv-x="585" 
d="M429 236h-267l-83 -236h-49l244 674h46l243 -674h-49zM177 276h237l-82 225q-16 48 -35 119h-2q-11 -45 -35 -117zM298 867h1q39 0 64 -25t25 -61q0 -35 -26 -59t-64 -24q-39 0 -65 24t-26 59q0 36 25.5 61t65.5 25zM297 839h-1q-22 0 -35.5 -17t-13.5 -41
q0 -21 14.5 -37.5t35.5 -16.5q22 0 36.5 16t14.5 40t-14.5 40t-36.5 16z" />
    <glyph glyph-name="AE" unicode="&#xc6;" horiz-adv-x="738" 
d="M46 0h-49l321 674h365v-40h-292l31 -260h249v-40h-244l36 -294h241v-40h-282l-34 271h-213zM194 310h190l-24 212q-10 78 -12 116h-5l-48 -110z" />
    <glyph glyph-name="Ccedilla" unicode="&#xc7;" horiz-adv-x="578" 
d="M524 62l14 -38q-66 -34 -186 -34l-29 -44q29 -4 49 -23t20 -47q0 -37 -26.5 -55.5t-66.5 -18.5q-34 0 -62 15l12 35q24 -13 54 -13q46 0 46 35q0 37 -77 46l43 72q-120 13 -199 99t-79 242q0 153 92.5 252t249.5 99q95 0 156 -29l-15 -40q-60 29 -141 29
q-136 0 -214 -83.5t-78 -228.5q0 -139 75 -220t209 -81q89 0 153 31z" />
    <glyph glyph-name="Egrave" unicode="&#xc8;" horiz-adv-x="466" 
d="M398 375v-40h-269v-295h301v-40h-349v674h333v-40h-285v-259h269zM125 823h73l98 -113h-40z" />
    <glyph glyph-name="Eacute" unicode="&#xc9;" horiz-adv-x="466" 
d="M398 375v-40h-269v-295h301v-40h-349v674h333v-40h-285v-259h269zM311 823h73l-131 -113h-40z" />
    <glyph glyph-name="Ecircumflex" unicode="&#xca;" horiz-adv-x="466" 
d="M398 375v-40h-269v-295h301v-40h-349v674h333v-40h-285v-259h269zM225 819h38l107 -109h-53l-72 74h-2l-72 -74h-50z" />
    <glyph glyph-name="Edieresis" unicode="&#xcb;" horiz-adv-x="466" 
d="M398 375v-40h-269v-295h301v-40h-349v674h333v-40h-285v-259h269zM160 726h-1q-16 0 -26 11.5t-10 28.5q0 16 11 28t26 12q16 0 26.5 -11.5t10.5 -28.5t-10 -28.5t-27 -11.5zM332 726h-1q-16 0 -26 11.5t-10 28.5q0 16 11 28t26 12q16 0 26.5 -11.5t10.5 -28.5t-10 -28.5
t-27 -11.5z" />
    <glyph glyph-name="Igrave" unicode="&#xcc;" horiz-adv-x="211" 
d="M81 674h48v-674h-48v674zM-25 823h73l98 -113h-40z" />
    <glyph glyph-name="Iacute" unicode="&#xcd;" horiz-adv-x="211" 
d="M81 674h48v-674h-48v674zM163 823h73l-131 -113h-40z" />
    <glyph glyph-name="Icircumflex" unicode="&#xce;" horiz-adv-x="211" 
d="M81 674h48v-674h-48v674zM86 819h38l107 -109h-53l-72 74h-2l-72 -74h-50z" />
    <glyph glyph-name="Idieresis" unicode="&#xcf;" horiz-adv-x="211" 
d="M81 674h48v-674h-48v674zM20 726h-1q-16 0 -26 11.5t-10 28.5q0 16 11 28t26 12q16 0 26.5 -11.5t10.5 -28.5t-10 -28.5t-27 -11.5zM192 726h-1q-16 0 -26 11.5t-10 28.5q0 16 11 28t26 12q16 0 26.5 -11.5t10.5 -28.5t-10 -28.5t-27 -11.5z" />
    <glyph glyph-name="Eth" unicode="&#xd0;" horiz-adv-x="651" 
d="M-5 322v39h89v306q87 15 173 15q185 0 272 -92q84 -87 84 -237q0 -159 -88 -256q-93 -103 -291 -103q-91 0 -150 6v322h-89zM341 361v-39h-209v-283q34 -5 109 -5q159 0 241 84t82 236q2 134 -75.5 211t-234.5 77q-69 0 -122 -11v-270h209z" />
    <glyph glyph-name="Ntilde" unicode="&#xd1;" horiz-adv-x="638" 
d="M128 0h-46v674h45l262 -398q86 -132 127 -212l2 1q-8 104 -8 273v336h46v-674h-44l-257 392q-96 147 -131 218l-2 -1q6 -100 6 -268v-341zM244 716h-33q-1 36 16 61t47 25q20 0 57 -21q32 -17 50 -17q25 0 27 37h33q0 -80 -60 -80q-22 0 -59 20q-38 19 -50 19
q-23 0 -28 -44z" />
    <glyph glyph-name="Ograve" unicode="&#xd2;" horiz-adv-x="671" 
d="M333 -11h-1q-127 0 -211 93.5t-84 247.5q0 162 86.5 258.5t216.5 96.5q129 0 211.5 -93.5t82.5 -247.5q0 -169 -88 -262t-213 -93zM334 29h1q115 0 182 90.5t67 221.5q0 55 -15.5 107.5t-44.5 97.5t-77.5 72t-109.5 27q-82 0 -140 -46.5t-84 -115.5t-26 -151
q0 -122 67 -212.5t180 -90.5zM207 827h73l98 -113h-40z" />
    <glyph glyph-name="Oacute" unicode="&#xd3;" horiz-adv-x="671" 
d="M333 -11h-1q-127 0 -211 93.5t-84 247.5q0 162 86.5 258.5t216.5 96.5q129 0 211.5 -93.5t82.5 -247.5q0 -169 -88 -262t-213 -93zM334 29h1q115 0 182 90.5t67 221.5q0 55 -15.5 107.5t-44.5 97.5t-77.5 72t-109.5 27q-82 0 -140 -46.5t-84 -115.5t-26 -151
q0 -122 67 -212.5t180 -90.5zM392 827h73l-131 -113h-40z" />
    <glyph glyph-name="Ocircumflex" unicode="&#xd4;" horiz-adv-x="671" 
d="M333 -11h-1q-127 0 -211 93.5t-84 247.5q0 162 86.5 258.5t216.5 96.5q129 0 211.5 -93.5t82.5 -247.5q0 -169 -88 -262t-213 -93zM334 29h1q115 0 182 90.5t67 221.5q0 55 -15.5 107.5t-44.5 97.5t-77.5 72t-109.5 27q-82 0 -140 -46.5t-84 -115.5t-26 -151
q0 -122 67 -212.5t180 -90.5zM317 823h38l107 -109h-53l-72 74h-2l-72 -74h-50z" />
    <glyph glyph-name="Otilde" unicode="&#xd5;" horiz-adv-x="671" 
d="M333 -11h-1q-127 0 -211 93.5t-84 247.5q0 162 86.5 258.5t216.5 96.5q129 0 211.5 -93.5t82.5 -247.5q0 -169 -88 -262t-213 -93zM334 29h1q115 0 182 90.5t67 221.5q0 55 -15.5 107.5t-44.5 97.5t-77.5 72t-109.5 27q-82 0 -140 -46.5t-84 -115.5t-26 -151
q0 -122 67 -212.5t180 -90.5zM254 720h-33q-1 36 16 61t47 25q20 0 57 -21q32 -17 50 -17q25 0 27 37h33q0 -80 -60 -80q-22 0 -59 20q-38 19 -50 19q-23 0 -28 -44z" />
    <glyph glyph-name="Odieresis" unicode="&#xd6;" horiz-adv-x="671" 
d="M333 -11h-1q-127 0 -211 93.5t-84 247.5q0 162 86.5 258.5t216.5 96.5q129 0 211.5 -93.5t82.5 -247.5q0 -169 -88 -262t-213 -93zM334 29h1q115 0 182 90.5t67 221.5q0 55 -15.5 107.5t-44.5 97.5t-77.5 72t-109.5 27q-82 0 -140 -46.5t-84 -115.5t-26 -151
q0 -122 67 -212.5t180 -90.5zM250 726h-1q-16 0 -26 11.5t-10 28.5q0 16 11 28t26 12q16 0 26.5 -11.5t10.5 -28.5t-10 -28.5t-27 -11.5zM422 726h-1q-16 0 -26 11.5t-10 28.5q0 16 11 28t26 12q16 0 26.5 -11.5t10.5 -28.5t-10 -28.5t-27 -11.5z" />
    <glyph glyph-name="multiply" unicode="&#xd7;" horiz-adv-x="596" 
d="M40 496l30 30l228 -232l228 232l30 -30l-228 -233l228 -233l-30 -30l-228 232l-228 -232l-30 30l228 233z" />
    <glyph glyph-name="Oslash" unicode="&#xd8;" horiz-adv-x="671" 
d="M86 -28l-29 23l66 89q-86 96 -86 248q0 162 87 257.5t216 95.5q103 0 180 -64l61 81l32 -22l-65 -87q86 -96 86 -249q0 -88 -25.5 -158t-68.5 -112t-95 -63.5t-108 -21.5q-108 0 -187 67zM152 124l342 460q-69 61 -157 61q-81 0 -139.5 -47.5t-84.5 -115t-26 -144.5
q0 -116 63 -216zM519 553l-342 -461q65 -63 158 -63q78 0 136 45t85.5 114.5t27.5 152.5q0 120 -63 212h-2z" />
    <glyph glyph-name="Ugrave" unicode="&#xd9;" horiz-adv-x="626" 
d="M81 674h48v-407q0 -122 49.5 -180t129.5 -58q88 0 138.5 59t50.5 179v407h48v-403q0 -146 -67 -214t-172 -68q-47 0 -85.5 14.5t-71 45t-50.5 85.5t-18 130v410zM189 823h73l98 -113h-40z" />
    <glyph glyph-name="Uacute" unicode="&#xda;" horiz-adv-x="626" 
d="M81 674h48v-407q0 -122 49.5 -180t129.5 -58q88 0 138.5 59t50.5 179v407h48v-403q0 -146 -67 -214t-172 -68q-47 0 -85.5 14.5t-71 45t-50.5 85.5t-18 130v410zM378 823h73l-131 -113h-40z" />
    <glyph glyph-name="Ucircumflex" unicode="&#xdb;" horiz-adv-x="626" 
d="M81 674h48v-407q0 -122 49.5 -180t129.5 -58q88 0 138.5 59t50.5 179v407h48v-403q0 -146 -67 -214t-172 -68q-47 0 -85.5 14.5t-71 45t-50.5 85.5t-18 130v410zM297 819h38l107 -109h-53l-72 74h-2l-72 -74h-50z" />
    <glyph glyph-name="Udieresis" unicode="&#xdc;" horiz-adv-x="626" 
d="M81 674h48v-407q0 -122 49.5 -180t129.5 -58q88 0 138.5 59t50.5 179v407h48v-403q0 -146 -67 -214t-172 -68q-47 0 -85.5 14.5t-71 45t-50.5 85.5t-18 130v410zM227 726h-1q-16 0 -26 11.5t-10 28.5q0 16 11 28t26 12q16 0 26.5 -11.5t10.5 -28.5t-10 -28.5t-27 -11.5z
M399 726h-1q-16 0 -26 11.5t-10 28.5q0 16 11 28t26 12q16 0 26.5 -11.5t10.5 -28.5t-10 -28.5t-27 -11.5z" />
    <glyph glyph-name="Yacute" unicode="&#xdd;" horiz-adv-x="503" 
d="M277 0h-48v292l-214 382h53l111 -201q52 -95 77 -145h2q12 28 78 146l115 200h53l-227 -383v-291zM321 815h73l-131 -113h-40z" />
    <glyph glyph-name="Thorn" unicode="&#xde;" horiz-adv-x="501" 
d="M81 0v674h47v-138q48 9 104 9q116 0 175 -56q49 -49 49 -120q0 -95 -67.5 -149t-179.5 -54q-51 0 -81 6v-172h-47zM128 495v-282q31 -7 83 -7q93 0 145 41t52 114t-48 108.5t-130 35.5q-64 0 -102 -10z" />
    <glyph glyph-name="germandbls" unicode="&#xdf;" horiz-adv-x="516" 
d="M129 0h-48v465q0 150 68 213q49 43 125 43q64 0 109.5 -41.5t45.5 -117.5q0 -45 -22 -82q-80 -32 -80 -87q0 -20 9 -38t18.5 -28.5t33.5 -33.5q28 -28 42 -44t27 -45.5t13 -62.5q0 -67 -45.5 -109.5t-119.5 -42.5q-60 0 -105 24l13 40q50 -24 94 -24q55 0 86 30t31 74
q0 66 -66 124q-40 36 -58.5 64.5t-18.5 63.5q0 77 93 122q9 19 9 48q0 61 -32.5 93.5t-85.5 32.5q-69 0 -102.5 -51.5t-33.5 -166.5v-463z" />
    <glyph glyph-name="agrave" unicode="&#xe0;" horiz-adv-x="454" 
d="M380 302v-188q0 -71 7 -114h-44l-7 69h-2q-21 -32 -61 -56t-93 -24q-68 0 -104.5 39.5t-36.5 92.5q0 85 74.5 131t218.5 45v13q0 142 -123 141q-71 0 -121 -36l-15 35q62 41 141 41q166 0 166 -189zM332 154v103q-243 7 -243 -128q0 -49 27.5 -74.5t68.5 -25.5
q56 0 92 28t50 68q5 13 5 29zM91 688h70l89 -138h-37z" />
    <glyph glyph-name="aacute" unicode="&#xe1;" horiz-adv-x="454" 
d="M380 302v-188q0 -71 7 -114h-44l-7 69h-2q-21 -32 -61 -56t-93 -24q-68 0 -104.5 39.5t-36.5 92.5q0 85 74.5 131t218.5 45v13q0 142 -123 141q-71 0 -121 -36l-15 35q62 41 141 41q166 0 166 -189zM332 154v103q-243 7 -243 -128q0 -49 27.5 -74.5t68.5 -25.5
q56 0 92 28t50 68q5 13 5 29zM272 688h70l-122 -138h-37z" />
    <glyph glyph-name="acircumflex" unicode="&#xe2;" horiz-adv-x="454" 
d="M380 302v-188q0 -71 7 -114h-44l-7 69h-2q-21 -32 -61 -56t-93 -24q-68 0 -104.5 39.5t-36.5 92.5q0 85 74.5 131t218.5 45v13q0 142 -123 141q-71 0 -121 -36l-15 35q62 41 141 41q166 0 166 -189zM332 154v103q-243 7 -243 -128q0 -49 27.5 -74.5t68.5 -25.5
q56 0 92 28t50 68q5 13 5 29zM203 688h35l94 -138h-48l-62 99h-2l-63 -99h-45z" />
    <glyph glyph-name="atilde" unicode="&#xe3;" horiz-adv-x="454" 
d="M380 302v-188q0 -71 7 -114h-44l-7 69h-2q-21 -32 -61 -56t-93 -24q-68 0 -104.5 39.5t-36.5 92.5q0 85 74.5 131t218.5 45v13q0 142 -123 141q-71 0 -121 -36l-15 35q62 41 141 41q166 0 166 -189zM332 154v103q-243 7 -243 -128q0 -49 27.5 -74.5t68.5 -25.5
q56 0 92 28t50 68q5 13 5 29zM150 572h-34q-1 40 15.5 64t44.5 24q14 0 60 -22q28 -16 42 -16q25 0 28 41h33q0 -84 -60 -84q-20 0 -56 20q-34 18 -46 18q-24 0 -27 -45z" />
    <glyph glyph-name="adieresis" unicode="&#xe4;" horiz-adv-x="454" 
d="M380 302v-188q0 -71 7 -114h-44l-7 69h-2q-21 -32 -61 -56t-93 -24q-68 0 -104.5 39.5t-36.5 92.5q0 85 74.5 131t218.5 45v13q0 142 -123 141q-71 0 -121 -36l-15 35q62 41 141 41q166 0 166 -189zM332 154v103q-243 7 -243 -128q0 -49 27.5 -74.5t68.5 -25.5
q56 0 92 28t50 68q5 13 5 29zM143 578h-2q-16 0 -26 11.5t-10 27.5q0 15 11.5 27t26.5 12q16 0 26.5 -11.5t10.5 -27.5t-10 -27.5t-27 -11.5zM312 578h-2q-16 0 -26 11.5t-10 27.5q0 15 11.5 27t26.5 12q16 0 26.5 -11.5t10.5 -27.5t-10 -27.5t-27 -11.5z" />
    <glyph glyph-name="aring" unicode="&#xe5;" horiz-adv-x="454" 
d="M380 302v-188q0 -71 7 -114h-44l-7 69h-2q-21 -32 -61 -56t-93 -24q-68 0 -104.5 39.5t-36.5 92.5q0 85 74.5 131t218.5 45v13q0 142 -123 141q-71 0 -121 -36l-15 35q62 41 141 41q166 0 166 -189zM332 154v103q-243 7 -243 -128q0 -49 27.5 -74.5t68.5 -25.5
q56 0 92 28t50 68q5 13 5 29zM225 715h1q38 0 64 -26t26 -65q0 -37 -27 -62.5t-64 -25.5q-40 0 -66.5 25.5t-26.5 62.5q0 39 26 65t67 26zM224 685h-1q-23 0 -37.5 -18t-14.5 -43q0 -22 15.5 -40t37.5 -18q24 0 39.5 17.5t15.5 42.5t-15.5 42t-39.5 17z" />
    <glyph glyph-name="ae" unicode="&#xe6;" horiz-adv-x="755" 
d="M712 251h-334q-4 -106 43.5 -163.5t125.5 -57.5q80 0 128 28l13 -38q-60 -31 -145 -31q-65 0 -114.5 32t-67.5 88h-2q-20 -57 -68 -88.5t-110 -31.5q-69 0 -105 38t-36 90q0 83 75 129.5t218 43.5v23q0 16 -4.5 35t-15.5 44t-38 41.5t-66 16.5q-73 0 -120 -35l-15 34
q63 42 137 42q127 0 153 -116h2q22 54 66.5 85t103.5 31q52 0 90 -24t55.5 -61t25 -68t7.5 -57q0 -22 -2 -30zM333 168v83q-244 7 -244 -129q0 -43 28 -68.5t69 -25.5q56 0 92.5 29t49.5 74q5 15 5 37zM379 290h285q2 33 -9.5 68t-44 64t-78.5 29q-70 0 -109.5 -51
t-43.5 -110z" />
    <glyph glyph-name="ccedilla" unicode="&#xe7;" horiz-adv-x="446" 
d="M398 59l14 -38q-60 -30 -135 -31l-29 -44q28 -3 48 -21.5t20 -45.5q0 -38 -26.5 -57.5t-67.5 -19.5q-32 0 -60 16l12 34q22 -13 53 -13q48 0 48 35q-1 37 -78 46l44 72q-90 9 -145 76t-55 167q0 114 69.5 185t177.5 71q82 0 126 -30l-17 -39q-48 28 -114 28
q-92 0 -143 -60.5t-51 -150.5q0 -94 53 -151t137 -57q61 0 119 28z" />
    <glyph glyph-name="egrave" unicode="&#xe8;" horiz-adv-x="485" 
d="M442 245h-354q0 -108 51.5 -161t131.5 -53q77 0 133 27l12 -37q-56 -31 -151 -31q-102 0 -163 67t-61 174q0 118 60.5 189t155.5 71q45 0 79.5 -16t54.5 -40t32.5 -55t16.5 -56.5t4 -49.5q0 -20 -2 -29zM91 283h303q0 28 -6 55t-21 53.5t-45 43t-71 16.5q-72 0 -112 -51
t-48 -117zM146 688h70l89 -138h-37z" />
    <glyph glyph-name="eacute" unicode="&#xe9;" horiz-adv-x="485" 
d="M442 245h-354q0 -108 51.5 -161t131.5 -53q77 0 133 27l12 -37q-56 -31 -151 -31q-102 0 -163 67t-61 174q0 118 60.5 189t155.5 71q45 0 79.5 -16t54.5 -40t32.5 -55t16.5 -56.5t4 -49.5q0 -20 -2 -29zM91 283h303q0 28 -6 55t-21 53.5t-45 43t-71 16.5q-72 0 -112 -51
t-48 -117zM307 688h70l-122 -138h-37z" />
    <glyph glyph-name="ecircumflex" unicode="&#xea;" horiz-adv-x="485" 
d="M442 245h-354q0 -108 51.5 -161t131.5 -53q77 0 133 27l12 -37q-56 -31 -151 -31q-102 0 -163 67t-61 174q0 118 60.5 189t155.5 71q45 0 79.5 -16t54.5 -40t32.5 -55t16.5 -56.5t4 -49.5q0 -20 -2 -29zM91 283h303q0 28 -6 55t-21 53.5t-45 43t-71 16.5q-72 0 -112 -51
t-48 -117zM238 688h35l94 -138h-48l-62 99h-2l-63 -99h-45z" />
    <glyph glyph-name="edieresis" unicode="&#xeb;" horiz-adv-x="485" 
d="M442 245h-354q0 -108 51.5 -161t131.5 -53q77 0 133 27l12 -37q-56 -31 -151 -31q-102 0 -163 67t-61 174q0 118 60.5 189t155.5 71q45 0 79.5 -16t54.5 -40t32.5 -55t16.5 -56.5t4 -49.5q0 -20 -2 -29zM91 283h303q0 28 -6 55t-21 53.5t-45 43t-71 16.5q-72 0 -112 -51
t-48 -117zM178 578h-2q-16 0 -26 11.5t-10 27.5q0 15 11.5 27t26.5 12q16 0 26.5 -11.5t10.5 -27.5t-10 -27.5t-27 -11.5zM347 578h-2q-16 0 -26 11.5t-10 27.5q0 15 11.5 27t26.5 12q16 0 26.5 -11.5t10.5 -27.5t-10 -27.5t-27 -11.5z" />
    <glyph glyph-name="igrave" unicode="&#xec;" horiz-adv-x="209" 
d="M129 0h-48v480h48v-480zM-27 688h70l89 -138h-37z" />
    <glyph glyph-name="iacute" unicode="&#xed;" horiz-adv-x="209" 
d="M129 0h-48v480h48v-480zM152 688h70l-122 -138h-37z" />
    <glyph glyph-name="icircumflex" unicode="&#xee;" horiz-adv-x="209" 
d="M129 0h-48v480h48v-480zM86 688h35l94 -138h-48l-62 99h-2l-63 -99h-45z" />
    <glyph glyph-name="idieresis" unicode="&#xef;" horiz-adv-x="209" 
d="M129 0h-48v480h48v-480zM21 578h-2q-16 0 -26 11.5t-10 27.5q0 15 11.5 27t26.5 12q16 0 26.5 -11.5t10.5 -27.5t-10 -27.5t-27 -11.5zM190 578h-2q-16 0 -26 11.5t-10 27.5q0 15 11.5 27t26.5 12q16 0 26.5 -11.5t10.5 -27.5t-10 -27.5t-27 -11.5z" />
    <glyph glyph-name="eth" unicode="&#xf0;" horiz-adv-x="521" 
d="M255 29h1q76 0 124 60t48 154q0 103 -41 152q-50 56 -128 56q-57 0 -97 -35.5t-56.5 -82t-16.5 -96.5q0 -88 48.5 -148t117.5 -60zM121 525l-14 33l123 60q-44 35 -111 67l22 36q74 -38 130 -81l122 61l16 -34l-107 -53q87 -72 131 -165q44 -88 44 -199q0 -129 -66 -195
t-156 -66q-94 0 -154 67.5t-60 178.5q0 116 65.5 186t151.5 70q82 0 139 -58l2 3q-47 85 -136 158z" />
    <glyph glyph-name="ntilde" unicode="&#xf1;" horiz-adv-x="536" 
d="M81 0v365q0 64 -4 115h45l3 -86h2q20 42 64.5 69.5t100.5 27.5q17 0 35.5 -3.5t43.5 -16.5t43.5 -33.5t32 -59.5t13.5 -90v-288h-48v284q0 73 -32 120t-101 47q-50 0 -90 -31.5t-54 -79.5q-6 -22 -6 -42v-298h-48zM191 572h-34q-1 40 15.5 64t44.5 24q14 0 60 -22
q28 -16 42 -16q25 0 28 41h33q0 -84 -60 -84q-20 0 -56 20q-34 18 -46 18q-24 0 -27 -45z" />
    <glyph glyph-name="ograve" unicode="&#xf2;" horiz-adv-x="532" 
d="M262 -11h-1q-95 0 -157.5 68t-62.5 179q0 118 66.5 186.5t160.5 68.5q100 0 161.5 -68.5t61.5 -178.5q0 -64 -20.5 -114.5t-54.5 -80t-73.5 -45t-80.5 -15.5zM263 29h1q76 0 127.5 60.5t51.5 152.5q0 35 -10 70t-30 67t-55.5 52t-80.5 20q-86 0 -132 -63t-46 -149
q0 -90 50 -150t124 -60zM153 688h70l89 -138h-37z" />
    <glyph glyph-name="oacute" unicode="&#xf3;" horiz-adv-x="532" 
d="M262 -11h-1q-95 0 -157.5 68t-62.5 179q0 118 66.5 186.5t160.5 68.5q100 0 161.5 -68.5t61.5 -178.5q0 -64 -20.5 -114.5t-54.5 -80t-73.5 -45t-80.5 -15.5zM263 29h1q76 0 127.5 60.5t51.5 152.5q0 35 -10 70t-30 67t-55.5 52t-80.5 20q-86 0 -132 -63t-46 -149
q0 -90 50 -150t124 -60zM311 688h70l-122 -138h-37z" />
    <glyph glyph-name="ocircumflex" unicode="&#xf4;" horiz-adv-x="532" 
d="M262 -11h-1q-95 0 -157.5 68t-62.5 179q0 118 66.5 186.5t160.5 68.5q100 0 161.5 -68.5t61.5 -178.5q0 -64 -20.5 -114.5t-54.5 -80t-73.5 -45t-80.5 -15.5zM263 29h1q76 0 127.5 60.5t51.5 152.5q0 35 -10 70t-30 67t-55.5 52t-80.5 20q-86 0 -132 -63t-46 -149
q0 -90 50 -150t124 -60zM247 688h35l94 -138h-48l-62 99h-2l-63 -99h-45z" />
    <glyph glyph-name="otilde" unicode="&#xf5;" horiz-adv-x="532" 
d="M262 -11h-1q-95 0 -157.5 68t-62.5 179q0 118 66.5 186.5t160.5 68.5q100 0 161.5 -68.5t61.5 -178.5q0 -64 -20.5 -114.5t-54.5 -80t-73.5 -45t-80.5 -15.5zM263 29h1q76 0 127.5 60.5t51.5 152.5q0 35 -10 70t-30 67t-55.5 52t-80.5 20q-86 0 -132 -63t-46 -149
q0 -90 50 -150t124 -60zM189 572h-34q-1 40 15.5 64t44.5 24q14 0 60 -22q28 -16 42 -16q25 0 28 41h33q0 -84 -60 -84q-20 0 -56 20q-34 18 -46 18q-24 0 -27 -45z" />
    <glyph glyph-name="odieresis" unicode="&#xf6;" horiz-adv-x="532" 
d="M262 -11h-1q-95 0 -157.5 68t-62.5 179q0 118 66.5 186.5t160.5 68.5q100 0 161.5 -68.5t61.5 -178.5q0 -64 -20.5 -114.5t-54.5 -80t-73.5 -45t-80.5 -15.5zM263 29h1q76 0 127.5 60.5t51.5 152.5q0 35 -10 70t-30 67t-55.5 52t-80.5 20q-86 0 -132 -63t-46 -149
q0 -90 50 -150t124 -60zM182 578h-2q-16 0 -26 11.5t-10 27.5q0 15 11.5 27t26.5 12q16 0 26.5 -11.5t10.5 -27.5t-10 -27.5t-27 -11.5zM351 578h-2q-16 0 -26 11.5t-10 27.5q0 15 11.5 27t26.5 12q16 0 26.5 -11.5t10.5 -27.5t-10 -27.5t-27 -11.5z" />
    <glyph glyph-name="divide" unicode="&#xf7;" horiz-adv-x="596" 
d="M298 399h-1q-18 0 -29.5 13t-10.5 31q0 20 11.5 32.5t29.5 12.5q19 0 30 -12.5t11 -32.5q0 -19 -11.5 -31.5t-29.5 -12.5zM556 248h-516v40h516v-40zM298 48h-1q-18 0 -29.5 13t-10.5 31q0 20 11.5 32.5t29.5 12.5q19 0 30 -12.5t11 -32.5q0 -19 -11.5 -31.5t-29.5 -12.5
z" />
    <glyph glyph-name="oslash" unicode="&#xf8;" horiz-adv-x="532" 
d="M268 491h1q69 0 125 -39l39 54l31 -20l-41 -59q68 -71 68 -181q0 -125 -68 -191t-157 -66q-75 0 -128 40l-41 -56l-28 24l40 57q-68 70 -68 182q0 118 66 186.5t161 68.5zM137 91l233 324q-40 36 -104 36q-87 0 -132 -64t-45 -148q0 -87 46 -148h2zM395 387l-232 -324
q41 -34 99 -34q80 0 130.5 61t50.5 153q0 82 -46 144h-2z" />
    <glyph glyph-name="ugrave" unicode="&#xf9;" horiz-adv-x="531" 
d="M451 480v-363q0 -68 4 -117h-45l-3 86h-2q-21 -39 -63.5 -68t-100.5 -29q-27 0 -52 8.5t-52 29t-43.5 65.5t-16.5 109v279h48v-270q0 -179 127 -179q49 0 87 28.5t55 68.5q9 27 9 53v299h48zM146 688h70l89 -138h-37z" />
    <glyph glyph-name="uacute" unicode="&#xfa;" horiz-adv-x="531" 
d="M451 480v-363q0 -68 4 -117h-45l-3 86h-2q-21 -39 -63.5 -68t-100.5 -29q-27 0 -52 8.5t-52 29t-43.5 65.5t-16.5 109v279h48v-270q0 -179 127 -179q49 0 87 28.5t55 68.5q9 27 9 53v299h48zM325 688h70l-122 -138h-37z" />
    <glyph glyph-name="ucircumflex" unicode="&#xfb;" horiz-adv-x="531" 
d="M451 480v-363q0 -68 4 -117h-45l-3 86h-2q-21 -39 -63.5 -68t-100.5 -29q-27 0 -52 8.5t-52 29t-43.5 65.5t-16.5 109v279h48v-270q0 -179 127 -179q49 0 87 28.5t55 68.5q9 27 9 53v299h48zM247 688h35l94 -138h-48l-62 99h-2l-63 -99h-45z" />
    <glyph glyph-name="udieresis" unicode="&#xfc;" horiz-adv-x="531" 
d="M451 480v-363q0 -68 4 -117h-45l-3 86h-2q-21 -39 -63.5 -68t-100.5 -29q-27 0 -52 8.5t-52 29t-43.5 65.5t-16.5 109v279h48v-270q0 -179 127 -179q49 0 87 28.5t55 68.5q9 27 9 53v299h48zM185 578h-2q-16 0 -26 11.5t-10 27.5q0 15 11.5 27t26.5 12q16 0 26.5 -11.5
t10.5 -27.5t-10 -27.5t-27 -11.5zM354 578h-2q-16 0 -26 11.5t-10 27.5q0 15 11.5 27t26.5 12q16 0 26.5 -11.5t10.5 -27.5t-10 -27.5t-27 -11.5z" />
    <glyph glyph-name="yacute" unicode="&#xfd;" horiz-adv-x="440" 
d="M11 480h51l126 -314q19 -50 35 -103h2l37 106l117 311h51l-144 -358q-48 -123 -83 -188.5t-79 -104.5q-41 -34 -84 -50l-15 40q45 17 84 53q50 50 80 121q6 15 6 21t-6 21zM278 688h70l-122 -138h-37z" />
    <glyph glyph-name="thorn" unicode="&#xfe;" horiz-adv-x="552" 
d="M80 665h48v-271h2q57 97 176 97q90 0 147.5 -68t57.5 -175q0 -124 -64 -191.5t-156 -67.5q-107 0 -161 88h-2v-275h-48v863zM128 278v-92q0 -24 6 -43q16 -53 60 -83.5t100 -30.5q76 0 122.5 59t46.5 159q0 85 -46 144.5t-123 59.5q-51 0 -95 -32.5t-62 -86.5
q-9 -29 -9 -54z" />
    <glyph glyph-name="ydieresis" unicode="&#xff;" horiz-adv-x="440" 
d="M11 480h51l126 -314q19 -50 35 -103h2l37 106l117 311h51l-144 -358q-48 -123 -83 -188.5t-79 -104.5q-41 -34 -84 -50l-15 40q45 17 84 53q50 50 80 121q6 15 6 21t-6 21zM148 578h-2q-16 0 -26 11.5t-10 27.5q0 15 11.5 27t26.5 12q16 0 26.5 -11.5t10.5 -27.5
t-10 -27.5t-27 -11.5zM317 578h-2q-16 0 -26 11.5t-10 27.5q0 15 11.5 27t26.5 12q16 0 26.5 -11.5t10.5 -27.5t-10 -27.5t-27 -11.5z" />
    <glyph glyph-name="Amacron" unicode="&#x100;" horiz-adv-x="585" 
d="M429 236h-267l-83 -236h-49l244 674h46l243 -674h-49zM177 276h237l-82 225q-16 48 -35 119h-2q-11 -45 -35 -117zM180 772h228v-39h-228v39z" />
    <glyph glyph-name="amacron" unicode="&#x101;" horiz-adv-x="454" 
d="M380 302v-188q0 -71 7 -114h-44l-7 69h-2q-21 -32 -61 -56t-93 -24q-68 0 -104.5 39.5t-36.5 92.5q0 85 74.5 131t218.5 45v13q0 142 -123 141q-71 0 -121 -36l-15 35q62 41 141 41q166 0 166 -189zM332 154v103q-243 7 -243 -128q0 -49 27.5 -74.5t68.5 -25.5
q56 0 92 28t50 68q5 13 5 29zM123 629h210v-40h-210v40z" />
    <glyph glyph-name="Abreve" unicode="&#x102;" horiz-adv-x="585" 
d="M429 236h-267l-83 -236h-49l244 674h46l243 -674h-49zM177 276h237l-82 225q-16 48 -35 119h-2q-11 -45 -35 -117zM179 806h35q13 -50 80 -50q68 0 78 50h35q-2 -41 -30 -67t-85 -26q-55 0 -83 26t-30 67z" />
    <glyph glyph-name="abreve" unicode="&#x103;" horiz-adv-x="454" 
d="M380 302v-188q0 -71 7 -114h-44l-7 69h-2q-21 -32 -61 -56t-93 -24q-68 0 -104.5 39.5t-36.5 92.5q0 85 74.5 131t218.5 45v13q0 142 -123 141q-71 0 -121 -36l-15 35q62 41 141 41q166 0 166 -189zM332 154v103q-243 7 -243 -128q0 -49 27.5 -74.5t68.5 -25.5
q56 0 92 28t50 68q5 13 5 29zM112 676h36q5 -32 26 -53t53 -21q36 0 56 22t23 52h36q0 -51 -32.5 -82.5t-82.5 -31.5q-58 0 -86.5 34.5t-28.5 79.5z" />
    <glyph glyph-name="Aogonek" unicode="&#x104;" horiz-adv-x="585" 
d="M320 674l243 -674l-9 -3q-13 -11 -27 -26t-28.5 -39t-14.5 -44q0 -23 13.5 -36t35.5 -13t46 11l9 -29q-23 -19 -67 -19q-37 0 -59.5 20t-22.5 55q0 24 13.5 50t25.5 41t34 38l-83 230h-267l-83 -236h-49l244 674h46zM177 276h238l-82 225q-17 48 -36 119h-2
q-16 -63 -35 -117z" />
    <glyph glyph-name="aogonek" unicode="&#x105;" horiz-adv-x="454" 
d="M380 302v-188q0 -64 7 -114h-6q-51 -59 -51 -111q0 -49 49 -49q26 0 46 10l9 -30q-26 -18 -68 -18q-36 0 -58.5 20t-22.5 55q0 47 52 121q4 5 5 7l-6 64h-2q-21 -32 -61 -56t-93 -24q-68 0 -104.5 39.5t-36.5 92.5q0 85 74.5 131t218.5 45v13q0 142 -123 141
q-71 0 -121 -36l-15 35q62 41 141 41q166 0 166 -189zM332 154v103q-243 7 -243 -128q0 -49 27.5 -74.5t68.5 -25.5q56 0 92 28t50 68q5 13 5 29z" />
    <glyph glyph-name="Cacute" unicode="&#x106;" horiz-adv-x="570" 
d="M524 62l14 -38q-68 -34 -182 -34q-63 0 -119 20.5t-101.5 61t-72 108t-26.5 153.5q0 153 92.5 252t249.5 99q98 0 156 -29l-15 -40q-58 29 -140 29q-137 0 -215 -83.5t-78 -228.5q0 -139 75.5 -220t209.5 -81q88 0 152 31zM415 826h73l-131 -113h-40z" />
    <glyph glyph-name="cacute" unicode="&#x107;" horiz-adv-x="446" 
d="M399 59l13 -38q-65 -31 -141 -31q-103 0 -166.5 68t-63.5 177q0 114 69.5 185t177.5 71q84 0 126 -30l-17 -39q-46 28 -113 28q-93 0 -144 -60.5t-51 -150.5q0 -94 53 -151t137 -57q59 0 120 28zM309 688h70l-122 -138h-37z" />
    <glyph glyph-name="Ccircumflex" unicode="&#x108;" horiz-adv-x="570" 
d="M524 62l14 -38q-68 -34 -182 -34q-63 0 -119 20.5t-101.5 61t-72 108t-26.5 153.5q0 153 92.5 252t249.5 99q98 0 156 -29l-15 -40q-58 29 -140 29q-137 0 -215 -83.5t-78 -228.5q0 -139 75.5 -220t209.5 -81q88 0 152 31zM322 823h38l107 -109h-53l-72 74h-2l-72 -74
h-50z" />
    <glyph glyph-name="ccircumflex" unicode="&#x109;" horiz-adv-x="446" 
d="M399 59l13 -38q-65 -31 -141 -31q-103 0 -166.5 68t-63.5 177q0 114 69.5 185t177.5 71q84 0 126 -30l-17 -39q-46 28 -113 28q-93 0 -144 -60.5t-51 -150.5q0 -94 53 -151t137 -57q59 0 120 28zM239 688h35l94 -138h-48l-62 99h-2l-63 -99h-45z" />
    <glyph glyph-name="Cdotaccent" unicode="&#x10a;" horiz-adv-x="570" 
d="M524 62l14 -38q-68 -34 -182 -34q-63 0 -119 20.5t-101.5 61t-72 108t-26.5 153.5q0 153 92.5 252t249.5 99q98 0 156 -29l-15 -40q-58 29 -140 29q-137 0 -215 -83.5t-78 -228.5q0 -139 75.5 -220t209.5 -81q88 0 152 31zM342 724h-2q-15 0 -25.5 12t-10.5 27t11.5 27
t26.5 12t26 -12t11 -27t-11 -27t-26 -12z" />
    <glyph glyph-name="cdotaccent" unicode="&#x10b;" horiz-adv-x="446" 
d="M399 59l13 -38q-65 -31 -141 -31q-103 0 -166.5 68t-63.5 177q0 114 69.5 185t177.5 71q84 0 126 -30l-17 -39q-46 28 -113 28q-93 0 -144 -60.5t-51 -150.5q0 -94 53 -151t137 -57q59 0 120 28zM258 578h-1q-15 0 -26 12t-11 28t11.5 28t27.5 12q15 0 26 -12t11 -28
t-10.5 -28t-27.5 -12z" />
    <glyph glyph-name="Ccaron" unicode="&#x10c;" horiz-adv-x="570" 
d="M524 62l14 -38q-68 -34 -182 -34q-63 0 -119 20.5t-101.5 61t-72 108t-26.5 153.5q0 153 92.5 252t249.5 99q98 0 156 -29l-15 -40q-58 29 -140 29q-137 0 -215 -83.5t-78 -228.5q0 -139 75.5 -220t209.5 -81q88 0 152 31zM367 714h-38l-107 109h53l73 -74h2l71 74h50z
" />
    <glyph glyph-name="ccaron" unicode="&#x10d;" horiz-adv-x="446" 
d="M399 59l13 -38q-65 -31 -141 -31q-103 0 -166.5 68t-63.5 177q0 114 69.5 185t177.5 71q84 0 126 -30l-17 -39q-46 28 -113 28q-93 0 -144 -60.5t-51 -150.5q0 -94 53 -151t137 -57q59 0 120 28zM278 550h-38l-94 138h48l64 -100h2l64 100h45z" />
    <glyph glyph-name="Dcaron" unicode="&#x10e;" horiz-adv-x="647" 
d="M81 0v664q87 15 173 15q185 0 272 -92q84 -87 84 -234q0 -158 -88 -255q-93 -103 -291 -103q-89 0 -150 5zM129 628v-588q34 -5 109 -5q159 0 241 83.5t82 232.5q2 134 -75.5 211t-234.5 77q-69 0 -122 -11zM320 713h-38l-107 109h53l73 -74h2l71 74h50z" />
    <glyph glyph-name="dcaron" unicode="&#x10f;" horiz-adv-x="554" 
d="M416 711h48v-600q0 -66 4 -111h-43l-4 91h-2q-21 -44 -64.5 -73t-106.5 -29q-90 0 -148.5 67.5t-58.5 174.5q-1 117 62 188.5t154 71.5q58 0 98.5 -25t58.5 -60h2v305zM416 194v96q0 26 -5 44q-13 50 -53.5 83.5t-97.5 33.5q-78 0 -124.5 -60.5t-46.5 -154.5
q0 -87 43.5 -147t124.5 -60q53 0 96 33.5t58 91.5q5 15 5 40zM531 538l-20 23q41 34 41 81q0 38 -37 63l43 12q37 -24 37 -71q0 -12 -2.5 -23.5t-5.5 -20t-8.5 -17t-10 -14t-11.5 -12t-10 -9l-9 -7.5z" />
    <glyph glyph-name="Dcroat" unicode="&#x110;" horiz-adv-x="651" 
d="M-5 322v39h89v306q87 15 173 15q185 0 272 -92q84 -87 84 -237q0 -159 -88 -256q-93 -103 -291 -103q-91 0 -150 6v322h-89zM341 361v-39h-209v-283q34 -5 109 -5q159 0 241 84t82 236q2 134 -75.5 211t-234.5 77q-69 0 -122 -11v-270h209z" />
    <glyph glyph-name="dcroat" unicode="&#x111;" horiz-adv-x="544" 
d="M540 559h-76v-448q0 -66 4 -111h-43l-4 91h-2q-21 -44 -64.5 -73t-106.5 -29q-90 0 -148.5 67.5t-58.5 174.5q-1 117 62 188.5t154 71.5q58 0 98.5 -25t58.5 -60h2v153h-208v39h208v113h48v-113h76v-39zM416 194v96q0 26 -5 44q-13 50 -53.5 83.5t-97.5 33.5
q-78 0 -124.5 -60.5t-46.5 -154.5q0 -87 43.5 -147t124.5 -60q53 0 96 33.5t58 91.5q5 15 5 40z" />
    <glyph glyph-name="Emacron" unicode="&#x112;" horiz-adv-x="466" 
d="M398 375v-40h-269v-295h301v-40h-349v674h333v-40h-285v-259h269zM139 772h228v-39h-228v39z" />
    <glyph glyph-name="emacron" unicode="&#x113;" horiz-adv-x="485" 
d="M442 245h-354q0 -108 51.5 -161t131.5 -53q77 0 133 27l12 -37q-56 -31 -151 -31q-102 0 -163 67t-61 174q0 118 60.5 189t155.5 71q45 0 79.5 -16t54.5 -40t32.5 -55t16.5 -56.5t4 -49.5q0 -20 -2 -29zM91 283h303q0 28 -6 55t-21 53.5t-45 43t-71 16.5q-72 0 -112 -51
t-48 -117zM141 629h210v-40h-210v40z" />
    <glyph glyph-name="Ebreve" unicode="&#x114;" horiz-adv-x="466" 
d="M398 375v-40h-269v-295h301v-40h-349v674h333v-40h-285v-259h269zM128 817h35q13 -50 80 -50q68 0 78 50h35q-2 -41 -30 -67t-85 -26q-55 0 -83 26t-30 67z" />
    <glyph glyph-name="ebreve" unicode="&#x115;" horiz-adv-x="485" 
d="M442 245h-354q0 -108 51.5 -161t131.5 -53q77 0 133 27l12 -37q-56 -31 -151 -31q-102 0 -163 67t-61 174q0 118 60.5 189t155.5 71q45 0 79.5 -16t54.5 -40t32.5 -55t16.5 -56.5t4 -49.5q0 -20 -2 -29zM91 283h303q0 28 -6 55t-21 53.5t-45 43t-71 16.5q-72 0 -112 -51
t-48 -117zM130 676h36q5 -32 26 -53t53 -21q36 0 56 22t23 52h36q0 -51 -32.5 -82.5t-82.5 -31.5q-58 0 -86.5 34.5t-28.5 79.5z" />
    <glyph glyph-name="Edotaccent" unicode="&#x116;" horiz-adv-x="466" 
d="M398 375v-40h-269v-295h301v-40h-349v674h333v-40h-285v-259h269zM240 727h-2q-15 0 -25.5 12t-10.5 27t11.5 27t26.5 12t26 -12t11 -27t-11 -27t-26 -12z" />
    <glyph glyph-name="edotaccent" unicode="&#x117;" horiz-adv-x="485" 
d="M442 245h-354q0 -108 51.5 -161t131.5 -53q77 0 133 27l12 -37q-56 -31 -151 -31q-102 0 -163 67t-61 174q0 118 60.5 189t155.5 71q45 0 79.5 -16t54.5 -40t32.5 -55t16.5 -56.5t4 -49.5q0 -20 -2 -29zM91 283h303q0 28 -6 55t-21 53.5t-45 43t-71 16.5q-72 0 -112 -51
t-48 -117zM246 578h-1q-15 0 -26 12t-11 28t11.5 28t27.5 12q15 0 26 -12t11 -28t-10.5 -28t-27.5 -12z" />
    <glyph glyph-name="Eogonek" unicode="&#x118;" horiz-adv-x="466" 
d="M425 -151l9 -32q-30 -15 -64 -15q-39 0 -62 19.5t-23 54.5q0 37 26.5 70.5t60.5 54.5h-291v673h334v-40h-286v-259h270v-40h-270v-294h302v-40q-1 0 -5 -0.5t-5 -0.5q-38 -25 -64.5 -55.5t-26.5 -58.5q0 -22 13.5 -33.5t36.5 -11.5q25 0 45 8z" />
    <glyph glyph-name="eogonek" unicode="&#x119;" horiz-adv-x="485" 
d="M363 -149l9 -30q-27 -18 -67 -18q-37 0 -59 19.5t-22 55.5q0 32 23.5 63t53.5 50v1q-24 -2 -36 -2q-102 0 -163 67t-61 174q0 118 60.5 189t155.5 71q45 0 79.5 -16t54.5 -40t32.5 -55t16.5 -56.5t4 -49.5q0 -21 -2 -29h-354q0 -108 51 -161t131 -53q78 0 134 27l12 -37
q-18 -10 -47 -18q-35 -14 -67.5 -48t-32.5 -67q0 -23 13 -35t32 -12q30 0 49 10zM91 283h303q0 28 -6 55t-21 53.5t-45.5 43t-71.5 16.5q-72 0 -111.5 -51t-47.5 -117z" />
    <glyph glyph-name="Ecaron" unicode="&#x11a;" horiz-adv-x="466" 
d="M398 375v-40h-269v-295h301v-40h-349v674h333v-40h-285v-259h269zM269 710h-38l-107 109h53l73 -74h2l71 74h50z" />
    <glyph glyph-name="ecaron" unicode="&#x11b;" horiz-adv-x="485" 
d="M442 245h-354q0 -108 51.5 -161t131.5 -53q77 0 133 27l12 -37q-56 -31 -151 -31q-102 0 -163 67t-61 174q0 118 60.5 189t155.5 71q45 0 79.5 -16t54.5 -40t32.5 -55t16.5 -56.5t4 -49.5q0 -20 -2 -29zM91 283h303q0 28 -6 55t-21 53.5t-45 43t-71 16.5q-72 0 -112 -51
t-48 -117zM266 550h-38l-94 138h48l64 -100h2l64 100h45z" />
    <glyph glyph-name="Gcircumflex" unicode="&#x11c;" horiz-adv-x="624" 
d="M565 334v-305q-87 -36 -197 -36q-147 0 -238 88q-93 90 -93 254q0 147 93.5 246.5t258.5 99.5q97 0 157 -30l-16 -39q-60 29 -144 29q-138 0 -218.5 -83t-80.5 -221q0 -142 77.5 -223t211.5 -81q98 0 141 24v238h-156v39h204zM333 822h38l107 -109h-53l-72 74h-2l-72 -74
h-50z" />
    <glyph glyph-name="gcircumflex" unicode="&#x11d;" horiz-adv-x="544" 
d="M464 356v-286q0 -159 -66 -222q-60 -57 -163 -57q-97 0 -153 42l17 38q62 -40 143 -40q174 0 174 194v68h-2q-21 -40 -63.5 -66.5t-103.5 -26.5q-90 0 -148 68t-58 168q0 118 65 186.5t151 68.5q116 0 162 -92h2l3 81h44q-4 -48 -4 -124zM416 199v96q0 30 -6 47
q-16 47 -54.5 78t-94.5 31q-77 0 -124.5 -57.5t-47.5 -152.5q0 -86 44.5 -143.5t125.5 -57.5q49 0 90 29t59 79q8 26 8 51zM251 693h35l94 -138h-48l-62 99h-2l-63 -99h-45z" />
    <glyph glyph-name="Gbreve" unicode="&#x11e;" horiz-adv-x="624" 
d="M565 334v-305q-87 -36 -197 -36q-147 0 -238 88q-93 90 -93 254q0 147 93.5 246.5t258.5 99.5q97 0 157 -30l-16 -39q-60 29 -144 29q-138 0 -218.5 -83t-80.5 -221q0 -142 77.5 -223t211.5 -81q98 0 141 24v238h-156v39h204zM227 817h35q13 -50 80 -50q68 0 78 50h35
q-2 -41 -30 -67t-85 -26q-55 0 -83 26t-30 67z" />
    <glyph glyph-name="gbreve" unicode="&#x11f;" horiz-adv-x="544" 
d="M464 356v-286q0 -159 -66 -222q-60 -57 -163 -57q-97 0 -153 42l17 38q62 -40 143 -40q174 0 174 194v68h-2q-21 -40 -63.5 -66.5t-103.5 -26.5q-90 0 -148 68t-58 168q0 118 65 186.5t151 68.5q116 0 162 -92h2l3 81h44q-4 -48 -4 -124zM416 199v96q0 30 -6 47
q-16 47 -54.5 78t-94.5 31q-77 0 -124.5 -57.5t-47.5 -152.5q0 -86 44.5 -143.5t125.5 -57.5q49 0 90 29t59 79q8 26 8 51zM144 676h36q5 -32 26 -53t53 -21q36 0 56 22t23 52h36q0 -51 -32.5 -82.5t-82.5 -31.5q-58 0 -86.5 34.5t-28.5 79.5z" />
    <glyph glyph-name="Gdotaccent" unicode="&#x120;" horiz-adv-x="624" 
d="M565 334v-305q-87 -36 -197 -36q-147 0 -238 88q-93 90 -93 254q0 147 93.5 246.5t258.5 99.5q97 0 157 -30l-16 -39q-60 29 -144 29q-138 0 -218.5 -83t-80.5 -221q0 -142 77.5 -223t211.5 -81q98 0 141 24v238h-156v39h204zM354 724h-2q-15 0 -25.5 12t-10.5 27
t11.5 27t26.5 12t26 -12t11 -27t-11 -27t-26 -12z" />
    <glyph glyph-name="gdotaccent" unicode="&#x121;" horiz-adv-x="544" 
d="M464 356v-286q0 -159 -66 -222q-60 -57 -163 -57q-97 0 -153 42l17 38q62 -40 143 -40q174 0 174 194v68h-2q-21 -40 -63.5 -66.5t-103.5 -26.5q-90 0 -148 68t-58 168q0 118 65 186.5t151 68.5q116 0 162 -92h2l3 81h44q-4 -48 -4 -124zM416 199v96q0 30 -6 47
q-16 47 -54.5 78t-94.5 31q-77 0 -124.5 -57.5t-47.5 -152.5q0 -86 44.5 -143.5t125.5 -57.5q49 0 90 29t59 79q8 26 8 51zM272 583h-1q-15 0 -26 12t-11 28t11.5 28t27.5 12q15 0 26 -12t11 -28t-10.5 -28t-27.5 -12z" />
    <glyph glyph-name="Gcommaaccent" unicode="&#x122;" horiz-adv-x="624" 
d="M565 334v-305q-87 -36 -197 -36q-147 0 -238 88q-93 90 -93 254q0 147 93.5 246.5t258.5 99.5q97 0 157 -30l-16 -39q-60 29 -144 29q-138 0 -218.5 -83t-80.5 -221q0 -142 77.5 -223t211.5 -81q98 0 141 24v238h-156v39h204zM305 -209l-14 26q81 12 81 68q0 36 -37 61
l40 12q16 -10 28 -29t12 -41q0 -46 -34 -69.5t-76 -27.5z" />
    <glyph glyph-name="gcommaaccent" unicode="&#x123;" horiz-adv-x="544" 
d="M464 356v-286q0 -159 -66 -222q-60 -57 -163 -57q-97 0 -153 42l17 38q62 -40 143 -40q174 0 174 194v68h-2q-21 -40 -63.5 -66.5t-103.5 -26.5q-90 0 -148 68t-58 168q0 118 65 186.5t151 68.5q116 0 162 -92h2l3 81h44q-4 -48 -4 -124zM416 199v96q0 30 -6 47
q-16 47 -54.5 78t-94.5 31q-77 0 -124.5 -57.5t-47.5 -152.5q0 -86 44.5 -143.5t125.5 -57.5q49 0 89.5 29t59.5 79q8 26 8 51zM322 700l13 -26q-81 -12 -81 -68q0 -36 37 -62l-40 -11q-16 10 -28 29t-12 41q0 46 34 69.5t77 27.5z" />
    <glyph glyph-name="Hcircumflex" unicode="&#x124;" horiz-adv-x="630" 
d="M81 674h48v-297h372v297h48v-674h-48v337h-372v-337h-48v674zM296 819h38l107 -109h-53l-72 74h-2l-72 -74h-50z" />
    <glyph glyph-name="hcircumflex" unicode="&#x125;" horiz-adv-x="536" 
d="M81 0v711h48v-317h2q22 43 65 69q46 28 97 28q17 0 35 -3.5t43 -16.5t43.5 -33.5t32 -59t13.5 -89.5v-289h-48v284q0 72 -31.5 118.5t-100.5 46.5q-49 0 -89 -31t-56 -77q-6 -18 -6 -48v-293h-48zM88 835h38l107 -109h-53l-72 74h-2l-72 -74h-50z" />
    <glyph glyph-name="Hbar" unicode="&#x126;" horiz-adv-x="630" 
d="M602 484h-53v-484h-48v330h-372v-330h-48v484h-53v38h53v152h48v-152h372v152h48v-152h53v-38zM501 370v114h-372v-114h372z" />
    <glyph glyph-name="hbar" unicode="&#x127;" horiz-adv-x="536" 
d="M460 0h-48v284q0 72 -31.5 118.5t-100.5 46.5q-49 0 -89 -31t-56 -77q-6 -18 -6 -48v-293h-48v559h-76v39h76v113h48v-113h200v-39h-200v-165h2q22 43 65 69q46 28 97 28q17 0 35 -3.5t43 -16.5t43.5 -33.5t32 -59t13.5 -89.5v-289z" />
    <glyph glyph-name="Itilde" unicode="&#x128;" horiz-adv-x="211" 
d="M81 674h48v-674h-48v674zM24 716h-33q-1 36 16 61t47 25q20 0 57 -21q32 -17 50 -17q25 0 27 37h33q0 -80 -60 -80q-22 0 -59 20q-38 19 -50 19q-23 0 -28 -44z" />
    <glyph glyph-name="itilde" unicode="&#x129;" horiz-adv-x="209" 
d="M129 0h-48v480h48v-480zM28 572h-34q-1 40 15.5 64t44.5 24q14 0 60 -22q28 -16 42 -16q25 0 28 41h33q0 -84 -60 -84q-20 0 -56 20q-34 18 -46 18q-24 0 -27 -45z" />
    <glyph glyph-name="Imacron" unicode="&#x12a;" horiz-adv-x="211" 
d="M81 674h48v-674h-48v674zM-7 772h228v-39h-228v39z" />
    <glyph glyph-name="imacron" unicode="&#x12b;" horiz-adv-x="209" 
d="M129 0h-48v480h48v-480zM1 629h210v-40h-210v40z" />
    <glyph glyph-name="Ibreve" unicode="&#x12c;" horiz-adv-x="211" 
d="M81 674h48v-674h-48v674zM-10 812h35q13 -50 80 -50q68 0 78 50h35q-2 -41 -30 -67t-85 -26q-55 0 -83 26t-30 67z" />
    <glyph glyph-name="ibreve" unicode="&#x12d;" horiz-adv-x="209" 
d="M129 0h-48v480h48v-480zM-6 676h36q5 -32 26 -53t53 -21q36 0 56 22t23 52h36q0 -51 -32.5 -82.5t-82.5 -31.5q-58 0 -86.5 34.5t-28.5 79.5z" />
    <glyph glyph-name="Iogonek" unicode="&#x12e;" horiz-adv-x="211" 
d="M129 674v-674h-6q-53 -64 -53 -116q0 -49 48 -49q25 0 47 10l8 -30q-24 -18 -68 -18q-35 0 -57.5 20t-22.5 55q0 23 11.5 50.5t19 39l25.5 38.5v674h48z" />
    <glyph glyph-name="iogonek" unicode="&#x12f;" horiz-adv-x="209" 
d="M104 583h-1q-16 0 -26.5 12t-10.5 29t11.5 29.5t27.5 12.5t27 -12.5t11 -29.5t-11 -29t-28 -12zM129 480v-480h-6q-54 -65 -54 -116q0 -49 49 -49q25 0 47 10l8 -30q-24 -18 -68 -18q-36 0 -58.5 20t-22.5 55q0 49 57 128v480h48z" />
    <glyph glyph-name="Idotaccent" unicode="&#x130;" horiz-adv-x="211" 
d="M81 674h48v-674h-48v674zM105 727h-2q-15 0 -25.5 12t-10.5 27t11.5 27t26.5 12t26 -12t11 -27t-11 -27t-26 -12z" />
    <glyph glyph-name="dotlessi" unicode="&#x131;" horiz-adv-x="209" 
d="M129 0h-48v480h48v-480z" />
    <glyph glyph-name="IJ" unicode="&#x132;" horiz-adv-x="556" 
d="M81 674h48v-674h-48v674zM434 219v455h48v-466q0 -219 -182 -219q-48 0 -82 16l10 38q32 -13 71 -13q69 0 102 41t33 148z" />
    <glyph glyph-name="ij" unicode="&#x133;" horiz-adv-x="423" 
d="M129 0h-48v480h48v-480zM104 576h-1q-16 0 -26.5 12t-10.5 29t11.5 29.5t27.5 12.5t27 -12.5t11 -29.5t-11 -29t-28 -12zM167 -209l-7 39q68 3 100 40q20 24 28 64t8 131v415h48v-447q0 -69 -11 -113.5t-40 -76.5q-46 -49 -126 -52zM319 576h-1q-16 0 -26.5 12.5
t-10.5 28.5q0 17 11.5 29.5t28.5 12.5q16 0 26.5 -12.5t10.5 -29.5t-10.5 -29t-28.5 -12z" />
    <glyph glyph-name="Jcircumflex" unicode="&#x134;" horiz-adv-x="345" 
d="M223 219v455h48v-466q0 -219 -182 -219q-48 0 -82 16l10 38q32 -13 71 -13q69 0 102 41t33 148zM223 819h38l107 -109h-53l-72 74h-2l-72 -74h-50z" />
    <glyph glyph-name="jcircumflex" unicode="&#x135;" horiz-adv-x="214" 
d="M-42 -209l-7 39q68 3 100 40q20 24 28 64t8 131v415h48v-447q0 -69 -11 -113.5t-40 -76.5q-46 -49 -126 -52zM87 678h35l94 -138h-48l-63 99h-2l-62 -99h-45z" />
    <glyph glyph-name="Kcommaaccent" unicode="&#x136;" horiz-adv-x="498" 
d="M81 0v674h48v-341h3q18 23 58 70l239 271h58l-256 -286l280 -388h-57l-256 355l-69 -76v-279h-48zM201 -206l-14 26q81 12 81 68q0 36 -37 61l40 12q16 -10 28 -29t12 -41q0 -46 -34 -69.5t-76 -27.5z" />
    <glyph glyph-name="kcommaaccent" unicode="&#x137;" horiz-adv-x="423" 
d="M128 711v-462h2q21 27 46 53l170 178h58l-194 -199l221 -281h-58l-196 252l-49 -52v-200h-48v711h48zM163 -209l-14 26q81 12 81 68q0 36 -37 61l40 12q16 -10 28 -29t12 -41q0 -46 -34 -69.5t-76 -27.5z" />
    <glyph glyph-name="kgreenlandic" unicode="&#x138;" horiz-adv-x="423" 
d="M128 480v-231h2q21 27 46 53l170 178h58l-194 -199l221 -281h-58l-196 252l-49 -52v-200h-48v480h48z" />
    <glyph glyph-name="Lacute" unicode="&#x139;" horiz-adv-x="448" 
d="M81 0v674h48v-634h300v-40h-348zM188 823h73l-131 -113h-40z" />
    <glyph glyph-name="lacute" unicode="&#x13a;" horiz-adv-x="212" 
d="M81 0v711h48v-711h-48zM159 852h73l-131 -113h-40z" />
    <glyph glyph-name="Lcommaaccent" unicode="&#x13b;" horiz-adv-x="448" 
d="M81 0v674h48v-634h300v-40h-348zM186 -209l-14 26q81 12 81 68q0 36 -37 61l40 12q16 -10 28 -29t12 -41q0 -46 -34 -69.5t-76 -27.5z" />
    <glyph glyph-name="lcommaaccent" unicode="&#x13c;" horiz-adv-x="212" 
d="M81 0v711h48v-711h-48zM49 -209l-14 26q81 12 81 68q0 36 -37 61l40 12q16 -10 28 -29t12 -41q0 -46 -34 -69.5t-76 -27.5z" />
    <glyph glyph-name="Lcaron" unicode="&#x13d;" horiz-adv-x="448" 
d="M81 0v674h48v-634h300v-40h-348zM240 516l-14 26q81 12 81 68q0 36 -37 61l40 12q16 -10 28 -29t12 -41q0 -46 -34 -69.5t-76 -27.5z" />
    <glyph glyph-name="lcaron" unicode="&#x13e;" horiz-adv-x="219" 
d="M81 0v711h48v-711h-48zM191 539l-20 22q41 34 41 81q0 38 -37 63l43 12q37 -24 37 -71q0 -30 -15.5 -56t-24 -32.5z" />
    <glyph glyph-name="Ldot" unicode="&#x13f;" horiz-adv-x="448" 
d="M81 0v674h48v-634h300v-40h-348zM315 328h-2q-15 0 -25.5 12t-10.5 27t11.5 27t26.5 12t26 -12t11 -27t-11 -27t-26 -12z" />
    <glyph glyph-name="ldot" unicode="&#x140;" horiz-adv-x="222" 
d="M81 0v711h48v-711h-48zM214 349h-1q-15 0 -25.5 12t-10.5 27t11 27t27 12q15 0 25.5 -11.5t10.5 -27.5t-10.5 -27.5t-26.5 -11.5z" />
    <glyph glyph-name="Lslash" unicode="&#x141;" horiz-adv-x="451" 
d="M432 0h-348v291l-89 -68v44l89 67v340h48v-305l139 104v-45l-139 -104v-284h300v-40z" />
    <glyph glyph-name="lslash" unicode="&#x142;" horiz-adv-x="214" 
d="M131 0h-48v325l-70 -63v45l70 63v341h48v-301l71 64v-46l-71 -64v-364z" />
    <glyph glyph-name="Nacute" unicode="&#x143;" horiz-adv-x="638" 
d="M128 0h-46v674h45l262 -398q86 -132 127 -212l2 1q-8 104 -8 273v336h46v-674h-44l-257 392q-96 147 -131 218l-2 -1q6 -100 6 -268v-341zM382 823h73l-131 -113h-40z" />
    <glyph glyph-name="nacute" unicode="&#x144;" horiz-adv-x="536" 
d="M81 0v365q0 64 -4 115h45l3 -86h2q20 42 64.5 69.5t100.5 27.5q17 0 35.5 -3.5t43.5 -16.5t43.5 -33.5t32 -59.5t13.5 -90v-288h-48v284q0 73 -32 120t-101 47q-50 0 -90 -31.5t-54 -79.5q-6 -22 -6 -42v-298h-48zM327 688h70l-122 -138h-37z" />
    <glyph glyph-name="Ncommaaccent" unicode="&#x145;" horiz-adv-x="638" 
d="M128 0h-46v674h45l262 -398q86 -132 127 -212l2 1q-8 104 -8 273v336h46v-674h-44l-257 392q-96 147 -131 218l-2 -1q6 -100 6 -268v-341zM266 -209l-14 26q81 12 81 68q0 36 -37 61l40 12q16 -10 28 -29t12 -41q0 -46 -34 -69.5t-76 -27.5z" />
    <glyph glyph-name="ncommaaccent" unicode="&#x146;" horiz-adv-x="536" 
d="M81 0v365q0 64 -4 115h45l3 -86h2q20 42 64.5 69.5t100.5 27.5q17 0 35.5 -3.5t43.5 -16.5t43.5 -33.5t32 -59.5t13.5 -90v-288h-48v284q0 73 -32 120t-101 47q-50 0 -90 -31.5t-54 -79.5q-6 -22 -6 -42v-298h-48zM220 -207l-14 26q81 12 81 68q0 36 -37 61l40 12
q16 -10 28 -29t12 -41q0 -46 -34 -69.5t-76 -27.5z" />
    <glyph glyph-name="Ncaron" unicode="&#x147;" horiz-adv-x="638" 
d="M128 0h-46v674h45l262 -398q86 -132 127 -212l2 1q-8 104 -8 273v336h46v-674h-44l-257 392q-96 147 -131 218l-2 -1q6 -100 6 -268v-341zM339 702h-38l-107 109h53l73 -74h2l71 74h50z" />
    <glyph glyph-name="ncaron" unicode="&#x148;" horiz-adv-x="536" 
d="M81 0v365q0 64 -4 115h45l3 -86h2q20 42 64.5 69.5t100.5 27.5q17 0 35.5 -3.5t43.5 -16.5t43.5 -33.5t32 -59.5t13.5 -90v-288h-48v284q0 73 -32 120t-101 47q-50 0 -90 -31.5t-54 -79.5q-6 -22 -6 -42v-298h-48zM289 550h-38l-94 138h48l64 -100h2l64 100h45z" />
    <glyph glyph-name="napostrophe" unicode="&#x149;" horiz-adv-x="536" 
d="M81 0v365q0 64 -4 115h45l3 -86h2q20 42 64.5 69.5t100.5 27.5q17 0 35.5 -3.5t43.5 -16.5t43.5 -33.5t32 -59.5t13.5 -90v-288h-48v284q0 73 -32 120t-101 47q-50 0 -90 -31.5t-54 -79.5q-6 -22 -6 -42v-298h-48zM44 543l-20 22q41 34 41 79q0 38 -37 61l43 12
q14 -9 25.5 -27.5t11.5 -41.5q0 -29 -15.5 -55t-23.5 -32z" />
    <glyph glyph-name="Eng" unicode="&#x14a;" horiz-adv-x="638" 
d="M128 0h-46v674h45l262 -398q86 -132 127 -212l2 1q-8 104 -8 273v336h46v-642q0 -96 -41 -151t-131 -70l-8 39q67 12 99.5 48.5t37.5 101.5l-258 392q-96 147 -131 218l-2 -1q6 -100 6 -268v-341z" />
    <glyph glyph-name="eng" unicode="&#x14b;" horiz-adv-x="536" 
d="M81 0v365q0 64 -4 115h45l3 -86h2q20 42 64.5 69.5t100.5 27.5q17 0 35.5 -3.5t43.5 -16.5t43.5 -33.5t32 -59.5t13.5 -90v-229q0 -99 -49 -156.5t-130 -71.5l-9 41q140 29 140 189v223q0 73 -32 120t-101 47q-50 0 -90 -31.5t-54 -79.5q-6 -22 -6 -42v-298h-48z" />
    <glyph glyph-name="Omacron" unicode="&#x14c;" horiz-adv-x="671" 
d="M333 -11h-1q-127 0 -211 93.5t-84 247.5q0 162 86.5 258.5t216.5 96.5q129 0 211.5 -93.5t82.5 -247.5q0 -169 -88 -262t-213 -93zM334 29h1q115 0 182 90.5t67 221.5q0 55 -15.5 107.5t-44.5 97.5t-77.5 72t-109.5 27q-82 0 -140 -46.5t-84 -115.5t-26 -151
q0 -122 67 -212.5t180 -90.5zM224 780h228v-39h-228v39z" />
    <glyph glyph-name="omacron" unicode="&#x14d;" horiz-adv-x="532" 
d="M262 -11h-1q-95 0 -157.5 68t-62.5 179q0 118 66.5 186.5t160.5 68.5q100 0 161.5 -68.5t61.5 -178.5q0 -64 -20.5 -114.5t-54.5 -80t-73.5 -45t-80.5 -15.5zM263 29h1q76 0 127.5 60.5t51.5 152.5q0 35 -10 70t-30 67t-55.5 52t-80.5 20q-86 0 -132 -63t-46 -149
q0 -90 50 -150t124 -60zM162 629h210v-40h-210v40z" />
    <glyph glyph-name="Obreve" unicode="&#x14e;" horiz-adv-x="671" 
d="M333 -11h-1q-127 0 -211 93.5t-84 247.5q0 162 86.5 258.5t216.5 96.5q129 0 211.5 -93.5t82.5 -247.5q0 -169 -88 -262t-213 -93zM334 29h1q115 0 182 90.5t67 221.5q0 55 -15.5 107.5t-44.5 97.5t-77.5 72t-109.5 27q-82 0 -140 -46.5t-84 -115.5t-26 -151
q0 -122 67 -212.5t180 -90.5zM221 821h35q13 -50 80 -50q68 0 78 50h35q-2 -41 -30 -67t-85 -26q-55 0 -83 26t-30 67z" />
    <glyph glyph-name="obreve" unicode="&#x14f;" horiz-adv-x="532" 
d="M262 -11h-1q-95 0 -157.5 68t-62.5 179q0 118 66.5 186.5t160.5 68.5q100 0 161.5 -68.5t61.5 -178.5q0 -64 -20.5 -114.5t-54.5 -80t-73.5 -45t-80.5 -15.5zM263 29h1q76 0 127.5 60.5t51.5 152.5q0 35 -10 70t-30 67t-55.5 52t-80.5 20q-86 0 -132 -63t-46 -149
q0 -90 50 -150t124 -60zM150 676h36q5 -32 26 -53t53 -21q36 0 56 22t23 52h36q0 -51 -32.5 -82.5t-82.5 -31.5q-58 0 -86.5 34.5t-28.5 79.5z" />
    <glyph glyph-name="Ohungarumlaut" unicode="&#x150;" horiz-adv-x="671" 
d="M333 -11h-1q-127 0 -211 93.5t-84 247.5q0 162 86.5 258.5t216.5 96.5q129 0 211.5 -93.5t82.5 -247.5q0 -169 -88 -262t-213 -93zM334 29h1q115 0 182 90.5t67 221.5q0 55 -15.5 107.5t-44.5 97.5t-77.5 72t-109.5 27q-82 0 -140 -46.5t-84 -115.5t-26 -151
q0 -122 67 -212.5t180 -90.5zM342 826h68l-118 -109h-39zM468 826h68l-118 -109h-39z" />
    <glyph glyph-name="ohungarumlaut" unicode="&#x151;" horiz-adv-x="532" 
d="M262 -11h-1q-95 0 -157.5 68t-62.5 179q0 118 66.5 186.5t160.5 68.5q100 0 161.5 -68.5t61.5 -178.5q0 -64 -20.5 -114.5t-54.5 -80t-73.5 -45t-80.5 -15.5zM263 29h1q76 0 127.5 60.5t51.5 152.5q0 35 -10 70t-30 67t-55.5 52t-80.5 20q-86 0 -132 -63t-46 -149
q0 -90 50 -150t124 -60zM262 687h65l-118 -128h-36zM388 687h65l-118 -128h-36z" />
    <glyph glyph-name="OE" unicode="&#x152;" horiz-adv-x="868" 
d="M832 40v-40h-322q-21 0 -69 -6q-65 -5 -84 -5q-145 0 -232.5 96t-87.5 247q0 165 91 259t236 94q24 0 86 -5q50 -6 66 -6h300v-40h-285v-260h269v-40h-269v-294h301zM483 44v585q-53 16 -123 16q-130 0 -201.5 -86.5t-71.5 -222.5q0 -140 74.5 -223.5t205.5 -83.5
q73 0 116 15z" />
    <glyph glyph-name="oe" unicode="&#x153;" horiz-adv-x="860" 
d="M817 244h-340q-1 -102 47.5 -158t129.5 -56q61 0 126 28l14 -37q-55 -32 -145 -32q-146 0 -198 132h-2q-23 -65 -76 -98.5t-115 -33.5q-95 0 -156 68t-61 179q0 116 64 185.5t157 69.5q68 0 118.5 -35.5t71.5 -97.5h2q26 65 73 99t108 34q44 0 78.5 -16.5t53.5 -40.5
t31.5 -55t16.5 -56t4 -48t-2 -31zM260 451h-1q-58 0 -98.5 -35t-56 -81t-15.5 -97q0 -88 49.5 -148.5t121.5 -60.5q75 0 123 59t48 152q0 85 -43.5 148t-127.5 63zM477 283h292q1 38 -9.5 73.5t-44 65t-84.5 29.5q-70 0 -108.5 -51t-45.5 -117z" />
    <glyph glyph-name="Racute" unicode="&#x154;" horiz-adv-x="505" 
d="M81 0v665q65 14 146 14q124 0 182 -56q47 -45 47 -120q0 -130 -132 -176v-2q79 -25 104 -143q32 -148 50 -182h-49q-13 24 -43 164q-16 74 -51 108t-101 37h-105v-309h-48zM129 631v-283h107q78 0 125 40t47 107q0 74 -49 109.5t-133 35.5q-59 0 -97 -9zM307 827h73
l-131 -113h-40z" />
    <glyph glyph-name="racute" unicode="&#x155;" horiz-adv-x="295" 
d="M80 0v336q0 81 -4 144h44l2 -97h3q16 48 52.5 78t83.5 30q8 0 20 -2v-45q-7 1 -23 1q-48 0 -82 -37.5t-44 -96.5q-4 -19 -4 -46v-265h-48zM220 688h70l-122 -138h-37z" />
    <glyph glyph-name="Rcommaaccent" unicode="&#x156;" horiz-adv-x="505" 
d="M81 0v665q65 14 146 14q124 0 182 -56q47 -45 47 -120q0 -130 -132 -176v-2q79 -25 104 -143q32 -148 50 -182h-49q-13 24 -43 164q-16 74 -51 108t-101 37h-105v-309h-48zM129 631v-283h107q78 0 125 40t47 107q0 74 -49 109.5t-133 35.5q-59 0 -97 -9zM204 -199l-14 26
q81 12 81 68q0 36 -37 61l40 12q16 -10 28 -29t12 -41q0 -46 -34 -69.5t-76 -27.5z" />
    <glyph glyph-name="rcommaaccent" unicode="&#x157;" horiz-adv-x="295" 
d="M80 0v336q0 81 -4 144h44l2 -97h3q16 48 52.5 78t83.5 30q8 0 20 -2v-45q-7 1 -23 1q-48 0 -82 -37.5t-44 -96.5q-4 -19 -4 -46v-265h-48zM57 -209l-14 26q81 12 81 68q0 36 -37 61l40 12q16 -10 28 -29t12 -41q0 -46 -34 -69.5t-76 -27.5z" />
    <glyph glyph-name="Rcaron" unicode="&#x158;" horiz-adv-x="505" 
d="M81 0v665q65 14 146 14q124 0 182 -56q47 -45 47 -120q0 -130 -132 -176v-2q79 -25 104 -143q32 -148 50 -182h-49q-13 24 -43 164q-16 74 -51 108t-101 37h-105v-309h-48zM129 631v-283h107q78 0 125 40t47 107q0 74 -49 109.5t-133 35.5q-59 0 -97 -9zM267 714h-38
l-107 109h53l73 -74h2l71 74h50z" />
    <glyph glyph-name="rcaron" unicode="&#x159;" horiz-adv-x="295" 
d="M80 0v336q0 81 -4 144h44l2 -97h3q16 48 52.5 78t83.5 30q8 0 20 -2v-45q-7 1 -23 1q-48 0 -82 -37.5t-44 -96.5q-4 -19 -4 -46v-265h-48zM191 550h-38l-94 138h48l64 -100h2l64 100h45z" />
    <glyph glyph-name="Sacute" unicode="&#x15a;" horiz-adv-x="464" 
d="M42 35l18 39q64 -44 147 -44q75 0 119 38.5t44 101.5q0 56 -32 92.5t-105 64.5q-173 62 -173 186q0 74 55 122.5t141 48.5t134 -31l-18 -41q-44 32 -119 32q-74 0 -110 -38t-36 -85q0 -54 32.5 -87.5t107.5 -62.5q88 -36 129 -80t41 -116q0 -78 -55.5 -131.5
t-158.5 -53.5q-44 0 -89.5 13t-71.5 32zM303 827h73l-131 -113h-40z" />
    <glyph glyph-name="sacute" unicode="&#x15b;" horiz-adv-x="373" 
d="M44 23l17 40q54 -33 108 -33q55 0 83.5 25.5t28.5 65.5q0 39 -23.5 63t-77.5 46q-122 46 -122 131q0 55 40.5 92.5t107.5 37.5q64 0 106 -30l-18 -39q-41 29 -96 29q-44 0 -68.5 -24t-24.5 -59t22.5 -55.5t76.5 -42.5q62 -25 93 -58t31 -85q0 -62 -44.5 -99.5
t-117.5 -37.5q-69 0 -122 33zM246 688h70l-122 -138h-37z" />
    <glyph glyph-name="Scircumflex" unicode="&#x15c;" horiz-adv-x="464" 
d="M42 35l18 39q64 -44 147 -44q75 0 119 38.5t44 101.5q0 56 -32 92.5t-105 64.5q-173 62 -173 186q0 74 55 122.5t141 48.5t134 -31l-18 -41q-44 32 -119 32q-74 0 -110 -38t-36 -85q0 -54 32.5 -87.5t107.5 -62.5q88 -36 129 -80t41 -116q0 -78 -55.5 -131.5
t-158.5 -53.5q-44 0 -89.5 13t-71.5 32zM214 824h38l107 -109h-53l-72 74h-2l-72 -74h-50z" />
    <glyph glyph-name="scircumflex" unicode="&#x15d;" horiz-adv-x="373" 
d="M44 23l17 40q54 -33 108 -33q55 0 83.5 25.5t28.5 65.5q0 39 -23.5 63t-77.5 46q-122 46 -122 131q0 55 40.5 92.5t107.5 37.5q64 0 106 -30l-18 -39q-41 29 -96 29q-44 0 -68.5 -24t-24.5 -59t22.5 -55.5t76.5 -42.5q62 -25 93 -58t31 -85q0 -62 -44.5 -99.5
t-117.5 -37.5q-69 0 -122 33zM170 688h35l94 -138h-48l-62 99h-2l-63 -99h-45z" />
    <glyph glyph-name="Scedilla" unicode="&#x15e;" horiz-adv-x="464" 
d="M42 35l18 39q64 -44 148 -44q74 0 118 38.5t44 101.5q0 56 -31.5 92.5t-104.5 64.5q-174 62 -174 186q0 74 55 122.5t141 48.5t134 -31l-18 -41q-44 32 -119 32q-74 0 -110 -38t-36 -85q0 -54 32.5 -87.5t107.5 -62.5q88 -36 129 -80t41 -116q0 -68 -42 -117.5
t-121 -63.5l-32 -48q29 -4 49 -23t20 -47q0 -36 -26.5 -55t-66.5 -19q-37 0 -62 16l11 34q30 -13 55 -13q46 0 46 35q0 37 -77 46l42 70h-10q-44 0 -89.5 13t-71.5 32z" />
    <glyph glyph-name="Scedilla" unicode="&#xf6c1;" horiz-adv-x="464" 
d="M42 35l18 39q64 -44 148 -44q74 0 118 38.5t44 101.5q0 56 -31.5 92.5t-104.5 64.5q-174 62 -174 186q0 74 55 122.5t141 48.5t134 -31l-18 -41q-44 32 -119 32q-74 0 -110 -38t-36 -85q0 -54 32.5 -87.5t107.5 -62.5q88 -36 129 -80t41 -116q0 -68 -42 -117.5
t-121 -63.5l-32 -48q29 -4 49 -23t20 -47q0 -36 -26.5 -55t-66.5 -19q-37 0 -62 16l11 34q30 -13 55 -13q46 0 46 35q0 37 -77 46l42 70h-10q-44 0 -89.5 13t-71.5 32z" />
    <glyph glyph-name="scedilla" unicode="&#x15f;" horiz-adv-x="373" 
d="M44 23l17 40q54 -33 108 -33t83 25.5t29 65.5q0 38 -24 62.5t-77 46.5q-122 46 -122 131q0 55 40.5 92.5t107.5 37.5q64 0 106 -30l-18 -39q-41 29 -96 29q-44 0 -68.5 -24t-24.5 -59t22.5 -55.5t76.5 -42.5q62 -25 93 -58t31 -85q0 -51 -31.5 -86t-86.5 -46l-31 -49
q28 -3 48 -21.5t20 -45.5q0 -39 -26.5 -58t-67.5 -19q-32 0 -60 16l12 34q23 -13 54 -13q21 0 34.5 8.5t12.5 26.5q-1 39 -78 46l43 70h-5q-69 0 -122 33z" />
    <glyph glyph-name="scedilla" unicode="&#xf6c2;" horiz-adv-x="373" 
d="M44 23l17 40q54 -33 108 -33t83 25.5t29 65.5q0 38 -24 62.5t-77 46.5q-122 46 -122 131q0 55 40.5 92.5t107.5 37.5q64 0 106 -30l-18 -39q-41 29 -96 29q-44 0 -68.5 -24t-24.5 -59t22.5 -55.5t76.5 -42.5q62 -25 93 -58t31 -85q0 -51 -31.5 -86t-86.5 -46l-31 -49
q28 -3 48 -21.5t20 -45.5q0 -39 -26.5 -58t-67.5 -19q-32 0 -60 16l12 34q23 -13 54 -13q21 0 34.5 8.5t12.5 26.5q-1 39 -78 46l43 70h-5q-69 0 -122 33z" />
    <glyph glyph-name="Scaron" unicode="&#x160;" horiz-adv-x="464" 
d="M42 35l18 39q64 -44 147 -44q75 0 119 38.5t44 101.5q0 56 -32 92.5t-105 64.5q-173 62 -173 186q0 74 55 122.5t141 48.5t134 -31l-18 -41q-44 32 -119 32q-74 0 -110 -38t-36 -85q0 -54 32.5 -87.5t107.5 -62.5q88 -36 129 -80t41 -116q0 -78 -55.5 -131.5
t-158.5 -53.5q-44 0 -89.5 13t-71.5 32zM265 714h-38l-107 109h53l73 -74h2l71 74h50z" />
    <glyph glyph-name="scaron" unicode="&#x161;" horiz-adv-x="373" 
d="M44 23l17 40q54 -33 108 -33q55 0 83.5 25.5t28.5 65.5q0 39 -23.5 63t-77.5 46q-122 46 -122 131q0 55 40.5 92.5t107.5 37.5q64 0 106 -30l-18 -39q-41 29 -96 29q-44 0 -68.5 -24t-24.5 -59t22.5 -55.5t76.5 -42.5q62 -25 93 -58t31 -85q0 -62 -44.5 -99.5
t-117.5 -37.5q-69 0 -122 33zM213 550h-38l-94 138h48l64 -100h2l64 100h45z" />
    <glyph glyph-name="Tcommaaccent" unicode="&#x162;" horiz-adv-x="465" 
d="M209 0v634h-220v40h488v-40h-220v-634h-48zM174 -209l-14 26q81 12 81 68q0 36 -37 61l40 12q16 -10 28 -29t12 -41q0 -46 -34 -69.5t-76 -27.5z" />
    <glyph glyph-name="Tcommaaccent" unicode="&#x21a;" horiz-adv-x="465" 
d="M209 0v634h-220v40h488v-40h-220v-634h-48zM174 -209l-14 26q81 12 81 68q0 36 -37 61l40 12q16 -10 28 -29t12 -41q0 -46 -34 -69.5t-76 -27.5z" />
    <glyph glyph-name="tcommaaccent" unicode="&#x163;" horiz-adv-x="309" 
d="M99 568l48 18v-106h137v-39h-137v-312q0 -99 70 -99q34 0 55 7l6 -36q-29 -11 -67 -11q-55 0 -82 33q-30 34 -30 115v303h-81v39h81v88zM121 -217l-14 26q81 12 81 68q0 36 -37 61l40 12q16 -10 28 -29t12 -41q0 -46 -34 -69.5t-76 -27.5z" />
    <glyph glyph-name="tcommaaccent" unicode="&#x21b;" horiz-adv-x="309" 
d="M99 568l48 18v-106h137v-39h-137v-312q0 -99 70 -99q34 0 55 7l6 -36q-29 -11 -67 -11q-55 0 -82 33q-30 34 -30 115v303h-81v39h81v88zM121 -217l-14 26q81 12 81 68q0 36 -37 61l40 12q16 -10 28 -29t12 -41q0 -46 -34 -69.5t-76 -27.5z" />
    <glyph glyph-name="Tcaron" unicode="&#x164;" horiz-adv-x="465" 
d="M209 0v634h-220v40h488v-40h-220v-634h-48zM253 710h-38l-107 109h53l73 -74h2l71 74h50z" />
    <glyph glyph-name="tcaron" unicode="&#x165;" horiz-adv-x="319" 
d="M99 568l48 18v-106h137v-39h-137v-312q0 -99 71 -99q33 0 54 7l6 -36q-27 -11 -66 -11q-56 0 -83 33q-30 34 -30 115v303h-81v39h81v88zM246 543l-20 22q41 34 41 79q0 37 -37 61l43 12q14 -9 25.5 -27.5t11.5 -41.5q0 -29 -15.5 -55t-23.5 -32z" />
    <glyph glyph-name="Tbar" unicode="&#x166;" horiz-adv-x="465" 
d="M477 634h-220v-257h130v-39h-130v-338h-48v338h-130v39h130v257h-220v40h488v-40z" />
    <glyph glyph-name="tbar" unicode="&#x167;" horiz-adv-x="309" 
d="M284 441h-137v-141h108v-39h-108v-132q0 -99 70 -99q34 0 55 7l6 -36q-29 -11 -67 -11q-55 0 -82 33q-30 34 -30 115v123h-69v39h69v141h-81v39h81v88l48 18v-106h137v-39z" />
    <glyph glyph-name="Utilde" unicode="&#x168;" horiz-adv-x="626" 
d="M81 674h48v-407q0 -122 49.5 -180t129.5 -58q88 0 138.5 59t50.5 179v407h48v-403q0 -146 -67 -214t-172 -68q-47 0 -85.5 14.5t-71 45t-50.5 85.5t-18 130v410zM231 716h-33q-1 36 16 61t47 25q20 0 57 -21q32 -17 50 -17q25 0 27 37h33q0 -80 -60 -80q-22 0 -59 20
q-38 19 -50 19q-23 0 -28 -44z" />
    <glyph glyph-name="utilde" unicode="&#x169;" horiz-adv-x="531" 
d="M451 480v-363q0 -68 4 -117h-45l-3 86h-2q-21 -39 -63.5 -68t-100.5 -29q-27 0 -52 8.5t-52 29t-43.5 65.5t-16.5 109v279h48v-270q0 -179 127 -179q49 0 87 28.5t55 68.5q9 27 9 53v299h48zM189 572h-34q-1 40 15.5 64t44.5 24q14 0 60 -22q28 -16 42 -16q25 0 28 41h33
q0 -84 -60 -84q-20 0 -56 20q-34 18 -46 18q-24 0 -27 -45z" />
    <glyph glyph-name="Umacron" unicode="&#x16a;" horiz-adv-x="626" 
d="M81 674h48v-407q0 -122 49.5 -180t129.5 -58q88 0 138.5 59t50.5 179v407h48v-403q0 -146 -67 -214t-172 -68q-47 0 -85.5 14.5t-71 45t-50.5 85.5t-18 130v410zM199 772h228v-39h-228v39z" />
    <glyph glyph-name="umacron" unicode="&#x16b;" horiz-adv-x="531" 
d="M451 480v-363q0 -68 4 -117h-45l-3 86h-2q-21 -39 -63.5 -68t-100.5 -29q-27 0 -52 8.5t-52 29t-43.5 65.5t-16.5 109v279h48v-270q0 -179 127 -179q49 0 87 28.5t55 68.5q9 27 9 53v299h48zM161 629h210v-40h-210v40z" />
    <glyph glyph-name="Ubreve" unicode="&#x16c;" horiz-adv-x="626" 
d="M81 674h48v-407q0 -122 49.5 -180t129.5 -58q88 0 138.5 59t50.5 179v407h48v-403q0 -146 -67 -214t-172 -68q-47 0 -85.5 14.5t-71 45t-50.5 85.5t-18 130v410zM199 821h35q13 -50 80 -50q68 0 78 50h35q-2 -41 -30 -67t-85 -26q-55 0 -83 26t-30 67z" />
    <glyph glyph-name="ubreve" unicode="&#x16d;" horiz-adv-x="531" 
d="M451 480v-363q0 -68 4 -117h-45l-3 86h-2q-21 -39 -63.5 -68t-100.5 -29q-27 0 -52 8.5t-52 29t-43.5 65.5t-16.5 109v279h48v-270q0 -179 127 -179q49 0 87 28.5t55 68.5q9 27 9 53v299h48zM151 676h36q5 -32 26 -53t53 -21q36 0 56 22t23 52h36q0 -51 -32.5 -82.5
t-82.5 -31.5q-58 0 -86.5 34.5t-28.5 79.5z" />
    <glyph glyph-name="Uring" unicode="&#x16e;" horiz-adv-x="626" 
d="M81 674h48v-407q0 -122 49.5 -180t129.5 -58q88 0 138.5 59t50.5 179v407h48v-403q0 -146 -67 -214t-172 -68q-47 0 -85.5 14.5t-71 45t-50.5 85.5t-18 130v410zM314 864h1q39 0 64 -25t25 -61q0 -35 -26 -59t-64 -24q-39 0 -65 24t-26 59q0 36 25.5 61t65.5 25zM313 836
h-1q-22 0 -35.5 -17t-13.5 -41q0 -21 14.5 -37.5t35.5 -16.5q22 0 36.5 16t14.5 40t-14.5 40t-36.5 16z" />
    <glyph glyph-name="uring" unicode="&#x16f;" horiz-adv-x="531" 
d="M451 480v-363q0 -68 4 -117h-45l-3 86h-2q-21 -39 -63.5 -68t-100.5 -29q-27 0 -52 8.5t-52 29t-43.5 65.5t-16.5 109v279h48v-270q0 -179 127 -179q49 0 87 28.5t55 68.5q9 27 9 53v299h48zM267 715h1q38 0 64 -26t26 -65q0 -37 -27 -62.5t-64 -25.5q-40 0 -66.5 25.5
t-26.5 62.5q0 39 26 65t67 26zM266 685h-1q-23 0 -37.5 -18t-14.5 -43q0 -22 15.5 -40t37.5 -18q24 0 39.5 17.5t15.5 42.5t-15.5 42t-39.5 17z" />
    <glyph glyph-name="Uhungarumlaut" unicode="&#x170;" horiz-adv-x="626" 
d="M81 674h48v-407q0 -122 49.5 -180t129.5 -58q88 0 138.5 59t50.5 179v407h48v-403q0 -146 -67 -214t-172 -68q-47 0 -85.5 14.5t-71 45t-50.5 85.5t-18 130v410zM298 822h68l-118 -109h-39zM424 822h68l-118 -109h-39z" />
    <glyph glyph-name="uhungarumlaut" unicode="&#x171;" horiz-adv-x="531" 
d="M451 480v-363q0 -68 4 -117h-45l-3 86h-2q-21 -39 -63.5 -68t-100.5 -29q-27 0 -52 8.5t-52 29t-43.5 65.5t-16.5 109v279h48v-270q0 -179 127 -179q49 0 87 28.5t55 68.5q9 27 9 53v299h48zM263 687h65l-118 -128h-36zM389 687h65l-118 -128h-36z" />
    <glyph glyph-name="Uogonek" unicode="&#x172;" horiz-adv-x="626" 
d="M393 -147l9 -29q-23 -19 -67 -19q-37 0 -59.5 19.5t-22.5 54.5q0 50 58 110h-6q-100 2 -162 67t-62 208v410h48v-407q0 -122 49.5 -180t130.5 -58q87 0 137.5 59t50.5 179v407h48v-403q0 -123 -50 -190.5t-131 -82.5q-66 -57 -66 -109q0 -23 13.5 -35t35.5 -12
q26 0 46 11z" />
    <glyph glyph-name="uogonek" unicode="&#x173;" horiz-adv-x="531" 
d="M451 480v-362q0 -70 4 -118l-3 5q-54 -68 -54 -116q0 -49 49 -49q26 0 46 10l9 -30q-26 -18 -68 -18q-36 0 -58.5 20t-22.5 55q0 47 52 121q4 5 5 7l-3 81h-2q-21 -39 -63.5 -68t-100.5 -29q-27 0 -52 8.5t-52 29t-43.5 65.5t-16.5 109v279h48v-270q0 -179 127 -179
q49 0 87.5 28.5t54.5 68.5q9 27 9 53v299h48z" />
    <glyph glyph-name="Wcircumflex" unicode="&#x174;" horiz-adv-x="820" 
d="M238 0h-45l-178 674h49l98 -380q45 -179 56 -231h2q12 67 62 231l110 380h46l100 -377q44 -163 55 -234h2q10 51 61 232l111 379h49l-202 -674h-46l-101 388q-41 150 -52 228h-2q-13 -74 -60 -227zM390 819h38l107 -109h-53l-72 74h-2l-72 -74h-50z" />
    <glyph glyph-name="wcircumflex" unicode="&#x175;" horiz-adv-x="722" 
d="M23 480h49l81 -273q31 -110 41 -150h2q14 53 48 150l96 273h45l92 -270q29 -86 47 -153h2q12 52 44 151l85 272h49l-160 -480h-41l-91 268q-36 103 -50 163h-2q-16 -65 -52 -165l-95 -266h-42zM342 688h35l94 -138h-48l-62 99h-2l-63 -99h-45z" />
    <glyph glyph-name="Ycircumflex" unicode="&#x176;" horiz-adv-x="503" 
d="M277 0h-48v292l-214 382h53l111 -201q52 -95 77 -145h2q12 28 78 146l115 200h53l-227 -383v-291zM234 819h38l107 -109h-53l-72 74h-2l-72 -74h-50z" />
    <glyph glyph-name="ycircumflex" unicode="&#x177;" horiz-adv-x="440" 
d="M11 480h51l126 -314q19 -50 35 -103h2l37 106l117 311h51l-144 -358q-48 -123 -83 -188.5t-79 -104.5q-41 -34 -84 -50l-15 40q45 17 84 53q50 50 80 121q6 15 6 21t-6 21zM201 688h35l94 -138h-48l-62 99h-2l-63 -99h-45z" />
    <glyph glyph-name="Ydieresis" unicode="&#x178;" horiz-adv-x="503" 
d="M277 0h-48v292l-214 382h53l111 -201q52 -95 77 -145h2q12 28 78 146l115 200h53l-227 -383v-291zM176 716h-1q-16 0 -26 11.5t-10 28.5q0 16 11 28t26 12q16 0 26.5 -11.5t10.5 -28.5t-10 -28.5t-27 -11.5zM348 716h-1q-16 0 -26 11.5t-10 28.5q0 16 11 28t26 12
q16 0 26.5 -11.5t10.5 -28.5t-10 -28.5t-27 -11.5z" />
    <glyph glyph-name="Zacute" unicode="&#x179;" horiz-adv-x="539" 
d="M34 0v31l406 600v3h-373v40h434v-32l-407 -599v-3h412v-40h-472zM343 823h73l-131 -113h-40z" />
    <glyph glyph-name="zacute" unicode="&#x17a;" horiz-adv-x="403" 
d="M16 0v29l259 341l55 69v2h-293v39h351l-1 -32l-259 -341l-51 -66v-2h312v-39h-373zM263 688h70l-122 -138h-37z" />
    <glyph glyph-name="Zdotaccent" unicode="&#x17b;" horiz-adv-x="539" 
d="M34 0v31l406 600v3h-373v40h434v-32l-407 -599v-3h412v-40h-472zM275 725h-2q-15 0 -25.5 12t-10.5 27t11.5 27t26.5 12t26 -12t11 -27t-11 -27t-26 -12z" />
    <glyph glyph-name="zdotaccent" unicode="&#x17c;" horiz-adv-x="403" 
d="M16 0v29l259 341l55 69v2h-293v39h351l-1 -32l-259 -341l-51 -66v-2h312v-39h-373zM204 578h-1q-15 0 -26 12t-11 28t11.5 28t27.5 12q15 0 26 -12t11 -28t-10.5 -28t-27.5 -12z" />
    <glyph glyph-name="Zcaron" unicode="&#x17d;" horiz-adv-x="539" 
d="M34 0v31l406 600v3h-373v40h434v-32l-407 -599v-3h412v-40h-472zM302 710h-38l-107 109h53l73 -74h2l71 74h50z" />
    <glyph glyph-name="zcaron" unicode="&#x17e;" horiz-adv-x="403" 
d="M16 0v29l259 341l55 69v2h-293v39h351l-1 -32l-259 -341l-51 -66v-2h312v-39h-373zM240 550h-38l-94 138h48l64 -100h2l64 100h45z" />
    <glyph glyph-name="florin" unicode="&#x192;" horiz-adv-x="488" 
d="M110 357v38h104l7 54q11 96 54 154t121 58q38 -3 60 -14l-12 -37q-31 11 -56 11q-55 0 -84 -48t-37 -122l-6 -56h131v-38h-136l-26 -220q-13 -107 -49.5 -162t-110.5 -55q-40 0 -68 16l12 36q27 -13 61 -13q89 0 108 166l26 232h-99z" />
    <glyph glyph-name="AEacute" unicode="&#x1fc;" horiz-adv-x="738" 
d="M46 0h-49l321 674h365v-40h-292l31 -260h249v-40h-244l36 -294h241v-40h-282l-34 271h-213zM194 310h190l-24 212q-10 78 -12 116h-5l-48 -110zM494 823h73l-131 -113h-40z" />
    <glyph glyph-name="aeacute" unicode="&#x1fd;" horiz-adv-x="755" 
d="M712 251h-334q-4 -106 43.5 -163.5t125.5 -57.5q80 0 128 28l13 -38q-60 -31 -145 -31q-65 0 -114.5 32t-67.5 88h-2q-20 -57 -68 -88.5t-110 -31.5q-69 0 -105 38t-36 90q0 83 75 129.5t218 43.5v23q0 16 -4.5 35t-15.5 44t-38 41.5t-66 16.5q-73 0 -120 -35l-15 34
q63 42 137 42q127 0 153 -116h2q22 54 66.5 85t103.5 31q52 0 90 -24t55.5 -61t25 -68t7.5 -57q0 -22 -2 -30zM333 168v83q-244 7 -244 -129q0 -43 28 -68.5t69 -25.5q56 0 92.5 29t49.5 74q5 15 5 37zM379 290h285q2 33 -9.5 68t-44 64t-78.5 29q-70 0 -109.5 -51
t-43.5 -110zM439 688h70l-122 -138h-37z" />
    <glyph glyph-name="Oslashacute" unicode="&#x1fe;" horiz-adv-x="671" 
d="M86 -28l-29 23l66 89q-86 96 -86 248q0 162 87 257.5t216 95.5q103 0 180 -64l61 81l32 -22l-65 -87q86 -96 86 -249q0 -88 -25.5 -158t-68.5 -112t-95 -63.5t-108 -21.5q-108 0 -187 67zM152 124l342 460q-69 61 -157 61q-81 0 -139.5 -47.5t-84.5 -115t-26 -144.5
q0 -116 63 -216zM519 553l-342 -461q65 -63 158 -63q78 0 136 45t85.5 114.5t27.5 152.5q0 120 -63 212h-2zM408 833h73l-131 -113h-40z" />
    <glyph glyph-name="oslashacute" unicode="&#x1ff;" horiz-adv-x="532" 
d="M268 491h1q69 0 125 -39l39 54l31 -20l-41 -59q68 -71 68 -181q0 -125 -68 -191t-157 -66q-75 0 -128 40l-41 -56l-28 24l40 57q-68 70 -68 182q0 118 66 186.5t161 68.5zM137 91l233 324q-40 36 -104 36q-87 0 -132 -64t-45 -148q0 -87 46 -148h2zM395 387l-232 -324
q41 -34 99 -34q80 0 130.5 61t50.5 153q0 82 -46 144h-2zM322 688h70l-122 -138h-37z" />
    <glyph glyph-name="Scommaaccent" unicode="&#x218;" horiz-adv-x="464" 
d="M42 35l18 39q64 -44 147 -44q75 0 119 38.5t44 101.5q0 56 -32 92.5t-105 64.5q-173 62 -173 186q0 74 55 122.5t141 48.5t134 -31l-18 -41q-44 32 -119 32q-74 0 -110 -38t-36 -85q0 -54 32.5 -87.5t107.5 -62.5q88 -36 129 -80t41 -116q0 -78 -55.5 -131.5
t-158.5 -53.5q-44 0 -89.5 13t-71.5 32zM178 -209l-14 26q81 12 81 68q0 36 -37 61l40 12q16 -10 28 -29t12 -41q0 -46 -34 -69.5t-76 -27.5z" />
    <glyph glyph-name="scommaaccent" unicode="&#x219;" horiz-adv-x="373" 
d="M44 23l17 40q54 -33 108 -33q55 0 83.5 25.5t28.5 65.5q0 39 -23.5 63t-77.5 46q-122 46 -122 131q0 55 40.5 92.5t107.5 37.5q64 0 106 -30l-18 -39q-41 29 -96 29q-44 0 -68.5 -24t-24.5 -59t22.5 -55.5t76.5 -42.5q62 -25 93 -58t31 -85q0 -62 -44.5 -99.5
t-117.5 -37.5q-69 0 -122 33zM132 -209l-14 26q81 12 81 68q0 36 -37 61l40 12q16 -10 28 -29t12 -41q0 -46 -34 -69.5t-76 -27.5z" />
    <glyph glyph-name="circumflex" unicode="&#x2c6;" 
d="M131 688h35l94 -138h-48l-62 99h-2l-63 -99h-45z" />
    <glyph glyph-name="caron" unicode="&#x2c7;" 
d="M171 550h-38l-94 138h48l64 -100h2l64 100h45z" />
    <glyph glyph-name="breve" unicode="&#x2d8;" 
d="M35 676h36q5 -32 26 -53t53 -21q36 0 56 22t23 52h36q0 -51 -32.5 -82.5t-82.5 -31.5q-58 0 -86.5 34.5t-28.5 79.5z" />
    <glyph glyph-name="dotaccent" unicode="&#x2d9;" 
d="M151 578h-1q-15 0 -26 12t-11 28t11.5 28t27.5 12q15 0 26 -12t11 -28t-10.5 -28t-27.5 -12z" />
    <glyph glyph-name="ring" unicode="&#x2da;" horiz-adv-x="400" 
d="M201 715h1q38 0 64 -26t26 -65q0 -37 -27 -62.5t-64 -25.5q-40 0 -66.5 25.5t-26.5 62.5q0 39 26 65t67 26zM200 685h-1q-23 0 -37.5 -18t-14.5 -43q0 -22 15.5 -40t37.5 -18q24 0 39.5 17.5t15.5 42.5t-15.5 42t-39.5 17z" />
    <glyph glyph-name="ogonek" unicode="&#x2db;" 
d="M149 4h42q-70 -74 -70 -117q0 -23 13.5 -35.5t35.5 -12.5q24 0 46 10l9 -29q-24 -18 -67 -18q-37 0 -59.5 19.5t-22.5 54.5q0 55 73 128z" />
    <glyph glyph-name="tilde" unicode="&#x2dc;" 
d="M73 572h-34q-1 40 15.5 64t44.5 24q14 0 60 -22q28 -16 42 -16q25 0 28 41h33q0 -84 -60 -84q-20 0 -56 20q-34 18 -46 18q-24 0 -27 -45z" />
    <glyph glyph-name="hungarumlaut" unicode="&#x2dd;" 
d="M161 687h65l-118 -128h-36zM287 687h65l-118 -128h-36z" />
    <glyph glyph-name="uni037E" unicode="&#x37e;" horiz-adv-x="180" 
d="M72 -121l-38 -5q11 34 24.5 101t17.5 111l62 5q-9 -48 -31.5 -118t-34.5 -94zM102 345h-1q-18 0 -29.5 14t-11.5 33q0 21 12 34.5t31 13.5t30.5 -13.5t11.5 -34.5q0 -19 -12 -33t-31 -14z" />
    <glyph glyph-name="tonos" unicode="&#x384;" 
d="M141 689h61l-85 -138h-34z" />
    <glyph glyph-name="dieresistonos" unicode="&#x385;" horiz-adv-x="290" 
d="M136 698h53l-46 -146h-28zM40 579h-1q-16 0 -26 11.5t-10 27.5q0 15 11 26.5t27 11.5q15 0 25.5 -11t10.5 -27t-10 -27.5t-27 -11.5zM249 579h-1q-16 0 -26 11.5t-10 27.5q0 15 11 26.5t26 11.5q16 0 26.5 -11t10.5 -27t-10 -27.5t-27 -11.5z" />
    <glyph glyph-name="Alphatonos" unicode="&#x386;" horiz-adv-x="585" 
d="M429 236h-267l-83 -236h-49l244 674h46l243 -674h-49zM177 276h237l-82 225q-16 48 -35 119h-2q-11 -45 -35 -117zM100 674h53l-33 -143h-31z" />
    <glyph glyph-name="anoteleia" unicode="&#x387;" horiz-adv-x="180" 
d="M89 275h-1q-18 0 -30 14t-11 33q0 21 12 34.5t31 13.5t30.5 -13.5t11.5 -34.5q0 -19 -12 -33t-31 -14z" />
    <glyph glyph-name="Epsilontonos" unicode="&#x388;" horiz-adv-x="511" 
d="M444 375v-40h-269v-295h301v-40h-349v674h333v-40h-285v-259h269zM10 674h53l-33 -143h-30z" />
    <glyph glyph-name="Etatonos" unicode="&#x389;" horiz-adv-x="676" 
d="M127 674h48v-297h371v297h48v-674h-48v337h-371v-337h-48v674zM10 674h53l-33 -143h-30z" />
    <glyph glyph-name="Iotatonos" unicode="&#x38a;" horiz-adv-x="256" 
d="M127 674h48v-674h-48v674zM10 674h53l-33 -143h-30z" />
    <glyph glyph-name="Omicrontonos" unicode="&#x38c;" horiz-adv-x="689" 
d="M351 -11h-1q-127 0 -211 93.5t-84 247.5q0 162 86.5 258.5t216.5 96.5q129 0 211.5 -93.5t82.5 -247.5q0 -169 -88 -262t-213 -93zM352 29h1q115 0 182 90.5t67 221.5q0 55 -15.5 107.5t-44.5 97.5t-77.5 72t-109.5 27q-82 0 -140 -46.5t-84 -115.5t-26 -151
q0 -122 67 -212.5t180 -90.5zM10 674h53l-33 -143h-30z" />
    <glyph glyph-name="Upsilontonos" unicode="&#x38e;" horiz-adv-x="663" 
d="M109 643l10 37q32 -4 74 -30t72 -61q93 -108 114 -267h2q26 153 131 267q71 75 138 91l10 -36q-27 -12 -56.5 -34t-65 -58.5t-67.5 -95t-51 -129.5q-19 -66 -19 -138v-189h-48v191q0 70 -16 138q-33 138 -99 217t-129 97zM11 674h53l-34 -143h-30z" />
    <glyph glyph-name="Omegatonos" unicode="&#x38f;" horiz-adv-x="697" 
d="M514 43v-3h154v-40h-226v33q69 44 115.5 129.5t46.5 188.5q0 69 -25.5 134t-83.5 112.5t-136 47.5q-79 0 -138 -45t-86 -111t-27 -139q0 -99 47.5 -187t114.5 -130v-33h-226v40h154v3q-62 50 -101 129.5t-39 176.5q0 149 87 242.5t215 93.5q130 0 212 -92.5t82 -236.5
q0 -103 -39 -183.5t-101 -129.5zM10 674h53l-33 -143h-30z" />
    <glyph glyph-name="iotadieresistonos" unicode="&#x390;" horiz-adv-x="209" 
d="M129 480v-384q0 -38 9.5 -53t38.5 -14l-4 -37q-11 -3 -24 -3q-68 0 -68 102v389h48zM105 682h53l-46 -146h-28zM8 565h-1q-15 0 -25 11t-10 26t10.5 26t26.5 11q14 0 24 -10.5t10 -26.5t-9.5 -26.5t-25.5 -10.5zM218 565h-1q-15 0 -24.5 11t-9.5 26t10.5 26t25.5 11
t25 -10.5t10 -26.5t-9.5 -26.5t-26.5 -10.5z" />
    <glyph glyph-name="Alpha" unicode="&#x391;" horiz-adv-x="585" 
d="M429 236h-267l-83 -236h-49l244 674h46l243 -674h-49zM177 276h237l-82 225q-16 48 -35 119h-2q-11 -45 -35 -117z" />
    <glyph glyph-name="Beta" unicode="&#x392;" horiz-adv-x="505" 
d="M81 0v664q63 15 136 15q121 0 176 -56q42 -41 42 -110q0 -51 -32.5 -91.5t-83.5 -58.5v-3q54 -12 98.5 -55t44.5 -117q0 -76 -50 -129q-64 -64 -214 -64q-23 0 -45.5 1t-42.5 2.5t-29 1.5zM129 632v-254h98q72 0 115.5 37.5t43.5 94.5q0 129 -172 129q-59 0 -85 -7z
M129 339v-299q25 -5 83 -5q87 0 143.5 36t56.5 116q0 75 -56 113.5t-142 38.5h-85z" />
    <glyph glyph-name="Gamma" unicode="&#x393;" horiz-adv-x="433" 
d="M81 674h333v-40h-285v-634h-48v674z" />
    <glyph glyph-name="Delta" unicode="&#x394;" horiz-adv-x="603" 
d="M31 0v33l246 641h46l245 -641v-33h-537zM80 40h438l-163 426q-43 112 -55 154h-3q-14 -47 -49 -137z" />
    <glyph glyph-name="Delta" unicode="&#xe000;" horiz-adv-x="603" 
d="M31 0v33l246 641h46l245 -641v-33h-537zM80 40h438l-163 426q-43 112 -55 154h-3q-14 -47 -49 -137z" />
    <glyph glyph-name="Epsilon" unicode="&#x395;" horiz-adv-x="466" 
d="M398 375v-40h-269v-295h301v-40h-349v674h333v-40h-285v-259h269z" />
    <glyph glyph-name="Zeta" unicode="&#x396;" horiz-adv-x="539" 
d="M34 0v31l406 600v3h-373v40h434v-32l-407 -599v-3h412v-40h-472z" />
    <glyph glyph-name="Eta" unicode="&#x397;" horiz-adv-x="630" 
d="M81 674h48v-297h372v297h48v-674h-48v337h-372v-337h-48v674z" />
    <glyph glyph-name="Theta" unicode="&#x398;" horiz-adv-x="671" 
d="M333 -11h-1q-127 0 -211 93.5t-84 248.5q0 161 86.5 257.5t216.5 96.5q129 0 211.5 -93.5t82.5 -247.5q0 -169 -88 -262t-213 -93zM334 29h1q115 0 182 90.5t67 221.5q0 55 -15.5 107.5t-44.5 97.5t-77.5 72t-109.5 27q-82 0 -140 -46.5t-84 -115.5t-26 -151
q0 -122 67 -212.5t180 -90.5zM181 370h309v-40h-309v40z" />
    <glyph glyph-name="Iota" unicode="&#x399;" horiz-adv-x="211" 
d="M81 674h48v-674h-48v674z" />
    <glyph glyph-name="Kappa" unicode="&#x39a;" horiz-adv-x="498" 
d="M81 0v674h48v-341h3q18 23 58 70l239 271h58l-256 -286l280 -388h-57l-256 355l-69 -76v-279h-48z" />
    <glyph glyph-name="Lambda" unicode="&#x39b;" horiz-adv-x="585" 
d="M563 0h-49l-182 501q-16 48 -35 119h-2q-11 -45 -35 -117l-181 -503h-49l244 674h46z" />
    <glyph glyph-name="Mu" unicode="&#x39c;" horiz-adv-x="778" 
d="M670 0l-20 319q-14 236 -14 299h-2q-49 -144 -91 -252l-142 -366h-33l-133 358q-66 183 -87 260h-2q-4 -152 -15 -308l-21 -310h-47l49 674h55l145 -389q46 -122 74 -218h3q18 65 75 218l151 389h57l45 -674h-47z" />
    <glyph glyph-name="Nu" unicode="&#x39d;" horiz-adv-x="638" 
d="M128 0h-46v674h45l262 -398q86 -132 127 -212l2 1q-8 104 -8 273v336h46v-674h-44l-257 392q-96 147 -131 218l-2 -1q6 -100 6 -268v-341z" />
    <glyph glyph-name="Xi" unicode="&#x39e;" horiz-adv-x="519" 
d="M52 674h425v-40h-425v40zM87 371h356v-40h-356v40zM44 40h442v-40h-442v40z" />
    <glyph glyph-name="Omicron" unicode="&#x39f;" horiz-adv-x="671" 
d="M333 -11h-1q-127 0 -211 93.5t-84 247.5q0 162 86.5 258.5t216.5 96.5q129 0 211.5 -93.5t82.5 -247.5q0 -169 -88 -262t-213 -93zM334 29h1q115 0 182 90.5t67 221.5q0 55 -15.5 107.5t-44.5 97.5t-77.5 72t-109.5 27q-82 0 -140 -46.5t-84 -115.5t-26 -151
q0 -122 67 -212.5t180 -90.5z" />
    <glyph glyph-name="Pi" unicode="&#x3a0;" horiz-adv-x="614" 
d="M532 674v-674h-48v634h-355v-634h-48v674h451z" />
    <glyph glyph-name="Rho" unicode="&#x3a1;" horiz-adv-x="502" 
d="M81 0v666q72 13 145 13q119 0 178 -57q52 -49 52 -132t-47 -135q-66 -75 -198 -75q-55 0 -82 8v-288h-48zM129 631v-301q29 -10 86 -10q92 0 142.5 42.5t50.5 122.5q0 77 -50 115.5t-134 38.5q-59 0 -95 -8z" />
    <glyph glyph-name="Sigma" unicode="&#x3a3;" horiz-adv-x="536" 
d="M88 43v-3h423v-40h-488v31l256 304l-242 306v33h438v-40h-375v-3l234 -294z" />
    <glyph glyph-name="Tau" unicode="&#x3a4;" horiz-adv-x="465" 
d="M209 0v634h-220v40h488v-40h-220v-634h-48z" />
    <glyph glyph-name="Upsilon" unicode="&#x3a5;" horiz-adv-x="566" 
d="M12 643l10 37q32 -4 74 -30t72 -61q93 -108 114 -267h2q26 153 131 267q71 75 138 91l10 -36q-27 -12 -56.5 -34t-65 -58.5t-67.5 -95t-51 -129.5q-19 -67 -19 -138v-189h-48v191q0 70 -16 138q-33 138 -99 217t-129 97z" />
    <glyph glyph-name="Phi" unicode="&#x3a6;" horiz-adv-x="677" 
d="M362 26v-50h-48v50q-111 7 -193.5 85.5t-82.5 221.5q0 75 25.5 136.5t66.5 99.5t89 58.5t97 22.5v49h48v-49q112 -6 193.5 -88.5t81.5 -225.5q0 -74 -24 -133.5t-63.5 -96.5t-88 -57.5t-101.5 -22.5zM315 62v552q-39 -2 -78.5 -20.5t-73 -52t-54.5 -87.5t-21 -118
q0 -119 65.5 -191.5t161.5 -82.5zM363 614v-552q93 6 159.5 80.5t66.5 194.5q0 124 -66.5 197.5t-159.5 79.5z" />
    <glyph glyph-name="Chi" unicode="&#x3a7;" horiz-adv-x="546" 
d="M515 0h-55l-102 166q-56 84 -89 140h-2q-42 -74 -85 -141l-97 -165h-55l214 341l-205 333h54l109 -180q43 -68 69 -116h2q12 23 71 116l113 180h56l-215 -328z" />
    <glyph glyph-name="Psi" unicode="&#x3a8;" horiz-adv-x="650" 
d="M600 674v-195q0 -118 -67.5 -186.5t-183.5 -73.5v-219h-48v219q-49 2 -92 15.5t-80 40.5t-58 74t-21 109v216h48v-206q0 -103 54 -153.5t149 -55.5v415h48v-415q88 4 145.5 58.5t57.5 162.5v194h48z" />
    <glyph glyph-name="Omega" unicode="&#x3a9;" horiz-adv-x="681" 
d="M498 43v-3h155v-40h-227v33q69 46 116 132t47 188q0 50 -15.5 100.5t-44.5 94t-77.5 70.5t-108.5 27q-79 0 -138 -45t-86 -110.5t-27 -138.5q0 -98 47.5 -186t114.5 -132v-33h-226v40h154v3q-61 51 -100.5 131t-39.5 177q0 149 87 241.5t215 92.5q131 0 213 -91.5
t82 -235.5q0 -102 -39.5 -182.5t-101.5 -132.5z" />
    <glyph glyph-name="Omega" unicode="&#x2126;" horiz-adv-x="681" 
d="M498 43v-3h155v-40h-227v33q69 46 116 132t47 188q0 50 -15.5 100.5t-44.5 94t-77.5 70.5t-108.5 27q-79 0 -138 -45t-86 -110.5t-27 -138.5q0 -98 47.5 -186t114.5 -132v-33h-226v40h154v3q-61 51 -100.5 131t-39.5 177q0 149 87 241.5t215 92.5q131 0 213 -91.5
t82 -235.5q0 -102 -39.5 -182.5t-101.5 -132.5z" />
    <glyph glyph-name="Iotadieresis" unicode="&#x3aa;" horiz-adv-x="211" 
d="M20 710h-2q-16 0 -26 11.5t-10 27.5q0 15 11.5 27t26.5 12q16 0 26.5 -11.5t10.5 -27.5t-10 -27.5t-27 -11.5zM191 710h-2q-16 0 -26 11.5t-10 27.5q0 15 11.5 27t26.5 12q16 0 26.5 -11.5t10.5 -27.5t-10 -27.5t-27 -11.5zM81 674h48v-674h-48v674z" />
    <glyph glyph-name="Upsilondieresis" unicode="&#x3ab;" horiz-adv-x="566" 
d="M202 696h-2q-16 0 -26 11.5t-10 27.5q0 15 11.5 27t26.5 12q16 0 26.5 -11.5t10.5 -27.5t-10 -27.5t-27 -11.5zM372 696h-2q-16 0 -26 11.5t-10 27.5q0 15 11.5 27t26.5 12q16 0 26.5 -11.5t10.5 -27.5t-10 -27.5t-27 -11.5zM12 643l10 37q32 -4 74 -30t72 -61
q93 -108 114 -267h2q26 153 131 267q71 75 138 91l10 -36q-27 -12 -56.5 -34t-65 -58.5t-67.5 -95t-51 -129.5q-19 -67 -19 -138v-189h-48v191q0 70 -16 138q-33 138 -99 217t-129 97z" />
    <glyph glyph-name="alphatonos" unicode="&#x3ac;" horiz-adv-x="532" 
d="M285 678h61l-86 -138h-33zM423 480h39q-12 -105 -12 -362q0 -46 11 -67.5t39 -22.5l-6 -38q-6 -1 -17 -1q-29 0 -48.5 26.5t-19.5 83.5h-3q-60 -110 -171 -110q-87 0 -140.5 66.5t-53.5 175.5q0 113 62.5 186.5t148.5 73.5q58 0 99.5 -29t60.5 -80h4q1 46 7 98zM89 230
v-1q0 -81 41.5 -140.5t114.5 -59.5q52 0 96 42t59 99q6 26 6 80q0 40 -4 60q-11 56 -52 98.5t-97 42.5q-72 0 -118 -62t-46 -159z" />
    <glyph glyph-name="epsilontonos" unicode="&#x3ad;" horiz-adv-x="422" 
d="M262 678h61l-85 -138h-34zM170 257v4q-50 9 -76 37t-26 66q0 50 48 88.5t132 38.5q89 0 137 -37l-14 -35q-15 12 -52 22.5t-73 10.5q-58 0 -94 -24t-36 -64q0 -43 42 -64.5t105 -21.5h66v-39h-69q-77 0 -123.5 -26t-46.5 -77q0 -50 43 -78.5t108 -28.5q41 0 84 12.5
t65 27.5l13 -36q-22 -17 -69.5 -30.5t-97.5 -13.5q-79 0 -136.5 35.5t-57.5 109.5q0 46 34.5 80.5t93.5 42.5z" />
    <glyph glyph-name="etatonos" unicode="&#x3ae;" horiz-adv-x="536" 
d="M309 678h61l-85 -138h-34zM125 394h2q20 42 64.5 69.5t100.5 27.5q17 0 35.5 -3.5t43.5 -16.5t43.5 -33.5t32 -59.5t13.5 -90v-301q0 -139 11 -185h-46q-13 44 -13 179v303q0 73 -32 120t-101 47q-50 0 -90 -31.5t-54 -79.5q-6 -24 -6 -43v-297h-48v365q0 76 -13 115h44
q13 -29 13 -86z" />
    <glyph glyph-name="iotatonos" unicode="&#x3af;" horiz-adv-x="209" 
d="M135 678h61l-85 -138h-34zM129 480v-384q0 -38 9.5 -53t38.5 -14l-4 -37q-11 -3 -24 -3q-68 0 -68 102v389h48z" />
    <glyph glyph-name="upsilondieresistonos" unicode="&#x3b0;" horiz-adv-x="503" 
d="M371 480h46q13 -25 24.5 -79.5t11.5 -109.5q0 -45 -5 -84.5t-19 -80.5t-36 -70.5t-59 -48t-85 -18.5q-77 0 -125.5 47.5t-48.5 138.5v142q0 133 -10 163h45q13 -17 13 -87v-205q0 -81 39 -119t91 -38q73 0 112.5 65t39.5 187q0 63 -11.5 119t-22.5 78zM244 682h52
l-45 -146h-28zM148 565h-1q-15 0 -25 11t-10 26t10.5 26t26.5 11q14 0 24 -10.5t10 -26.5t-9.5 -26.5t-25.5 -10.5zM357 565h-1q-15 0 -24.5 11t-9.5 26t10.5 26t25.5 11t25 -10.5t10 -26.5t-9.5 -26.5t-26.5 -10.5z" />
    <glyph glyph-name="alpha" unicode="&#x3b1;" horiz-adv-x="532" 
d="M423 480h39q-12 -105 -12 -362q0 -46 11 -67.5t39 -22.5l-6 -38q-6 -1 -17 -1q-29 0 -48.5 26.5t-19.5 83.5h-3q-60 -110 -171 -110q-87 0 -140.5 66.5t-53.5 175.5q0 113 62.5 186.5t148.5 73.5q58 0 99.5 -29t60.5 -80h4q1 46 7 98zM89 230v-1q0 -81 41.5 -140.5
t114.5 -59.5q52 0 96 42t59 99q6 26 6 80q0 40 -4 60q-11 56 -52 98.5t-97 42.5q-72 0 -118 -62t-46 -159z" />
    <glyph glyph-name="beta" unicode="&#x3b2;" horiz-adv-x="543" 
d="M129 61h-2v-74q0 -139 11 -185h-46q-13 44 -13 170v472q0 157 73 228q51 49 128 49q64 0 112.5 -46.5t48.5 -122.5q0 -60 -28.5 -101t-66.5 -59v-4q66 -12 111 -61t45 -134q0 -96 -62 -150t-144 -54q-103 0 -167 72zM127 444v-318q20 -37 64 -67t102 -30q68 0 114.5 45.5
t46.5 115.5q0 81 -51 125t-134 46h-30v39q3 0 9 0.5t9 0.5q65 2 100.5 44.5t35.5 100.5q0 61 -34 98t-86 37q-73 0 -109.5 -61.5t-36.5 -175.5z" />
    <glyph glyph-name="gamma" unicode="&#x3b3;" horiz-adv-x="434" 
d="M238 -198h-49q4 60 1.5 141.5t-19.5 145.5q-26 107 -78.5 219t-94.5 172h56q42 -63 92.5 -179t73.5 -223h3q139 234 139 375v27h46q2 -7 2 -30q0 -155 -170 -420q-5 -8 -5 -24q3 -66 3 -204z" />
    <glyph glyph-name="delta" unicode="&#x3b4;" horiz-adv-x="528" 
d="M445 674l-18 -37q-60 44 -136 44q-47 0 -73 -16.5t-26 -40.5q0 -15 10 -29.5t22.5 -25.5t40.5 -33q6 -4 9 -7l81 -65q66 -49 99 -103.5t33 -127.5q0 -108 -63.5 -176t-157.5 -68q-92 0 -158.5 64.5t-66.5 179.5q0 88 53.5 155t142.5 110v4l-25 18q-66 55 -66 100
q0 40 39 70.5t112 30.5q44 0 84.5 -14t63.5 -33zM328 430l-59 44q-180 -90 -180 -242q0 -96 54.5 -149.5t124.5 -53.5q72 0 121.5 54.5t49.5 147.5q0 116 -111 199z" />
    <glyph glyph-name="epsilon" unicode="&#x3b5;" horiz-adv-x="422" 
d="M170 257v4q-50 9 -76 37t-26 66q0 50 48 88.5t132 38.5q88 0 137 -36l-14 -36q-15 12 -52 22.5t-73 10.5q-58 0 -94 -24t-36 -64q0 -43 42 -64.5t105 -21.5h66v-39h-69q-77 0 -123.5 -26t-46.5 -77q0 -50 43 -78.5t108 -28.5q41 0 84 12.5t65 27.5l13 -36
q-22 -17 -69.5 -30.5t-97.5 -13.5q-79 0 -136.5 35.5t-57.5 109.5q0 45 35 80t93 43z" />
    <glyph glyph-name="zeta" unicode="&#x3b6;" horiz-adv-x="389" 
d="M328 -138l-34 10q11 17 23 56.5t13 60.5q-71 9 -121 26q-168 48 -168 223q0 112 73 231t198 197v3h-86q-82 0 -120 9l6 35q32 -4 111 -4h157l8 -38q-132 -71 -215.5 -191t-83.5 -234q0 -88 38 -131t111 -65q49 -15 134 -25q9 -2 9 -10q0 -36 -17.5 -83t-35.5 -70z" />
    <glyph glyph-name="eta" unicode="&#x3b7;" horiz-adv-x="536" 
d="M125 394h2q20 42 64.5 69.5t100.5 27.5q17 0 35.5 -3.5t43.5 -16.5t43.5 -33.5t32 -59.5t13.5 -90v-301q0 -139 11 -185h-46q-13 44 -13 179v303q0 73 -32 120t-101 47q-50 0 -90 -31.5t-54 -79.5q-6 -24 -6 -43v-297h-48v365q0 76 -13 115h44q13 -29 13 -86z" />
    <glyph glyph-name="theta" unicode="&#x3b8;" horiz-adv-x="513" 
d="M259 -11h-1q-101 0 -159 94.5t-58 276.5q0 158 58.5 259.5t160.5 101.5q105 0 158.5 -96.5t53.5 -264.5q0 -174 -54 -272.5t-159 -98.5zM89 388h335q0 127 -43 210t-126 83q-74 0 -120 -87.5t-46 -205.5zM424 349h-335q0 -151 48 -235.5t123 -84.5q80 0 122 87.5
t42 232.5z" />
    <glyph glyph-name="iota" unicode="&#x3b9;" horiz-adv-x="209" 
d="M129 480v-384q0 -38 9.5 -53t38.5 -14l-4 -37q-11 -3 -24 -3q-68 0 -68 102v389h48z" />
    <glyph glyph-name="kappa" unicode="&#x3ba;" horiz-adv-x="460" 
d="M192 259v-3q55 -11 167 -142l94 -114h-57l-89 106q-105 119 -168 119h-10v-225h-48v388q0 66 -10 92h45q13 -16 13 -78v-143h5l252 221h59v-3z" />
    <glyph glyph-name="lambda" unicode="&#x3bb;" horiz-adv-x="444" 
d="M372 0l-116 311q-27 74 -36 106h-3q-1 -4 -36 -103l-121 -314h-50l176 447q6 12 6 22q0 12 -5 26q-18 47 -29 73t-29 56t-38.5 43.5t-45.5 13.5q-8 0 -14 -1l6 38q10 3 23 3q58 0 93.5 -52t83.5 -178l186 -491h-51z" />
    <glyph glyph-name="uni03BC" unicode="&#x3bc;" horiz-adv-x="534" 
d="M409 80h-2q-21 -36 -59.5 -63t-90.5 -27q-96 0 -129 68v-71q0 -139 11 -185h-44q-15 46 -15 179v499h48v-294q0 -67 31.5 -111t98.5 -44q49 0 85.5 28t53.5 69q9 27 9 53v299h48v-363q0 -47 10 -67t38 -22l-6 -38q-9 -1 -15 -1q-29 0 -49 21.5t-23 69.5z" />
    <glyph glyph-name="nu" unicode="&#x3bd;" horiz-adv-x="443" 
d="M7 480h50l110 -298q11 -27 28 -74.5l20 -55.5h3q1 1 18 32l23.5 43.5l24 46t26 53.5l22 52.5t20 55.5t12 49.5t5.5 47.5q0 34 -1 48h45q4 -18 4 -34q0 -48 -14.5 -102t-48.5 -122t-54.5 -105l-67.5 -117h-44z" />
    <glyph glyph-name="xi" unicode="&#x3be;" horiz-adv-x="409" 
d="M340 434l-1 -39h-26q-109 -1 -166 -50.5t-57 -122.5q0 -129 167 -173q59 -15 137 -24q9 0 9 -10q0 -34 -17.5 -83t-34.5 -70l-35 10q11 17 23.5 57t13.5 60q-50 7 -87.5 15.5t-82 26t-73.5 40.5t-48.5 61.5t-19.5 87.5q0 70 46 123t113 71v4q-57 16 -86 52.5t-29 87.5
q0 64 51.5 113.5t143.5 49.5q73 0 112 -27l-15 -37q-36 25 -104 25q-67 0 -103.5 -36.5t-36.5 -86.5q0 -56 42.5 -89.5t105.5 -35.5h58z" />
    <glyph glyph-name="omicron" unicode="&#x3bf;" horiz-adv-x="532" 
d="M262 -11h-1q-95 0 -157.5 68t-62.5 179q0 118 66.5 186.5t160.5 68.5q100 0 161.5 -68.5t61.5 -178.5q0 -64 -20.5 -114.5t-54.5 -80t-73.5 -45t-80.5 -15.5zM263 29h1q76 0 127.5 60.5t51.5 152.5q0 35 -10 70t-30 67t-55.5 52t-80.5 20q-86 0 -132 -63t-46 -149
q0 -90 50 -150t124 -60z" />
    <glyph glyph-name="pi" unicode="&#x3c0;" horiz-adv-x="527" 
d="M490 440h-71v-302q0 -94 14 -138h-47q-15 30 -15 131v309h-191q-5 -109 -28 -245.5t-49 -194.5h-45q29 67 50 196.5t26 243.5q-69 0 -105 -10l-9 30q40 20 116 20h361z" />
    <glyph glyph-name="rho" unicode="&#x3c1;" horiz-adv-x="546" 
d="M125 74h-3v-87q0 -137 8 -185h-45q-11 42 -11 179v225q0 137 56 205q61 80 166 80q96 0 152.5 -66.5t56.5 -173.5q0 -123 -63 -192.5t-155 -69.5q-51 0 -94.5 22.5t-67.5 62.5zM122 230v-43q0 -22 4 -39q15 -53 58.5 -86t98.5 -33q81 0 127.5 61t46.5 158
q0 84 -44.5 143.5t-122.5 59.5q-67 0 -117.5 -55.5t-50.5 -165.5z" />
    <glyph glyph-name="uni03C2" unicode="&#x3c2;" horiz-adv-x="392" 
d="M387 470l-14 -37q-41 18 -91 18q-87 0 -140 -61.5t-53 -146.5q0 -79 39.5 -126t117.5 -70q46 -12 123 -23q10 -1 10 -14q0 -33 -16.5 -79t-32.5 -69l-37 10q11 16 23.5 56t14.5 60q-52 8 -113 22q-81 23 -129 80.5t-48 146.5q0 101 67 177.5t179 76.5q65 0 100 -21z" />
    <glyph glyph-name="sigma" unicode="&#x3c3;" horiz-adv-x="529" 
d="M376 454v-3q50 -30 78 -84t28 -120q0 -64 -20.5 -115.5t-53.5 -81.5t-71 -45.5t-77 -15.5q-94 0 -156.5 68.5t-62.5 179.5q0 119 66 186.5t169 67.5h93h40q99 0 108 1l-2 -40q-83 0 -139 2zM261 29h1q71 0 121.5 62.5t50.5 153.5q0 27 -6 55t-20 55.5t-33.5 49t-49 34.5
t-64.5 13q-82 0 -127 -64t-45 -149q0 -89 50 -149.5t122 -60.5z" />
    <glyph glyph-name="tau" unicode="&#x3c4;" horiz-adv-x="389" 
d="M294 31l-3 -35q-12 -7 -35 -7q-91 0 -91 135v316h-60q-46 0 -102 -8l-7 27q29 21 107 21h278l-8 -40h-160v-319q0 -92 59 -92q8 0 22 2z" />
    <glyph glyph-name="upsilon" unicode="&#x3c5;" horiz-adv-x="503" 
d="M371 480h46q13 -25 24.5 -79.5t11.5 -109.5q0 -45 -5 -84.5t-19 -80.5t-36 -70.5t-59 -48t-85 -18.5q-77 0 -125.5 47.5t-48.5 138.5v142q0 133 -10 163h45q13 -17 13 -87v-205q0 -81 39 -119t91 -38q73 0 112.5 65t39.5 187q0 63 -11.5 119t-22.5 78z" />
    <glyph glyph-name="phi" unicode="&#x3c6;" horiz-adv-x="600" 
d="M199 495l19 -29q-53 -33 -91 -88t-38 -134q0 -84 47.5 -143t139.5 -71v331q0 64 27.5 96t72.5 32q68 0 125 -65.5t57 -169.5q0 -118 -67.5 -185.5t-166.5 -77.5v-189h-48v189q-97 6 -166 69.5t-69 183.5q0 93 49 157t109 94zM324 363v-333q86 10 136 69.5t50 153.5
q0 79 -41.5 137.5t-92.5 58.5q-52 0 -52 -86z" />
    <glyph glyph-name="chi" unicode="&#x3c7;" horiz-adv-x="429" 
d="M26 480h52l141 -285h4l59 120l83 165h49l-171 -323l180 -348l-44 -15l-162 322h-3q-35 -77 -51 -109l-104 -213l-41 16l174 346z" />
    <glyph glyph-name="psi" unicode="&#x3c8;" horiz-adv-x="611" 
d="M292 -198v187q-101 6 -159.5 61t-58.5 180v146q0 78 -9 104h45q12 -17 12 -87v-157q0 -105 47.5 -155t122.5 -54v580h48v-580q75 4 124 72t49 186q0 68 -12.5 123.5t-25.5 71.5h48q15 -23 26.5 -75.5t11.5 -114.5q0 -76 -20.5 -140t-72 -110.5t-128.5 -50.5v-187h-48z
" />
    <glyph glyph-name="omega" unicode="&#x3c9;" horiz-adv-x="670" 
d="M359 356l-2 -198q-1 -54 29 -91.5t74 -37.5q48 0 84.5 58.5t36.5 163.5q0 75 -24.5 139.5t-61.5 96.5v2h49q37 -29 61 -92.5t24 -145.5q0 -128 -51.5 -195t-117.5 -67q-46 0 -78 24t-47 66h-3q-35 -90 -127 -90q-64 0 -114 63t-50 193q0 77 25.5 144.5t60.5 99.5h47v-2
q-37 -36 -61 -100.5t-24 -143.5q0 -108 38.5 -161t85.5 -53q41 0 71 37.5t29 90.5l-2 199h48z" />
    <glyph glyph-name="iotadieresis" unicode="&#x3ca;" horiz-adv-x="209" 
d="M22 563h-2q-16 0 -26 11.5t-10 27.5q0 15 11.5 27t26.5 12q16 0 26.5 -11.5t10.5 -27.5t-10 -27.5t-27 -11.5zM193 563h-2q-16 0 -26 11.5t-10 27.5q0 15 11.5 27t26.5 12q16 0 26.5 -11.5t10.5 -27.5t-10 -27.5t-27 -11.5zM129 480v-384q0 -38 9.5 -53t38.5 -14l-4 -37
q-11 -3 -24 -3q-68 0 -68 101v390h48z" />
    <glyph glyph-name="upsilondieresis" unicode="&#x3cb;" horiz-adv-x="503" 
d="M163 563h-2q-16 0 -26 11.5t-10 27.5q0 15 11.5 27t26.5 12q16 0 26.5 -11.5t10.5 -27.5t-10 -27.5t-27 -11.5zM334 563h-2q-16 0 -26 11.5t-10 27.5q0 15 11.5 27t26.5 12q16 0 26.5 -11.5t10.5 -27.5t-10 -27.5t-27 -11.5zM372 480h45q13 -25 24.5 -79.5t11.5 -109.5
q0 -45 -5 -84.5t-19 -80.5t-36 -70.5t-59 -48t-85 -18.5q-77 0 -125.5 47.5t-48.5 138.5v142q0 133 -10 163h45q13 -17 13 -87v-205q0 -81 39 -119t91 -38q73 0 112.5 65t39.5 187q0 62 -11 118t-22 79z" />
    <glyph glyph-name="omicrontonos" unicode="&#x3cc;" horiz-adv-x="532" 
d="M293 678h61l-85 -138h-34zM262 -11h-1q-95 0 -157.5 68t-62.5 179q0 118 66.5 186.5t160.5 68.5q100 0 161.5 -68.5t61.5 -178.5q0 -64 -20.5 -114.5t-54.5 -80t-73.5 -45t-80.5 -15.5zM263 29h1q76 0 127.5 60.5t51.5 152.5q0 35 -10 70t-30 67t-55.5 52t-80.5 20
q-86 0 -132 -63t-46 -149q0 -90 50 -150t124 -60z" />
    <glyph glyph-name="upsilontonos" unicode="&#x3cd;" horiz-adv-x="503" 
d="M275 678h61l-85 -138h-34zM371 480h46q13 -25 24.5 -79.5t11.5 -109.5q0 -45 -5 -84.5t-19 -80.5t-36 -70.5t-59 -48t-85 -18.5q-77 0 -125.5 47.5t-48.5 138.5v142q0 133 -10 163h45q13 -17 13 -87v-205q0 -81 39 -119t91 -38q73 0 112.5 65t39.5 187q0 63 -11.5 119
t-22.5 78z" />
    <glyph glyph-name="omegatonos" unicode="&#x3ce;" horiz-adv-x="670" 
d="M361 678h60l-85 -138h-34zM359 356l-2 -198q-1 -54 29 -91.5t74 -37.5q48 0 84.5 58.5t36.5 163.5q0 75 -24.5 139.5t-61.5 96.5v2h49q37 -29 61 -92.5t24 -145.5q0 -128 -51.5 -195t-117.5 -67q-46 0 -78 24t-47 66h-3q-35 -90 -127 -90q-64 0 -114 63t-50 193
q0 77 25.5 144.5t60.5 99.5h47v-2q-37 -36 -61 -100.5t-24 -143.5q0 -108 38.5 -161t85.5 -53q41 0 71 37.5t29 90.5l-2 199h48z" />
    <glyph glyph-name="afii10023" unicode="&#x401;" horiz-adv-x="466" 
d="M398 375v-40h-269v-295h301v-40h-349v674h333v-40h-285v-259h269zM160 726h-1q-16 0 -26 11.5t-10 28.5q0 16 11 28t26 12q16 0 26.5 -11.5t10.5 -28.5t-10 -28.5t-27 -11.5zM332 726h-1q-16 0 -26 11.5t-10 28.5q0 16 11 28t26 12q16 0 26.5 -11.5t10.5 -28.5t-10 -28.5
t-27 -11.5z" />
    <glyph glyph-name="afii10051" unicode="&#x402;" horiz-adv-x="630" 
d="M-11 674h492v-40h-250v-234h2q72 48 146 48q103 0 161 -85q48 -70 48 -182q0 -135 -63 -221q-54 -74 -150 -91l-10 33q81 23 123 83q51 70 51 189q0 101 -38 160q-45 73 -131 73q-75 0 -139 -49v-358h-48v634h-194v40z" />
    <glyph glyph-name="afii10052" unicode="&#x403;" horiz-adv-x="399" 
d="M81 674h328v-40h-280v-634h-48v674zM290 823h73l-131 -113h-40z" />
    <glyph glyph-name="afii10053" unicode="&#x404;" horiz-adv-x="565" 
d="M529 655l-15 -39q-54 28 -132 28q-126 0 -205 -78.5t-89 -199.5h370v-39h-370q1 -125 79 -211t205 -86q81 0 149 30l10 -37q-62 -33 -171 -33q-135 0 -229 93t-94 253q0 149 96.5 248.5t247.5 99.5q84 0 148 -29z" />
    <glyph glyph-name="afii10054" unicode="&#x405;" horiz-adv-x="464" 
d="M42 35l18 39q64 -44 147 -44q75 0 119 38.5t44 101.5q0 56 -32 92.5t-105 64.5q-173 62 -173 186q0 74 55 122.5t141 48.5t134 -31l-18 -41q-44 32 -119 32q-74 0 -110 -38t-36 -85q0 -54 32.5 -87.5t107.5 -62.5q88 -36 129 -80t41 -116q0 -78 -55.5 -131.5
t-158.5 -53.5q-44 0 -89.5 13t-71.5 32z" />
    <glyph glyph-name="afii10055" unicode="&#x406;" horiz-adv-x="211" 
d="M81 674h48v-674h-48v674z" />
    <glyph glyph-name="afii10056" unicode="&#x407;" horiz-adv-x="211" 
d="M81 674h48v-674h-48v674zM20 726h-1q-16 0 -26 11.5t-10 28.5q0 16 11 28t26 12q16 0 26.5 -11.5t10.5 -28.5t-10 -28.5t-27 -11.5zM192 726h-1q-16 0 -26 11.5t-10 28.5q0 16 11 28t26 12q16 0 26.5 -11.5t10.5 -28.5t-10 -28.5t-27 -11.5z" />
    <glyph glyph-name="afii10057" unicode="&#x408;" horiz-adv-x="345" 
d="M223 219v455h48v-466q0 -219 -182 -219q-48 0 -82 16l10 38q32 -13 71 -13q69 0 102 41t33 148z" />
    <glyph glyph-name="afii10058" unicode="&#x409;" horiz-adv-x="842" 
d="M125 674h336v-263q33 5 84 5q70 0 125.5 -19.5t92.5 -67t37 -118.5q0 -84 -51 -142q-70 -74 -217 -74q-23 0 -46 1t-44 2.5t-29 1.5v634h-242v-232q0 -58 -0.5 -84.5t-5 -82.5t-13 -88t-26 -67.5t-43.5 -54.5q-42 -31 -81 -31l-9 37q39 8 69 36q28 27 43 90.5t17.5 113.5
t2.5 126v277zM461 372v-333q27 -5 82 -5q90 0 149 44.5t59 130.5t-60 126.5t-151 40.5q-29 0 -79 -4z" />
    <glyph glyph-name="afii10059" unicode="&#x40a;" horiz-adv-x="863" 
d="M81 674h48v-281h304v281h48v-276q33 5 99 5q103 0 171.5 -48t68.5 -146q0 -87 -51 -141q-68 -73 -215 -73q-40 0 -121 6v352h-304v-353h-48v674zM481 359v-320q37 -5 82 -5q90 0 149 43t59 129q0 81 -58 119t-146 38q-44 0 -86 -4z" />
    <glyph glyph-name="afii10060" unicode="&#x40b;" horiz-adv-x="641" 
d="M-10 674h480v-40h-242v-229h2q83 50 158 50t121 -43q55 -54 55 -155v-257h-48v250q0 85 -38 126q-36 39 -99 39q-36 0 -78.5 -15t-72.5 -36v-364h-48v634h-190v40z" />
    <glyph glyph-name="afii10061" unicode="&#x40c;" horiz-adv-x="503" 
d="M81 674h48v-311h35l258 311h55l-267 -315q88 -8 132.5 -52.5t78.5 -128.5l22 -58.5l26.5 -68.5t23.5 -51h-51q-13 24 -67 166q-30 81 -77.5 120t-141.5 39h-27v-325h-48v674zM324 818h73l-131 -113h-40z" />
    <glyph glyph-name="afii10062" unicode="&#x40e;" horiz-adv-x="480" 
d="M3 674h53l156 -318l50 -112h2l44 115l126 315h50l-151 -358q-80 -190 -122 -248q-62 -78 -135 -78q-22 0 -34 2l7 40q8 -2 21 -2q90 1 158 148q9 21 -3 47zM125 808h45q3 -13 6 -21t10.5 -19t21 -16.5t33.5 -5.5q26 0 42 10.5t21 22.5t7 29h45q-7 -98 -117 -98
q-56 0 -84 27t-30 71z" />
    <glyph glyph-name="afii10145" unicode="&#x40f;" horiz-adv-x="612" 
d="M81 674h48v-634h355v634h48v-674h-199l-7 -169h-39l-7 169h-199v674z" />
    <glyph glyph-name="afii10017" unicode="&#x410;" horiz-adv-x="585" 
d="M429 236h-267l-83 -236h-49l244 674h46l243 -674h-49zM177 276h237l-82 225q-16 48 -35 119h-2q-11 -45 -35 -117z" />
    <glyph glyph-name="afii10018" unicode="&#x411;" horiz-adv-x="511" 
d="M81 674h336v-40h-288v-223q33 5 84 5q99 0 163 -39q92 -52 92 -166q0 -86 -51 -142q-70 -74 -217 -74q-23 0 -46 1t-44 2.5t-29 1.5v674zM129 372v-333q37 -5 82 -5q50 0 95 16t73 46q40 45 40 113q0 87 -67 131q-56 36 -144 36q-29 0 -79 -4z" />
    <glyph glyph-name="afii10019" unicode="&#x412;" horiz-adv-x="505" 
d="M81 0v664q63 15 136 15q121 0 176 -56q42 -41 42 -110q0 -51 -32.5 -91.5t-83.5 -58.5v-3q54 -12 98.5 -55t44.5 -117q0 -76 -50 -129q-64 -64 -214 -64q-23 0 -45.5 1t-42.5 2.5t-29 1.5zM129 632v-254h98q72 0 115.5 37.5t43.5 94.5q0 129 -172 129q-59 0 -85 -7z
M129 339v-299q25 -5 83 -5q87 0 143.5 36t56.5 116q0 75 -56 113.5t-142 38.5h-85z" />
    <glyph glyph-name="afii10020" unicode="&#x413;" horiz-adv-x="399" 
d="M81 674h328v-40h-280v-634h-48v674z" />
    <glyph glyph-name="afii10021" unicode="&#x414;" horiz-adv-x="594" 
d="M160 674h338v-634h54l-6 -197h-39l-4 157h-444l-4 -157h-39l-6 197h48q53 104 67 148q35 113 35 320v166zM205 634v-150q0 -196 -37 -308q-20 -64 -61 -136h343v594h-245z" />
    <glyph glyph-name="afii10022" unicode="&#x415;" horiz-adv-x="466" 
d="M398 375v-40h-269v-295h301v-40h-349v674h333v-40h-285v-259h269z" />
    <glyph glyph-name="afii10024" unicode="&#x416;" horiz-adv-x="756" 
d="M31 674h54l235 -312h35v312h46v-312h36l233 312h55l-245 -316q80 -8 121.5 -50.5t72.5 -127.5q3 -8 26 -77t39 -103h-49q-15 26 -35.5 90t-24.5 74q-32 87 -71 124t-125 37h-33v-325h-46v325h-35q-45 0 -77 -10t-54 -33t-35.5 -48.5t-30.5 -69.5l-24 -73t-34 -91h-49
q17 34 39.5 103.5t25.5 76.5q31 84 72.5 127t121.5 51z" />
    <glyph glyph-name="afii10025" unicode="&#x417;" horiz-adv-x="460" 
d="M72 600l-16 36q73 49 158 49q78 0 127 -41.5t49 -118.5q0 -60 -41 -107t-101 -61v-2q77 -7 123 -53t46 -121q0 -95 -63.5 -143.5t-160.5 -48.5q-92 0 -161 42l18 37q70 -40 144 -40q83 0 128 42.5t45 109.5q0 42 -18 73t-49 48t-66 25t-75 8h-25v38h25q75 0 128.5 44
t53.5 104q0 61 -36.5 93.5t-97.5 32.5q-69 0 -135 -46z" />
    <glyph glyph-name="afii10026" unicode="&#x418;" horiz-adv-x="638" 
d="M82 674h46v-335q0 -170 -8 -274l2 -1q39 76 128 211l262 399h44v-674h-46v341q0 168 6 268l-2 1q-27 -55 -132 -218l-257 -392h-43v674z" />
    <glyph glyph-name="afii10027" unicode="&#x419;" horiz-adv-x="638" 
d="M82 674h46v-335q0 -170 -8 -274l2 -1q39 76 128 211l262 399h44v-674h-46v341q0 168 6 268l-2 1q-27 -55 -132 -218l-257 -392h-43v674zM204 807h45q3 -13 6 -21t10.5 -19t21 -16.5t33.5 -5.5q26 0 42 10.5t21 22.5t7 29h45q-7 -98 -117 -98q-56 0 -84 27t-30 71z" />
    <glyph glyph-name="afii10028" unicode="&#x41a;" horiz-adv-x="503" 
d="M81 674h48v-311h35l258 311h55l-267 -315q88 -8 132.5 -52.5t78.5 -128.5l22 -58.5l26.5 -68.5t23.5 -51h-51q-13 24 -67 166q-30 81 -77.5 120t-141.5 39h-27v-325h-48v674z" />
    <glyph glyph-name="afii10029" unicode="&#x41b;" horiz-adv-x="564" 
d="M122 674h360v-674h-48v634h-265v-231q0 -72 -1.5 -109t-8.5 -100t-26.5 -104t-50.5 -65q-42 -31 -85 -31l-6 38q36 6 67 35q29 27 44 91t17.5 113.5t2.5 125.5v277z" />
    <glyph glyph-name="afii10030" unicode="&#x41c;" horiz-adv-x="778" 
d="M670 0l-20 319q-14 236 -14 299h-2q-49 -144 -91 -252l-142 -366h-33l-133 358q-66 183 -87 260h-2q-4 -152 -15 -308l-21 -310h-47l49 674h55l145 -389q46 -122 74 -218h3q18 65 75 218l151 389h57l45 -674h-47z" />
    <glyph glyph-name="afii10031" unicode="&#x41d;" horiz-adv-x="630" 
d="M81 674h48v-297h372v297h48v-674h-48v337h-372v-337h-48v674z" />
    <glyph glyph-name="afii10032" unicode="&#x41e;" horiz-adv-x="671" 
d="M333 -11h-1q-127 0 -211 93.5t-84 247.5q0 162 86.5 258.5t216.5 96.5q129 0 211.5 -93.5t82.5 -247.5q0 -169 -88 -262t-213 -93zM334 29h1q115 0 182 90.5t67 221.5q0 55 -15.5 107.5t-44.5 97.5t-77.5 72t-109.5 27q-82 0 -140 -46.5t-84 -115.5t-26 -151
q0 -122 67 -212.5t180 -90.5z" />
    <glyph glyph-name="afii10033" unicode="&#x41f;" horiz-adv-x="616" 
d="M81 674h453v-674h-48v634h-357v-634h-48v674z" />
    <glyph glyph-name="afii10034" unicode="&#x420;" horiz-adv-x="502" 
d="M81 0v666q72 13 145 13q119 0 178 -57q52 -49 52 -132t-47 -135q-66 -75 -198 -75q-55 0 -82 8v-288h-48zM129 631v-301q29 -10 86 -10q92 0 142.5 42.5t50.5 122.5q0 77 -50 115.5t-134 38.5q-59 0 -95 -8z" />
    <glyph glyph-name="afii10035" unicode="&#x421;" horiz-adv-x="570" 
d="M524 62l14 -38q-68 -34 -182 -34q-63 0 -119 20.5t-101.5 61t-72 108t-26.5 153.5q0 153 92.5 252t249.5 99q98 0 156 -29l-15 -40q-58 29 -140 29q-137 0 -215 -83.5t-78 -228.5q0 -139 75.5 -220t209.5 -81q88 0 152 31z" />
    <glyph glyph-name="afii10036" unicode="&#x422;" horiz-adv-x="465" 
d="M209 0v634h-220v40h488v-40h-220v-634h-48z" />
    <glyph glyph-name="afii10037" unicode="&#x423;" horiz-adv-x="480" 
d="M3 674h53l156 -318l50 -112h2l44 115l126 315h50l-151 -358q-80 -190 -122 -248q-62 -78 -135 -78q-22 0 -34 2l7 40q8 -2 21 -2q90 1 158 148q9 21 -3 47z" />
    <glyph glyph-name="afii10038" unicode="&#x424;" horiz-adv-x="686" 
d="M320 701h48v-62q55 -1 103.5 -19t89 -53t64 -94.5t23.5 -136.5q0 -78 -24 -136.5t-65 -92t-89 -51t-104 -19.5v-64h-48v64q-55 3 -102 19.5t-88.5 49.5t-65.5 91t-24 136q0 81 25 141.5t67.5 94.5t90 51t99.5 19v62zM319 73v530q-42 -2 -80.5 -16.5t-73.5 -44t-56 -83
t-21 -123.5q0 -125 65 -189.5t166 -73.5zM367 603v-530q99 6 165 71.5t66 192.5q0 134 -66 198.5t-165 67.5z" />
    <glyph glyph-name="afii10039" unicode="&#x425;" horiz-adv-x="546" 
d="M515 0h-55l-102 166q-56 84 -89 140h-2q-42 -74 -85 -141l-97 -165h-55l214 341l-205 333h54l109 -180q43 -68 69 -116h2q12 23 71 116l113 180h56l-215 -328z" />
    <glyph glyph-name="afii10040" unicode="&#x426;" horiz-adv-x="626" 
d="M81 674h48v-634h354v634h48v-634h53l-5 -197h-40l-4 157h-454v674z" />
    <glyph glyph-name="afii10041" unicode="&#x427;" horiz-adv-x="570" 
d="M77 674h48v-227q0 -78 40.5 -120.5t120.5 -42.5q85 0 155 47v343h48v-676h-48v292h-2q-71 -46 -168 -46q-25 0 -47.5 3.5t-50.5 15.5t-48 32.5t-34 58t-14 88.5v232z" />
    <glyph glyph-name="afii10042" unicode="&#x428;" horiz-adv-x="807" 
d="M81 674h48v-634h250v634h48v-634h251v634h48v-674h-645v674z" />
    <glyph glyph-name="afii10043" unicode="&#x429;" horiz-adv-x="821" 
d="M81 674h48v-634h250v634h48v-634h251v634h48v-634h53l-5 -197h-40l-4 157h-649v674z" />
    <glyph glyph-name="afii10044" unicode="&#x42a;" horiz-adv-x="585" 
d="M-11 674h223v-263q33 5 80 5q107 0 179 -50.5t72 -154.5q0 -86 -51 -142q-70 -74 -213 -74q-29 0 -72 3l-43 2v634h-175v40zM212 372v-333q37 -5 78 -5q90 0 147 44.5t57 130.5t-58.5 126.5t-144.5 40.5q-29 0 -79 -4z" />
    <glyph glyph-name="afii10045" unicode="&#x42b;" horiz-adv-x="681" 
d="M81 674h48v-263q33 5 84 5q113 0 184 -50t71 -155q0 -85 -51 -141q-69 -75 -217 -75q-23 0 -46 1t-44 2.5t-29 1.5v674zM129 372v-333q37 -5 81 -5q91 0 150 44.5t59 130.5t-60 126.5t-151 40.5q-47 0 -79 -4zM552 674h48v-675h-48v675z" />
    <glyph glyph-name="afii10046" unicode="&#x42c;" horiz-adv-x="510" 
d="M81 674h48v-263q33 5 84 5q70 0 125.5 -19.5t92.5 -67t37 -118.5q0 -85 -51 -141q-69 -75 -217 -75q-23 0 -46 1t-44 2.5t-29 1.5v674zM129 372v-333q37 -5 81 -5q90 0 149.5 44t59.5 131q0 86 -60 126.5t-151 40.5q-31 0 -79 -4z" />
    <glyph glyph-name="afii10047" unicode="&#x42d;" horiz-adv-x="556" 
d="M138 327v40h330q-9 122 -77.5 199.5t-181.5 77.5q-67 0 -149 -37l-16 39q88 38 166 38q144 0 226.5 -96.5t82.5 -250.5q0 -158 -89.5 -252.5t-220.5 -94.5q-95 0 -177 35l14 41q74 -36 152 -36q123 0 196 84.5t75 212.5h-331z" />
    <glyph glyph-name="afii10048" unicode="&#x42e;" horiz-adv-x="834" 
d="M81 674h48v-307h112q9 150 84.5 234t196.5 84q125 0 199.5 -92.5t74.5 -248.5q0 -171 -81 -263t-200 -92q-122 0 -198 90.5t-77 247.5h-111v-327h-48v674zM516 29h1q107 0 168 90t61 222q0 75 -23 142t-76 114.5t-128 47.5q-76 0 -130 -46.5t-77.5 -115.5t-23.5 -151
q0 -78 25.5 -146t79 -112.5t123.5 -44.5z" />
    <glyph glyph-name="afii10049" unicode="&#x42f;" horiz-adv-x="508" 
d="M70 0h-52q14 25 24 52q7 18 25.5 77.5t36.5 97t44 64.5q26 26 58 34v2q-68 11 -111 56.5t-43 110.5q0 86 57 133q60 52 176 52q77 0 142 -14v-665h-48v309h-82q-76 0 -111 -38q-22 -23 -39 -60.5t-34 -93.5t-23 -72q-18 -42 -20 -45zM379 349v282q-38 9 -96 9
q-81 0 -132 -33.5t-51 -109.5q0 -68 53.5 -108t139.5 -41q67 0 86 1z" />
    <glyph glyph-name="afii10065" unicode="&#x430;" horiz-adv-x="454" 
d="M380 302v-188q0 -71 7 -114h-44l-7 69h-2q-21 -32 -61 -56t-93 -24q-68 0 -104.5 39.5t-36.5 92.5q0 85 74.5 131t218.5 45v13q0 142 -123 141q-71 0 -121 -36l-15 35q62 41 141 41q166 0 166 -189zM332 154v103q-243 7 -243 -128q0 -49 27.5 -74.5t68.5 -25.5
q56 0 92 28t50 68q5 13 5 29z" />
    <glyph glyph-name="afii10066" unicode="&#x431;" horiz-adv-x="497" 
d="M412 721l-1 -44q-32 -13 -92 -25q-131 -24 -183 -107q-43 -68 -53 -184h2q23 58 70.5 88.5t101.5 30.5q88 0 143.5 -60.5t55.5 -175.5q0 -121 -51.5 -188t-154.5 -67q-60 0 -103 29.5t-64.5 79.5t-31 102.5t-9.5 112.5q0 155 57 250q32 56 81.5 84.5t128.5 44.5
q72 17 103 29zM408 237v1q0 35 -8 68t-24.5 64.5t-49 50.5t-75.5 19q-91 0 -132 -82q-23 -46 -23 -106q0 -49 15.5 -98t53 -87.5t88.5 -38.5q79 0 117 61.5t38 147.5z" />
    <glyph glyph-name="afii10067" unicode="&#x432;" horiz-adv-x="469" 
d="M77 0v475q57 10 128 10q199 0 199 -119q0 -42 -28.5 -71.5t-73.5 -39.5v-2q55 -7 89.5 -38t34.5 -83q0 -42 -22.5 -71t-61 -42.5t-74 -18.5t-76.5 -5q-55 0 -115 5zM122 439v-169h81q60 0 106 21.5t46 68.5q0 84 -155 84q-23 0 -78 -5zM121 231v-192q40 -4 82 -4
q29 0 55 3.5t55 13t46.5 30t17.5 50.5q0 58 -48.5 78.5t-130.5 20.5h-77z" />
    <glyph glyph-name="afii10068" unicode="&#x433;" horiz-adv-x="365" 
d="M77 480h271v-40h-223v-440h-48v480z" />
    <glyph glyph-name="afii10069" unicode="&#x434;" horiz-adv-x="494" 
d="M125 480h282v-440h47l-4 -190h-40l-3 150h-353l-3 -150h-40l-4 190h38q31 47 49 97q31 93 31 214v129zM169 440v-93q0 -118 -29 -213q-13 -40 -42 -94h261v400h-190z" />
    <glyph glyph-name="afii10070" unicode="&#x435;" horiz-adv-x="485" 
d="M442 245h-354q0 -108 51.5 -161t131.5 -53q77 0 133 27l12 -37q-56 -31 -151 -31q-102 0 -163 67t-61 174q0 118 60.5 189t155.5 71q45 0 79.5 -16t54.5 -40t32.5 -55t16.5 -56.5t4 -49.5q0 -20 -2 -29zM91 283h303q0 28 -6 55t-21 53.5t-45 43t-71 16.5q-72 0 -112 -51
t-48 -117z" />
    <glyph glyph-name="afii10072" unicode="&#x436;" horiz-adv-x="625" 
d="M21 480h58l192 -219h18v219h46v-219h18l191 219h59l-204 -224q63 -5 101 -35t63 -96q4 -10 14.5 -40.5t18.5 -50t17 -34.5h-48q-15 26 -46 111q-25 67 -64.5 91t-102.5 24h-17v-226h-46v226h-17q-66 0 -104.5 -24.5t-64.5 -92.5q-36 -89 -47 -109h-46q9 16 17 35t19.5 51
t13.5 38q26 66 64 97t101 35z" />
    <glyph glyph-name="afii10073" unicode="&#x437;" horiz-adv-x="397" 
d="M115 232l1 39h23q61 0 102 28t41 69q0 38 -29 61t-72 23q-59 0 -112 -35l-17 34q62 40 136 40q57 0 101 -31.5t44 -92.5q0 -41 -33.5 -72t-78.5 -40v-1q60 -5 97.5 -39t37.5 -86q0 -68 -53 -104t-135 -36q-74 0 -137 34l18 38q59 -33 120 -33q59 0 96.5 28.5t37.5 73.5
q0 102 -162 102h-26z" />
    <glyph glyph-name="afii10074" unicode="&#x438;" horiz-adv-x="528" 
d="M77 480h47v-237q0 -119 -4 -190l2 -1q53 93 92 153l185 275h52v-480h-47v240q0 110 5 189h-2q-49 -86 -99 -162l-180 -267h-51v480z" />
    <glyph glyph-name="afii10075" unicode="&#x439;" horiz-adv-x="528" 
d="M77 480h47v-237q0 -119 -4 -190l2 -1q53 93 92 153l185 275h52v-480h-47v240q0 110 5 189h-2q-49 -86 -99 -162l-180 -267h-51v480zM143 674h44q3 -35 22 -57.5t53 -21.5q36 0 55.5 22t23.5 57h44q-3 -55 -36.5 -84.5t-87.5 -29.5q-110 0 -118 114z" />
    <glyph glyph-name="afii10076" unicode="&#x43a;" horiz-adv-x="448" 
d="M81 480h48v-219h23l218 219h63l-230 -223q67 -6 111 -43t77 -112q32 -76 47 -102h-50q-18 29 -46 93q-30 71 -74.5 101.5t-120.5 30.5h-18v-225h-48v480z" />
    <glyph glyph-name="afii10077" unicode="&#x43b;" horiz-adv-x="483" 
d="M108 480h298v-480h-48v440h-202v-144q0 -121 -17 -187.5t-65 -93.5q-33 -19 -67 -19l-4 39q23 3 44 16q38 24 49.5 79.5t11.5 161.5v188z" />
    <glyph glyph-name="afii10078" unicode="&#x43c;" horiz-adv-x="590" 
d="M41 0l38 480h55l109 -279q44 -117 51 -139h1q25 72 69 185l93 233h57l36 -480h-48l-14 253q-1 27 -4.5 85l-5.5 89h-3q-11 -39 -58 -155l-109 -272h-35l-103 268q-30 77 -54 159h-4q0 -25 -8 -176l-15 -251h-48z" />
    <glyph glyph-name="afii10079" unicode="&#x43d;" horiz-adv-x="525" 
d="M77 480h48v-206h276v206h48v-480h-48v234h-276v-234h-48v480z" />
    <glyph glyph-name="afii10080" unicode="&#x43e;" horiz-adv-x="532" 
d="M262 -11h-1q-95 0 -157.5 68t-62.5 179q0 118 66.5 186.5t160.5 68.5q100 0 161.5 -68.5t61.5 -178.5q0 -64 -20.5 -114.5t-54.5 -80t-73.5 -45t-80.5 -15.5zM263 29h1q76 0 127.5 60.5t51.5 152.5q0 35 -10 70t-30 67t-55.5 52t-80.5 20q-86 0 -132 -63t-46 -149
q0 -90 50 -150t124 -60z" />
    <glyph glyph-name="afii10081" unicode="&#x43f;" horiz-adv-x="521" 
d="M77 480h367v-480h-48v440h-271v-440h-48v480z" />
    <glyph glyph-name="afii10082" unicode="&#x440;" horiz-adv-x="552" 
d="M80 -198v525q0 92 -4 153h46l3 -91h2q57 102 178 102q92 0 149 -68.5t57 -174.5q0 -123 -63 -191t-155 -68q-112 0 -163 89h-2v-276h-48zM128 283v-94q0 -22 4 -38q15 -55 58.5 -88.5t99.5 -33.5q81 0 127 59.5t46 157.5q0 85 -45.5 145t-123.5 60q-54 0 -99 -34.5
t-60 -92.5q-7 -30 -7 -41z" />
    <glyph glyph-name="afii10083" unicode="&#x441;" horiz-adv-x="446" 
d="M399 59l13 -38q-65 -31 -141 -31q-103 0 -166.5 68t-63.5 177q0 114 69.5 185t177.5 71q84 0 126 -30l-17 -39q-46 28 -113 28q-93 0 -144 -60.5t-51 -150.5q0 -94 53 -151t137 -57q59 0 120 28z" />
    <glyph glyph-name="afii10084" unicode="&#x442;" horiz-adv-x="380" 
d="M10 480h360v-40h-156v-440h-48v440h-156v40z" />
    <glyph glyph-name="afii10085" unicode="&#x443;" horiz-adv-x="440" 
d="M11 480h51l126 -314q19 -50 35 -103h2l37 106l117 311h51l-144 -358q-48 -123 -83 -188.5t-79 -104.5q-41 -34 -84 -50l-15 40q45 17 84 53q50 50 80 121q6 15 6 21t-6 21z" />
    <glyph glyph-name="afii10086" unicode="&#x444;" horiz-adv-x="593" 
d="M275 711h44v-220q107 -6 170 -72t63 -175q0 -116 -64 -181.5t-169 -72.5v-188h-44v188q-107 6 -170.5 72t-63.5 175q0 116 64 181t170 72v221zM275 27v427q-83 -7 -134.5 -67.5t-51.5 -147.5q0 -85 52 -145t134 -67zM319 454v-427q82 7 133.5 68.5t51.5 146.5
q0 87 -51 146t-134 66z" />
    <glyph glyph-name="afii10087" unicode="&#x445;" horiz-adv-x="429" 
d="M21 480h54l82 -117q24 -32 55 -82h2q13 21 56 82l82 117h53l-167 -234l173 -246h-55l-85 121l-20 29l-21.5 33t-18.5 28h-2q-14 -23 -60 -90l-84 -121h-54l176 245z" />
    <glyph glyph-name="afii10088" unicode="&#x446;" horiz-adv-x="526" 
d="M77 480h48v-440h266v440h48v-440h47l-4 -190h-40l-3 150h-362v480z" />
    <glyph glyph-name="afii10089" unicode="&#x447;" horiz-adv-x="488" 
d="M71 480h48v-169q0 -115 117 -115q71 0 127 41v243h48v-486h-48v203h-1q-61 -40 -136 -40q-69 0 -112 35.5t-43 110.5v177z" />
    <glyph glyph-name="afii10090" unicode="&#x448;" horiz-adv-x="692" 
d="M77 480h48v-440h197v440h48v-440h197v440h48v-480h-538v480z" />
    <glyph glyph-name="afii10091" unicode="&#x449;" horiz-adv-x="702" 
d="M77 480h48v-440h197v440h48v-440h197v440h48v-440h47l-4 -190h-40l-3 150h-538v480z" />
    <glyph glyph-name="afii10092" unicode="&#x44a;" horiz-adv-x="535" 
d="M11 480h194v-174q30 5 85 5q38 0 72 -8t65.5 -25t50 -49t18.5 -76q0 -64 -40 -102q-57 -56 -190 -56q-26 0 -66 2.5t-44 2.5v440h-145v40zM204 266v-228q33 -5 74 -5q74 0 122 28t48 91q0 65 -49.5 92.5t-122.5 27.5q-36 0 -72 -6z" />
    <glyph glyph-name="afii10093" unicode="&#x44b;" horiz-adv-x="597" 
d="M77 480h49v-175q32 6 77 6q86 0 144.5 -38.5t58.5 -119.5q0 -61 -40 -101q-60 -57 -179 -57q-26 0 -66 2.5t-44 2.5v480zM125 266v-228q33 -5 70 -5q67 0 115 29.5t48 89.5q0 63 -46 91.5t-114 28.5q-42 0 -73 -6zM471 480h47v-480h-47v480z" />
    <glyph glyph-name="afii10094" unicode="&#x44c;" horiz-adv-x="463" 
d="M77 480h49v-174q25 5 81 5q43 0 79 -7.5t68.5 -24.5t51 -49.5t18.5 -78.5q0 -59 -40 -99q-60 -57 -197 -57q-26 0 -66 2.5t-44 2.5v480zM125 266v-229q40 -4 74 -4q43 0 80.5 9.5t67 37.5t29.5 72q0 46 -30.5 74.5t-67.5 37t-81 8.5q-36 0 -72 -6z" />
    <glyph glyph-name="afii10095" unicode="&#x44d;" horiz-adv-x="451" 
d="M100 227v39h261q-5 80 -52.5 132t-136.5 52q-61 0 -119 -30l-14 33q63 38 140 38q111 0 174 -74q57 -66 57 -181q0 -104 -64 -175t-178 -71q-76 0 -137 33l15 38q65 -30 125 -30q85 0 136.5 53.5t54.5 142.5h-262z" />
    <glyph glyph-name="afii10096" unicode="&#x44e;" horiz-adv-x="664" 
d="M77 480h46v-216h96q8 101 64.5 164t139.5 63q90 0 145 -67.5t55 -178.5q0 -112 -57.5 -184t-147.5 -72q-86 0 -141 64t-59 171h-95v-224h-46v480zM419 27h1q74 0 114.5 66.5t40.5 150.5q0 82 -40.5 144.5t-113.5 62.5q-71 0 -113 -63t-42 -152q0 -83 41 -146t112 -63z
" />
    <glyph glyph-name="afii10097" unicode="&#x44f;" horiz-adv-x="461" 
d="M384 475v-475h-48v215h-86q-55 0 -86 -23q-19 -14 -32 -37t-27.5 -64t-18.5 -51q-14 -30 -21 -40h-52q17 28 29 55q6 13 18.5 50.5t26.5 61.5t37 42t51 22v2q-55 6 -92.5 37.5t-37.5 82.5q0 61 52 96q51 36 151 36q68 0 136 -10zM336 254v188q-41 6 -86 6
q-39 0 -70.5 -6.5t-58 -29.5t-26.5 -61q0 -34 27 -57.5t59 -31.5t65 -8h90z" />
    <glyph glyph-name="afii10071" unicode="&#x451;" horiz-adv-x="485" 
d="M442 245h-354q0 -108 51.5 -161t131.5 -53q77 0 133 27l12 -37q-56 -31 -151 -31q-102 0 -163 67t-61 174q0 118 60.5 189t155.5 71q45 0 79.5 -16t54.5 -40t32.5 -55t16.5 -56.5t4 -49.5q0 -20 -2 -29zM91 283h303q0 28 -6 55t-21 53.5t-45 43t-71 16.5q-72 0 -112 -51
t-48 -117zM178 578h-2q-16 0 -26 11.5t-10 27.5q0 15 11.5 27t26.5 12q16 0 26.5 -11.5t10.5 -27.5t-10 -27.5t-27 -11.5zM347 578h-2q-16 0 -26 11.5t-10 27.5q0 15 11.5 27t26.5 12q16 0 26.5 -11.5t10.5 -27.5t-10 -27.5t-27 -11.5z" />
    <glyph glyph-name="afii10099" unicode="&#x452;" horiz-adv-x="539" 
d="M11 614h88v97h48v-97h235v-40h-235v-162h2q68 79 159 79q83 0 132 -72q57 -79 57 -220q0 -186 -83 -276q-52 -54 -130 -64l-9 37q68 14 106 57q67 79 67 244q0 123 -46 194q-37 61 -107 61q-71 0 -130 -74q-18 -22 -18 -63v-315h-48v574h-88v40z" />
    <glyph glyph-name="afii10100" unicode="&#x453;" horiz-adv-x="365" 
d="M77 480h271v-40h-223v-440h-48v480zM257 688h70l-122 -138h-37z" />
    <glyph glyph-name="afii10101" unicode="&#x454;" horiz-adv-x="452" 
d="M421 456l-17 -38q-62 32 -117 32q-89 0 -140 -52.5t-57 -131.5h270v-39h-271q3 -88 56 -142t136 -54q59 0 125 29l14 -37q-60 -33 -146 -33q-109 0 -171 71t-62 175q0 112 68.5 183.5t181.5 71.5q72 0 130 -35z" />
    <glyph glyph-name="afii10102" unicode="&#x455;" horiz-adv-x="373" 
d="M44 23l17 40q54 -33 108 -33q55 0 83.5 25.5t28.5 65.5q0 39 -23.5 63t-77.5 46q-122 46 -122 131q0 55 40.5 92.5t107.5 37.5q64 0 106 -30l-18 -39q-41 29 -96 29q-44 0 -68.5 -24t-24.5 -59t22.5 -55.5t76.5 -42.5q62 -25 93 -58t31 -85q0 -62 -44.5 -99.5
t-117.5 -37.5q-69 0 -122 33z" />
    <glyph glyph-name="afii10103" unicode="&#x456;" horiz-adv-x="209" 
d="M129 0h-48v480h48v-480zM104 576h-1q-16 0 -26.5 12t-10.5 29t11.5 29.5t27.5 12.5t27 -12.5t11 -29.5t-11 -29t-28 -12z" />
    <glyph glyph-name="afii10104" unicode="&#x457;" horiz-adv-x="209" 
d="M129 0h-48v480h48v-480zM21 578h-2q-16 0 -26 11.5t-10 27.5q0 15 11.5 27t26.5 12q16 0 26.5 -11.5t10.5 -27.5t-10 -27.5t-27 -11.5zM190 578h-2q-16 0 -26 11.5t-10 27.5q0 15 11.5 27t26.5 12q16 0 26.5 -11.5t10.5 -27.5t-10 -27.5t-27 -11.5z" />
    <glyph glyph-name="afii10105" unicode="&#x458;" horiz-adv-x="214" 
d="M-42 -209l-7 39q68 3 100 40q20 24 28 64t8 131v415h48v-447q0 -69 -11 -113.5t-40 -76.5q-46 -49 -126 -52zM110 576h-1q-16 0 -26.5 12.5t-10.5 28.5q0 17 11.5 29.5t28.5 12.5q16 0 26.5 -12.5t10.5 -29.5t-10.5 -29t-28.5 -12z" />
    <glyph glyph-name="afii10106" unicode="&#x459;" horiz-adv-x="744" 
d="M116 480h291v-174q25 5 81 5q93 0 155 -36t62 -122q0 -61 -40 -101q-58 -57 -197 -57q-26 0 -66 2.5t-44 2.5v440h-196v-144q0 -117 -19.5 -185t-69.5 -97q-31 -18 -66 -18l-3 39q25 4 45 16q39 25 53 82t14 159v188zM406 266v-228q33 -5 74 -5q43 0 80.5 9.5t67 37.5
t29.5 72q0 46 -29.5 74.5t-64.5 37t-78 8.5t-79 -6z" />
    <glyph glyph-name="afii10107" unicode="&#x45a;" horiz-adv-x="747" 
d="M77 480h48v-189h244v189h49v-180q33 5 85 5q50 0 93.5 -12.5t77.5 -48.5t34 -91q0 -63 -41 -104q-58 -54 -188 -54q-26 0 -66 2.5t-44 2.5v251h-244v-251h-48v480zM417 261v-224q40 -4 75 -4q67 0 117.5 27t50.5 89q0 45 -27.5 72.5t-62 36.5t-78.5 9q-39 0 -75 -6z" />
    <glyph glyph-name="afii10108" unicode="&#x45b;" horiz-adv-x="555" 
d="M11 614h88v97h48v-97h204v-40h-204v-176h2q24 40 61 64q44 29 101 29q75 0 121 -52.5t46 -149.5v-289h-48v284q0 72 -31.5 118.5t-100.5 46.5q-50 0 -89 -32t-55 -76q-7 -21 -7 -53v-288h-48v574h-88v40z" />
    <glyph glyph-name="afii10109" unicode="&#x45c;" horiz-adv-x="448" 
d="M81 480h48v-219h23l218 219h63l-230 -223q67 -6 111 -43t77 -112q32 -76 47 -102h-50q-18 29 -46 93q-30 71 -74.5 101.5t-120.5 30.5h-18v-225h-48v480zM280 688h70l-122 -138h-37z" />
    <glyph glyph-name="afii10110" unicode="&#x45e;" horiz-adv-x="440" 
d="M11 480h51l126 -314q19 -50 35 -103h2l37 106l117 311h51l-144 -358q-48 -123 -83 -188.5t-79 -104.5q-41 -34 -84 -50l-15 40q45 17 84 53q50 50 80 121q6 15 6 21t-6 21zM99 674h44q3 -35 22 -57.5t53 -21.5q36 0 55.5 22t23.5 57h44q-3 -55 -36.5 -84.5t-87.5 -29.5
q-110 0 -118 114z" />
    <glyph glyph-name="afii10193" unicode="&#x45f;" horiz-adv-x="515" 
d="M77 480h48v-440h266v440h48v-480h-157l-5 -151h-37l-6 151h-157v480z" />
    <glyph glyph-name="afii10050" unicode="&#x490;" horiz-adv-x="419" 
d="M81 674h291l16 118h37l-11 -158h-285v-634h-48v674z" />
    <glyph glyph-name="afii10098" unicode="&#x491;" horiz-adv-x="368" 
d="M77 480h227l10 103h36l-4 -143h-221v-440h-48v480z" />
    <glyph glyph-name="afii10846" unicode="&#x4d9;" horiz-adv-x="485" 
d="M79 423l-12 37q56 31 151 31q103 0 164 -67t61 -174q0 -118 -61 -189t-156 -71q-45 0 -79.5 16t-54.5 40t-32.5 55t-16.5 56.5t-4 49.5q0 21 2 29h355q0 108 -51.5 161t-131.5 53q-78 0 -134 -27zM393 198h-304q0 -28 6 -55t21 -53.5t45.5 -43t71.5 -16.5q72 0 112 51
t48 117z" />
    <glyph glyph-name="Wgrave" unicode="&#x1e80;" horiz-adv-x="820" 
d="M238 0h-45l-178 674h49l98 -380q45 -179 56 -231h2q12 67 62 231l110 380h46l100 -377q44 -163 55 -234h2q10 51 61 232l111 379h49l-202 -674h-46l-101 388q-41 150 -52 228h-2q-13 -74 -60 -227zM273 823h73l98 -113h-40z" />
    <glyph glyph-name="wgrave" unicode="&#x1e81;" horiz-adv-x="722" 
d="M23 480h49l81 -273q31 -110 41 -150h2q14 53 48 150l96 273h45l92 -270q29 -86 47 -153h2q12 52 44 151l85 272h49l-160 -480h-41l-91 268q-36 103 -50 163h-2q-16 -65 -52 -165l-95 -266h-42zM242 688h70l89 -138h-37z" />
    <glyph glyph-name="Wacute" unicode="&#x1e82;" horiz-adv-x="820" 
d="M238 0h-45l-178 674h49l98 -380q45 -179 56 -231h2q12 67 62 231l110 380h46l100 -377q44 -163 55 -234h2q10 51 61 232l111 379h49l-202 -674h-46l-101 388q-41 150 -52 228h-2q-13 -74 -60 -227zM482 823h73l-131 -113h-40z" />
    <glyph glyph-name="wacute" unicode="&#x1e83;" horiz-adv-x="722" 
d="M23 480h49l81 -273q31 -110 41 -150h2q14 53 48 150l96 273h45l92 -270q29 -86 47 -153h2q12 52 44 151l85 272h49l-160 -480h-41l-91 268q-36 103 -50 163h-2q-16 -65 -52 -165l-95 -266h-42zM420 688h70l-122 -138h-37z" />
    <glyph glyph-name="Wdieresis" unicode="&#x1e84;" horiz-adv-x="820" 
d="M238 0h-45l-178 674h49l98 -380q45 -179 56 -231h2q12 67 62 231l110 380h46l100 -377q44 -163 55 -234h2q10 51 61 232l111 379h49l-202 -674h-46l-101 388q-41 150 -52 228h-2q-13 -74 -60 -227zM324 726h-1q-16 0 -26 11.5t-10 28.5q0 16 11 28t26 12q16 0 26.5 -11.5
t10.5 -28.5t-10 -28.5t-27 -11.5zM496 726h-1q-16 0 -26 11.5t-10 28.5q0 16 11 28t26 12q16 0 26.5 -11.5t10.5 -28.5t-10 -28.5t-27 -11.5z" />
    <glyph glyph-name="wdieresis" unicode="&#x1e85;" horiz-adv-x="722" 
d="M23 480h49l81 -273q31 -110 41 -150h2q14 53 48 150l96 273h45l92 -270q29 -86 47 -153h2q12 52 44 151l85 272h49l-160 -480h-41l-91 268q-36 103 -50 163h-2q-16 -65 -52 -165l-95 -266h-42zM277 578h-2q-16 0 -26 11.5t-10 27.5q0 15 11.5 27t26.5 12q16 0 26.5 -11.5
t10.5 -27.5t-10 -27.5t-27 -11.5zM446 578h-2q-16 0 -26 11.5t-10 27.5q0 15 11.5 27t26.5 12q16 0 26.5 -11.5t10.5 -27.5t-10 -27.5t-27 -11.5z" />
    <glyph glyph-name="Ygrave" unicode="&#x1ef2;" horiz-adv-x="503" 
d="M277 0h-48v292l-214 382h53l111 -201q52 -95 77 -145h2q12 28 78 146l115 200h53l-227 -383v-291zM127 813h73l98 -113h-40z" />
    <glyph glyph-name="ygrave" unicode="&#x1ef3;" horiz-adv-x="440" 
d="M11 480h51l126 -314q19 -50 35 -103h2l37 106l117 311h51l-144 -358q-48 -123 -83 -188.5t-79 -104.5q-41 -34 -84 -50l-15 40q45 17 84 53q50 50 80 121q6 15 6 21t-6 21zM103 688h70l89 -138h-37z" />
    <glyph glyph-name="endash" unicode="&#x2013;" horiz-adv-x="500" 
d="M30 274h440v-39h-440v39z" />
    <glyph glyph-name="emdash" unicode="&#x2014;" horiz-adv-x="1000" 
d="M30 274h940v-39h-940v39z" />
    <glyph glyph-name="quoteleft" unicode="&#x2018;" horiz-adv-x="174" 
d="M99 480l-59 -10q13 53 38.5 123.5t38.5 93.5l34 5q-12 -32 -28.5 -99t-23.5 -113z" />
    <glyph glyph-name="quoteright" unicode="&#x2019;" horiz-adv-x="174" 
d="M92 682l59 10q-13 -53 -38.5 -123.5t-38.5 -93.5l-34 -5q12 32 28.5 99t23.5 113z" />
    <glyph glyph-name="quotesinglbase" unicode="&#x201a;" horiz-adv-x="174" 
d="M57 -121l-34 -5q12 32 28.5 99t23.5 113l59 10q-13 -53 -38.5 -123.5t-38.5 -93.5z" />
    <glyph glyph-name="quotedblleft" unicode="&#x201c;" horiz-adv-x="293" 
d="M99 480l-59 -10q13 53 38.5 123.5t38.5 93.5l34 5q-12 -32 -28.5 -99t-23.5 -113zM218 480l-59 -10q13 53 38.5 123.5t38.5 93.5l34 5q-12 -32 -28.5 -99t-23.5 -113z" />
    <glyph glyph-name="quotedblright" unicode="&#x201d;" horiz-adv-x="293" 
d="M92 682l59 10q-13 -53 -38.5 -123.5t-38.5 -93.5l-34 -5q12 32 28.5 99t23.5 113zM211 682l59 10q-13 -53 -38.5 -123.5t-38.5 -93.5l-34 -5q12 32 28.5 99t23.5 113z" />
    <glyph glyph-name="quotedblbase" unicode="&#x201e;" horiz-adv-x="293" 
d="M57 -121l-34 -5q12 32 28.5 99t23.5 113l59 10q-13 -53 -38.5 -123.5t-38.5 -93.5zM176 -121l-34 -5q12 32 28.5 99t23.5 113l59 10q-13 -53 -38.5 -123.5t-38.5 -93.5z" />
    <glyph glyph-name="dagger" unicode="&#x2020;" horiz-adv-x="486" 
d="M219 674h47l-4 -217l175 4v-43l-175 4l4 -471h-47l4 471l-175 -4v43l175 -4z" />
    <glyph glyph-name="daggerdbl" unicode="&#x2021;" horiz-adv-x="486" 
d="M219 674h47l-4 -210l174 4v-43l-174 4v-231l174 4v-43l-174 4l5 -213h-47l3 213l-174 -4v43l174 -4v231l-174 -4v43l174 -4z" />
    <glyph glyph-name="bullet" unicode="&#x2022;" horiz-adv-x="247" 
d="M124 173h-1q-36 0 -62 26t-26 63q-1 37 25.5 63t63.5 26t63.5 -26t26.5 -63t-26.5 -63t-63.5 -26z" />
    <glyph glyph-name="ellipsis" unicode="&#x2026;" horiz-adv-x="1000" 
d="M167 -11h-1q-17 0 -28.5 13.5t-10.5 31.5q0 20 11.5 32.5t29.5 12.5t29 -12.5t11 -32.5q0 -19 -11.5 -32t-29.5 -13zM500 -11h-1q-17 0 -28.5 13.5t-10.5 31.5q0 20 11.5 32.5t29.5 12.5t29 -12.5t11 -32.5q0 -19 -11.5 -32t-29.5 -13zM833 -11h-1q-17 0 -28.5 13.5
t-10.5 31.5q0 20 11.5 32.5t29.5 12.5t29 -12.5t11 -32.5q0 -19 -11.5 -32t-29.5 -13z" />
    <glyph glyph-name="perthousand" unicode="&#x2030;" horiz-adv-x="1078" 
d="M174 661h1q60 0 97 -49.5t37 -144.5q0 -99 -39.5 -151.5t-100.5 -52.5q-57 0 -96.5 49.5t-40.5 145.5q0 99 42 151t100 52zM171 627h-1q-44 0 -69.5 -47t-25.5 -118q-2 -71 24 -118t71 -47q48 0 72 46t24 121q0 72 -23 117.5t-72 45.5zM193 -13h-40l388 676h40zM570 392
h1q60 0 97 -49.5t37 -144.5q0 -99 -39.5 -151.5t-100.5 -52.5q-57 0 -96.5 49.5t-40.5 145.5q0 99 42 151t100 52zM567 358h-1q-44 0 -69.5 -47t-25.5 -118q-2 -71 24 -118t71 -47q48 0 72 46t24 121q0 72 -23 117.5t-72 45.5zM910 392h1q61 0 98 -49.5t37 -144.5
q0 -99 -40 -151.5t-101 -52.5q-57 0 -96.5 49.5t-40.5 145.5q0 99 42 151t100 52zM907 358h-1q-44 0 -69.5 -47t-25.5 -118q-2 -71 24 -118t71 -47q49 0 73 46.5t24 120.5q0 72 -23.5 117.5t-72.5 45.5z" />
    <glyph glyph-name="guilsinglleft" unicode="&#x2039;" horiz-adv-x="246" 
d="M222 432l-142 -180l143 -180h-50l-143 180l143 180h49z" />
    <glyph glyph-name="guilsinglright" unicode="&#x203a;" horiz-adv-x="246" 
d="M166 252l-143 180h50l143 -180l-143 -180h-49z" />
    <glyph glyph-name="fraction" unicode="&#x2044;" horiz-adv-x="414" 
d="M34 -11h-40l386 672h40z" />
    <glyph glyph-name="fraction" unicode="&#x2215;" horiz-adv-x="414" 
d="M34 -11h-40l386 672h40z" />
    <glyph glyph-name="zerosuperior" unicode="&#x2070;" horiz-adv-x="310" 
d="M152 438h-1q-56 0 -91.5 51.5t-35.5 146.5q0 97 38 149.5t97 52.5t93 -50.5t34 -144.5q0 -99 -35 -152t-99 -53zM154 472h1q43 0 65 45t22 124q0 163 -87 163q-39 0 -63 -44.5t-24 -118.5q0 -79 23 -124t63 -45z" />
    <glyph glyph-name="foursuperior" unicode="&#x2074;" horiz-adv-x="319" 
d="M243 443h-42v110h-187v27l185 251h44v-244h58v-34h-58v-110zM201 587v141q0 8 3 56l-2 1q-17 -32 -33 -54l-107 -143v-1h139z" />
    <glyph glyph-name="fivesuperior" unicode="&#x2075;" horiz-adv-x="284" 
d="M248 830v-37h-151l-16 -107q18 2 34 2q47 0 80 -18q59 -29 59 -102q0 -58 -40 -95t-101 -37q-58 0 -96 25l12 33q35 -22 85 -22q41 0 68.5 25t27.5 65q0 42 -28 67t-85 25q-1 0 -57 -4l25 180h183z" />
    <glyph glyph-name="sixsuperior" unicode="&#x2076;" horiz-adv-x="313" 
d="M250 838l1 -37q-27 0 -43 -3q-60 -10 -96.5 -51.5t-42.5 -96.5h1q35 50 99 50q54 0 87 -35t33 -91q0 -55 -35 -95.5t-94 -40.5q-60 0 -98 44t-38 121q0 110 66 174q46 46 121 57q30 4 39 4zM161 472h1q37 0 60 28t23 72t-24.5 69t-63.5 25q-26 0 -49 -14.5t-35 -37.5
q-6 -12 -6 -23q0 -52 25 -85.5t69 -33.5z" />
    <glyph glyph-name="sevensuperior" unicode="&#x2077;" horiz-adv-x="271" 
d="M17 830h243v-29l-176 -358h-44l174 350v1h-197v36z" />
    <glyph glyph-name="eightsuperior" unicode="&#x2078;" horiz-adv-x="308" 
d="M158 838h1q52 0 81 -27.5t29 -66.5q0 -62 -67 -91v-2q82 -32 82 -101q0 -50 -38 -81t-93 -31q-57 0 -93 30t-36 75q0 71 80 104v3q-65 28 -65 86q0 45 34 73.5t85 28.5zM153 471h1q39 0 62 21t23 53q0 36 -23 56t-70 33q-37 -10 -57.5 -32.5t-20.5 -52.5q0 -32 23 -55
t62 -23zM156 806h-1q-35 0 -54.5 -19t-19.5 -47q0 -55 80 -75q66 21 66 75q0 27 -17.5 46.5t-53.5 19.5z" />
    <glyph glyph-name="ninesuperior" unicode="&#x2079;" horiz-adv-x="307" 
d="M58 438v37q14 -1 44 2q51 6 85 42q40 37 52 109h-2q-35 -46 -97 -46q-53 0 -84.5 34t-31.5 84q0 56 37 97t96 41q57 0 91.5 -43.5t34.5 -120.5q0 -116 -68 -182q-45 -42 -106 -50q-35 -5 -51 -4zM151 804h-1q-36 0 -59.5 -29t-23.5 -73q0 -38 22.5 -62t59.5 -24
q58 0 86 45q4 5 4 18q0 56 -22 90.5t-66 34.5z" />
    <glyph glyph-name="parenleftsuperior" unicode="&#x207d;" horiz-adv-x="166" 
d="M121 868h36q-80 -102 -80 -245q0 -136 80 -242h-36q-82 105 -82 242q0 138 82 245z" />
    <glyph glyph-name="parenrightsuperior" unicode="&#x207e;" horiz-adv-x="166" 
d="M45 381h-36q80 106 80 244q0 137 -80 243h36q82 -107 82 -243q0 -135 -82 -244z" />
    <glyph glyph-name="zeroinferior" unicode="&#x2080;" horiz-adv-x="310" 
d="M152 -152h-1q-56 0 -91.5 51.5t-35.5 146.5q0 97 38 149.5t97 52.5t93 -50.5t34 -144.5q0 -99 -35 -152t-99 -53zM154 -118h1q43 0 65 45t22 124q0 163 -87 163q-39 0 -63 -44.5t-24 -118.5q0 -79 23 -124t63 -45z" />
    <glyph glyph-name="oneinferior" unicode="&#x2081;" horiz-adv-x="210" 
d="M142 -147h-41v350h-2l-67 -34l-9 33l82 41h37v-390z" />
    <glyph glyph-name="twoinferior" unicode="&#x2082;" horiz-adv-x="286" 
d="M11 -147v25l64 61q69 65 100 108.5t31 83.5q0 36 -21.5 59t-64.5 23q-40 0 -83 -33l-15 27q43 41 108 41q62 0 91 -33.5t29 -73.5q0 -54 -34.5 -101.5t-109.5 -115.5l-35 -33v-2h185v-36h-245z" />
    <glyph glyph-name="threeinferior" unicode="&#x2083;" horiz-adv-x="279" 
d="M44 186l-14 31q44 31 99 31q56 0 82.5 -26.5t26.5 -64.5q0 -64 -74 -92v-2q40 -6 65 -33.5t25 -65.5q0 -47 -37.5 -81.5t-105.5 -34.5q-64 0 -103 27l15 33q36 -26 90 -26q50 0 74.5 25t23.5 56q-1 42 -35 62.5t-82 20.5h-26v32h27q36 0 67.5 19.5t32.5 57.5
q0 24 -17.5 41.5t-52.5 17.5q-45 0 -81 -28z" />
    <glyph glyph-name="fourinferior" unicode="&#x2084;" horiz-adv-x="319" 
d="M243 -147h-42v110h-187v27l185 251h44v-244h58v-34h-58v-110zM201 -3v141q0 8 3 56l-2 1q-17 -32 -33 -54l-107 -143v-1h139z" />
    <glyph glyph-name="fiveinferior" unicode="&#x2085;" horiz-adv-x="284" 
d="M248 240v-37h-151l-16 -107q18 2 34 2q47 0 80 -18q59 -29 59 -102q0 -58 -40 -95t-101 -37q-58 0 -96 25l12 33q35 -22 85 -22q41 0 68.5 25t27.5 65q0 42 -28 67t-85 25q-1 0 -57 -4l25 180h183z" />
    <glyph glyph-name="sixinferior" unicode="&#x2086;" horiz-adv-x="313" 
d="M250 248l1 -37q-27 0 -43 -3q-60 -10 -96.5 -51.5t-42.5 -96.5h1q35 50 99 50q54 0 87 -35t33 -91q0 -55 -35 -95.5t-94 -40.5q-60 0 -98 44t-38 121q0 110 66 174q46 46 121 57q30 4 39 4zM161 -118h1q37 0 60 28t23 72t-24.5 69t-63.5 25q-26 0 -49 -14.5t-35 -37.5
q-6 -12 -6 -23q0 -52 25 -85.5t69 -33.5z" />
    <glyph glyph-name="seveninferior" unicode="&#x2087;" horiz-adv-x="271" 
d="M17 240h243v-29l-176 -358h-44l174 350v1h-197v36z" />
    <glyph glyph-name="eightinferior" unicode="&#x2088;" horiz-adv-x="308" 
d="M158 248h1q52 0 81 -27.5t29 -66.5q0 -62 -67 -91v-2q82 -32 82 -101q0 -50 -38 -81t-93 -31q-57 0 -93 30t-36 75q0 71 80 104v3q-65 28 -65 86q0 45 34 73.5t85 28.5zM153 -119h1q39 0 62 21t23 53q0 36 -23 56t-70 33q-37 -10 -57.5 -32.5t-20.5 -52.5q0 -32 23 -55
t62 -23zM156 216h-1q-35 0 -54.5 -19t-19.5 -47q0 -55 80 -75q66 21 66 75q0 27 -17.5 46.5t-53.5 19.5z" />
    <glyph glyph-name="nineinferior" unicode="&#x2089;" horiz-adv-x="307" 
d="M58 -152v37q14 -1 44 2q51 6 85 42q40 37 52 109h-2q-35 -46 -97 -46q-53 0 -84.5 34t-31.5 84q0 56 37 97t96 41q57 0 91.5 -43.5t34.5 -120.5q0 -116 -68 -182q-45 -42 -106 -50q-35 -5 -51 -4zM151 214h-1q-36 0 -59.5 -29t-23.5 -73q0 -38 22.5 -62t59.5 -24
q58 0 86 45q4 5 4 18q0 56 -22 90.5t-66 34.5z" />
    <glyph glyph-name="parenleftinferior" unicode="&#x208d;" horiz-adv-x="166" 
d="M121 278h36q-80 -102 -80 -245q0 -136 80 -242h-36q-82 105 -82 242q0 138 82 245z" />
    <glyph glyph-name="parenrightinferior" unicode="&#x208e;" horiz-adv-x="166" 
d="M45 -209h-36q80 106 80 244q0 137 -80 243h36q82 -107 82 -243q0 -135 -82 -244z" />
    <glyph glyph-name="Euro" unicode="&#x20ac;" horiz-adv-x="488" 
d="M466 67l12 -35q-59 -43 -145 -43q-108 0 -178 73q-68 71 -82 198h-60v37h58v14q0 27 3 53h-61v37h66q18 118 90 189q74 71 177 71q69 0 123 -33l-15 -37q-44 30 -112 30q-82 0 -139 -54q-59 -56 -76 -166h297v-37h-303q-2 -30 -2 -48v-19h304v-37h-302q12 -108 68 -168
q59 -62 150 -62q65 0 127 37z" />
    <glyph glyph-name="afii61289" unicode="&#x2113;" horiz-adv-x="473" 
d="M158 525v-264q157 155 157 309q0 106 -76 106q-34 0 -57.5 -39t-23.5 -112zM417 127l28 -24q-62 -112 -182 -112q-74 0 -112 49t-40 125v9q-8 -6 -59 -42l-18 30q50 35 77 60v289q0 105 38.5 155t101.5 50q51 0 81.5 -40t30.5 -104q0 -177 -205 -363v-15q1 -88 31 -124.5
t84 -36.5q85 0 144 94z" />
    <glyph glyph-name="afii61352" unicode="&#x2116;" horiz-adv-x="883" 
d="M703 642h1q67 0 106 -45.5t39 -125.5q0 -86 -43.5 -130t-103.5 -44q-64 0 -105.5 45.5t-41.5 124.5q0 82 43.5 128.5t104.5 46.5zM702 608h-1q-49 0 -75.5 -41.5t-26.5 -98.5q0 -59 30 -98t73 -39q46 0 74.5 38.5t28.5 100.5q0 54 -25.5 96t-77.5 42zM824 214h-244v38
h244v-38zM124 0h-45v656h53l210 -377q82 -149 112 -216l1 1q-8 110 -8 273v319h45v-656h-49l-209 376q-80 144 -112 218l-3 -1q5 -106 5 -272v-321z" />
    <glyph glyph-name="trademark" unicode="&#x2122;" horiz-adv-x="600" 
d="M33 674h220v-31h-92v-241h-36v241h-92v31zM586 402h-38l-13 185q-1 21 -3 58h-2q-3 -8 -22 -65l-63 -174h-41l-64 179q-6 20 -20 60h-2q0 -16 -2 -58l-13 -185h-36l22 272h53l64 -174l19 -57h2l18 55l64 176h53z" />
    <glyph glyph-name="estimated" unicode="&#x212e;" horiz-adv-x="817" 
d="M782 316h-605q-5 0 -5 -4v-183q0 -10 9 -21q93 -99 229 -99q145 0 240 111h55q-52 -61 -130 -96t-166 -35q-155 0 -264.5 98.5t-109.5 237.5t109.5 237.5t264.5 98.5t264 -98.5t109 -237.5v-9zM646 340v184q0 12 -10 22q-95 95 -226 95q-133 0 -228 -98q-10 -10 -10 -23
v-180q0 -5 5 -5h464q5 0 5 5z" />
    <glyph glyph-name="partialdiff" unicode="&#x2202;" horiz-adv-x="503" 
d="M83 640l-18 32q69 51 158 51q99 0 171 -92t72 -258q0 -182 -74 -283t-179 -101q-90 0 -137.5 57.5t-47.5 145.5q0 100 64.5 170.5t152.5 70.5q61 0 108 -29t67 -66h1q1 14 1 44q0 145 -61.5 222.5t-137.5 77.5q-83 0 -140 -42zM216 30h1q77 0 130.5 73t66.5 179
q-19 47 -64.5 78.5t-103.5 31.5q-69 0 -119 -56.5t-50 -139.5q0 -77 38 -121.5t101 -44.5z" />
    <glyph glyph-name="uni2206" unicode="&#x2206;" horiz-adv-x="532" 
d="M516 0h-501v33l228 625h45l228 -625v-33zM466 40l-147 411q-39 107 -53 156h-3q-15 -54 -47 -140l-153 -427h403z" />
    <glyph glyph-name="product" unicode="&#x220f;" horiz-adv-x="586" 
d="M578 610h-93v-699h-48v699h-288v-699h-48v699h-93v40h570v-40z" />
    <glyph glyph-name="summation" unicode="&#x2211;" horiz-adv-x="485" 
d="M500 -90h-495v31l272 337l-258 339v33h445v-40h-383v-3l251 -327l-263 -327v-3h431v-40z" />
    <glyph glyph-name="minus" unicode="&#x2212;" horiz-adv-x="596" 
d="M40 287h516v-40h-516v40z" />
    <glyph glyph-name="radical" unicode="&#x221a;" horiz-adv-x="545" 
d="M558 819l-231 -923h-40l-161 438l-72 -32l-15 34l114 48l134 -375q12 -35 16 -53h1q1 6 5 24.5l6 27.5l199 811h44z" />
    <glyph glyph-name="infinity" unicode="&#x221e;" horiz-adv-x="713" 
d="M533 128h-1q-15 0 -29.5 3t-29.5 11l-25 13.5t-25.5 19.5l-22 19.5t-23 22.5t-20.5 20q-38 -38 -55.5 -54t-54.5 -35.5t-74 -19.5q-58 0 -95.5 38t-37.5 98q0 56 41 96t100 40q16 0 30.5 -3t29.5 -11l25 -13.5t26 -19.5l22 -19.5t23 -22.5l20 -20q38 38 55.5 54
t54.5 35.5t74 19.5q58 0 95.5 -38t37.5 -98q0 -56 -41 -96t-100 -40zM535 168h1q41 0 68.5 28.5t27.5 67.5q0 41 -26.5 68.5t-67.5 27.5q-30 0 -61.5 -18t-48 -33t-44.5 -45q7 -6 25 -24.5t28.5 -27.5t27.5 -21t34 -17.5t36 -5.5zM176 168h1q22 0 43.5 8t43.5 25.5t33.5 29
l32.5 33.5q-7 6 -25 24.5t-28.5 27.5t-27.5 21t-34 17.5t-36 5.5q-41 0 -69 -28.5t-28 -67.5q0 -41 26.5 -68.5t67.5 -27.5z" />
    <glyph glyph-name="integral" unicode="&#x222b;" horiz-adv-x="290" 
d="M279 780l-10 -35q-16 4 -27 4q-29 0 -45 -19q-34 -38 -34 -163q0 -71 5 -244t5 -242q0 -137 -47 -190q-30 -32 -73 -32q-28 0 -44 9l9 34q20 -5 34 -5q26 0 45 20q34 42 34 166q0 70 -5 244t-5 243q0 137 47 185q29 32 74 32q21 0 37 -7z" />
    <glyph glyph-name="approxequal" unicode="&#x2248;" horiz-adv-x="596" 
d="M541 405l25 -30q-25 -26 -65.5 -46t-80.5 -20q-21 0 -42.5 4.5t-32.5 8.5t-31 12.5l-25 10.5q-6 2 -23 10t-28 12t-29.5 8t-36.5 4q-31 0 -64.5 -16.5t-56.5 -39.5l-25 30q25 26 65.5 46t80.5 20q21 0 42.5 -4.5t32.5 -8.5t31 -12.5l25 -10.5q6 -2 23 -10t28 -12t29.5 -8
t36.5 -4q31 0 64.5 16.5t56.5 39.5zM547 215l25 -30q-25 -26 -65.5 -46t-80.5 -20q-21 0 -42.5 4.5t-32.5 8.5t-31 12.5l-25 10.5q-6 2 -23 10t-28 12t-29.5 8t-36.5 4q-31 0 -64.5 -16.5t-56.5 -39.5l-25 30q25 26 65.5 46t80.5 20q21 0 42.5 -4.5t32.5 -8.5t31 -12.5
l25 -10.5q6 -2 23 -10t28 -12t29.5 -8t36.5 -4q31 0 64.5 16.5t56.5 39.5z" />
    <glyph glyph-name="notequal" unicode="&#x2260;" horiz-adv-x="596" 
d="M556 155h-310l-85 -134h-44l86 134h-163v40h188l97 150h-285v40h310l85 134h44l-86 -134h163v-40h-188l-97 -150h285v-40z" />
    <glyph glyph-name="lessequal" unicode="&#x2264;" horiz-adv-x="596" 
d="M525 88l-454 203v38l454 203v-45l-401 -176v-2l401 -175v-46zM525 0h-451v40h451v-40z" />
    <glyph glyph-name="greaterequal" unicode="&#x2265;" horiz-adv-x="596" 
d="M525 291l-454 -203v46l401 175v2l-401 176v45l454 -203v-38zM522 0h-451v40h451v-40z" />
    <glyph glyph-name="lozenge" unicode="&#x25ca;" horiz-adv-x="490" 
d="M442 325l-176 -352h-43l-176 352l176 352h43zM395 324l-142 292q-6 12 -9 19h-2q-2 -7 -8 -19l-140 -290l142 -292q6 -12 8 -19h3q2 7 8 19z" />
    <glyph glyph-name="uniEFED" unicode="&#xefed;" 
d="M151 727h-2q-15 0 -25.5 12t-10.5 27t11.5 27t26.5 12t26 -12t11 -27t-11 -27t-26 -12z" />
    <glyph glyph-name="uniEFEE" unicode="&#xefee;" 
d="M36 821h35q13 -50 80 -50q68 0 78 50h35q-2 -41 -30 -67t-85 -26q-55 0 -83 26t-30 67z" />
    <glyph glyph-name="uniEFF1" unicode="&#xeff1;" 
d="M149 4h42q-70 -74 -70 -117q0 -23 13.5 -35.5t35.5 -12.5q24 0 46 10l9 -29q-24 -18 -67 -18q-37 0 -59.5 19.5t-22.5 54.5q0 55 73 128z" />
    <glyph glyph-name="uniEFF2" unicode="&#xeff2;" 
d="M145 1h38l-37 -55q29 -5 49 -24t20 -46q0 -36 -26.5 -55t-66.5 -19q-35 0 -62 16l12 34q28 -13 54 -13q20 0 33 9t13 25q0 37 -77 46z" />
    <glyph glyph-name="uniEFF3" unicode="&#xeff3;" horiz-adv-x="400" 
d="M202 867h1q39 0 64 -25t25 -61q0 -35 -26 -59t-64 -24q-39 0 -65 24t-26 59q0 36 25.5 61t65.5 25zM201 839h-1q-22 0 -35.5 -17t-13.5 -41q0 -21 14.5 -37.5t35.5 -16.5q22 0 36.5 16t14.5 40t-14.5 40t-36.5 16z" />
    <glyph glyph-name="uniEFF5" unicode="&#xeff5;" 
d="M68 716h-33q-1 36 16 61t47 25q20 0 57 -21q32 -17 50 -17q25 0 27 37h33q0 -80 -60 -80q-22 0 -59 20q-38 19 -50 19q-23 0 -28 -44z" />
    <glyph glyph-name="uniEFF7" unicode="&#xeff7;" 
d="M130 819h38l107 -109h-53l-72 74h-2l-72 -74h-50z" />
    <glyph glyph-name="uniF629" unicode="&#xf629;" horiz-adv-x="305" 
d="M191 -10h-33v61q-54 7 -88 42q-35 38 -35 101q0 59 34 99t89 48v61h33v-60q39 0 69 -17l-11 -33q-30 16 -68 16q-46 0 -74.5 -32.5t-28.5 -79.5q0 -50 28.5 -80t71.5 -30q38 0 73 15l9 -30q-27 -17 -69 -20v-61z" />
    <glyph glyph-name="uniF62A" unicode="&#xf62a;" horiz-adv-x="295" 
d="M161 -51h-32v61q-56 0 -91 27l14 33q36 -26 84 -26q33 0 54.5 18t21.5 45q0 47 -69 75q-51 20 -75 43.5t-24 59.5t24 61.5t65 31.5v62h33v-60q45 -1 75 -22l-13 -33q-32 21 -74 21q-34 0 -51 -17t-17 -39q0 -23 17 -38.5t59 -32.5q47 -20 69.5 -45t22.5 -63
q0 -36 -24.5 -64.5t-68.5 -35.5v-62z" />
    <glyph glyph-name="uniF62B" unicode="&#xf62b;" horiz-adv-x="181" 
d="M18 199h145v-34h-145v34z" />
    <glyph glyph-name="uniF62C" unicode="&#xf62c;" horiz-adv-x="166" 
d="M121 425h36q-80 -102 -80 -245q0 -136 80 -242h-36q-82 105 -82 242q0 138 82 245z" />
    <glyph glyph-name="uniF62D" unicode="&#xf62d;" horiz-adv-x="166" 
d="M45 -62h-36q80 106 80 244q0 137 -80 243h36q82 -107 82 -243q0 -135 -82 -244z" />
    <glyph glyph-name="uniF62E" unicode="&#xf62e;" horiz-adv-x="305" 
d="M191 256h-33v61q-54 7 -88 42q-35 38 -35 101q0 59 34 99t89 48v61h33v-60q39 0 69 -17l-11 -33q-30 16 -68 16q-46 0 -74.5 -32.5t-28.5 -79.5q0 -50 28.5 -80t71.5 -30q38 0 73 15l9 -30q-27 -17 -69 -20v-61z" />
    <glyph glyph-name="uniF62F" unicode="&#xf62f;" horiz-adv-x="295" 
d="M161 215h-32v61q-56 0 -91 27l14 33q36 -26 84 -26q33 0 54.5 18t21.5 45q0 47 -69 75q-51 20 -75 43.5t-24 59.5t24 61.5t65 31.5v62h33v-60q45 -1 75 -22l-13 -33q-32 21 -74 21q-34 0 -51 -17t-17 -39q0 -23 17 -38.5t59 -32.5q47 -20 69.5 -45t22.5 -63
q0 -36 -24.5 -64.5t-68.5 -35.5v-62z" />
    <glyph glyph-name="uniF630" unicode="&#xf630;" horiz-adv-x="181" 
d="M18 465h145v-34h-145v34z" />
    <glyph glyph-name="uniF631" unicode="&#xf631;" horiz-adv-x="166" 
d="M121 691h36q-80 -102 -80 -245q0 -136 80 -242h-36q-82 105 -82 242q0 138 82 245z" />
    <glyph glyph-name="uniF632" unicode="&#xf632;" horiz-adv-x="166" 
d="M45 204h-36q80 106 80 244q0 137 -80 243h36q82 -107 82 -243q0 -135 -82 -244z" />
    <glyph glyph-name="uniF633" unicode="&#xf633;" horiz-adv-x="717" 
d="M452 351l25 124q-22 10 -61 10q-76 0 -131 -61t-55 -144q0 -37 20 -60.5t57 -23.5q49 0 92 51t53 104zM496 65l14 -34q-73 -43 -174 -43q-126 0 -212 86t-86 226q0 160 100 273t260 113q128 0 205.5 -81.5t77.5 -207.5q0 -109 -51 -173.5t-119 -64.5q-30 0 -51 24t-16 70
h-3q-57 -94 -150 -94q-43 0 -74 33.5t-31 88.5q0 96 69.5 168.5t168.5 72.5q55 0 100 -19l-36 -179q-26 -125 33 -127q44 -2 79.5 52.5t35.5 138.5q0 118 -65 189.5t-180 71.5q-130 0 -219 -95.5t-89 -250.5q0 -123 73 -199.5t185 -76.5q90 0 155 38z" />
    <glyph glyph-name="uniF634" unicode="&#xf634;" 
d="M101 -209l-14 26q81 12 81 68q0 36 -37 61l40 12q16 -10 28 -29t12 -41q0 -46 -34 -69.5t-76 -27.5z" />
    <glyph glyph-name="uniF638" unicode="&#xf638;" horiz-adv-x="488" 
d="M122 124l227 440q-39 57 -105 57q-70 0 -112.5 -81t-43.5 -211q-2 -125 34 -205zM371 523l-227 -440q40 -54 98 -54q79 0 118.5 81t39.5 219q0 120 -29 194zM446 654l-48 -79q52 -88 52 -241q0 -170 -56.5 -257.5t-155.5 -87.5q-66 0 -116 51l-34 -64l-37 22l45 76
q-57 86 -58 248q-1 166 61.5 252.5t151.5 86.5q72 0 121 -52l37 68z" />
    <glyph glyph-name="uniF639" unicode="&#xf639;" horiz-adv-x="488" 
d="M238 -11h-1q-83 0 -140 84t-59 249q0 166 62 252.5t151 86.5q90 0 144.5 -82.5t54.5 -244.5q0 -170 -56.5 -257.5t-155.5 -87.5zM242 29h1q78 0 117.5 81t39.5 219q0 134 -38.5 213t-117.5 79q-70 0 -113 -81t-43 -211q-2 -135 40.5 -217.5t113.5 -82.5z" />
    <glyph glyph-name="uniF63A" unicode="&#xf63a;" horiz-adv-x="418" 
d="M390 0h-387v29l60 62q147 143 203.5 222.5t56.5 158.5q0 64 -32.5 105.5t-108.5 41.5q-73 0 -138 -56l-19 33q72 65 166 65q92 0 136.5 -55t44.5 -124q0 -89 -58.5 -172t-197.5 -220l-46 -48v-2h320v-40z" />
    <glyph glyph-name="uniF63B" unicode="&#xf63b;" horiz-adv-x="421" 
d="M7 33l19 38q21 -15 59.5 -28t80.5 -13q47 0 81.5 15t51.5 39t24 48t7 48q-1 76 -56 114.5t-135 38.5h-41v40h43q62 0 112.5 34.5t50.5 96.5q0 50 -31 83t-95 33q-67 0 -126 -45l-19 35q26 21 67 36t84 15q86 0 128 -44.5t42 -106.5q0 -50 -31.5 -91t-89.5 -63v-2
q64 -13 105.5 -58.5t41.5 -113.5q0 -79 -57 -136t-163 -57q-94 0 -153 44z" />
    <glyph glyph-name="uniF63C" unicode="&#xf63c;" horiz-adv-x="477" 
d="M363 0h-46v191h-310v32l317 427h39v-419h99v-40h-99v-191zM64 231h253v263q0 46 3 90l-3 1q-21 -39 -51 -82l-202 -270v-2z" />
    <glyph glyph-name="uniF63D" unicode="&#xf63d;" horiz-adv-x="432" 
d="M381 650v-42h-245l-32 -209q25 5 60 5q65 0 121 -28q42 -21 71.5 -65t29.5 -104q0 -96 -63.5 -157t-155.5 -61q-94 0 -150 42l19 38q57 -39 134 -39q71 0 120 47.5t48 120.5q-1 74 -48 119.5t-140 45.5q-53 0 -93 -7l42 294h282z" />
    <glyph glyph-name="uniF63E" unicode="&#xf63e;" horiz-adv-x="491" 
d="M393 661v-44q-39 0 -70 -7q-101 -21 -162 -98.5t-71 -178.5h2q25 39 68.5 65t99.5 26q88 0 141 -58.5t53 -150.5q0 -91 -54.5 -158.5t-148.5 -67.5q-92 0 -151.5 72t-59.5 201q0 184 106 295q73 76 182 96q32 8 65 8zM254 29h1q66 0 107.5 50t41.5 132q0 83 -43 127.5
t-113 44.5q-46 0 -86 -25.5t-63 -68.5q-11 -20 -11 -38q0 -100 43.5 -161t122.5 -61z" />
    <glyph glyph-name="uniF63F" unicode="&#xf63f;" horiz-adv-x="380" 
d="M0 650h380v-34l-293 -616h-47l290 608v2h-330v40z" />
    <glyph glyph-name="uniF640" unicode="&#xf640;" horiz-adv-x="488" 
d="M250 661h1q79 0 126 -45.5t47 -110.5q0 -104 -115 -156v-4q138 -54 138 -172q0 -80 -60.5 -132t-143.5 -52q-87 0 -145 49.5t-58 123.5q0 123 136 181v4q-110 47 -110 147q0 73 52.5 120t131.5 47zM242 29h1q70 0 112.5 38.5t42.5 98.5q0 65 -41 102t-126 61
q-68 -20 -104.5 -61.5t-36.5 -95.5q-3 -60 39 -101.5t113 -41.5zM247 622h-1q-62 0 -97.5 -35t-35.5 -86q-1 -56 36 -88.5t107 -50.5q119 41 119 139q0 50 -32 85.5t-96 35.5z" />
    <glyph glyph-name="uniF641" unicode="&#xf641;" horiz-adv-x="494" 
d="M100 -11v44q27 -3 74 5q82 12 141 76q71 76 88 206l-3 -1q-65 -84 -168 -84q-86 0 -135.5 58t-49.5 139q0 93 58 161t150 68q87 0 141.5 -71.5t54.5 -199.5q0 -197 -111 -308q-64 -67 -152 -84q-53 -11 -88 -9zM247 621h-1q-66 0 -108.5 -52.5t-42.5 -133.5
q0 -72 40.5 -115.5t105.5 -43.5q50 0 91 23.5t63 60.5q9 18 9 29q0 106 -40 169t-117 63z" />
    <glyph glyph-name="uniF642" unicode="&#xf642;" horiz-adv-x="773" 
d="M174 595h1q60 0 97 -49.5t37 -144.5q0 -99 -39.5 -151.5t-100.5 -52.5q-57 0 -96.5 50t-40.5 145q-1 98 41.5 150.5t100.5 52.5zM171 561h-1q-44 0 -69 -47t-26 -118q-2 -71 24 -118t71 -47q48 0 72 46t24 121q0 72 -23 117.5t-72 45.5zM229 -13h-40l354 615h40zM606 392
h1q60 0 97 -49.5t37 -144.5q0 -99 -39.5 -151.5t-100.5 -52.5q-57 0 -96.5 50t-40.5 145q-1 98 41 150.5t101 52.5zM603 358h-1q-44 0 -69 -47t-26 -118q-2 -71 24.5 -118t70.5 -47q48 0 72 46t24 121q0 72 -23 117.5t-72 45.5z" />
    <glyph glyph-name="uniF643" unicode="&#xf643;" horiz-adv-x="512" 
d="M255 -11h-1q-84 0 -146.5 65t-62.5 187q0 119 63 185.5t147 66.5q85 0 148 -65t63 -187q0 -119 -63.5 -185.5t-147.5 -66.5zM255 29h1q74 0 118 60.5t44 151.5t-44 151.5t-119 60.5q-74 0 -118 -60.5t-44 -151.5t44 -151.5t118 -60.5z" />
    <glyph glyph-name="uniF644" unicode="&#xf644;" horiz-adv-x="512" 
d="M336 0h-46v440h-2l-194 -90l-12 36l211 96h43v-482z" />
    <glyph glyph-name="uniF645" unicode="&#xf645;" horiz-adv-x="512" 
d="M444 0h-375v27l41 31q132 89 191.5 153t59.5 132q0 54 -33.5 83.5t-85.5 29.5q-77 0 -148 -57l-16 33q82 64 172 64q69 0 114 -40.5t45 -111.5q0 -68 -48.5 -126.5t-150.5 -132.5l-57 -43v-3q18 1 67 1h224v-40z" />
    <glyph glyph-name="uniF646" unicode="&#xf646;" horiz-adv-x="512" 
d="M64 -89l7 36q46 -16 104 -16q85 0 139 40.5t54 104.5q0 55 -46.5 87t-122.5 32q-40 0 -55 -3l-3 39l14 1q81 6 131 40t50 87q0 47 -31 70.5t-86 23.5q-64 0 -122 -35l-13 33q63 42 144 42q69 0 112.5 -34.5t43.5 -92.5q0 -50 -31.5 -86t-85.5 -52v-3q64 -9 106.5 -46.5
t42.5 -99.5q0 -81 -69.5 -134t-169.5 -53q-73 0 -113 19z" />
    <glyph glyph-name="uniF647" unicode="&#xf647;" horiz-adv-x="512" 
d="M476 62h-99v-174h-45v174h-297v32l303 398h39v-390h99v-40zM332 102v244q0 54 2 84h-3q-28 -49 -50 -80l-191 -246l1 -2h241z" />
    <glyph glyph-name="uniF648" unicode="&#xf648;" horiz-adv-x="512" 
d="M84 -92l7 37q42 -14 99 -14q76 0 130.5 41.5t54.5 112.5q0 49 -37 86q-65 65 -236 47l50 264h263l-8 -40h-220l-37 -183q158 8 227 -59q46 -44 46 -110q0 -91 -68.5 -144.5t-170.5 -53.5q-63 0 -100 16z" />
    <glyph glyph-name="uniF649" unicode="&#xf649;" horiz-adv-x="512" 
d="M423 600l5 -39q-132 -10 -212 -82t-100 -183h4q22 37 64.5 63t96.5 26q75 0 128.5 -53t53.5 -137q0 -96 -58 -151t-131 -55q-92 0 -150.5 66t-58.5 173q0 154 97 255.5t261 116.5zM273 28h1q57 0 99 43t42 121q0 71 -39 112t-103 41q-66 0 -115 -47q-42 -43 -42 -102
q0 -68 44.5 -118t112.5 -50z" />
    <glyph glyph-name="uniF64A" unicode="&#xf64a;" horiz-adv-x="512" 
d="M431 482v-33q-45 -121 -126.5 -274.5t-163.5 -282.5l-43 14q63 90 154 260.5t129 273.5v2h-310v40h360z" />
    <glyph glyph-name="uniF64B" unicode="&#xf64b;" horiz-adv-x="512" 
d="M316 315v-2q64 -22 100.5 -62.5t36.5 -91.5q0 -76 -59 -123t-140 -47q-87 0 -143 45.5t-56 115.5q0 102 133 164v1q-47 18 -77.5 51.5t-30.5 79.5q0 67 53 110.5t126 43.5q71 0 120.5 -41.5t49.5 -104.5q0 -87 -113 -139zM258 561h-1q-54 0 -92 -30t-38 -80
q0 -86 137 -121q117 32 117 124q0 50 -36.5 78.5t-86.5 28.5zM253 29h1q64 0 107 34t43 89q0 53 -41 88.5t-124 58.5q-61 -21 -97.5 -58.5t-36.5 -84.5q0 -57 39.5 -92t108.5 -35z" />
    <glyph glyph-name="uniF64C" unicode="&#xf64c;" horiz-adv-x="512" 
d="M92 -110l-5 39q127 6 209 73.5t103 173.5h-2q-16 -32 -59 -56t-96 -24q-76 0 -129.5 51t-53.5 140q0 87 57.5 146.5t141.5 59.5q82 0 139.5 -59.5t57.5 -170.5q0 -155 -97.5 -259.5t-265.5 -113.5zM249 135h1q45 0 83 22.5t55 54.5q19 27 19 68q0 78 -45 126t-108 48
q-58 0 -102.5 -42t-44.5 -120q0 -77 41 -117t101 -40z" />
    <glyph glyph-name="uniF64E" unicode="&#xf64e;" horiz-adv-x="512" 
d="M447 58l11 -36q-50 -33 -132 -33q-104 0 -170 66q-48 47 -61 123h-61v37h57q-2 24 -2 26q0 19 3 41h-58v37h63q15 70 63 120q73 73 179 73q61 0 117 -30l-14 -37q-47 27 -112 27q-78 0 -134 -53q-44 -42 -51 -100h274v-37h-279q-3 -18 -3 -33q0 -20 1 -34h281v-37h-276
q12 -57 48 -93q59 -55 139 -55q65 0 117 28z" />
    <glyph glyph-name="uniF64F" unicode="&#xf64f;" horiz-adv-x="512" 
d="M133 296v38h104l7 54q11 96 54 154.5t121 57.5q32 0 60 -14l-12 -37q-31 11 -56 11q-55 0 -84 -48t-37 -122l-6 -56h131v-38h-136l-23 -191q-13 -107 -49.5 -162t-109.5 -55q-39 0 -69 16l12 36q27 -13 61 -13q89 0 108 166l23 203h-99z" />
    <glyph glyph-name="uniF650" unicode="&#xf650;" horiz-adv-x="512" 
d="M189 216h112l20 164h-112zM162 0h-42l22 177h-83v39h88l21 164h-88v39h93l22 172h41l-22 -172h113l22 172h40l-21 -172h83v-39h-88l-21 -164h89v-39h-94l-22 -177h-42l23 177h-112z" />
    <glyph glyph-name="uniF651" unicode="&#xf651;" horiz-adv-x="512" 
d="M456 0h-390v30q52 23 80 58t28 74q0 27 -6 54h-99v39h92q-9 54 -9 72q0 83 48 133.5t122 50.5q62 0 104 -24l-16 -38q-34 22 -93 22q-58 0 -88.5 -37.5t-30.5 -106.5q0 -20 9 -72h153v-39h-145q4 -30 4 -43q0 -87 -68 -130v-2h305v-41z" />
    <glyph glyph-name="uniF652" unicode="&#xf652;" horiz-adv-x="512" 
d="M278 0h-46v121h-154v36h154v64h-154v36h134l-151 243h54l103 -170q27 -43 38 -66h3q10 20 42 68l109 168h53l-164 -243h134v-36h-155v-64h155v-36h-155v-121z" />
    <glyph glyph-name="uniF653" unicode="&#xf653;" horiz-adv-x="512" 
d="M276 -78h-37v77q-85 0 -139 37l20 35q45 -33 126 -33q51 0 88 25t37 66q0 36 -26.5 57.5t-84.5 41.5q-78 28 -114 56.5t-36 75.5q0 48 38.5 81t97.5 38v81h38v-80q72 -3 116 -31l-18 -36q-48 29 -113 29q-46 0 -78.5 -22t-32.5 -55t25.5 -54t93.5 -44q71 -24 106 -56
t35 -79q0 -48 -38.5 -85.5t-103.5 -46.5v-78z" />
    <glyph glyph-name="uniF654" unicode="&#xf654;" horiz-adv-x="512" 
d="M387 115l12 -37q-41 -24 -103 -27v-70h-36v70q-80 8 -128.5 58.5t-48.5 133.5q0 82 49.5 136t127.5 64v65h36v-64q60 0 104 -23l-14 -37q-36 21 -101 21q-68 0 -111 -44.5t-43 -114.5q0 -72 42 -113.5t105 -41.5t109 24z" />
    <glyph glyph-name="uniF655" unicode="&#xf655;" horiz-adv-x="310" 
d="M152 -5h-1q-56 0 -91.5 51.5t-35.5 146.5q0 97 38 149.5t97 52.5t93 -50.5t34 -144.5q0 -99 -35 -152t-99 -53zM154 29h1q43 0 65 45t22 124q0 163 -87 163q-39 0 -63 -44.5t-24 -118.5q0 -79 23 -124t63 -45z" />
    <glyph glyph-name="uniF656" unicode="&#xf656;" horiz-adv-x="210" 
d="M142 0h-41v350h-2l-67 -34l-9 33l82 41h37v-390z" />
    <glyph glyph-name="uniF657" unicode="&#xf657;" horiz-adv-x="286" 
d="M11 0v25l64 61q69 65 100 108.5t31 83.5q0 36 -21.5 59t-64.5 23q-40 0 -83 -33l-15 27q43 41 108 41q62 0 91 -33.5t29 -73.5q0 -54 -34.5 -101.5t-109.5 -115.5l-35 -33v-2h185v-36h-245z" />
    <glyph glyph-name="uniF658" unicode="&#xf658;" horiz-adv-x="279" 
d="M44 333l-14 31q44 31 99 31q56 0 82.5 -26.5t26.5 -64.5q0 -64 -74 -92v-2q40 -6 65 -33.5t25 -65.5q0 -47 -37.5 -81.5t-105.5 -34.5q-64 0 -103 27l15 33q36 -26 90 -26q50 0 74.5 25t23.5 56q-1 42 -35 62.5t-82 20.5h-26v32h27q36 0 67.5 19.5t32.5 57.5
q0 24 -17.5 41.5t-52.5 17.5q-45 0 -81 -28z" />
    <glyph glyph-name="uniF659" unicode="&#xf659;" horiz-adv-x="319" 
d="M243 0h-42v110h-187v27l185 251h44v-244h58v-34h-58v-110zM201 144v141q0 8 3 56l-2 1q-17 -32 -33 -54l-107 -143v-1h139z" />
    <glyph glyph-name="uniF65A" unicode="&#xf65a;" horiz-adv-x="284" 
d="M248 387v-37h-151l-16 -107q18 2 34 2q47 0 80 -18q59 -29 59 -102q0 -58 -40 -95t-101 -37q-58 0 -96 25l12 33q35 -22 85 -22q41 0 68.5 25t27.5 65q0 42 -28 67t-85 25q-1 0 -57 -4l25 180h183z" />
    <glyph glyph-name="uniF65B" unicode="&#xf65b;" horiz-adv-x="313" 
d="M250 395l1 -37q-27 0 -43 -3q-60 -10 -96.5 -51.5t-42.5 -96.5h1q35 50 99 50q54 0 87 -35t33 -91q0 -55 -35 -95.5t-94 -40.5q-60 0 -98 44t-38 121q0 110 66 174q46 46 121 57q30 4 39 4zM161 29h1q37 0 60 28t23 72t-24.5 69t-63.5 25q-26 0 -49 -14.5t-35 -37.5
q-6 -12 -6 -23q0 -52 25 -85.5t69 -33.5z" />
    <glyph glyph-name="uniF65C" unicode="&#xf65c;" horiz-adv-x="271" 
d="M17 387h243v-29l-176 -358h-44l174 350v1h-197v36z" />
    <glyph glyph-name="uniF65D" unicode="&#xf65d;" horiz-adv-x="308" 
d="M158 395h1q52 0 81 -27.5t29 -66.5q0 -62 -67 -91v-2q82 -32 82 -101q0 -50 -38 -81t-93 -31q-57 0 -93 30t-36 75q0 71 80 104v3q-65 28 -65 86q0 45 34 73.5t85 28.5zM153 28h1q39 0 62 21t23 53q0 36 -23 56t-70 33q-37 -10 -57.5 -32.5t-20.5 -52.5q0 -32 23 -55
t62 -23zM156 363h-1q-35 0 -54.5 -19t-19.5 -47q0 -55 80 -75q66 21 66 75q0 27 -17.5 46.5t-53.5 19.5z" />
    <glyph glyph-name="uniF65E" unicode="&#xf65e;" horiz-adv-x="307" 
d="M58 -5v37q14 -1 44 2q51 6 85 42q40 37 52 109h-2q-35 -46 -97 -46q-53 0 -84.5 34t-31.5 84q0 56 37 97t96 41q57 0 91.5 -43.5t34.5 -120.5q0 -116 -68 -182q-45 -42 -106 -50q-35 -5 -51 -4zM151 361h-1q-36 0 -59.5 -29t-23.5 -73q0 -38 22.5 -62t59.5 -24
q58 0 86 45q4 5 4 18q0 56 -22 90.5t-66 34.5z" />
    <glyph glyph-name="uniF65F" unicode="&#xf65f;" horiz-adv-x="106" 
d="M36 -70l-32 -4q23 61 34 137l51 6q-23 -88 -53 -139z" />
    <glyph glyph-name="uniF660" unicode="&#xf660;" horiz-adv-x="106" 
d="M52 -7h-1q-13 0 -21.5 10t-8.5 24t9 23.5t23 9.5q13 0 22 -9.5t9 -23.5q0 -15 -8.5 -24.5t-23.5 -9.5z" />
    <glyph glyph-name="uniF661" unicode="&#xf661;" horiz-adv-x="310" 
d="M152 261h-1q-56 0 -91.5 51.5t-35.5 146.5q0 97 38 149.5t97 52.5t93 -50.5t34 -144.5q0 -99 -35 -152t-99 -53zM154 295h1q43 0 65 45t22 124q0 163 -87 163q-39 0 -63 -44.5t-24 -118.5q0 -79 23 -124t63 -45z" />
    <glyph glyph-name="uniF662" unicode="&#xf662;" horiz-adv-x="210" 
d="M142 266h-41v350h-2l-67 -34l-9 33l82 41h37v-390z" />
    <glyph glyph-name="uniF663" unicode="&#xf663;" horiz-adv-x="286" 
d="M11 266v25l64 61q69 65 100 108.5t31 83.5q0 36 -21.5 59t-64.5 23q-40 0 -83 -33l-15 27q43 41 108 41q62 0 91 -33.5t29 -73.5q0 -54 -34.5 -101.5t-109.5 -115.5l-35 -33v-2h185v-36h-245z" />
    <glyph glyph-name="uniF664" unicode="&#xf664;" horiz-adv-x="279" 
d="M44 599l-14 31q44 31 99 31q56 0 82.5 -26.5t26.5 -64.5q0 -64 -74 -92v-2q40 -6 65 -33.5t25 -65.5q0 -47 -37.5 -81.5t-105.5 -34.5q-64 0 -103 27l15 33q36 -26 90 -26q50 0 74.5 25t23.5 56q-1 42 -35 62.5t-82 20.5h-26v32h27q36 0 67.5 19.5t32.5 57.5
q0 24 -17.5 41.5t-52.5 17.5q-45 0 -81 -28z" />
    <glyph glyph-name="uniF665" unicode="&#xf665;" horiz-adv-x="319" 
d="M243 266h-42v110h-187v27l185 251h44v-244h58v-34h-58v-110zM201 410v141q0 8 3 56l-2 1q-17 -32 -33 -54l-107 -143v-1h139z" />
    <glyph glyph-name="uniF666" unicode="&#xf666;" horiz-adv-x="284" 
d="M248 653v-37h-151l-16 -107q18 2 34 2q47 0 80 -18q59 -29 59 -102q0 -58 -40 -95t-101 -37q-58 0 -96 25l12 33q35 -22 85 -22q41 0 68.5 25t27.5 65q0 42 -28 67t-85 25q-1 0 -57 -4l25 180h183z" />
    <glyph glyph-name="uniF667" unicode="&#xf667;" horiz-adv-x="313" 
d="M250 661l1 -37q-27 0 -43 -3q-60 -10 -96.5 -51.5t-42.5 -96.5h1q35 50 99 50q54 0 87 -35t33 -91q0 -55 -35 -95.5t-94 -40.5q-60 0 -98 44t-38 121q0 110 66 174q46 46 121 57q30 4 39 4zM161 295h1q37 0 60 28t23 72t-24.5 69t-63.5 25q-26 0 -49 -14.5t-35 -37.5
q-6 -12 -6 -23q0 -52 25 -85.5t69 -33.5z" />
    <glyph glyph-name="uniF668" unicode="&#xf668;" horiz-adv-x="271" 
d="M17 653h243v-29l-176 -358h-44l174 350v1h-197v36z" />
    <glyph glyph-name="uniF669" unicode="&#xf669;" horiz-adv-x="308" 
d="M158 661h1q52 0 81 -27.5t29 -66.5q0 -62 -67 -91v-2q82 -32 82 -101q0 -50 -38 -81t-93 -31q-57 0 -93 30t-36 75q0 71 80 104v3q-65 28 -65 86q0 45 34 73.5t85 28.5zM153 294h1q39 0 62 21t23 53q0 36 -23 56t-70 33q-37 -10 -57.5 -32.5t-20.5 -52.5q0 -32 23 -55
t62 -23zM156 629h-1q-35 0 -54.5 -19t-19.5 -47q0 -55 80 -75q66 21 66 75q0 27 -17.5 46.5t-53.5 19.5z" />
    <glyph glyph-name="uniF66A" unicode="&#xf66a;" horiz-adv-x="307" 
d="M58 261v37q14 -1 44 2q51 6 85 42q40 37 52 109h-2q-35 -46 -97 -46q-53 0 -84.5 34t-31.5 84q0 56 37 97t96 41q57 0 91.5 -43.5t34.5 -120.5q0 -116 -68 -182q-45 -42 -106 -50q-35 -5 -51 -4zM151 627h-1q-36 0 -59.5 -29t-23.5 -73q0 -38 22.5 -62t59.5 -24
q58 0 86 45q4 5 4 18q0 56 -22 90.5t-66 34.5z" />
    <glyph glyph-name="uniF66B" unicode="&#xf66b;" horiz-adv-x="106" 
d="M36 196l-32 -4q23 61 34 137l51 6q-23 -88 -53 -139z" />
    <glyph glyph-name="uniF66C" unicode="&#xf66c;" horiz-adv-x="106" 
d="M52 259h-1q-13 0 -21.5 10t-8.5 24t9 23.5t23 9.5q13 0 22 -9.5t9 -23.5q0 -15 -8.5 -24.5t-23.5 -9.5z" />
    <glyph glyph-name="uniF6AE" unicode="&#xf6ae;" horiz-adv-x="265" 
d="M208 738h45q-140 -174 -140 -413q0 -225 140 -407h-45q-141 176 -141 408t141 412z" />
    <glyph glyph-name="uniF6AF" unicode="&#xf6af;" horiz-adv-x="265" 
d="M57 -82h-45q140 180 140 411q0 229 -140 409h45q141 -176 141 -410q0 -230 -141 -410z" />
    <glyph glyph-name="uniF6B0" unicode="&#xf6b0;" horiz-adv-x="265" 
d="M261 -71h-171v798h171v-37h-127v-724h127v-37z" />
    <glyph glyph-name="uniF6B1" unicode="&#xf6b1;" horiz-adv-x="265" 
d="M6 727h170v-798h-170v37h126v724h-126v37z" />
    <glyph glyph-name="uniF6B2" unicode="&#xf6b2;" horiz-adv-x="265" 
d="M26 311l1 35q49 -1 66.5 21t17.5 58t-9 86q-10 58 -10 87q0 65 38.5 97t102.5 32h12v-37h-18q-49 -1 -70 -24.5t-21 -71.5q0 -33 9 -80q9 -61 9 -80q0 -84 -64 -104v-2q29 -8 46.5 -35.5t17.5 -68.5q0 -22 -9 -80q-9 -49 -9 -82q0 -95 91 -96h18v-37h-12q-64 0 -102.5 33
t-38.5 104q0 30 10 84q9 50 9 83q0 80 -85 78z" />
    <glyph glyph-name="uniF6B3" unicode="&#xf6b3;" horiz-adv-x="265" 
d="M239 346l-1 -35q-84 2 -84 -78q0 -36 10 -83q9 -61 9 -84q0 -71 -38.5 -104t-102.5 -33h-12v37h18q91 1 91 96q0 33 -9 82q-9 58 -9 80q0 41 17.5 68.5t46.5 35.5v2q-64 20 -64 104q0 19 9 80q9 47 9 80q0 48 -21 71.5t-70 24.5h-18v37h12q64 0 102.5 -32t38.5 -97
q0 -22 -9 -87q-10 -47 -10 -86q0 -37 17.5 -58.5t67.5 -20.5z" />
    <glyph glyph-name="uniF6B4" unicode="&#xf6b4;" horiz-adv-x="207" 
d="M133 -1h-59l10 494h39zM104 682h1q18 0 28.5 -12.5t10.5 -32.5q0 -19 -11 -31.5t-29 -12.5t-29.5 13t-10.5 31q0 19 11.5 32t28.5 13z" />
    <glyph glyph-name="uniF6B5" unicode="&#xf6b5;" horiz-adv-x="381" 
d="M231 682h1q17 0 28 -12.5t11 -32.5q0 -19 -11.5 -32t-29.5 -13t-29.5 13.5t-10.5 31.5q0 20 11 32.5t30 12.5zM208 496h44l4 -26q13 -89 -64 -183q-41 -49 -59 -84.5t-18 -72.5q0 -48 28 -75.5t81 -27.5q60 0 102 32l18 -35q-53 -40 -129 -40q-73 0 -112 41.5t-39 100.5
q0 44 20.5 83.5t65.5 93.5q67 82 60 162z" />
    <glyph glyph-name="uniF6B6" unicode="&#xf6b6;" horiz-adv-x="392" 
d="M222 507l-142 -180l143 -180h-50l-143 180l142 180h50zM367 507l-142 -180l143 -180h-50l-143 180l143 180h49z" />
    <glyph glyph-name="uniF6B7" unicode="&#xf6b7;" horiz-adv-x="392" 
d="M166 327l-143 180h50l143 -180l-143 -180h-49zM311 327l-143 180h50l143 -180l-143 -180h-49z" />
    <glyph glyph-name="uniF6B8" unicode="&#xf6b8;" horiz-adv-x="246" 
d="M222 507l-142 -180l143 -180h-50l-143 180l143 180h49z" />
    <glyph glyph-name="uniF6B9" unicode="&#xf6b9;" horiz-adv-x="246" 
d="M166 327l-143 180h50l143 -180l-143 -180h-49z" />
    <glyph glyph-name="uniF6BA" unicode="&#xf6ba;" horiz-adv-x="298" 
d="M30 371h238v-42h-238v42z" />
    <glyph glyph-name="uniF6BB" unicode="&#xf6bb;" horiz-adv-x="500" 
d="M30 349h440v-39h-440v39z" />
    <glyph glyph-name="uniF6BC" unicode="&#xf6bc;" horiz-adv-x="1000" 
d="M30 349h940v-39h-940v39z" />
    <glyph glyph-name="uniF6BD" unicode="&#xf6bd;" horiz-adv-x="174" 
d="M86 296h-1q-17 0 -28.5 13t-10.5 31q0 20 11.5 32.5t29.5 12.5t29 -12.5t11 -32.5q0 -19 -11.5 -31.5t-29.5 -12.5z" />
    <glyph glyph-name="commaaccent" unicode="&#xf6c3;" 
d="M101 -209l-14 26q81 12 81 68q0 36 -37 61l40 12q16 -10 28 -29t12 -41q0 -46 -34 -69.5t-76 -27.5z" />
    <glyph glyph-name="Acute" unicode="&#xf6c9;" 
d="M222 823h73l-131 -113h-40z" />
    <glyph glyph-name="Caron" unicode="&#xf6ca;" 
d="M170 710h-38l-107 109h53l73 -74h2l71 74h50z" />
    <glyph glyph-name="Dieresis" unicode="&#xf6cb;" 
d="M64 726h-1q-16 0 -26 11.5t-10 28.5q0 16 11 28t26 12q16 0 26.5 -11.5t10.5 -28.5t-10 -28.5t-27 -11.5zM236 726h-1q-16 0 -26 11.5t-10 28.5q0 16 11 28t26 12q16 0 26.5 -11.5t10.5 -28.5t-10 -28.5t-27 -11.5z" />
    <glyph glyph-name="DieresisAcute" unicode="&#xf6cc;" 
d="M38 726h-1q-15 0 -25 11.5t-10 28.5q0 16 11 28t26 12q16 0 26.5 -11.5t10.5 -28.5q0 -18 -10.5 -29t-27.5 -11zM262 726h-1q-15 0 -25 11.5t-10 28.5q0 16 11 28t26 12q16 0 26.5 -11.5t10.5 -28.5q0 -18 -10.5 -29t-27.5 -11zM158 823h74l-116 -113h-41z" />
    <glyph glyph-name="DieresisGrave" unicode="&#xf6cd;" 
d="M38 726h-1q-15 0 -25 11.5t-10 28.5q0 16 11 28t26 12q16 0 26.5 -11.5t10.5 -28.5q0 -18 -10.5 -29t-27.5 -11zM262 726h-1q-15 0 -25 11.5t-10 28.5q0 16 11 28t26 12q16 0 26.5 -11.5t10.5 -28.5q0 -18 -10.5 -29t-27.5 -11zM68 823h74l83 -113h-40z" />
    <glyph glyph-name="Grave" unicode="&#xf6ce;" 
d="M5 823h73l98 -113h-40z" />
    <glyph glyph-name="Hungarumlaut" unicode="&#xf6cf;" 
d="M144 822h68l-118 -109h-39zM270 822h68l-118 -109h-39z" />
    <glyph glyph-name="Macron" unicode="&#xf6d0;" 
d="M37 772h228v-39h-228v39z" />
    <glyph glyph-name="cyrBreve" unicode="&#xf6d1;" 
d="M35 826h45q3 -13 6 -21t10.5 -19t21 -16.5t33.5 -5.5q26 0 42 10.5t21 22.5t7 29h45q-7 -98 -117 -98q-56 0 -84 27t-30 71z" />
    <glyph glyph-name="cyrFlex" unicode="&#xf6d2;" 
d="M266 728h-45q-3 13 -6 20t-10.5 17.5t-21 16t-33.5 5.5q-61 0 -70 -59h-45q3 42 31 68.5t86 26.5q56 0 84 -26.5t30 -68.5z" />
    <glyph glyph-name="dblGrave" unicode="&#xf6d3;" 
d="M-15 823h73l98 -113h-41zM130 823h74l97 -113h-40z" />
    <glyph glyph-name="cyrbreve" unicode="&#xf6d4;" horiz-adv-x="301" 
d="M29 674h44q3 -35 22 -57.5t53 -21.5q36 0 55.5 22t23.5 57h44q-3 -55 -36.5 -84.5t-87.5 -29.5q-110 0 -118 114z" />
    <glyph glyph-name="cyrflex" unicode="&#xf6d5;" 
d="M73 565h-44q3 54 36.5 83.5t87.5 29.5q59 0 87 -32t31 -81h-44q-4 34 -23 56.5t-52 22.5q-36 0 -55.5 -22t-23.5 -57z" />
    <glyph glyph-name="dblgrave" unicode="&#xf6d6;" 
d="M16 677h73l91 -137h-38zM150 677h73l91 -137h-38z" />
    <glyph glyph-name="dieresisacute" unicode="&#xf6d7;" horiz-adv-x="301" 
d="M41 581h-1q-15 0 -25 11.5t-10 27.5q0 15 11.5 27t26.5 12q16 0 26.5 -11.5t10.5 -27.5q0 -17 -11 -28t-28 -11zM250 581h-1q-15 0 -25 11.5t-10 27.5q0 15 11.5 27t26.5 12q16 0 26.5 -11.5t10.5 -27.5q0 -17 -10.5 -28t-28.5 -11zM169 696h69l-122 -138h-36z" />
    <glyph glyph-name="dieresisgrave" unicode="&#xf6d8;" horiz-adv-x="301" 
d="M47 581h-1q-15 0 -25 11.5t-10 27.5q0 15 11.5 27t26.5 12q16 0 26.5 -11.5t10.5 -27.5q0 -17 -11 -28t-28 -11zM247 581h-1q-15 0 -25 11.5t-10 27.5q0 15 11.5 27t26.5 12q16 0 26.5 -11.5t10.5 -27.5q0 -17 -10.5 -28t-28.5 -11zM61 696h69l88 -138h-36z" />
    <glyph glyph-name="uniF6DC" unicode="&#xf6dc;" horiz-adv-x="293" 
d="M148 0v601h-2l-106 -62l-12 38l123 73h44v-650h-47z" />
    <glyph glyph-name="centinferior" unicode="&#xf6df;" horiz-adv-x="305" 
d="M191 -157h-33v61q-54 7 -88 42q-35 38 -35 101q0 59 34 99t89 48v61h33v-60q39 0 69 -17l-11 -33q-30 16 -68 16q-46 0 -74.5 -32.5t-28.5 -79.5q0 -50 28.5 -80t71.5 -30q38 0 73 15l9 -30q-27 -17 -69 -20v-61z" />
    <glyph glyph-name="centsuperior" unicode="&#xf6e0;" horiz-adv-x="305" 
d="M191 433h-33v61q-54 7 -88 42q-35 38 -35 101q0 59 34 99t89 48v61h33v-60q39 0 69 -17l-11 -33q-30 16 -68 16q-46 0 -74.5 -32.5t-28.5 -79.5q0 -50 28.5 -80t71.5 -30q38 0 73 15l9 -30q-27 -17 -69 -20v-61z" />
    <glyph glyph-name="commainferior" unicode="&#xf6e1;" horiz-adv-x="106" 
d="M36 -217l-32 -4q23 61 34 137l51 6q-23 -88 -53 -139z" />
    <glyph glyph-name="commasuperior" unicode="&#xf6e2;" horiz-adv-x="106" 
d="M36 373l-32 -4q23 61 34 137l51 6q-23 -88 -53 -139z" />
    <glyph glyph-name="dollarinferior" unicode="&#xf6e3;" horiz-adv-x="295" 
d="M161 -198h-32v61q-56 0 -91 27l14 33q36 -26 84 -26q33 0 54.5 18t21.5 45q0 47 -69 75q-51 20 -75 43.5t-24 59.5t24 61.5t65 31.5v62h33v-60q45 -1 75 -22l-13 -33q-32 21 -74 21q-34 0 -51 -16.5t-17 -39.5t17 -38.5t59 -32.5q47 -20 69.5 -45t22.5 -63
q0 -36 -24.5 -64.5t-68.5 -35.5v-62z" />
    <glyph glyph-name="dollarsuperior" unicode="&#xf6e4;" horiz-adv-x="295" 
d="M161 392h-32v61q-56 0 -91 27l14 33q36 -26 84 -26q33 0 54.5 18t21.5 45q0 47 -69 75q-51 20 -75 43.5t-24 59.5t24 61.5t65 31.5v62h33v-60q45 -1 75 -22l-13 -33q-32 21 -74 21q-34 0 -51 -16.5t-17 -39.5t17 -38.5t59 -32.5q47 -20 69.5 -45t22.5 -63
q0 -36 -24.5 -64.5t-68.5 -35.5v-62z" />
    <glyph glyph-name="hypheninferior" unicode="&#xf6e5;" horiz-adv-x="181" 
d="M18 52h145v-34h-145v34z" />
    <glyph glyph-name="hyphensuperior" unicode="&#xf6e6;" horiz-adv-x="181" 
d="M18 642h145v-34h-145v34z" />
    <glyph glyph-name="periodinferior" unicode="&#xf6e7;" horiz-adv-x="106" 
d="M52 -154h-1q-13 0 -21.5 10t-8.5 24t9 23.5t23 9.5q13 0 22 -9.5t9 -23.5q0 -15 -8.5 -24.5t-23.5 -9.5z" />
    <glyph glyph-name="periodsuperior" unicode="&#xf6e8;" horiz-adv-x="106" 
d="M52 436h-1q-13 0 -21.5 10t-8.5 24t9 23.5t23 9.5q13 0 22 -9.5t9 -23.5q0 -15 -8.5 -24.5t-23.5 -9.5z" />
    <glyph glyph-name="zerooldstyle" unicode="&#xf730;" horiz-adv-x="512" 
d="M255 -11h-1q-84 0 -146.5 65t-62.5 187q0 119 63 185.5t147 66.5q85 0 148 -65t63 -187q0 -119 -63.5 -185.5t-147.5 -66.5zM255 29h1q74 0 118 60.5t44 151.5t-44 151.5t-119 60.5q-74 0 -118 -60.5t-44 -151.5t44 -151.5t118 -60.5z" />
    <glyph glyph-name="oneoldstyle" unicode="&#xf731;" horiz-adv-x="331" 
d="M225 0h-46v440h-2l-140 -64l-11 36l156 70h43v-482z" />
    <glyph glyph-name="twooldstyle" unicode="&#xf732;" horiz-adv-x="431" 
d="M399 0h-375v27l41 31q132 89 191.5 153t59.5 132q0 54 -33.5 83.5t-85.5 29.5q-77 0 -148 -57l-16 33q82 64 172 64q69 0 114 -40.5t45 -111.5q0 -68 -48.5 -126.5t-150.5 -132.5l-57 -43v-3q18 1 67 1h224v-40z" />
    <glyph glyph-name="threeoldstyle" unicode="&#xf733;" horiz-adv-x="410" 
d="M16 -89l7 36q46 -16 104 -16q85 0 139 40.5t54 104.5q0 55 -46.5 87t-122.5 32q-40 0 -55 -3l-3 39l14 1q81 6 131 40t50 87q0 47 -31 70.5t-86 23.5q-64 0 -122 -35l-13 33q63 42 144 42q69 0 112.5 -34.5t43.5 -92.5q0 -50 -31.5 -86t-85.5 -52v-3q64 -9 106.5 -46.5
t42.5 -99.5q0 -81 -69.5 -134t-169.5 -53q-73 0 -113 19z" />
    <glyph glyph-name="fouroldstyle" unicode="&#xf734;" horiz-adv-x="474" 
d="M457 62h-99v-174h-45v174h-297v32l303 398h39v-390h99v-40zM313 102v244q0 54 2 84h-3q-28 -49 -50 -80l-191 -246l1 -2h241z" />
    <glyph glyph-name="fiveoldstyle" unicode="&#xf735;" horiz-adv-x="427" 
d="M44 -92l7 37q42 -14 99 -14q76 0 130.5 41.5t54.5 112.5q0 49 -37 86q-65 65 -236 47l50 264h263l-8 -40h-220l-37 -183q158 8 227 -59q46 -44 46 -110q0 -91 -68.5 -144.5t-170.5 -53.5q-63 0 -100 16z" />
    <glyph glyph-name="sixoldstyle" unicode="&#xf736;" horiz-adv-x="502" 
d="M412 600l5 -39q-132 -10 -212 -82t-100 -183h4q22 37 64.5 63t96.5 26q75 0 128.5 -53t53.5 -137q0 -96 -58 -151t-131 -55q-92 0 -150.5 66t-58.5 173q0 154 97 255.5t261 116.5zM262 28h1q57 0 99 43t42 121q0 71 -39 112t-103 41q-66 0 -115 -47q-42 -43 -42 -102
q0 -68 44.5 -118t112.5 -50z" />
    <glyph glyph-name="sevenoldstyle" unicode="&#xf737;" horiz-adv-x="399" 
d="M377 482v-33q-45 -121 -126.5 -274.5t-163.5 -282.5l-43 14q63 90 154 260.5t129 273.5v2h-310v40h360z" />
    <glyph glyph-name="eightoldstyle" unicode="&#xf738;" horiz-adv-x="490" 
d="M307 315v-2q64 -22 100.5 -62.5t36.5 -91.5q0 -76 -59 -123t-140 -47q-87 0 -143 45.5t-56 115.5q0 102 133 164v1q-47 18 -77.5 51.5t-30.5 79.5q0 67 53 110.5t126 43.5q71 0 120.5 -41.5t49.5 -104.5q0 -87 -113 -139zM249 561h-1q-54 0 -92 -30t-38 -80
q0 -86 137 -121q117 32 117 124q0 50 -36.5 78.5t-86.5 28.5zM244 29h1q64 0 107 34t43 89q0 53 -41 88.5t-124 58.5q-61 -21 -97.5 -58.5t-36.5 -84.5q0 -57 39.5 -92t108.5 -35z" />
    <glyph glyph-name="nineoldstyle" unicode="&#xf739;" horiz-adv-x="502" 
d="M83 -110l-5 39q127 6 209 73.5t103 173.5h-2q-16 -32 -59 -56t-96 -24q-76 0 -129.5 51t-53.5 140q0 87 57.5 146.5t141.5 59.5q82 0 139.5 -59.5t57.5 -170.5q0 -155 -97.5 -259.5t-265.5 -113.5zM240 135h1q45 0 83 22.5t55 54.5q19 27 19 68q0 78 -45 126t-108 48
q-58 0 -102.5 -42t-44.5 -120q0 -77 41 -117t101 -40z" />
    </font>
</defs>
</svg>
