<?xml version="1.0" standalone="no"?>
<!DOCTYPE svg PUBLIC "-//W3C//DTD SVG 1.1//EN" "http://www.w3.org/Graphics/SVG/1.1/DTD/svg11.dtd" >
<svg>
<metadata>
Created by FontForge 20090622 at Wed Jun  6 17:31:47 2018
 By deploy user
Copyright &#194;&#169; 2000 Adobe Systems Incorporated. All Rights Reserved. U.S. Patent Des. pending.
</metadata>
<defs>
<font id="MyriadPro-LightIt" horiz-adv-x="375" >
  <font-face 
    font-family="Myriad Pro Light"
    font-weight="300"
    font-style="italic"
    font-stretch="normal"
    units-per-em="1000"
    panose-1="2 11 4 3 3 4 3 9 2 4"
    ascent="750"
    descent="-250"
    x-height="480"
    cap-height="674"
    bbox="-121 -250 1007 863"
    underline-thickness="50"
    underline-position="-50"
    slope="-11"
    unicode-range="U+0020-U+FB04"
  />
<missing-glyph horiz-adv-x="500" 
d="M0 0v700h500v-700h-500zM250 395l170 255h-340zM280 350l170 -255v510zM80 50h340l-170 255zM50 605v-510l170 255z" />
    <glyph glyph-name="f_f_j" unicode="ffj" horiz-adv-x="693" 
d="M707 697l-18 -38q-38 22 -89 22q-63 0 -99.5 -48.5t-49.5 -128.5l-4 -24h245l-93 -487q-23 -119 -58 -158q-39 -44 -97 -44q-31 0 -47 5l6 38q16 -4 42 -4q38 0 63.5 31t40.5 107l90 475h-201l-84 -443h-45l84 443h-218l-84 -443h-45l84 443h-65l7 37h66l5 26
q16 102 73 159q45 45 109 45q38 0 69 -21l-18 -37q-29 18 -58 18q-45 0 -74 -29q-39 -39 -57 -138l-4 -23h219l5 28q17 99 70 156t136 57q28 0 56 -7.5t38 -16.5z" />
    <glyph glyph-name="f_j" unicode="fj" horiz-adv-x="430" 
d="M443 697l-18 -38q-38 22 -89 22q-63 0 -99.5 -48.5t-49.5 -128.5l-4 -24h245l-93 -487q-23 -119 -58 -158q-39 -44 -97 -44q-31 0 -46 5l6 38q16 -4 42 -4q38 0 63.5 31t39.5 107l91 475h-201l-84 -443h-45l84 443h-65l7 37h66l5 28q17 99 70 156t136 57q28 0 56 -7.5
t38 -16.5z" />
    <glyph glyph-name="ff" unicode="ff" horiz-adv-x="518" 
d="M644 708l-14 -37q-19 10 -50 10q-98 0 -129 -178l-4 -23h115l-8 -37h-115l-85 -443h-44l84 443h-219l-84 -443h-45l84 443h-65l8 37h65l4 23q21 113 74 166q43 41 100 41q28 0 56 -15l-17 -36q-18 11 -44 11q-93 0 -124 -170l-4 -20h219l5 26q22 121 77 175q43 40 99 40
q41 0 61 -13z" />
    <glyph glyph-name="fi" unicode="fi" horiz-adv-x="460" 
d="M91 0h-45l84 443h-65l7 37h66l5 28q19 100 71 156.5t135 56.5q28 0 56 -7.5t38 -16.5l-18 -38q-38 22 -89 22q-63 0 -99.5 -48.5t-49.5 -128.5l-4 -24h245l-92 -480h-45l84 443h-200z" />
    <glyph glyph-name="fl" unicode="fl" horiz-adv-x="460" 
d="M91 0h-45l84 443h-65l8 37h65l4 21q23 124 92 177q54 43 129 43q70 0 106 -25l-133 -696h-45l128 667q-26 14 -71 14q-128 0 -159 -171l-6 -30h113l-7 -37h-114z" />
    <glyph glyph-name="ffi" unicode="ffi" horiz-adv-x="723" 
d="M707 697l-18 -38q-38 22 -89 22q-63 0 -99.5 -48.5t-49.5 -128.5l-4 -24h245l-92 -480h-45l84 443h-200l-84 -443h-45l84 443h-219l-84 -443h-45l84 443h-65l7 37h66l5 26q16 102 73 159q45 45 109 45q39 0 70 -21l-19 -37q-29 18 -58 18q-45 0 -74 -29q-39 -39 -57 -138
l-4 -23h219l5 28q17 99 70 156t136 57q28 0 56 -7.5t38 -16.5z" />
    <glyph glyph-name="ffl" unicode="ffl" horiz-adv-x="723" 
d="M399 690l-20 -36q-27 16 -58 16q-44 0 -75 -31q-42 -43 -59 -136l-4 -23h218l4 21q21 122 92 177q54 43 129 43q70 0 106 -25l-133 -696h-45l128 667q-26 14 -71 14q-128 0 -159 -171l-6 -30h113l-7 -37h-114l-84 -443h-45l84 443h-218l-84 -443h-45l84 443h-65l7 37h66
l5 26q16 101 73 158q48 46 111 46q39 0 72 -20z" />
    <glyph glyph-name=".notdef" horiz-adv-x="500" 
d="M0 0v700h500v-700h-500zM250 395l170 255h-340zM280 350l170 -255v510zM80 50h340l-170 255zM50 605v-510l170 255z" />
    <glyph glyph-name=".null" horiz-adv-x="0" 
 />
    <glyph glyph-name="nonmarkingreturn" horiz-adv-x="333" 
 />
    <glyph glyph-name="space" unicode=" " horiz-adv-x="180" 
 />
    <glyph glyph-name="space" unicode="&#xa0;" horiz-adv-x="180" 
 />
    <glyph glyph-name="exclam" unicode="!" horiz-adv-x="215" 
d="M117 177h-39l88 497h56zM68 -11h-1q-16 0 -27 13t-11 31q0 20 12 33t30 13t28.5 -12.5t10.5 -31.5t-11.5 -32.5t-30.5 -13.5z" />
    <glyph glyph-name="quotedbl" unicode="&#x22;" horiz-adv-x="253" 
d="M126 692h57l-55 -221h-32zM249 692h57l-55 -221h-32z" />
    <glyph glyph-name="numbersign" unicode="#" horiz-adv-x="462" 
d="M176 244h92l51 167h-93zM100 0h-40l64 207h-83l7 37h88l50 167h-87l7 37h92l63 202h39l-62 -202h92l63 202h39l-62 -202h83l-7 -37h-87l-51 -167h88l-6 -37h-94l-64 -207h-40l64 207h-92z" />
    <glyph glyph-name="dollar" unicode="$" horiz-adv-x="462" 
d="M186 -85h-39l20 104q-30 1 -64 12.5t-53 26.5l17 36q55 -38 118 -38q62 0 105 38t43 98q0 80 -85 128q-119 64 -119 153q0 62 46.5 110t114.5 53l20 103h40l-20 -103q63 -3 96 -31l-17 -35l-11 6q-12 6 -17.5 8.5t-18 6.5t-26 6t-28.5 2q-60 0 -96.5 -34t-36.5 -86
q0 -40 20.5 -65.5t75.5 -56.5q107 -62 107 -152q0 -76 -47.5 -126.5t-124.5 -59.5z" />
    <glyph glyph-name="percent" unicode="%" horiz-adv-x="714" 
d="M245 661h1q52 0 77.5 -38t25.5 -89q0 -111 -47 -191t-121 -80q-52 0 -79.5 38.5t-27.5 101.5q0 61 20 119t60 98.5t91 40.5zM238 627h-1q-34 0 -62.5 -34.5t-43.5 -86t-15 -105.5q0 -104 72 -104q34 0 62 35.5t42.5 87.5t14.5 105q0 41 -15.5 71.5t-53.5 30.5zM148 -13
h-44l496 676h44zM574 393h1q52 0 77.5 -38t25.5 -90q0 -110 -47 -190t-121 -80q-52 0 -79.5 38t-27.5 101q0 61 20 119.5t60 99t91 40.5zM567 359h-1q-51 0 -86 -71t-35 -156q0 -103 72 -103q51 0 85 72t34 156q0 41 -15.5 71.5t-53.5 30.5z" />
    <glyph glyph-name="ampersand" unicode="&#x26;" horiz-adv-x="542" 
d="M486 0h-54q-24 30 -52 72q-87 -83 -194 -83q-80 0 -124 47.5t-44 115.5q0 74 50 131t121 92v3q-37 71 -37 128q0 73 45.5 126t112.5 53q57 0 85.5 -35.5t28.5 -85.5q0 -122 -176 -203v-3q72 -125 140 -223q60 78 107 221h45q-59 -171 -131 -253q52 -72 77 -103zM195 27h1
q93 0 163 77l-61.5 95.5t-90.5 145.5q-143 -81 -143 -188q0 -57 35 -93.5t96 -36.5zM305 648h-1q-45 0 -76.5 -39t-31.5 -97q0 -60 33 -122q77 38 113.5 77.5t36.5 92.5q0 38 -17.5 63t-56.5 25z" />
    <glyph glyph-name="quotesingle" unicode="'" horiz-adv-x="147" 
d="M134 692h57l-55 -221h-32z" />
    <glyph glyph-name="parenleft" unicode="(" horiz-adv-x="265" 
d="M291 692h47q-221 -238 -221 -535q0 -141 64 -277h-39q-69 130 -69 283q0 113 37.5 223t82 178t98.5 128z" />
    <glyph glyph-name="parenright" unicode=")" horiz-adv-x="265" 
d="M-3 -120h-47q221 240 221 536q0 142 -64 276h39q69 -127 69 -282q0 -286 -218 -530z" />
    <glyph glyph-name="asterisk" unicode="*" horiz-adv-x="391" 
d="M332 685l40 -25l-101 -122v-2l145 11l-10 -45l-139 11v-2l75 -118l-46 -26l-52 131h-2l-83 -132l-36 26l101 120v2l-142 -12l9 45l136 -10v2l-72 120l45 25l53 -130h2z" />
    <glyph glyph-name="plus" unicode="+" horiz-adv-x="596" 
d="M289 532h40v-246h227v-38h-227v-248h-40v248h-227v38h227v246z" />
    <glyph glyph-name="comma" unicode="," horiz-adv-x="181" 
d="M5 -121l-39 -5q19 34 47 101t41 111l64 10q-21 -52 -58.5 -122.5t-54.5 -94.5z" />
    <glyph glyph-name="hyphen" unicode="-" horiz-adv-x="298" 
d="M50 296h227l-8 -42h-227z" />
    <glyph glyph-name="hyphen" unicode="&#xad;" horiz-adv-x="298" 
d="M50 296h227l-8 -42h-227z" />
    <glyph glyph-name="period" unicode="." horiz-adv-x="181" 
d="M62 -11h-1q-16 0 -27 13t-11 31q0 20 12 33t30 13t28.5 -12.5t10.5 -31.5t-11.5 -32.5t-30.5 -13.5z" />
    <glyph glyph-name="slash" unicode="/" horiz-adv-x="327" 
d="M-17 -40h-45l434 725h48z" />
    <glyph glyph-name="zero" unicode="0" horiz-adv-x="462" 
d="M193 -11h-1q-77 0 -112 59t-35 157q0 112 35 216.5t99 172t138 67.5q54 0 88 -30.5t45.5 -71t11.5 -91.5q0 -112 -31.5 -220t-95 -183.5t-142.5 -75.5zM199 28h1q48 0 90.5 45t68.5 112.5t41 141t15 134.5q0 161 -102 161q-60 0 -111.5 -64t-80.5 -161t-29 -196
q0 -173 107 -173z" />
    <glyph glyph-name="one" unicode="1" horiz-adv-x="462" 
d="M181 0l114 598h-2l-101 -55l-12 36l128 71h41l-124 -650h-44z" />
    <glyph glyph-name="two" unicode="2" horiz-adv-x="462" 
d="M362 0h-361l7 32l70 63q166 143 240 235t74 180q0 44 -25 77.5t-83 33.5q-66 0 -131 -53l-17 34q31 26 73.5 42.5t81.5 16.5q79 0 114 -44.5t35 -102.5q0 -51 -23 -104t-70.5 -109t-98.5 -105t-127 -114l-48 -41v-2h296z" />
    <glyph glyph-name="three" unicode="3" horiz-adv-x="462" 
d="M21 29l18 35q56 -35 115 -35q89 0 135.5 54t46.5 120t-42 99t-101 33h-37l7 37h39q23 0 51.5 9.5t56 27t46 48t18.5 67.5q0 97 -100 97q-67 0 -116 -39l-17 35q68 44 139 44q74 0 108 -39.5t34 -92.5q0 -63 -42.5 -110t-100.5 -64v-2q52 -13 79 -55t27 -94
q0 -88 -66 -151.5t-169 -63.5q-43 0 -78.5 12t-50.5 28z" />
    <glyph glyph-name="four" unicode="4" horiz-adv-x="462" 
d="M301 0h-43l36 192h-282l7 31l369 427h37l-80 -419h96l-8 -39h-96zM77 231h225l50 263q7 36 20 90l-3 1l-21.5 -32.5l-22.5 -34t-21 -28.5l-227 -257v-2z" />
    <glyph glyph-name="five" unicode="5" horiz-adv-x="462" 
d="M459 650l-8 -41h-218l-64 -204q16 3 34 3q54 0 101 -26q41 -20 61 -59.5t20 -82.5q0 -112 -73.5 -181.5t-172.5 -69.5q-37 0 -71.5 11t-50.5 23l18 36q45 -30 114 -30q79 0 134 59.5t55 138.5q0 141 -155 141q-18 0 -68 -4l88 286h256z" />
    <glyph glyph-name="six" unicode="6" horiz-adv-x="462" 
d="M444 661l-5 -43q-35 0 -64 -7q-89 -20 -164 -96.5t-112 -191.5h2q30 45 79 73t97 28q76 0 114 -49t38 -124q0 -96 -65.5 -179t-160.5 -83q-81 0 -123.5 55.5t-42.5 148.5q0 107 50 208t116 158q85 77 184 95q31 7 57 7zM208 28h1q70 0 121.5 69t51.5 154q0 65 -30 99
t-87 34q-44 0 -89 -28.5t-76 -78.5q-10 -18 -12 -30q-5 -27 -5 -62q0 -72 32 -114.5t93 -42.5z" />
    <glyph glyph-name="seven" unicode="7" horiz-adv-x="462" 
d="M143 650h357l-6 -34l-390 -616h-50l388 608l-1 3h-306z" />
    <glyph glyph-name="eight" unicode="8" horiz-adv-x="462" 
d="M302 661h1q66 0 106.5 -39t40.5 -101q0 -114 -134 -178v-3q101 -54 101 -161q0 -85 -63 -137.5t-146 -52.5q-82 0 -131 44.5t-49 113.5q0 73 45.5 124.5t114.5 78.5v4q-74 52 -74 130q0 73 54.5 125t133.5 52zM208 26h1q70 0 115.5 42t45.5 108q0 55 -31.5 92t-101.5 61
q-67 -17 -114.5 -62.5t-47.5 -115.5q0 -52 34.5 -88.5t98.5 -36.5zM294 624h-1q-57 0 -96 -40t-39 -95q0 -89 107 -127q61 20 99.5 60.5t38.5 92.5q0 44 -25 76.5t-84 32.5z" />
    <glyph glyph-name="nine" unicode="9" horiz-adv-x="462" 
d="M61 -11l5 42q37 0 62 6q78 15 145 79q82 73 129 205h-4q-69 -86 -165 -86q-75 0 -111.5 50t-36.5 115q0 98 67 179.5t159 81.5q79 0 116.5 -54t37.5 -137q0 -114 -53.5 -222.5t-116.5 -164.5q-74 -65 -163 -86q-35 -8 -71 -8zM306 622h-1q-70 0 -121.5 -66t-51.5 -153
q0 -57 28 -92.5t83 -35.5q46 0 87 25t69 69q11 19 13 28q7 33 7 76q0 149 -113 149z" />
    <glyph glyph-name="colon" unicode=":" horiz-adv-x="181" 
d="M133 361h-1q-16 0 -27 13t-11 31q0 20 12 33t30 13t28.5 -12.5t10.5 -31.5t-11.5 -32.5t-30.5 -13.5zM62 -11h-1q-16 0 -27 13t-11 31q0 20 12 33t30 13t28.5 -12.5t10.5 -31.5t-11.5 -32.5t-30.5 -13.5z" />
    <glyph glyph-name="semicolon" unicode=";" horiz-adv-x="181" 
d="M5 -121l-39 -5q18 32 46.5 99t42.5 113l63 10q-21 -53 -58.5 -123.5t-54.5 -93.5zM138 361h-1q-16 0 -27 13t-11 31q0 20 12 33t30 13t28.5 -12.5t10.5 -31.5t-11.5 -32.5t-30.5 -13.5z" />
    <glyph glyph-name="less" unicode="&#x3c;" horiz-adv-x="596" 
d="M95 248v34l431 249v-45l-385 -220v-2l385 -219v-45z" />
    <glyph glyph-name="equal" unicode="=" horiz-adv-x="596" 
d="M558 347h-494v38h494v-38zM558 155h-494v38h494v-38z" />
    <glyph glyph-name="greater" unicode="&#x3e;" horiz-adv-x="596" 
d="M534 282v-34l-431 -248v45l385 219v2l-385 220v45z" />
    <glyph glyph-name="question" unicode="?" horiz-adv-x="351" 
d="M169 175h-44q2 18 2 26q5 92 101 192q45 47 68.5 85t23.5 83q0 35 -20.5 59t-66.5 24q-51 0 -94 -27l-14 36q59 33 117 33q66 0 96 -37t30 -82q0 -53 -27.5 -99.5t-81.5 -102.5q-79 -80 -86 -160q-2 -20 -4 -30zM118 -11h-1q-16 0 -27 13t-11 31q0 20 12 33t30 13
t28.5 -12.5t10.5 -31.5t-11.5 -32.5t-30.5 -13.5z" />
    <glyph glyph-name="at" unicode="@" horiz-adv-x="702" 
d="M445 258l25 124q-22 10 -62 10q-76 0 -131 -61t-55 -144q0 -37 20.5 -60.5t57.5 -23.5q49 0 92 51t53 104zM488 -27l15 -35q-69 -43 -170 -43q-133 0 -217 85t-84 227q0 161 99 273.5t260 112.5q128 0 205.5 -81.5t77.5 -207.5q0 -109 -51 -173.5t-119 -64.5
q-30 0 -51 24t-16 70h-3q-57 -94 -150 -94q-43 0 -74.5 33.5t-31.5 88.5q0 96 69.5 168.5t169.5 72.5q55 0 100 -19l-36 -179q-26 -127 33 -127q44 -2 80 53t36 138q0 118 -65.5 189.5t-180.5 71.5q-130 0 -219 -95.5t-89 -250.5q0 -125 72 -200.5t191 -75.5q87 0 149 39z
" />
    <glyph glyph-name="A" unicode="A" horiz-adv-x="537" 
d="M401 237h-256l-125 -237h-46l360 674h45l102 -674h-44zM167 276h228l-34 225q-10 68 -14 119h-2l-24 -52t-32 -65z" />
    <glyph glyph-name="B" unicode="B" horiz-adv-x="480" 
d="M40 3l126 663q60 13 124 13q104 0 149 -52q30 -35 30 -94q0 -62 -44.5 -110.5t-106.5 -63.5v-3q48 -13 81 -52t32 -99q0 -47 -21 -88t-53 -66q-70 -56 -196 -56q-71 0 -121 8zM205 635l-49 -258h70q83 0 139 43t56 115q0 107 -139 107q-57 0 -77 -7zM149 340l-57 -301
q30 -5 76 -5q92 -1 154 42t62 133q0 62 -44.5 96.5t-109.5 34.5h-81z" />
    <glyph glyph-name="C" unicode="C" horiz-adv-x="538" 
d="M470 62l10 -38q-74 -34 -173 -34q-122 0 -190.5 74t-68.5 202q0 87 33 172t95 144q108 102 258 102q52 0 92 -11t53 -24l-19 -35q-48 31 -138 31q-125 0 -217 -90q-51 -50 -80.5 -125.5t-29.5 -155.5q0 -51 11 -93t35.5 -77t69 -55t105.5 -20q94 0 154 33z" />
    <glyph glyph-name="D" unicode="D" horiz-adv-x="626" 
d="M39 2l126 664q78 13 156 13q178 0 249 -100q47 -62 48 -166q0 -91 -34.5 -178t-99.5 -144q-112 -96 -295 -96q-92 0 -150 7zM203 633l-112 -594q38 -5 102 -5q173 0 272 97q51 50 78 123.5t27 153.5q0 233 -256 233q-71 0 -111 -8z" />
    <glyph glyph-name="E" unicode="E" horiz-adv-x="441" 
d="M404 375l-8 -39h-248l-56 -297h280l-8 -39h-325l129 674h309l-8 -39h-264l-49 -260h248z" />
    <glyph glyph-name="F" unicode="F" horiz-adv-x="437" 
d="M39 0l129 674h309l-8 -39h-264l-51 -270h240l-7 -39h-241l-62 -326h-45z" />
    <glyph glyph-name="G" unicode="G" horiz-adv-x="592" 
d="M554 333l-57 -306q-75 -34 -172 -34q-147 0 -218 90q-58 72 -58 190q0 81 33 165t95 142q110 101 265 101q99 0 147 -31l-17 -38q-55 30 -141 30q-133 0 -232 -99q-48 -49 -75.5 -122t-27.5 -143q0 -114 57.5 -180t183.5 -66q69 0 120 23l45 239h-156l7 39h201z" />
    <glyph glyph-name="H" unicode="H" horiz-adv-x="603" 
d="M167 674h46l-58 -297h351l57 297h45l-129 -674h-45l64 338h-350l-64 -338h-45z" />
    <glyph glyph-name="I" unicode="I" horiz-adv-x="208" 
d="M168 674h45l-129 -674h-45z" />
    <glyph glyph-name="J" unicode="J" horiz-adv-x="342" 
d="M220 203l89 471h45l-90 -475q-21 -111 -68.5 -160.5t-130.5 -49.5q-62 0 -93 18l12 39q32 -16 87 -16q60 0 95.5 39t53.5 134z" />
    <glyph glyph-name="K" unicode="K" horiz-adv-x="469" 
d="M39 0l129 674h45l-66 -344l5 1q25 28 71 74l268 269h57l-290 -289l183 -385h-49l-169 354l-86 -79l-53 -275h-45z" />
    <glyph glyph-name="L" unicode="L" horiz-adv-x="414" 
d="M39 0l129 674h45l-122 -635h280l-8 -39h-324z" />
    <glyph glyph-name="M" unicode="M" horiz-adv-x="754" 
d="M649 0h-44l52 417q19 143 32 206h-4q-60 -124 -99 -194l-239 -429h-33l-66 418q-12 73 -26 205h-2l-22 -96l-26 -111l-107 -416h-45l178 674h52l73 -467q17 -100 19 -141h3q27 60 71 137l260 471h55z" />
    <glyph glyph-name="N" unicode="N" horiz-adv-x="611" 
d="M83 0h-44l128 674h43l195 -458q35 -79 57 -162l2 1q5 77 27 192l81 427h44l-128 -674h-41l-190 450q-42 96 -61 170l-3 -1q-9 -77 -30 -195z" />
    <glyph glyph-name="O" unicode="O" horiz-adv-x="645" 
d="M294 -11h-1q-63 0 -111.5 23t-77 62t-42.5 85.5t-14 99.5q0 90 35 183.5t96 154.5q41 41 98.5 64.5t115.5 23.5q66 0 115.5 -23.5t76.5 -63.5t40 -86.5t13 -99.5q0 -89 -33 -180t-92 -151q-90 -92 -219 -92zM299 28h1q101 0 180 79q51 51 81 136t30 166q0 34 -4.5 64
t-18 63t-35.5 56.5t-59.5 38.5t-87.5 15q-100 0 -178 -78q-52 -52 -82.5 -137t-30.5 -164q0 -37 6.5 -70.5t21.5 -65t38 -54t58.5 -36t79.5 -13.5z" />
    <glyph glyph-name="P" unicode="P" horiz-adv-x="476" 
d="M39 0l127 666q57 13 128 13q110 0 157 -56q34 -43 34 -109q0 -49 -21.5 -94t-52.5 -73q-75 -66 -198 -66q-44 0 -74 6l-55 -287h-45zM204 632l-58 -305q34 -7 74 -7q98 0 158.5 53.5t60.5 138.5q0 65 -41.5 97t-112.5 32q-55 0 -81 -9z" />
    <glyph glyph-name="Q" unicode="Q" horiz-adv-x="645" 
d="M563 -36l-20 -42q-174 36 -223 56q-38 11 -46 11q-98 5 -162 77t-64 193q0 90 34.5 182.5t94.5 153.5q41 41 99.5 65.5t116.5 24.5q67 0 116 -23.5t76.5 -63.5t40 -86.5t12.5 -99.5q0 -86 -32 -177t-90 -149q-68 -68 -148 -85v-3q128 -26 195 -34zM294 28h1q106 0 182 76
q53 53 83.5 139.5t30.5 166.5q0 32 -4.5 61.5t-17.5 62.5t-35 56.5t-60 39.5t-88 16q-98 0 -175 -75q-53 -53 -84.5 -139t-31.5 -166q0 -99 47.5 -168.5t151.5 -69.5z" />
    <glyph glyph-name="R" unicode="R" horiz-adv-x="486" 
d="M39 0l127 666q55 13 126 13q105 0 151 -55q35 -39 35 -99q0 -70 -49.5 -126t-115.5 -72v-2q73 -20 80 -143q10 -146 19 -182h-48q-8 30 -13 165q-7 146 -116 146h-92l-59 -311h-45zM205 633l-54 -285h83q88 0 142 51t54 122q0 60 -39.5 90.5t-107.5 30.5q-53 0 -78 -9z
" />
    <glyph glyph-name="S" unicode="S" horiz-adv-x="438" 
d="M19 35l19 37q58 -43 133 -43q70 0 120 42.5t50 113.5q0 87 -103 145q-131 70 -131 169q0 81 59.5 133t144.5 52q39 0 73.5 -11t51.5 -25l-20 -36q-51 33 -111 33q-67 0 -110 -41t-43 -94q0 -47 24.5 -78t84.5 -64q64 -36 94.5 -78.5t30.5 -103.5q0 -79 -58 -137.5
t-166 -58.5q-39 0 -81.5 13t-61.5 32z" />
    <glyph glyph-name="T" unicode="T" horiz-adv-x="441" 
d="M152 0l121 635h-209l8 39h462l-8 -39h-208l-121 -635h-45z" />
    <glyph glyph-name="U" unicode="U" horiz-adv-x="600" 
d="M168 674h45l-77 -407q-9 -45 -9 -87q0 -76 38.5 -113.5t103.5 -37.5q167 0 212 237l78 408h46l-80 -415q-28 -142 -97.5 -206t-166.5 -64q-77 0 -128.5 46.5t-51.5 142.5q0 46 9 92z" />
    <glyph glyph-name="V" unicode="V" horiz-adv-x="495" 
d="M213 0h-45l-83 674h45l61 -500q12 -99 11 -119h3q40 91 64 135l254 484h49z" />
    <glyph glyph-name="W" unicode="W" horiz-adv-x="807" 
d="M183 0h-45l-38 674h45l23 -468q3 -55 3 -149h2q17 47 63 143l228 474h46l24 -441q6 -110 6 -176h2q26 75 61 148l222 469h47l-323 -674h-45l-25 450q-6 86 -1 175h-3q-33 -93 -59 -146z" />
    <glyph glyph-name="X" unicode="X" horiz-adv-x="492" 
d="M435 0h-48l-75 187q-26 57 -48 119h-2l-85 -114l-146 -192h-54l269 342l-131 332h48l78 -200q28 -70 36 -97h2l71 96l160 201h55l-269 -330z" />
    <glyph glyph-name="Y" unicode="Y" horiz-adv-x="484" 
d="M212 0h-45l54 283l-129 391h48l79 -247q23 -73 30 -107h2l74 111l173 243h51l-284 -392z" />
    <glyph glyph-name="Z" unicode="Z" horiz-adv-x="504" 
d="M-16 0l6 31l498 601l-1 3h-349l8 39h410l-7 -32l-497 -600l2 -3h386l-8 -39h-448z" />
    <glyph glyph-name="bracketleft" unicode="[" horiz-adv-x="265" 
d="M191 -112h-159l152 798h159l-7 -36h-117l-138 -726h117z" />
    <glyph glyph-name="backslash" unicode="\" horiz-adv-x="324" 
d="M307 -40h-44l-197 725h43z" />
    <glyph glyph-name="bracketright" unicode="]" horiz-adv-x="265" 
d="M99 686h159l-152 -798h-159l7 36h117l138 726h-117z" />
    <glyph glyph-name="asciicircum" unicode="^" horiz-adv-x="596" 
d="M528 196h-43l-175 408h-2l-175 -408h-43l199 454l41 -1z" />
    <glyph glyph-name="underscore" unicode="_" horiz-adv-x="500" 
d="M-45 -75h500l-10 -50h-500z" />
    <glyph glyph-name="grave" unicode="`" 
d="M160 678h66l61 -138h-33z" />
    <glyph glyph-name="a" unicode="a" horiz-adv-x="503" 
d="M403 0h-44q-1 41 14 143h-2q-78 -154 -202 -154q-62 0 -98 43.5t-36 109.5q0 86 40.5 165.5t116.5 131.5t168 52q61 0 112 -14l-48 -250q-27 -136 -21 -227zM389 277l32 167q-24 8 -69 8q-109 0 -189 -90t-81 -212q-1 -51 21 -86.5t76 -35.5q65 0 128 74.5t82 174.5z" />
    <glyph glyph-name="b" unicode="b" horiz-adv-x="503" 
d="M166 710h45l-68 -335l2 -1q71 117 183 117q75 0 110.5 -51t35.5 -123q0 -74 -34 -148t-102 -127t-153 -53q-57 0 -95 27.5t-38 90.5q0 19 7 66zM116 234l-13 -59q-6 -32 -6 -65q0 -82 93 -82q44 0 82.5 18.5t66.5 49t48 68.5t30 77.5t10 76.5q0 56 -27 95t-83 39
q-64 0 -122 -61t-79 -157z" />
    <glyph glyph-name="c" unicode="c" horiz-adv-x="416" 
d="M341 60l13 -38q-61 -32 -142 -32q-88 0 -131 52t-43 126q0 125 81.5 224t201.5 99q32 0 62 -9t39 -17l-16 -38q-42 22 -92 22q-67 0 -120.5 -42t-81 -104.5t-27.5 -127.5q0 -67 33.5 -106.5t101.5 -39.5q64 0 121 31z" />
    <glyph glyph-name="d" unicode="d" horiz-adv-x="503" 
d="M471 710h45l-110 -579q-15 -83 -19 -131h-42l17 106h-2q-74 -117 -183 -117q-70 0 -105.5 49.5t-35.5 121.5q0 132 86.5 231.5t207.5 99.5q61 0 97 -19zM382 237l36 192q-34 23 -92 23q-100 0 -171.5 -87t-71.5 -201q0 -136 106 -136q59 0 118 61.5t75 147.5z" />
    <glyph glyph-name="e" unicode="e" horiz-adv-x="423" 
d="M336 64l14 -36q-59 -38 -146 -38q-85 0 -126.5 54t-41.5 133q0 72 32.5 144t92 121t127.5 49q61 0 92.5 -32t31.5 -78q0 -156 -325 -152q-5 -18 -3.5 -56t9.5 -62q30 -82 117 -82q70 0 126 35zM366 378v1q0 35 -23.5 54t-62.5 19q-62 0 -113.5 -54.5t-72.5 -130.5
q272 -4 272 111z" />
    <glyph glyph-name="f" unicode="f" horiz-adv-x="255" 
d="M91 0h-45l84 443h-65l7 37h66l5 26q20 119 77 175q43 40 99 40q41 0 61 -13l-14 -37q-19 10 -50 10q-98 0 -129 -178l-4 -23h115l-8 -37h-115z" />
    <glyph glyph-name="g" unicode="g" horiz-adv-x="503" 
d="M8 -173l17 38q50 -35 128 -35q71 0 119.5 45.5t72.5 152.5l20 92h-3q-67 -122 -185 -122q-68 0 -105 49t-37 115q0 83 37.5 158.5t106 123t151.5 47.5q34 0 74.5 -10t64.5 -23l-74 -398q-30 -158 -95 -216q-57 -53 -156 -53q-88 0 -136 36zM384 251l35 180q-42 21 -98 21
q-102 0 -170 -86.5t-69 -194.5q-1 -33 6.5 -60.5t33.5 -50.5t69 -23q62 0 120 67.5t73 146.5z" />
    <glyph glyph-name="h" unicode="h" horiz-adv-x="516" 
d="M83 0h-45l135 710h46l-65 -329h2q70 110 184 110q43 0 80.5 -29.5t37.5 -98.5q0 -38 -7 -78l-54 -285h-45l54 287q7 28 7 70t-22.5 68t-68.5 26q-58 0 -117.5 -57.5t-74.5 -139.5z" />
    <glyph glyph-name="i" unicode="i" horiz-adv-x="206" 
d="M83 0h-45l92 480h45zM176 577h-1q-15 0 -24 11.5t-9 28.5q1 17 11.5 29t26.5 12t25.5 -11.5t9.5 -29.5q-2 -17 -12 -28.5t-27 -11.5z" />
    <glyph glyph-name="j" unicode="j" horiz-adv-x="197" 
d="M129 480h45l-93 -487q-23 -119 -58 -158q-39 -44 -97 -44q-31 0 -46 5l6 38q16 -4 42 -4q38 0 63.5 31t39.5 108zM171 577h-1q-15 0 -24 11.5t-9 28.5q1 17 11.5 29t26.5 12t25.5 -11.5t9.5 -29.5q-2 -17 -12 -28.5t-27 -11.5z" />
    <glyph glyph-name="k" unicode="k" horiz-adv-x="411" 
d="M83 0h-45l135 710h45l-87 -458h2q13 14 46 45l198 183h56l-213 -197l150 -283h-49l-135 256l-66 -56z" />
    <glyph glyph-name="l" unicode="l" horiz-adv-x="206" 
d="M83 0h-45l136 710h45z" />
    <glyph glyph-name="m" unicode="m" horiz-adv-x="794" 
d="M83 0h-45l67 351q10 54 20 129h42l-15 -97h3q69 108 172 108q52 0 80.5 -31t30.5 -86q66 114 183 117q42 0 79 -30t37 -94q0 -35 -8 -81l-54 -286h-45l54 286q7 42 7 65q0 100 -88 100q-54 0 -107 -52.5t-68 -134.5l-49 -264h-45l57 293q6 34 6 61q0 97 -89 97
q-52 0 -107.5 -58t-69.5 -136z" />
    <glyph glyph-name="n" unicode="n" horiz-adv-x="516" 
d="M83 0h-45l66 351q11 52 21 129h42l-15 -103h2q32 53 80.5 83.5t104.5 30.5q19 0 37.5 -5.5t38 -19t32 -42t12.5 -67.5q0 -27 -9 -76l-53 -281h-45l54 285q7 47 7 66q0 100 -92 100q-56 0 -116.5 -58t-76.5 -147z" />
    <glyph glyph-name="o" unicode="o" horiz-adv-x="500" 
d="M217 -11h-1q-85 0 -131.5 57.5t-46.5 138.5q0 120 73.5 213t180.5 93q90 0 134 -59.5t44 -141.5q0 -68 -29.5 -136t-89.5 -116.5t-134 -48.5zM221 28h1q80 0 140.5 81.5t60.5 181.5q0 26 -6.5 52t-21 51.5t-42.5 41.5t-65 16q-85 0 -144 -80.5t-59 -182.5
q0 -70 37.5 -115.5t98.5 -45.5z" />
    <glyph glyph-name="p" unicode="p" horiz-adv-x="503" 
d="M36 -198h-45l99 518q12 61 26 160h43l-16 -103h2q35 54 83 84t101 30q72 0 108 -49.5t36 -118.5q0 -130 -84.5 -232t-198.5 -102q-71 0 -113 23h-2zM113 209l-28 -152q37 -29 108 -29q93 0 163 90.5t70 201.5q0 52 -26.5 92t-84.5 40q-60 0 -120.5 -65.5t-81.5 -177.5z
" />
    <glyph glyph-name="q" unicode="q" horiz-adv-x="503" 
d="M343 -198h-45l58 297h-2q-31 -51 -80 -80.5t-98 -29.5q-70 0 -105 50t-35 120q0 82 38 158.5t106.5 125t148.5 48.5q88 0 138 -33zM382 242l36 189q-32 21 -96 21q-95 0 -166.5 -84t-72.5 -204q-1 -63 25.5 -99.5t71.5 -36.5q70 0 128.5 65.5t73.5 148.5z" />
    <glyph glyph-name="r" unicode="r" horiz-adv-x="287" 
d="M83 0h-45l62 324q14 80 24 156h41q-15 -104 -16 -108h3q24 53 61 86t82 33q12 0 22 -2l-9 -46q-10 2 -22 2q-47 0 -95 -61.5t-64 -150.5z" />
    <glyph glyph-name="s" unicode="s" horiz-adv-x="346" 
d="M17 20l16 37q40 -28 90 -28q48 0 79 29.5t31 70.5q0 35 -15.5 58.5t-55.5 47.5q-77 46 -77 119q0 56 43 96.5t107 40.5q55 0 86 -23l-17 -38q-34 22 -74 22q-43 0 -71.5 -26.5t-28.5 -64.5q0 -32 16.5 -53t53.5 -44q79 -48 79 -123q0 -69 -46.5 -110t-113.5 -41
q-66 0 -102 30z" />
    <glyph glyph-name="t" unicode="t" horiz-adv-x="292" 
d="M164 568l49 18l-20 -106h122l-7 -37h-123l-52 -277q-10 -53 -10 -87q0 -50 48 -50q27 0 39 5l4 -36q-21 -8 -52 -8q-45 0 -65.5 25.5t-20.5 61.5q0 38 11 91l53 275h-73l7 37h74z" />
    <glyph glyph-name="u" unicode="u" horiz-adv-x="506" 
d="M428 480h45l-67 -351q-12 -66 -19 -129h-42l15 99h-2q-30 -49 -76.5 -79.5t-95.5 -30.5q-23 0 -43 5.5t-41 19.5t-33 44t-12 73q0 29 9 76l52 273h45l-52 -274q-9 -45 -9 -75q0 -101 94 -101q54 0 110.5 55t71.5 134z" />
    <glyph glyph-name="v" unicode="v" horiz-adv-x="420" 
d="M55 480h45l53 -313q16 -93 17 -110h3q24 54 50 100l177 323h48l-267 -480h-42z" />
    <glyph glyph-name="w" unicode="w" horiz-adv-x="691" 
d="M67 480h43l27 -312q6 -62 6 -114h3q25 60 49 103l173 323h45l42 -319q10 -80 11 -107h2q26 68 41 100l160 326h47l-240 -480h-41l-43 319q-10 70 -9 112h-2l-24 -50t-31 -62l-173 -319h-42z" />
    <glyph glyph-name="x" unicode="x" horiz-adv-x="405" 
d="M72 480h48l58 -125q6 -12 11.5 -24.5l11.5 -27.5t10 -23h3q33 46 53 70l111 130h53l-203 -234l115 -246h-49l-59 128q-18 38 -37 85h-3q-21 -36 -50 -69l-122 -144h-53l213 246z" />
    <glyph glyph-name="y" unicode="y" horiz-adv-x="406" 
d="M50 480h47l59 -289q18 -88 25 -134h3l56 121l146 302h48l-186 -378q-41 -83 -74.5 -138.5t-78.5 -100.5q-65 -67 -131 -83l-13 39q53 18 92 51q59 48 103 128q4 9 2 21z" />
    <glyph glyph-name="z" unicode="z" horiz-adv-x="393" 
d="M-19 0l5 29l282 318q25 28 89 92v4h-272l8 37h326l-7 -32l-279 -315q-43 -48 -88 -93v-3h292l-8 -37h-348z" />
    <glyph glyph-name="braceleft" unicode="{" horiz-adv-x="265" 
d="M34 271l6 34q81 -2 95 79q6 29 8 86.5t7 86.5q24 129 152 129h15l-7 -36h-19q-80 0 -99 -96q-6 -28 -7 -81.5t-6 -79.5q-14 -87 -82 -105v-2q46 -14 46 -68q0 -45 -28 -118q-29 -73 -29 -104q0 -71 68 -72h17l-6 -36h-12q-49 0 -79 27t-30 73q0 42 30 120q28 78 28 107
q0 9 -1 15t-6.5 17.5t-21 18t-39.5 5.5z" />
    <glyph glyph-name="bar" unicode="|" horiz-adv-x="203" 
d="M100 750h40v-1000h-40v1000z" />
    <glyph glyph-name="braceright" unicode="}" horiz-adv-x="265" 
d="M245 303l-6 -34q-81 2 -95 -79q-6 -29 -8 -86.5t-7 -86.5q-24 -129 -152 -129h-15l7 36h19q80 0 99 96q6 28 7 81.5t6 79.5q14 87 82 105v2q-46 15 -46 70q0 30 28 114q28 80 28 105q0 72 -67 73h-18l7 36h11q49 0 79 -27t30 -73q0 -49 -29 -122q-28 -76 -28 -105
q0 -9 1 -15t6.5 -17.5t21 -18t39.5 -5.5z" />
    <glyph glyph-name="asciitilde" unicode="~" horiz-adv-x="596" 
d="M111 224h-38q-4 55 27.5 89.5t78.5 34.5q49 0 132 -40q88 -43 139 -43q65 0 63 82h37q3 -63 -27.5 -93.5t-76.5 -30.5q-52 0 -136 40q-86 43 -136 43q-27 0 -45 -21.5t-18 -60.5z" />
    <glyph glyph-name="exclamdown" unicode="&#xa1;" horiz-adv-x="215" 
d="M55 -198h-57l104 494h39zM151 485h1q16 0 27 -13t11 -31q0 -20 -12 -33t-30 -13t-28.5 12.5t-10.5 31.5t11.5 32.5t30.5 13.5z" />
    <glyph glyph-name="cent" unicode="&#xa2;" horiz-adv-x="462" 
d="M244 -16h-39l20 105q-73 11 -113 67q-32 46 -32 115q0 113 71 201t171 98l19 104h39l-19 -103q25 0 53.5 -8.5t39.5 -19.5l-19 -35q-45 26 -103 26q-77 0 -141 -77t-64 -186q0 -63 33.5 -104t99.5 -41q54 0 111 25l9 -35q-15 -10 -49 -18.5t-67 -8.5z" />
    <glyph glyph-name="sterling" unicode="&#xa3;" horiz-adv-x="462" 
d="M407 0h-376l6 33q53 27 88.5 76.5t46.5 108.5q4 20 8 95h-88l7 37h83q3 85 11 132q15 85 64.5 132t125.5 47q51 0 82 -21l-17 -36q-32 18 -76 18q-56 0 -90.5 -37.5t-45.5 -103.5q-8 -49 -10 -131h155l-7 -37h-150q-2 -51 -9 -92q-22 -110 -109 -178v-3h308z" />
    <glyph glyph-name="currency" unicode="&#xa4;" horiz-adv-x="462" 
d="M252 524h1q73 0 116 -43l66 68l30 -32l-70 -64q36 -46 36 -121q0 -78 -35 -123l69 -66l-31 -32l-65 69q-45 -44 -117 -44q-73 0 -113 40l-62 -65l-32 32l65 63q-37 48 -37 120q0 76 41 127l-69 64l32 32l63 -68q43 43 112 43zM252 487h-1q-62 0 -98.5 -46.5t-36.5 -111.5
q0 -78 42 -117t94 -39q56 -1 96 38t40 120q0 63 -35 109.5t-101 46.5z" />
    <glyph glyph-name="yen" unicode="&#xa5;" horiz-adv-x="462" 
d="M203 0h-43l35 186h-144l7 35h144l15 79h-144l7 35h127l-101 315h44l73 -234l12 -39.5t12 -41.5h3q19 34 54 84l167 231h49l-233 -315h125l-7 -35h-145l-15 -79h145l-7 -35h-145z" />
    <glyph glyph-name="brokenbar" unicode="&#xa6;" horiz-adv-x="203" 
d="M100 174h40v-350h-40v350zM100 674h40v-350h-40v350z" />
    <glyph glyph-name="section" unicode="&#xa7;" horiz-adv-x="468" 
d="M134 360v-2q0 -32 17.5 -55t70.5 -51q54 -27 88 -56q65 43 65 105q0 29 -17 54.5t-69 53.5q-53 28 -84 51q-71 -39 -71 -100zM439 653l-18 -34q-42 30 -100 30q-46 0 -81 -27.5t-35 -68.5q0 -36 23.5 -57t80.5 -50q55 -28 81.5 -58.5t26.5 -75.5q0 -81 -84 -140
q20 -29 20 -70q0 -73 -51 -113t-124 -39q-38 0 -73 10.5t-51 24.5l17 36q57 -35 113 -35q55 0 91.5 30t36.5 79q0 32 -21 59t-80 57q-62 31 -91.5 63t-29.5 74q0 77 93 136q-21 30 -21 62q0 60 48.5 99.5t118.5 39.5q34 0 64.5 -10t45.5 -22z" />
    <glyph glyph-name="dieresis" unicode="&#xa8;" 
d="M178 580h-1q-16 0 -25.5 11t-9.5 27t11 28t27 12t26 -11t10 -27t-10.5 -28t-27.5 -12zM347 580h-1q-15 0 -24.5 11t-9.5 27t11 28t27 12t25.5 -11t9.5 -27t-10 -28t-28 -12z" />
    <glyph glyph-name="copyright" unicode="&#xa9;" horiz-adv-x="677" 
d="M372 648h1q125 0 210.5 -90t85.5 -218q0 -130 -86 -220t-211 -90q-126 0 -213 90.5t-87 219.5q0 128 87 218t213 90zM372 616h-1q-110 0 -184.5 -80t-74.5 -200q0 -116 74.5 -195t185.5 -79q109 -2 183 78.5t74 199.5q0 117 -74 196.5t-183 79.5zM506 493l-10 -31
q-39 25 -99 25q-74 0 -111.5 -42t-37.5 -108q0 -65 39 -108t112 -43q63 0 103 28l10 -29q-45 -32 -123 -32q-84 0 -133 51t-49 130q0 82 55.5 134t133.5 52t110 -27z" />
    <glyph glyph-name="ordfeminine" unicode="&#xaa;" horiz-adv-x="319" 
d="M299 266h-37q0 41 6 72l-2 -1q-21 -36 -52 -56t-66 -20q-43 0 -67 31.5t-24 81.5q0 87 56.5 152t148.5 65q47 0 82 -13l-37 -210q-8 -49 -8 -102zM280 431l23 119q-23 7 -53 7q-61 0 -106.5 -50t-45.5 -128q-2 -83 61 -83q39 0 75.5 40t45.5 95z" />
    <glyph glyph-name="guillemotleft" unicode="&#xab;" horiz-adv-x="377" 
d="M244 432l-157 -181l106 -179h-46l-108 180l156 180h49zM390 432l-157 -181l106 -179h-46l-108 180l155 180h50z" />
    <glyph glyph-name="logicalnot" unicode="&#xac;" horiz-adv-x="596" 
d="M59 384h494v-255h-42v217h-452v38z" />
    <glyph glyph-name="registered" unicode="&#xae;" horiz-adv-x="386" 
d="M219 505v-70h-31v167q28 5 58 5q36 0 52 -13q17 -12 17 -36q0 -28 -32 -39v-2q20 -8 27 -41q6 -31 13 -41h-32q-6 7 -14 43q-6 27 -38 27h-20zM219 581v-52h21q43 0 43 26q0 28 -40 28q-14 0 -24 -2zM248 682h1q67 0 113.5 -46t46.5 -113q0 -68 -46.5 -114.5
t-114.5 -46.5t-115.5 46.5t-47.5 114.5q0 67 47.5 113t115.5 46zM248 654h-1q-54 0 -90.5 -38.5t-36.5 -92.5q0 -56 37 -94t92 -38q53 -1 89 37.5t36 93.5t-36 93.5t-90 38.5z" />
    <glyph glyph-name="macron" unicode="&#xaf;" 
d="M168 635h202l-7 -38h-202z" />
    <glyph glyph-name="macron" unicode="&#x2c9;" 
d="M168 635h202l-7 -38h-202z" />
    <glyph glyph-name="degree" unicode="&#xb0;" horiz-adv-x="294" 
d="M219 686h1q52 0 83 -34.5t31 -81.5q0 -55 -37 -90t-83 -35q-50 0 -82 34.5t-32 83.5q0 51 35.5 87t83.5 36zM217 653h-1q-36 0 -57 -28.5t-21 -60.5q0 -36 22.5 -61t54.5 -25q34 0 57.5 26t23.5 65q0 30 -19.5 57t-59.5 27z" />
    <glyph glyph-name="plusminus" unicode="&#xb1;" horiz-adv-x="596" 
d="M296 567h40v-208h227v-38h-227v-216h-40v216h-227v38h227v208zM69 38h494v-38h-494v38z" />
    <glyph glyph-name="twosuperior" unicode="&#xb2;" horiz-adv-x="273" 
d="M286 406h-238l5 28l72 59q88 73 126.5 118t38.5 93q0 26 -15 44t-51 18q-41 0 -83 -32l-14 28q50 39 106 39q50 0 75 -28.5t25 -68.5q0 -53 -45 -104.5t-134 -122.5l-42 -34v-2h181z" />
    <glyph glyph-name="threesuperior" unicode="&#xb3;" horiz-adv-x="263" 
d="M141 739l-12 29q41 33 95 33q49 0 72.5 -24t23.5 -59q0 -33 -24 -59.5t-62 -39.5l-1 -2q31 -9 49.5 -34.5t17.5 -56.5q-1 -55 -41.5 -90t-108.5 -35q-63 0 -93 26l15 30q38 -23 82 -23q50 0 77.5 26.5t27.5 63.5q0 38 -28.5 57t-66.5 19h-22l6 31h23q39 0 73 24t34 58
q0 54 -63 54q-40 0 -74 -28z" />
    <glyph glyph-name="acute" unicode="&#xb4;" 
d="M317 678h74l-135 -138h-40z" />
    <glyph glyph-name="mu" unicode="&#xb5;" horiz-adv-x="505" 
d="M165 480l-55 -293q-13 -70 10.5 -113.5t87.5 -43.5q42 0 82 35t66 83q21 40 26 73l49 259h45l-67 -353q-10 -55 -4 -75.5t31 -22.5l-12 -39q-9 -1 -14 -1q-61 0 -48 106h-3q-24 -44 -67 -74.5t-93 -30.5q-39 0 -70 19.5t-44 55.5l-14 -77q-25 -134 -20 -186h-41
q-8 50 16 180l95 498h44z" />
    <glyph glyph-name="paragraph" unicode="&#xb6;" horiz-adv-x="468" 
d="M209 -51h-39l60 315h-8q-50 1 -97.5 46.5t-47.5 128.5q0 98 78 166.5t217 68.5q56 0 88 -7l-138 -718h-40l131 686h-72z" />
    <glyph glyph-name="periodcentered" unicode="&#xb7;" horiz-adv-x="181" 
d="M96 218h-1q-16 0 -27 13t-11 31q0 20 12 33t30 13t28.5 -12.5t10.5 -31.5t-11.5 -32.5t-30.5 -13.5z" />
    <glyph glyph-name="periodcentered" unicode="&#x2219;" horiz-adv-x="181" 
d="M96 218h-1q-16 0 -27 13t-11 31q0 20 12 33t30 13t28.5 -12.5t10.5 -31.5t-11.5 -32.5t-30.5 -13.5z" />
    <glyph glyph-name="cedilla" unicode="&#xb8;" 
d="M139 2h37l-42 -56q23 -5 36.5 -22t13.5 -41q0 -35 -28 -58t-71 -23q-37 0 -58 15l15 35q20 -13 51 -13q20 0 34 11t14 30q0 33 -63 40z" />
    <glyph glyph-name="onesuperior" unicode="&#xb9;" horiz-adv-x="200" 
d="M172 406h-39l67 350h-2l-68 -33l-5 32l86 41h35z" />
    <glyph glyph-name="ordmasculine" unicode="&#xba;" horiz-adv-x="322" 
d="M220 591h1q65 0 96.5 -38.5t31.5 -94.5q0 -81 -50 -139t-121 -58q-62 0 -94.5 39.5t-32.5 91.5q0 83 51 141t118 58zM216 557h-1q-49 0 -85.5 -47.5t-36.5 -114.5q0 -47 24.5 -73.5t62.5 -26.5q50 0 88 45.5t38 119.5q0 39 -20 68t-70 29z" />
    <glyph glyph-name="guillemotright" unicode="&#xbb;" horiz-adv-x="377" 
d="M166 254l-106 178h46l108 -180l-156 -180h-49zM312 254l-106 178h46l108 -180l-156 -180h-49z" />
    <glyph glyph-name="onequarter" unicode="&#xbc;" horiz-adv-x="705" 
d="M570 0h-40l21 111h-192l5 24l245 260h36l-48 -251h61l-6 -33h-61zM557 144l27 145q9 40 14 56h-2l-20.5 -26.5l-18.5 -24.5l-140 -149l-1 -1h141zM168 266h-40l67 350h-2l-68 -33l-5 32l86 41h36zM127 -11h-45l486 672h45z" />
    <glyph glyph-name="onehalf" unicode="&#xbd;" horiz-adv-x="705" 
d="M166 266h-40l67 350h-2l-68 -33l-5 32l86 41h36zM110 -11h-45l486 672h45zM612 0h-238l5 28l72 59q89 74 127 118.5t38 92.5q0 26 -15 44t-51 18q-41 0 -83 -32l-14 28q50 39 106 39q50 0 75 -28.5t25 -68.5q0 -53 -45 -104t-134 -123l-42 -34v-2h181z" />
    <glyph glyph-name="threequarters" unicode="&#xbe;" horiz-adv-x="705" 
d="M163 -11h-45l486 672h45zM131 599l-11 29q41 33 95 33q49 0 72.5 -24t23.5 -59q0 -33 -24 -59.5t-63 -39.5l-1 -2q31 -9 49 -34.5t18 -56.5q-2 -55 -42 -90t-108 -35q-63 0 -93 26l15 31q36 -24 82 -24q50 0 77.5 26.5t27.5 63.5q0 38 -28.5 57t-66.5 19h-21l6 31h23
q39 0 73 24t34 58q0 54 -63 54q-39 0 -75 -28zM581 0h-40l21 111h-191l4 24l245 260h36l-48 -251h61l-6 -33h-61zM568 144l28 145q4 21 13 56h-2l-39 -52l-140 -148v-1h140z" />
    <glyph glyph-name="questiondown" unicode="&#xbf;" horiz-adv-x="351" 
d="M203 299h44q0 -8 -2 -26q-3 -88 -104 -192q-88 -92 -88 -167q0 -37 20.5 -61t66.5 -24q49 0 94 27l14 -38q-59 -31 -114 -31q-69 0 -99 39t-30 88q0 85 107 195q80 81 87 159zM252 485h1q16 0 27 -13t11 -31q0 -20 -12 -33t-30 -13t-28.5 12.5t-10.5 31.5t11.5 32.5
t30.5 13.5z" />
    <glyph glyph-name="Agrave" unicode="&#xc0;" horiz-adv-x="537" 
d="M401 237h-256l-125 -237h-46l360 674h45l102 -674h-44zM167 276h228l-34 225q-10 68 -14 119h-2l-24 -52t-32 -65zM239 823h70l73 -113h-37z" />
    <glyph glyph-name="Aacute" unicode="&#xc1;" horiz-adv-x="537" 
d="M401 237h-256l-125 -237h-46l360 674h45l102 -674h-44zM167 276h228l-34 225q-10 68 -14 119h-2l-24 -52t-32 -65zM427 823h77l-140 -113h-44z" />
    <glyph glyph-name="Acircumflex" unicode="&#xc2;" horiz-adv-x="537" 
d="M401 237h-256l-125 -237h-46l360 674h45l102 -674h-44zM167 276h228l-34 225q-10 68 -14 119h-2l-24 -52t-32 -65zM354 823h37l80 -113h-47l-55 79h-2l-81 -79h-51z" />
    <glyph glyph-name="Atilde" unicode="&#xc3;" horiz-adv-x="537" 
d="M401 237h-256l-125 -237h-46l360 674h45l102 -674h-44zM167 276h228l-34 225q-10 68 -14 119h-2l-24 -52t-32 -65zM274 716h-32q6 35 25.5 60t45.5 25q28 0 59 -21q26 -17 46 -17q23 0 34 38h32q-15 -80 -72 -80q-24 0 -58 20q-32 19 -44 18q-24 -1 -36 -43z" />
    <glyph glyph-name="Adieresis" unicode="&#xc4;" horiz-adv-x="537" 
d="M401 237h-256l-125 -237h-46l360 674h45l102 -674h-44zM167 276h228l-34 225q-10 68 -14 119h-2l-24 -52t-32 -65zM280 726h-1q-15 0 -25 12t-10 27t11.5 27.5t27.5 12.5t26 -12t10 -27t-11 -27.5t-28 -12.5zM450 726h-1q-15 0 -25 12t-10 27t11.5 27.5t27.5 12.5t26 -12
t10 -27t-11 -27.5t-28 -12.5z" />
    <glyph glyph-name="Aring" unicode="&#xc5;" horiz-adv-x="537" 
d="M401 237h-256l-125 -237h-46l360 674h45l102 -674h-44zM167 276h228l-34 225q-10 68 -14 119h-2l-24 -52t-32 -65zM367 863h1q38 0 62 -23.5t24 -60.5t-26.5 -61t-63.5 -24q-38 0 -62.5 23.5t-24.5 57.5q0 37 25.5 62.5t64.5 25.5zM366 835h-1q-21 0 -34.5 -16.5
t-13.5 -42.5q0 -22 13 -37.5t34 -15.5q22 0 36 16t14 41q0 24 -13 39.5t-35 15.5z" />
    <glyph glyph-name="AE" unicode="&#xc6;" horiz-adv-x="728" 
d="M-5 0h-48l469 674h317l-8 -39h-248l-31 -261h236l-8 -39h-233l-34 -296h259l-8 -39h-298l30 271h-207zM210 309h186l25 213q10 80 15 116h-4q-40 -65 -71 -110z" />
    <glyph glyph-name="Ccedilla" unicode="&#xc7;" horiz-adv-x="541" 
d="M470 62l10 -38q-66 -30 -151 -33l-35 -45q24 -5 37 -22t13 -40q0 -36 -28.5 -59t-68.5 -23q-39 0 -60 16l15 34q23 -13 48 -13q20 0 34.5 10.5t14.5 28.5q0 35 -61 42l53 71q-115 5 -179 78.5t-64 196.5q0 86 33 172t95 145q110 101 259 101q52 0 91.5 -11t53.5 -24
l-19 -35q-50 31 -139 31q-125 0 -217 -90q-51 -49 -80.5 -125t-29.5 -155q0 -51 11 -93.5t35.5 -77.5t68.5 -55t105 -20q95 0 155 33z" />
    <glyph glyph-name="Egrave" unicode="&#xc8;" horiz-adv-x="441" 
d="M404 375l-8 -39h-248l-56 -297h280l-8 -39h-325l129 674h309l-8 -39h-264l-49 -260h248zM226 823h70l73 -113h-37z" />
    <glyph glyph-name="Eacute" unicode="&#xc9;" horiz-adv-x="441" 
d="M404 375l-8 -39h-248l-56 -297h280l-8 -39h-325l129 674h309l-8 -39h-264l-49 -260h248zM398 823h77l-140 -113h-44z" />
    <glyph glyph-name="Ecircumflex" unicode="&#xca;" horiz-adv-x="441" 
d="M404 375l-8 -39h-248l-56 -297h280l-8 -39h-325l129 674h309l-8 -39h-264l-49 -260h248zM326 823h37l80 -113h-47l-55 79h-2l-81 -79h-51z" />
    <glyph glyph-name="Edieresis" unicode="&#xcb;" horiz-adv-x="441" 
d="M404 375l-8 -39h-248l-56 -297h280l-8 -39h-325l129 674h309l-8 -39h-264l-49 -260h248zM252 726h-1q-15 0 -25 12t-10 27t11.5 27.5t27.5 12.5t26 -12t10 -27t-11 -27.5t-28 -12.5zM422 726h-1q-15 0 -25 12t-10 27t11.5 27.5t27.5 12.5t26 -12t10 -27t-11 -27.5
t-28 -12.5z" />
    <glyph glyph-name="Igrave" unicode="&#xcc;" horiz-adv-x="208" 
d="M168 674h45l-129 -674h-45zM91 823h70l73 -113h-37z" />
    <glyph glyph-name="Iacute" unicode="&#xcd;" horiz-adv-x="208" 
d="M168 674h45l-129 -674h-45zM257 823h77l-140 -113h-44z" />
    <glyph glyph-name="Icircumflex" unicode="&#xce;" horiz-adv-x="208" 
d="M168 674h45l-129 -674h-45zM188 823h37l80 -113h-47l-55 79h-2l-81 -79h-51z" />
    <glyph glyph-name="Idieresis" unicode="&#xcf;" horiz-adv-x="208" 
d="M168 674h45l-129 -674h-45zM121 726h-1q-15 0 -25 12t-10 27t11.5 27.5t27.5 12.5t26 -12t10 -27t-11 -27.5t-28 -12.5zM291 726h-1q-15 0 -25 12t-10 27t11.5 27.5t27.5 12.5t26 -12t10 -27t-11 -27.5t-28 -12.5z" />
    <glyph glyph-name="Eth" unicode="&#xd0;" horiz-adv-x="629" 
d="M16 336l9 39h88l55 291q86 13 163 13q81 0 144.5 -26.5t97.5 -73.5q47 -62 48 -164q0 -88 -37 -176t-103 -145q-112 -97 -289 -97q-92 0 -150 7l63 332h-89zM346 375l-8 -39h-188l-56 -295q38 -5 107 -5q161 0 261 97q53 50 82 125t29 154q0 229 -256 229q-74 0 -110 -6
l-49 -260h188z" />
    <glyph glyph-name="Ntilde" unicode="&#xd1;" horiz-adv-x="611" 
d="M83 0h-44l128 674h43l195 -458q35 -79 57 -162l2 1q5 77 27 192l81 427h44l-128 -674h-41l-190 450q-42 96 -61 170l-3 -1q-9 -77 -30 -195zM318 716h-32q6 35 25.5 60t45.5 25q28 0 59 -21q26 -17 46 -17q23 0 34 38h32q-15 -80 -72 -80q-24 0 -58 20q-32 19 -44 18
q-24 -1 -36 -43z" />
    <glyph glyph-name="Ograve" unicode="&#xd2;" horiz-adv-x="645" 
d="M294 -11h-1q-63 0 -111.5 23t-77 62t-42.5 85.5t-14 99.5q0 90 35 183.5t96 154.5q41 41 98.5 64.5t115.5 23.5q66 0 115.5 -23.5t76.5 -63.5t40 -86.5t13 -99.5q0 -89 -33 -180t-92 -151q-90 -92 -219 -92zM299 28h1q101 0 180 79q51 51 81 136t30 166q0 34 -4.5 64
t-18 63t-35.5 56.5t-59.5 38.5t-87.5 15q-100 0 -178 -78q-52 -52 -82.5 -137t-30.5 -164q0 -37 6.5 -70.5t21.5 -65t38 -54t58.5 -36t79.5 -13.5zM302 823h70l73 -113h-37z" />
    <glyph glyph-name="Oacute" unicode="&#xd3;" horiz-adv-x="645" 
d="M294 -11h-1q-63 0 -111.5 23t-77 62t-42.5 85.5t-14 99.5q0 90 35 183.5t96 154.5q41 41 98.5 64.5t115.5 23.5q66 0 115.5 -23.5t76.5 -63.5t40 -86.5t13 -99.5q0 -89 -33 -180t-92 -151q-90 -92 -219 -92zM299 28h1q101 0 180 79q51 51 81 136t30 166q0 34 -4.5 64
t-18 63t-35.5 56.5t-59.5 38.5t-87.5 15q-100 0 -178 -78q-52 -52 -82.5 -137t-30.5 -164q0 -37 6.5 -70.5t21.5 -65t38 -54t58.5 -36t79.5 -13.5zM480 823h77l-140 -113h-44z" />
    <glyph glyph-name="Ocircumflex" unicode="&#xd4;" horiz-adv-x="645" 
d="M294 -11h-1q-63 0 -111.5 23t-77 62t-42.5 85.5t-14 99.5q0 90 35 183.5t96 154.5q41 41 98.5 64.5t115.5 23.5q66 0 115.5 -23.5t76.5 -63.5t40 -86.5t13 -99.5q0 -89 -33 -180t-92 -151q-90 -92 -219 -92zM299 28h1q101 0 180 79q51 51 81 136t30 166q0 34 -4.5 64
t-18 63t-35.5 56.5t-59.5 38.5t-87.5 15q-100 0 -178 -78q-52 -52 -82.5 -137t-30.5 -164q0 -37 6.5 -70.5t21.5 -65t38 -54t58.5 -36t79.5 -13.5zM407 823h37l80 -113h-47l-55 79h-2l-81 -79h-51z" />
    <glyph glyph-name="Otilde" unicode="&#xd5;" horiz-adv-x="645" 
d="M294 -11h-1q-63 0 -111.5 23t-77 62t-42.5 85.5t-14 99.5q0 90 35 183.5t96 154.5q41 41 98.5 64.5t115.5 23.5q66 0 115.5 -23.5t76.5 -63.5t40 -86.5t13 -99.5q0 -89 -33 -180t-92 -151q-90 -92 -219 -92zM299 28h1q101 0 180 79q51 51 81 136t30 166q0 34 -4.5 64
t-18 63t-35.5 56.5t-59.5 38.5t-87.5 15q-100 0 -178 -78q-52 -52 -82.5 -137t-30.5 -164q0 -37 6.5 -70.5t21.5 -65t38 -54t58.5 -36t79.5 -13.5zM334 716h-32q6 35 25.5 60t45.5 25q28 0 59 -21q26 -17 46 -17q23 0 34 38h32q-15 -80 -72 -80q-24 0 -58 20q-32 19 -44 18
q-24 -1 -36 -43z" />
    <glyph glyph-name="Odieresis" unicode="&#xd6;" horiz-adv-x="645" 
d="M294 -11h-1q-63 0 -111.5 23t-77 62t-42.5 85.5t-14 99.5q0 90 35 183.5t96 154.5q41 41 98.5 64.5t115.5 23.5q66 0 115.5 -23.5t76.5 -63.5t40 -86.5t13 -99.5q0 -89 -33 -180t-92 -151q-90 -92 -219 -92zM299 28h1q101 0 180 79q51 51 81 136t30 166q0 34 -4.5 64
t-18 63t-35.5 56.5t-59.5 38.5t-87.5 15q-100 0 -178 -78q-52 -52 -82.5 -137t-30.5 -164q0 -37 6.5 -70.5t21.5 -65t38 -54t58.5 -36t79.5 -13.5zM336 726h-1q-15 0 -25 12t-10 27t11.5 27.5t27.5 12.5t26 -12t10 -27t-11 -27.5t-28 -12.5zM506 726h-1q-15 0 -25 12t-10 27
t11.5 27.5t27.5 12.5t26 -12t10 -27t-11 -27.5t-28 -12.5z" />
    <glyph glyph-name="multiply" unicode="&#xd7;" horiz-adv-x="596" 
d="M81 496l30 30l211 -236l214 236l29 -29l-216 -234l216 -233l-30 -30l-214 236l-214 -236l-26 31l212 232z" />
    <glyph glyph-name="Oslash" unicode="&#xd8;" horiz-adv-x="645" 
d="M40 -28l-25 24l81 89q-48 76 -48 177q0 88 32 175.5t88 146.5q46 48 106 74.5t121 26.5q111 0 171 -66l78 83l27 -23l-82 -89q48 -71 48 -173q0 -89 -32.5 -179.5t-87.5 -150.5q-43 -46 -102 -72t-121 -26q-110 0 -176 68zM130 123l408 462q-51 61 -152 61
q-92 0 -167 -70.5t-105 -178.5q-44 -156 14 -274h2zM556 549l-407 -460q55 -61 156 -61q83 0 156 65.5t106 170.5q51 164 -9 285h-2z" />
    <glyph glyph-name="Ugrave" unicode="&#xd9;" horiz-adv-x="600" 
d="M168 674h45l-77 -407q-9 -45 -9 -87q0 -76 38.5 -113.5t103.5 -37.5q167 0 212 237l78 408h46l-80 -415q-28 -142 -97.5 -206t-166.5 -64q-77 0 -128.5 46.5t-51.5 142.5q0 46 9 92zM287 823h70l73 -113h-37z" />
    <glyph glyph-name="Uacute" unicode="&#xda;" horiz-adv-x="600" 
d="M168 674h45l-77 -407q-9 -45 -9 -87q0 -76 38.5 -113.5t103.5 -37.5q167 0 212 237l78 408h46l-80 -415q-28 -142 -97.5 -206t-166.5 -64q-77 0 -128.5 46.5t-51.5 142.5q0 46 9 92zM442 823h77l-140 -113h-44z" />
    <glyph glyph-name="Ucircumflex" unicode="&#xdb;" horiz-adv-x="600" 
d="M168 674h45l-77 -407q-9 -45 -9 -87q0 -76 38.5 -113.5t103.5 -37.5q167 0 212 237l78 408h46l-80 -415q-28 -142 -97.5 -206t-166.5 -64q-77 0 -128.5 46.5t-51.5 142.5q0 46 9 92zM397 823h37l80 -113h-47l-55 79h-2l-81 -79h-51z" />
    <glyph glyph-name="Udieresis" unicode="&#xdc;" horiz-adv-x="600" 
d="M168 674h45l-77 -407q-9 -45 -9 -87q0 -76 38.5 -113.5t103.5 -37.5q167 0 212 237l78 408h46l-80 -415q-28 -142 -97.5 -206t-166.5 -64q-77 0 -128.5 46.5t-51.5 142.5q0 46 9 92zM311 726h-1q-15 0 -25 12t-10 27t11.5 27.5t27.5 12.5t26 -12t10 -27t-11 -27.5
t-28 -12.5zM481 726h-1q-15 0 -25 12t-10 27t11.5 27.5t27.5 12.5t26 -12t10 -27t-11 -27.5t-28 -12.5z" />
    <glyph glyph-name="Yacute" unicode="&#xdd;" horiz-adv-x="484" 
d="M212 0h-45l54 283l-129 391h48l79 -247q23 -73 30 -107h2l74 111l173 243h51l-284 -392zM392 823h77l-140 -113h-44z" />
    <glyph glyph-name="Thorn" unicode="&#xde;" horiz-adv-x="475" 
d="M39 0l129 674h44l-26 -138q39 9 87 9q105 0 151 -54q35 -41 35 -103q0 -100 -78 -161t-186 -61q-48 0 -79 6l-33 -172h-44zM178 497l-54 -285q33 -7 77 -7q86 0 149 50t63 128q0 63 -40.5 93.5t-109.5 30.5q-53 0 -85 -10z" />
    <glyph glyph-name="germandbls" unicode="&#xdf;" horiz-adv-x="513" 
d="M83 0h-45l89 468q48 253 223 253q65 0 101 -37.5t36 -93.5q0 -31 -12.5 -63t-27.5 -47q-43 -13 -70 -38.5t-27 -61.5q0 -25 9.5 -43.5t32.5 -47.5q55 -68 55 -130q0 -74 -54.5 -122t-133.5 -48q-56 0 -92 24l15 36q39 -21 81 -21q58 0 97.5 35.5t39.5 92.5q0 55 -43 103
q-54 64 -54 110q0 48 31.5 84t81.5 55q25 25 25 81q0 39 -24 66t-75 27q-63 0 -105.5 -51t-61.5 -147z" />
    <glyph glyph-name="agrave" unicode="&#xe0;" horiz-adv-x="503" 
d="M403 0h-44q-1 41 14 143h-2q-78 -154 -202 -154q-62 0 -98 43.5t-36 109.5q0 86 40.5 165.5t116.5 131.5t168 52q61 0 112 -14l-48 -250q-27 -136 -21 -227zM389 277l32 167q-24 8 -69 8q-109 0 -189 -90t-81 -212q-1 -51 21 -86.5t76 -35.5q65 0 128 74.5t82 174.5z
M243 678h66l61 -138h-33z" />
    <glyph glyph-name="aacute" unicode="&#xe1;" horiz-adv-x="503" 
d="M403 0h-44q-1 41 14 143h-2q-78 -154 -202 -154q-62 0 -98 43.5t-36 109.5q0 86 40.5 165.5t116.5 131.5t168 52q61 0 112 -14l-48 -250q-27 -136 -21 -227zM389 277l32 167q-24 8 -69 8q-109 0 -189 -90t-81 -212q-1 -51 21 -86.5t76 -35.5q65 0 128 74.5t82 174.5z
M399 678h74l-135 -138h-40z" />
    <glyph glyph-name="acircumflex" unicode="&#xe2;" horiz-adv-x="503" 
d="M403 0h-44q-1 41 14 143h-2q-78 -154 -202 -154q-62 0 -98 43.5t-36 109.5q0 86 40.5 165.5t116.5 131.5t168 52q61 0 112 -14l-48 -250q-27 -136 -21 -227zM389 277l32 167q-24 8 -69 8q-109 0 -189 -90t-81 -212q-1 -51 21 -86.5t76 -35.5q65 0 128 74.5t82 174.5z
M330 678h35l65 -138h-43l-44 99h-2l-78 -99h-46z" />
    <glyph glyph-name="atilde" unicode="&#xe3;" horiz-adv-x="503" 
d="M403 0h-44q-1 41 14 143h-2q-78 -154 -202 -154q-62 0 -98 43.5t-36 109.5q0 86 40.5 165.5t116.5 131.5t168 52q61 0 112 -14l-48 -250q-27 -136 -21 -227zM389 277l32 167q-24 8 -69 8q-109 0 -189 -90t-81 -212q-1 -51 21 -86.5t76 -35.5q65 0 128 74.5t82 174.5z
M249 574h-34q3 35 20 59.5t45 24.5q7 0 13 -1t12.5 -3.5t10.5 -4.5t12.5 -7t12.5 -7q25 -16 41 -16q12 0 18.5 9t9.5 32h33q-9 -80 -63 -80q-26 0 -57 21q-29 18 -44 18q-23 0 -30 -45z" />
    <glyph glyph-name="adieresis" unicode="&#xe4;" horiz-adv-x="503" 
d="M403 0h-44q-1 41 14 143h-2q-78 -154 -202 -154q-62 0 -98 43.5t-36 109.5q0 86 40.5 165.5t116.5 131.5t168 52q61 0 112 -14l-48 -250q-27 -136 -21 -227zM389 277l32 167q-24 8 -69 8q-109 0 -189 -90t-81 -212q-1 -51 21 -86.5t76 -35.5q65 0 128 74.5t82 174.5z
M247 580h-1q-16 0 -25.5 11t-9.5 27t11 28t27 12t26 -11t10 -27t-10.5 -28t-27.5 -12zM416 580h-1q-15 0 -24.5 11t-9.5 27t11 28t27 12t25.5 -11t9.5 -27t-10 -28t-28 -12z" />
    <glyph glyph-name="aring" unicode="&#xe5;" horiz-adv-x="503" 
d="M403 0h-44q-1 41 14 143h-2q-78 -154 -202 -154q-62 0 -98 43.5t-36 109.5q0 86 40.5 165.5t116.5 131.5t168 52q61 0 112 -14l-48 -250q-27 -136 -21 -227zM389 277l32 167q-24 8 -69 8q-109 0 -189 -90t-81 -212q-1 -51 21 -86.5t76 -35.5q65 0 128 74.5t82 174.5z
M333 710h1q38 0 63 -25t25 -64q0 -38 -28 -63.5t-63 -25.5q-39 0 -64.5 25t-25.5 61q0 39 26.5 65.5t65.5 26.5zM332 680h-1q-22 0 -37 -17.5t-15 -43.5q0 -23 14.5 -40t36.5 -17q23 0 38.5 17.5t15.5 45.5q0 23 -14.5 39t-37.5 16z" />
    <glyph glyph-name="ae" unicode="&#xe6;" horiz-adv-x="691" 
d="M602 62l14 -34q-60 -39 -145 -39q-61 0 -102 31.5t-54 88.5h-2q-27 -57 -76.5 -88.5t-107.5 -31.5t-89.5 33.5t-32.5 83.5q0 90 84 140t232 43l4 23q9 53 -14.5 96t-85.5 43q-63 0 -120 -37l-14 34q67 43 139 43q60 0 95 -30.5t40 -86.5h2q31 58 82.5 87.5t106.5 29.5
q58 0 89.5 -30.5t31.5 -74.5q0 -38 -17.5 -64.5t-47.5 -40.5t-70.5 -22t-87.5 -8.5t-98 0.5q-18 -88 2 -144q28 -79 117 -79q67 0 125 34zM304 191l11 60q-43 3 -84.5 -2t-83.5 -19.5t-67.5 -45.5t-25.5 -75q0 -37 22 -59t60 -22q58 0 106 42.5t62 120.5zM633 384v1
q0 28 -21.5 47.5t-58.5 19.5q-68 0 -118 -51t-68 -112h81t73 5t59 15t39 29t14 46z" />
    <glyph glyph-name="ccedilla" unicode="&#xe7;" horiz-adv-x="416" 
d="M341 60l12 -36q-58 -29 -113 -32l-35 -46q23 -5 36.5 -22t13.5 -41q0 -35 -28 -58t-71 -23q-36 0 -57 15l15 35q20 -13 50 -13q20 0 34 11t14 30q0 33 -62 40l51 70q-82 3 -122.5 55t-40.5 123q0 80 35 153.5t101.5 121.5t146.5 48q32 0 62 -9t39 -17l-17 -38
q-42 22 -92 22q-99 0 -163.5 -85.5t-64.5 -189.5q0 -66 33 -105.5t101 -39.5q57 0 122 31z" />
    <glyph glyph-name="egrave" unicode="&#xe8;" horiz-adv-x="423" 
d="M336 64l14 -36q-59 -38 -146 -38q-85 0 -126.5 54t-41.5 133q0 72 32.5 144t92 121t127.5 49q61 0 92.5 -32t31.5 -78q0 -156 -325 -152q-5 -18 -3.5 -56t9.5 -62q30 -82 117 -82q70 0 126 35zM366 378v1q0 35 -23.5 54t-62.5 19q-62 0 -113.5 -54.5t-72.5 -130.5
q272 -4 272 111zM204 678h66l61 -138h-33z" />
    <glyph glyph-name="eacute" unicode="&#xe9;" horiz-adv-x="423" 
d="M336 64l14 -36q-59 -38 -146 -38q-85 0 -126.5 54t-41.5 133q0 72 32.5 144t92 121t127.5 49q61 0 92.5 -32t31.5 -78q0 -156 -325 -152q-5 -18 -3.5 -56t9.5 -62q30 -82 117 -82q70 0 126 35zM366 378v1q0 35 -23.5 54t-62.5 19q-62 0 -113.5 -54.5t-72.5 -130.5
q272 -4 272 111zM350 678h74l-135 -138h-40z" />
    <glyph glyph-name="ecircumflex" unicode="&#xea;" horiz-adv-x="423" 
d="M336 64l14 -36q-59 -38 -146 -38q-85 0 -126.5 54t-41.5 133q0 72 32.5 144t92 121t127.5 49q61 0 92.5 -32t31.5 -78q0 -156 -325 -152q-5 -18 -3.5 -56t9.5 -62q30 -82 117 -82q70 0 126 35zM366 378v1q0 35 -23.5 54t-62.5 19q-62 0 -113.5 -54.5t-72.5 -130.5
q272 -4 272 111zM300 678h35l65 -138h-43l-44 99h-2l-78 -99h-46z" />
    <glyph glyph-name="edieresis" unicode="&#xeb;" horiz-adv-x="423" 
d="M336 64l14 -36q-59 -38 -146 -38q-85 0 -126.5 54t-41.5 133q0 72 32.5 144t92 121t127.5 49q61 0 92.5 -32t31.5 -78q0 -156 -325 -152q-5 -18 -3.5 -56t9.5 -62q30 -82 117 -82q70 0 126 35zM366 378v1q0 35 -23.5 54t-62.5 19q-62 0 -113.5 -54.5t-72.5 -130.5
q272 -4 272 111zM221 580h-1q-16 0 -25.5 11t-9.5 27t11 28t27 12t26 -11t10 -27t-10.5 -28t-27.5 -12zM390 580h-1q-15 0 -24.5 11t-9.5 27t11 28t27 12t25.5 -11t9.5 -27t-10 -28t-28 -12z" />
    <glyph glyph-name="igrave" unicode="&#xec;" horiz-adv-x="206" 
d="M83 0h-45l92 480h45zM61 678h66l61 -138h-33z" />
    <glyph glyph-name="iacute" unicode="&#xed;" horiz-adv-x="206" 
d="M83 0h-45l92 480h45zM224 678h74l-135 -138h-40z" />
    <glyph glyph-name="icircumflex" unicode="&#xee;" horiz-adv-x="206" 
d="M83 0h-45l92 480h45zM161 678h35l65 -138h-43l-44 99h-2l-78 -99h-46z" />
    <glyph glyph-name="idieresis" unicode="&#xef;" horiz-adv-x="206" 
d="M83 0h-45l92 480h45zM85 580h-1q-16 0 -25.5 11t-9.5 27t11 28t27 12t26 -11t10 -27t-10.5 -28t-27.5 -12zM254 580h-1q-15 0 -24.5 11t-9.5 27t11 28t27 12t25.5 -11t9.5 -27t-10 -28t-28 -12z" />
    <glyph glyph-name="eth" unicode="&#xf0;" horiz-adv-x="491" 
d="M212 28h1q83 0 142 87t60 201q0 51 -20 80q-36 56 -107 56q-88 0 -146 -83.5t-58 -186.5q0 -66 33 -110t95 -44zM173 525l-14 32l131 62q-33 37 -92 70l23 32q43 -23 107 -82l125 60l16 -33l-114 -54q106 -120 106 -272q0 -157 -77.5 -254t-172.5 -97q-89 0 -131.5 56.5
t-42.5 132.5q0 125 74.5 219t178.5 94q82 0 121 -63h4q-31 95 -101 165z" />
    <glyph glyph-name="ntilde" unicode="&#xf1;" horiz-adv-x="516" 
d="M83 0h-45l66 351q11 52 21 129h42l-15 -103h2q32 53 80.5 83.5t104.5 30.5q19 0 37.5 -5.5t38 -19t32 -42t12.5 -67.5q0 -27 -9 -76l-53 -281h-45l54 285q7 47 7 66q0 100 -92 100q-56 0 -116.5 -58t-76.5 -147zM242 574h-34q3 35 20 59.5t45 24.5q7 0 13 -1t12.5 -3.5
t10.5 -4.5t12.5 -7t12.5 -7q25 -16 41 -16q12 0 18.5 9t9.5 32h33q-9 -80 -63 -80q-26 0 -57 21q-29 18 -44 18q-23 0 -30 -45z" />
    <glyph glyph-name="ograve" unicode="&#xf2;" horiz-adv-x="500" 
d="M217 -11h-1q-85 0 -131.5 57.5t-46.5 138.5q0 120 73.5 213t180.5 93q90 0 134 -59.5t44 -141.5q0 -68 -29.5 -136t-89.5 -116.5t-134 -48.5zM221 28h1q80 0 140.5 81.5t60.5 181.5q0 26 -6.5 52t-21 51.5t-42.5 41.5t-65 16q-85 0 -144 -80.5t-59 -182.5
q0 -70 37.5 -115.5t98.5 -45.5zM208 678h66l61 -138h-33z" />
    <glyph glyph-name="oacute" unicode="&#xf3;" horiz-adv-x="500" 
d="M217 -11h-1q-85 0 -131.5 57.5t-46.5 138.5q0 120 73.5 213t180.5 93q90 0 134 -59.5t44 -141.5q0 -68 -29.5 -136t-89.5 -116.5t-134 -48.5zM221 28h1q80 0 140.5 81.5t60.5 181.5q0 26 -6.5 52t-21 51.5t-42.5 41.5t-65 16q-85 0 -144 -80.5t-59 -182.5
q0 -70 37.5 -115.5t98.5 -45.5zM370 678h74l-135 -138h-40z" />
    <glyph glyph-name="ocircumflex" unicode="&#xf4;" horiz-adv-x="500" 
d="M217 -11h-1q-85 0 -131.5 57.5t-46.5 138.5q0 120 73.5 213t180.5 93q90 0 134 -59.5t44 -141.5q0 -68 -29.5 -136t-89.5 -116.5t-134 -48.5zM221 28h1q80 0 140.5 81.5t60.5 181.5q0 26 -6.5 52t-21 51.5t-42.5 41.5t-65 16q-85 0 -144 -80.5t-59 -182.5
q0 -70 37.5 -115.5t98.5 -45.5zM318 678h35l65 -138h-43l-44 99h-2l-78 -99h-46z" />
    <glyph glyph-name="otilde" unicode="&#xf5;" horiz-adv-x="500" 
d="M217 -11h-1q-85 0 -131.5 57.5t-46.5 138.5q0 120 73.5 213t180.5 93q90 0 134 -59.5t44 -141.5q0 -68 -29.5 -136t-89.5 -116.5t-134 -48.5zM221 28h1q80 0 140.5 81.5t60.5 181.5q0 26 -6.5 52t-21 51.5t-42.5 41.5t-65 16q-85 0 -144 -80.5t-59 -182.5
q0 -70 37.5 -115.5t98.5 -45.5zM226 574h-34q3 35 20 59.5t45 24.5q7 0 13 -1t12.5 -3.5t10.5 -4.5t12.5 -7t12.5 -7q25 -16 41 -16q12 0 18.5 9t9.5 32h33q-9 -80 -63 -80q-26 0 -57 21q-29 18 -44 18q-23 0 -30 -45z" />
    <glyph glyph-name="odieresis" unicode="&#xf6;" horiz-adv-x="500" 
d="M217 -11h-1q-85 0 -131.5 57.5t-46.5 138.5q0 120 73.5 213t180.5 93q90 0 134 -59.5t44 -141.5q0 -68 -29.5 -136t-89.5 -116.5t-134 -48.5zM221 28h1q80 0 140.5 81.5t60.5 181.5q0 26 -6.5 52t-21 51.5t-42.5 41.5t-65 16q-85 0 -144 -80.5t-59 -182.5
q0 -70 37.5 -115.5t98.5 -45.5zM241 580h-1q-16 0 -25.5 11t-9.5 27t11 28t27 12t26 -11t10 -27t-10.5 -28t-27.5 -12zM410 580h-1q-15 0 -24.5 11t-9.5 27t11 28t27 12t25.5 -11t9.5 -27t-10 -28t-28 -12z" />
    <glyph glyph-name="divide" unicode="&#xf7;" horiz-adv-x="596" 
d="M310 399h-1q-18 0 -29.5 13t-10.5 31q0 20 11.5 32.5t29.5 12.5q19 0 30 -12.5t11 -32.5q0 -19 -11.5 -31.5t-29.5 -12.5zM556 249h-493v38h493v-38zM310 48h-1q-18 0 -29.5 13t-10.5 31q0 20 11.5 32.5t29.5 12.5q19 0 30 -12.5t11 -32.5q0 -19 -11.5 -31.5t-29.5 -12.5
z" />
    <glyph glyph-name="oslash" unicode="&#xf8;" horiz-adv-x="501" 
d="M49 -27l-25 23l54 62q-40 50 -40 135q0 115 73.5 206.5t178.5 91.5q75 0 118 -40l50 55l26 -21l-52 -61q39 -55 39 -130q0 -119 -75 -212t-173 -93q-77 0 -123 44zM112 95l267 322q-32 35 -93 35q-86 0 -143.5 -80.5t-57.5 -176.5q0 -62 25 -101zM400 386l-271 -320
q35 -38 97 -38q74 0 136 79.5t62 180.5q0 52 -22 98h-2z" />
    <glyph glyph-name="ugrave" unicode="&#xf9;" horiz-adv-x="506" 
d="M428 480h45l-67 -351q-12 -66 -19 -129h-42l15 99h-2q-30 -49 -76.5 -79.5t-95.5 -30.5q-23 0 -43 5.5t-41 19.5t-33 44t-12 73q0 29 9 76l52 273h45l-52 -274q-9 -45 -9 -75q0 -101 94 -101q54 0 110.5 55t71.5 134zM206 678h66l61 -138h-33z" />
    <glyph glyph-name="uacute" unicode="&#xfa;" horiz-adv-x="506" 
d="M428 480h45l-67 -351q-12 -66 -19 -129h-42l15 99h-2q-30 -49 -76.5 -79.5t-95.5 -30.5q-23 0 -43 5.5t-41 19.5t-33 44t-12 73q0 29 9 76l52 273h45l-52 -274q-9 -45 -9 -75q0 -101 94 -101q54 0 110.5 55t71.5 134zM361 678h74l-135 -138h-40z" />
    <glyph glyph-name="ucircumflex" unicode="&#xfb;" horiz-adv-x="506" 
d="M428 480h45l-67 -351q-12 -66 -19 -129h-42l15 99h-2q-30 -49 -76.5 -79.5t-95.5 -30.5q-23 0 -43 5.5t-41 19.5t-33 44t-12 73q0 29 9 76l52 273h45l-52 -274q-9 -45 -9 -75q0 -101 94 -101q54 0 110.5 55t71.5 134zM318 678h35l65 -138h-43l-44 99h-2l-78 -99h-46z" />
    <glyph glyph-name="udieresis" unicode="&#xfc;" horiz-adv-x="506" 
d="M428 480h45l-67 -351q-12 -66 -19 -129h-42l15 99h-2q-30 -49 -76.5 -79.5t-95.5 -30.5q-23 0 -43 5.5t-41 19.5t-33 44t-12 73q0 29 9 76l52 273h45l-52 -274q-9 -45 -9 -75q0 -101 94 -101q54 0 110.5 55t71.5 134zM237 580h-1q-16 0 -25.5 11t-9.5 27t11 28t27 12
t26 -11t10 -27t-10.5 -28t-27.5 -12zM406 580h-1q-15 0 -24.5 11t-9.5 27t11 28t27 12t25.5 -11t9.5 -27t-10 -28t-28 -12z" />
    <glyph glyph-name="yacute" unicode="&#xfd;" horiz-adv-x="406" 
d="M50 480h47l59 -289q18 -88 25 -134h3l56 121l146 302h48l-186 -378q-41 -83 -74.5 -138.5t-78.5 -100.5q-65 -67 -131 -83l-13 39q53 18 92 51q59 48 103 128q4 9 2 21zM314 678h74l-135 -138h-40z" />
    <glyph glyph-name="thorn" unicode="&#xfe;" horiz-adv-x="503" 
d="M-9 -198l164 863h45l-56 -288h2q75 114 183 114q72 0 108 -48.5t36 -120.5q0 -131 -85.5 -232t-198.5 -101q-71 0 -110 23h-4l-39 -210h-45zM114 213l-30 -157q35 -28 110 -28q92 0 162 90.5t70 199.5q0 54 -26 94t-82 40q-60 0 -121 -63t-83 -176z" />
    <glyph glyph-name="ydieresis" unicode="&#xff;" horiz-adv-x="406" 
d="M50 480h47l59 -289q18 -88 25 -134h3l56 121l146 302h48l-186 -378q-41 -83 -74.5 -138.5t-78.5 -100.5q-65 -67 -131 -83l-13 39q53 18 92 51q59 48 103 128q4 9 2 21zM184 580h-1q-16 0 -25.5 11t-9.5 27t11 28t27 12t26 -11t10 -27t-10.5 -28t-27.5 -12zM353 580h-1
q-15 0 -24.5 11t-9.5 27t11 28t27 12t25.5 -11t9.5 -27t-10 -28t-28 -12z" />
    <glyph glyph-name="Amacron" unicode="&#x100;" horiz-adv-x="537" 
d="M401 237h-256l-125 -237h-46l360 674h45l102 -674h-44zM167 276h228l-34 225q-10 68 -14 119h-2l-24 -52t-32 -65zM261 772h217l-7 -39h-217z" />
    <glyph glyph-name="amacron" unicode="&#x101;" horiz-adv-x="503" 
d="M403 0h-44q-1 41 14 143h-2q-78 -154 -202 -154q-62 0 -98 43.5t-36 109.5q0 86 40.5 165.5t116.5 131.5t168 52q61 0 112 -14l-48 -250q-27 -136 -21 -227zM389 277l32 167q-24 8 -69 8q-109 0 -189 -90t-81 -212q-1 -51 21 -86.5t76 -35.5q65 0 128 74.5t82 174.5z
M232 635h202l-7 -38h-202z" />
    <glyph glyph-name="Abreve" unicode="&#x102;" horiz-adv-x="537" 
d="M401 237h-256l-125 -237h-46l360 674h45l102 -674h-44zM167 276h228l-34 225q-10 68 -14 119h-2l-24 -52t-32 -65zM265 815h35q-1 -24 14.5 -40t51.5 -16q65 0 81 56h38q-7 -40 -38.5 -67.5t-81.5 -27.5q-56 0 -81 27.5t-19 67.5z" />
    <glyph glyph-name="abreve" unicode="&#x103;" horiz-adv-x="503" 
d="M403 0h-44q-1 41 14 143h-2q-78 -154 -202 -154q-62 0 -98 43.5t-36 109.5q0 86 40.5 165.5t116.5 131.5t168 52q61 0 112 -14l-48 -250q-27 -136 -21 -227zM389 277l32 167q-24 8 -69 8q-109 0 -189 -90t-81 -212q-1 -51 21 -86.5t76 -35.5q65 0 128 74.5t82 174.5z
M228 678h36q-3 -32 13.5 -53.5t46.5 -21.5q36 0 58 22t31 53h38q-9 -51 -44.5 -82.5t-80.5 -31.5q-60 0 -82.5 34t-15.5 80z" />
    <glyph glyph-name="Aogonek" unicode="&#x104;" horiz-adv-x="537" 
d="M379 674l103 -674h-10q-64 -69 -64 -121q0 -18 10.5 -29t27.5 -11q22 0 41 11l10 -28q-24 -20 -66 -20q-32 0 -50.5 19.5t-18.5 50.5q0 10 2.5 20.5t6.5 20t10 20.5t11 18.5t13 17.5l12 15t11 13t8 9l-34 231h-257l-124 -237h-46l360 674h44zM168 276h228l-35 225
q-11 93 -13 119h-3q-39 -85 -56 -117z" />
    <glyph glyph-name="aogonek" unicode="&#x105;" horiz-adv-x="503" 
d="M472 477l-48 -250q-27 -136 -21 -227h-7q-65 -70 -65 -121q0 -18 10.5 -29t27.5 -11q21 0 42 11l9 -28q-22 -20 -66 -20q-32 0 -50.5 19.5t-18.5 50.5q0 10 2.5 20.5t6.5 20t10 20.5t11 18.5t13 17.5l12 15t11 13t8 9q0 39 14 137h-2q-78 -154 -202 -154q-62 0 -98 43.5
t-36 110.5q0 86 40.5 165t116.5 131t168 52q61 0 112 -14zM389 277l32 167q-24 8 -69 8q-109 0 -189 -90t-81 -212q-1 -51 21 -86.5t76 -35.5q65 0 128 74.5t82 174.5z" />
    <glyph glyph-name="Cacute" unicode="&#x106;" horiz-adv-x="538" 
d="M470 62l10 -38q-74 -34 -173 -34q-122 0 -190.5 74t-68.5 202q0 87 33 172t95 144q108 102 258 102q52 0 92 -11t53 -24l-19 -35q-48 31 -138 31q-125 0 -217 -90q-51 -50 -80.5 -125.5t-29.5 -155.5q0 -51 11 -93t35.5 -77t69 -55t105.5 -20q94 0 154 33zM472 828h77
l-140 -113h-44z" />
    <glyph glyph-name="cacute" unicode="&#x107;" horiz-adv-x="416" 
d="M341 60l13 -38q-61 -32 -142 -32q-88 0 -131 52t-43 126q0 125 81.5 224t201.5 99q32 0 62 -9t39 -17l-16 -38q-42 22 -92 22q-67 0 -120.5 -42t-81 -104.5t-27.5 -127.5q0 -67 33.5 -106.5t101.5 -39.5q64 0 121 31zM351 678h74l-135 -138h-40z" />
    <glyph glyph-name="Ccircumflex" unicode="&#x108;" horiz-adv-x="538" 
d="M470 62l10 -38q-74 -34 -173 -34q-122 0 -190.5 74t-68.5 202q0 87 33 172t95 144q108 102 258 102q52 0 92 -11t53 -24l-19 -35q-48 31 -138 31q-125 0 -217 -90q-51 -50 -80.5 -125.5t-29.5 -155.5q0 -51 11 -93t35.5 -77t69 -55t105.5 -20q94 0 154 33zM408 823h37
l80 -113h-47l-55 79h-2l-81 -79h-51z" />
    <glyph glyph-name="ccircumflex" unicode="&#x109;" horiz-adv-x="416" 
d="M341 60l13 -38q-61 -32 -142 -32q-88 0 -131 52t-43 126q0 125 81.5 224t201.5 99q32 0 62 -9t39 -17l-16 -38q-42 22 -92 22q-67 0 -120.5 -42t-81 -104.5t-27.5 -127.5q0 -67 33.5 -106.5t101.5 -39.5q64 0 121 31zM296 678h35l65 -138h-43l-44 99h-2l-78 -99h-46z" />
    <glyph glyph-name="Cdotaccent" unicode="&#x10a;" horiz-adv-x="538" 
d="M470 62l10 -38q-74 -34 -173 -34q-122 0 -190.5 74t-68.5 202q0 87 33 172t95 144q108 102 258 102q52 0 92 -11t53 -24l-19 -35q-48 31 -138 31q-125 0 -217 -90q-51 -50 -80.5 -125.5t-29.5 -155.5q0 -51 11 -93t35.5 -77t69 -55t105.5 -20q94 0 154 33zM426 726h-1
q-15 0 -25 12t-10 27t11.5 27.5t27.5 12.5t26 -12t10 -27t-11 -27.5t-28 -12.5z" />
    <glyph glyph-name="cdotaccent" unicode="&#x10b;" horiz-adv-x="416" 
d="M341 60l13 -38q-61 -32 -142 -32q-88 0 -131 52t-43 126q0 125 81.5 224t201.5 99q32 0 62 -9t39 -17l-16 -38q-42 22 -92 22q-67 0 -120.5 -42t-81 -104.5t-27.5 -127.5q0 -67 33.5 -106.5t101.5 -39.5q64 0 121 31zM320 580h-1q-15 0 -24.5 11t-9.5 27t11 28t27 12
t25.5 -11t9.5 -27q0 -17 -10 -28.5t-28 -11.5z" />
    <glyph glyph-name="Ccaron" unicode="&#x10c;" horiz-adv-x="538" 
d="M470 62l10 -38q-74 -34 -173 -34q-122 0 -190.5 74t-68.5 202q0 87 33 172t95 144q108 102 258 102q52 0 92 -11t53 -24l-19 -35q-48 31 -138 31q-125 0 -217 -90q-51 -50 -80.5 -125.5t-29.5 -155.5q0 -51 11 -93t35.5 -77t69 -55t105.5 -20q94 0 154 33zM429 715h-37
l-80 112h50l51 -77h4l80 77h51z" />
    <glyph glyph-name="ccaron" unicode="&#x10d;" horiz-adv-x="416" 
d="M341 60l13 -38q-61 -32 -142 -32q-88 0 -131 52t-43 126q0 125 81.5 224t201.5 99q32 0 62 -9t39 -17l-16 -38q-42 22 -92 22q-67 0 -120.5 -42t-81 -104.5t-27.5 -127.5q0 -67 33.5 -106.5t101.5 -39.5q64 0 121 31zM317 540h-36l-66 138h43l45 -100h3l79 100h46z" />
    <glyph glyph-name="Dcaron" unicode="&#x10e;" horiz-adv-x="626" 
d="M39 2l126 664q78 13 156 13q178 0 249 -100q47 -62 48 -166q0 -91 -34.5 -178t-99.5 -144q-112 -96 -295 -96q-92 0 -150 7zM203 633l-112 -594q38 -5 102 -5q173 0 272 97q51 50 78 123.5t27 153.5q0 233 -256 233q-71 0 -111 -8zM386 710h-37l-80 112h50l51 -77h4
l80 77h51z" />
    <glyph glyph-name="dcaron" unicode="&#x10f;" horiz-adv-x="513" 
d="M471 710h45l-111 -579q-15 -93 -18 -131h-42l17 106h-2q-74 -117 -183 -117q-70 0 -105.5 49.5t-35.5 121.5q0 132 86.5 231.5t207.5 99.5q61 0 97 -19zM382 237l36 192q-35 23 -93 23q-99 0 -170.5 -87t-71.5 -201q0 -136 106 -136q59 0 118 61.5t75 147.5zM530 546
l-8 26q59 21 59 76q0 34 -26 54l41 11q11 -7 20 -24t9 -36q0 -46 -29 -73.5t-66 -33.5z" />
    <glyph glyph-name="Dcroat" unicode="&#x110;" horiz-adv-x="629" 
d="M16 336l9 39h88l55 291q86 13 163 13q81 0 144.5 -26.5t97.5 -73.5q47 -62 48 -164q0 -88 -37 -176t-103 -145q-112 -97 -289 -97q-92 0 -150 7l63 332h-89zM346 375l-8 -39h-188l-56 -295q38 -5 107 -5q161 0 261 97q53 50 82 125t29 154q0 229 -256 229q-74 0 -110 -6
l-49 -260h188z" />
    <glyph glyph-name="dcroat" unicode="&#x111;" horiz-adv-x="503" 
d="M382 237l36 192q-34 23 -92 23q-100 0 -171.5 -87t-71.5 -201q0 -136 106 -136q59 0 117.5 61.5t75.5 147.5zM250 595h200l21 115h45l-22 -115h82l-7 -37h-82l-81 -427q-15 -83 -19 -131h-42l17 106h-2q-74 -117 -183 -117q-70 0 -105.5 49.5t-35.5 121.5
q0 132 86.5 231.5t207.5 99.5q61 0 97 -19l16 86h-200z" />
    <glyph glyph-name="Emacron" unicode="&#x112;" horiz-adv-x="441" 
d="M404 375l-8 -39h-248l-56 -297h280l-8 -39h-325l129 674h309l-8 -39h-264l-49 -260h248zM225 772h217l-7 -39h-217z" />
    <glyph glyph-name="emacron" unicode="&#x113;" horiz-adv-x="423" 
d="M336 64l14 -36q-59 -38 -146 -38q-85 0 -126.5 54t-41.5 133q0 72 32.5 144t92 121t127.5 49q61 0 92.5 -32t31.5 -78q0 -156 -325 -152q-5 -18 -3.5 -56t9.5 -62q30 -82 117 -82q70 0 126 35zM366 378v1q0 35 -23.5 54t-62.5 19q-62 0 -113.5 -54.5t-72.5 -130.5
q272 -4 272 111zM192 635h202l-7 -38h-202z" />
    <glyph glyph-name="Ebreve" unicode="&#x114;" horiz-adv-x="441" 
d="M404 375l-8 -39h-248l-56 -297h280l-8 -39h-325l129 674h309l-8 -39h-264l-49 -260h248zM227 824h35q-1 -24 14.5 -40t51.5 -16q65 0 81 56h38q-7 -40 -38.5 -67.5t-81.5 -27.5q-56 0 -81 27.5t-19 67.5z" />
    <glyph glyph-name="ebreve" unicode="&#x115;" horiz-adv-x="423" 
d="M336 64l14 -36q-59 -38 -146 -38q-85 0 -126.5 54t-41.5 133q0 72 32.5 144t92 121t127.5 49q61 0 92.5 -32t31.5 -78q0 -156 -325 -152q-5 -18 -3.5 -56t9.5 -62q30 -82 117 -82q70 0 126 35zM366 378v1q0 35 -23.5 54t-62.5 19q-62 0 -113.5 -54.5t-72.5 -130.5
q272 -4 272 111zM188 678h36q-3 -32 13.5 -53.5t46.5 -21.5q36 0 58 22t31 53h38q-9 -51 -44.5 -82.5t-80.5 -31.5q-60 0 -82.5 34t-15.5 80z" />
    <glyph glyph-name="Edotaccent" unicode="&#x116;" horiz-adv-x="441" 
d="M404 375l-8 -39h-248l-56 -297h280l-8 -39h-325l129 674h309l-8 -39h-264l-49 -260h248zM330 726h-1q-15 0 -25 12t-10 27t11.5 27.5t27.5 12.5t26 -12t10 -27t-11 -27.5t-28 -12.5z" />
    <glyph glyph-name="edotaccent" unicode="&#x117;" horiz-adv-x="423" 
d="M336 64l14 -36q-59 -38 -146 -38q-85 0 -126.5 54t-41.5 133q0 72 32.5 144t92 121t127.5 49q61 0 92.5 -32t31.5 -78q0 -156 -325 -152q-5 -18 -3.5 -56t9.5 -62q30 -82 117 -82q70 0 126 35zM366 378v1q0 35 -23.5 54t-62.5 19q-62 0 -113.5 -54.5t-72.5 -130.5
q272 -4 272 111zM300 580h-1q-15 0 -24.5 11t-9.5 27t11 28t27 12t25.5 -11t9.5 -27q0 -17 -10 -28.5t-28 -11.5z" />
    <glyph glyph-name="Eogonek" unicode="&#x118;" horiz-adv-x="441" 
d="M39 0l128 674h310l-8 -39h-264l-50 -260h249l-8 -39h-249l-56 -297h281l-8 -39h-15q-38 -24 -66.5 -60.5t-28.5 -67.5q0 -35 34 -35q24 0 44 10l10 -29q-30 -18 -67 -18q-30 0 -48.5 17.5t-18.5 45.5q0 41 30 77.5t64 59.5h-263z" />
    <glyph glyph-name="eogonek" unicode="&#x119;" horiz-adv-x="423" 
d="M366 378v1q0 35 -23.5 54t-62.5 19q-62 0 -113.5 -54.5t-72.5 -130.5q272 -4 272 111zM292 -139l5 -31q-29 -14 -64 -14q-31 0 -48.5 18.5t-17.5 47.5q0 60 70 109v1q-22 -2 -33 -2q-85 0 -126.5 54t-41.5 133q0 72 32.5 144t92 121t127.5 49q61 0 92.5 -32t31.5 -78
q0 -156 -325 -152q-5 -18 -3.5 -56t9.5 -62q30 -82 117 -82q70 0 126 35l14 -36q-3 -2 -23 -12q-44 -22 -79 -54.5t-35 -69.5q0 -40 35 -40q22 0 44 9z" />
    <glyph glyph-name="Ecaron" unicode="&#x11a;" horiz-adv-x="441" 
d="M404 375l-8 -39h-248l-56 -297h280l-8 -39h-325l129 674h309l-8 -39h-264l-49 -260h248zM336 710h-37l-80 112h50l51 -77h4l80 77h51z" />
    <glyph glyph-name="ecaron" unicode="&#x11b;" horiz-adv-x="423" 
d="M336 64l14 -36q-59 -38 -146 -38q-85 0 -126.5 54t-41.5 133q0 72 32.5 144t92 121t127.5 49q61 0 92.5 -32t31.5 -78q0 -156 -325 -152q-5 -18 -3.5 -56t9.5 -62q30 -82 117 -82q70 0 126 35zM366 378v1q0 35 -23.5 54t-62.5 19q-62 0 -113.5 -54.5t-72.5 -130.5
q272 -4 272 111zM292 540h-36l-66 138h43l45 -100h3l79 100h46z" />
    <glyph glyph-name="Gcircumflex" unicode="&#x11c;" horiz-adv-x="592" 
d="M554 333l-57 -306q-75 -34 -172 -34q-147 0 -218 90q-58 72 -58 190q0 81 33 165t95 142q110 101 265 101q99 0 147 -31l-17 -38q-55 30 -141 30q-133 0 -232 -99q-48 -49 -75.5 -122t-27.5 -143q0 -114 57.5 -180t183.5 -66q69 0 120 23l45 239h-156l7 39h201zM420 823
h37l80 -113h-47l-55 79h-2l-81 -79h-51z" />
    <glyph glyph-name="gcircumflex" unicode="&#x11d;" horiz-adv-x="503" 
d="M8 -173l17 38q50 -35 128 -35q71 0 119.5 45.5t72.5 152.5l20 92h-3q-67 -122 -185 -122q-68 0 -105 49t-37 115q0 83 37.5 158.5t106 123t151.5 47.5q34 0 74.5 -10t64.5 -23l-74 -398q-30 -158 -95 -216q-57 -53 -156 -53q-88 0 -136 36zM384 251l35 180q-42 21 -98 21
q-102 0 -170 -86.5t-69 -194.5q-1 -33 6.5 -60.5t33.5 -50.5t69 -23q62 0 120 67.5t73 146.5zM319 678h35l65 -138h-43l-44 99h-2l-78 -99h-46z" />
    <glyph glyph-name="Gbreve" unicode="&#x11e;" horiz-adv-x="592" 
d="M554 333l-57 -306q-75 -34 -172 -34q-147 0 -218 90q-58 72 -58 190q0 81 33 165t95 142q110 101 265 101q99 0 147 -31l-17 -38q-55 30 -141 30q-133 0 -232 -99q-48 -49 -75.5 -122t-27.5 -143q0 -114 57.5 -180t183.5 -66q69 0 120 23l45 239h-156l7 39h201zM312 823
h35q-1 -24 14.5 -40t51.5 -16q65 0 81 56h38q-7 -40 -38.5 -67.5t-81.5 -27.5q-56 0 -81 27.5t-19 67.5z" />
    <glyph glyph-name="gbreve" unicode="&#x11f;" horiz-adv-x="503" 
d="M8 -173l17 38q50 -35 128 -35q71 0 119.5 45.5t72.5 152.5l20 92h-3q-67 -122 -185 -122q-68 0 -105 49t-37 115q0 83 37.5 158.5t106 123t151.5 47.5q34 0 74.5 -10t64.5 -23l-74 -398q-30 -158 -95 -216q-57 -53 -156 -53q-88 0 -136 36zM384 251l35 180q-42 21 -98 21
q-102 0 -170 -86.5t-69 -194.5q-1 -33 6.5 -60.5t33.5 -50.5t69 -23q62 0 120 67.5t73 146.5zM228 678h36q-3 -32 13.5 -53.5t46.5 -21.5q36 0 58 22t31 53h38q-9 -51 -44.5 -82.5t-80.5 -31.5q-60 0 -82.5 34t-15.5 80z" />
    <glyph glyph-name="Gdotaccent" unicode="&#x120;" horiz-adv-x="592" 
d="M554 333l-57 -306q-75 -34 -172 -34q-147 0 -218 90q-58 72 -58 190q0 81 33 165t95 142q110 101 265 101q99 0 147 -31l-17 -38q-55 30 -141 30q-133 0 -232 -99q-48 -49 -75.5 -122t-27.5 -143q0 -114 57.5 -180t183.5 -66q69 0 120 23l45 239h-156l7 39h201zM430 726
h-1q-15 0 -25 12t-10 27t11.5 27.5t27.5 12.5t26 -12t10 -27t-11 -27.5t-28 -12.5z" />
    <glyph glyph-name="gdotaccent" unicode="&#x121;" horiz-adv-x="503" 
d="M8 -173l17 38q50 -35 128 -35q71 0 119.5 45.5t72.5 152.5l20 92h-3q-67 -122 -185 -122q-68 0 -105 49t-37 115q0 83 37.5 158.5t106 123t151.5 47.5q34 0 74.5 -10t64.5 -23l-74 -398q-30 -158 -95 -216q-57 -53 -156 -53q-88 0 -136 36zM384 251l35 180q-42 21 -98 21
q-102 0 -170 -86.5t-69 -194.5q-1 -33 6.5 -60.5t33.5 -50.5t69 -23q62 0 120 67.5t73 146.5zM325 580h-1q-15 0 -24.5 11t-9.5 27t11 28t27 12t25.5 -11t9.5 -27q0 -17 -10 -28.5t-28 -11.5z" />
    <glyph glyph-name="Gcommaaccent" unicode="&#x122;" horiz-adv-x="592" 
d="M554 333l-57 -306q-75 -34 -172 -34q-147 0 -218 90q-58 72 -58 190q0 81 33 165t95 142q110 101 265 101q99 0 147 -31l-17 -38q-55 30 -141 30q-133 0 -232 -99q-48 -49 -75.5 -122t-27.5 -143q0 -114 57.5 -180t183.5 -66q69 0 120 23l45 239h-156l7 39h201zM170 -209
l-8 27q39 6 66.5 25.5t27.5 53.5q0 31 -26 50l41 11q29 -19 29 -56q0 -48 -38 -76t-92 -35z" />
    <glyph glyph-name="gcommaaccent" unicode="&#x123;" horiz-adv-x="503" 
d="M8 -173l17 38q50 -35 128 -35q71 0 119.5 45.5t72.5 152.5l20 92h-3q-67 -122 -185 -122q-68 0 -105 49t-37 115q0 83 37.5 158.5t106 123t151.5 47.5q34 0 74.5 -10t64.5 -23l-74 -398q-30 -158 -94 -216q-58 -53 -157 -53q-88 0 -136 36zM384 251l35 180q-42 21 -98 21
q-102 0 -170 -86.5t-69 -194.5q-1 -33 6.5 -60.5t33.5 -50.5t69 -23q63 0 120.5 67.5t72.5 146.5zM405 698l8 -27q-39 -6 -66.5 -25.5t-27.5 -53.5q0 -30 26 -50l-40 -11q-29 19 -29 56q0 48 38 76t91 35z" />
    <glyph glyph-name="Hcircumflex" unicode="&#x124;" horiz-adv-x="603" 
d="M167 674h46l-58 -297h351l57 297h45l-129 -674h-45l64 338h-350l-64 -338h-45zM395 823h37l80 -113h-47l-55 79h-2l-81 -79h-51z" />
    <glyph glyph-name="hcircumflex" unicode="&#x125;" horiz-adv-x="516" 
d="M83 0h-45l135 710h46l-65 -329h2q70 110 184 110q43 0 80.5 -29.5t37.5 -98.5q0 -38 -7 -78l-54 -285h-45l54 287q7 28 7 70t-22.5 68t-68.5 26q-58 0 -117.5 -57.5t-74.5 -139.5zM193 846h37l80 -113h-47l-55 79h-2l-81 -79h-51z" />
    <glyph glyph-name="Hbar" unicode="&#x126;" horiz-adv-x="603" 
d="M526 485h-350l-22 -114h350zM69 521h70l29 153h45l-29 -153h350l29 153h45l-29 -153h61l-7 -36h-61l-93 -485h-45l63 332h-351l-62 -332h-45l93 485h-70z" />
    <glyph glyph-name="hbar" unicode="&#x127;" horiz-adv-x="516" 
d="M67 596h85l21 114h46l-23 -114h198l-7 -36h-197l-36 -179h2q70 110 184 110q43 0 80.5 -29.5t37.5 -98.5q0 -38 -7 -78l-54 -285h-45l54 287q7 28 7 70t-22.5 68t-68.5 26q-58 0 -117.5 -57.5t-74.5 -139.5l-47 -254h-45l107 560h-85z" />
    <glyph glyph-name="Itilde" unicode="&#x128;" horiz-adv-x="208" 
d="M168 674h45l-129 -674h-45zM119 716h-32q6 35 25.5 60t45.5 25q28 0 59 -21q26 -17 46 -17q23 0 34 38h32q-15 -80 -72 -80q-24 0 -58 20q-32 19 -44 18q-24 -1 -36 -43z" />
    <glyph glyph-name="itilde" unicode="&#x129;" horiz-adv-x="206" 
d="M83 0h-45l92 480h45zM97 574h-34q3 35 20 59.5t45 24.5q7 0 13 -1t12.5 -3.5t10.5 -4.5t12.5 -7t12.5 -7q25 -16 41 -16q12 0 18.5 9t9.5 32h33q-9 -80 -63 -80q-26 0 -57 21q-29 18 -44 18q-23 0 -30 -45z" />
    <glyph glyph-name="Imacron" unicode="&#x12a;" horiz-adv-x="208" 
d="M168 674h45l-129 -674h-45zM101 772h217l-7 -39h-217z" />
    <glyph glyph-name="imacron" unicode="&#x12b;" horiz-adv-x="206" 
d="M83 0h-45l92 480h45zM84 635h202l-7 -38h-202z" />
    <glyph glyph-name="Ibreve" unicode="&#x12c;" horiz-adv-x="208" 
d="M168 674h45l-129 -674h-45zM109 825h35q-1 -24 14.5 -40t51.5 -16q65 0 81 56h38q-7 -40 -38.5 -67.5t-81.5 -27.5q-56 0 -81 27.5t-19 67.5z" />
    <glyph glyph-name="ibreve" unicode="&#x12d;" horiz-adv-x="206" 
d="M83 0h-45l92 480h45zM80 678h36q-3 -32 13.5 -53.5t46.5 -21.5q36 0 58 22t31 53h38q-9 -51 -44.5 -82.5t-80.5 -31.5q-60 0 -82.5 34t-15.5 80z" />
    <glyph glyph-name="Iogonek" unicode="&#x12e;" horiz-adv-x="208" 
d="M213 674l-129 -674h-8q-64 -69 -64 -121q0 -18 10.5 -29t27.5 -11q22 0 41 11l10 -28q-24 -20 -66 -20q-32 0 -50.5 19.5t-18.5 50.5q0 10 2.5 20.5t6.5 20t10 20.5t11 18.5t13 17.5l12 15t11 13t8 9l127 668h46z" />
    <glyph glyph-name="iogonek" unicode="&#x12f;" horiz-adv-x="206" 
d="M176 583h-1q-15 0 -25 12t-9 29t12 29t26 12q16 0 26 -12t10 -29q-2 -17 -12 -29t-27 -12zM175 480l-92 -480h-8q-64 -69 -64 -121q0 -18 10.5 -29t27.5 -11q22 0 41 11l10 -28q-24 -20 -66 -20q-32 0 -50.5 19.5t-18.5 50.5q0 10 2.5 20.5t6.5 20t10 20.5t11 18.5
t13 17.5l12 15t11 13t8 9l91 474h45z" />
    <glyph glyph-name="Idotaccent" unicode="&#x130;" horiz-adv-x="208" 
d="M168 674h45l-129 -674h-45zM206 726h-1q-15 0 -25 12t-10 27t11.5 27.5t27.5 12.5t26 -12t10 -27t-11 -27.5t-28 -12.5z" />
    <glyph glyph-name="dotlessi" unicode="&#x131;" horiz-adv-x="206" 
d="M83 0h-45l92 480h45z" />
    <glyph glyph-name="IJ" unicode="&#x132;" horiz-adv-x="550" 
d="M168 674h45l-129 -674h-45zM428 203l89 471h45l-90 -475q-21 -111 -68.5 -160.5t-130.5 -49.5q-61 0 -93 18l12 39q32 -16 87 -16q60 0 95.5 39t53.5 134z" />
    <glyph glyph-name="ij" unicode="&#x133;" horiz-adv-x="403" 
d="M83 0h-45l92 480h45zM176 577h-1q-15 0 -24 11.5t-9 28.5q1 17 11.5 29t26.5 12t25.5 -11.5t9.5 -29.5q-2 -17 -12 -28.5t-27 -11.5zM335 480h45l-93 -487q-23 -119 -58 -158q-39 -44 -97 -44q-31 0 -46 5l6 38q16 -4 42 -4q38 0 63.5 31t39.5 108zM377 577h-1
q-15 0 -24 11.5t-9 28.5q1 17 11.5 29t26.5 12t25.5 -11.5t9.5 -29.5q-2 -17 -12 -28.5t-27 -11.5z" />
    <glyph glyph-name="Jcircumflex" unicode="&#x134;" horiz-adv-x="342" 
d="M220 203l89 471h45l-90 -475q-21 -111 -68.5 -160.5t-130.5 -49.5q-62 0 -93 18l12 39q32 -16 87 -16q60 0 95.5 39t53.5 134zM340 823h37l80 -113h-47l-55 79h-2l-81 -79h-51z" />
    <glyph glyph-name="jcircumflex" unicode="&#x135;" horiz-adv-x="197" 
d="M128 480h45l-93 -487q-22 -118 -57 -158q-39 -44 -98 -44q-31 0 -46 5l6 38q16 -4 42 -4q38 0 63.5 31t40.5 108zM165 678h35l65 -138h-43l-44 99h-2l-77 -99h-46z" />
    <glyph glyph-name="Kcommaaccent" unicode="&#x136;" horiz-adv-x="469" 
d="M39 0l129 674h45l-66 -344l5 1q25 28 71 74l268 269h57l-290 -289l183 -385h-49l-169 354l-86 -79l-53 -275h-45zM93 -209l-8 27q39 6 66.5 25.5t27.5 53.5q0 31 -26 50l41 11q29 -19 29 -56q0 -48 -38 -76t-92 -35z" />
    <glyph glyph-name="kcommaaccent" unicode="&#x137;" horiz-adv-x="411" 
d="M83 0h-45l135 710h45l-87 -458h2q13 14 46 45l198 183h56l-213 -197l150 -283h-49l-135 256l-66 -56zM64 -209l-8 27q39 6 66.5 25.5t27.5 53.5q0 31 -26 50l41 11q29 -19 29 -56q0 -48 -38 -76t-92 -35z" />
    <glyph glyph-name="kgreenlandic" unicode="&#x138;" horiz-adv-x="411" 
d="M83 0h-45l91 480h45l-43 -228h2q13 14 46 45l198 183h56l-213 -197l150 -283h-49l-135 256l-66 -56z" />
    <glyph glyph-name="Lacute" unicode="&#x139;" horiz-adv-x="414" 
d="M39 0l129 674h45l-122 -635h280l-8 -39h-324zM287 823h77l-140 -113h-44z" />
    <glyph glyph-name="lacute" unicode="&#x13a;" horiz-adv-x="206" 
d="M83 0h-45l136 710h45zM270 853h77l-140 -113h-44z" />
    <glyph glyph-name="Lcommaaccent" unicode="&#x13b;" horiz-adv-x="414" 
d="M39 0l129 674h45l-122 -635h280l-8 -39h-324zM85 -209l-8 27q39 6 66.5 25.5t27.5 53.5q0 31 -26 50l41 11q29 -19 29 -56q0 -48 -38 -76t-92 -35z" />
    <glyph glyph-name="lcommaaccent" unicode="&#x13c;" horiz-adv-x="206" 
d="M83 0h-45l136 710h45zM-38 -209l-8 27q39 6 66.5 25.5t27.5 53.5q0 31 -26 50l41 11q29 -19 29 -56q0 -48 -38 -76t-92 -35z" />
    <glyph glyph-name="Lcaron" unicode="&#x13d;" horiz-adv-x="414" 
d="M39 0l129 674h45l-122 -635h280l-8 -39h-324zM261 511l-8 27q39 6 66.5 25.5t27.5 53.5q0 31 -26 50l41 11q29 -19 29 -56q0 -48 -38 -76t-92 -35z" />
    <glyph glyph-name="lcaron" unicode="&#x13e;" horiz-adv-x="214" 
d="M83 0h-45l135 710h46zM231 546l-8 26q59 21 59 76q0 34 -26 54l41 11q11 -7 20 -24t9 -36q0 -46 -29 -73.5t-66 -33.5z" />
    <glyph glyph-name="Ldot" unicode="&#x13f;" horiz-adv-x="414" 
d="M39 0l129 674h45l-122 -635h280l-8 -39h-324zM306 320h-1q-15 0 -25 12t-10 27t11.5 27.5t27.5 12.5t26 -12t10 -27t-11 -27.5t-28 -12.5z" />
    <glyph glyph-name="ldot" unicode="&#x140;" horiz-adv-x="209" 
d="M83 0h-45l136 710h45zM233 330h-1q-15 0 -24.5 11t-9.5 27t11 28t27 12t25.5 -11t9.5 -27q0 -17 -10 -28.5t-28 -11.5z" />
    <glyph glyph-name="Lslash" unicode="&#x141;" horiz-adv-x="417" 
d="M365 0h-323l55 291l-102 -68l9 44l101 67l65 340h45l-58 -305l144 97l-9 -45l-144 -97l-54 -285h279z" />
    <glyph glyph-name="lslash" unicode="&#x142;" horiz-adv-x="212" 
d="M87 0h-45l60 318l-77 -55l8 42l77 56l67 349h45l-59 -312l78 57l-8 -43l-78 -57z" />
    <glyph glyph-name="Nacute" unicode="&#x143;" horiz-adv-x="611" 
d="M83 0h-44l128 674h43l195 -458q35 -79 57 -162l2 1q5 77 27 192l81 427h44l-128 -674h-41l-190 450q-42 96 -61 170l-3 -1q-9 -77 -30 -195zM459 823h77l-140 -113h-44z" />
    <glyph glyph-name="nacute" unicode="&#x144;" horiz-adv-x="516" 
d="M83 0h-45l66 351q11 52 21 129h42l-15 -103h2q32 53 80.5 83.5t104.5 30.5q19 0 37.5 -5.5t38 -19t32 -42t12.5 -67.5q0 -27 -9 -76l-53 -281h-45l54 285q7 47 7 66q0 100 -92 100q-56 0 -116.5 -58t-76.5 -147zM388 678h74l-135 -138h-40z" />
    <glyph glyph-name="Ncommaaccent" unicode="&#x145;" horiz-adv-x="611" 
d="M83 0h-44l128 674h43l195 -458q35 -79 57 -162l2 1q5 77 27 192l81 427h44l-128 -674h-41l-190 450q-42 96 -61 170l-3 -1q-9 -77 -30 -195zM175 -209l-8 27q39 6 66.5 25.5t27.5 53.5q0 31 -26 50l41 11q29 -19 29 -56q0 -48 -38 -76t-92 -35z" />
    <glyph glyph-name="ncommaaccent" unicode="&#x146;" horiz-adv-x="516" 
d="M83 0h-45l66 351q11 52 21 129h42l-15 -103h2q32 53 80.5 83.5t104.5 30.5q19 0 37.5 -5.5t38 -19t32 -42t12.5 -67.5q0 -27 -9 -76l-53 -281h-45l54 285q7 47 7 66q0 100 -92 100q-56 0 -116.5 -58t-76.5 -147zM117 -209l-8 27q39 6 66.5 25.5t27.5 53.5q0 31 -26 50
l41 11q29 -19 29 -56q0 -48 -38 -76t-92 -35z" />
    <glyph glyph-name="Ncaron" unicode="&#x147;" horiz-adv-x="611" 
d="M83 0h-44l128 674h43l195 -458q35 -79 57 -162l2 1q5 77 27 192l81 427h44l-128 -674h-41l-190 450q-42 96 -61 170l-3 -1q-9 -77 -30 -195zM415 710h-37l-80 112h50l51 -77h4l80 77h51z" />
    <glyph glyph-name="ncaron" unicode="&#x148;" horiz-adv-x="516" 
d="M83 0h-45l66 351q11 52 21 129h42l-15 -103h2q32 53 80.5 83.5t104.5 30.5q19 0 37.5 -5.5t38 -19t32 -42t12.5 -67.5q0 -27 -9 -76l-53 -281h-45l54 285q7 47 7 66q0 100 -92 100q-56 0 -116.5 -58t-76.5 -147zM321 540h-36l-66 138h43l45 -100h3l79 100h46z" />
    <glyph glyph-name="napostrophe" unicode="&#x149;" horiz-adv-x="516" 
d="M84 0h-45l66 351q13 62 20 129h42l-14 -103h2q32 53 80.5 83.5t103.5 30.5q19 0 37.5 -5.5t38 -19t32 -42t12.5 -67.5q0 -27 -9 -76l-53 -281h-45l54 285q7 47 7 66q0 100 -92 100q-55 0 -115.5 -58t-76.5 -147zM79 546l-8 26q59 21 59 76q0 34 -26 54l41 11
q11 -7 20 -24t9 -36q0 -46 -29 -73.5t-66 -33.5z" />
    <glyph glyph-name="Eng" unicode="&#x14a;" horiz-adv-x="611" 
d="M293 -186v37q63 5 99 38.5t54 113.5l-189 447q-42 96 -61 170l-3 -1q-9 -77 -30 -195l-80 -424h-44l128 674h43l195 -458q35 -79 57 -162l2 1q6 87 27 192l81 427h44l-125 -659q-11 -60 -30.5 -100t-46.5 -61t-55 -30t-66 -10z" />
    <glyph glyph-name="eng" unicode="&#x14b;" horiz-adv-x="516" 
d="M199 -168l-5 39q68 12 109.5 51t60.5 141l42 222q7 47 7 66q0 100 -92 100q-56 0 -116.5 -58t-76.5 -147l-45 -246h-45l66 351q14 72 21 129h42l-15 -103h2q32 53 80.5 83.5t104.5 30.5q19 0 37.5 -5.5t38 -19t32 -42t12.5 -67.5q0 -27 -9 -76l-44 -230
q-20 -106 -72 -156.5t-135 -62.5z" />
    <glyph glyph-name="Omacron" unicode="&#x14c;" horiz-adv-x="645" 
d="M294 -11h-1q-63 0 -111.5 23t-77 62t-42.5 85.5t-14 99.5q0 90 35 183.5t96 154.5q41 41 98.5 64.5t115.5 23.5q66 0 115.5 -23.5t76.5 -63.5t40 -86.5t13 -99.5q0 -89 -33 -180t-92 -151q-90 -92 -219 -92zM299 28h1q101 0 180 79q51 51 81 136t30 166q0 34 -4.5 64
t-18 63t-35.5 56.5t-59.5 38.5t-87.5 15q-100 0 -178 -78q-52 -52 -82.5 -137t-30.5 -164q0 -37 6.5 -70.5t21.5 -65t38 -54t58.5 -36t79.5 -13.5zM319 772h217l-7 -39h-217z" />
    <glyph glyph-name="omacron" unicode="&#x14d;" horiz-adv-x="500" 
d="M217 -11h-1q-85 0 -131.5 57.5t-46.5 138.5q0 120 73.5 213t180.5 93q90 0 134 -59.5t44 -141.5q0 -68 -29.5 -136t-89.5 -116.5t-134 -48.5zM221 28h1q80 0 140.5 81.5t60.5 181.5q0 26 -6.5 52t-21 51.5t-42.5 41.5t-65 16q-85 0 -144 -80.5t-59 -182.5
q0 -70 37.5 -115.5t98.5 -45.5zM231 635h202l-7 -38h-202z" />
    <glyph glyph-name="Obreve" unicode="&#x14e;" horiz-adv-x="645" 
d="M294 -11h-1q-63 0 -111.5 23t-77 62t-42.5 85.5t-14 99.5q0 90 35 183.5t96 154.5q41 41 98.5 64.5t115.5 23.5q66 0 115.5 -23.5t76.5 -63.5t40 -86.5t13 -99.5q0 -89 -33 -180t-92 -151q-90 -92 -219 -92zM299 28h1q101 0 180 79q51 51 81 136t30 166q0 34 -4.5 64
t-18 63t-35.5 56.5t-59.5 38.5t-87.5 15q-100 0 -178 -78q-52 -52 -82.5 -137t-30.5 -164q0 -37 6.5 -70.5t21.5 -65t38 -54t58.5 -36t79.5 -13.5zM327 828h35q-1 -24 14.5 -40t51.5 -16q65 0 81 56h38q-7 -40 -38.5 -67.5t-81.5 -27.5q-56 0 -81 27.5t-19 67.5z" />
    <glyph glyph-name="obreve" unicode="&#x14f;" horiz-adv-x="500" 
d="M217 -11h-1q-85 0 -131.5 57.5t-46.5 138.5q0 120 73.5 213t180.5 93q90 0 134 -59.5t44 -141.5q0 -68 -29.5 -136t-89.5 -116.5t-134 -48.5zM221 28h1q80 0 140.5 81.5t60.5 181.5q0 26 -6.5 52t-21 51.5t-42.5 41.5t-65 16q-85 0 -144 -80.5t-59 -182.5
q0 -70 37.5 -115.5t98.5 -45.5zM221 678h36q-3 -32 13.5 -53.5t46.5 -21.5q36 0 58 22t31 53h38q-9 -51 -44.5 -82.5t-80.5 -31.5q-60 0 -82.5 34t-15.5 80z" />
    <glyph glyph-name="Ohungarumlaut" unicode="&#x150;" horiz-adv-x="645" 
d="M294 -11h-1q-63 0 -111.5 23t-77 62t-42.5 85.5t-14 99.5q0 90 35 183.5t96 154.5q41 41 98.5 64.5t115.5 23.5q66 0 115.5 -23.5t76.5 -63.5t40 -86.5t13 -99.5q0 -89 -33 -180t-92 -151q-90 -92 -219 -92zM299 28h1q101 0 180 79q51 51 81 136t30 166q0 34 -4.5 64
t-18 63t-35.5 56.5t-59.5 38.5t-87.5 15q-100 0 -178 -78q-52 -52 -82.5 -137t-30.5 -164q0 -37 6.5 -70.5t21.5 -65t38 -54t58.5 -36t79.5 -13.5zM416 822h68l-131 -109h-39zM542 822h68l-131 -109h-39z" />
    <glyph glyph-name="ohungarumlaut" unicode="&#x151;" horiz-adv-x="500" 
d="M217 -11h-1q-85 0 -131.5 57.5t-46.5 138.5q0 120 73.5 213t180.5 93q90 0 134 -59.5t44 -141.5q0 -68 -29.5 -136t-89.5 -116.5t-134 -48.5zM221 28h1q80 0 140.5 81.5t60.5 181.5q0 26 -6.5 52t-21 51.5t-42.5 41.5t-65 16q-85 0 -144 -80.5t-59 -182.5
q0 -70 37.5 -115.5t98.5 -45.5zM303 678h67l-129 -138h-37zM430 678h66l-129 -138h-37z" />
    <glyph glyph-name="OE" unicode="&#x152;" horiz-adv-x="841" 
d="M770 39l-7 -39h-304q-31 0 -67 -3q-28 -3 -66 -3q-139 0 -208 81.5t-69 202.5q0 75 25 145t73.5 128.5t128 93.5t179.5 35q44 0 70 -3q41 -3 67 -3h283l-7 -39h-276l-49 -261h259l-7 -39h-260l-56 -296h291zM435 41l111 593q-31 7 -95 7q-86 0 -155 -30.5t-112 -81
t-65.5 -114t-22.5 -133.5q0 -110 58 -179.5t190 -69.5q50 0 91 8z" />
    <glyph glyph-name="oe" unicode="&#x153;" horiz-adv-x="784" 
d="M697 65l14 -36q-57 -40 -143 -40q-63 0 -105.5 34t-53.5 97h-2q-32 -63 -85 -97t-113 -34q-79 0 -125 57t-46 139q0 76 31 145.5t90.5 115t132.5 45.5q65 0 106.5 -37.5t50.5 -98.5h2q34 65 90.5 100.5t112.5 35.5q64 0 92 -32t28 -73q0 -32 -12 -57t-37 -40.5t-52 -26
t-68 -15.5t-74 -7t-80 -3q-15 -69 6 -127q30 -81 118 -81q64 0 122 36zM218 28h1q55 0 101 43.5t70 104.5t24 120q0 66 -29.5 111t-97.5 45q-87 0 -144.5 -80.5t-57.5 -181.5q0 -72 36.5 -117t96.5 -45zM728 383v1q0 31 -23 49.5t-60 18.5q-65 0 -115 -53t-72 -125
q60 1 99 4.5t83 13.5t66 33t22 58z" />
    <glyph glyph-name="Racute" unicode="&#x154;" horiz-adv-x="486" 
d="M39 0l127 666q55 13 126 13q105 0 151 -55q35 -39 35 -99q0 -70 -49.5 -126t-115.5 -72v-2q73 -20 80 -143q10 -146 19 -182h-48q-8 30 -13 165q-7 146 -116 146h-92l-59 -311h-45zM205 633l-54 -285h83q88 0 142 51t54 122q0 60 -39.5 90.5t-107.5 30.5q-53 0 -78 -9z
M381 823h77l-140 -113h-44z" />
    <glyph glyph-name="racute" unicode="&#x155;" horiz-adv-x="287" 
d="M83 0h-45l62 324q14 80 24 156h41q-15 -104 -16 -108h3q24 53 61 86t82 33q12 0 22 -2l-9 -46q-10 2 -22 2q-47 0 -95 -61.5t-64 -150.5zM288 678h74l-135 -138h-40z" />
    <glyph glyph-name="Rcommaaccent" unicode="&#x156;" horiz-adv-x="486" 
d="M39 0l127 666q55 13 126 13q105 0 151 -55q35 -39 35 -99q0 -70 -49.5 -126t-115.5 -72v-2q73 -20 80 -143q10 -146 19 -182h-48q-8 30 -13 165q-7 146 -116 146h-92l-59 -311h-45zM205 633l-54 -285h83q88 0 142 51t54 122q0 60 -39.5 90.5t-107.5 30.5q-53 0 -78 -9z
M102 -209l-8 27q39 6 66.5 25.5t27.5 53.5q0 31 -26 50l41 11q29 -19 29 -56q0 -48 -38 -76t-92 -35z" />
    <glyph glyph-name="rcommaaccent" unicode="&#x157;" horiz-adv-x="287" 
d="M83 0h-45l62 324q14 80 24 156h41q-15 -104 -16 -108h3q24 53 61 86t82 33q12 0 22 -2l-9 -46q-10 2 -22 2q-47 0 -95 -61.5t-64 -150.5zM2 -209l-8 27q39 6 66.5 25.5t27.5 53.5q0 31 -26 50l41 11q29 -19 29 -56q0 -48 -38 -76t-92 -35z" />
    <glyph glyph-name="Rcaron" unicode="&#x158;" horiz-adv-x="486" 
d="M39 0l127 666q55 13 126 13q105 0 151 -55q35 -39 35 -99q0 -70 -49.5 -126t-115.5 -72v-2q73 -20 80 -143q10 -146 19 -182h-48q-8 30 -13 165q-7 146 -116 146h-92l-59 -311h-45zM205 633l-54 -285h83q88 0 142 51t54 122q0 60 -39.5 90.5t-107.5 30.5q-53 0 -78 -9z
M323 710h-37l-80 112h50l51 -77h4l80 77h51z" />
    <glyph glyph-name="rcaron" unicode="&#x159;" horiz-adv-x="287" 
d="M83 0h-45l62 324q14 80 24 156h41q-15 -104 -16 -108h3q24 53 61 86t82 33q12 0 22 -2l-9 -46q-10 2 -22 2q-47 0 -95 -61.5t-64 -150.5zM236 540h-36l-66 138h43l45 -100h3l79 100h46z" />
    <glyph glyph-name="Sacute" unicode="&#x15a;" horiz-adv-x="438" 
d="M19 35l19 37q58 -43 133 -43q70 0 120 42.5t50 113.5q0 87 -103 145q-131 70 -131 169q0 81 59.5 133t144.5 52q39 0 73.5 -11t51.5 -25l-20 -36q-51 33 -111 33q-67 0 -110 -41t-43 -94q0 -47 24.5 -78t84.5 -64q64 -36 94.5 -78.5t30.5 -103.5q0 -79 -58 -137.5
t-166 -58.5q-39 0 -81.5 13t-61.5 32zM373 824h77l-140 -113h-44z" />
    <glyph glyph-name="sacute" unicode="&#x15b;" horiz-adv-x="346" 
d="M17 20l16 37q40 -28 90 -28q48 0 79 29.5t31 70.5q0 35 -15.5 58.5t-55.5 47.5q-77 46 -77 119q0 56 43 96.5t107 40.5q55 0 86 -23l-17 -38q-34 22 -74 22q-43 0 -71.5 -26.5t-28.5 -64.5q0 -32 16.5 -53t53.5 -44q79 -48 79 -123q0 -69 -46.5 -110t-113.5 -41
q-66 0 -102 30zM294 678h74l-135 -138h-40z" />
    <glyph glyph-name="Scircumflex" unicode="&#x15c;" horiz-adv-x="438" 
d="M19 35l19 37q58 -43 133 -43q70 0 120 42.5t50 113.5q0 87 -103 145q-131 70 -131 169q0 81 59.5 133t144.5 52q39 0 73.5 -11t51.5 -25l-20 -36q-51 33 -111 33q-67 0 -110 -41t-43 -94q0 -47 24.5 -78t84.5 -64q64 -36 94.5 -78.5t30.5 -103.5q0 -79 -58 -137.5
t-166 -58.5q-39 0 -81.5 13t-61.5 32zM313 823h37l80 -113h-47l-55 79h-2l-81 -79h-51z" />
    <glyph glyph-name="scircumflex" unicode="&#x15d;" horiz-adv-x="346" 
d="M17 20l16 37q40 -28 90 -28q48 0 79 29.5t31 70.5q0 35 -15.5 58.5t-55.5 47.5q-77 46 -77 119q0 56 43 96.5t107 40.5q55 0 86 -23l-17 -38q-34 22 -74 22q-43 0 -71.5 -26.5t-28.5 -64.5q0 -32 16.5 -53t53.5 -44q79 -48 79 -123q0 -69 -46.5 -110t-113.5 -41
q-66 0 -102 30zM237 678h35l65 -138h-43l-44 99h-2l-78 -99h-46z" />
    <glyph glyph-name="Scedilla" unicode="&#x15e;" horiz-adv-x="438" 
d="M436 648l-20 -36q-51 33 -111 33q-67 0 -110 -41t-43 -94q0 -47 24 -78t84 -64q65 -36 95.5 -78.5t30.5 -103.5q0 -66 -42.5 -120t-121.5 -70l-38 -50q23 -5 36.5 -22t13.5 -41q0 -35 -28 -58t-71 -23q-37 0 -58 15l15 35q20 -13 51 -13q20 0 34 11t14 30q0 33 -62 40
l52 71q-4 0 -10 -0.5t-9 -0.5q-39 0 -81.5 13t-61.5 32l19 37q58 -43 133 -43q70 0 120 42.5t50 113.5q0 87 -103 145q-131 70 -131 169q0 81 59.5 133t144.5 52q39 0 73.5 -11t51.5 -25z" />
    <glyph glyph-name="Scedilla" unicode="&#xf6c1;" horiz-adv-x="438" 
d="M436 648l-20 -36q-51 33 -111 33q-67 0 -110 -41t-43 -94q0 -47 24 -78t84 -64q65 -36 95.5 -78.5t30.5 -103.5q0 -66 -42.5 -120t-121.5 -70l-38 -50q23 -5 36.5 -22t13.5 -41q0 -35 -28 -58t-71 -23q-37 0 -58 15l15 35q20 -13 51 -13q20 0 34 11t14 30q0 33 -62 40
l52 71q-4 0 -10 -0.5t-9 -0.5q-39 0 -81.5 13t-61.5 32l19 37q58 -43 133 -43q70 0 120 42.5t50 113.5q0 87 -103 145q-131 70 -131 169q0 81 59.5 133t144.5 52q39 0 73.5 -11t51.5 -25z" />
    <glyph glyph-name="scedilla" unicode="&#x15f;" horiz-adv-x="346" 
d="M321 468l-17 -38q-34 22 -74 22q-43 0 -71.5 -26.5t-28.5 -64.5q0 -32 16.5 -53t53.5 -44q79 -48 79 -123q0 -56 -32 -94t-82 -51l-38 -50q23 -5 36.5 -22t13.5 -41q0 -35 -28 -58t-71 -23q-37 0 -58 15l15 35q20 -13 51 -13q20 0 34 11t14 30q0 33 -63 40l53 70h-6
q-65 0 -101 30l16 37q40 -28 90 -28q48 0 79 29.5t31 70.5q0 35 -15.5 58.5t-55.5 47.5q-77 46 -77 119q0 56 43 96.5t107 40.5q55 0 86 -23z" />
    <glyph glyph-name="scedilla" unicode="&#xf6c2;" horiz-adv-x="346" 
d="M321 468l-17 -38q-34 22 -74 22q-43 0 -71.5 -26.5t-28.5 -64.5q0 -32 16.5 -53t53.5 -44q79 -48 79 -123q0 -56 -32 -94t-82 -51l-38 -50q23 -5 36.5 -22t13.5 -41q0 -35 -28 -58t-71 -23q-37 0 -58 15l15 35q20 -13 51 -13q20 0 34 11t14 30q0 33 -63 40l53 70h-6
q-65 0 -101 30l16 37q40 -28 90 -28q48 0 79 29.5t31 70.5q0 35 -15.5 58.5t-55.5 47.5q-77 46 -77 119q0 56 43 96.5t107 40.5q55 0 86 -23z" />
    <glyph glyph-name="Scaron" unicode="&#x160;" horiz-adv-x="438" 
d="M19 35l19 37q58 -43 133 -43q70 0 120 42.5t50 113.5q0 87 -103 145q-131 70 -131 169q0 81 59.5 133t144.5 52q39 0 73.5 -11t51.5 -25l-20 -36q-51 33 -111 33q-67 0 -110 -41t-43 -94q0 -47 24.5 -78t84.5 -64q64 -36 94.5 -78.5t30.5 -103.5q0 -79 -58 -137.5
t-166 -58.5q-39 0 -81.5 13t-61.5 32zM322 710h-37l-80 112h50l51 -77h4l80 77h51z" />
    <glyph glyph-name="scaron" unicode="&#x161;" horiz-adv-x="346" 
d="M17 20l16 37q40 -28 90 -28q48 0 79 29.5t31 70.5q0 35 -15.5 58.5t-55.5 47.5q-77 46 -77 119q0 56 43 96.5t107 40.5q55 0 86 -23l-17 -38q-34 22 -74 22q-43 0 -71.5 -26.5t-28.5 -64.5q0 -32 16.5 -53t53.5 -44q79 -48 79 -123q0 -69 -46.5 -110t-113.5 -41
q-66 0 -102 30zM250 540h-36l-66 138h43l45 -100h3l79 100h46z" />
    <glyph glyph-name="Tcommaaccent" unicode="&#x162;" horiz-adv-x="441" 
d="M152 0l121 635h-209l8 39h462l-8 -39h-208l-121 -635h-45zM77 -209l-8 27q39 6 66.5 25.5t27.5 53.5q0 31 -26 50l41 11q29 -19 29 -56q0 -48 -38 -76t-92 -35z" />
    <glyph glyph-name="Tcommaaccent" unicode="&#x21a;" horiz-adv-x="441" 
d="M152 0l121 635h-209l8 39h462l-8 -39h-208l-121 -635h-45zM77 -209l-8 27q39 6 66.5 25.5t27.5 53.5q0 31 -26 50l41 11q29 -19 29 -56q0 -48 -38 -76t-92 -35z" />
    <glyph glyph-name="tcommaaccent" unicode="&#x163;" horiz-adv-x="292" 
d="M164 568l49 18l-20 -106h122l-7 -37h-123l-52 -277q-10 -53 -10 -87q0 -50 48 -50q27 0 39 5l4 -36q-21 -8 -52 -8q-45 0 -65.5 25.5t-20.5 61.5q0 38 11 91l53 275h-73l7 37h74zM14 -209l-8 27q39 6 66.5 25.5t27.5 53.5q0 31 -26 50l41 11q29 -19 29 -56q0 -48 -38 -76
t-92 -35z" />
    <glyph glyph-name="tcommaaccent" unicode="&#x21b;" horiz-adv-x="292" 
d="M164 568l49 18l-20 -106h122l-7 -37h-123l-52 -277q-10 -53 -10 -87q0 -50 48 -50q27 0 39 5l4 -36q-21 -8 -52 -8q-45 0 -65.5 25.5t-20.5 61.5q0 38 11 91l53 275h-73l7 37h74zM14 -209l-8 27q39 6 66.5 25.5t27.5 53.5q0 31 -26 50l41 11q29 -19 29 -56q0 -48 -38 -76
t-92 -35z" />
    <glyph glyph-name="Tcaron" unicode="&#x164;" horiz-adv-x="441" 
d="M152 0l121 635h-209l8 39h462l-8 -39h-208l-121 -635h-45zM328 710h-37l-80 112h50l51 -77h4l80 77h51z" />
    <glyph glyph-name="tcaron" unicode="&#x165;" horiz-adv-x="292" 
d="M164 568l49 18l-20 -106h122l-8 -37h-122l-52 -277q-10 -53 -10 -87q0 -50 48 -50q27 0 39 5l3 -36q-19 -8 -51 -8q-45 0 -65.5 25.5t-20.5 61.5q0 38 11 91l53 275h-73l7 37h74zM282 546l-8 26q59 21 59 76q0 34 -26 54l41 11q11 -7 20 -24t9 -36q0 -46 -29 -73.5
t-66 -33.5z" />
    <glyph glyph-name="Tbar" unicode="&#x166;" horiz-adv-x="441" 
d="M399 340h-137l-65 -340h-45l65 340h-131l8 38h129l50 257h-209l8 39h462l-8 -39h-208l-50 -257h138z" />
    <glyph glyph-name="tbar" unicode="&#x167;" horiz-adv-x="292" 
d="M47 299h65l28 144h-73l7 37h74l16 88l49 18l-20 -106h122l-7 -37h-123l-27 -144h93l-7 -37h-93l-18 -97q-10 -52 -10 -86q0 -50 48 -50q27 0 39 5l4 -36q-21 -8 -52 -8q-45 0 -65.5 25.5t-20.5 61.5q0 38 11 90l18 95h-65z" />
    <glyph glyph-name="Utilde" unicode="&#x168;" horiz-adv-x="600" 
d="M168 674h45l-77 -407q-9 -45 -9 -87q0 -76 38.5 -113.5t103.5 -37.5q167 0 212 237l78 408h46l-80 -415q-28 -142 -97.5 -206t-166.5 -64q-77 0 -128.5 46.5t-51.5 142.5q0 46 9 92zM315 716h-32q6 35 25.5 60t45.5 25q28 0 59 -21q26 -17 46 -17q23 0 34 38h32
q-15 -80 -72 -80q-24 0 -58 20q-32 19 -44 18q-24 -1 -36 -43z" />
    <glyph glyph-name="utilde" unicode="&#x169;" horiz-adv-x="506" 
d="M428 480h45l-67 -351q-12 -66 -19 -129h-42l15 99h-2q-30 -49 -76.5 -79.5t-95.5 -30.5q-23 0 -43 5.5t-41 19.5t-33 44t-12 73q0 29 9 76l52 273h45l-52 -274q-9 -45 -9 -75q0 -101 94 -101q54 0 110.5 55t71.5 134zM247 574h-34q3 35 20 59.5t45 24.5q7 0 13 -1
t12.5 -3.5t10.5 -4.5t12.5 -7t12.5 -7q25 -16 41 -16q12 0 18.5 9t9.5 32h33q-9 -80 -63 -80q-26 0 -57 21q-29 18 -44 18q-23 0 -30 -45z" />
    <glyph glyph-name="Umacron" unicode="&#x16a;" horiz-adv-x="600" 
d="M168 674h45l-77 -407q-9 -45 -9 -87q0 -76 38.5 -113.5t103.5 -37.5q167 0 212 237l78 408h46l-80 -415q-28 -142 -97.5 -206t-166.5 -64q-77 0 -128.5 46.5t-51.5 142.5q0 46 9 92zM295 772h217l-7 -39h-217z" />
    <glyph glyph-name="umacron" unicode="&#x16b;" horiz-adv-x="506" 
d="M428 480h45l-67 -351q-12 -66 -19 -129h-42l15 99h-2q-30 -49 -76.5 -79.5t-95.5 -30.5q-23 0 -43 5.5t-41 19.5t-33 44t-12 73q0 29 9 76l52 273h45l-52 -274q-9 -45 -9 -75q0 -101 94 -101q54 0 110.5 55t71.5 134zM223 635h202l-7 -38h-202z" />
    <glyph glyph-name="Ubreve" unicode="&#x16c;" horiz-adv-x="600" 
d="M168 674h45l-77 -407q-9 -45 -9 -87q0 -76 38.5 -113.5t103.5 -37.5q167 0 212 237l78 408h46l-80 -415q-28 -142 -97.5 -206t-166.5 -64q-77 0 -128.5 46.5t-51.5 142.5q0 46 9 92zM302 825h35q-1 -24 14.5 -40t51.5 -16q65 0 81 56h38q-7 -40 -38.5 -67.5t-81.5 -27.5
q-56 0 -81 27.5t-19 67.5z" />
    <glyph glyph-name="ubreve" unicode="&#x16d;" horiz-adv-x="506" 
d="M428 480h45l-67 -351q-12 -66 -19 -129h-42l15 99h-2q-30 -49 -76.5 -79.5t-95.5 -30.5q-23 0 -43 5.5t-41 19.5t-33 44t-12 73q0 29 9 76l52 273h45l-52 -274q-9 -45 -9 -75q0 -101 94 -101q54 0 110.5 55t71.5 134zM209 678h36q-3 -32 13.5 -53.5t46.5 -21.5
q36 0 58 22t31 53h38q-9 -51 -44.5 -82.5t-80.5 -31.5q-60 0 -82.5 34t-15.5 80z" />
    <glyph glyph-name="Uring" unicode="&#x16e;" horiz-adv-x="600" 
d="M168 674h45l-77 -407q-9 -45 -9 -87q0 -76 38.5 -113.5t103.5 -37.5q167 0 212 237l78 408h46l-80 -415q-28 -142 -97.5 -206t-166.5 -64q-77 0 -128.5 46.5t-51.5 142.5q0 46 9 92zM398 863h1q39 0 62.5 -23.5t23.5 -60.5t-26.5 -61t-63.5 -24q-38 0 -62.5 23.5
t-24.5 57.5q0 37 25.5 62.5t64.5 25.5zM397 835h-1q-21 0 -34.5 -16.5t-13.5 -42.5q0 -22 13 -37.5t34 -15.5q22 0 36 16t14 41q0 24 -13 39.5t-35 15.5z" />
    <glyph glyph-name="uring" unicode="&#x16f;" horiz-adv-x="506" 
d="M428 480h45l-67 -351q-12 -66 -19 -129h-42l15 99h-2q-30 -49 -76.5 -79.5t-95.5 -30.5q-23 0 -43 5.5t-41 19.5t-33 44t-12 73q0 29 9 76l52 273h45l-52 -274q-9 -45 -9 -75q0 -101 94 -101q54 0 110.5 55t71.5 134zM331 710h1q38 0 63 -25t25 -64q0 -38 -28 -63.5
t-63 -25.5q-39 0 -64.5 25t-25.5 61q0 39 26.5 65.5t65.5 26.5zM330 680h-1q-22 0 -37 -17.5t-15 -43.5q0 -23 14.5 -40t36.5 -17q23 0 38.5 17.5t15.5 45.5q0 23 -14.5 39t-37.5 16z" />
    <glyph glyph-name="Uhungarumlaut" unicode="&#x170;" horiz-adv-x="600" 
d="M168 674h45l-77 -407q-9 -45 -9 -87q0 -76 38.5 -113.5t103.5 -37.5q167 0 212 237l78 408h46l-80 -415q-28 -142 -97.5 -206t-166.5 -64q-77 0 -128.5 46.5t-51.5 142.5q0 46 9 92zM397 822h68l-131 -109h-39zM523 822h68l-131 -109h-39z" />
    <glyph glyph-name="uhungarumlaut" unicode="&#x171;" horiz-adv-x="506" 
d="M428 480h45l-67 -351q-12 -66 -19 -129h-42l15 99h-2q-30 -49 -76.5 -79.5t-95.5 -30.5q-23 0 -43 5.5t-41 19.5t-33 44t-12 73q0 29 9 76l52 273h45l-52 -274q-9 -45 -9 -75q0 -101 94 -101q54 0 110.5 55t71.5 134zM308 678h67l-129 -138h-37zM435 678h66l-129 -138
h-37z" />
    <glyph glyph-name="Uogonek" unicode="&#x172;" horiz-adv-x="600" 
d="M355 -132l5 -31q-25 -14 -58 -14q-34 0 -53 17t-19 47q0 47 61 104q-20 -2 -30 -2q-77 0 -128.5 46.5t-51.5 142.5q0 46 9 92l78 404h45l-77 -407q-9 -45 -9 -87q0 -76 38.5 -113.5t103.5 -37.5q167 0 212 237l78 408h46l-80 -415q-33 -177 -142 -240q-45 -25 -67 -46
q-40 -38 -40 -76q0 -18 10.5 -27.5t26.5 -9.5q23 0 42 8z" />
    <glyph glyph-name="uogonek" unicode="&#x173;" horiz-adv-x="506" 
d="M474 480l-67 -351q-12 -66 -19 -129l-4 5q-64 -69 -64 -120q0 -18 10.5 -29t27.5 -11q22 0 41 11l10 -28q-24 -20 -66 -20q-32 0 -50.5 19t-18.5 50q0 10 2.5 20.5t6.5 20t10 20.5t11 18.5t13 17.5l12 15t11 13t8 9l12 88h-2q-29 -48 -76 -79t-96 -31q-23 0 -43 5.5
t-40.5 19.5t-33 44t-12.5 73q0 29 9 76l52 273h45l-52 -274q-9 -45 -9 -75q0 -101 95 -101q54 0 110.5 55t71.5 134l50 261h45z" />
    <glyph glyph-name="Wcircumflex" unicode="&#x174;" horiz-adv-x="807" 
d="M183 0h-45l-38 674h45l23 -468q3 -55 3 -149h2q17 47 63 143l228 474h46l24 -441q6 -110 6 -176h2q26 75 61 148l222 469h47l-323 -674h-45l-25 450q-6 86 -1 175h-3q-33 -93 -59 -146zM495 823h37l80 -113h-47l-55 79h-2l-81 -79h-51z" />
    <glyph glyph-name="wcircumflex" unicode="&#x175;" horiz-adv-x="691" 
d="M67 480h43l27 -312q6 -62 6 -114h3q25 60 49 103l173 323h45l42 -319q10 -80 11 -107h2q26 68 41 100l160 326h47l-240 -480h-41l-43 319q-10 70 -9 112h-2l-24 -50t-31 -62l-173 -319h-42zM408 678h35l65 -138h-43l-44 99h-2l-78 -99h-46z" />
    <glyph glyph-name="Ycircumflex" unicode="&#x176;" horiz-adv-x="484" 
d="M212 0h-45l54 283l-129 391h48l79 -247q23 -73 30 -107h2l74 111l173 243h51l-284 -392zM321 823h37l80 -113h-47l-55 79h-2l-81 -79h-51z" />
    <glyph glyph-name="ycircumflex" unicode="&#x177;" horiz-adv-x="406" 
d="M50 480h47l59 -289q18 -88 25 -134h3l56 121l146 302h48l-186 -378q-41 -83 -74.5 -138.5t-78.5 -100.5q-65 -67 -131 -83l-13 39q53 18 92 51q59 48 103 128q4 9 2 21zM260 678h35l65 -138h-43l-44 99h-2l-78 -99h-46z" />
    <glyph glyph-name="Ydieresis" unicode="&#x178;" horiz-adv-x="484" 
d="M212 0h-45l54 283l-129 391h48l79 -247q23 -73 30 -107h2l74 111l173 243h51l-284 -392zM249 726h-1q-15 0 -25 12t-10 27t11.5 27.5t27.5 12.5t26 -12t10 -27t-11 -27.5t-28 -12.5zM419 726h-1q-15 0 -25 12t-10 27t11.5 27.5t27.5 12.5t26 -12t10 -27t-11 -27.5
t-28 -12.5z" />
    <glyph glyph-name="Zacute" unicode="&#x179;" horiz-adv-x="504" 
d="M-16 0l6 31l498 601l-1 3h-349l8 39h410l-7 -32l-497 -600l2 -3h386l-8 -39h-448zM425 823h77l-140 -113h-44z" />
    <glyph glyph-name="zacute" unicode="&#x17a;" horiz-adv-x="393" 
d="M-19 0l5 29l282 318q25 28 89 92v4h-272l8 37h326l-7 -32l-279 -315q-43 -48 -88 -93v-3h292l-8 -37h-348zM326 678h74l-135 -138h-40z" />
    <glyph glyph-name="Zdotaccent" unicode="&#x17b;" horiz-adv-x="504" 
d="M-16 0l6 31l498 601l-1 3h-349l8 39h410l-7 -32l-497 -600l2 -3h386l-8 -39h-448zM354 726h-1q-15 0 -25 12t-10 27t11.5 27.5t27.5 12.5t26 -12t10 -27t-11 -27.5t-28 -12.5z" />
    <glyph glyph-name="zdotaccent" unicode="&#x17c;" horiz-adv-x="393" 
d="M-19 0l5 29l282 318q25 28 89 92v4h-272l8 37h326l-7 -32l-279 -315q-43 -48 -88 -93v-3h292l-8 -37h-348zM270 580h-1q-15 0 -24.5 11t-9.5 27t11 28t27 12t25.5 -11t9.5 -27q0 -17 -10 -28.5t-28 -11.5z" />
    <glyph glyph-name="Zcaron" unicode="&#x17d;" horiz-adv-x="504" 
d="M-16 0l6 31l498 601l-1 3h-349l8 39h410l-7 -32l-497 -600l2 -3h386l-8 -39h-448zM375 710h-37l-80 112h50l51 -77h4l80 77h51z" />
    <glyph glyph-name="zcaron" unicode="&#x17e;" horiz-adv-x="393" 
d="M-19 0l5 29l282 318q25 28 89 92v4h-272l8 37h326l-7 -32l-279 -315q-43 -48 -88 -93v-3h292l-8 -37h-348zM284 540h-36l-66 138h43l45 -100h3l79 100h46z" />
    <glyph glyph-name="florin" unicode="&#x192;" horiz-adv-x="462" 
d="M131 358l7 37h96l15 55q28 106 69.5 158.5t117.5 52.5q40 -3 59 -15l-15 -36q-27 12 -57 12q-51 0 -82.5 -48.5t-52.5 -136.5l-10 -42h125l-7 -37h-126l-56 -220q-29 -110 -67 -164t-106 -54q-42 0 -68 16l13 34q22 -13 60 -13q43 0 71.5 45t49.5 128l59 228h-95z" />
    <glyph glyph-name="AEacute" unicode="&#x1fc;" horiz-adv-x="728" 
d="M-5 0h-48l469 674h317l-8 -39h-248l-31 -261h236l-8 -39h-233l-34 -296h259l-8 -39h-298l30 271h-207zM210 309h186l25 213q10 80 15 116h-4q-40 -65 -71 -110zM601 823h77l-140 -113h-44z" />
    <glyph glyph-name="aeacute" unicode="&#x1fd;" horiz-adv-x="691" 
d="M602 62l14 -34q-60 -39 -145 -39q-61 0 -102 31.5t-54 88.5h-2q-27 -57 -76.5 -88.5t-107.5 -31.5t-89.5 33.5t-32.5 83.5q0 90 84 140t232 43l4 23q9 53 -14.5 96t-85.5 43q-63 0 -120 -37l-14 34q67 43 139 43q60 0 95 -30.5t40 -86.5h2q31 58 82.5 87.5t106.5 29.5
q58 0 89.5 -30.5t31.5 -74.5q0 -38 -17.5 -64.5t-47.5 -40.5t-70.5 -22t-87.5 -8.5t-98 0.5q-18 -88 2 -144q28 -79 117 -79q67 0 125 34zM304 191l11 60q-43 3 -84.5 -2t-83.5 -19.5t-67.5 -45.5t-25.5 -75q0 -37 22 -59t60 -22q58 0 106 42.5t62 120.5zM633 384v1
q0 28 -21.5 47.5t-58.5 19.5q-68 0 -118 -51t-68 -112h81t73 5t59 15t39 29t14 46zM475 678h74l-135 -138h-40z" />
    <glyph glyph-name="Oslashacute" unicode="&#x1fe;" horiz-adv-x="645" 
d="M40 -28l-25 24l81 89q-48 76 -48 177q0 88 32 175.5t88 146.5q46 48 106 74.5t121 26.5q111 0 171 -66l78 83l27 -23l-82 -89q48 -71 48 -173q0 -89 -32.5 -179.5t-87.5 -150.5q-43 -46 -102 -72t-121 -26q-110 0 -176 68zM130 123l408 462q-51 61 -152 61
q-92 0 -167 -70.5t-105 -178.5q-44 -156 14 -274h2zM556 549l-407 -460q55 -61 156 -61q83 0 156 65.5t106 170.5q51 164 -9 285h-2zM480 828h77l-140 -113h-44z" />
    <glyph glyph-name="oslashacute" unicode="&#x1ff;" horiz-adv-x="501" 
d="M49 -27l-25 23l54 62q-40 50 -40 135q0 115 73.5 206.5t178.5 91.5q75 0 118 -40l50 55l26 -21l-52 -61q39 -55 39 -130q0 -119 -75 -212t-173 -93q-77 0 -123 44zM112 95l267 322q-32 35 -93 35q-86 0 -143.5 -80.5t-57.5 -176.5q0 -62 25 -101zM400 386l-271 -320
q35 -38 97 -38q74 0 136 79.5t62 180.5q0 52 -22 98h-2zM369 678h74l-135 -138h-40z" />
    <glyph glyph-name="Scommaaccent" unicode="&#x218;" horiz-adv-x="438" 
d="M19 35l19 37q58 -43 133 -43q70 0 120 42.5t50 113.5q0 87 -103 145q-131 70 -131 169q0 81 59.5 133t144.5 52q39 0 73.5 -11t51.5 -25l-20 -36q-51 33 -111 33q-67 0 -110 -41t-43 -94q0 -47 24.5 -78t84.5 -64q64 -36 94.5 -78.5t30.5 -103.5q0 -79 -58 -137.5
t-166 -58.5q-39 0 -81.5 13t-61.5 32zM78 -209l-8 27q39 6 66.5 25.5t27.5 53.5q0 31 -26 50l41 11q29 -19 29 -56q0 -48 -38 -76t-92 -35z" />
    <glyph glyph-name="scommaaccent" unicode="&#x219;" horiz-adv-x="346" 
d="M17 20l16 37q40 -28 90 -28q48 0 79 29.5t31 70.5q0 35 -15.5 58.5t-55.5 47.5q-77 46 -77 119q0 56 43 96.5t107 40.5q55 0 86 -23l-17 -38q-34 22 -74 22q-43 0 -71.5 -26.5t-28.5 -64.5q0 -32 16.5 -53t53.5 -44q79 -48 79 -123q0 -69 -46.5 -110t-113.5 -41
q-66 0 -102 30zM32 -209l-8 27q39 6 66.5 25.5t27.5 53.5q0 31 -26 50l41 11q29 -19 29 -56q0 -48 -38 -76t-92 -35z" />
    <glyph glyph-name="circumflex" unicode="&#x2c6;" 
d="M255 678h35l65 -138h-43l-44 99h-2l-78 -99h-46z" />
    <glyph glyph-name="caron" unicode="&#x2c7;" 
d="M268 540h-36l-66 138h43l45 -100h3l79 100h46z" />
    <glyph glyph-name="breve" unicode="&#x2d8;" 
d="M164 678h36q-3 -32 13.5 -53.5t46.5 -21.5q36 0 58 22t31 53h38q-9 -51 -44.5 -82.5t-80.5 -31.5q-60 0 -82.5 34t-15.5 80z" />
    <glyph glyph-name="dotaccent" unicode="&#x2d9;" 
d="M261 580h-1q-15 0 -24.5 11t-9.5 27t11 28t27 12t25.5 -11t9.5 -27q0 -17 -10 -28.5t-28 -11.5z" />
    <glyph glyph-name="ring" unicode="&#x2da;" horiz-adv-x="377" 
d="M266 710h1q38 0 63 -25t25 -64q0 -38 -28 -63.5t-63 -25.5q-39 0 -64.5 25t-25.5 61q0 39 26.5 65.5t65.5 26.5zM265 680h-1q-22 0 -37 -17.5t-15 -43.5q0 -23 14.5 -40t36.5 -17q23 0 38.5 17.5t15.5 45.5q0 23 -14.5 39t-37.5 16z" />
    <glyph glyph-name="ogonek" unicode="&#x2db;" 
d="M145 1h48q-35 -24 -63 -60t-28 -67q0 -16 9.5 -25.5t25.5 -9.5q23 0 43 10l9 -29q-30 -18 -66 -18q-30 0 -48.5 17.5t-18.5 45.5q0 69 89 136z" />
    <glyph glyph-name="tilde" unicode="&#x2dc;" 
d="M181 574h-34q3 35 20 59.5t45 24.5q7 0 13 -1t12.5 -3.5t10.5 -4.5t12.5 -7t12.5 -7q25 -16 41 -16q12 0 18.5 9t9.5 32h33q-9 -80 -63 -80q-26 0 -57 21q-29 18 -44 18q-23 0 -30 -45z" />
    <glyph glyph-name="hungarumlaut" unicode="&#x2dd;" 
d="M276 678h67l-129 -138h-37zM403 678h66l-129 -138h-37z" />
    <glyph glyph-name="uni037E" unicode="&#x37e;" horiz-adv-x="181" 
d="M13 -121l-39 -5q17 34 43 101t38 111l63 2q-20 -47 -55 -116.5t-50 -92.5zM132 346h-1q-17 0 -28.5 13.5t-11.5 32.5q0 21 12.5 35t31.5 14t30 -13.5t11 -33.5t-12 -34t-32 -14z" />
    <glyph glyph-name="tonos" unicode="&#x384;" 
d="M317 678h74l-135 -138h-40z" />
    <glyph glyph-name="dieresistonos" unicode="&#x385;" horiz-adv-x="290" 
d="M221 694h59l-95 -147h-30zM107 575h-1q-15 0 -24 11t-9 26t11 26.5t26 11.5t24.5 -11t9.5 -26t-10 -26.5t-27 -11.5zM313 575h-1q-15 0 -24 11t-9 26t11 26.5t26 11.5t24.5 -11t9.5 -26t-10 -26.5t-27 -11.5z" />
    <glyph glyph-name="Alphatonos" unicode="&#x386;" horiz-adv-x="537" 
d="M401 237h-256l-125 -237h-46l360 674h45l102 -674h-44zM167 276h228l-34 225q-10 68 -14 119h-2l-24 -52t-32 -65zM117 674h54l-40 -143h-29z" />
    <glyph glyph-name="anoteleia" unicode="&#x387;" horiz-adv-x="181" 
d="M109 277h-1q-17 0 -28 13t-11 31q0 20 12 33.5t30 13.5q19 0 29.5 -12.5t10.5 -32.5q0 -18 -12 -32t-30 -14z" />
    <glyph glyph-name="Epsilontonos" unicode="&#x388;" horiz-adv-x="441" 
d="M404 375l-8 -39h-248l-56 -297h280l-8 -39h-325l129 674h309l-8 -39h-264l-49 -260h248zM39 674h54l-40 -143h-30z" />
    <glyph glyph-name="Etatonos" unicode="&#x389;" horiz-adv-x="603" 
d="M167 674h45l-57 -297h351l57 297h45l-129 -674h-45l64 338h-351l-63 -338h-45zM37 674h54l-40 -143h-30z" />
    <glyph glyph-name="Iotatonos" unicode="&#x38a;" horiz-adv-x="208" 
d="M168 674h45l-129 -674h-45zM41 674h54l-40 -143h-30z" />
    <glyph glyph-name="Omicrontonos" unicode="&#x38c;" horiz-adv-x="645" 
d="M294 -11h-1q-63 0 -111.5 23t-77 62t-42.5 85.5t-14 99.5q0 87 32.5 176t89.5 151q42 46 102 72.5t121 26.5q66 0 115.5 -23.5t76.5 -63.5t40 -86.5t13 -99.5q0 -85 -30.5 -172.5t-84.5 -147.5q-93 -103 -229 -103zM299 28h1q78 0 146 56.5t106.5 144t38.5 180.5
q0 34 -4.5 64t-18 63t-35.5 56.5t-59.5 38.5t-87.5 15q-82 0 -150.5 -59.5t-104.5 -146t-36 -173.5q0 -37 6.5 -70.5t21.5 -65t38 -54t58.5 -36t79.5 -13.5zM34 674h54l-41 -143h-29z" />
    <glyph glyph-name="Upsilontonos" unicode="&#x38e;" horiz-adv-x="557" 
d="M101 643l9 37q28 -4 63.5 -30.5t58.5 -61.5q75 -108 67 -266h2q30 84 79 154t100 115q78 70 146 89l6 -37q-28 -13 -58.5 -34t-73 -57.5t-84.5 -95t-75 -129.5t-44 -138l-35 -189h-45l36 191q13 83 9 138q-4 74 -21.5 134t-42.5 95.5t-49 56t-48 28.5zM14 674h54
l-40 -143h-30z" />
    <glyph glyph-name="Omegatonos" unicode="&#x38f;" horiz-adv-x="658" 
d="M154 39v4q-41 40 -68 104.5t-27 135.5q0 169 97 285.5t241 116.5q112 0 180.5 -76t68.5 -191q0 -122 -58 -221t-140 -154v-4h144l-7 -39h-218l5 34q88 49 157.5 152.5t69.5 224.5q0 94 -53.5 164.5t-153.5 70.5q-67 0 -123 -33.5t-90.5 -86t-53.5 -112.5t-19 -117
q0 -92 31.5 -159.5t80.5 -103.5l-7 -34h-218l7 39h154zM40 674h54l-40 -143h-30z" />
    <glyph glyph-name="iotadieresistonos" unicode="&#x390;" horiz-adv-x="206" 
d="M174 480l-73 -384q-8 -38 -1.5 -53t34.5 -14l-11 -37q-6 -3 -21 -3q-51 0 -51 66q0 15 20 121l58 304h45zM189 682h60l-96 -146h-30zM76 564h-1q-15 0 -24 11t-9 26t11 26.5t26 11.5t24.5 -11t9.5 -26t-10 -26.5t-27 -11.5zM282 564h-1q-15 0 -24 11t-9 26t11 26.5
t26 11.5t24.5 -11t9.5 -26t-10 -26.5t-27 -11.5z" />
    <glyph glyph-name="Alpha" unicode="&#x391;" horiz-adv-x="537" 
d="M401 237h-256l-125 -237h-46l360 674h45l102 -674h-44zM167 276h228l-34 225q-10 68 -14 119h-2l-24 -52t-32 -65z" />
    <glyph glyph-name="Beta" unicode="&#x392;" horiz-adv-x="479" 
d="M39 3l126 663q60 13 124 13q104 0 149 -52q30 -35 30 -94q0 -62 -44.5 -110.5t-106.5 -63.5v-3q48 -13 81 -52t32 -99q0 -47 -21 -88t-53 -66q-70 -56 -196 -56q-71 0 -121 8zM204 635l-49 -258h70q83 0 139 43t56 115q0 107 -139 107q-57 0 -77 -7zM148 340l-57 -301
q30 -5 76 -5q92 -1 154 42t62 133q0 62 -44.5 96.5t-109.5 34.5h-81z" />
    <glyph glyph-name="Gamma" unicode="&#x393;" horiz-adv-x="411" 
d="M168 674h314l-8 -39h-269l-121 -635h-45z" />
    <glyph glyph-name="Delta" unicode="&#x394;" horiz-adv-x="571" 
d="M-20 0l6 32l358 642h47l124 -642l-6 -32h-529zM39 39h432l-83 418q-18 102 -28 164h-3q-15 -31 -76 -141z" />
    <glyph glyph-name="Delta" unicode="&#xe000;" horiz-adv-x="571" 
d="M-20 0l6 32l358 642h47l124 -642l-6 -32h-529zM39 39h432l-83 418q-18 102 -28 164h-3q-15 -31 -76 -141z" />
    <glyph glyph-name="Epsilon" unicode="&#x395;" horiz-adv-x="441" 
d="M404 375l-8 -39h-248l-56 -297h280l-8 -39h-325l129 674h309l-8 -39h-264l-49 -260h248z" />
    <glyph glyph-name="Zeta" unicode="&#x396;" horiz-adv-x="504" 
d="M-16 0l6 31l498 601l-1 3h-349l8 39h410l-7 -32l-497 -600l2 -3h386l-8 -39h-448z" />
    <glyph glyph-name="Eta" unicode="&#x397;" horiz-adv-x="603" 
d="M167 674h46l-58 -297h351l57 297h45l-129 -674h-45l64 338h-350l-64 -338h-45z" />
    <glyph glyph-name="Theta" unicode="&#x398;" horiz-adv-x="645" 
d="M294 -11h-1q-63 0 -111.5 23t-77 62t-42.5 85.5t-14 99.5q0 87 32.5 176t89.5 152q42 45 102 71.5t121 26.5q66 0 115.5 -23.5t76.5 -63.5t40 -86.5t13 -99.5q0 -84 -30.5 -172t-84.5 -148q-93 -103 -229 -103zM299 28h1q117 0 204 119t87 262q0 34 -4.5 64t-18 63
t-35.5 56.5t-59.5 38.5t-87.5 15q-82 0 -150.5 -59.5t-104.5 -146t-36 -173.5q0 -37 6.5 -70.5t21.5 -65t38 -54t58.5 -36t79.5 -13.5zM192 370h309l-6 -39h-309z" />
    <glyph glyph-name="Iota" unicode="&#x399;" horiz-adv-x="208" 
d="M168 674h45l-129 -674h-45z" />
    <glyph glyph-name="Kappa" unicode="&#x39a;" horiz-adv-x="469" 
d="M39 0l129 674h45l-66 -344l5 1q25 28 71 74l268 269h57l-290 -289l183 -385h-49l-169 354l-86 -79l-53 -275h-45z" />
    <glyph glyph-name="Lambda" unicode="&#x39b;" horiz-adv-x="538" 
d="M483 0h-44l-77 501q-10 64 -14 119h-2q-25 -58 -57 -117l-267 -503h-47l360 674h45z" />
    <glyph glyph-name="Mu" unicode="&#x39c;" horiz-adv-x="754" 
d="M649 0h-44l52 417q19 143 32 206h-4q-60 -124 -99 -194l-239 -429h-33l-66 418q-12 73 -26 205h-2l-22 -96l-26 -111l-107 -416h-45l178 674h52l73 -467q17 -100 19 -141h3q27 60 71 137l260 471h55z" />
    <glyph glyph-name="Nu" unicode="&#x39d;" horiz-adv-x="611" 
d="M83 0h-44l128 674h43l195 -458q35 -79 57 -162l2 1q5 77 27 192l81 427h44l-128 -674h-41l-190 450q-42 96 -61 170l-3 -1q-9 -77 -30 -195z" />
    <glyph glyph-name="Xi" unicode="&#x39e;" horiz-adv-x="518" 
d="M134 674h419l-7 -39h-418zM114 371h348l-7 -39h-348zM10 39h435l-7 -39h-435z" />
    <glyph glyph-name="Omicron" unicode="&#x39f;" horiz-adv-x="645" 
d="M294 -11h-1q-63 0 -111.5 23t-77 62t-42.5 85.5t-14 99.5q0 87 32.5 176t89.5 151q42 46 102 72.5t121 26.5q66 0 115.5 -23.5t76.5 -63.5t40 -86.5t13 -99.5q0 -85 -30.5 -172.5t-84.5 -147.5q-93 -103 -229 -103zM299 28h1q78 0 146 56.5t106.5 144t38.5 180.5
q0 34 -4.5 64t-18 63t-35.5 56.5t-59.5 38.5t-87.5 15q-82 0 -150.5 -59.5t-104.5 -146t-36 -173.5q0 -37 6.5 -70.5t21.5 -65t38 -54t58.5 -36t79.5 -13.5z" />
    <glyph glyph-name="Pi" unicode="&#x3a0;" horiz-adv-x="601" 
d="M605 674l-127 -674h-46l120 635h-348l-120 -635h-45l128 674h438z" />
    <glyph glyph-name="Rho" unicode="&#x3a1;" horiz-adv-x="476" 
d="M39 0l127 666q57 13 128 13q110 0 157 -56q34 -43 34 -109q0 -49 -21.5 -94t-52.5 -73q-75 -66 -198 -66q-44 0 -74 6l-55 -287h-45zM204 632l-58 -305q34 -7 74 -7q98 0 158.5 53.5t60.5 138.5q0 65 -41.5 97t-112.5 32q-55 0 -81 -9z" />
    <glyph glyph-name="Sigma" unicode="&#x3a3;" horiz-adv-x="519" 
d="M57 42v-3h412l-7 -39h-476l5 32l311 308l-183 300l5 34h426l-7 -39h-368v-3l179 -296z" />
    <glyph glyph-name="Tau" unicode="&#x3a4;" horiz-adv-x="441" 
d="M152 0l121 635h-209l8 39h462l-8 -39h-208l-121 -635h-45z" />
    <glyph glyph-name="Upsilon" unicode="&#x3a5;" horiz-adv-x="537" 
d="M81 643l9 37q28 -4 63.5 -30.5t58.5 -61.5q75 -108 67 -266h2q30 84 79 154t100 115q78 70 146 89l6 -37q-28 -13 -58.5 -34t-73 -57.5t-84.5 -95t-75 -129.5t-44 -138l-35 -189h-45l36 191q13 83 9 138q-4 74 -21.5 133.5t-42.5 95t-49 56t-48 29.5z" />
    <glyph glyph-name="Phi" unicode="&#x3a6;" horiz-adv-x="645" 
d="M251 -24l11 51q-91 7 -152.5 73.5t-61.5 175.5q0 85 31 158t79.5 119t106.5 72t114 25l11 48h44l-10 -48q93 -6 153 -73.5t60 -179.5q0 -161 -101 -265t-230 -105l-10 -51h-45zM270 65l102 547q-100 1 -188.5 -93t-88.5 -239q0 -91 48.5 -149t126.5 -66zM416 612
l-102 -547q122 5 199 104t77 228q0 94 -49 151.5t-125 63.5z" />
    <glyph glyph-name="Chi" unicode="&#x3a7;" horiz-adv-x="492" 
d="M434 0h-47l-76 187q-31 72 -48 119h-2l-85 -114l-146 -192h-54l269 342l-131 332h48l78 -200q28 -70 36 -97h2l72 96l160 201h54l-269 -330z" />
    <glyph glyph-name="Psi" unicode="&#x3a8;" horiz-adv-x="620" 
d="M654 674l-37 -204q-46 -244 -286 -250l-41 -220h-45l41 220q-35 2 -67 12t-63 30.5t-49.5 59.5t-18.5 91q0 33 10 88l32 173h45l-33 -182q-8 -43 -8 -75q0 -73 38 -112.5t121 -45.5l77 415h45l-77 -415q195 7 234 214l37 201h45z" />
    <glyph glyph-name="Omega" unicode="&#x3a9;" horiz-adv-x="655" 
d="M152 39v4q-41 40 -68 104.5t-27 135.5q0 169 96.5 285.5t241.5 116.5q112 0 180 -76t68 -191q0 -122 -58.5 -220.5t-140.5 -154.5v-4h145l-7 -39h-218l6 34q87 49 156.5 152.5t69.5 224.5q0 94 -53.5 164.5t-152.5 70.5q-67 0 -123 -33.5t-90.5 -86t-53.5 -112.5
t-19 -117q0 -92 31.5 -159.5t79.5 -103.5l-7 -34h-217l7 39h154z" />
    <glyph glyph-name="Omega" unicode="&#x2126;" horiz-adv-x="655" 
d="M152 39v4q-41 40 -68 104.5t-27 135.5q0 169 96.5 285.5t241.5 116.5q112 0 180 -76t68 -191q0 -122 -58.5 -220.5t-140.5 -154.5v-4h145l-7 -39h-218l6 34q87 49 156.5 152.5t69.5 224.5q0 94 -53.5 164.5t-152.5 70.5q-67 0 -123 -33.5t-90.5 -86t-53.5 -112.5
t-19 -117q0 -92 31.5 -159.5t79.5 -103.5l-7 -34h-217l7 39h154z" />
    <glyph glyph-name="Iotadieresis" unicode="&#x3aa;" horiz-adv-x="208" 
d="M110 710h-1q-16 0 -25.5 11.5t-9.5 27.5t11.5 28t27.5 12t26 -11.5t10 -27.5t-10.5 -28t-28.5 -12zM279 710h-1q-16 0 -25.5 11.5t-9.5 27.5t11.5 28t27.5 12t26 -11.5t10 -27.5t-10.5 -28t-28.5 -12zM167 674h45l-128 -674h-45z" />
    <glyph glyph-name="Upsilondieresis" unicode="&#x3ab;" horiz-adv-x="537" 
d="M265 706h-1q-16 0 -25.5 11.5t-9.5 27.5t11.5 28t27.5 12t26 -11.5t10 -27.5t-10.5 -28t-28.5 -12zM434 706h-1q-16 0 -25.5 11.5t-9.5 27.5t11.5 28t27.5 12t26 -11.5t10 -27.5t-10.5 -28t-28.5 -12zM81 643l9 37q28 -4 63.5 -30.5t58.5 -61.5q75 -108 67 -266h2
q30 84 79 154t100 115q78 70 146 89l6 -37q-28 -13 -58.5 -34t-73 -57.5t-84.5 -95t-75 -129.5t-44 -138l-35 -189h-45l36 191q13 83 9 138q-4 74 -21.5 133.5t-42.5 95t-49 56t-48 29.5z" />
    <glyph glyph-name="alphatonos" unicode="&#x3ac;" horiz-adv-x="519" 
d="M355 678h74l-135 -138h-41zM373 98h-3q-28 -48 -74 -78.5t-105 -30.5q-71 0 -113 47.5t-42 124.5q0 134 75.5 232t178.5 98q59 0 93 -31.5t42 -77.5h4q15 65 27 98h37q-11 -32 -28 -117l-47 -225q-12 -56 -6 -83t35 -27l-12 -38q-5 -1 -14 -1q-28 0 -42 26.5t-6 82.5z
M83 171v-1q0 -63 31.5 -102.5t90.5 -39.5q52 0 100 45t72 106q12 30 21 77q6 42 6 63q0 53 -32 93t-88 40q-76 0 -138.5 -83.5t-62.5 -197.5z" />
    <glyph glyph-name="epsilontonos" unicode="&#x3ad;" horiz-adv-x="388" 
d="M300 678h74l-134 -138h-41zM306 240h-74q-69 0 -116.5 -31.5t-47.5 -88.5q0 -43 35 -67.5t93 -24.5q41 0 83 12t62 25l9 -35q-19 -15 -66.5 -28t-92.5 -13q-74 0 -121.5 31.5t-47.5 95.5q0 56 41.5 97t100.5 49v4q-41 9 -63 33.5t-22 58.5q0 52 51.5 92.5t136.5 40.5
q36 0 70.5 -9t48.5 -22l-15 -33q-44 27 -112 27q-60 0 -97 -27.5t-37 -68.5q0 -40 36 -60.5t94 -20.5h57z" />
    <glyph glyph-name="etatonos" unicode="&#x3ae;" horiz-adv-x="516" 
d="M377 678h73l-135 -138h-40zM152 377h2q32 53 80.5 83.5t104.5 30.5q19 0 37.5 -5.5t38 -19t32 -42t12.5 -67.5q0 -27 -9 -76l-55 -294q-26 -141 -23 -185h-42q-9 28 18 179l58 304q7 47 7 66q0 100 -93 100q-55 0 -115 -58t-76 -147l-45 -246h-46l66 351q17 93 12 129h41
q7 -30 -5 -103z" />
    <glyph glyph-name="iotatonos" unicode="&#x3af;" horiz-adv-x="206" 
d="M234 678h73l-134 -138h-41zM174 480l-73 -384q-8 -38 -1.5 -53t34.5 -14l-11 -37q-6 -3 -21 -3q-51 0 -51 65q0 15 20 121l58 305h45z" />
    <glyph glyph-name="upsilondieresistonos" unicode="&#x3b0;" horiz-adv-x="479" 
d="M389 480h45q11 -28 11 -85q0 -70 -14.5 -138.5t-43 -130t-79.5 -99.5t-116 -38q-57 0 -96.5 39t-39.5 108q0 17 5 45l25 136q25 129 21 163h40q12 -18 -2 -87l-38 -212q-4 -20 -4 -41q0 -55 30.5 -83.5t69.5 -28.5q86 0 141 106t55 262q0 58 -10 84zM298 682h59l-95 -146
h-30zM184 564h-1q-15 0 -24 11t-9 26t11 26.5t26 11.5t24.5 -11t9.5 -26t-10 -26.5t-27 -11.5zM390 564h-1q-15 0 -24 11t-9 26t11 26.5t26 11.5t24.5 -11t9.5 -26t-10 -26.5t-27 -11.5z" />
    <glyph glyph-name="alpha" unicode="&#x3b1;" horiz-adv-x="519" 
d="M373 98h-3q-28 -48 -74 -78.5t-105 -30.5q-71 0 -113 47.5t-42 124.5q0 134 75.5 232t178.5 98q59 0 93 -31.5t42 -77.5h4q15 65 27 98h37q-11 -32 -28 -117l-47 -225q-12 -56 -6 -83t35 -27l-12 -38q-5 -1 -14 -1q-28 0 -42 26.5t-6 82.5zM83 171v-1q0 -63 31.5 -102.5
t90.5 -39.5q52 0 100 45t72 106q12 30 21 77q6 42 6 63q0 53 -32 93t-88 40q-76 0 -138.5 -83.5t-62.5 -197.5z" />
    <glyph glyph-name="beta" unicode="&#x3b2;" horiz-adv-x="515" 
d="M59 -198h-44q-6 44 18 170l88 479q30 161 102 224q53 46 122 46q56 0 94 -38.5t38 -100.5q0 -66 -34.5 -118.5t-82.5 -73.5l-1 -4q50 -9 85.5 -55t35.5 -112q0 -58 -21.5 -104t-55 -72.5t-71 -40t-74.5 -13.5q-104 0 -161 77l-2 -1l-14 -78q-26 -141 -22 -185zM248 363
l6 38q14 0 20 1q72 4 114 54t42 119q0 50 -25 79t-67 29q-129 0 -172 -234l-59 -324q14 -37 54.5 -67.5t98.5 -30.5q66 0 119.5 51.5t53.5 134.5q0 67 -43.5 108t-112.5 42h-29z" />
    <glyph glyph-name="gamma" unicode="&#x3b3;" horiz-adv-x="412" 
d="M141 -198h-46q40 190 35 269q-5 96 -37 218.5t-62 190.5h50q31 -65 59.5 -180.5t30.5 -223.5h3q66 85 121 185t71 190q4 16 4 29h45q1 -9 -3 -33q-33 -184 -224 -412q-8 -12 -11 -26q-17 -103 -36 -207z" />
    <glyph glyph-name="delta" unicode="&#x3b4;" horiz-adv-x="504" 
d="M472 645l-24 -29q-23 28 -58.5 47t-74.5 19q-35 0 -54.5 -16t-19.5 -39q0 -15 10 -31t18.5 -24.5t34.5 -32.5l73 -71q94 -89 94 -204q0 -105 -68.5 -190t-174.5 -85q-81 0 -136 55.5t-55 148.5q0 110 68 191t168 120v4l-20 21q-19 19 -27 28t-18.5 29t-10.5 40
q0 37 32.5 66t85.5 29q100 0 157 -76zM348 436l-47 44q-40 -17 -76 -41.5t-69 -59t-52.5 -81.5t-19.5 -100q0 -79 44 -124.5t106 -45.5q77 0 134 71t57 164q0 101 -77 173z" />
    <glyph glyph-name="epsilon" unicode="&#x3b5;" horiz-adv-x="388" 
d="M305 240h-73q-69 0 -116.5 -31.5t-47.5 -88.5q0 -43 35 -67.5t93 -24.5q41 0 83 12t62 25l9 -37q-19 -14 -65.5 -26.5t-93.5 -12.5q-74 0 -121.5 31.5t-47.5 95.5q0 56 41.5 97t100.5 49v4q-41 9 -63 33.5t-22 58.5q0 52 51.5 92.5t136.5 40.5q37 0 70.5 -9t47.5 -23
l-14 -32q-44 27 -112 27q-60 0 -97 -27.5t-37 -68.5q0 -40 36 -60.5t93 -20.5h58z" />
    <glyph glyph-name="zeta" unicode="&#x3b6;" horiz-adv-x="371" 
d="M436 710l2 -38q-135 -78 -241 -211.5t-106 -256.5q0 -64 30 -101t96 -59q43 -13 112 -21q7 0 7 -7q0 -23 -26.5 -75t-50.5 -78l-35 10q15 17 34.5 55.5t24.5 61.5q-63 9 -101 23q-138 52 -138 188q0 121 98.5 255t228.5 214v2h-85q-83 0 -115 8l10 34q30 -6 108 -4h147z
" />
    <glyph glyph-name="eta" unicode="&#x3b7;" horiz-adv-x="516" 
d="M152 377h2q32 53 80.5 83.5t104.5 30.5q19 0 37.5 -5.5t38 -19t32 -42t12.5 -67.5q0 -27 -9 -76l-55 -294q-26 -141 -23 -185h-42q-9 28 18 179l58 304q7 47 7 66q0 100 -93 100q-55 0 -115 -58t-76 -147l-45 -246h-46l66 351q17 93 12 129h41q7 -30 -5 -103z" />
    <glyph glyph-name="theta" unicode="&#x3b8;" horiz-adv-x="492" 
d="M212 -11h-1q-73 0 -117.5 61t-44.5 174q0 78 20 175q29 140 95 231t163 91q74 0 116.5 -61t41.5 -162q0 -74 -14 -147q-70 -362 -259 -362zM114 388h317q8 49 8 112q0 81 -30.5 131.5t-88.5 50.5q-76 0 -129 -84t-77 -210zM424 350h-317q-12 -75 -12 -128
q0 -91 33.5 -142.5t87.5 -51.5q147 0 208 322z" />
    <glyph glyph-name="iota" unicode="&#x3b9;" horiz-adv-x="206" 
d="M174 480l-73 -384q-8 -38 -1.5 -53t34.5 -14l-11 -37q-6 -3 -21 -3q-50 0 -51 65q1 19 22 129l56 297h45z" />
    <glyph glyph-name="kappa" unicode="&#x3ba;" horiz-adv-x="424" 
d="M188 257l-1 -2q23 -6 41.5 -18t37 -35.5t28 -38t30.5 -49.5l66 -114h-51l-61 106q-36 61 -66.5 90t-72.5 29h-15l-41 -225h-44l72 388q12 64 7 92h41q8 -23 -2 -81l-26 -140h5l265 221h55v-3z" />
    <glyph glyph-name="lambda" unicode="&#x3bb;" horiz-adv-x="414" 
d="M324 0l-59 311q-12 61 -16 99l-5 1l-48 -96l-170 -315h-49l245 448q10 19 10 28q0 12 -2 22q-17 92 -39.5 138t-68.5 46q-3 0 -6.5 -0.5t-5.5 -0.5l8 38q16 2 22 2q55 -1 81.5 -51t51.5 -169l98 -501h-47z" />
    <glyph glyph-name="uni03BC" unicode="&#x3bc;" horiz-adv-x="505" 
d="M165 480l-55 -293q-13 -70 10.5 -113.5t87.5 -43.5q42 0 82 35t66 83q21 40 26 73l49 259h45l-67 -353q-10 -55 -4 -75.5t31 -22.5l-12 -39q-9 -1 -14 -1q-61 0 -48 106h-3q-24 -44 -67 -74.5t-93 -30.5q-39 0 -70 19.5t-44 55.5l-14 -77q-25 -134 -20 -186h-41
q-8 50 16 180l95 498h44z" />
    <glyph glyph-name="nu" unicode="&#x3bd;" horiz-adv-x="414" 
d="M41 480h46l52 -291q14 -83 22 -139h4q173 240 204 375q8 35 8 55h44q0 -26 -3 -41q-30 -166 -247 -439h-43z" />
    <glyph glyph-name="xi" unicode="&#x3be;" horiz-adv-x="397" 
d="M361 396h-25q-114 -1 -182.5 -57t-68.5 -141q0 -59 36 -95t109 -57q77 -20 128 -23q7 0 7 -8q0 -23 -27.5 -76t-49.5 -76l-35 11q14 17 35 56.5t26 60.5q-75 9 -128 27q-148 52 -148 175q0 85 58 145.5t133 78.5v4q-42 13 -69.5 47.5t-27.5 79.5q0 68 57.5 120.5
t148.5 52.5q80 0 114 -29l-16 -33q-34 25 -102 25q-71 0 -113.5 -39t-42.5 -97q0 -54 41 -84t105 -31h42z" />
    <glyph glyph-name="omicron" unicode="&#x3bf;" horiz-adv-x="500" 
d="M217 -11h-1q-85 0 -131.5 57.5t-46.5 138.5q0 120 73.5 213t180.5 93q90 0 134 -59.5t44 -141.5q0 -68 -29.5 -136t-89.5 -116.5t-134 -48.5zM221 28h1q80 0 140.5 81.5t60.5 181.5q0 26 -6.5 52t-21 51.5t-42.5 41.5t-65 16q-85 0 -144 -80.5t-59 -182.5
q0 -70 37.5 -115.5t98.5 -45.5z" />
    <glyph glyph-name="pi" unicode="&#x3c0;" horiz-adv-x="500" 
d="M509 442h-72l-55 -301q-18 -102 -11 -141h-42q-11 31 7 135l57 307h-182q-22 -91 -27 -108q-66 -247 -128 -334h-45q69 106 128 331q12 43 28 111q-69 0 -107 -11l-2 29q28 20 112 20h349z" />
    <glyph glyph-name="rho" unicode="&#x3c1;" horiz-adv-x="520" 
d="M52 -198h-41q-4 41 20 179l41 221q27 145 88 215q64 74 164 74q76 0 121 -54t45 -134q0 -129 -73 -221.5t-176 -92.5q-47 0 -87.5 23.5t-57.5 65.5h-3l-16 -91q-26 -141 -25 -185zM121 220l-5 -27q-4 -13 -4 -37q0 -47 36 -87.5t96 -40.5q80 0 139.5 78.5t59.5 193.5
q0 64 -33.5 108t-95.5 44q-67 0 -119.5 -56.5t-73.5 -175.5z" />
    <glyph glyph-name="uni03C2" unicode="&#x3c2;" horiz-adv-x="390" 
d="M266 -137l-34 11q14 19 33 57t24 59q-57 7 -103 24q-63 23 -104.5 70t-41.5 121q0 114 78 200t190 86q65 0 97 -24l-15 -34q-38 19 -85 19q-90 0 -154 -69.5t-64 -175.5q0 -120 133 -161q45 -14 113 -24q7 -1 7 -10q0 -26 -27 -76t-47 -73z" />
    <glyph glyph-name="sigma" unicode="&#x3c3;" horiz-adv-x="509" 
d="M389 458v-4q43 -24 62 -71.5t19 -91.5q0 -68 -29.5 -136.5t-89.5 -117t-134 -48.5q-85 0 -132 57.5t-47 138.5q0 120 73.5 213t180.5 93h103h40h91l-6 -39q-63 0 -131 6zM220 28h1q81 0 141.5 82t60.5 181q0 26 -6.5 52t-21 51.5t-42.5 41.5t-65 16q-85 0 -144 -80.5
t-59 -182.5q0 -69 37.5 -115t97.5 -46z" />
    <glyph glyph-name="tau" unicode="&#x3c4;" horiz-adv-x="363" 
d="M234 30l-6 -36q-13 -5 -30 -5q-32 0 -53.5 21t-21.5 66q0 16 7 55l58 311h-53q-55 0 -105 -9v27q33 20 108 20h260l-10 -38h-155l-58 -316q-5 -25 -5 -45q0 -52 44 -52q4 0 10.5 0.5t9.5 0.5z" />
    <glyph glyph-name="upsilon" unicode="&#x3c5;" horiz-adv-x="479" 
d="M389 480h45q11 -28 11 -85q0 -70 -14 -138.5t-42.5 -130t-78.5 -99.5t-115 -38q-58 0 -98.5 39t-40.5 108q0 17 5 45l25 136q25 129 21 163h40q12 -18 -2 -87l-38 -212q-4 -20 -4 -41q0 -55 31 -83.5t70 -28.5q86 0 140.5 105.5t54.5 262.5q0 58 -10 84z" />
    <glyph glyph-name="phi" unicode="&#x3c6;" horiz-adv-x="569" 
d="M225 26l62 338q22 127 112 127q55 0 97.5 -51.5t42.5 -134.5q0 -138 -81 -225.5t-195 -90.5l-35 -187h-45l35 187q-77 11 -128 63.5t-51 141.5q0 63 21.5 118.5t53.5 90.5t62 57t56 31l17 -28q-57 -26 -110 -93.5t-53 -166.5q0 -68 34.5 -116t104.5 -61zM332 369
l-62 -342q92 5 157 81.5t65 190.5q0 62 -27.5 107.5t-70.5 45.5q-47 0 -62 -83z" />
    <glyph glyph-name="chi" unicode="&#x3c7;" horiz-adv-x="393" 
d="M53 480h49l55 -169q19 -59 35 -117h4l77 120l109 166h51l-224 -330l119 -341l-44 -15l-57 171q-31 91 -48 149h-4l-65 -102l-139 -218l-40 18l230 348z" />
    <glyph glyph-name="psi" unicode="&#x3c8;" horiz-adv-x="583" 
d="M492 480h45q13 -30 13 -86q0 -175 -76.5 -288t-201.5 -117l-34 -187h-45l34 187q-74 5 -118.5 48t-45.5 126q0 35 7 73l28 144q12 77 9 100h42q8 -20 -4 -83l-29 -161q-7 -38 -7 -71q1 -67 36 -101t90 -37l107 580h45l-108 -580q84 0 154.5 96.5t70.5 266.5q0 64 -12 90z
" />
    <glyph glyph-name="omega" unicode="&#x3c9;" horiz-adv-x="651" 
d="M518 489h44q22 -23 38 -70t16 -98q0 -140 -61.5 -236t-143.5 -96q-93 0 -111 93h-3q-43 -93 -130 -93q-54 0 -92.5 46t-38.5 130q0 105 44.5 195.5t93.5 128.5h48v-2q-51 -41 -95 -128.5t-44 -190.5q0 -69 28 -104.5t65 -35.5q41 0 72.5 39.5t42.5 100.5l33 188h45
l-32 -174q-6 -28 -6 -53q0 -39 20.5 -70t63.5 -31q55 0 105 84t50 199q0 57 -14.5 104.5t-37.5 71.5v2z" />
    <glyph glyph-name="iotadieresis" unicode="&#x3ca;" horiz-adv-x="206" 
d="M79 564h-1q-16 0 -25.5 11.5t-9.5 27.5t11.5 28t27.5 12t26 -11.5t10 -27.5t-10.5 -28t-28.5 -12zM248 564h-1q-16 0 -25.5 11.5t-9.5 27.5t11.5 28t27.5 12t26 -11.5t10 -27.5t-10.5 -28t-28.5 -12zM174 480l-73 -384q-8 -38 -1.5 -53t34.5 -14l-11 -37q-6 -3 -21 -3
q-51 0 -51 65q0 15 20 121l58 305h45z" />
    <glyph glyph-name="upsilondieresis" unicode="&#x3cb;" horiz-adv-x="479" 
d="M200 564h-1q-16 0 -25.5 11.5t-9.5 27.5t11.5 28t27.5 12t26 -11.5t10 -27.5t-10.5 -28t-28.5 -12zM369 564h-1q-16 0 -25.5 11.5t-9.5 27.5t11.5 28t27.5 12t26 -11.5t10 -27.5t-10.5 -28t-28.5 -12zM389 480h45q11 -28 11 -85q0 -70 -14.5 -138.5t-43 -130t-79 -99.5
t-115.5 -38q-58 0 -97.5 39t-39.5 108q0 17 5 45l25 136q25 129 21 163h40q12 -16 -2 -87l-38 -212q-4 -20 -4 -41q0 -55 30.5 -83.5t69.5 -28.5q86 0 141 106t55 262q0 58 -10 84z" />
    <glyph glyph-name="omicrontonos" unicode="&#x3cc;" horiz-adv-x="500" 
d="M355 678h73l-135 -138h-40zM217 -11h-1q-85 0 -131.5 57.5t-46.5 138.5q0 120 73.5 213t180.5 93q90 0 134 -59.5t44 -141.5q0 -68 -29.5 -136t-89.5 -116.5t-134 -48.5zM221 28h1q80 0 140.5 81.5t60.5 181.5q0 26 -6.5 52t-21 51.5t-42.5 41.5t-65 16q-85 0 -144 -80.5
t-59 -182.5q0 -70 37.5 -115.5t98.5 -45.5z" />
    <glyph glyph-name="upsilontonos" unicode="&#x3cd;" horiz-adv-x="479" 
d="M331 678h74l-135 -138h-40zM389 480h45q11 -28 11 -85q0 -70 -14.5 -138.5t-43 -130t-79.5 -99.5t-116 -38q-57 0 -96.5 39t-39.5 108q0 17 5 45l25 136q25 129 21 163h40q12 -18 -2 -87l-38 -212q-4 -20 -4 -41q0 -55 30.5 -83.5t69.5 -28.5q86 0 141 106t55 262
q0 58 -10 84z" />
    <glyph glyph-name="omegatonos" unicode="&#x3ce;" horiz-adv-x="651" 
d="M441 678h74l-135 -138h-40zM518 489h44q22 -23 38 -70t16 -98q0 -140 -61.5 -236t-143.5 -96q-93 0 -111 93h-3q-43 -93 -130 -93q-54 0 -92.5 46t-38.5 130q0 105 44.5 195.5t93.5 128.5h48v-2q-51 -41 -95 -128.5t-44 -190.5q0 -69 28 -104.5t65 -35.5q41 0 72.5 39.5
t42.5 100.5l33 188h45l-32 -174q-6 -28 -6 -53q0 -39 20 -70t63 -31q55 0 105.5 84t50.5 199q0 57 -14.5 104.5t-37.5 71.5v2z" />
    <glyph glyph-name="afii10023" unicode="&#x401;" horiz-adv-x="441" 
d="M404 375l-8 -39h-248l-56 -297h280l-8 -39h-325l129 674h309l-8 -39h-264l-49 -260h248zM252 726h-1q-15 0 -25 12t-10 27t11.5 27.5t27.5 12.5t26 -12t10 -27t-11 -27.5t-28 -12.5zM422 726h-1q-15 0 -25 12t-10 27t11.5 27.5t27.5 12.5t26 -12t10 -27t-11 -27.5
t-28 -12.5z" />
    <glyph glyph-name="afii10051" unicode="&#x402;" horiz-adv-x="600" 
d="M72 674h471l-8 -39h-238l-44 -231h2q62 45 139 45q75 0 120 -55.5t45 -147.5q0 -82 -28.5 -159.5t-79.5 -129.5q-69 -70 -160 -88l-9 36q84 22 136 81q93 104 93 266q0 69 -33.5 113t-96.5 44q-66 0 -136 -47l-69 -362h-45l122 635h-189z" />
    <glyph glyph-name="afii10052" unicode="&#x403;" horiz-adv-x="354" 
d="M168 674h280l-8 -40h-235l-121 -634h-45zM373 823h77l-140 -113h-44z" />
    <glyph glyph-name="afii10053" unicode="&#x404;" horiz-adv-x="537" 
d="M578 651l-18 -37q-52 31 -133 31q-121 0 -210.5 -79t-110.5 -200h349l-7 -39h-348q-5 -18 -5 -50q0 -111 58.5 -179.5t168.5 -68.5q77 0 147 37l13 -36q-76 -40 -181 -40q-121 0 -187 79t-66 208q0 83 30 161t82 133q111 113 274 113q85 0 144 -33z" />
    <glyph glyph-name="afii10054" unicode="&#x405;" horiz-adv-x="438" 
d="M19 35l19 37q58 -43 133 -43q70 0 120 42.5t50 113.5q0 87 -103 145q-131 70 -131 169q0 81 59.5 133t144.5 52q39 0 73.5 -11t51.5 -25l-20 -36q-51 33 -111 33q-67 0 -110 -41t-43 -94q0 -47 24.5 -78t84.5 -64q64 -36 94.5 -78.5t30.5 -103.5q0 -79 -58 -137.5
t-166 -58.5q-39 0 -81.5 13t-61.5 32z" />
    <glyph glyph-name="afii10055" unicode="&#x406;" horiz-adv-x="208" 
d="M168 674h45l-129 -674h-45z" />
    <glyph glyph-name="afii10056" unicode="&#x407;" horiz-adv-x="208" 
d="M168 674h45l-129 -674h-45zM121 726h-1q-15 0 -25 12t-10 27t11.5 27.5t27.5 12.5t26 -12t10 -27t-11 -27.5t-28 -12.5zM291 726h-1q-15 0 -25 12t-10 27t11.5 27.5t27.5 12.5t26 -12t10 -27t-11 -27.5t-28 -12.5z" />
    <glyph glyph-name="afii10057" unicode="&#x408;" horiz-adv-x="342" 
d="M220 203l89 471h45l-90 -475q-21 -111 -68.5 -160.5t-130.5 -49.5q-62 0 -93 18l12 39q32 -16 87 -16q60 0 95.5 39t53.5 134z" />
    <glyph glyph-name="afii10058" unicode="&#x409;" horiz-adv-x="831" 
d="M221 674h337l-50 -264q30 6 79 6q92 0 148.5 -46.5t56.5 -136.5q0 -101 -70 -164q-84 -74 -226 -74q-22 0 -43.5 1t-41 2.5t-27.5 1.5l120 635h-245l-44 -234q-51 -273 -146 -359q-49 -48 -106 -49l-4 38q19 1 42.5 14t37.5 28q84 78 130 324zM500 371l-62 -331
q26 -6 74 -6q94 0 164 51.5t70 143.5q0 148 -168 148q-46 0 -78 -6z" />
    <glyph glyph-name="afii10059" unicode="&#x40a;" horiz-adv-x="836" 
d="M168 674h45l-55 -283h306l54 283h46l-51 -273q30 6 75 6q91 0 150 -46.5t59 -137.5q0 -95 -69 -158q-78 -70 -224 -70q-39 0 -114 6l67 353h-307l-66 -354h-45zM504 362l-61 -323q23 -5 78 -5q99 0 164.5 50.5t65.5 138.5q0 70 -49 107.5t-124 37.5q-41 0 -74 -6z" />
    <glyph glyph-name="afii10060" unicode="&#x40b;" horiz-adv-x="622" 
d="M73 674h468l-7 -39h-239l-44 -230h2q23 17 67.5 32.5t92.5 15.5q70 0 108 -42.5t38 -104.5q0 -36 -11 -98l-40 -208h-44l40 207q11 57 11 92q0 50 -28.5 81.5t-93.5 31.5q-42 0 -83 -15.5t-68 -36.5l-68 -360h-44l121 635h-186z" />
    <glyph glyph-name="afii10061" unicode="&#x40c;" horiz-adv-x="485" 
d="M167 674h44l-59 -316h24l308 316h56l-319 -321q78 -7 118 -52.5t56 -131.5q2 -13 7 -49t10 -65.5t13 -54.5h-47q-6 20 -11 45.5t-10.5 64.5l-6.5 46q-17 92 -57 129.5t-128 37.5h-20l-61 -323h-45zM404 823h77l-140 -113h-44z" />
    <glyph glyph-name="afii10062" unicode="&#x40e;" horiz-adv-x="457" 
d="M94 674h48l98 -338l30 -111h1l68 141l150 308h48l-152 -308q-124 -253 -185 -318q-56 -59 -123 -59q-29 0 -51 11l12 38q18 -7 42 -7q82 0 151 135q8 14 2 35zM223 824h41q0 -25 16 -42.5t49 -17.5q66 0 81 60h43q-7 -39 -40.5 -67t-84.5 -28q-54 0 -80 27t-25 68z" />
    <glyph glyph-name="afii10145" unicode="&#x40f;" horiz-adv-x="585" 
d="M167 674h46l-121 -635h332l123 635h43l-128 -674h-183l-38 -165h-39l26 165h-189z" />
    <glyph glyph-name="afii10017" unicode="&#x410;" horiz-adv-x="537" 
d="M401 237h-256l-125 -237h-46l360 674h45l102 -674h-44zM167 276h228l-34 225q-10 68 -14 119h-2l-24 -52t-32 -65z" />
    <glyph glyph-name="afii10018" unicode="&#x411;" horiz-adv-x="486" 
d="M167 674h296l-6 -39h-251l-43 -225q29 6 78 6q92 0 148 -47t56 -137q0 -106 -73 -168q-80 -69 -222 -69q-22 0 -43.5 1t-41 2.5t-26.5 1.5zM155 371l-63 -332q30 -5 77 -5q92 0 161 51t69 139q0 77 -44 115t-123 38q-33 0 -77 -6z" />
    <glyph glyph-name="afii10019" unicode="&#x412;" horiz-adv-x="479" 
d="M39 3l126 663q60 13 124 13q104 0 149 -52q30 -35 30 -94q0 -62 -44.5 -110.5t-106.5 -63.5v-3q48 -13 81 -52t32 -99q0 -47 -21 -88t-53 -66q-70 -56 -196 -56q-71 0 -121 8zM204 635l-49 -258h70q83 0 139 43t56 115q0 107 -139 107q-57 0 -77 -7zM148 340l-57 -301
q30 -5 76 -5q92 -1 154 42t62 133q0 62 -44.5 96.5t-109.5 34.5h-81z" />
    <glyph glyph-name="afii10020" unicode="&#x413;" horiz-adv-x="354" 
d="M168 674h280l-8 -40h-235l-121 -634h-45z" />
    <glyph glyph-name="afii10021" unicode="&#x414;" horiz-adv-x="565" 
d="M226 674h320l-120 -635h52l-45 -196h-39l28 157h-424l-36 -157h-38l32 196h43q70 93 117 197q46 109 76 263zM262 635l-30 -159q-28 -140 -72 -248q-49 -113 -111 -189h331l112 596h-230z" />
    <glyph glyph-name="afii10022" unicode="&#x415;" horiz-adv-x="441" 
d="M404 375l-8 -39h-248l-56 -297h280l-8 -39h-325l129 674h309l-8 -39h-264l-49 -260h248z" />
    <glyph glyph-name="afii10024" unicode="&#x416;" horiz-adv-x="726" 
d="M119 674h48l175 -316h22l59 316h44l-60 -316h26l287 316h55l-301 -321q69 -6 105 -49.5t52 -122.5q4 -19 13 -83t19 -98h-45q-7 29 -16 88.5t-14 83.5q-16 81 -50.5 115.5t-110.5 34.5h-27l-60 -322h-44l60 322h-23q-79 0 -128 -38.5t-94 -130.5q-41 -85 -78 -153h-50
q14 22 29.5 50.5l36 69.5l29.5 58q48 90 95.5 130t128.5 46z" />
    <glyph glyph-name="afii10025" unicode="&#x417;" horiz-adv-x="414" 
d="M120 338l7 40h22q76 0 138.5 42t62.5 118q0 50 -30.5 80t-78.5 30q-64 0 -127 -40l-13 32q64 45 147 45q64 0 106.5 -38t42.5 -106t-45 -115.5t-111 -64.5v-2q57 -12 92 -54t35 -106q0 -94 -64.5 -152t-165.5 -58q-86 0 -152 44l18 36q64 -41 137 -41q78 0 129 46.5
t51 126.5q0 66 -52.5 103t-121.5 35z" />
    <glyph glyph-name="afii10026" unicode="&#x418;" horiz-adv-x="611" 
d="M167 674h44l-68 -362q-34 -175 -53 -247l1 -1q61 91 157 211l324 399h44l-128 -674h-43l70 376q29 146 50 233l-2 2q-55 -84 -168 -224l-311 -387h-45z" />
    <glyph glyph-name="afii10027" unicode="&#x419;" horiz-adv-x="611" 
d="M167 674h44l-68 -362q-34 -175 -53 -247l1 -1q61 91 157 211l324 399h44l-128 -674h-43l70 376q29 146 50 233l-2 2q-55 -84 -168 -224l-311 -387h-45zM303 824h41q0 -25 16 -42.5t49 -17.5q66 0 81 60h43q-7 -39 -40.5 -67t-84.5 -28q-54 0 -80 27t-25 68z" />
    <glyph glyph-name="afii10028" unicode="&#x41a;" horiz-adv-x="485" 
d="M167 674h44l-59 -316h24l308 316h56l-319 -321q78 -7 118 -52.5t56 -131.5q2 -13 7 -49t10 -65.5t13 -54.5h-47q-6 20 -11 45.5t-10.5 64.5l-6.5 46q-17 92 -57 129.5t-128 37.5h-20l-61 -323h-45z" />
    <glyph glyph-name="afii10029" unicode="&#x41b;" horiz-adv-x="560" 
d="M221 674h343l-129 -674h-45l122 635h-254l-43 -234q-51 -273 -146 -359q-41 -46 -106 -50l-5 38q44 6 81 43q84 77 130 324z" />
    <glyph glyph-name="afii10030" unicode="&#x41c;" horiz-adv-x="754" 
d="M649 0h-44l52 417q19 143 32 206h-4q-60 -124 -99 -194l-239 -429h-33l-66 418q-12 73 -26 205h-2l-22 -96l-26 -111l-107 -416h-45l178 674h52l73 -467q17 -100 19 -141h3q27 60 71 137l260 471h55z" />
    <glyph glyph-name="afii10031" unicode="&#x41d;" horiz-adv-x="603" 
d="M167 674h46l-58 -297h351l57 297h45l-129 -674h-45l64 338h-350l-64 -338h-45z" />
    <glyph glyph-name="afii10032" unicode="&#x41e;" horiz-adv-x="645" 
d="M294 -11h-1q-63 0 -111.5 23t-77 62t-42.5 85.5t-14 99.5q0 87 32.5 176t89.5 151q42 46 102 72.5t121 26.5q66 0 115.5 -23.5t76.5 -63.5t40 -86.5t13 -99.5q0 -85 -30.5 -172.5t-84.5 -147.5q-93 -103 -229 -103zM299 28h1q78 0 146 56.5t106.5 144t38.5 180.5
q0 34 -4.5 64t-18 63t-35.5 56.5t-59.5 38.5t-87.5 15q-82 0 -150.5 -59.5t-104.5 -146t-36 -173.5q0 -37 6.5 -70.5t21.5 -65t38 -54t58.5 -36t79.5 -13.5z" />
    <glyph glyph-name="afii10033" unicode="&#x41f;" horiz-adv-x="586" 
d="M168 674h423l-129 -674h-45l123 635h-334l-122 -635h-45z" />
    <glyph glyph-name="afii10034" unicode="&#x420;" horiz-adv-x="476" 
d="M39 0l127 666q57 13 128 13q110 0 157 -56q34 -43 34 -109q0 -49 -21.5 -94t-52.5 -73q-75 -66 -198 -66q-44 0 -74 6l-55 -287h-45zM204 632l-58 -305q34 -7 74 -7q98 0 158.5 53.5t60.5 138.5q0 65 -41.5 97t-112.5 32q-55 0 -81 -9z" />
    <glyph glyph-name="afii10035" unicode="&#x421;" horiz-adv-x="538" 
d="M470 62l10 -38q-74 -34 -173 -34q-122 0 -190.5 74t-68.5 202q0 87 33 172t95 144q108 102 258 102q52 0 92 -11t53 -24l-19 -35q-48 31 -138 31q-125 0 -217 -90q-51 -50 -80.5 -125.5t-29.5 -155.5q0 -51 11 -93t35.5 -77t69 -55t105.5 -20q94 0 154 33z" />
    <glyph glyph-name="afii10036" unicode="&#x422;" horiz-adv-x="441" 
d="M152 0l121 635h-209l8 39h462l-8 -39h-208l-121 -635h-45z" />
    <glyph glyph-name="afii10037" unicode="&#x423;" horiz-adv-x="457" 
d="M94 674h48l98 -338l30 -111h1l68 141l150 308h48l-152 -308q-124 -253 -185 -318q-56 -59 -123 -59q-29 0 -51 11l12 38q18 -7 42 -7q82 0 151 135q8 14 2 35z" />
    <glyph glyph-name="afii10038" unicode="&#x424;" horiz-adv-x="658" 
d="M260 -25l11 55q-92 10 -153 78.5t-61 181.5q0 73 20.5 134t53.5 102t76.5 70t89 42t91.5 12l11 49h44l-10 -52q94 -10 153.5 -79t59.5 -189q0 -160 -93 -255.5t-238 -97.5l-10 -51h-45zM279 67l102 546q-47 0 -94.5 -20t-89 -57.5t-67.5 -99.5t-26 -139q0 -96 48 -156.5
t127 -73.5zM425 611l-102 -548q91 3 155 49t92.5 116t28.5 156q0 98 -48.5 158t-125.5 69z" />
    <glyph glyph-name="afii10039" unicode="&#x425;" horiz-adv-x="492" 
d="M435 0h-48l-75 187q-26 57 -48 119h-2l-85 -114l-146 -192h-54l269 342l-131 332h48l78 -200q28 -70 36 -97h2l71 96l160 201h55l-269 -330z" />
    <glyph glyph-name="afii10040" unicode="&#x426;" horiz-adv-x="590" 
d="M167 674h46l-121 -635h332l122 635h44l-121 -635h53l-46 -196h-39l28 157h-426z" />
    <glyph glyph-name="afii10041" unicode="&#x427;" horiz-adv-x="525" 
d="M140 674h45l-37 -195q-12 -63 -12 -90q0 -54 33 -82.5t92 -28.5q46 0 90 16.5t70 35.5l64 344h45l-128 -680h-45l55 290h-2q-72 -45 -161 -45q-75 0 -117 38.5t-42 105.5q0 36 14 102z" />
    <glyph glyph-name="afii10042" unicode="&#x428;" horiz-adv-x="770" 
d="M168 674h46l-122 -635h235l121 635h46l-122 -635h236l121 635h46l-130 -674h-606z" />
    <glyph glyph-name="afii10043" unicode="&#x429;" horiz-adv-x="774" 
d="M167 674h46l-121 -635h235l120 635h46l-121 -635h236l120 635h46l-121 -635h52l-46 -196h-39l29 157h-610z" />
    <glyph glyph-name="afii10044" unicode="&#x42a;" horiz-adv-x="577" 
d="M72 674h240l-50 -264q30 6 78 6q92 0 148 -46.5t56 -136.5q0 -103 -70 -167q-80 -71 -225 -71q-22 0 -43.5 1t-41 2.5t-26.5 1.5l121 635h-194zM253 369l-62 -330q30 -5 77 -5q93 0 161.5 50.5t68.5 143.5q0 75 -44 112t-122 37q-37 0 -79 -8z" />
    <glyph glyph-name="afii10045" unicode="&#x42b;" horiz-adv-x="662" 
d="M167 674h46l-50 -264q30 6 78 6q92 0 148 -46.5t56 -136.5q-1 -102 -67 -164q-83 -74 -228 -74q-22 0 -43.5 1t-41 2.5t-26.5 1.5zM154 370l-62 -330q27 -6 77 -6q91 0 160.5 51.5t69.5 139.5q0 152 -168 152q-26 0 -77 -7zM619 674h47l-129 -675h-46z" />
    <glyph glyph-name="afii10046" unicode="&#x42c;" horiz-adv-x="484" 
d="M167 674h46l-50 -264q27 6 78 6q92 0 148 -46.5t56 -136.5q0 -103 -67 -165q-83 -73 -228 -73q-22 0 -43.5 1t-41 2.5t-26.5 1.5zM154 369l-62 -329q27 -6 77 -6q94 0 162 51t68 140q0 152 -168 152q-43 0 -77 -8z" />
    <glyph glyph-name="afii10047" unicode="&#x42d;" horiz-adv-x="520" 
d="M135 326l7 39h321q2 12 2 45q0 101 -56.5 168t-158.5 67q-84 0 -145 -32l-11 35q65 36 162 36q121 0 189 -75.5t68 -208.5q0 -85 -30 -169.5t-91 -146.5q-94 -94 -240 -94q-101 0 -165 41l17 37q66 -39 146 -39q127 0 208 83.5t101 213.5h-324z" />
    <glyph glyph-name="afii10048" unicode="&#x42e;" horiz-adv-x="814" 
d="M167 674h45l-57 -298h111q30 128 101 210q39 46 95.5 72.5t114.5 26.5q62 0 108 -23.5t72 -63.5t38 -87t12 -100q0 -84 -29 -171.5t-79 -147.5q-87 -103 -215 -103q-78 0 -132 40.5t-76.5 99.5t-22.5 130q0 39 6 79h-112l-63 -338h-45zM488 28h1q73 0 136.5 56.5
t99.5 144t36 179.5q0 238 -190 238q-77 0 -141 -59.5t-98 -146t-34 -173.5q0 -47 10 -88t31.5 -76t59.5 -55t89 -20z" />
    <glyph glyph-name="afii10049" unicode="&#x42f;" horiz-adv-x="486" 
d="M491 665l-127 -665h-45l60 311h-69q-45 0 -78.5 -12t-58.5 -40.5t-40 -53t-37 -71.5q-58 -122 -65 -134h-50q10 15 76 154q17 35 29 56t31.5 48.5t43.5 44.5t53 25v2q-112 34 -112 143q0 107 93 168q73 38 168 38q56 0 128 -14zM386 348l53 284q-30 8 -81 8
q-89 0 -149 -41.5t-60 -123.5q0 -61 45.5 -94t114.5 -33h77z" />
    <glyph glyph-name="afii10065" unicode="&#x430;" horiz-adv-x="503" 
d="M403 0h-44q-1 41 14 143h-2q-78 -154 -202 -154q-62 0 -98 43.5t-36 109.5q0 86 40.5 165.5t116.5 131.5t168 52q61 0 112 -14l-48 -250q-27 -136 -21 -227zM389 277l32 167q-24 8 -69 8q-109 0 -189 -90t-81 -212q-1 -51 21 -86.5t76 -35.5q65 0 128 74.5t82 174.5z" />
    <glyph glyph-name="afii10066" unicode="&#x431;" horiz-adv-x="487" 
d="M517 721l-7 -45q-24 -10 -58 -17q-100 -17 -160 -42t-107 -89q-44 -62 -69 -156h3q31 49 78.5 78.5t105.5 29.5q73 0 114 -50.5t41 -130.5q0 -53 -16 -107t-46 -99.5t-78.5 -74.5t-107.5 -29q-83 0 -123 59t-40 159q0 94 29 185.5t78 156.5q53 72 120 102.5t171 48.5
q37 8 72 21zM217 27h1q59 0 104.5 43.5t66.5 103t21 119.5q0 65 -29 106.5t-87 41.5q-44 0 -86 -27t-71 -70q-42 -64 -42 -157q0 -67 31 -113.5t91 -46.5z" />
    <glyph glyph-name="afii10067" unicode="&#x432;" horiz-adv-x="441" 
d="M289 491h1q47 0 79.5 -27t32.5 -79q0 -46 -34 -77.5t-81 -47.5v-2q40 -6 70 -34.5t30 -77.5q0 -74 -58 -115t-136 -41q-65 0 -104.5 32t-39.5 102q0 78 34 180t91 147q52 40 115 40zM278 453h-1q-112 0 -163 -194q143 18 189 46q54 34 54 78q0 34 -22 52t-57 18zM221 236
h-1q-53 0 -113 -15q-11 -55 -11 -91q0 -102 102 -102q57 0 99.5 31t42.5 84q0 47 -32.5 70t-86.5 23z" />
    <glyph glyph-name="afii10068" unicode="&#x433;" horiz-adv-x="335" 
d="M118 425l-14 33q52 33 110 32q54 -1 83 -30.5t29 -76.5q0 -29 -10.5 -52t-33 -41.5t-42 -30t-53.5 -28.5q-60 -29 -91 -56t-31 -68q0 -34 21.5 -55.5t63.5 -22.5q49 -1 104 29l13 -33q-57 -36 -129 -35q-56 2 -87.5 33t-31.5 85q0 55 35 88.5t101 67.5q3 1 23 11t26 13.5
l22.5 13.5t22.5 16.5l15.5 17t13 22t3.5 24.5q0 30 -19 49t-55 20q-40 1 -89 -26z" />
    <glyph glyph-name="afii10069" unicode="&#x434;" horiz-adv-x="470" 
d="M142 678l-3 43q35 -6 77 -10q64 -7 103.5 -23.5t69.5 -51.5q32 -36 49 -94.5t17 -117.5q0 -63 -13.5 -132.5t-41.5 -140t-81 -116.5t-123 -46q-78 0 -119 50t-41 135q0 70 25 138.5t79.5 118t126.5 49.5q57 0 93.5 -30t49.5 -83h2q1 15 1 54q0 51 -14.5 104.5t-43.5 84.5
q-25 28 -56.5 41t-83.5 18q-53 6 -73 9zM203 27h1q51 0 95.5 46t66.5 106t22 111q0 62 -32.5 106.5t-89.5 44.5q-59 0 -102 -44.5t-61.5 -102.5t-18.5 -117q0 -64 29.5 -107t89.5 -43z" />
    <glyph glyph-name="afii10070" unicode="&#x435;" horiz-adv-x="423" 
d="M336 64l14 -36q-59 -38 -146 -38q-85 0 -126.5 54t-41.5 133q0 72 32.5 144t92 121t127.5 49q61 0 92.5 -32t31.5 -78q0 -156 -325 -152q-5 -18 -3.5 -56t9.5 -62q30 -82 117 -82q70 0 126 35zM366 378v1q0 35 -23.5 54t-62.5 19q-62 0 -113.5 -54.5t-72.5 -130.5
q272 -4 272 111z" />
    <glyph glyph-name="afii10072" unicode="&#x436;" horiz-adv-x="581" 
d="M72 480h51l136 -221h20l43 221h41l-43 -221h22l215 221h53l-226 -224q83 -7 109 -122q3 -10 13.5 -62.5t18.5 -71.5h-42q-7 17 -29 121q-13 62 -41 83.5t-86 21.5h-15l-44 -226h-42l46 227h-12q-63 0 -104 -24.5t-74 -83.5l-33.5 -63t-30.5 -56h-47q15 24 65 119
q35 67 77.5 101t105.5 37z" />
    <glyph glyph-name="afii10073" unicode="&#x437;" horiz-adv-x="363" 
d="M92 235l7 37h19q56 0 108.5 28t52.5 79q0 35 -24 54t-61 19q-56 0 -112 -35l-14 30q56 44 127 44q57 0 94.5 -28t37.5 -82q0 -49 -38 -81.5t-92 -43.5v-1q43 -5 78 -36.5t35 -76.5q0 -77 -57 -114.5t-137 -37.5q-78 0 -134 36l17 37q53 -34 120 -34q54 0 98.5 27t44.5 80
q0 52 -43.5 75.5t-101.5 23.5h-25z" />
    <glyph glyph-name="afii10074" unicode="&#x438;" horiz-adv-x="506" 
d="M118 480h45l-52 -274q-9 -45 -9 -75q0 -101 94 -101q54 0 110.5 55t71.5 134l50 261h45l-67 -351q-12 -66 -19 -129h-42l15 99h-2q-30 -49 -76.5 -79.5t-95.5 -30.5q-23 0 -43 5.5t-41 19.5t-33 44t-12 73q0 29 9 76z" />
    <glyph glyph-name="afii10075" unicode="&#x439;" horiz-adv-x="506" 
d="M118 480h45l-52 -274q-9 -45 -9 -75q0 -101 94 -101q54 0 110.5 55t71.5 134l50 261h45l-67 -351q-12 -66 -19 -129h-42l15 99h-2q-30 -49 -76.5 -79.5t-95.5 -30.5q-23 0 -43 5.5t-41 19.5t-33 44t-12 73q0 29 9 76zM215 678h42q-3 -32 13.5 -55t46.5 -23q59 0 83 78h44
q-12 -53 -46 -83.5t-83 -30.5q-60 0 -83 34t-17 80z" />
    <glyph glyph-name="afii10076" unicode="&#x43a;" horiz-adv-x="424" 
d="M130 480h44l-42 -221h22l238 221h57l-250 -224q42 -7 70 -37.5t52 -92.5q9 -22 24 -66.5t24 -59.5h-43q-8 15 -23 56.5t-25 63.5q-26 63 -55.5 84.5t-81.5 21.5h-16l-43 -226h-44z" />
    <glyph glyph-name="afii10077" unicode="&#x43b;" horiz-adv-x="488" 
d="M168 480h291l-91 -480h-45l83 441h-201l-27 -142q-44 -231 -142 -284q-31 -17 -67 -18l-5 38q32 2 51 13q78 45 117 248z" />
    <glyph glyph-name="afii10078" unicode="&#x43c;" horiz-adv-x="639" 
d="M156 480h53l51 -279q3 -20 12 -72.5l12 -69.5h1q21 43 101 181l142 240h56l-60 -480h-44l33 252q16 118 24 171h-5q-6 -16 -83 -151l-161 -272h-35l-47 268q-24 141 -25 157h-3q-22 -99 -42 -174l-67 -251h-44z" />
    <glyph glyph-name="afii10079" unicode="&#x43d;" horiz-adv-x="511" 
d="M129 480h45l-38 -204h262l39 204h45l-91 -480h-45l45 238h-263l-45 -238h-45z" />
    <glyph glyph-name="afii10080" unicode="&#x43e;" horiz-adv-x="498" 
d="M217 -11h-1q-85 0 -131.5 57.5t-46.5 138.5q0 120 73.5 213t180.5 93q90 0 134 -59.5t44 -141.5q0 -68 -29.5 -136t-89.5 -116.5t-134 -48.5zM221 28h1q80 0 140.5 81.5t60.5 181.5q0 26 -6.5 52t-21 51.5t-42.5 41.5t-65 16q-85 0 -144 -80.5t-59 -182.5
q0 -70 37.5 -115.5t98.5 -45.5z" />
    <glyph glyph-name="afii10081" unicode="&#x43f;" horiz-adv-x="516" 
d="M83 0h-45l66 351q14 72 21 129h42l-15 -103h2q32 53 80.5 83.5t104.5 30.5q19 0 37.5 -5.5t38 -19t32 -42t12.5 -67.5q0 -27 -9 -76l-53 -281h-45l54 285q7 47 7 66q0 100 -92 100q-56 0 -116.5 -58t-76.5 -147z" />
    <glyph glyph-name="afii10082" unicode="&#x440;" horiz-adv-x="503" 
d="M36 -198h-45l99 518q12 61 26 160h43l-16 -103h2q35 54 83 84t101 30q72 0 108 -49.5t36 -118.5q0 -130 -84.5 -232t-198.5 -102q-71 0 -113 23h-2zM113 209l-28 -152q37 -29 108 -29q93 0 163 90.5t70 201.5q0 52 -26.5 92t-84.5 40q-60 0 -120.5 -65.5t-81.5 -177.5z
" />
    <glyph glyph-name="afii10083" unicode="&#x441;" horiz-adv-x="416" 
d="M341 60l13 -38q-61 -32 -142 -32q-88 0 -131 52t-43 126q0 125 81.5 224t201.5 99q32 0 62 -9t39 -17l-16 -38q-42 22 -92 22q-67 0 -120.5 -42t-81 -104.5t-27.5 -127.5q0 -67 33.5 -106.5t101.5 -39.5q64 0 121 31z" />
    <glyph glyph-name="afii10084" unicode="&#x442;" horiz-adv-x="794" 
d="M83 0h-45l67 351q10 54 20 129h42l-15 -97h3q69 108 172 108q52 0 80.5 -31t30.5 -86q67 116 183 117q42 1 79 -29t37 -95q0 -35 -8 -81l-54 -286h-45l54 286q7 42 7 65q0 100 -88 100q-54 0 -107 -52.5t-68 -134.5l-49 -264h-45l57 293q6 34 6 61q0 97 -89 97
q-52 0 -107 -58t-70 -136z" />
    <glyph glyph-name="afii10085" unicode="&#x443;" horiz-adv-x="403" 
d="M50 480h46l59 -289q23 -106 28 -137h3l58 124l138 302h48q-103 -230 -177 -377q-81 -162 -158 -240q-66 -67 -131 -83l-13 39q53 19 92 51q60 51 103 128q4 9 2 21z" />
    <glyph glyph-name="afii10086" unicode="&#x444;" horiz-adv-x="643" 
d="M216 -198l55 262h-1q-27 -35 -55.5 -55t-74.5 -20q-53 0 -81.5 43.5t-28.5 107.5q0 49 14 107.5t40 114t71 92.5t98 37q32 0 54 -20.5t30 -51.5h1l54 291h44l-60 -295h2q54 76 125 76q60 0 87 -46.5t27 -118.5q0 -49 -13.5 -105t-38 -109t-67 -88t-94.5 -35
q-35 0 -60 21.5t-34 52.5h-1l-49 -261h-44zM251 453h-1q-43 0 -78.5 -34.5t-55.5 -85.5t-30.5 -101t-10.5 -89q0 -53 20 -84.5t57 -31.5q52 0 89 47t49 107l24 121q5 26 5 63q0 35 -21 61.5t-47 26.5zM502 453h-1q-65 0 -113 -73q-22 -34 -34 -96l-21 -108q-5 -27 -5 -50
q0 -35 22.5 -67t57.5 -32q52 0 91.5 55t56 120.5t16.5 121.5q0 129 -70 129z" />
    <glyph glyph-name="afii10087" unicode="&#x445;" horiz-adv-x="405" 
d="M72 480h48l58 -125q6 -12 11.5 -24.5l11.5 -27.5t10 -23h3q33 46 53 70l111 130h53l-203 -234l115 -246h-49l-59 128q-18 38 -37 85h-3q-21 -36 -50 -69l-122 -144h-53l213 246z" />
    <glyph glyph-name="afii10088" unicode="&#x446;" horiz-adv-x="514" 
d="M118 480h45l-52 -274q-9 -45 -9 -75q0 -102 95 -102q54 0 110.5 55t71.5 135l49 261h45l-63 -334q-7 -38 -7 -56q0 -61 64 -62l-50 -158h-35l33 130q-30 5 -47 33q-14 26 -8 65h-2q-30 -49 -76.5 -79t-95.5 -30q-23 0 -43 5.5t-41 19.5t-33 44t-12 73q0 29 9 76z" />
    <glyph glyph-name="afii10089" unicode="&#x447;" horiz-adv-x="474" 
d="M106 480h45l-20 -104q-13 -63 -13 -91q0 -40 21 -61.5t75 -21.5q33 0 76.5 17.5t67.5 40.5l41 220h44l-92 -482h-44l41 215h-1q-69 -49 -144 -49q-131 0 -131 112q0 36 13 95z" />
    <glyph glyph-name="afii10090" unicode="&#x448;" horiz-adv-x="766" 
d="M119 480h45l-54 -286q-7 -42 -7 -65q0 -100 82 -100q54 0 104.5 52.5t65.5 134.5l49 264h45l-57 -293q-6 -35 -6 -61q0 -97 83 -97q49 0 103.5 58.5t68.5 135.5l48 257h45l-65 -346q-6 -35 -11 -134h-43q1 58 5 97h-3q-63 -108 -163 -108q-49 0 -78 31.5t-31 85.5
q-68 -117 -183 -117q-37 0 -71 30t-34 94q0 35 8 81z" />
    <glyph glyph-name="afii10091" unicode="&#x449;" horiz-adv-x="775" 
d="M119 480h45l-54 -286q-7 -42 -7 -65q0 -100 82 -100q51 0 103 53t67 134l49 264h45l-57 -293q-6 -35 -6 -61q0 -97 83 -97q49 0 103.5 58.5t68.5 135.5l47 257h45l-63 -333q-7 -37 -7 -57q0 -59 64 -62l-50 -158h-35l33 130q-31 6 -45 34t-10 63h-3q-69 -108 -167 -108
q-48 0 -75.5 31t-29.5 86q-68 -117 -178 -117q-38 0 -74 30t-36 94q0 35 8 81z" />
    <glyph glyph-name="afii10092" unicode="&#x44a;" horiz-adv-x="474" 
d="M53 480h237l-34 -56l-39 -65t-29 -56t-30 -70h1q27 36 67.5 57.5t85.5 21.5q55 0 87 -32t32 -87q0 -84 -63 -141.5t-149 -57.5q-60 0 -92.5 30t-32.5 90q0 69 40 163t91 164h-180zM220 30h1q64 0 114 45t50 108q0 40 -22 66t-66 26q-47 0 -89.5 -34t-59.5 -78
q-10 -26 -10 -51q0 -36 21 -59t61 -23z" />
    <glyph glyph-name="afii10093" unicode="&#x44b;" horiz-adv-x="591" 
d="M127 480h45l-58 -243h1q25 33 64.5 54t77.5 21q57 0 92.5 -33.5t35.5 -92.5q0 -83 -64 -137.5t-153 -54.5q-119 0 -119 97q0 36 11 82zM173 30h1q65 0 115 43t50 108q0 41 -23 67.5t-69 26.5t-89.5 -37.5t-55.5 -86.5q-9 -34 -9 -58q0 -63 80 -63zM515 480h46l-92 -480
h-46z" />
    <glyph glyph-name="afii10094" unicode="&#x44c;" horiz-adv-x="430" 
d="M127 480h45l-58 -244h1q26 33 65.5 54.5t81.5 21.5q56 0 90 -33t34 -90q0 -85 -63.5 -140t-151.5 -55q-122 0 -122 100q0 30 12 83zM172 30h1q67 0 117 43t50 108q0 94 -90 94q-46 0 -88.5 -36.5t-56.5 -79.5q-12 -32 -12 -61q0 -33 21.5 -50.5t57.5 -17.5z" />
    <glyph glyph-name="afii10095" unicode="&#x44d;" horiz-adv-x="421" 
d="M99 227l6 37h235q1 8 1 24q0 69 -41 116t-113 47q-55 0 -114 -25l-11 34q59 32 128 32q94 0 145 -59.5t51 -162.5q0 -118 -71 -199.5t-189 -81.5q-85 0 -136 35l17 37q52 -33 118 -32q86 -1 142 52.5t69 145.5h-237z" />
    <glyph glyph-name="afii10096" unicode="&#x44e;" horiz-adv-x="658" 
d="M129 480h45l-38 -204h86q22 93 85.5 154t146.5 61q87 0 131 -60t44 -141q0 -68 -28.5 -136t-87 -116.5t-130.5 -48.5q-83 0 -128 57.5t-45 139.5q0 16 4 52h-86l-45 -238h-45zM387 27h1q78 0 135.5 81.5t57.5 182.5q0 36 -10.5 70t-41.5 62.5t-78 28.5
q-83 0 -139.5 -81.5t-56.5 -181.5q0 -67 36.5 -114.5t95.5 -47.5z" />
    <glyph glyph-name="afii10097" unicode="&#x44f;" horiz-adv-x="439" 
d="M409 475l-91 -475h-43l41 217h-61q-61 0 -97.5 -26.5t-63.5 -82.5q-46 -94 -54 -108h-46q11 19 21.5 39.5t22 46.5t19.5 42q47 90 127 106v2q-46 11 -74 39t-28 70q0 39 18.5 67.5t50 43.5t66.5 22t74 7q56 0 118 -10zM324 254l36 188q-42 6 -75 6q-155 0 -155 -105
q0 -43 43.5 -66t91.5 -23h59z" />
    <glyph glyph-name="afii10071" unicode="&#x451;" horiz-adv-x="423" 
d="M336 64l14 -36q-59 -38 -146 -38q-85 0 -126.5 54t-41.5 133q0 72 32.5 144t92 121t127.5 49q61 0 92.5 -32t31.5 -78q0 -156 -325 -152q-5 -18 -3.5 -56t9.5 -62q30 -82 117 -82q70 0 126 35zM366 378v1q0 35 -23.5 54t-62.5 19q-62 0 -113.5 -54.5t-72.5 -130.5
q272 -4 272 111zM221 580h-1q-16 0 -25.5 11t-9.5 27t11 28t27 12t26 -11t10 -27t-10.5 -28t-27.5 -12zM390 580h-1q-15 0 -24.5 11t-9.5 27t11 28t27 12t25.5 -11t9.5 -27t-10 -28t-28 -12z" />
    <glyph glyph-name="afii10099" unicode="&#x452;" horiz-adv-x="512" 
d="M173 710h45l-19 -97h269l-11 -37h-265l-33 -175h2q70 90 167 90q74 0 110.5 -54.5t36.5 -149.5q0 -117 -44 -229t-131 -171q-48 -36 -108 -49l-11 38q55 13 100 50q68 49 107.5 149t39.5 208q0 169 -112 169q-61 0 -114 -55t-64 -113l-54 -284h-45l109 576h-66l9 37h65z
" />
    <glyph glyph-name="afii10100" unicode="&#x453;" horiz-adv-x="335" 
d="M118 425l-14 33q52 33 110 32q54 -1 83 -30.5t29 -76.5q0 -29 -10.5 -52t-33 -41.5t-42 -30t-53.5 -28.5q-60 -29 -91 -56t-31 -68q0 -34 21.5 -55.5t63.5 -22.5q49 -1 104 29l13 -33q-57 -36 -129 -35q-56 2 -87.5 33t-31.5 85q0 55 35 88.5t101 67.5q3 1 23 11t26 13.5
l22.5 13.5t22.5 16.5l15.5 17t13 22t3.5 24.5q0 30 -19 49t-55 20q-40 1 -89 -26zM304 678h74l-135 -138h-40z" />
    <glyph glyph-name="afii10101" unicode="&#x454;" horiz-adv-x="409" 
d="M422 460l-18 -36q-43 28 -103 28q-81 0 -136 -54t-73 -134h252l-7 -37h-251q-2 -12 -2 -32q1 -72 42 -119t117 -47q57 0 103 23l13 -33q-50 -29 -132 -29q-89 0 -139 57.5t-50 147.5q0 122 77 212q77 84 190 84q67 0 117 -31z" />
    <glyph glyph-name="afii10102" unicode="&#x455;" horiz-adv-x="346" 
d="M17 20l16 37q40 -28 90 -28q48 0 79 29.5t31 70.5q0 35 -15.5 58.5t-55.5 47.5q-77 46 -77 119q0 56 43 96.5t107 40.5q55 0 86 -23l-17 -38q-34 22 -74 22q-43 0 -71.5 -26.5t-28.5 -64.5q0 -32 16.5 -53t53.5 -44q79 -48 79 -123q0 -69 -46.5 -110t-113.5 -41
q-66 0 -102 30z" />
    <glyph glyph-name="afii10103" unicode="&#x456;" horiz-adv-x="206" 
d="M83 0h-45l92 480h45zM177 586h-1q-15 0 -25 12t-9 29t12 29t26 12q16 0 26 -12t10 -29q-2 -17 -12 -29t-27 -12z" />
    <glyph glyph-name="afii10104" unicode="&#x457;" horiz-adv-x="206" 
d="M83 0h-45l92 480h45zM85 580h-1q-16 0 -25.5 11t-9.5 27t11 28t27 12t26 -11t10 -27t-10.5 -28t-27.5 -12zM254 580h-1q-15 0 -24.5 11t-9.5 27t11 28t27 12t25.5 -11t9.5 -27t-10 -28t-28 -12z" />
    <glyph glyph-name="afii10105" unicode="&#x458;" horiz-adv-x="197" 
d="M129 480h45l-93 -487q-23 -119 -58 -158q-39 -44 -97 -44q-31 0 -46 5l6 38q16 -4 42 -4q38 0 63.5 31t39.5 108zM172 586h-1q-15 0 -24.5 11.5t-9.5 27.5q0 17 10.5 30t27.5 13q15 0 25 -11.5t11 -27.5q-1 -18 -11.5 -30.5t-27.5 -12.5z" />
    <glyph glyph-name="afii10106" unicode="&#x459;" horiz-adv-x="705" 
d="M162 480h277l-48 -239h2q63 71 149 71q55 0 87.5 -32t32.5 -89q0 -86 -63.5 -141.5t-149.5 -55.5q-124 0 -124 100q0 35 9 77l53 270h-187l-27 -144q-22 -119 -53.5 -185.5t-85.5 -95.5q-32 -19 -67 -19l-4 38q28 0 49 12q78 46 115 246zM451 30h1q66 0 115 42.5
t49 107.5q0 43 -21 69t-63 26q-45 0 -88 -34t-62 -78q-13 -28 -13 -62q0 -35 22 -53t60 -18z" />
    <glyph glyph-name="afii10107" unicode="&#x45a;" horiz-adv-x="719" 
d="M129 480h45l-35 -189h233l35 189h45l-48 -239h2q25 32 64.5 51.5t77.5 19.5q57 0 92 -33.5t35 -91.5q0 -87 -63 -140t-151 -53q-125 0 -125 97q0 21 12 81l17 82h-234l-48 -254h-45zM465 30h1q66 0 114.5 42.5t48.5 107.5q0 42 -23 68.5t-69 26.5q-45 0 -88 -36.5
t-58 -85.5q-10 -35 -10 -56q0 -32 23 -49.5t61 -17.5z" />
    <glyph glyph-name="afii10108" unicode="&#x45b;" horiz-adv-x="516" 
d="M174 710h45l-19 -97h265l-8 -37h-264l-38 -195h2q70 110 183 110q18 0 36.5 -5.5t38 -18.5t32 -40t12.5 -64q0 -38 -7 -78l-54 -285h-45l54 286q7 37 7 68q0 43 -22 70t-69 27q-58 0 -117.5 -57.5t-74.5 -140.5l-47 -253h-45l109 576h-65l8 37h65z" />
    <glyph glyph-name="afii10109" unicode="&#x45c;" horiz-adv-x="424" 
d="M130 480h44l-42 -221h22l238 221h57l-250 -224q42 -7 70 -37.5t52 -92.5q9 -22 24 -66.5t24 -59.5h-43q-8 15 -23 56.5t-25 63.5q-26 63 -55.5 84.5t-81.5 21.5h-16l-43 -226h-44zM350 678h74l-135 -138h-40z" />
    <glyph glyph-name="afii10110" unicode="&#x45e;" horiz-adv-x="403" 
d="M50 480h46l59 -289q23 -106 28 -137h3l58 124l138 302h48q-103 -230 -177 -377q-81 -162 -158 -240q-66 -67 -131 -83l-13 39q53 19 92 51q60 51 103 128q4 9 2 21zM158 678h42q-3 -32 13.5 -55t46.5 -23q59 0 83 78h44q-12 -53 -46 -83.5t-83 -30.5q-60 0 -83 34t-17 80
z" />
    <glyph glyph-name="afii10193" unicode="&#x45f;" horiz-adv-x="506" 
d="M118 480h45l-52 -274q-9 -45 -9 -75q0 -101 94 -101q54 0 110.5 55t71.5 134l50 261h45l-67 -351q-12 -66 -19 -129h-42l15 99h-2q-30 -49 -76.5 -79.5t-95.5 -30.5q-23 0 -43 5.5t-41 19.5t-33 44t-12 73q0 29 9 76zM190 -191l-40 -5l28 154l48 5z" />
    <glyph glyph-name="afii10050" unicode="&#x490;" horiz-adv-x="371" 
d="M165 674h256l37 123h40l-41 -163h-253l-118 -634h-47z" />
    <glyph glyph-name="afii10098" unicode="&#x491;" horiz-adv-x="352" 
d="M129 480h217l36 107h38l-41 -146h-214l-83 -441h-44z" />
    <glyph glyph-name="afii10846" unicode="&#x4d9;" horiz-adv-x="411" 
d="M85 417l-14 36q59 38 146 38q85 0 126.5 -54t41.5 -133q0 -72 -32.5 -144t-92 -121t-127.5 -49q-61 0 -92.5 32t-31.5 78q0 156 325 152q5 18 3.5 56t-9.5 62q-30 82 -117 82q-70 0 -126 -35zM141 29h1q62 0 113 54.5t72 130.5q-272 4 -272 -111q0 -36 23.5 -55t62.5 -19
z" />
    <glyph glyph-name="Wgrave" unicode="&#x1e80;" horiz-adv-x="807" 
d="M183 0h-45l-38 674h45l23 -468q3 -55 3 -149h2q17 47 63 143l228 474h46l24 -441q6 -110 6 -176h2q26 75 61 148l222 469h47l-323 -674h-45l-25 450q-6 86 -1 175h-3q-33 -93 -59 -146zM377 823h70l73 -113h-37z" />
    <glyph glyph-name="wgrave" unicode="&#x1e81;" horiz-adv-x="691" 
d="M67 480h43l27 -312q6 -62 6 -114h3q25 60 49 103l173 323h45l42 -319q10 -80 11 -107h2q26 68 41 100l160 326h47l-240 -480h-41l-43 319q-10 70 -9 112h-2l-24 -50t-31 -62l-173 -319h-42zM303 678h66l61 -138h-33z" />
    <glyph glyph-name="Wacute" unicode="&#x1e82;" horiz-adv-x="807" 
d="M183 0h-45l-38 674h45l23 -468q3 -55 3 -149h2q17 47 63 143l228 474h46l24 -441q6 -110 6 -176h2q26 75 61 148l222 469h47l-323 -674h-45l-25 450q-6 86 -1 175h-3q-33 -93 -59 -146zM559 823h77l-140 -113h-44z" />
    <glyph glyph-name="wacute" unicode="&#x1e83;" horiz-adv-x="691" 
d="M67 480h43l27 -312q6 -62 6 -114h3q25 60 49 103l173 323h45l42 -319q10 -80 11 -107h2q26 68 41 100l160 326h47l-240 -480h-41l-43 319q-10 70 -9 112h-2l-24 -50t-31 -62l-173 -319h-42zM467 678h74l-135 -138h-40z" />
    <glyph glyph-name="Wdieresis" unicode="&#x1e84;" horiz-adv-x="807" 
d="M183 0h-45l-38 674h45l23 -468q3 -55 3 -149h2q17 47 63 143l228 474h46l24 -441q6 -110 6 -176h2q26 75 61 148l222 469h47l-323 -674h-45l-25 450q-6 86 -1 175h-3q-33 -93 -59 -146zM417 726h-1q-15 0 -25 12t-10 27t11.5 27.5t27.5 12.5t26 -12t10 -27t-11 -27.5
t-28 -12.5zM587 726h-1q-15 0 -25 12t-10 27t11.5 27.5t27.5 12.5t26 -12t10 -27t-11 -27.5t-28 -12.5z" />
    <glyph glyph-name="wdieresis" unicode="&#x1e85;" horiz-adv-x="691" 
d="M67 480h43l27 -312q6 -62 6 -114h3q25 60 49 103l173 323h45l42 -319q10 -80 11 -107h2q26 68 41 100l160 326h47l-240 -480h-41l-43 319q-10 70 -9 112h-2l-24 -50t-31 -62l-173 -319h-42zM331 580h-1q-16 0 -25.5 11t-9.5 27t11 28t27 12t26 -11t10 -27t-10.5 -28
t-27.5 -12zM500 580h-1q-15 0 -24.5 11t-9.5 27t11 28t27 12t25.5 -11t9.5 -27t-10 -28t-28 -12z" />
    <glyph glyph-name="Ygrave" unicode="&#x1ef2;" horiz-adv-x="484" 
d="M212 0h-45l54 283l-129 391h48l79 -247q23 -73 30 -107h2l74 111l173 243h51l-284 -392zM213 823h70l73 -113h-37z" />
    <glyph glyph-name="ygrave" unicode="&#x1ef3;" horiz-adv-x="406" 
d="M50 480h47l59 -289q18 -88 25 -134h3l56 121l146 302h48l-186 -378q-41 -83 -74.5 -138.5t-78.5 -100.5q-65 -67 -131 -83l-13 39q53 18 92 51q59 48 103 128q4 9 2 21zM141 678h66l61 -138h-33z" />
    <glyph glyph-name="endash" unicode="&#x2013;" horiz-adv-x="500" 
d="M41 274h440l-8 -39h-440z" />
    <glyph glyph-name="emdash" unicode="&#x2014;" horiz-adv-x="1000" 
d="M41 274h940l-8 -39h-940z" />
    <glyph glyph-name="quoteleft" unicode="&#x2018;" horiz-adv-x="156" 
d="M137 480l-59 -10q23 55 61 125t55 92l34 5q-18 -32 -47 -99t-44 -113z" />
    <glyph glyph-name="quoteright" unicode="&#x2019;" horiz-adv-x="156" 
d="M156 682l59 10q-23 -55 -61 -125t-55 -92l-34 -5q18 32 47 99t44 113z" />
    <glyph glyph-name="quotesinglbase" unicode="&#x201a;" horiz-adv-x="156" 
d="M-17 -121l-35 -5q19 33 48 100.5t43 111.5l59 10q-22 -53 -60 -123.5t-55 -93.5z" />
    <glyph glyph-name="quotedblleft" unicode="&#x201c;" horiz-adv-x="277" 
d="M137 480l-59 -10q23 53 61 123.5t55 93.5l35 5q-18 -32 -47 -99t-45 -113zM257 480l-59 -10q23 53 61 123.5t55 93.5l35 5q-18 -32 -47 -99t-45 -113z" />
    <glyph glyph-name="quotedblright" unicode="&#x201d;" horiz-adv-x="277" 
d="M157 682l59 10q-23 -53 -61 -123.5t-55 -93.5l-35 -5q19 33 48.5 100t43.5 112zM277 682l59 10q-23 -53 -61 -123.5t-55 -93.5l-35 -5q19 33 48.5 100t43.5 112z" />
    <glyph glyph-name="quotedblbase" unicode="&#x201e;" horiz-adv-x="277" 
d="M-17 -121l-35 -5q18 32 47 99t44 113l59 10q-21 -52 -59.5 -122.5t-55.5 -94.5zM103 -121l-35 -5q19 33 48 100.5t43 111.5l59 10q-22 -53 -60 -123.5t-55 -93.5z" />
    <glyph glyph-name="dagger" unicode="&#x2020;" horiz-adv-x="460" 
d="M293 674h46l-46 -217l165 4l-9 -43l-163 4l-86 -471h-46l95 471l-164 -4l8 43l163 -4z" />
    <glyph glyph-name="daggerdbl" unicode="&#x2021;" horiz-adv-x="460" 
d="M293 674h46l-44 -210l164 4l-8 -43l-163 4l-44 -231l164 4l-8 -43l-163 4l-37 -213h-46l45 213l-164 -4l9 43l162 -4l44 231l-164 -4l8 43l163 -4z" />
    <glyph glyph-name="bullet" unicode="&#x2022;" horiz-adv-x="240" 
d="M129 178h-1q-36 0 -62 26t-26 63q-1 37 25.5 63t63.5 26t63.5 -26t26.5 -63t-26.5 -63t-63.5 -26z" />
    <glyph glyph-name="ellipsis" unicode="&#x2026;" horiz-adv-x="1000" 
d="M128 -11h-1q-16 0 -27 13t-11 31q0 20 12 33t30 13t28.5 -12.5t10.5 -31.5t-11.5 -32.5t-30.5 -13.5zM461 -11h-1q-16 0 -27 13t-11 31q0 20 12 33t30 13t28.5 -12.5t10.5 -31.5t-11.5 -32.5t-30.5 -13.5zM794 -11h-1q-16 0 -27 13t-11 31q0 20 12 33t30 13t28.5 -12.5
t10.5 -31.5t-11.5 -32.5t-30.5 -13.5z" />
    <glyph glyph-name="perthousand" unicode="&#x2030;" horiz-adv-x="1040" 
d="M246 661h1q53 0 78.5 -38t25.5 -89q0 -111 -47 -191t-122 -80q-52 0 -79.5 38t-27.5 101q0 61 20 119.5t60 99t91 40.5zM240 627h-1q-52 0 -87 -71t-35 -155q0 -104 72 -104q51 0 85.5 72t34.5 156q0 41 -15.5 71.5t-53.5 30.5zM149 -13h-44l496 676h44zM574 393h1
q52 0 77.5 -38t25.5 -89q0 -111 -47 -191t-121 -80q-52 0 -79.5 38t-27.5 101q0 61 20 119.5t60 99t91 40.5zM567 359h-1q-34 0 -62.5 -34.5t-43.5 -86t-15 -105.5q0 -104 72 -104q51 0 85 72t34 156q0 41 -15.5 71.5t-53.5 30.5zM903 393h1q52 0 77.5 -38t25.5 -89
q0 -111 -47 -191t-121 -80q-52 0 -79.5 38t-27.5 101q0 61 20 119.5t60 99t91 40.5zM896 359h-1q-34 0 -62.5 -34.5t-43.5 -86t-15 -105.5q0 -104 72 -104q51 0 85 72t34 156q0 41 -15.5 71.5t-53.5 30.5z" />
    <glyph glyph-name="guilsinglleft" unicode="&#x2039;" horiz-adv-x="231" 
d="M244 432l-157 -181l106 -179h-46l-108 180l156 180h49z" />
    <glyph glyph-name="guilsinglright" unicode="&#x203a;" horiz-adv-x="231" 
d="M166 254l-106 178h46l108 -180l-156 -180h-49z" />
    <glyph glyph-name="fraction" unicode="&#x2044;" horiz-adv-x="389" 
d="M-7 -11h-45l486 672h45z" />
    <glyph glyph-name="fraction" unicode="&#x2215;" horiz-adv-x="389" 
d="M-7 -11h-45l486 672h45z" />
    <glyph glyph-name="zerosuperior" unicode="&#x2070;" horiz-adv-x="297" 
d="M189 399h-1q-97 0 -97 135q0 106 49.5 187.5t121.5 81.5q51 0 73.5 -35t22.5 -86q0 -109 -47.5 -196t-121.5 -87zM194 432h1q36 0 65 43.5t43 98t14 102.5q0 94 -60 94q-51 0 -88 -75.5t-37 -163.5q0 -99 62 -99z" />
    <glyph glyph-name="foursuperior" unicode="&#x2074;" horiz-adv-x="289" 
d="M262 406h-39l22 112h-176l6 26l222 253h40l-47 -246h57l-7 -33h-57zM251 551l28 144q4 22 13 55l-2 1q-7 -9 -20 -28t-21 -29l-126 -142v-1h128z" />
    <glyph glyph-name="fivesuperior" unicode="&#x2075;" horiz-adv-x="269" 
d="M344 796l-8 -35h-138l-34 -109q16 2 22 2q36 0 65 -16q51 -26 51 -88q0 -69 -47 -110t-111 -41q-54 0 -83 22l13 32q30 -20 76 -20q44 0 77 32t33 75q0 80 -97 80q-9 0 -24.5 -1.5t-20.5 -1.5l54 179h172z" />
    <glyph glyph-name="sixsuperior" unicode="&#x2076;" horiz-adv-x="297" 
d="M351 803l-6 -36q-21 0 -41 -5q-57 -13 -99 -53.5t-62 -101.5l1 -1q18 25 47 41t58 16q47 0 72 -30t25 -77q0 -60 -42.5 -108.5t-102.5 -48.5q-53 0 -81.5 35t-28.5 92q0 66 30.5 124.5t71.5 93.5q48 38 104 51q21 6 54 8zM205 432h1q40 0 69 37.5t29 84.5q0 76 -69 76
q-26 0 -51.5 -16t-42.5 -44q-5 -8 -7 -20q-2 -7 -2 -30q0 -40 18.5 -64t54.5 -24z" />
    <glyph glyph-name="sevensuperior" unicode="&#x2077;" horiz-adv-x="261" 
d="M126 796h232l-5 -30l-235 -360h-45l233 353v2h-186z" />
    <glyph glyph-name="eightsuperior" unicode="&#x2078;" horiz-adv-x="298" 
d="M259 803h1q43 0 70.5 -24t27.5 -64q0 -66 -79 -103v-1q60 -31 60 -94q0 -54 -41 -86t-94 -32q-54 0 -86.5 27.5t-32.5 69.5t26.5 73t68.5 46v2q-44 29 -44 77q0 46 36 77.5t87 31.5zM204 430h1q39 0 65.5 23t26.5 60q0 61 -78 85q-38 -8 -65 -33t-27 -64q0 -29 20 -50
t57 -21zM253 772h-1q-32 0 -54.5 -22.5t-22.5 -52.5q0 -51 64 -70q34 9 56 31t22 52q0 24 -15 43t-49 19z" />
    <glyph glyph-name="ninesuperior" unicode="&#x2079;" horiz-adv-x="290" 
d="M91 399l5 35q18 0 39 3q47 8 89 44q48 43 75 112l-2 1q-41 -50 -99 -50q-47 0 -71 30.5t-24 71.5q0 61 42.5 109t101.5 48q52 0 78 -34.5t26 -87.5q0 -70 -33 -133t-72 -95q-48 -40 -110 -51q-24 -5 -45 -3zM243 770h-1q-39 0 -68.5 -35.5t-29.5 -84.5q0 -31 16.5 -51.5
t48.5 -20.5q54 0 89 52q5 6 8 16q4 20 4 40q0 38 -16.5 61t-50.5 23z" />
    <glyph glyph-name="parenleftsuperior" unicode="&#x207d;" horiz-adv-x="168" 
d="M239 831h36q-130 -143 -130 -322q0 -82 37 -164h-32q-41 79 -41 167q0 101 38.5 182.5t91.5 136.5z" />
    <glyph glyph-name="parenrightsuperior" unicode="&#x207e;" horiz-adv-x="168" 
d="M77 345h-37q131 148 131 323q0 80 -38 163h32q42 -79 42 -166q0 -176 -130 -320z" />
    <glyph glyph-name="zeroinferior" unicode="&#x2080;" horiz-adv-x="297" 
d="M83 -151h-1q-97 0 -97 135q0 106 49.5 187.5t121.5 81.5q51 0 73.5 -35t22.5 -86q0 -109 -47.5 -196t-121.5 -87zM88 -118h1q36 0 65 43.5t43 98t14 102.5q0 94 -60 94q-51 0 -88 -75.5t-37 -163.5q0 -99 62 -99z" />
    <glyph glyph-name="oneinferior" unicode="&#x2081;" horiz-adv-x="200" 
d="M66 -144h-39l67 350h-2l-68 -33l-5 32l86 41h35z" />
    <glyph glyph-name="twoinferior" unicode="&#x2082;" horiz-adv-x="273" 
d="M180 -144h-238l5 28l72 59q88 73 126.5 118t38.5 93q0 26 -15 44t-51 18q-41 0 -83 -32l-14 28q50 39 106 39q50 0 75 -28.5t25 -68.5q0 -53 -45 -104.5t-134 -122.5l-42 -34v-2h181z" />
    <glyph glyph-name="threeinferior" unicode="&#x2083;" horiz-adv-x="263" 
d="M35 189l-12 29q41 33 95 33q49 0 72.5 -24t23.5 -59q0 -33 -24 -59.5t-62 -39.5l-1 -2q31 -9 49.5 -34.5t17.5 -56.5q-1 -55 -41.5 -90t-108.5 -35q-63 0 -93 26l15 30q38 -23 82 -23q50 0 77.5 26.5t27.5 63.5q0 38 -28.5 57t-66.5 19h-22l6 31h23q39 0 73 24t34 58
q0 54 -63 54q-40 0 -74 -28z" />
    <glyph glyph-name="fourinferior" unicode="&#x2084;" horiz-adv-x="289" 
d="M156 -144h-39l22 112h-176l6 26l222 253h40l-47 -246h57l-7 -33h-57zM145 1l28 144q4 22 13 55l-2 1q-7 -9 -20 -28t-21 -29l-126 -142v-1h128z" />
    <glyph glyph-name="fiveinferior" unicode="&#x2085;" horiz-adv-x="269" 
d="M238 246l-8 -35h-138l-34 -109q16 2 22 2q36 0 65 -16q51 -26 51 -88q0 -69 -47 -110t-111 -41q-54 0 -83 22l13 32q30 -20 76 -20q44 0 77 32t33 75q0 80 -97 80q-9 0 -24.5 -1.5t-20.5 -1.5l54 179h172z" />
    <glyph glyph-name="sixinferior" unicode="&#x2086;" horiz-adv-x="297" 
d="M245 253l-6 -36q-21 0 -41 -5q-57 -13 -99 -53.5t-62 -101.5l1 -1q18 25 47 41t58 16q47 0 72 -30t25 -77q0 -60 -42.5 -108.5t-102.5 -48.5q-53 0 -81.5 35t-28.5 92q0 66 30.5 124.5t71.5 93.5q48 38 104 51q21 6 54 8zM99 -118h1q40 0 69 37.5t29 84.5q0 76 -69 76
q-26 0 -51.5 -16t-42.5 -44q-5 -8 -7 -20q-2 -7 -2 -30q0 -40 18.5 -64t54.5 -24z" />
    <glyph glyph-name="seveninferior" unicode="&#x2087;" horiz-adv-x="261" 
d="M20 246h232l-5 -30l-235 -360h-45l233 353v2h-186z" />
    <glyph glyph-name="eightinferior" unicode="&#x2088;" horiz-adv-x="298" 
d="M153 253h1q43 0 70.5 -24t27.5 -64q0 -66 -79 -103v-1q60 -31 60 -94q0 -54 -41 -86t-94 -32q-54 0 -86.5 27.5t-32.5 69.5t26.5 73t68.5 46v2q-44 29 -44 77q0 46 36 77.5t87 31.5zM98 -120h1q39 0 65.5 23t26.5 60q0 61 -78 85q-38 -8 -65 -33t-27 -64q0 -29 20 -50
t57 -21zM147 222h-1q-32 0 -54.5 -22.5t-22.5 -52.5q0 -51 64 -70q34 9 56 31t22 52q0 24 -15 43t-49 19z" />
    <glyph glyph-name="nineinferior" unicode="&#x2089;" horiz-adv-x="290" 
d="M-15 -151l5 35q18 0 39 3q47 8 89 44q48 43 75 112l-2 1q-41 -50 -99 -50q-47 0 -71 30.5t-24 71.5q0 61 42.5 109t101.5 48q52 0 78 -34.5t26 -87.5q0 -70 -33 -133t-72 -95q-48 -40 -110 -51q-24 -5 -45 -3zM137 220h-1q-39 0 -68.5 -35.5t-29.5 -84.5
q0 -31 16.5 -51.5t48.5 -20.5q54 0 89 52q5 6 8 16q4 20 4 40q0 38 -16.5 61t-50.5 23z" />
    <glyph glyph-name="parenleftinferior" unicode="&#x208d;" horiz-adv-x="168" 
d="M133 281h36q-130 -143 -130 -322q0 -82 37 -164h-32q-41 79 -41 167q0 101 38.5 182.5t91.5 136.5z" />
    <glyph glyph-name="parenrightinferior" unicode="&#x208e;" horiz-adv-x="168" 
d="M-29 -205h-37q131 148 131 323q0 80 -38 163h32q42 -79 42 -166q0 -176 -130 -320z" />
    <glyph glyph-name="Euro" unicode="&#x20ac;" horiz-adv-x="462" 
d="M397 57l12 -32q-53 -36 -130 -36q-109 0 -165 80t-49 192h-61l8 37h57q4 32 14 68h-59l9 37h62q36 108 118.5 183t186.5 75q65 0 113 -30l-17 -35q-48 26 -102 26q-88 0 -155.5 -64.5t-97.5 -154.5h284l-7 -37h-289q-10 -33 -13 -68h287l-8 -37h-284q-5 -95 39.5 -164
t135.5 -69q58 0 111 29z" />
    <glyph glyph-name="afii61289" unicode="&#x2113;" horiz-adv-x="445" 
d="M192 526l-51 -265q87 77 151 166.5t64 174.5q0 75 -57 75q-34 0 -63.5 -38.5t-43.5 -112.5zM360 127l27 -24q-65 -112 -176 -112q-74 0 -106 48t-26 123l2 12q-49 -34 -61 -41l-16 29q63 41 86 60l56 290q20 105 64 154.5t99 49.5q41 0 67 -30t26 -79q0 -178 -271 -400
l-2 -16q-21 -158 88 -158q33 0 63 17t45.5 34t34.5 43z" />
    <glyph glyph-name="afii61352" unicode="&#x2116;" horiz-adv-x="851" 
d="M691 297h-1q-51 0 -82.5 32.5t-31.5 92.5q0 84 48.5 152t128.5 68q54 0 83.5 -34t29.5 -94q0 -84 -48 -150.5t-127 -66.5zM795 252l-7 -38h-231l7 38h231zM557 656l-125 -656h-47l-126 376q-47 135 -65 218l-2 -1q-22 -135 -48 -272l-62 -321h-43l126 656h50l128 -377
q49 -145 64 -216l2 1q13 112 45 273l61 319h42zM697 331h1q58 0 91.5 56t33.5 122q0 43 -18 71t-58 28q-57 0 -92.5 -57.5t-35.5 -118.5q0 -47 21 -74t57 -27z" />
    <glyph glyph-name="trademark" unicode="&#x2122;" horiz-adv-x="651" 
d="M104 674h220v-31h-92v-241h-36v241h-92v31zM657 402h-38l-13 185q-1 21 -3 58h-2q-3 -8 -22 -65l-63 -174h-41l-64 179q-6 20 -20 60h-2q0 -16 -2 -58l-13 -185h-36l22 272h53l64 -174l19 -57h2l18 55l64 176h53z" />
    <glyph glyph-name="estimated" unicode="&#x212e;" horiz-adv-x="817" 
d="M782 316h-605q-5 0 -5 -4v-183q0 -10 9 -21q93 -99 229 -99q145 0 240 111h55q-52 -61 -130 -96t-166 -35q-155 0 -264.5 98.5t-109.5 237.5t109.5 237.5t264.5 98.5t264 -98.5t109 -237.5v-9zM646 340v184q0 12 -10 22q-95 95 -226 95q-133 0 -228 -98q-10 -10 -10 -23
v-180q0 -5 5 -5h464q5 0 5 5z" />
    <glyph glyph-name="partialdiff" unicode="&#x2202;" horiz-adv-x="488" 
d="M124 641l-16 32q73 50 160 50q90 0 153 -76t63 -214q0 -114 -35.5 -214.5t-103.5 -165t-153 -64.5q-76 0 -116.5 51.5t-40.5 125.5q0 109 70.5 188t174.5 79q51 0 94 -30t57 -67h1q9 48 9 98q0 121 -53 184.5t-124 63.5q-81 0 -140 -41zM199 30h1q80 0 139 72.5t82 179.5
q-14 46 -56 78t-93 32q-80 0 -134.5 -64.5t-54.5 -159.5q0 -63 31 -100.5t85 -37.5z" />
    <glyph glyph-name="uni2206" unicode="&#x2206;" horiz-adv-x="476" 
d="M506 0h-501l6 32l340 626h46l115 -626zM64 39h401l-73 404q-19 107 -27 165h-2q-11 -25 -71 -144z" />
    <glyph glyph-name="product" unicode="&#x220f;" horiz-adv-x="595" 
d="M631 610h-77l-143 -700h-45l144 700h-288l-143 -700h-45l143 700h-79l8 40h534z" />
    <glyph glyph-name="summation" unicode="&#x2211;" horiz-adv-x="520" 
d="M436 -90h-470l5 31l318 341l-186 335l6 33h423l-7 -40h-368l-1 -3l182 -328l-301 -326v-3h406z" />
    <glyph glyph-name="minus" unicode="&#x2212;" horiz-adv-x="596" 
d="M63 286h494v-38h-494v38z" />
    <glyph glyph-name="radical" unicode="&#x221a;" horiz-adv-x="523" 
d="M608 819l-376 -923h-38l-75 438l-74 -30l-9 32l117 48l61 -376q4 -21 6 -52h1q4 12 19 52l327 811h41z" />
    <glyph glyph-name="infinity" unicode="&#x221e;" horiz-adv-x="713" 
d="M533 129h-1q-15 0 -29.5 3t-30 11l-24.5 13t-26 19.5l-21.5 18.5t-23 23t-20.5 20q-37 -37 -55 -53.5t-55 -35.5t-74 -19q-58 0 -95.5 37.5t-37.5 97.5q0 56 41 96t100 40q14 0 28 -3.5t24 -6.5t24.5 -12.5l21 -13.5t22 -18t19 -17.5l20 -20l17.5 -17.5q36 37 55 54
t55.5 36t73.5 19q58 0 95.5 -38t37.5 -98q0 -56 -41 -95.5t-100 -39.5zM535 168h1q41 0 68.5 28.5t27.5 67.5q0 42 -26.5 69.5t-67.5 27.5q-30 0 -61.5 -17.5t-48.5 -34t-44 -45.5q7 -6 25 -24.5t28.5 -27.5t27.5 -21t34 -17.5t36 -5.5zM176 168h1q22 0 43.5 8t43.5 25.5
t33.5 29l32.5 33.5l-30.5 30t-38.5 35.5t-35 20t-47 11.5q-41 0 -69 -28.5t-28 -68.5q0 -41 26.5 -68.5t67.5 -27.5z" />
    <glyph glyph-name="integral" unicode="&#x222b;" horiz-adv-x="263" 
d="M346 780l-15 -35q-14 4 -27 4q-23 0 -41.5 -14.5t-29 -32.5t-19.5 -48.5t-12.5 -47.5t-7.5 -44q-10 -60 -33.5 -233t-36.5 -248q-36 -222 -154 -222q-21 0 -41 9l11 34q17 -5 33 -5q27 0 47.5 18.5t32 50t18 56.5t11.5 54q1 5 1 7q12 70 35 243t34 239q37 222 159 222
q21 0 35 -7z" />
    <glyph glyph-name="approxequal" unicode="&#x2248;" horiz-adv-x="596" 
d="M541 405l25 -29q-25 -27 -65 -46.5t-81 -19.5q-21 0 -42.5 4.5t-32.5 8.5t-31 12.5l-25 10.5q-6 2 -23 10t-28 12t-29.5 8t-36.5 4q-31 0 -64.5 -16.5t-56.5 -39.5l-25 30q25 26 65.5 45.5t80.5 19.5q21 0 42 -4t33.5 -8.5t30.5 -12l25 -10.5q3 -1 22.5 -10t29 -13
t28.5 -8t37 -4q31 0 64.5 16.5t56.5 39.5zM547 215l25 -29q-25 -27 -65 -46.5t-81 -19.5q-21 0 -42.5 4.5t-32.5 8.5t-31 12.5l-25 10.5q-6 2 -23 10t-28 12t-29.5 8t-36.5 4q-31 0 -64.5 -16.5t-56.5 -39.5l-25 30q25 26 65.5 45.5t80.5 19.5q21 0 42 -4t33.5 -8.5
t30.5 -12l25 -10.5q3 -1 22.5 -10t29 -13t28.5 -8t37 -4q31 0 64.5 16.5t56.5 39.5z" />
    <glyph glyph-name="notequal" unicode="&#x2260;" horiz-adv-x="596" 
d="M556 156h-310l-85 -134h-44l86 134h-163v39h188l97 151h-285v39h310l85 134h44l-86 -134h163v-39h-188l-97 -151h285v-39z" />
    <glyph glyph-name="lessequal" unicode="&#x2264;" horiz-adv-x="596" 
d="M525 87l-454 203v38l454 203v-45l-401 -176v-2l401 -175v-46zM525 0h-451v39h451v-39z" />
    <glyph glyph-name="greaterequal" unicode="&#x2265;" horiz-adv-x="596" 
d="M525 290l-454 -203v46l401 175v2l-401 176v45l454 -203v-38zM522 0h-451v39h451v-39z" />
    <glyph glyph-name="lozenge" unicode="&#x25ca;" horiz-adv-x="475" 
d="M449 325l-239 -352h-42l-114 352l239 352h42zM402 324l-91 292q-2 7 -4 19h-2q-1 -3 -12 -19l-192 -290l91 -292q2 -7 4 -19h2q1 3 12 19z" />
    <glyph glyph-name="uniEFED" unicode="&#xefed;" 
d="M289 726h-1q-15 0 -25 12t-10 27t11.5 27.5t27.5 12.5t26 -12t10 -27t-11 -27.5t-28 -12.5z" />
    <glyph glyph-name="uniEFEE" unicode="&#xefee;" 
d="M192 828h35q-1 -24 14.5 -40t51.5 -16q65 0 81 56h38q-7 -40 -38.5 -67.5t-81.5 -27.5q-56 0 -81 27.5t-19 67.5z" />
    <glyph glyph-name="uniEFF1" unicode="&#xeff1;" 
d="M145 1h48q-35 -24 -63 -60t-28 -67q0 -16 9.5 -25.5t25.5 -9.5q23 0 43 10l9 -29q-30 -18 -66 -18q-30 0 -48.5 17.5t-18.5 45.5q0 69 89 136z" />
    <glyph glyph-name="uniEFF2" unicode="&#xeff2;" 
d="M139 2h38l-43 -56q50 -12 50 -62q0 -36 -28.5 -59t-68.5 -23q-39 0 -60 16l15 34q23 -13 48 -13q20 0 34.5 10.5t14.5 28.5q0 35 -61 42z" />
    <glyph glyph-name="uniEFF3" unicode="&#xeff3;" 
d="M294 863h1q39 0 62.5 -23.5t23.5 -60.5t-26.5 -61t-63.5 -24q-38 0 -62.5 23.5t-24.5 57.5q0 37 25.5 62.5t64.5 25.5zM293 835h-1q-21 0 -34.5 -16.5t-13.5 -42.5q0 -22 13 -37.5t34 -15.5q22 0 36 16t14 41q0 24 -13 39.5t-35 15.5z" />
    <glyph glyph-name="uniEFF5" unicode="&#xeff5;" 
d="M202 716h-32q6 35 25.5 60t45.5 25q28 0 59 -21q26 -17 46 -17q23 0 34 38h32q-15 -80 -72 -80q-24 0 -58 20q-32 19 -44 18q-24 -1 -36 -43z" />
    <glyph glyph-name="uniEFF7" unicode="&#xeff7;" 
d="M281 823h37l80 -113h-47l-55 79h-2l-81 -79h-51z" />
    <glyph glyph-name="uniF629" unicode="&#xf629;" horiz-adv-x="267" 
d="M131 -11h-32l13 63q-48 7 -73 41q-22 31 -22 73q0 69 45 120t108 58l11 62h31l-11 -61q38 0 59 -17l-16 -31q-25 16 -64 16q-45 0 -82.5 -41.5t-37.5 -102.5q0 -37 21.5 -61t60.5 -24q33 0 67 16l6 -32q-27 -16 -73 -16z" />
    <glyph glyph-name="uniF62A" unicode="&#xf62a;" horiz-adv-x="252" 
d="M88 -51h-32l12 61q-45 2 -77 26l14 32q34 -25 78 -25q36 0 61 20.5t25 53.5q0 44 -53 69q-78 38 -78 94q0 40 30 69.5t75 33.5l13 61h31l-12 -61q41 -1 64 -20l-14 -31q-33 19 -68 19q-34 0 -55.5 -19t-21.5 -47q0 -20 13 -34.5t48 -32.5q71 -36 71 -94q0 -47 -31 -77.5
t-81 -36.5z" />
    <glyph glyph-name="uniF62B" unicode="&#xf62b;" horiz-adv-x="183" 
d="M15 197h141l-7 -33h-140z" />
    <glyph glyph-name="uniF62C" unicode="&#xf62c;" horiz-adv-x="168" 
d="M158 425h36q-130 -143 -130 -322q0 -82 37 -164h-32q-41 79 -41 167q0 101 38.5 182.5t91.5 136.5z" />
    <glyph glyph-name="uniF62D" unicode="&#xf62d;" horiz-adv-x="168" 
d="M-4 -61h-37q131 148 131 323q0 80 -38 163h32q42 -79 42 -166q0 -176 -130 -320z" />
    <glyph glyph-name="uniF62E" unicode="&#xf62e;" horiz-adv-x="267" 
d="M184 255h-32l13 63q-48 7 -73 41q-22 31 -22 73q0 69 45 120t108 58l11 62h31l-11 -61q38 0 59 -17l-16 -31q-25 16 -64 16q-45 0 -82.5 -41.5t-37.5 -102.5q0 -37 21.5 -61t60.5 -24q33 0 67 16l6 -32q-27 -16 -73 -16z" />
    <glyph glyph-name="uniF62F" unicode="&#xf62f;" horiz-adv-x="252" 
d="M141 215h-32l12 61q-45 2 -77 26l14 32q34 -25 78 -25q36 0 61 20.5t25 53.5q0 44 -53 69q-78 38 -78 94q0 40 30 69.5t75 33.5l13 61h31l-12 -61q41 -1 64 -20l-14 -31q-33 19 -68 19q-34 0 -55.5 -19t-21.5 -47q0 -20 13 -34.5t48 -32.5q71 -36 71 -94q0 -47 -31 -77.5
t-81 -36.5z" />
    <glyph glyph-name="uniF630" unicode="&#xf630;" horiz-adv-x="183" 
d="M68 463h141l-7 -33h-140z" />
    <glyph glyph-name="uniF631" unicode="&#xf631;" horiz-adv-x="168" 
d="M211 691h36q-130 -143 -130 -322q0 -82 37 -164h-32q-41 79 -41 167q0 101 38.5 182.5t91.5 136.5z" />
    <glyph glyph-name="uniF632" unicode="&#xf632;" horiz-adv-x="168" 
d="M49 205h-37q131 148 131 323q0 80 -38 163h32q42 -79 42 -166q0 -176 -130 -320z" />
    <glyph glyph-name="uniF633" unicode="&#xf633;" horiz-adv-x="702" 
d="M463 351l25 124q-22 10 -62 10q-76 0 -131 -61t-55 -144q0 -37 20.5 -60.5t57.5 -23.5q49 0 92 51t53 104zM506 66l15 -35q-69 -43 -170 -43q-133 0 -217 85t-84 227q0 161 99 273.5t260 112.5q128 0 205.5 -81.5t77.5 -207.5q0 -109 -51 -173.5t-119 -64.5q-30 0 -51 24
t-16 70h-3q-57 -94 -150 -94q-43 0 -74.5 33.5t-31.5 88.5q0 96 69.5 168.5t169.5 72.5q55 0 100 -19l-36 -179q-26 -127 33 -127q44 -2 80 53t36 138q0 118 -65.5 189.5t-180.5 71.5q-130 0 -219 -95.5t-89 -250.5q0 -125 72 -200.5t191 -75.5q87 0 149 39z" />
    <glyph glyph-name="uniF634" unicode="&#xf634;" 
d="M46 -209l-8 27q39 6 66.5 25.5t27.5 53.5q0 31 -26 50l41 11q29 -19 29 -56q0 -48 -38 -76t-92 -35z" />
    <glyph glyph-name="uniF638" unicode="&#xf638;" horiz-adv-x="462" 
d="M100 126l298 439q-25 57 -85 57t-111.5 -64t-80.5 -161t-29 -196q0 -42 8 -75zM410 520l-297 -438q27 -54 86 -54q49 0 91.5 45t68.5 112.5t41 141t15 134.5q0 33 -5 59zM506 653l-60 -81q16 -43 16 -104q0 -112 -31.5 -220t-95 -183.5t-142.5 -75.5q-69 0 -108 52
l-46 -65l-29 25l55 76q-20 50 -20 128q0 112 35 216.5t99 172t138 67.5q71 0 110 -53l47 69z" />
    <glyph glyph-name="uniF639" unicode="&#xf639;" horiz-adv-x="462" 
d="M193 -11h-1q-77 0 -112 59t-35 157q0 112 35 216.5t99 172t138 67.5q54 0 88 -30.5t45.5 -71t11.5 -91.5q0 -112 -31.5 -220t-95 -183.5t-142.5 -75.5zM199 28h1q48 0 90.5 45t68.5 112.5t41 141t15 134.5q0 161 -102 161q-60 0 -111.5 -64t-80.5 -161t-29 -196
q0 -173 107 -173z" />
    <glyph glyph-name="uniF63A" unicode="&#xf63a;" horiz-adv-x="411" 
d="M334 0h-361l7 32l70 63q166 143 240 235t74 180q0 44 -25 77.5t-83 33.5q-66 0 -131 -53l-17 34q31 26 73.5 42.5t81.5 16.5q79 0 114 -44.5t35 -102.5q0 -51 -23 -104t-70.5 -109t-98.5 -105t-127 -114l-48 -41v-2h296z" />
    <glyph glyph-name="uniF63B" unicode="&#xf63b;" horiz-adv-x="392" 
d="M-12 29l18 35q56 -35 115 -35q89 0 135.5 54t46.5 120t-42 99t-101 33h-37l7 37h39q23 0 51.5 9.5t56 27t46 48t18.5 67.5q0 97 -100 97q-67 0 -116 -39l-17 35q68 44 139 44q74 0 108 -39.5t34 -92.5q0 -63 -42.5 -110t-100.5 -64v-2q52 -13 79 -55t27 -94
q0 -88 -66 -151.5t-169 -63.5q-43 0 -78.5 12t-50.5 28z" />
    <glyph glyph-name="uniF63C" unicode="&#xf63c;" horiz-adv-x="462" 
d="M301 0h-43l36 192h-282l7 31l369 427h37l-80 -419h96l-8 -39h-96zM77 231h225l50 263q7 36 20 90l-3 1l-21.5 -32.5l-22.5 -34t-21 -28.5l-227 -257v-2z" />
    <glyph glyph-name="uniF63D" unicode="&#xf63d;" horiz-adv-x="403" 
d="M434 650l-8 -41h-218l-64 -204q17 3 34 3q54 0 101 -26q41 -20 61 -59.5t20 -82.5q0 -112 -73.5 -181.5t-172.5 -69.5q-37 0 -71.5 11t-50.5 23l18 36q45 -30 114 -30q79 0 134 59.5t55 138.5q0 141 -155 141q-18 0 -68 -4l88 286h256z" />
    <glyph glyph-name="uniF63E" unicode="&#xf63e;" horiz-adv-x="460" 
d="M444 661l-5 -43q-35 0 -64 -7q-89 -20 -164 -96.5t-112 -191.5h2q30 45 79 73t97 28q76 0 114 -49t38 -124q0 -96 -65.5 -179t-160.5 -83q-81 0 -123.5 55.5t-42.5 148.5q0 107 50 208t116 158q85 77 184 95q31 7 57 7zM208 28h1q70 0 121.5 69t51.5 154q0 65 -30 99
t-87 34q-44 0 -89 -28.5t-76 -78.5q-10 -18 -12 -30q-5 -27 -5 -62q0 -72 32 -114.5t93 -42.5z" />
    <glyph glyph-name="uniF63F" unicode="&#xf63f;" horiz-adv-x="370" 
d="M91 650h357l-6 -34l-390 -616h-50l388 608l-1 3h-306z" />
    <glyph glyph-name="uniF640" unicode="&#xf640;" horiz-adv-x="459" 
d="M301 661h1q66 0 106.5 -39t40.5 -101q0 -114 -134 -178v-3q101 -54 101 -161q0 -85 -63 -137.5t-146 -52.5q-82 0 -131 44.5t-49 113.5q0 73 45.5 124.5t114.5 78.5v4q-74 52 -74 130q0 73 54.5 125t133.5 52zM207 26h1q70 0 115.5 42t45.5 108q0 55 -31.5 92t-101.5 61
q-67 -17 -114.5 -62.5t-47.5 -115.5q0 -52 34.5 -88.5t98.5 -36.5zM293 624h-1q-57 0 -96 -40t-39 -95q0 -89 107 -127q61 20 99.5 60.5t38.5 92.5q0 44 -25 76.5t-84 32.5z" />
    <glyph glyph-name="uniF641" unicode="&#xf641;" horiz-adv-x="460" 
d="M59 -11l5 42q37 0 62 6q78 15 145 79q82 73 129 205h-4q-69 -86 -165 -86q-75 0 -111.5 50t-36.5 115q0 98 67 179.5t159 81.5q79 0 116.5 -54t37.5 -137q0 -114 -53.5 -222.5t-116.5 -164.5q-74 -65 -163 -86q-35 -8 -71 -8zM304 622h-1q-70 0 -121.5 -66t-51.5 -153
q0 -57 28 -92.5t83 -35.5q46 0 87 25t69 69q11 19 13 28q7 33 7 76q0 149 -113 149z" />
    <glyph glyph-name="uniF642" unicode="&#xf642;" horiz-adv-x="724" 
d="M209 600h1q53 0 78.5 -38t25.5 -89q0 -111 -47 -191t-122 -80q-52 0 -79.5 38.5t-27.5 101.5q0 61 20 119t60 98.5t91 40.5zM203 566h-1q-52 0 -87 -71t-35 -155q0 -104 72 -104q51 0 85.5 72t34.5 157q0 40 -15.5 70.5t-53.5 30.5zM158 -13h-44l450 613h44zM584 393h1
q52 0 77.5 -38t25.5 -90q0 -110 -47 -190t-121 -80q-52 0 -79.5 38t-27.5 101q0 61 20 119.5t60 99t91 40.5zM577 359h-1q-51 0 -86 -71t-35 -156q0 -103 72 -103q51 0 85 72t34 156q0 41 -15.5 71.5t-53.5 30.5z" />
    <glyph glyph-name="uniF643" unicode="&#xf643;" horiz-adv-x="487" 
d="M208 -11h-1q-70 0 -118.5 52.5t-48.5 142.5q0 72 29 142t87.5 118.5t131.5 48.5q67 0 117.5 -53.5t50.5 -143.5q0 -114 -70 -210.5t-178 -96.5zM215 28h1q85 0 139 85t54 181q0 72 -35 116t-94 44q-86 0 -139.5 -85t-53.5 -182q0 -71 34.5 -115t93.5 -44z" />
    <glyph glyph-name="uniF644" unicode="&#xf644;" horiz-adv-x="487" 
d="M362 484l-92 -484h-44l84 440h-2l-194 -76l-5 37l212 83h41z" />
    <glyph glyph-name="uniF645" unicode="&#xf645;" horiz-adv-x="487" 
d="M402 39l-7 -39h-370l5 26l112 78q120 85 168.5 141t48.5 112q0 49 -28.5 74.5t-71.5 25.5q-59 0 -127 -48l-16 28q73 59 152 59q59 0 98.5 -36.5t39.5 -102.5q0 -63 -51.5 -123t-175.5 -148l-66 -47v-2q40 2 66 2h223z" />
    <glyph glyph-name="uniF646" unicode="&#xf646;" horiz-adv-x="487" 
d="M28 -82l12 35q46 -21 106 -21q87 0 143.5 41.5t56.5 107.5q0 54 -39 83t-96 29q-28 0 -62 -2l5 37q5 1 16 1q74 6 133 45t59 101q0 38 -27 58.5t-71 20.5q-56 0 -111 -30l-14 29q57 40 137 40q53 0 93 -31t40 -88q0 -54 -40 -94t-101 -58l-1 -3q56 -9 91 -43.5t35 -88.5
q0 -90 -74.5 -142t-166.5 -52q-82 0 -124 25z" />
    <glyph glyph-name="uniF647" unicode="&#xf647;" horiz-adv-x="487" 
d="M332 62l-33 -169h-42l32 169h-274l7 31l353 399h37l-73 -391h95l-8 -39h-94zM296 101l45 239q13 63 20 87l-3 1q-27 -43 -62 -84l-216 -240l1 -3h215z" />
    <glyph glyph-name="uniF648" unicode="&#xf648;" horiz-adv-x="487" 
d="M35 -87l12 37q43 -18 98 -18q84 0 141.5 44t57.5 119q0 51 -34 83q-55 54 -200 41l84 263h247l-15 -39h-204l-60 -185q123 9 186 -54q43 -41 43 -105q0 -92 -72 -149t-174 -57q-70 0 -110 20z" />
    <glyph glyph-name="uniF649" unicode="&#xf649;" horiz-adv-x="487" 
d="M227 28h1q65 0 116 56.5t51 135.5q0 59 -33 92.5t-84 33.5q-100 0 -152 -85q-24 -33 -24 -81q0 -68 34 -110t91 -42zM464 597l5 -36q-160 -17 -253 -110q-68 -68 -93 -145h2q65 79 167 79q61 0 105.5 -43.5t44.5 -114.5q0 -98 -65 -168t-156 -70q-71 0 -118 51t-47 148
q0 63 30.5 142t91.5 139q115 113 286 128z" />
    <glyph glyph-name="uniF64A" unicode="&#xf64a;" horiz-adv-x="487" 
d="M450 482l-6 -32q-52 -107 -161.5 -271t-209.5 -286l-46 14q80 89 201 264.5t164 268.5l1 3h-294l6 39h345z" />
    <glyph glyph-name="uniF64B" unicode="&#xf64b;" horiz-adv-x="487" 
d="M299 600h1q66 0 109.5 -39t43.5 -97q0 -49 -33.5 -84.5t-98.5 -67.5v-2q111 -59 111 -149q0 -77 -62.5 -124.5t-144.5 -47.5q-81 0 -131.5 42t-50.5 112q0 100 161 175v2q-87 45 -87 124q0 66 53.5 111t128.5 45zM291 563h-1q-53 0 -91 -30t-38 -80q0 -42 30 -71.5
t88 -52.5q128 54 128 134q0 42 -29.5 71t-86.5 29zM224 26h1q67 0 113.5 37.5t46.5 90.5q0 48 -34.5 81.5t-105.5 63.5q-155 -59 -155 -157q0 -52 37.5 -84t96.5 -32z" />
    <glyph glyph-name="uniF64C" unicode="&#xf64c;" horiz-adv-x="487" 
d="M220 133h1q44 0 88 26t71 66q20 31 20 80q0 73 -36 111t-92 38q-65 0 -114.5 -57t-49.5 -135q0 -61 31.5 -95t80.5 -34zM46 -109l-5 37q46 3 78 10q200 43 266 241l-3 1q-26 -34 -72.5 -59t-97.5 -25q-66 0 -108.5 43.5t-42.5 115.5q0 95 67 166.5t159 71.5
q69 0 114.5 -53t45.5 -144q0 -64 -19.5 -126t-58.5 -118.5t-106 -98t-154 -56.5q-38 -6 -63 -6z" />
    <glyph glyph-name="uniF64E" unicode="&#xf64e;" horiz-adv-x="487" 
d="M404 59l10 -35q-52 -35 -146 -35q-84 0 -137.5 55t-55.5 142h-51l7 36h46q2 22 11 57h-48l7 36h52q35 90 107 143.5t164 53.5q66 0 116 -29l-17 -35q-46 25 -100 25q-75 0 -134.5 -43.5t-90.5 -114.5h263l-7 -36h-267q-8 -27 -10 -57h267l-7 -36h-262q5 -74 47 -116
t115 -42q32 0 67.5 10t53.5 21z" />
    <glyph glyph-name="uniF64F" unicode="&#xf64f;" horiz-adv-x="487" 
d="M500 586l-16 -36q-25 10 -47 10q-56 0 -89 -43.5t-53 -126.5l-14 -56h125l-5 -37h-129l-47 -192q-26 -108 -68 -162.5t-111 -54.5q-42 0 -65 16l15 36q22 -13 54 -13q89 0 128 167l49 203h-94l4 37h100l12 54q51 212 194 212q31 0 57 -14z" />
    <glyph glyph-name="uniF650" unicode="&#xf650;" horiz-adv-x="487" 
d="M185 219h92l51 167h-93zM117 0h-40l56 182h-83l7 37h88l50 167h-87l7 37h92l55 177h39l-54 -177h92l55 177h39l-54 -177h83l-7 -37h-87l-51 -167h88l-6 -37h-94l-56 -182h-40l56 182h-92z" />
    <glyph glyph-name="uniF651" unicode="&#xf651;" horiz-adv-x="487" 
d="M427 488l-16 -35q-31 19 -80 19q-65 0 -102 -52.5t-34 -145.5v-14h152l-6 -37h-143q5 -124 -81 -184v-2h287l-6 -37h-372l5 29q67 28 96.5 74t24.5 120h-87l6 37h78v9q-3 107 47.5 175t143.5 68q52 0 87 -24z" />
    <glyph glyph-name="uniF652" unicode="&#xf652;" horiz-adv-x="487" 
d="M220 0h-44l24 121h-147l7 36h146l12 64h-146l6 36h131l-99 244h48l65 -171l23 -67h3q18 26 53 70l135 168h53l-202 -244h128l-7 -36h-148l-12 -64h147l-7 -36h-147z" />
    <glyph glyph-name="uniF653" unicode="&#xf653;" horiz-adv-x="487" 
d="M206 -77h-35l14 77q-73 2 -124 41l23 33q42 -35 115 -35q57 0 97 27.5t40 70.5q0 59 -99 99q-59 26 -83.5 53t-24.5 63q0 53 45 88.5t108 39.5l16 81h36l-16 -81q64 -7 103 -37l-22 -34q-44 34 -104 34q-53 0 -85.5 -24.5t-32.5 -61.5q0 -29 19 -46.5t77 -42.5
q110 -46 110 -123q0 -61 -48 -100t-115 -44z" />
    <glyph glyph-name="uniF654" unicode="&#xf654;" horiz-adv-x="487" 
d="M342 116l10 -36q-53 -25 -108 -29l-14 -70h-34l14 71q-63 7 -102.5 48t-39.5 101q0 90 61.5 160t153.5 82l12 65h35l-12 -64q57 -3 95 -32l-20 -33q-39 27 -88 27q-81 0 -135.5 -59.5t-54.5 -137.5q0 -56 32.5 -87.5t92.5 -31.5q50 0 102 26z" />
    <glyph glyph-name="uniF655" unicode="&#xf655;" horiz-adv-x="297" 
d="M108 -7h-1q-97 0 -97 135q0 106 49.5 187.5t121.5 81.5q51 0 73.5 -35t22.5 -86q0 -109 -47.5 -196t-121.5 -87zM113 26h1q36 0 65 43.5t43 98t14 102.5q0 94 -60 94q-51 0 -88 -75.5t-37 -163.5q0 -99 62 -99z" />
    <glyph glyph-name="uniF656" unicode="&#xf656;" horiz-adv-x="200" 
d="M91 0h-39l67 350h-2l-68 -33l-5 32l86 41h35z" />
    <glyph glyph-name="uniF657" unicode="&#xf657;" horiz-adv-x="273" 
d="M205 0h-238l5 28l72 59q88 73 126.5 118t38.5 93q0 26 -15 44t-51 18q-41 0 -83 -32l-14 28q50 39 106 39q50 0 75 -28.5t25 -68.5q0 -53 -45 -104.5t-134 -122.5l-42 -34v-2h181z" />
    <glyph glyph-name="uniF658" unicode="&#xf658;" horiz-adv-x="263" 
d="M60 333l-12 29q41 33 95 33q49 0 72.5 -24t23.5 -59q0 -33 -24 -59.5t-62 -39.5l-1 -2q31 -9 49.5 -34.5t17.5 -56.5q-1 -55 -41.5 -90t-108.5 -35q-63 0 -93 26l15 30q38 -23 82 -23q50 0 77.5 26.5t27.5 63.5q0 38 -28.5 57t-66.5 19h-22l6 31h23q39 0 73 24t34 58
q0 54 -63 54q-40 0 -74 -28z" />
    <glyph glyph-name="uniF659" unicode="&#xf659;" horiz-adv-x="289" 
d="M181 0h-39l22 112h-176l6 26l222 253h40l-47 -246h57l-7 -33h-57zM170 145l28 144q4 22 13 55l-2 1q-7 -9 -20 -28t-21 -29l-126 -142v-1h128z" />
    <glyph glyph-name="uniF65A" unicode="&#xf65a;" horiz-adv-x="269" 
d="M263 390l-8 -35h-138l-34 -109q16 2 22 2q36 0 65 -16q51 -26 51 -88q0 -69 -47 -110t-111 -41q-54 0 -83 22l13 32q30 -20 76 -20q44 0 77 32t33 75q0 80 -97 80q-9 0 -24.5 -1.5t-20.5 -1.5l54 179h172z" />
    <glyph glyph-name="uniF65B" unicode="&#xf65b;" horiz-adv-x="297" 
d="M270 397l-6 -36q-21 0 -41 -5q-57 -13 -99 -53.5t-62 -101.5l1 -1q18 25 47 41t58 16q47 0 72 -30t25 -77q0 -60 -42.5 -108.5t-102.5 -48.5q-53 0 -81.5 35t-28.5 92q0 66 30.5 124.5t71.5 93.5q48 38 104 51q21 6 54 8zM124 26h1q40 0 69 37.5t29 84.5q0 76 -69 76
q-26 0 -51.5 -16t-42.5 -44q-5 -8 -7 -20q-2 -7 -2 -30q0 -40 18.5 -64t54.5 -24z" />
    <glyph glyph-name="uniF65C" unicode="&#xf65c;" horiz-adv-x="261" 
d="M45 390h232l-5 -30l-235 -360h-45l233 353v2h-186z" />
    <glyph glyph-name="uniF65D" unicode="&#xf65d;" horiz-adv-x="298" 
d="M178 397h1q43 0 70.5 -24t27.5 -64q0 -66 -79 -103v-1q60 -31 60 -94q0 -54 -41 -86t-94 -32q-54 0 -86.5 27.5t-32.5 69.5t26.5 73t68.5 46v2q-44 29 -44 77q0 46 36 77.5t87 31.5zM123 24h1q39 0 65.5 23t26.5 60q0 61 -78 85q-38 -8 -65 -33t-27 -64q0 -29 20 -50
t57 -21zM172 366h-1q-32 0 -54.5 -22.5t-22.5 -52.5q0 -51 64 -70q34 9 56 31t22 52q0 24 -15 43t-49 19z" />
    <glyph glyph-name="uniF65E" unicode="&#xf65e;" horiz-adv-x="290" 
d="M10 -7l5 35q18 0 39 3q47 8 89 44q48 43 75 112l-2 1q-41 -50 -99 -50q-47 0 -71 30.5t-24 71.5q0 61 42.5 109t101.5 48q52 0 78 -34.5t26 -87.5q0 -70 -33 -133t-72 -95q-48 -40 -110 -51q-24 -5 -45 -3zM162 364h-1q-39 0 -68.5 -35.5t-29.5 -84.5q0 -31 16.5 -51.5
t48.5 -20.5q54 0 89 52q5 6 8 16q4 20 4 40q0 38 -16.5 61t-50.5 23z" />
    <glyph glyph-name="uniF65F" unicode="&#xf65f;" horiz-adv-x="120" 
d="M-15 -71l-32 -4q35 63 58 137l50 6q-36 -88 -76 -139z" />
    <glyph glyph-name="uniF660" unicode="&#xf660;" horiz-adv-x="120" 
d="M24 -7h-1q-12 0 -20 9t-8 23q0 15 9 25t23 10q30 0 30 -32q0 -15 -9 -25t-24 -10z" />
    <glyph glyph-name="uniF661" unicode="&#xf661;" horiz-adv-x="297" 
d="M161 259h-1q-97 0 -97 135q0 106 49.5 187.5t121.5 81.5q51 0 73.5 -35t22.5 -86q0 -109 -47.5 -196t-121.5 -87zM166 292h1q36 0 65 43.5t43 98t14 102.5q0 94 -60 94q-51 0 -88 -75.5t-37 -163.5q0 -99 62 -99z" />
    <glyph glyph-name="uniF662" unicode="&#xf662;" horiz-adv-x="200" 
d="M144 266h-39l67 350h-2l-68 -33l-5 32l86 41h35z" />
    <glyph glyph-name="uniF663" unicode="&#xf663;" horiz-adv-x="273" 
d="M258 266h-238l5 28l72 59q88 73 126.5 118t38.5 93q0 26 -15 44t-51 18q-41 0 -83 -32l-14 28q50 39 106 39q50 0 75 -28.5t25 -68.5q0 -53 -45 -104.5t-134 -122.5l-42 -34v-2h181z" />
    <glyph glyph-name="uniF664" unicode="&#xf664;" horiz-adv-x="263" 
d="M113 599l-12 29q41 33 95 33q49 0 72.5 -24t23.5 -59q0 -33 -24 -59.5t-62 -39.5l-1 -2q31 -9 49.5 -34.5t17.5 -56.5q-1 -55 -41.5 -90t-108.5 -35q-63 0 -93 26l15 30q38 -23 82 -23q50 0 77.5 26.5t27.5 63.5q0 38 -28.5 57t-66.5 19h-22l6 31h23q39 0 73 24t34 58
q0 54 -63 54q-40 0 -74 -28z" />
    <glyph glyph-name="uniF665" unicode="&#xf665;" horiz-adv-x="289" 
d="M234 266h-39l22 112h-176l6 26l222 253h40l-47 -246h57l-7 -33h-57zM223 411l28 144q4 22 13 55l-2 1q-7 -9 -20 -28t-21 -29l-126 -142v-1h128z" />
    <glyph glyph-name="uniF666" unicode="&#xf666;" horiz-adv-x="269" 
d="M316 656l-8 -35h-138l-34 -109q16 2 22 2q36 0 65 -16q51 -26 51 -88q0 -69 -47 -110t-111 -41q-54 0 -83 22l13 32q30 -20 76 -20q44 0 77 32t33 75q0 80 -97 80q-9 0 -24.5 -1.5t-20.5 -1.5l54 179h172z" />
    <glyph glyph-name="uniF667" unicode="&#xf667;" horiz-adv-x="297" 
d="M323 663l-6 -36q-21 0 -41 -5q-57 -13 -99 -53.5t-62 -101.5l1 -1q18 25 47 41t58 16q47 0 72 -30t25 -77q0 -60 -42.5 -108.5t-102.5 -48.5q-53 0 -81.5 35t-28.5 92q0 66 30.5 124.5t71.5 93.5q48 38 104 51q21 6 54 8zM177 292h1q40 0 69 37.5t29 84.5q0 76 -69 76
q-26 0 -51.5 -16t-42.5 -44q-5 -8 -7 -20q-2 -7 -2 -30q0 -40 18.5 -64t54.5 -24z" />
    <glyph glyph-name="uniF668" unicode="&#xf668;" horiz-adv-x="261" 
d="M98 656h232l-5 -30l-235 -360h-45l233 353v2h-186z" />
    <glyph glyph-name="uniF669" unicode="&#xf669;" horiz-adv-x="298" 
d="M231 663h1q43 0 70.5 -24t27.5 -64q0 -66 -79 -103v-1q60 -31 60 -94q0 -54 -41 -86t-94 -32q-54 0 -86.5 27.5t-32.5 69.5t26.5 73t68.5 46v2q-44 29 -44 77q0 46 36 77.5t87 31.5zM176 290h1q39 0 65.5 23t26.5 60q0 61 -78 85q-38 -8 -65 -33t-27 -64q0 -29 20 -50
t57 -21zM225 632h-1q-32 0 -54.5 -22.5t-22.5 -52.5q0 -51 64 -70q34 9 56 31t22 52q0 24 -15 43t-49 19z" />
    <glyph glyph-name="uniF66A" unicode="&#xf66a;" horiz-adv-x="290" 
d="M63 259l5 35q18 0 39 3q47 8 89 44q48 43 75 112l-2 1q-41 -50 -99 -50q-47 0 -71 30.5t-24 71.5q0 61 42.5 109t101.5 48q52 0 78 -34.5t26 -87.5q0 -70 -33 -133t-72 -95q-48 -40 -110 -51q-24 -5 -45 -3zM215 630h-1q-39 0 -68.5 -35.5t-29.5 -84.5q0 -31 16.5 -51.5
t48.5 -20.5q54 0 89 52q5 6 8 16q4 20 4 40q0 38 -16.5 61t-50.5 23z" />
    <glyph glyph-name="uniF66B" unicode="&#xf66b;" horiz-adv-x="120" 
d="M38 195l-32 -4q35 63 58 137l50 6q-36 -88 -76 -139z" />
    <glyph glyph-name="uniF66C" unicode="&#xf66c;" horiz-adv-x="120" 
d="M77 259h-1q-12 0 -20 9t-8 23q0 15 9 25t23 10q30 0 30 -32q0 -15 -9 -25t-24 -10z" />
    <glyph glyph-name="uniF6AE" unicode="&#xf6ae;" horiz-adv-x="265" 
d="M299 733h47q-221 -238 -221 -535q0 -141 64 -277h-39q-69 130 -69 283q0 113 37.5 223t82 178t98.5 128z" />
    <glyph glyph-name="uniF6AF" unicode="&#xf6af;" horiz-adv-x="265" 
d="M5 -79h-47q221 240 221 536q0 142 -64 276h39q69 -127 69 -282q0 -286 -218 -530z" />
    <glyph glyph-name="uniF6B0" unicode="&#xf6b0;" horiz-adv-x="265" 
d="M199 -71h-159l152 798h159l-7 -36h-117l-138 -726h117z" />
    <glyph glyph-name="uniF6B1" unicode="&#xf6b1;" horiz-adv-x="265" 
d="M107 727h159l-152 -798h-159l7 36h117l138 726h-117z" />
    <glyph glyph-name="uniF6B2" unicode="&#xf6b2;" horiz-adv-x="265" 
d="M42 312l6 34q81 -2 95 79q6 29 8 86.5t7 86.5q24 129 152 129h15l-7 -36h-19q-80 0 -99 -96q-6 -28 -7 -81.5t-6 -79.5q-14 -87 -82 -105v-2q46 -14 46 -68q0 -45 -28 -118q-29 -73 -29 -104q0 -71 68 -72h17l-6 -36h-12q-49 0 -79 27t-30 73q0 42 30 120q28 78 28 107
q0 9 -1 15t-6.5 17.5t-21 18t-39.5 5.5z" />
    <glyph glyph-name="uniF6B3" unicode="&#xf6b3;" horiz-adv-x="265" 
d="M253 344l-6 -34q-81 2 -95 -79q-6 -29 -8 -86.5t-7 -86.5q-24 -129 -152 -129h-15l7 36h19q80 0 99 96q6 28 7 81.5t6 79.5q14 87 82 105v2q-46 15 -46 70q0 30 28 114q28 80 28 105q0 72 -67 73h-18l7 36h11q49 0 79 -27t30 -73q0 -49 -29 -122q-28 -76 -28 -105
q0 -9 1 -15t6.5 -17.5t21 -18t39.5 -5.5z" />
    <glyph glyph-name="uniF6B4" unicode="&#xf6b4;" horiz-adv-x="215" 
d="M91 -1h-57l104 494h39zM187 682h1q16 0 27 -13t11 -31q0 -20 -12 -33t-30 -13t-28.5 12.5t-10.5 31.5t11.5 32.5t30.5 13.5z" />
    <glyph glyph-name="uniF6B5" unicode="&#xf6b5;" horiz-adv-x="351" 
d="M239 496h44q0 -8 -2 -26q-3 -88 -104 -192q-88 -92 -88 -167q0 -37 20.5 -61t66.5 -24q49 0 94 27l14 -38q-59 -31 -114 -31q-69 0 -99 39t-30 88q0 85 107 195q80 81 87 159zM288 682h1q16 0 27 -13t11 -31q0 -20 -12 -33t-30 -13t-28.5 12.5t-10.5 31.5t11.5 32.5
t30.5 13.5z" />
    <glyph glyph-name="uniF6B6" unicode="&#xf6b6;" horiz-adv-x="377" 
d="M258 507l-157 -181l106 -179h-46l-108 180l156 180h49zM404 507l-157 -181l106 -179h-46l-108 180l155 180h50z" />
    <glyph glyph-name="uniF6B7" unicode="&#xf6b7;" horiz-adv-x="377" 
d="M180 329l-106 178h46l108 -180l-156 -180h-49zM326 329l-106 178h46l108 -180l-156 -180h-49z" />
    <glyph glyph-name="uniF6B8" unicode="&#xf6b8;" horiz-adv-x="231" 
d="M258 507l-157 -181l106 -179h-46l-108 180l156 180h49z" />
    <glyph glyph-name="uniF6B9" unicode="&#xf6b9;" horiz-adv-x="231" 
d="M180 329l-106 178h46l108 -180l-156 -180h-49z" />
    <glyph glyph-name="uniF6BA" unicode="&#xf6ba;" horiz-adv-x="298" 
d="M64 371h227l-8 -42h-227z" />
    <glyph glyph-name="uniF6BB" unicode="&#xf6bb;" horiz-adv-x="500" 
d="M55 349h440l-8 -39h-440z" />
    <glyph glyph-name="uniF6BC" unicode="&#xf6bc;" horiz-adv-x="1000" 
d="M55 349h940l-8 -39h-940z" />
    <glyph glyph-name="uniF6BD" unicode="&#xf6bd;" horiz-adv-x="181" 
d="M110 293h-1q-16 0 -27 13t-11 31q0 20 12 33t30 13t28.5 -12.5t10.5 -31.5t-11.5 -32.5t-30.5 -13.5z" />
    <glyph glyph-name="commaaccent" unicode="&#xf6c3;" 
d="M46 -209l-8 27q39 6 66.5 25.5t27.5 53.5q0 31 -26 50l41 11q29 -19 29 -56q0 -48 -38 -76t-92 -35z" />
    <glyph glyph-name="afii10063" unicode="&#xf6c4;" horiz-adv-x="206" 
d="M83 0h-45l92 480h45zM64 625h202l-7 -38h-202z" />
    <glyph glyph-name="afii10192" unicode="&#xf6c6;" horiz-adv-x="503" 
d="M8 -173l17 38q50 -35 128 -35q71 0 119.5 45.5t72.5 152.5l20 92h-3q-67 -122 -185 -122q-68 0 -105 49t-37 115q0 83 37.5 158.5t106 123t151.5 47.5q34 0 74.5 -10t64.5 -23l-74 -398q-30 -158 -95 -216q-57 -53 -156 -53q-88 0 -136 36zM384 251l35 180q-42 21 -98 21
q-102 0 -170 -86.5t-69 -194.5q-1 -33 6.5 -60.5t33.5 -50.5t69 -23q62 0 120 67.5t73 146.5z" />
    <glyph glyph-name="afii10831" unicode="&#xf6c7;" horiz-adv-x="506" 
d="M428 480h45l-67 -351q-12 -66 -19 -129h-42l15 99h-2q-30 -49 -76.5 -79.5t-95.5 -30.5q-23 0 -43 5.5t-41 19.5t-33 44t-12 73q0 29 9 76l52 273h45l-52 -274q-9 -45 -9 -75q0 -101 94 -101q54 0 110.5 55t71.5 134zM157 625h319l-9 -38h-318z" />
    <glyph glyph-name="afii10832" unicode="&#xf6c8;" horiz-adv-x="766" 
d="M118 480h45l-54 -286q-7 -42 -7 -65q0 -100 88 -100q55 0 108 52.5t68 134.5l49 264h45l-57 -293q-6 -35 -6 -61q0 -97 89 -97q52 0 107 58t70 136l48 257h45l-65 -346q-6 -35 -11 -134h-43q1 58 5 97h-3q-69 -108 -172 -108q-52 0 -80.5 31t-30.5 86q-68 -117 -184 -117
q-42 0 -79 30t-37 94q0 35 8 81zM162 625h597l-6 -38h-599z" />
    <glyph glyph-name="Acute" unicode="&#xf6c9;" 
d="M354 823h77l-140 -113h-44z" />
    <glyph glyph-name="Caron" unicode="&#xf6ca;" 
d="M300 710h-37l-80 112h50l51 -77h4l80 77h51z" />
    <glyph glyph-name="Dieresis" unicode="&#xf6cb;" 
d="M204 726h-1q-15 0 -25 12t-10 27t11.5 27.5t27.5 12.5t26 -12t10 -27t-11 -27.5t-28 -12.5zM374 726h-1q-15 0 -25 12t-10 27t11.5 27.5t27.5 12.5t26 -12t10 -27t-11 -27.5t-28 -12.5z" />
    <glyph glyph-name="DieresisAcute" unicode="&#xf6cc;" 
d="M212 731h-1q-13 0 -22 8.5t-9 24.5q0 15 11 26.5t27 11.5q32 0 32 -32q0 -17 -12 -28t-26 -11zM336 815h65l-126 -105h-41zM421 731h-1q-13 0 -22 8.5t-9 24.5q0 15 11 26.5t27 11.5q32 0 32 -32q0 -17 -12 -28t-26 -11z" />
    <glyph glyph-name="DieresisGrave" unicode="&#xf6cd;" 
d="M193 731h-1q-13 0 -22 8.5t-9 24.5q0 15 11 26.5t27 11.5q32 0 32 -32q0 -17 -12 -28t-26 -11zM220 815h65l102 -105h-41zM402 731h-1q-13 0 -22 8.5t-9 24.5q0 15 11 26.5t27 11.5q32 0 32 -32q0 -17 -12 -28t-26 -11z" />
    <glyph glyph-name="Grave" unicode="&#xf6ce;" 
d="M166 823h70l73 -113h-37z" />
    <glyph glyph-name="Hungarumlaut" unicode="&#xf6cf;" 
d="M292 822h68l-131 -109h-39zM418 822h68l-131 -109h-39z" />
    <glyph glyph-name="Macron" unicode="&#xf6d0;" 
d="M184 772h217l-7 -39h-217z" />
    <glyph glyph-name="cyrBreve" unicode="&#xf6d1;" 
d="M187 828h41q0 -25 16 -42.5t49 -17.5q66 0 81 60h43q-7 -39 -40.5 -67t-84.5 -28q-54 0 -80 27t-25 68z" />
    <glyph glyph-name="cyrFlex" unicode="&#xf6d2;" 
d="M408 741h-41q0 25 -16 42.5t-49 17.5q-66 0 -81 -60h-43q7 39 40.5 67t84.5 28q54 0 80 -27t25 -68z" />
    <glyph glyph-name="dblGrave" unicode="&#xf6d3;" horiz-adv-x="381" 
d="M127 815h65l102 -105h-41zM250 815h65l102 -105h-41z" />
    <glyph glyph-name="cyrbreve" unicode="&#xf6d4;" horiz-adv-x="376" 
d="M161 678h42q-3 -32 13.5 -55t46.5 -23q59 0 83 78h44q-12 -53 -46 -83.5t-83 -30.5q-60 0 -83 34t-17 80z" />
    <glyph glyph-name="cyrflex" unicode="&#xf6d5;" 
d="M372 562h-42q3 32 -13.5 55t-46.5 23q-59 0 -83 -78h-44q12 53 46 83.5t83 30.5q60 0 83 -34t17 -80z" />
    <glyph glyph-name="dblgrave" unicode="&#xf6d6;" 
d="M72 661h69l91 -127h-38zM202 661h69l91 -127h-38z" />
    <glyph glyph-name="dieresisacute" unicode="&#xf6d7;" 
d="M168 584h-1q-32 0 -32 33q0 15 11 26.5t27 11.5q32 0 32 -32q0 -17 -11.5 -28t-25.5 -11zM279 678h57l-108 -132h-32zM366 584h-1q-32 0 -32 33q0 15 11 26.5t27 11.5q32 0 32 -32q0 -17 -11.5 -28t-25.5 -11z" />
    <glyph glyph-name="dieresisgrave" unicode="&#xf6d8;" 
d="M153 584h-1q-32 0 -32 33q0 15 11 26.5t27 11.5q32 0 32 -32q0 -17 -11.5 -28t-25.5 -11zM185 678h57l82 -132h-32zM351 584h-1q-32 0 -32 33q0 15 11 26.5t27 11.5q32 0 32 -32q0 -17 -11.5 -28t-25.5 -11z" />
    <glyph glyph-name="uniF6DC" unicode="&#xf6dc;" horiz-adv-x="314" 
d="M116 0l114 598h-2l-101 -55l-12 36l128 71h41l-124 -650h-44z" />
    <glyph glyph-name="centinferior" unicode="&#xf6df;" horiz-adv-x="267" 
d="M106 -155h-32l13 63q-48 7 -73 41q-22 31 -22 73q0 69 45 120t108 58l11 62h31l-11 -61q38 0 59 -17l-16 -31q-25 16 -64 16q-45 0 -82.5 -41.5t-37.5 -102.5q0 -37 21.5 -61t60.5 -24q33 0 67 16l6 -32q-27 -16 -73 -16z" />
    <glyph glyph-name="centsuperior" unicode="&#xf6e0;" horiz-adv-x="267" 
d="M212 395h-32l13 63q-48 7 -73 41q-22 31 -22 73q0 69 45 120t108 58l11 62h31l-11 -61q38 0 59 -17l-16 -31q-25 16 -64 16q-45 0 -82.5 -41.5t-37.5 -102.5q0 -37 21.5 -61t60.5 -24q33 0 67 16l6 -32q-27 -16 -73 -16z" />
    <glyph glyph-name="commainferior" unicode="&#xf6e1;" horiz-adv-x="120" 
d="M-40 -215l-32 -4q35 63 58 137l50 6q-36 -88 -76 -139z" />
    <glyph glyph-name="commasuperior" unicode="&#xf6e2;" horiz-adv-x="120" 
d="M66 335l-32 -4q35 63 58 137l50 6q-36 -88 -76 -139z" />
    <glyph glyph-name="dollarinferior" unicode="&#xf6e3;" horiz-adv-x="252" 
d="M63 -195h-32l12 61q-45 2 -77 26l14 32q34 -25 78 -25q36 0 61 20.5t25 53.5q0 44 -53 69q-78 38 -78 94q0 40 30 69.5t75 33.5l13 61h31l-12 -61q41 -1 64 -20l-14 -31q-33 19 -68 19q-34 0 -55.5 -19t-21.5 -47q0 -20 13 -34.5t48 -32.5q71 -36 71 -94q0 -47 -31 -77.5
t-81 -36.5z" />
    <glyph glyph-name="dollarsuperior" unicode="&#xf6e4;" horiz-adv-x="252" 
d="M169 355h-32l12 61q-45 2 -77 26l14 32q34 -25 78 -25q36 0 61 20.5t25 53.5q0 44 -53 69q-78 38 -78 94q0 40 30 69.5t75 33.5l13 61h31l-12 -61q41 -1 64 -20l-14 -31q-33 19 -68 19q-34 0 -55.5 -19t-21.5 -47q0 -20 13 -34.5t48 -32.5q71 -36 71 -94q0 -47 -31 -77.5
t-81 -36.5z" />
    <glyph glyph-name="hypheninferior" unicode="&#xf6e5;" horiz-adv-x="183" 
d="M-10 53h141l-7 -33h-140z" />
    <glyph glyph-name="hyphensuperior" unicode="&#xf6e6;" horiz-adv-x="183" 
d="M96 603h141l-7 -33h-140z" />
    <glyph glyph-name="periodinferior" unicode="&#xf6e7;" horiz-adv-x="120" 
d="M-1 -151h-1q-12 0 -20 9t-8 23q0 15 9 25t23 10q30 0 30 -32q0 -15 -9 -25t-24 -10z" />
    <glyph glyph-name="periodsuperior" unicode="&#xf6e8;" horiz-adv-x="120" 
d="M105 399h-1q-12 0 -20 9t-8 23q0 15 9 25t23 10q30 0 30 -32q0 -15 -9 -25t-24 -10z" />
    <glyph glyph-name="zerooldstyle" unicode="&#xf730;" horiz-adv-x="487" 
d="M208 -11h-1q-70 0 -118.5 52.5t-48.5 142.5q0 72 29 142t87.5 118.5t131.5 48.5q67 0 117.5 -53.5t50.5 -143.5q0 -114 -70 -210.5t-178 -96.5zM215 28h1q85 0 139 85t54 181q0 72 -35 116t-94 44q-86 0 -139.5 -85t-53.5 -182q0 -71 34.5 -115t93.5 -44z" />
    <glyph glyph-name="oneoldstyle" unicode="&#xf731;" horiz-adv-x="322" 
d="M267 484l-92 -484h-44l83 436h-2l-143 -71l-7 37l164 82h41z" />
    <glyph glyph-name="twooldstyle" unicode="&#xf732;" horiz-adv-x="419" 
d="M363 39l-7 -39h-370l5 26l112 78q120 85 168.5 141t48.5 112q0 49 -28.5 74.5t-71.5 25.5q-59 0 -127 -48l-16 28q73 59 152 59q59 0 98.5 -36.5t39.5 -102.5q0 -63 -51.5 -123t-175.5 -148l-66 -47v-2q40 2 66 2h223z" />
    </font>
</defs>
</svg>
