<?xml version="1.0" standalone="no"?>
<!DOCTYPE svg PUBLIC "-//W3C//DTD SVG 1.1//EN" "http://www.w3.org/Graphics/SVG/1.1/DTD/svg11.dtd" >
<svg xmlns="http://www.w3.org/2000/svg" xmlns:xlink="http://www.w3.org/1999/xlink" version="1.1">
<metadata>
Created by FontForge 20161003 at Fri Dec 21 16:14:44 2018
 By www-data
Copyright 2015 The Cormorant Project Authors (github.com/CatharsisFonts/Cormorant)
</metadata>
<defs>
<font id="CormorantBold" horiz-adv-x="716" >
  <font-face 
    font-family="CormorantBold"
    font-weight="700"
    font-stretch="normal"
    units-per-em="1000"
    panose-1="0 0 8 0 0 0 0 0 0 0"
    ascent="800"
    descent="-200"
    x-height="386"
    cap-height="625"
    bbox="-371.5 -282.167 1452 937.286"
    underline-thickness="50"
    underline-position="-150"
    unicode-range="U+0020-A78C"
  />
<missing-glyph horiz-adv-x="501" 
d="M94 -275v1000h317v-1000h-317zM168 626h65v-38h-66v-32h166v32h-66v38h66v32h-165v-32zM167 426h166v34h-66v69h-100v-103zM200 460v35h33v-35h-33zM167 365h66v-36h-66v-34h100v70h66v33h-166v-33zM301 273h-134v-34h166v99h-32v-65zM233 160h34v24h34v-48h-101v80h-33
v-113h166v113h-100v-56zM167 -70h166v113h-166v-113zM200 -37v48h101v-48h-101zM167 -126h70l-70 -47v-33h166v33h-101l69 47h32v34h-166v-34z" />
    <glyph glyph-name="Aogonek_acutecomb.liga" unicode="&#x104;&#x301;" 
d="M261 679q-4 -2 -6 3t1 7q28 20 71.5 57.5t54.5 46.5q9 9 71 -16q37 -14 34 -19l-4 -2q-108 -27 -222 -77zM717 9q5 0 5 -5.5t-5 -5.5q-24 0 -59.5 1.5t-52.5 1.5q-50 0 -75.5 -30.5t-25.5 -85.5t24.5 -86.5t60.5 -31.5q23 0 43 11q2 2 5.5 -2t1.5 -6q-52 -45 -112 -45
q-55 0 -86.5 30t-31.5 77q0 33 17 60.5t38 43.5t39 39.5t20.5 48.5t-17.5 70l-104 205h-177l-72 -157q-24 -60 -0.5 -95t81.5 -35q4 0 4 -6t-4 -6q-19 0 -55 2t-63 2t-62.5 -2t-57.5 -2q-4 0 -4 6t4 6q41 0 66.5 28t62.5 112l218 477q1 3 8.5 3.5t9.5 -3.5l250 -492
q34 -68 58.5 -98t47.5 -30zM237 327h151l-79 157z" />
    <glyph glyph-name="Eogonek_acutecomb.liga" unicode="&#x118;&#x301;" horiz-adv-x="552" 
d="M179 679q-4 -2 -6 3t1 7q28 20 71.5 57.5t54.5 46.5q9 9 71 -16q37 -14 34 -19l-4 -2q-108 -27 -222 -77zM503 -222q2 1 4.5 -0.5t3.5 -3.5t-1 -4q-55 -45 -112 -45q-51 0 -84.5 32t-33.5 78q0 80 119 165h-358q-3 0 -3 6t3 6q45 0 58 12.5t13 56.5v463q0 43 -13 56
t-58 13q-3 0 -3 6t3 6h424q10 0 10 -9l2 -133q0 -2 -5.5 -3t-6.5 2q-32 114 -154 114h-30q-58 0 -58 -53v-204h83q58 0 89 20t31 56q0 3 5.5 3t5.5 -3q0 -24 -0.5 -51.5t-0.5 -38.5q0 -17 1.5 -50t1.5 -52q0 -2 -6 -2t-6 2q0 41 -31.5 64.5t-90.5 23.5h-82v-226
q0 -57 46 -57h33q152 0 194 131q1 3 6.5 1.5t5.5 -3.5q-10 -78 -10 -142q0 -15 -15 -15h-62q-31 -31 -44.5 -57t-13.5 -60q0 -52 26 -84t71 -32q25 0 43 11z" />
    <glyph glyph-name="IJ_acutecomb.liga" unicode="&#x132;&#x301;" horiz-adv-x="699" 
d="M70 679q-4 -2 -6 3t1 7q28 20 71.5 57.5t54.5 46.5q9 9 71 -16q37 -14 34 -19l-4 -2q-108 -27 -222 -77zM444 679q-4 -2 -6 3t1 7q28 20 71.5 57.5t54.5 46.5q9 9 71 -16q37 -14 34 -19l-4 -2q-108 -27 -222 -77zM221 350q0 -44 13 -56.5t60 -12.5q2 0 2 -6t-2 -6
q-16 0 -59 1t-70 1q-25 0 -68 -1t-60 -1q-2 0 -2 6t2 6q46 0 59.5 13t13.5 56v194q0 43 -13.5 56t-59.5 13q-2 0 -2 6t2 6q16 0 59.5 -1.5t68.5 -1.5q28 0 71 1.5t58 1.5q2 0 2 -6t-2 -6q-46 0 -59.5 -14t-13.5 -57v-192zM670 625q3 0 3 -6t-3 -6q-37 0 -48 -13.5t-11 -57.5
v-284q0 -129 -72.5 -200t-193.5 -71q-101 0 -172.5 43.5t-71.5 99.5q0 25 16 42t46 17q29 0 43.5 -18.5t19 -45t12.5 -53.5t34.5 -45.5t73.5 -18.5q152 0 152 192v344q0 43 -15.5 56t-68.5 13q-2 0 -2 6t2 6q19 0 65.5 -1.5t73.5 -1.5q25 0 64 1.5t53 1.5z" />
    <glyph glyph-name="Iogonek_acutecomb.liga" unicode="&#x12e;&#x301;" horiz-adv-x="342" 
d="M74 679q-4 -2 -6 3t1 7q28 20 71.5 57.5t54.5 46.5q9 9 71 -16q37 -14 34 -19l-4 -2q-108 -27 -222 -77zM298 12q3 0 3 -6t-3 -6q-15 0 -55 1t-65 1q-19 -42 -19 -93q0 -56 25.5 -97t60.5 -41q19 0 31 7q2 1 4.5 -0.5t3.5 -3.5t-1 -4q-45 -45 -103 -45q-49 0 -76.5 28.5
t-27.5 78.5q0 83 84 170q-23 0 -63 -1t-55 -1q-2 0 -2 6t2 6q46 0 59.5 13t13.5 56v463q0 43 -13.5 56t-59.5 13q-2 0 -2 6t2 6q16 0 59 -1.5t69 -1.5q28 0 70.5 1.5t57.5 1.5q3 0 3 -6t-3 -6q-45 0 -58 -13.5t-13 -57.5v-461q0 -44 12.5 -56.5t58.5 -12.5z" />
    <glyph glyph-name="J_acutecomb.liga" unicode="J&#x301;" horiz-adv-x="335" 
d="M74 678q-4 -1 -6 4t1 7q21 15 42.5 33t46 39t37.5 32q10 8 73 -17q34 -13 32 -18q-1 -2 -4 -2q-118 -30 -222 -78zM234 67q0 -153 -43.5 -224t-163.5 -118q-2 -1 -4 1.5t-2 5t1 4.5q56 36 78 109.5t22 194.5v504q0 43 -13.5 56t-59.5 13q-2 0 -2 6t2 6q18 0 60.5 -1.5
t67.5 -1.5t64 1.5t53 1.5q2 0 2 -6t-2 -6q-38 0 -49 -13.5t-11 -57.5v-475z" />
    <glyph glyph-name="uni01EA0301.liga" unicode="&#x1ea;&#x301;" horiz-adv-x="766" 
d="M287 679q-4 -2 -6 3t1 7q28 20 71.5 57.5t54.5 46.5q9 9 71 -16q37 -14 34 -19l-4 -2q-108 -27 -222 -77zM717 319q0 -119 -79 -209t-197 -114q-54 -54 -54 -113q0 -52 26 -84t71 -32q25 0 43 11q2 1 4.5 -0.5t3.5 -3.5t-1 -4q-55 -45 -112 -45q-51 0 -84.5 32t-33.5 78
q0 75 107 156q-23 -3 -45 -3q-141 0 -229 94t-88 230q0 78 32 141.5t83.5 102.5t112.5 59.5t124 20.5q142 0 229 -95t87 -222zM172 349q0 -147 64 -241.5t163 -94.5q86 0 140.5 73.5t54.5 203.5q0 140 -63 229.5t-170 89.5q-91 0 -140 -68.5t-49 -191.5z" />
    <glyph glyph-name="aogonek_acutecomb.liga" unicode="&#x105;&#x301;" horiz-adv-x="421" 
d="M212 474q0 -2 -3 -2t-5.5 1.5t-2.5 2.5l33 240q4 9 67 14q34 3 31 -3zM418 54q2 1 4.5 -1.5t2.5 -5t-3 -4.5l-103 -49l-6 -2q-50 -51 -50 -109q0 -52 26 -84t71 -32q25 0 43 11q2 1 4.5 -0.5t3.5 -3.5t-1 -4q-55 -45 -112 -45q-51 0 -84.5 32t-33.5 78q0 78 114 161
q-25 14 -35 52l-46 -25q-58 -30 -104 -30q-32 0 -50.5 16.5t-18.5 47.5q0 33 23 48.5t90 37.5l102 33v79q0 117 -51 117q-50 0 -55 -77q-6 -56 -59 -56q-47 0 -47 41t71 78t129 37q47 0 76.5 -28t29.5 -82v-177q0 -61 40 -61q14 0 29 7zM243 57l13 7q-1 7 -1 21v74l-55 -20
q-50 -18 -50 -51q0 -21 12 -33t30 -12q22 0 51 14z" />
    <glyph glyph-name="eogonek_acutecomb.liga" unicode="&#x119;&#x301;" horiz-adv-x="418" 
d="M207 474q0 -2 -3 -2t-5.5 1.5t-2.5 2.5l33 240q4 9 67 14q34 3 31 -3zM356 25q-91 -84 -91 -172q0 -89 71 -89q24 0 46 14q2 1 4.5 -0.5t3.5 -3.5t-1 -4q-45 -45 -102 -45q-55 0 -85.5 26t-30.5 69q0 85 121 175q-25 -7 -57 -7q-93 0 -148 56.5t-55 136.5
q0 89 65.5 151.5t162.5 62.5q62 0 95 -26.5t33 -72.5q0 -29 -11 -29h-61l-180 -2q-3 -19 -3 -42q0 -86 40.5 -136t111.5 -50q57 0 101 28q4 4 7 -4v-5q-19 -19 -37 -31zM223 375q-30 0 -52 -24t-32 -66l142 3q-3 87 -58 87z" />
    <glyph glyph-name="ij_acutecomb.liga" unicode="&#x133;&#x301;" horiz-adv-x="532" 
d="M133 474q0 -2 -3 -2t-5.5 1.5t-2.5 2.5l33 240q4 9 67 14q34 3 31 -3zM400 474q0 -2 -3 -2t-5.5 1.5t-2.5 2.5l33 240q4 9 67 14q34 3 31 -3zM39 0q-3 0 -3 6t3 6q31 0 42 14.5t11 54.5v179q0 64 -30 64q-13 0 -37 -11q-2 -1 -4.5 2t-3 6t1.5 4l151 70q2 1 3 1q5 0 10 -5
t5 -9q0 -1 -1 -40t-1 -80v-181q0 -40 11.5 -54.5t42.5 -14.5q3 0 3 -6t-3 -6q-12 0 -46 1t-55 1t-55 -1t-45 -1zM457 382q0 -1 -1 -40t-1 -80v-310q0 -100 -38.5 -151.5t-139.5 -82.5q-2 -1 -4.5 4.5t0.5 6.5q48 21 68 67t20 133v331q0 64 -29 64q-13 0 -37 -11q-4 -2 -8 6
q-1 5 1 6l151 70q2 1 3 1q5 0 10 -5t5 -9z" />
    <glyph glyph-name="iogonek_acutecomb.liga" unicode="&#x12f;&#x301;" horiz-adv-x="263" 
d="M133 474q0 -2 -3 -2t-5.5 1.5t-2.5 2.5l33 240q4 9 67 14q34 3 31 -3zM246 -219q2 1 4.5 -0.5t3.5 -3.5t-1 -4q-45 -45 -103 -45q-49 0 -76.5 28.5t-27.5 78.5q0 81 81 167q-18 0 -48 -1t-40 -1q-3 0 -3 6t3 6q31 0 42 14.5t11 54.5v179q0 64 -30 64q-13 0 -37 -11
q-2 -1 -4.5 2t-3 6t1.5 4l151 70q2 1 3 1q5 0 10 -5t5 -9q0 -1 -1 -40t-1 -80v-181q0 -40 11.5 -54.5t42.5 -14.5q3 0 3 -6t-3 -6q-11 0 -42.5 1t-50.5 1q-18 -42 -18 -90q0 -56 25.5 -97t60.5 -41q19 0 31 7z" />
    <glyph glyph-name="j_acutecomb.liga" unicode="j&#x301;" horiz-adv-x="263" 
d="M131 474q0 -2 -3 -2t-5.5 1.5t-2.5 2.5l33 240q4 9 67 14q34 3 31 -3zM188 382q0 -1 -1 -40t-1 -80v-310q0 -100 -38.5 -151.5t-139.5 -82.5q-2 -1 -4.5 4.5t0.5 6.5q48 21 68 67t20 133v331q0 64 -29 64q-13 0 -37 -11q-4 -2 -8 6q-1 5 1 6l151 70q2 1 3 1q5 0 10 -5
t5 -9z" />
    <glyph glyph-name="uni01EB0301.liga" unicode="&#x1eb;&#x301;" horiz-adv-x="489" 
d="M242 474q0 -2 -3 -2t-5.5 1.5t-2.5 2.5l33 240q4 9 67 14q34 3 31 -3zM457 192q0 -77 -49.5 -131.5t-124.5 -69.5q-30 -67 -30 -136q0 -91 76 -91q26 0 52 14q2 1 4.5 -0.5t3.5 -3.5t-1 -4q-55 -45 -120 -45q-54 0 -82 25.5t-28 70.5q0 84 94 166h-15q-92 0 -148.5 61.5
t-56.5 149.5q0 96 68 148.5t154 52.5q92 0 147.5 -62t55.5 -145zM140 235q0 -101 36.5 -164t90.5 -63q80 0 80 149q0 104 -37.5 162.5t-89.5 58.5q-80 0 -80 -143z" />
    <glyph glyph-name="T_T.liga" unicode="TT" horiz-adv-x="1159" 
d="M1110 650q1 4 6.5 4t5.5 -4q-9 -79 -9 -202q0 -3 -5 -3t-6 3q-19 79 -57.5 116.5t-100.5 37.5q-30 0 -39 -11t-9 -49v-461q0 -44 14.5 -56.5t68.5 -12.5q2 0 2 -6t-2 -6q-17 0 -63.5 1t-76.5 1q-28 0 -75 -1t-65 -1q-2 0 -2 6t2 6q53 0 69 13t16 56v463q0 36 -9 47
t-37 11q-74 0 -107.5 -33.5t-45.5 -120.5q0 -3 -6 -3t-6 3q-7 88 -39.5 121t-111.5 33q-23 0 -32 -13t-9 -47v-461q0 -44 13 -56.5t59 -12.5q2 0 2 -6t-2 -6q-15 0 -58 1t-71 1t-75 -1t-64 -1q-3 0 -3 6t3 6q53 0 68.5 13t15.5 56v463q0 33 -10.5 45.5t-36.5 12.5
q-113 0 -171 -155q-1 -3 -6 -2.5t-5 3.5q18 111 18 199q0 5 6 5t6 -5q0 -22 53 -22q85 -3 201 -3q49 0 105.5 1.5t75.5 1.5q57 0 67 3.5t12 22.5q0 4 5.5 4t5.5 -4q-1 -19 5.5 -22t48.5 -4q81 -3 190 -3q52 0 112 1.5t81 1.5q70 0 78 25z" />
    <glyph glyph-name="T_h.liga" unicode="Th" horiz-adv-x="1048" 
d="M1030 12q4 0 4 -6t-4 -6q-12 0 -46 1t-54 1q-21 0 -55 -1t-46 -1q-2 0 -2 6t2 6q31 0 42.5 14.5t11.5 54.5v144q0 106 -82 106q-52 0 -93 -36v-214q0 -40 11 -54.5t42 -14.5q4 0 4 -6t-4 -6q-11 0 -45 1t-55 1t-55 -1t-46 -1q-2 0 -2 6t2 6q31 0 42.5 14.5t11.5 54.5v504
q0 10 -4.5 13.5t-16.5 3.5h-165q-29 0 -38.5 -12.5t-9.5 -47.5v-461q0 -44 14.5 -56.5t68.5 -12.5q3 0 3 -6t-3 -6q-17 0 -63.5 1t-76.5 1q-28 0 -75 -1t-64 -1q-3 0 -3 6t3 6q53 0 68.5 13t15.5 56v463q0 34 -9 46t-37 12q-119 0 -171 -155q-1 -3 -6 -2.5t-5 3.5
q14 130 14 199q0 5 5.5 5t5.5 -5q0 -22 57 -22q86 -3 201 -3q153 0 194 3q61 3 105.5 31t66.5 69q1 4 10 3t9 -5v-406q66 81 152 81q54 0 85.5 -34.5t31.5 -90.5v-192q0 -40 11 -54.5t42 -14.5z" />
    <glyph glyph-name="f_b.liga" unicode="fb" horiz-adv-x="830" 
d="M633 399q69 0 117.5 -48.5t48.5 -137.5q0 -106 -64 -166t-149 -60q-83 0 -145 47l-90 -41q-3 -1 -5 1t-2 4.5t2 3.5q49 28 49 101v526q-44 79 -104 79q-58 0 -85 -79q-25 -72 -25 -190v-61q31 1 110 9q7 0 7 -24q0 -6 -1.5 -13t-4 -11.5t-4.5 -3.5q-48 12 -107 15v-269
q0 -44 15.5 -56.5t73.5 -12.5q4 0 4 -6t-4 -6q-24 0 -69 1t-68 1q-21 0 -57 -1t-49 -1q-4 0 -4 6t4 6q38 0 49 13t11 56v225q0 31 -13 40.5t-51 9.5q-3 0 -3 9t3 9q35 0 48 9.5t14 34.5q6 155 54 225q56 83 180 83q86 0 141 -41q17 23 17 46q0 3 6 3t6 -3v-399q71 67 144 67
zM607 6q89 0 89 168q0 87 -29.5 129.5t-80.5 42.5q-47 0 -97 -34v-200q21 -53 52.5 -79.5t65.5 -26.5z" />
    <glyph glyph-name="f_f.liga" unicode="ff" horiz-adv-x="605" 
d="M618 726q56 0 87 -15.5t31 -43.5q0 -23 -15.5 -36t-35.5 -13q-17 0 -28.5 7t-16 14.5t-10.5 21.5t-10 21t-15 14t-26 7q-99 0 -99 -264v-61q31 1 110 9q7 0 7 -24q0 -6 -1.5 -13t-4 -11.5t-4.5 -3.5q-48 12 -107 15v-269q0 -44 15.5 -56.5t73.5 -12.5q4 0 4 -6t-4 -6
q-24 0 -69 1t-68 1q-21 0 -57 -1t-49 -1q-4 0 -4 6t4 6q38 0 49 13t11 56v225v1q0 8 -1 11q-1 20 -13.5 26.5t-44.5 8.5q-33 1 -146 1v-273q0 -44 15.5 -56.5t73.5 -12.5q4 0 4 -6t-4 -6q-24 0 -69 1t-68 1q-21 0 -57 -1t-49 -1q-4 0 -4 6t4 6q38 0 49 13t11 56v225
q0 31 -13 40.5t-51 9.5q-3 0 -3 9t3 9q35 0 48 9.5t14 34.5q12 273 246 273q72 0 126 -25q54 60 161 60zM181 439v-62q100 0 141 1q44 1 55 12q7 12 7 28q3 115 34 186q-49 67 -119 67q-54 0 -86 -57t-32 -175z" />
    <glyph glyph-name="f_f_b.liga" unicode="ffb" horiz-adv-x="1130" 
d="M932 399q69 0 117.5 -48.5t48.5 -137.5q0 -106 -64 -166t-149 -60q-83 0 -145 47l-90 -41q-3 -1 -5 1t-2 4.5t2 3.5q49 28 49 101v526q-44 79 -104 79q-58 0 -85 -79q-25 -72 -25 -190v-61q31 1 110 9q7 0 7 -24q0 -6 -1.5 -13t-4 -11.5t-4.5 -3.5q-48 12 -107 15v-269
q0 -44 15.5 -56.5t73.5 -12.5q4 0 4 -6t-4 -6q-24 0 -69 1t-68 1q-21 0 -57 -1t-49 -1q-4 0 -4 6t4 6q38 0 49 13t11 56v225v1q0 8 -1 11q-1 20 -13.5 26.5t-44.5 8.5q-33 1 -146 1v-273q0 -44 15.5 -56.5t73.5 -12.5q4 0 4 -6t-4 -6q-24 0 -69 1t-68 1q-21 0 -57 -1t-49 -1
q-4 0 -4 6t4 6q38 0 49 13t11 56v225q0 31 -13 40.5t-51 9.5q-3 0 -3 9t3 9q35 0 48 9.5t14 34.5q12 273 246 273q71 0 125 -25q56 60 162 60q86 0 141 -41q17 23 17 46q0 3 6 3t6 -3v-399q71 67 144 67zM181 439v-62q100 0 141 1q44 1 55 12q7 12 7 28q5 120 33 187
q-48 66 -118 66q-54 0 -86 -57t-32 -175zM906 6q89 0 89 168q0 87 -29.5 129.5t-80.5 42.5q-47 0 -97 -34v-200q21 -53 52.5 -79.5t65.5 -26.5z" />
    <glyph glyph-name="f_f_f.liga" unicode="fff" horiz-adv-x="904" 
d="M831 726q56 0 87 -15.5t31 -43.5q0 -23 -15.5 -36t-35.5 -13q-17 0 -28.5 7t-16 14.5t-10.5 21.5t-10 21t-15 14t-26 7q-26 0 -47 -21q21 -14 32 -27l-44 -77q-10 24 -21 40q-19 -66 -19 -179v-39l11 -22q45 3 99 9q7 0 7 -24q0 -6 -1.5 -13t-4 -11.5t-4.5 -3.5
q-43 10 -100 15l-7 -21v-248q0 -44 15.5 -56.5t73.5 -12.5q4 0 4 -6t-4 -6q-24 0 -69 1t-68 1q-13 0 -38 -0.5t-36 -0.5q0 -1 -1 -1h-19h-12h-1q-72 2 -105 2q-21 0 -57 -1t-50 -1q-3 0 -3 6t3 6q38 0 49 12.5t11 56.5v225v1v1v1q-1 25 -12.5 33.5t-46.5 10.5q-33 1 -146 1
v-273q0 -44 15.5 -56.5t73.5 -12.5q4 0 4 -6t-4 -6q-24 0 -69 1t-68 1q-21 0 -57 -1t-49 -1q-4 0 -4 6t4 6q38 0 49 13t11 56v225q0 31 -13 40.5t-51 9.5q-3 0 -3 9t3 9q35 0 48 9.5t14 34.5q12 273 246 273q85 0 139 -31q59 55 160 55q44 0 81 -16q47 27 120 27zM599 695
q-54 0 -86 -63t-32 -193v-62h88q27 7 28 41q6 176 73 249q-34 28 -71 28zM181 439v-62q100 0 141 1q51 1 59 18q4 12 4 20v2q4 111 38 178q-22 35 -55.5 55t-68.5 20q-54 0 -86 -57t-32 -175zM599 81v225q0 23 -7 33.5t-24 14.5h-87v-273q0 -41 12.5 -54.5t57.5 -14.5
q30 1 39 15t9 54z" />
    <glyph glyph-name="f_f_h.liga" unicode="ffh" horiz-adv-x="1129" 
d="M1111 12q3 0 3 -6t-3 -6q-12 0 -46 1t-55 1q-20 0 -54 -1t-46 -1q-3 0 -3 6t3 6q30 0 41.5 14.5t11.5 54.5v144q0 106 -82 106q-51 0 -93 -37v-213q0 -40 11.5 -54.5t42.5 -14.5q3 0 3 -6t-3 -6q-12 0 -46 1t-55 1t-55 -1t-45 -1q-3 0 -3 6t3 6q30 0 41.5 14.5t11.5 54.5
v548q-44 79 -104 79q-110 0 -110 -269v-61q31 1 110 9q7 0 7 -24q0 -6 -1.5 -13t-4 -11.5t-4.5 -3.5q-48 12 -107 15v-269q0 -44 15.5 -56.5t73.5 -12.5q4 0 4 -6t-4 -6q-24 0 -69 1t-68 1q-21 0 -57 -1t-49 -1q-4 0 -4 6t4 6q38 0 49 13t11 56v225v1q0 8 -1 11
q-1 20 -13.5 26.5t-44.5 8.5q-33 1 -146 1v-273q0 -44 15.5 -56.5t73.5 -12.5q4 0 4 -6t-4 -6q-24 0 -69 1t-68 1q-21 0 -57 -1t-49 -1q-4 0 -4 6t4 6q38 0 49 13t11 56v225q0 31 -13 40.5t-51 9.5q-3 0 -3 9t3 9q35 0 48 9.5t14 34.5q12 273 246 273q71 0 125 -25
q56 60 162 60q86 0 141 -41q17 23 17 46q0 3 6 3t6 -3v-414q71 81 152 81q54 0 85.5 -34.5t31.5 -90.5v-192q0 -40 11.5 -54.5t42.5 -14.5zM181 439v-62q100 0 141 1q44 1 55 12q7 12 7 28q3 114 34 187q-50 66 -119 66q-54 0 -86 -57t-32 -175z" />
    <glyph glyph-name="f_f_i.liga" unicode="ffi" horiz-adv-x="869" 
d="M605 706q-53 0 -89 -66.5t-36 -200.5v-61q31 1 110 9q7 0 7 -24q0 -6 -1.5 -13t-4 -11.5t-4.5 -3.5q-48 12 -107 15v-269q0 -44 15.5 -56.5t73.5 -12.5q4 0 4 -6t-4 -6q-24 0 -69 1t-68 1q-21 0 -57 -1t-49 -1q-4 0 -4 6t4 6q38 0 49 13t11 56v225v1q0 8 -1 11
q-1 20 -13.5 26.5t-44.5 8.5q-33 1 -146 1v-273q0 -44 15.5 -56.5t73.5 -12.5q4 0 4 -6t-4 -6q-24 0 -69 1t-68 1q-21 0 -57 -1t-49 -1q-4 0 -4 6t4 6q38 0 49 13t11 56v225q0 31 -13 40.5t-51 9.5q-3 0 -3 9t3 9q35 0 48 9.5t14 34.5q12 273 246 273q78 0 132 -28
q60 63 174 63q68 0 107 -21t39 -56q0 -19 -12.5 -31t-36.5 -12q-23 0 -39 15.5t-23.5 34.5t-24.5 34.5t-42 15.5zM181 439v-62q100 0 141 1q44 1 55 12q7 12 7 28q5 114 37 182q-50 71 -122 71q-54 0 -86 -57t-32 -175zM845 12q4 0 4 -6t-4 -6q-12 0 -46 1t-54 1
q-21 0 -55 -1t-46 -1q-2 0 -2 6t2 6q31 0 42.5 14.5t11.5 54.5v179q0 48 -14 59.5t-53 -6.5q-2 -1 -4.5 2t-3 6t0.5 4l151 70q5 3 12 -2.5t7 -10.5q0 -1 -1.5 -40t-1.5 -80v-181q0 -40 11.5 -54.5t42.5 -14.5z" />
    <glyph glyph-name="f_f_j.liga" unicode="ffj" horiz-adv-x="877" 
d="M610 706q-58 0 -94 -66t-36 -201v-61q31 1 110 9q7 0 7 -24q0 -6 -1.5 -13t-4 -11.5t-4.5 -3.5q-48 12 -107 15v-269q0 -44 15.5 -56.5t73.5 -12.5q4 0 4 -6t-4 -6q-24 0 -69 1t-68 1q-21 0 -57 -1t-49 -1q-4 0 -4 6t4 6q38 0 49 13t11 56v225v1q0 8 -1 11
q-1 20 -13.5 26.5t-44.5 8.5q-33 1 -146 1v-273q0 -44 15.5 -56.5t73.5 -12.5q4 0 4 -6t-4 -6q-24 0 -69 1t-68 1q-21 0 -57 -1t-49 -1q-4 0 -4 6t4 6q38 0 49 13t11 56v225q0 31 -13 40.5t-51 9.5q-3 0 -3 9t3 9q35 0 48 9.5t14 34.5q12 273 246 273q78 0 132 -28
q60 63 168 63q79 0 121.5 -21t42.5 -56q0 -19 -12.5 -31t-36.5 -12q-20 0 -35.5 10.5t-25 25t-18.5 29t-23.5 25t-33.5 10.5zM181 439v-62q100 0 141 1q44 1 55 12q7 12 7 28q4 111 37 182q-22 33 -55 52t-67 19q-54 0 -86 -57t-32 -175zM787 395q5 3 11.5 -2.5t6.5 -10.5
q0 -1 -1 -40t-1 -80v-310q0 -100 -38.5 -151.5t-139.5 -82.5q-2 -1 -4.5 4.5t0.5 6.5q48 21 68.5 67.5t20.5 132.5v331q0 48 -14.5 59.5t-52.5 -6.5q-4 -2 -8 6q-1 5 1 6z" />
    <glyph glyph-name="f_f_k.liga" unicode="ffk" horiz-adv-x="1111" 
d="M1117 12q2 0 2 -6t-2 -6q-12 0 -46 1t-55 1q-30 0 -70 -1t-54 -1q-3 0 -3 6t3 6q27 0 34.5 12t-6.5 29l-113 146l-19 -17v-101q0 -40 11.5 -54.5t42.5 -14.5q3 0 3 -6t-3 -6q-12 0 -46 1t-55 1t-55 -1t-45 -1q-3 0 -3 6t3 6q30 0 41.5 14.5t11.5 54.5v548q-44 79 -104 79
q-110 0 -110 -269v-61q31 1 110 9q7 0 7 -24q0 -6 -1.5 -13t-4 -11.5t-4.5 -3.5q-48 12 -107 15v-269q0 -44 15.5 -56.5t73.5 -12.5q4 0 4 -6t-4 -6q-24 0 -69 1t-68 1q-21 0 -57 -1t-49 -1q-4 0 -4 6t4 6q38 0 49 13t11 56v225v1q0 8 -1 11q-1 20 -13.5 26.5t-44.5 8.5
q-33 1 -146 1v-273q0 -44 15.5 -56.5t73.5 -12.5q4 0 4 -6t-4 -6q-24 0 -69 1t-68 1q-21 0 -57 -1t-49 -1q-4 0 -4 6t4 6q38 0 49 13t11 56v225q0 31 -13 40.5t-51 9.5q-3 0 -3 9t3 9q35 0 48 9.5t14 34.5q12 273 246 273q71 0 125 -25q56 60 162 60q86 0 141 -41
q17 23 17 46q0 3 6 3t6 -3v-525l92 89q29 26 26 52.5t-37 26.5q-3 0 -3 6t3 6q14 0 52.5 -1t71.5 -1q31 0 65 1t47 1q2 0 2 -6t-2 -6q-43 0 -99 -22t-100 -62l-36 -33l138 -176q54 -69 109 -69zM181 439v-62q100 0 141 1q44 1 55 12q7 12 7 28q3 114 34 187q-50 66 -119 66
q-54 0 -86 -57t-32 -175z" />
    <glyph glyph-name="f_f_l.liga" unicode="ffl" horiz-adv-x="867" 
d="M842 12q3 0 3 -6t-3 -6q-12 0 -46 1t-56 1q-20 0 -53.5 -1t-45.5 -1q-3 0 -3 6t3 6q30 0 41.5 14.5t11.5 54.5v548q-44 79 -104 79q-110 0 -110 -269v-61q31 1 110 9q7 0 7 -24q0 -6 -1.5 -13t-4 -11.5t-4.5 -3.5q-48 12 -107 15v-269q0 -44 15.5 -56.5t73.5 -12.5
q4 0 4 -6t-4 -6q-24 0 -69 1t-68 1q-21 0 -57 -1t-49 -1q-4 0 -4 6t4 6q38 0 49 13t11 56v225v1q0 8 -1 11q-1 20 -13.5 26.5t-44.5 8.5q-33 1 -146 1v-273q0 -44 15.5 -56.5t73.5 -12.5q4 0 4 -6t-4 -6q-24 0 -69 1t-68 1q-21 0 -57 -1t-49 -1q-4 0 -4 6t4 6q38 0 49 13
t11 56v225q0 31 -13 40.5t-51 9.5q-3 0 -3 9t3 9q35 0 48 9.5t14 34.5q12 273 246 273q71 0 125 -25q56 60 162 60q86 0 141 -41q17 23 17 46q0 3 6 3t6 -3v-650q0 -40 11.5 -54.5t42.5 -14.5zM181 439v-62q100 0 141 1q44 1 55 12q7 12 7 28q3 114 34 187q-50 66 -119 66
q-54 0 -86 -57t-32 -175z" />
    <glyph glyph-name="f_f_thorn.liga" unicode="ff&#xfe;" horiz-adv-x="1123" 
d="M870 -13q-45 0 -82 10v-191q0 -43 16.5 -56t72.5 -13q2 0 2 -6t-2 -6q-18 0 -64 1t-73 1q-21 0 -55.5 -1t-46.5 -1q-2 0 -2 6t2 6q35 0 45.5 13t10.5 56v823q-44 79 -104 79q-110 0 -110 -269v-61q31 1 110 9q7 0 7 -24q0 -6 -1.5 -13t-4 -11.5t-4.5 -3.5q-48 12 -107 15
v-269q0 -44 15.5 -56.5t73.5 -12.5q4 0 4 -6t-4 -6q-24 0 -69 1t-68 1q-21 0 -57 -1t-49 -1q-4 0 -4 6t4 6q38 0 49 13t11 56v225v1q0 8 -1 11q-1 20 -13.5 26.5t-44.5 8.5q-33 1 -146 1v-273q0 -44 15.5 -56.5t73.5 -12.5q4 0 4 -6t-4 -6q-24 0 -69 1t-68 1q-21 0 -57 -1
t-49 -1q-4 0 -4 6t4 6q38 0 49 13t11 56v225q0 31 -13 40.5t-51 9.5q-3 0 -3 9t3 9q35 0 48 9.5t14 34.5q12 273 246 273q71 0 125 -25q56 60 162 60q86 0 141 -41q17 23 17 46q0 3 6 3t6 -3v-393q71 61 144 61q66 0 112.5 -50t46.5 -134q0 -61 -20.5 -107t-54 -71.5
t-70.5 -37.5t-76 -12zM181 439v-62q100 0 141 1q44 1 55 12q7 12 7 28q3 114 34 187q-50 66 -119 66q-54 0 -86 -57t-32 -175zM866 343q-43 0 -78 -29v-257q43 -45 100 -45q102 0 102 172q0 76 -35.5 117.5t-88.5 41.5z" />
    <glyph glyph-name="f_f_t.liga" unicode="fft" horiz-adv-x="929" 
d="M913 68q4 4 9 -1q3 -4 0 -7q-72 -72 -146 -72q-44 0 -74.5 21t-30.5 71v226q0 17 -5 25.5t-26.5 14.5t-56.5 8t-103 2v-275q0 -44 15.5 -56.5t73.5 -12.5q4 0 4 -6t-4 -6q-24 0 -69 1t-68 1q-21 0 -57 -1t-49 -1q-4 0 -4 6t4 6q38 0 49 13t11 56v225v1q0 8 -1 11
q-1 20 -13.5 26.5t-44.5 8.5q-33 1 -146 1v-273q0 -44 15.5 -56.5t73.5 -12.5q4 0 4 -6t-4 -6q-24 0 -69 1t-68 1q-21 0 -57 -1t-49 -1q-4 0 -4 6t4 6q38 0 49 13t11 56v225q0 31 -13 40.5t-51 9.5q-3 0 -3 9t3 9q35 0 48 9.5t14 34.5q12 273 246 273q71 0 125 -25
q56 60 162 60q56 0 87 -15.5t31 -43.5q0 -23 -15.5 -36t-37.5 -13q-23 0 -35.5 12.5t-22.5 36.5q-8 20 -17.5 29.5t-28.5 9.5q-46 0 -72.5 -65.5t-26.5 -201.5v-61q99 0 141 3q47 3 73 20.5t56 56.5q2 4 9 4t7 -4v-80q59 1 129 9q8 0 8 -24q0 -6 -1.5 -13t-4.5 -11.5
t-5 -3.5q-65 14 -126 15v-237q0 -74 71 -74q47 0 76 29zM181 439v-62q100 0 141 1q44 1 55 12q7 12 7 28q3 114 34 187q-50 66 -119 66q-54 0 -86 -57t-32 -175z" />
    <glyph glyph-name="f_h.liga" unicode="fh" horiz-adv-x="829" 
d="M812 12q3 0 3 -6t-3 -6q-12 0 -46 1t-55 1t-55 -1t-45 -1q-3 0 -3 6t3 6q30 0 41.5 14.5t11.5 54.5v144q0 106 -82 106q-51 0 -93 -37v-213q0 -40 11.5 -54.5t42.5 -14.5q3 0 3 -6t-3 -6q-12 0 -46 1t-55 1q-20 0 -54 -1t-46 -1q-3 0 -3 6t3 6q30 0 41.5 14.5t11.5 54.5
v548q-44 79 -104 79q-110 0 -110 -269v-61q31 1 110 9q7 0 7 -24q0 -6 -1.5 -13t-4 -11.5t-4.5 -3.5q-48 12 -107 15v-269q0 -44 15.5 -56.5t73.5 -12.5q4 0 4 -6t-4 -6q-24 0 -69 1t-68 1q-21 0 -57 -1t-49 -1q-4 0 -4 6t4 6q38 0 49 13t11 56v225q0 31 -13 40.5t-51 9.5
q-3 0 -3 9t3 9q35 0 48 9.5t14 34.5q5 163 61.5 235.5t172.5 72.5q86 0 141 -41q17 23 17 46q0 3 6 3t6 -3v-414q71 81 152 81q54 0 85.5 -34.5t31.5 -90.5v-192q0 -40 11.5 -54.5t42.5 -14.5z" />
    <glyph glyph-name="f_j.liga" unicode="fj" horiz-adv-x="578" 
d="M311 706q-58 0 -94 -66t-36 -201v-61q31 1 110 9q7 0 7 -24q0 -6 -1.5 -13t-4 -11.5t-4.5 -3.5q-48 12 -107 15v-269q0 -44 15.5 -56.5t73.5 -12.5q4 0 4 -6t-4 -6q-24 0 -69 1t-68 1q-21 0 -57 -1t-49 -1q-4 0 -4 6t4 6q38 0 49 13t11 56v225q0 31 -13 40.5t-51 9.5
q-3 0 -3 9t3 9q35 0 48 9.5t14 34.5q7 161 70 234.5t177 73.5q79 0 121.5 -21t42.5 -56q0 -19 -12.5 -31t-36.5 -12q-20 0 -35.5 10.5t-25 25t-18.5 29t-23.5 25t-33.5 10.5zM488 395q5 3 11.5 -2.5t6.5 -10.5q0 -1 -1 -40t-1 -80v-310q0 -100 -38.5 -151.5t-139.5 -82.5
q-2 -1 -4.5 4.5t0.5 6.5q48 21 68.5 67.5t20.5 132.5v331q0 48 -14.5 59.5t-52.5 -6.5q-4 -2 -8 6q-1 5 1 6z" />
    <glyph glyph-name="f_k.liga" unicode="fk" horiz-adv-x="812" 
d="M818 12q2 0 2 -6t-2 -6q-12 0 -46 1t-55 1q-30 0 -70 -1t-54 -1q-3 0 -3 6t3 6q27 0 34.5 12t-6.5 29l-113 146l-19 -17v-101q0 -40 11.5 -54.5t42.5 -14.5q3 0 3 -6t-3 -6q-12 0 -46 1t-55 1q-20 0 -54 -1t-46 -1q-3 0 -3 6t3 6q30 0 41.5 14.5t11.5 54.5v548
q-44 79 -104 79q-110 0 -110 -269v-61q31 1 110 9q7 0 7 -24q0 -6 -1.5 -13t-4 -11.5t-4.5 -3.5q-48 12 -107 15v-269q0 -44 15.5 -56.5t73.5 -12.5q4 0 4 -6t-4 -6q-24 0 -69 1t-68 1q-21 0 -57 -1t-49 -1q-4 0 -4 6t4 6q38 0 49 13t11 56v225q0 31 -13 40.5t-51 9.5
q-3 0 -3 9t3 9q35 0 48 9.5t14 34.5q5 163 61.5 235.5t172.5 72.5q86 0 141 -41q17 23 17 46q0 3 6 3t6 -3v-525l92 89q29 26 26 52.5t-37 26.5q-3 0 -3 6t3 6q14 0 52.5 -1t71.5 -1q30 0 65 1t47 1q2 0 2 -6t-2 -6q-43 0 -99 -22t-100 -62l-36 -33l138 -176q54 -69 109 -69
z" />
    <glyph glyph-name="f_thorn.liga" unicode="f&#xfe;" horiz-adv-x="823" 
d="M571 -13q-45 0 -82 10v-191q0 -43 16.5 -56t72.5 -13q2 0 2 -6t-2 -6q-18 0 -64 1t-73 1q-21 0 -55.5 -1t-46.5 -1q-2 0 -2 6t2 6q35 0 45.5 13t10.5 56v823q-44 79 -104 79q-110 0 -110 -269v-61q31 1 110 9q7 0 7 -24q0 -6 -1.5 -13t-4 -11.5t-4.5 -3.5q-48 12 -107 15
v-269q0 -44 15.5 -56.5t73.5 -12.5q4 0 4 -6t-4 -6q-24 0 -69 1t-68 1q-21 0 -57 -1t-49 -1q-4 0 -4 6t4 6q38 0 49 13t11 56v225q0 31 -13 40.5t-51 9.5q-3 0 -3 9t3 9q35 0 48 9.5t14 34.5q5 163 61.5 235.5t172.5 72.5q86 0 141 -41q17 23 17 46q0 3 6 3t6 -3v-393
q71 61 144 61q66 0 112.5 -50t46.5 -134q0 -61 -20.5 -107t-54 -71.5t-70.5 -37.5t-76 -12zM567 343q-43 0 -78 -29v-257q43 -45 100 -45q102 0 102 172q0 76 -35.5 117.5t-88.5 41.5z" />
    <glyph glyph-name="f_t.liga" unicode="ft" horiz-adv-x="629" 
d="M614 68q4 4 9 -1q3 -4 0 -7q-72 -72 -146 -72q-44 0 -74.5 21t-30.5 71v226q0 17 -5 25.5t-26.5 14.5t-56.5 8t-103 2v-275q0 -44 15.5 -56.5t73.5 -12.5q4 0 4 -6t-4 -6q-24 0 -69 1t-68 1q-21 0 -57 -1t-49 -1q-4 0 -4 6t4 6q38 0 49 13t11 56v225q0 31 -13 40.5
t-51 9.5q-3 0 -3 9t3 9q35 0 48 9.5t14 34.5q5 163 61.5 235.5t172.5 72.5q56 0 87 -15.5t31 -43.5q0 -23 -15.5 -36t-37.5 -13q-23 0 -35.5 12.5t-22.5 36.5q-8 20 -17.5 29.5t-28.5 9.5q-46 0 -72.5 -65.5t-26.5 -201.5v-61q99 0 141 3q47 3 73 20.5t56 56.5q1 4 8.5 4
t7.5 -4v-80q59 1 129 9q8 0 8 -24q0 -6 -1.5 -13t-4.5 -11.5t-5 -3.5q-65 14 -126 15v-237q0 -74 71 -74q47 0 76 29z" />
    <glyph glyph-name="fi.liga" unicode="fi" horiz-adv-x="570" 
d="M306 706q-53 0 -89 -66.5t-36 -200.5v-61q31 1 110 9q7 0 7 -24q0 -6 -1.5 -13t-4 -11.5t-4.5 -3.5q-48 12 -107 15v-269q0 -44 15.5 -56.5t73.5 -12.5q4 0 4 -6t-4 -6q-24 0 -69 1t-68 1q-21 0 -57 -1t-49 -1q-4 0 -4 6t4 6q38 0 49 13t11 56v225q0 31 -13 40.5t-51 9.5
q-3 0 -3 9t3 9q35 0 48 9.5t14 34.5q7 162 70 235t183 73q68 0 107 -21t39 -56q0 -19 -12.5 -31t-36.5 -12q-23 0 -39 15.5t-23.5 34.5t-24.5 34.5t-42 15.5zM546 12q4 0 4 -6t-4 -6q-12 0 -46 1t-54 1q-21 0 -55 -1t-46 -1q-2 0 -2 6t2 6q31 0 42.5 14.5t11.5 54.5v179
q0 48 -14 59.5t-53 -6.5q-2 -1 -4.5 2t-3 6t0.5 4l151 70q5 3 12 -2.5t7 -10.5q0 -1 -1.5 -40t-1.5 -80v-181q0 -40 11.5 -54.5t42.5 -14.5z" />
    <glyph glyph-name="fl.liga" unicode="fl" horiz-adv-x="567" 
d="M543 12q3 0 3 -6t-3 -6q-12 0 -46 1t-56 1q-20 0 -53.5 -1t-45.5 -1q-3 0 -3 6t3 6q30 0 41.5 14.5t11.5 54.5v548q-44 79 -104 79q-110 0 -110 -269v-61q31 1 110 9q7 0 7 -24q0 -6 -1.5 -13t-4 -11.5t-4.5 -3.5q-48 12 -107 15v-269q0 -44 15.5 -56.5t73.5 -12.5
q4 0 4 -6t-4 -6q-24 0 -69 1t-68 1q-21 0 -57 -1t-49 -1q-4 0 -4 6t4 6q38 0 49 13t11 56v225q0 31 -13 40.5t-51 9.5q-3 0 -3 9t3 9q35 0 48 9.5t14 34.5q5 163 61.5 235.5t172.5 72.5q86 0 141 -41q17 23 17 46q0 3 6 3t6 -3v-650q0 -40 11.5 -54.5t42.5 -14.5z" />
    <glyph glyph-name="g_g.liga" unicode="gg" horiz-adv-x="901" 
d="M458 396q9 0 9 -28q0 -33 -9 -44q-2 -2 -3 -1q-56 17 -98 17h-8q26 -31 26 -70q0 -56 -53.5 -90.5t-119.5 -34.5q-27 0 -51 6q-20 -16 -20 -41q0 -16 9 -27.5t31 -19t36.5 -10.5t48.5 -9t49 -9t43 -12.5t41.5 -21t24.5 -32t11 -47.5q0 -82 -72 -143t-171 -61
q-74 0 -121 32t-47 83q0 74 104 149q-63 19 -63 72q0 57 80 101q-44 15 -68 46t-24 67q0 58 54 91.5t118 33.5q68 0 113 -34q63 37 130 37zM705 44q31 -5 43.5 -7.5t39.5 -9t39.5 -14.5t28.5 -20.5t22.5 -30t6.5 -40.5q0 -82 -75 -143t-178 -61q-72 0 -117.5 32t-45.5 83
q0 74 99 148q-64 21 -64 73q0 57 80 101q-44 15 -68 46t-24 67q0 58 54 91.5t118 33.5q66 0 111 -32q53 35 109 35q8 0 8 -28q0 -32 -9 -44q-1 -2 -2 -1q-42 17 -75 17h-8q27 -32 27 -70q0 -56 -54 -90.5t-120 -34.5q-27 0 -51 6q-20 -16 -20 -41q0 -16 9 -27.5t31 -19
t36.5 -10.5t48.5 -9zM229 163q19 0 33.5 20t14.5 63q0 54 -28 91t-67 37q-42 0 -42 -79q0 -52 25 -92t64 -40zM632 374q-43 0 -43 -79q0 -52 25 -92t64 -40q20 0 34 20t14 63q0 54 -28 91t-66 37zM340 -138q0 23 -9 40.5t-20 27.5t-34.5 18t-37.5 10.5t-44 7.5l-54 9
q-28 -33 -28 -94q0 -63 34 -97t88 -34q47 0 76 30.5t29 81.5zM684 -250q52 0 84.5 30.5t32.5 81.5q0 20 -5.5 35t-18.5 25.5t-24.5 17t-34 12t-35 8t-39.5 6.5l-52 9q-24 -35 -24 -94q0 -63 32.5 -97t83.5 -34z" />
    <glyph glyph-name="longs_b.liga" unicode="&#x17f;b" horiz-adv-x="815" 
d="M618 399q69 0 117.5 -48.5t48.5 -137.5q0 -106 -64 -166t-149 -60q-81 0 -145 47l-90 -41q-3 -1 -5 1t-2 4.5t2 3.5q49 28 49 101v526q-40 79 -96 79q-48 0 -77 -65.5t-29 -203.5v-358q0 -44 15.5 -56.5t73.5 -12.5q3 0 3 -6t-3 -6q-24 0 -69.5 1t-67.5 1q-21 0 -57 -1
t-50 -1q-3 0 -3 6t3 6q38 0 49 12.5t11 56.5v337q0 308 228 308q83 0 134 -40q17 22 17 45q0 3 6 3t6 -3v-398q72 66 144 66zM592 6q44 0 66.5 43.5t22.5 124.5q0 87 -29.5 129.5t-80.5 42.5q-47 0 -97 -34v-200q21 -53 52.5 -79.5t65.5 -26.5z" />
    <glyph glyph-name="longs_h.liga" unicode="&#x17f;h" horiz-adv-x="814" 
d="M796 12q4 0 4 -6t-4 -6q-11 0 -45 1t-55 1t-55 -1t-46 -1q-2 0 -2 6t2 6q31 0 42.5 14.5t11.5 54.5v144q0 106 -82 106q-51 0 -93 -37v-213q0 -40 11.5 -54.5t41.5 -14.5q4 0 4 -6t-4 -6q-11 0 -45 1t-55 1t-55 -1t-46 -1q-2 0 -2 6t2 6q31 0 42.5 14.5t11.5 54.5v548
q-40 79 -96 79q-48 0 -77 -65.5t-29 -203.5v-358q0 -44 15.5 -56.5t73.5 -12.5q3 0 3 -6t-3 -6q-24 0 -69.5 1t-67.5 1q-21 0 -57 -1t-50 -1q-3 0 -3 6t3 6q38 0 49 12.5t11 56.5v337q0 308 228 308q83 0 134 -40q17 22 17 45q0 3 6 3t6 -3v-414q71 81 152 81
q54 0 85.5 -34.5t31.5 -90.5v-192q0 -40 11.5 -54.5t41.5 -14.5z" />
    <glyph glyph-name="longs_i.liga" unicode="&#x17f;i" horiz-adv-x="560" 
d="M23 0q-3 0 -3 6t3 6q38 0 49 12.5t11 56.5v337q0 308 240 308q64 0 102 -21t38 -56q0 -19 -12.5 -31t-36.5 -12q-22 0 -37.5 15.5t-23 34.5t-23 34.5t-38.5 15.5q-49 0 -81.5 -66.5t-32.5 -200.5v-358q0 -44 15.5 -56.5t73.5 -12.5q3 0 3 -6t-3 -6q-24 0 -69.5 1t-67.5 1
q-21 0 -57 -1t-50 -1zM324 0q-3 0 -3 6t3 6q31 0 42.5 14.5t11.5 54.5v179q0 48 -14 59.5t-53 -6.5q-2 -1 -4.5 2t-3 6t0.5 4l151 70q5 3 12 -2.5t7 -10.5q0 -1 -1.5 -40t-1.5 -80v-181q0 -40 11.5 -54.5t42.5 -14.5q4 0 4 -6t-4 -6q-12 0 -46 1t-54 1q-21 0 -55 -1t-46 -1z
" />
    <glyph glyph-name="longs_j.liga" unicode="&#x17f;j" horiz-adv-x="545" 
d="M23 0q-3 0 -3 6t3 6q38 0 49 12.5t11 56.5v337q0 308 240 308q64 0 102 -21t38 -56q0 -19 -12.5 -31t-36.5 -12q-22 0 -37.5 15.5t-23 34.5t-23 34.5t-38.5 15.5q-49 0 -81.5 -66.5t-32.5 -200.5v-358q0 -44 15.5 -56.5t73.5 -12.5q3 0 3 -6t-3 -6q-24 0 -69.5 1t-67.5 1
q-21 0 -57 -1t-50 -1zM294 -282q-3 -1 -5.5 4.5t0.5 6.5q48 21 68.5 67.5t20.5 132.5v331q0 48 -14 59.5t-53 -6.5q-2 -1 -4.5 2t-3 6t0.5 4l151 70q5 3 12 -2.5t7 -10.5q0 -1 -1.5 -40t-1.5 -80v-310q0 -100 -38.5 -151.5t-138.5 -82.5z" />
    <glyph glyph-name="longs_k.liga" unicode="&#x17f;k" horiz-adv-x="796" 
d="M802 12q3 0 3 -6t-3 -6q-12 0 -46 1t-54 1q-30 0 -70 -1t-54 -1q-3 0 -3 6t3 6q26 0 33.5 12t-5.5 29l-114 146l-18 -16v-102q0 -40 11.5 -54.5t41.5 -14.5q4 0 4 -6t-4 -6q-11 0 -45 1t-55 1t-55 -1t-46 -1q-2 0 -2 6t2 6q31 0 42.5 14.5t11.5 54.5v548q-40 79 -96 79
q-48 0 -77 -65.5t-29 -203.5v-358q0 -44 15.5 -56.5t73.5 -12.5q3 0 3 -6t-3 -6q-24 0 -69.5 1t-67.5 1q-21 0 -57 -1t-50 -1q-3 0 -3 6t3 6q38 0 49 12.5t11 56.5v337q0 308 228 308q83 0 134 -40q17 22 17 45q0 3 6 3t6 -3v-525l92 89q29 26 26 52.5t-38 26.5q-2 0 -2 6
t2 6q14 0 53 -1t71 -1q30 0 65 1t48 1q2 0 2 -6t-2 -6q-43 0 -99 -22t-100 -62l-36 -33l138 -176q54 -69 108 -69z" />
    <glyph glyph-name="longs_l.liga" unicode="&#x17f;l" horiz-adv-x="552" 
d="M527 12q4 0 4 -6t-4 -6q-11 0 -45 1t-55 1t-55 -1t-46 -1q-2 0 -2 6t2 6q31 0 42.5 14.5t11.5 54.5v548q-40 79 -96 79q-48 0 -77 -65.5t-29 -203.5v-358q0 -44 15.5 -56.5t73.5 -12.5q3 0 3 -6t-3 -6q-24 0 -69.5 1t-67.5 1q-21 0 -57 -1t-50 -1q-3 0 -3 6t3 6
q38 0 49 12.5t11 56.5v337q0 308 228 308q83 0 134 -40q17 22 17 45q0 3 6 3t6 -3v-650q0 -40 11.5 -54.5t41.5 -14.5z" />
    <glyph glyph-name="longs_thorn.liga" unicode="&#x17f;&#xfe;" horiz-adv-x="812" 
d="M559 -13q-48 0 -85 11v-192q0 -43 16.5 -56t72.5 -13q2 0 2 -6t-2 -6q-18 0 -64 1t-73 1q-21 0 -55.5 -1t-46.5 -1q-3 0 -3 6t3 6q35 0 45.5 13t10.5 56v823q-40 79 -96 79q-48 0 -77 -65.5t-29 -203.5v-358q0 -44 15.5 -56.5t73.5 -12.5q3 0 3 -6t-3 -6q-24 0 -69.5 1
t-67.5 1q-21 0 -57 -1t-50 -1q-3 0 -3 6t3 6q38 0 49 12.5t11 56.5v337q0 308 228 308q83 0 134 -40q17 22 17 45q0 3 6 3t6 -3v-396q73 64 147 64q66 0 112.5 -50t46.5 -134q0 -61 -20.5 -107t-54 -71.5t-70.5 -37.5t-76 -12zM556 343q-45 0 -82 -32v-250q42 -49 104 -49
q102 0 102 172q0 76 -35.5 117.5t-88.5 41.5z" />
    <glyph glyph-name="longs_longs.liga" unicode="&#x17f;&#x17f;" horiz-adv-x="540" 
d="M587 726q110 0 110 -59q0 -23 -16 -36t-37 -13t-34 13.5t-17 30t-15 30t-29 13.5q-90 0 -90 -266v-358q0 -44 13.5 -56.5t63.5 -12.5q4 0 4 -6t-4 -6q-22 0 -63 1t-62 1t-57 -1t-50 -1q-3 0 -3 6t3 6q38 0 49 12.5t11 56.5v337q0 112 27 181q-18 34 -43.5 53t-51.5 19
q-54 0 -86 -57t-32 -175v-358q0 -44 11.5 -56.5t53.5 -12.5q4 0 4 -6t-4 -6q-19 0 -57 1t-56 1q-21 0 -57 -1t-50 -1q-3 0 -3 6t3 6q38 0 49 12.5t11 56.5v337q0 135 66 204t178 69q62 0 108 -21q53 56 152 56z" />
    <glyph glyph-name="longs_longs_b.liga" unicode="&#x17f;&#x17f;b" horiz-adv-x="1101" 
d="M903 399q69 0 117.5 -48.5t48.5 -137.5q0 -106 -64 -166t-149 -60q-81 0 -145 47l-90 -41q-3 -1 -5 1t-2 4.5t2 3.5q49 28 49 101v526q-39 79 -96 79q-48 0 -77 -65.5t-29 -203.5v-358q0 -44 15.5 -56.5t73.5 -12.5q3 0 3 -6t-3 -6q-24 0 -69.5 1t-67.5 1q-21 0 -57 -1
t-50 -1q-3 0 -3 6t3 6q38 0 49 12.5t11 56.5v337q0 106 27 174q-18 37 -44.5 58t-54.5 21q-54 0 -86 -57t-32 -175v-358q0 -44 11.5 -56.5t53.5 -12.5q4 0 4 -6t-4 -6q-19 0 -57 1t-56 1q-21 0 -57 -1t-50 -1q-3 0 -3 6t3 6q38 0 49 12.5t11 56.5v337q0 135 66 204t178 69
q68 0 114 -24q56 59 155 59q83 0 134 -40q17 22 17 45q0 3 6 3t6 -3v-398q72 66 144 66zM877 6q44 0 66.5 43.5t22.5 124.5q0 87 -29.5 129.5t-80.5 42.5q-47 0 -97 -34v-200q21 -53 52.5 -79.5t65.5 -26.5z" />
    <glyph glyph-name="longs_longs_h.liga" unicode="&#x17f;&#x17f;h" horiz-adv-x="1101" 
d="M1083 12q4 0 4 -6t-4 -6q-11 0 -45 1t-55 1t-55 -1t-46 -1q-2 0 -2 6t2 6q31 0 42.5 14.5t11.5 54.5v144q0 106 -82 106q-51 0 -93 -37v-213q0 -40 11.5 -54.5t41.5 -14.5q4 0 4 -6t-4 -6q-12 0 -46 1t-54 1q-21 0 -55 -1t-46 -1q-2 0 -2 6t2 6q31 0 42.5 14.5t11.5 54.5
v548q-39 79 -96 79q-48 0 -77 -65.5t-29 -203.5v-358q0 -44 15.5 -56.5t73.5 -12.5q3 0 3 -6t-3 -6q-24 0 -69.5 1t-67.5 1q-21 0 -57 -1t-50 -1q-3 0 -3 6t3 6q38 0 49 12.5t11 56.5v337q0 103 26 172q-18 37 -45 59t-55 22q-54 0 -86 -57t-32 -175v-358q0 -44 11.5 -56.5
t53.5 -12.5q4 0 4 -6t-4 -6q-19 0 -57 1t-56 1q-21 0 -57 -1t-50 -1q-3 0 -3 6t3 6q38 0 49 12.5t11 56.5v337q0 135 66 204t178 69q71 0 115 -25q56 60 156 60q83 0 134 -40q17 22 17 45q0 3 6 3t6 -3v-414q71 81 152 81q54 0 85.5 -34.5t31.5 -90.5v-192q0 -40 11.5 -54.5
t41.5 -14.5z" />
    <glyph glyph-name="longs_longs_i.liga" unicode="&#x17f;&#x17f;i" horiz-adv-x="841" 
d="M573 706q-49 0 -81.5 -66.5t-32.5 -200.5v-358q0 -44 15.5 -56.5t73.5 -12.5q3 0 3 -6t-3 -6q-24 0 -69.5 1t-67.5 1q-21 0 -57 -1t-50 -1q-3 0 -3 6t3 6q38 0 49 12.5t11 56.5v337q0 108 30 176q-18 36 -44.5 56.5t-53.5 20.5q-54 0 -86 -57t-32 -175v-358
q0 -44 11.5 -56.5t53.5 -12.5q4 0 4 -6t-4 -6q-19 0 -57 1t-56 1q-21 0 -57 -1t-50 -1q-3 0 -3 6t3 6q38 0 49 12.5t11 56.5v337q0 135 66 204t178 69q68 0 114 -24q59 59 163 59q64 0 102 -21t38 -56q0 -19 -12.5 -31t-36.5 -12q-22 0 -37.5 15.5t-23 34.5t-23 34.5
t-38.5 15.5zM806 12q4 0 4 -6t-4 -6q-12 0 -46 1t-54 1q-21 0 -55 -1t-46 -1q-3 0 -3 6t3 6q31 0 42.5 14.5t11.5 54.5v179q0 48 -14 59.5t-53 -6.5q-2 -1 -4.5 2t-3 6t0.5 4l151 70q5 3 12 -2.5t7 -10.5q0 -1 -1.5 -40t-1.5 -80v-181q0 -40 11.5 -54.5t42.5 -14.5z" />
    <glyph glyph-name="longs_longs_j.liga" unicode="&#x17f;&#x17f;j" horiz-adv-x="826" 
d="M548 12q3 0 3 -6t-3 -6q-24 0 -69.5 1t-67.5 1q-21 0 -57 -1t-50 -1q-3 0 -3 6t3 6q38 0 49 12.5t11 56.5v337q0 108 30 176q-18 36 -44.5 56.5t-53.5 20.5q-54 0 -86 -57t-32 -175v-358q0 -44 11.5 -56.5t53.5 -12.5q4 0 4 -6t-4 -6q-19 0 -57 1t-56 1q-21 0 -57 -1
t-50 -1q-3 0 -3 6t3 6q38 0 49 12.5t11 56.5v337q0 135 66 204t178 69q68 0 114 -24q59 59 163 59q64 0 102 -21t38 -56q0 -19 -12.5 -31t-36.5 -12q-22 0 -37.5 15.5t-23 34.5t-23 34.5t-38.5 15.5q-49 0 -81.5 -66.5t-32.5 -200.5v-358q0 -44 15.5 -56.5t73.5 -12.5z
M736 395q5 3 12 -2.5t7 -10.5q0 -1 -1.5 -40t-1.5 -80v-310q0 -100 -38.5 -151.5t-138.5 -82.5q-3 -1 -5.5 4.5t0.5 6.5q48 21 68.5 67.5t20.5 132.5v331q0 48 -14 59.5t-53 -6.5q-2 -1 -4.5 2t-3 6t0.5 4z" />
    <glyph glyph-name="longs_longs_k.liga" unicode="&#x17f;&#x17f;k" horiz-adv-x="1083" 
d="M1089 12q3 0 3 -6t-3 -6q-12 0 -46 1t-54 1q-30 0 -70 -1t-54 -1q-3 0 -3 6t3 6q26 0 33.5 12t-5.5 29l-114 146l-18 -16v-102q0 -40 11.5 -54.5t41.5 -14.5q4 0 4 -6t-4 -6q-12 0 -46 1t-54 1q-21 0 -55 -1t-46 -1q-2 0 -2 6t2 6q31 0 42.5 14.5t11.5 54.5v548
q-39 79 -96 79q-48 0 -77 -65.5t-29 -203.5v-358q0 -44 15.5 -56.5t73.5 -12.5q3 0 3 -6t-3 -6q-24 0 -69.5 1t-67.5 1q-21 0 -57 -1t-50 -1q-3 0 -3 6t3 6q38 0 49 12.5t11 56.5v337q0 103 26 172q-18 37 -45 59t-55 22q-54 0 -86 -57t-32 -175v-358q0 -44 11.5 -56.5
t53.5 -12.5q4 0 4 -6t-4 -6q-19 0 -57 1t-56 1q-21 0 -57 -1t-50 -1q-3 0 -3 6t3 6q38 0 49 12.5t11 56.5v337q0 135 66 204t178 69q71 0 115 -25q56 60 156 60q83 0 134 -40q17 22 17 45q0 3 6 3t6 -3v-525l92 89q29 26 26 52.5t-38 26.5q-2 0 -2 6t2 6q15 0 53 -1t71 -1
q31 0 66 1t47 1q2 0 2 -6t-2 -6q-43 0 -99 -22t-100 -62l-36 -33l138 -176q54 -69 108 -69z" />
    <glyph glyph-name="longs_longs_l.liga" unicode="&#x17f;&#x17f;l" horiz-adv-x="839" 
d="M814 12q4 0 4 -6t-4 -6q-12 0 -46 1t-54 1q-21 0 -55 -1t-46 -1q-2 0 -2 6t2 6q31 0 42.5 14.5t11.5 54.5v548q-39 79 -96 79q-48 0 -77 -65.5t-29 -203.5v-358q0 -44 15.5 -56.5t73.5 -12.5q3 0 3 -6t-3 -6q-24 0 -69.5 1t-67.5 1q-21 0 -57 -1t-50 -1q-3 0 -3 6t3 6
q38 0 49 12.5t11 56.5v337q0 103 26 172q-18 37 -45 59t-55 22q-54 0 -86 -57t-32 -175v-358q0 -44 11.5 -56.5t53.5 -12.5q4 0 4 -6t-4 -6q-19 0 -57 1t-56 1q-21 0 -57 -1t-50 -1q-3 0 -3 6t3 6q38 0 49 12.5t11 56.5v337q0 135 66 204t178 69q71 0 115 -25q56 60 156 60
q83 0 134 -40q17 22 17 45q0 3 6 3t6 -3v-650q0 -40 11.5 -54.5t41.5 -14.5z" />
    <glyph glyph-name="longs_longs_thorn.liga" unicode="&#x17f;&#x17f;&#xfe;" horiz-adv-x="1098" 
d="M846 -13q-48 0 -85 11v-192q0 -43 16.5 -56t72.5 -13q2 0 2 -6t-2 -6q-18 0 -64 1t-73 1q-21 0 -55.5 -1t-46.5 -1q-3 0 -3 6t3 6q35 0 45.5 13t10.5 56v823q-39 79 -96 79q-48 0 -77 -65.5t-29 -203.5v-358q0 -44 15.5 -56.5t73.5 -12.5q3 0 3 -6t-3 -6q-24 0 -69.5 1
t-67.5 1q-21 0 -57 -1t-50 -1q-3 0 -3 6t3 6q38 0 49 12.5t11 56.5v337q0 103 26 172q-18 37 -45 59t-55 22q-54 0 -86 -57t-32 -175v-358q0 -44 11.5 -56.5t53.5 -12.5q4 0 4 -6t-4 -6q-19 0 -57 1t-56 1q-21 0 -57 -1t-50 -1q-3 0 -3 6t3 6q38 0 49 12.5t11 56.5v337
q0 135 66 204t178 69q71 0 115 -25q56 60 156 60q83 0 134 -40q17 22 17 45q0 3 6 3t6 -3v-396q73 64 147 64q66 0 112.5 -50t46.5 -134q0 -61 -20.5 -107t-54 -71.5t-70.5 -37.5t-76 -12zM843 343q-45 0 -82 -32v-250q42 -49 104 -49q102 0 102 172q0 76 -35.5 117.5
t-88.5 41.5z" />
    <glyph glyph-name=".notdef" horiz-adv-x="501" 
d="M94 -275v1000h317v-1000h-317zM168 626h65v-38h-66v-32h166v32h-66v38h66v32h-165v-32zM167 426h166v34h-66v69h-100v-103zM200 460v35h33v-35h-33zM167 365h66v-36h-66v-34h100v70h66v33h-166v-33zM301 273h-134v-34h166v99h-32v-65zM233 160h34v24h34v-48h-101v80h-33
v-113h166v113h-100v-56zM167 -70h166v113h-166v-113zM200 -37v48h101v-48h-101zM167 -126h70l-70 -47v-33h166v33h-101l69 47h32v34h-166v-34z" />
    <glyph glyph-name=".null" horiz-adv-x="0" 
 />
    <glyph glyph-name="nonmarkingreturn" horiz-adv-x="333" 
 />
    <glyph glyph-name="space" unicode=" " horiz-adv-x="234" 
 />
    <glyph glyph-name="exclam" unicode="!" horiz-adv-x="263" 
d="M61 615q-2 7 21 10.5t49 3.5t49.5 -3.5t21.5 -10.5q-6 -20 -11 -42t-9.5 -48.5t-7.5 -45.5t-6.5 -51t-5.5 -47t-5 -51.5t-4 -46.5t-4 -49.5t-3 -44.5t-17 -5t-17 5q-18 305 -51 426zM125 -11q-28 0 -44.5 16.5t-16.5 44.5q0 26 16.5 42t44.5 16t43.5 -15.5t15.5 -42.5
q0 -29 -15.5 -45t-43.5 -16z" />
    <glyph glyph-name="quotedbl" unicode="&#x22;" horiz-adv-x="302" 
d="M57 365l-29 241q-1 16 52 29t56 0v-3l-63 -266q-1 -1 -5 -2.5t-7.5 -1t-3.5 2.5zM209 365l-29 241q-1 16 52 29t56 0v-3l-63 -266q-1 -1 -5 -2.5t-7.5 -1t-3.5 2.5z" />
    <glyph glyph-name="numbersign" unicode="#" horiz-adv-x="526" 
d="M463 320q5 0 5 -23.5t-5 -23.5h-63l-27 -151h55q4 0 4 -24t-4 -24h-63l-28 -157q0 -7 -37 2q-13 4 -13 6l26 149h-135l-28 -157q-2 -3 -13.5 -2t-25 4.5t-12.5 5.5l26 149h-62q-3 0 -4 12t0 24t3 12h72l27 151h-63q-3 0 -4 11.5t0 23.5t3 12h72l29 162q0 2 5 2t12.5 -1.5
t15 -3.5t12.5 -4t5 -4l-27 -151h135l29 162q0 2 5 2t12.5 -1.5t15 -3.5t12.5 -4t5 -4l-27 -151h55zM322 122l26 151h-135l-27 -151h136z" />
    <glyph glyph-name="dollar" unicode="$" horiz-adv-x="422" 
d="M391 131q0 -56 -44 -96t-113 -46v-91q0 -7 -14.5 -7t-14.5 7v90q-44 1 -86 12t-58 25q-8 5 -8 21l-5 113q0 4 5 5t7 -3q22 -38 38.5 -62.5t46.5 -52t60 -33.5v190l-30 16q-29 15 -45.5 25.5t-36.5 27.5t-29.5 37t-9.5 44q0 53 43 86.5t108 39.5v82q0 7 14.5 7t14.5 -7
v-81q68 -2 117 -23q15 -5 15 -20v-95q0 -3 -5 -4.5t-7 1.5q-48 101 -120 116v-168l24 -12q34 -18 50 -27.5t39.5 -28t33.5 -40t10 -48.5zM137 392q0 -52 68 -90v155q-68 -3 -68 -65zM234 11q29 2 48.5 21t19.5 53q0 55 -68 100v-174z" />
    <glyph glyph-name="percent" unicode="%" horiz-adv-x="574" 
d="M150 303q-57 0 -94.5 37.5t-37.5 92.5q0 53 37.5 90t94.5 37t93.5 -37.5t36.5 -92.5q0 -54 -37 -90.5t-93 -36.5zM110 -8q-1 -2 -9 2.5t-15 10.5t-6 8l370 544q3 3 18 -8.5t13 -13.5zM157 319q25 0 33 26.5t8 77.5q0 121 -54 121q-45 0 -45 -108q0 -117 58 -117zM427 -5
q-57 0 -94.5 37.5t-37.5 92.5q0 53 37.5 90.5t94.5 37.5t93.5 -38t36.5 -92q0 -55 -36.5 -91.5t-93.5 -36.5zM434 12q25 0 33 26t8 78q0 120 -54 120q-44 0 -44 -107q0 -117 57 -117z" />
    <glyph glyph-name="ampersand" unicode="&#x26;" 
d="M725 12q2 0 3 -3t0 -6t-3 -3h-164q-28 0 -96 49q-75 -61 -191 -61q-102 0 -155.5 42t-53.5 101q0 26 10 49.5t32 46.5t40 38t51 40q-16 21 -31 48q-29 56 -29 108q0 81 51.5 133t140.5 52q62 0 98 -26.5t36 -73.5q0 -28 -11.5 -53t-37 -49t-44.5 -38t-56 -39
q-10 -7 -15 -10q72 -107 201 -210q9 34 9 79q0 58 -19 84.5t-62 26.5q-2 0 -2.5 6t2.5 6l238 1q3 0 3 -6t-3 -6q-42 0 -56 -14.5t-27 -61.5q-25 -88 -54 -137q126 -95 195 -113zM232 547q0 -78 55 -169q71 69 71 147q0 44 -20.5 69t-53.5 25q-52 0 -52 -72zM351 37
q58 0 96 26q-16 11 -43 33q-116 92 -193 191q-45 -47 -45 -99q0 -60 51 -105.5t134 -45.5z" />
    <glyph glyph-name="quotesingle" unicode="'" horiz-adv-x="150" 
d="M57 365l-29 241q-1 16 52 29t56 0v-3l-63 -266q-1 -1 -5 -2.5t-7.5 -1t-3.5 2.5z" />
    <glyph glyph-name="parenleft" unicode="(" horiz-adv-x="309" 
d="M44 304q0 142 60.5 255t169.5 166q2 1 4 -1.5t0 -4.5q-122 -136 -122 -415t122 -415q2 -1 0 -4t-4 -2q-109 54 -169.5 166.5t-60.5 254.5z" />
    <glyph glyph-name="parenright" unicode=")" horiz-adv-x="309" 
d="M265 304q0 -142 -60.5 -255t-169.5 -166q-2 -1 -4 1.5t0 4.5q122 136 122 415t-122 415q-2 1 0 4t4 2q109 -54 169.5 -166.5t60.5 -254.5z" />
    <glyph glyph-name="asterisk" unicode="*" horiz-adv-x="448" 
d="M226 529l-26 128q-2 9 29 18.5t57.5 12t28.5 -2.5l-79 -156q-1 -3 -5.5 -3t-4.5 3zM204 511l-131 15q-16 2 -5 76q8 44 14 42l125 -124q2 -4 -3 -9zM425 477l-175 27q-2 0 -3.5 4t1.5 5l113 65q9 4 27 -21.5t30.5 -53t6.5 -26.5zM160 366q-7 -14 -74 20q-39 20 -36 25
l156 80q2 2 6 -0.5t3 -5.5zM261 309l-29 172q-1 2 3 5.5t6 1.5l96 -89q7 -6 -12 -31.5t-41 -45t-23 -13.5z" />
    <glyph glyph-name="plus" unicode="+" horiz-adv-x="398" 
d="M364 214q4 0 4 -24.5t-4 -24.5h-141v-140q0 -3 -12.5 -4t-24.5 -0.5t-12 2.5v142h-140q-3 0 -4 12.5t0 24.5t3 12h141v140q0 4 24.5 4t24.5 -4v-140h141z" />
    <glyph glyph-name="comma" unicode="," horiz-adv-x="222" 
d="M101 106q74 0 74 -97q0 -100 -100 -198q-4 -3 -7 0t-1 7q48 58 48 138q0 21 -4 39q-9 -3 -20 -3q-26 0 -40.5 15t-14.5 41q0 27 17.5 42.5t47.5 15.5z" />
    <glyph glyph-name="hyphen" unicode="-" horiz-adv-x="323" 
d="M32 154q-3 0 -4 13t-0.5 27t2.5 14l261 47q3 0 4 -13t0 -27t-4 -14z" />
    <glyph glyph-name="period" unicode="." horiz-adv-x="207" 
d="M105 -11q-28 0 -44.5 16.5t-16.5 44.5q0 26 16.5 42t44.5 16t43.5 -15.5t15.5 -42.5q0 -29 -15.5 -45t-43.5 -16z" />
    <glyph glyph-name="slash" unicode="/" horiz-adv-x="351" 
d="M74 -165q-2 -4 -25.5 2.5t-22.5 10.5l252 882q2 4 25 -2.5t22 -11.5z" />
    <glyph glyph-name="zero" unicode="0" horiz-adv-x="477" 
d="M240 -13q-93 0 -153.5 59t-60.5 149t60 147t154 57q93 0 152 -58t59 -148t-59 -148t-152 -58zM250 8q93 0 93 171q0 101 -31.5 150t-79.5 49q-47 0 -73 -46.5t-26 -125.5q0 -89 32 -143.5t85 -54.5z" />
    <glyph glyph-name="one" unicode="1" horiz-adv-x="332" 
d="M41 0q-3 0 -3 6t3 6q56 0 73 13t17 56v176q0 50 -17.5 57.5t-76.5 -17.5q-2 -1 -4 1.5t-2 5.5t2 5l182 86q3 2 6.5 -1t3.5 -6v-307q0 -44 15.5 -56.5t71.5 -12.5q3 0 3 -6t-3 -6q-17 0 -62 1t-73 1t-73.5 -1t-62.5 -1z" />
    <glyph glyph-name="two" unicode="2" horiz-adv-x="402" 
d="M37 27q125 115 162.5 160.5t37.5 88.5q0 37 -19 64.5t-54 27.5q-37 0 -60.5 -32.5t-47.5 -100.5q0 -1 -3.5 -1.5t-6 1t-2.5 2.5l44 171q1 4 9 1q3 -1 2 -3q-6 -29 14 -29q7 0 42 11t67 11q55 0 86 -26t31 -69q0 -27 -12 -53t-37 -50.5t-45 -41t-53 -40t-45 -32.5
q-7 -7 5 -7q116 0 160.5 8.5t54.5 41.5q0 2 3 2.5t6 -0.5t3 -2l-21 -119q0 -11 -9 -11h-306q-5 0 -8 11t2 16z" />
    <glyph glyph-name="three" unicode="3" horiz-adv-x="394" 
d="M222 131q70 -11 105.5 -51t35.5 -92q0 -73 -78.5 -145.5t-230.5 -117.5q-4 -1 -6.5 4t1.5 7q109 44 157 109.5t48 129.5q0 59 -30 94.5t-81 35.5q-20 0 -41 -6q-2 0 -4 2.5t-2 5.5t2 4q70 18 102 54.5t32 102.5q0 103 -59 103q-87 0 -133 -113q0 -1 -3.5 -1.5t-6 1
t-2.5 3.5l37 146q1 2 4 2t5.5 -1.5t2.5 -2.5q-7 -28 15 -28q8 0 45.5 11t68.5 11q60 0 93.5 -33.5t33.5 -80.5q0 -48 -29.5 -90.5t-81.5 -63.5z" />
    <glyph glyph-name="four" unicode="4" horiz-adv-x="456" 
d="M420 48q3 0 3.5 -12t-1.5 -23.5t-4 -11.5l-66 3v-139q0 -10 -8 -14l-79 -39q-9 -5 -9 6v189q-60 1 -222 1q-5 0 -7.5 4t0.5 8l310 376q2 3 8.5 1.5t6.5 -5.5v-346q20 0 68 2zM94 42q116 0 162 1v202l-167 -196q-6 -7 5 -7z" />
    <glyph glyph-name="five" unicode="5" horiz-adv-x="409" 
d="M89 196q140 -2 205.5 -51.5t65.5 -135.5q0 -84 -67.5 -148.5t-224.5 -135.5q-4 -2 -7 3.5t1 7.5q108 61 151.5 123t43.5 133q0 83 -49 129t-140 46q-12 0 -10 12l32 178q1 7 3 8.5t10 2.5q172 20 203.5 27.5t38.5 27.5q0 2 3 2.5t5.5 -1t2.5 -3.5l-20 -111
q-4 -18 -28 -18l-190 -4q-13 0 -15 -14z" />
    <glyph glyph-name="six" unicode="6" horiz-adv-x="465" 
d="M309 288q65 0 98 -38.5t33 -90.5q0 -71 -61.5 -121.5t-148.5 -50.5q-89 0 -141 58.5t-52 161.5q0 144 98.5 271t264.5 183q4 1 6 -4t-1 -7q-128 -64 -197 -182.5t-69 -246.5q0 -89 32.5 -149.5t85.5 -60.5q37 0 59 31.5t22 87.5q0 53 -21 84.5t-62 31.5q-31 0 -71 -28
q-3 -3 -8 0.5t-3 6.5q58 63 136 63z" />
    <glyph glyph-name="seven" unicode="7" horiz-adv-x="429" 
d="M177 -212q-7 -18 -21 -24l-82 -39q-3 -1 -5.5 2t-1.5 5l260 559q4 7 -4 7q-73 0 -114.5 -0.5t-78 -3.5t-52 -6.5t-28 -12.5t-16.5 -18t-9 -27q-2 -3 -7.5 -2t-4.5 5l45 180q4 3 12 -1q-4 -17 4.5 -21.5t42.5 -4.5h265q4 0 7.5 -4.5t1.5 -8.5z" />
    <glyph glyph-name="eight" unicode="8" horiz-adv-x="489" 
d="M317 345q35 -22 54 -35.5t44 -36.5t36.5 -50t11.5 -59q0 -77 -65 -127t-157 -50q-91 0 -147.5 48.5t-56.5 117.5q0 53 34 100t93 77q-66 54 -66 118q0 62 49 94t110 32q67 0 108.5 -32.5t41.5 -71.5q0 -32 -25.5 -66t-70.5 -55zM247 553q-28 0 -44.5 -18.5t-16.5 -46.5
q0 -27 17.5 -52t37.5 -40.5t57 -39.5q24 59 24 97q0 44 -22 72t-53 28zM268 9q47 0 75 34t28 81q0 13 -2 25t-8.5 23t-10.5 19t-15.5 18.5t-16.5 16t-21 16t-21 14t-23.5 15t-22.5 13.5q-21 13 -44 29q-46 -54 -46 -133q0 -70 36.5 -120.5t91.5 -50.5z" />
    <glyph glyph-name="nine" unicode="9" horiz-adv-x="465" 
d="M164 104q-69 0 -103.5 42.5t-34.5 96.5q0 69 52 112.5t136 43.5q99 0 156.5 -61t57.5 -166q0 -90 -41.5 -178.5t-125.5 -161.5t-196 -107q-3 -1 -5.5 4t1.5 7q126 58 195.5 177.5t69.5 240.5q0 51 -11 99.5t-41 86.5t-74 38q-73 0 -73 -110q0 -58 21 -91.5t63 -33.5
q33 0 71 31q2 2 4.5 1t4.5 -3.5t1 -4.5q-48 -63 -128 -63z" />
    <glyph glyph-name="colon" unicode=":" horiz-adv-x="207" 
d="M105 270q-28 0 -44.5 16.5t-16.5 44.5q0 26 16.5 42t44.5 16t43.5 -15.5t15.5 -42.5q0 -29 -15.5 -45t-43.5 -16zM105 -11q-28 0 -44.5 16.5t-16.5 44.5q0 26 16.5 42t44.5 16t43.5 -15.5t15.5 -42.5q0 -29 -15.5 -45t-43.5 -16z" />
    <glyph glyph-name="semicolon" unicode=";" horiz-adv-x="232" 
d="M107 270q-28 0 -44.5 16.5t-16.5 44.5q0 26 16.5 42t44.5 16t43.5 -15.5t15.5 -42.5q0 -29 -15.5 -45t-43.5 -16zM110 106q74 0 74 -97q0 -100 -100 -198q-4 -3 -7 0t-1 7q48 58 48 138q0 21 -4 39q-9 -3 -20 -3q-26 0 -40.5 15t-14.5 41q0 27 17.5 42.5t47.5 15.5z" />
    <glyph glyph-name="less" unicode="&#x3c;" horiz-adv-x="407" 
d="M370 74q9 -5 6 -36q-2 -14 -6 -13l-334 148q-5 3 -5 17.5t5 16.5l334 147q4 2 6 -8q4 -25 -4 -38l-2 -2l-272 -116z" />
    <glyph glyph-name="equal" unicode="=" horiz-adv-x="468" 
d="M34 236q-3 0 -4 12t0 23.5t3 11.5h401q4 0 4 -23.5t-4 -23.5h-400zM34 96q-3 0 -4 12t0 23.5t3 11.5h401q4 0 4 -23.5t-4 -23.5h-400z" />
    <glyph glyph-name="greater" unicode="&#x3e;" horiz-adv-x="407" 
d="M371 206q5 -3 5 -17.5t-5 -16.5l-334 -147q-4 -2 -6 8q-4 25 4 38l2 2l272 116l-272 116q-9 5 -6 36q2 14 6 13z" />
    <glyph glyph-name="question" unicode="?" horiz-adv-x="339" 
d="M165 606q-24 0 -28 -41q-6 -69 -57 -69q-26 0 -38 14t-12 33q0 35 38.5 58.5t96.5 23.5q65 0 109.5 -31t44.5 -88q0 -20 -5 -36.5t-17.5 -31t-21 -23t-27.5 -23.5t-26 -21q-59 -52 -59 -123q0 -15 5 -53q1 -2 -3 -4t-7.5 -2t-5.5 2q-26 60 -26 121q0 31 13 56t28 40.5
t28 44t13 66.5t-11.5 62.5t-31.5 24.5zM153 -11q-28 0 -44.5 16.5t-16.5 44.5q0 26 16.5 42t44.5 16t43.5 -15.5t15.5 -42.5q0 -29 -15.5 -45t-43.5 -16z" />
    <glyph glyph-name="at" unicode="@" horiz-adv-x="729" 
d="M467 56q-83 0 -61 91l2 7q-74 -100 -145 -100q-29 0 -45.5 21t-10.5 68q12 81 79.5 149t131.5 68q34 0 50 -24q28 11 34 31q2 2 9.5 1.5t7.5 -2.5l-41 -224q-11 -60 35 -60q38 0 73 41t35 113q0 102 -71 173t-178 71q-114 0 -180 -80.5t-66 -198.5q0 -124 75 -198
t200 -74q93 0 167 51q4 2 7 -4q1 -3 -1 -4q-91 -78 -209 -78q-130 0 -215.5 75.5t-85.5 205.5q0 143 102 235.5t241 92.5q120 0 194.5 -69t74.5 -166q0 -88 -61 -150t-148 -62zM313 118q29 0 67.5 51t49.5 106q4 27 -2 45t-22 17q-35 -1 -66.5 -44t-43.5 -99
q-8 -26 -4.5 -51t21.5 -25z" />
    <glyph glyph-name="A" unicode="A" 
d="M717 12q5 0 5 -6t-5 -6q-20 0 -62.5 2t-62.5 2q-24 0 -59.5 -2t-55.5 -2q-5 0 -5 6t5 6q41 0 47.5 16.5t-18.5 65.5l-104 205h-178l-71 -157q-25 -60 -1 -95t82 -35q4 0 4 -6t-4 -6q-19 0 -55 2t-63 2t-62.5 -2t-57.5 -2q-4 0 -4 6t4 6q40 0 66 27.5t64 112.5l217 477
q1 3 8.5 3.5t9.5 -3.5l250 -492q35 -71 58 -98t48 -27zM237 327h151l-80 158z" />
    <glyph glyph-name="B" unicode="B" horiz-adv-x="595" 
d="M360 351q84 -10 133.5 -56t49.5 -114q0 -79 -66 -132t-165 -53q-17 0 -68.5 3t-75.5 3q-26 0 -68.5 -1t-58.5 -1q-3 0 -3 6t3 6q43 0 57.5 13t14.5 56v463q0 42 -14 55.5t-57 13.5q-2 0 -2 6t2 6q16 0 58 -1.5t68 -1.5q18 0 59.5 3t63.5 3q91 0 141 -33t50 -96
q0 -48 -31.5 -87t-90.5 -61zM276 606q-29 0 -40 -13.5t-11 -50.5v-190q23 -1 40 -1q52 0 80 39t28 100q0 57 -25 86.5t-72 29.5zM295 21q131 0 131 136q0 77 -37 122t-112 45q-29 0 -52 -2v-241q0 -33 13 -46.5t57 -13.5z" />
    <glyph glyph-name="C" unicode="C" horiz-adv-x="669" 
d="M421 636q107 0 167 -27q13 -4 16 -23l12 -139q0 -3 -5 -4t-6 3q-34 79 -91 122t-132 43q-99 0 -153 -73t-54 -196q0 -140 65.5 -236.5t168.5 -96.5q127 0 205 172q2 4 7 3t5 -4l-15 -136q-2 -12 -4.5 -15.5t-11.5 -7.5q-89 -33 -183 -33q-75 0 -137 19.5t-103 52
t-69.5 75.5t-41 88t-12.5 92q0 142 110.5 231.5t261.5 89.5z" />
    <glyph glyph-name="D" unicode="D" horiz-adv-x="705" 
d="M326 -4q-20 0 -80 3t-88 3q-26 0 -69 -1t-59 -1q-2 0 -2 6t2 6q46 0 59.5 13t13.5 56v463q0 43 -13 56t-58 13q-3 0 -3 6t3 6q16 0 58 -1.5t68 -1.5t80 2.5t74 2.5q153 0 248.5 -86.5t95.5 -217.5q0 -146 -96 -236.5t-234 -90.5zM316 19q97 0 157 74t60 208
q0 130 -58 217t-153 87q-62 0 -85 -12t-23 -51v-450q0 -40 21 -56.5t81 -16.5z" />
    <glyph glyph-name="E" unicode="E" horiz-adv-x="552" 
d="M496 159q1 3 6.5 1.5t5.5 -3.5q-10 -78 -10 -142q0 -15 -15 -15h-442q-3 0 -3 6t3 6q45 0 58 12.5t13 56.5v463q0 43 -13 56t-58 13q-3 0 -3 6t3 6h424q10 0 10 -9l2 -133q0 -2 -5.5 -3t-6.5 2q-32 114 -154 114h-30q-58 0 -58 -53v-204h83q58 0 89 20t31 56q0 3 5.5 3
t5.5 -3q0 -24 -0.5 -51.5t-0.5 -38.5q0 -17 1.5 -50t1.5 -52q0 -2 -6 -2t-6 2q0 41 -31.5 64.5t-90.5 23.5h-82v-226q0 -57 46 -57h33q152 0 194 131z" />
    <glyph glyph-name="F" unicode="F" horiz-adv-x="522" 
d="M475 616l2 -133q0 -2 -5.5 -3t-6.5 2q-32 114 -154 114h-30q-58 0 -58 -53v-216h72q58 0 88.5 20.5t30.5 56.5q0 2 6 2t6 -2q0 -25 -0.5 -52.5t-0.5 -38.5q0 -16 1 -49t1 -52q0 -3 -6 -3t-6 3q0 40 -31.5 63.5t-89.5 23.5h-71v-214q0 -45 19.5 -59t87.5 -14q2 0 2 -6
t-2 -6q-19 0 -73 1t-93 1q-26 0 -70 -1t-60 -1q-3 0 -3 6t3 6q50 0 64 12.5t14 56.5v463q0 43 -13 56t-58 13q-3 0 -3 6t3 6h424q10 0 10 -9z" />
    <glyph glyph-name="G" unicode="G" horiz-adv-x="719" 
d="M409 -12q-166 0 -263 90.5t-97 227.5q0 146 107.5 238t271.5 92q108 0 172 -27q14 -5 15 -23l13 -139q0 -3 -5 -4t-7 3q-35 77 -96.5 120t-140.5 43q-102 0 -155.5 -71t-53.5 -194q0 -150 74.5 -244.5t189.5 -94.5q60 0 82.5 23.5t22.5 97.5q0 73 -15.5 90t-83.5 17
q-4 0 -5.5 4t0 8t4.5 4q121 -8 243 -2q5 0 5 -7t-5 -7q-25 1 -30.5 -17.5t-5.5 -99.5q0 -40 3.5 -63t3.5 -25q0 -8 -12 -12q-129 -28 -232 -28z" />
    <glyph glyph-name="H" unicode="H" horiz-adv-x="764" 
d="M732 12q3 0 3 -6t-3 -6q-16 0 -61.5 1t-71.5 1q-35 0 -80 -1t-59 -1q-3 0 -3 6t3 6q54 0 68.5 12.5t14.5 56.5v230h-323v-230q0 -44 15 -56.5t68 -12.5q2 0 2 -6t-2 -6q-17 0 -63.5 1t-79.5 1q-26 0 -70 -1t-60 -1q-2 0 -2 6t2 6q50 0 64.5 12.5t14.5 56.5v463
q0 43 -14.5 56t-62.5 13q-3 0 -3 6t3 6q16 0 59 -1.5t69 -1.5q33 0 80 1.5t63 1.5q2 0 2 -6t-2 -6q-52 0 -67.5 -14t-15.5 -57v-203h323v203q0 44 -15 57.5t-68 13.5q-3 0 -3 6t3 6q14 0 59 -1.5t80 -1.5q26 0 71.5 1.5t61.5 1.5q3 0 3 -6t-3 -6q-50 0 -64 -13t-14 -56v-463
q0 -44 14 -56.5t64 -12.5z" />
    <glyph glyph-name="I" unicode="I" horiz-adv-x="342" 
d="M227 81q0 -44 12.5 -56.5t58.5 -12.5q3 0 3 -6t-3 -6q-16 0 -58.5 1t-69.5 1q-26 0 -69 -1t-59 -1q-2 0 -2 6t2 6q46 0 59.5 13t13.5 56v463q0 43 -13.5 56t-59.5 13q-2 0 -2 6t2 6q16 0 59 -1.5t69 -1.5q28 0 70.5 1.5t57.5 1.5q3 0 3 -6t-3 -6q-45 0 -58 -13.5
t-13 -57.5v-461z" />
    <glyph glyph-name="J" unicode="J" horiz-adv-x="339" 
d="M298 625q3 0 3 -6t-3 -6q-37 0 -48 -13.5t-11 -57.5v-546q0 -112 -55.5 -175t-154.5 -63q-38 0 -62 16t-24 44q0 20 13 35.5t39 15.5q22 0 37 -14t20.5 -31t14 -31t18.5 -14q41 0 41 147v618q0 43 -15.5 56t-68.5 13q-2 0 -2 6t2 6q19 0 65.5 -1.5t73.5 -1.5
q26 0 64.5 1.5t52.5 1.5z" />
    <glyph glyph-name="K" unicode="K" horiz-adv-x="655" 
d="M664 12q3 0 3 -6t-3 -6h-112q-12 0 -29 -1q-26 -2 -38 4t-31 28t-68 88q-12 17 -19 26l-131 176l-22 -22v-218q0 -44 12.5 -56.5t58.5 -12.5q4 0 4 -6t-4 -6q-16 0 -58 1t-69 1q-26 0 -69 -1t-59 -1q-2 0 -2 6t2 6q46 0 59.5 13t13.5 56v463q0 43 -13 56t-58 13
q-3 0 -3 6t3 6q16 0 58 -1.5t68 -1.5q27 0 69.5 1.5t57.5 1.5q3 0 3 -6t-3 -6q-44 0 -57.5 -14t-13.5 -57v-212l188 192q37 37 27.5 64t-59.5 27q-3 0 -3 6t3 6q15 0 55 -1.5t74 -1.5q36 0 76 1.5t54 1.5q3 0 3 -6t-3 -6q-46 0 -101 -26.5t-100 -70.5l-113 -115l148 -200
q50 -71 78 -108t51 -55.5t35.5 -22t36.5 -3.5z" />
    <glyph glyph-name="L" unicode="L" horiz-adv-x="545" 
d="M213 543v-458q0 -37 10 -47t47 -10h34q78 0 135 41.5t76 112.5q1 3 6 2t5 -4q-9 -99 -9 -165q0 -15 -15 -15h-472q-2 0 -2 6t2 6q46 0 59 12.5t13 56.5v463q0 43 -13.5 56t-58.5 13q-2 0 -2 6t2 6q14 0 57.5 -1.5t69.5 -1.5q27 0 69.5 1.5t57.5 1.5q3 0 3 -6t-3 -6
q-45 0 -58 -13.5t-13 -56.5z" />
    <glyph glyph-name="M" unicode="M" horiz-adv-x="857" 
d="M833 12q2 0 2 -6t-2 -6q-16 0 -59 1t-69 1q-27 0 -69 -1t-58 -1q-3 0 -3 6t3 6q47 0 60.5 13t10.5 56l-21 409l-206 -483q-2 -4 -8 -4t-8 4l-253 481l-8 -361q-1 -54 21.5 -84.5t63.5 -30.5q3 0 3 -6t-3 -6q-13 0 -45 1t-52 1q-23 0 -58 -1t-48 -1q-3 0 -3 6t3 6
q41 0 65 31t25 84l9 414l-1 1q-38 71 -91 71q-3 0 -3 6t3 6q15 0 44 -1t39 -1q19 0 45 1t31 1q13 0 20 -9t26 -43l218 -409l190 436q11 25 30 25q6 0 21 -1t26 -1q23 0 54.5 1t44.5 1q3 0 3 -6t-3 -6q-47 0 -68 -19t-19 -59l24 -454q3 -44 15.5 -56.5t57.5 -12.5z" />
    <glyph glyph-name="N" unicode="N" horiz-adv-x="735" 
d="M723 625q2 0 2 -6t-2 -6q-40 0 -63 -31.5t-23 -84.5v-512q0 -3 -4.5 -4t-6.5 1l-469 534v-389q0 -53 22 -84t61 -31q2 0 2 -6t-2 -6q-14 0 -46 1t-51 1q-21 0 -58.5 -1t-52.5 -1q-3 0 -3 6t3 6q44 0 69.5 31t25.5 84v423q-58 63 -105 63q-2 0 -2 6t2 6q13 0 40.5 -1
t39.5 -1q27 0 65 1t45 1q8 0 12.5 -3.5t15.5 -19.5t22 -29l346 -399v323q0 54 -22 85t-61 31q-2 0 -2 6t2 6q13 0 45 -1.5t52 -1.5q19 0 53 1.5t48 1.5z" />
    <glyph glyph-name="O" unicode="O" horiz-adv-x="766" 
d="M366 -12q-141 0 -229 94t-88 230q0 78 32 141.5t83.5 102.5t112.5 59.5t124 20.5q142 0 229 -95t87 -222q0 -138 -103.5 -234.5t-247.5 -96.5zM399 13q86 0 140.5 73.5t54.5 203.5q0 140 -63 229.5t-170 89.5q-91 0 -140 -68.5t-49 -191.5q0 -147 64 -241.5t163 -94.5z
" />
    <glyph glyph-name="P" unicode="P" horiz-adv-x="553" 
d="M216 85q0 -46 17.5 -59.5t78.5 -13.5q3 0 3 -6t-3 -6q-20 0 -69.5 1t-81.5 1q-26 0 -68.5 -1t-58.5 -1q-3 0 -3 6t3 6q45 0 58 12.5t13 56.5v463q0 43 -13 56t-58 13q-3 0 -3 6t3 6q16 0 58 -1.5t68 -1.5q14 0 63 3t73 3q100 0 158 -40t62 -124q4 -96 -63.5 -149
t-154.5 -53q-27 0 -47 5q-1 0 -1.5 2.5t0 5t1.5 4t3 1.5q15 -4 34 -4q46 0 76.5 43t30.5 122t-33.5 122t-97.5 43q-28 0 -38 -13t-10 -51v-457z" />
    <glyph glyph-name="Q" unicode="Q" horiz-adv-x="766" 
d="M745 -179q2 0 3.5 -2t1.5 -4.5t-1 -3.5q-41 -12 -81 -12q-77 0 -159 50t-141 139h-2q-141 0 -229 94t-88 230q0 78 32 141.5t83.5 102.5t112.5 59.5t124 20.5q142 0 229 -95t87 -222q0 -105 -62.5 -189t-162.5 -120q39 -84 100.5 -137.5t117.5 -53.5q17 0 35 2zM172 349
q0 -147 64 -241.5t163 -94.5q86 0 140.5 73.5t54.5 203.5q0 140 -63 229.5t-170 89.5q-91 0 -140 -68.5t-49 -191.5z" />
    <glyph glyph-name="R" unicode="R" horiz-adv-x="698" 
d="M708 12q2 0 2 -6t-2 -6h-178q-47 0 -227 313q-8 -1 -23 -1q-39 0 -55 1v-232q0 -44 12.5 -56.5t58.5 -12.5q2 0 2 -6t-2 -6q-16 0 -58 1t-70 1q-26 0 -68.5 -1t-58.5 -1q-3 0 -3 6t3 6q46 0 59 12.5t13 56.5v463q0 43 -13 56t-58 13q-2 0 -2 6t2 6q16 0 58 -1.5t68 -1.5
q20 0 66 3t68 3q92 0 142.5 -33.5t50.5 -93.5q0 -46 -28 -88t-73 -68q118 -186 186.5 -259.5t127.5 -73.5zM225 342q24 -4 58 -4q54 0 75.5 26.5t21.5 98.5q0 82 -24 113t-69 31q-34 0 -48 -15t-14 -50v-200z" />
    <glyph glyph-name="S" unicode="S" horiz-adv-x="515" 
d="M174 524q0 -27 10 -50t33.5 -44.5t41 -34.5t52.5 -35q37 -24 57 -38.5t46 -39.5t37.5 -53.5t11.5 -62.5q0 -79 -61.5 -128.5t-154.5 -49.5q-45 0 -94 12.5t-66 27.5q-10 7 -10 19l-3 159q-1 4 4 5t7 -3q18 -37 26.5 -54t29 -49.5t37.5 -48.5t42.5 -29.5t52.5 -13.5
q92 0 92 95q0 34 -11 61.5t-36 52t-42.5 37.5t-54.5 37q-29 19 -42.5 28t-36 28.5t-33 35t-19 38.5t-8.5 49q0 78 63 119.5t147 41.5q78 0 129 -22q15 -7 15 -20v-147q0 -3 -5 -4.5t-6 1.5q-1 2 -11.5 29t-21.5 46t-28.5 43.5t-43 38t-55.5 13.5q-40 0 -65.5 -23t-25.5 -67z
" />
    <glyph glyph-name="T" unicode="T" horiz-adv-x="643" 
d="M222 602q-119 0 -171 -155q-1 -3 -6 -2.5t-5 3.5q14 130 14 199q0 5 5.5 5t5.5 -5q0 -22 57 -22q86 -3 201 -3q52 0 112 1.5t81 1.5q38 0 55.5 5t22.5 20q1 4 6.5 4t5.5 -4q-10 -88 -10 -202q0 -3 -5 -3t-6 3q-15 77 -56 115.5t-101 38.5q-29 0 -38.5 -12.5t-9.5 -47.5
v-461q0 -44 14.5 -56.5t68.5 -12.5q3 0 3 -6t-3 -6q-17 0 -63.5 1t-76.5 1q-28 0 -75 -1t-64 -1q-3 0 -3 6t3 6q53 0 68.5 13t15.5 56v463q0 34 -9 46t-37 12z" />
    <glyph glyph-name="U" unicode="U" horiz-adv-x="703" 
d="M571 497q0 54 -24.5 85t-68.5 31q-2 0 -2 6t2 6q15 0 51 -1.5t58 -1.5q19 0 53 1.5t48 1.5q2 0 2 -6t-2 -6q-39 0 -61 -31t-22 -85v-278q0 -106 -68.5 -169.5t-180.5 -63.5q-113 0 -183 63t-70 172v323q0 43 -13 56t-58 13q-3 0 -3 6t3 6q16 0 58 -1.5t68 -1.5
q27 0 69.5 1.5t57.5 1.5q3 0 3 -6t-3 -6q-44 0 -57.5 -14t-13.5 -57v-286q0 -233 180 -233q83 0 130 50.5t47 144.5v279z" />
    <glyph glyph-name="V" unicode="V" horiz-adv-x="660" 
d="M665 625q3 0 3 -6t-3 -6q-36 0 -69 -32t-53 -86l-185 -494q-2 -4 -11 -4t-11 4l-255 541q-35 71 -76 71q-3 0 -3 6t3 6q8 0 26.5 -1.5t46.5 -1.5q65 0 122.5 1.5t63.5 1.5q3 0 3 -6t-3 -6q-43 0 -57 -24.5t5 -64.5l173 -369l130 343q19 49 2.5 82t-64.5 33q-3 0 -3 6t3 6
q17 0 55 -1.5t69 -1.5q19 0 45.5 1.5t42.5 1.5z" />
    <glyph glyph-name="W" unicode="W" horiz-adv-x="911" 
d="M917 625q2 0 2 -6t-2 -6q-37 0 -69.5 -31.5t-53.5 -86.5l-185 -494q-1 -4 -11 -4t-11 4l-128 271l-101 -271q-2 -4 -11 -4t-11 4l-255 541q-22 45 -35 58t-41 13q-3 0 -3 6t3 6q8 0 26.5 -1.5t46.5 -1.5q52 0 95.5 1.5t49.5 1.5q3 0 3 -6t-3 -6q-41 0 -45 -16.5t22 -72.5
l180 -382l63 165l-111 235q-34 71 -64 71q-3 0 -3 6t3 6q7 0 22.5 -1.5t39.5 -1.5q44 0 80.5 1.5t40.5 1.5q3 0 3 -6t-3 -6q-14 0 -20.5 -3t-6 -14t6.5 -27t20 -45l44 -93l25 67q44 115 -3 115q-3 0 -3 6t3 6q5 0 17.5 -1.5t47.5 -1.5q17 0 40 1.5t38 1.5q2 0 2 -6t-2 -6
q-67 0 -111 -118l-37 -99l120 -253l129 345q20 54 6.5 89.5t-51.5 35.5q-3 0 -3 6t3 6q16 0 50.5 -1.5t61.5 -1.5q19 0 45.5 1.5t43.5 1.5z" />
    <glyph glyph-name="X" unicode="X" horiz-adv-x="647" 
d="M644 12q3 0 3 -6t-3 -6q-14 0 -49 1t-56 1q-31 0 -75 -1t-60 -1q-3 0 -3 6t3 6q50 0 24 39l-137 212l-86 -123q-42 -59 -39 -93.5t52 -34.5q2 0 2 -6t-2 -6q-17 0 -55 1t-69 1q-20 0 -46 -1t-43 -1q-3 0 -3 6t3 6q31 0 76 33t94 101l102 138l-160 249q-51 80 -105 80
q-3 0 -3 6t3 6q14 0 43 -1.5t42 -1.5q31 0 79.5 1.5t64.5 1.5q2 0 2 -6t-2 -6q-51 0 -25 -40l132 -203l80 114q42 60 39 94.5t-52 34.5q-2 0 -2 6t2 6q17 0 55 -1.5t69 -1.5q19 0 46 1.5t43 1.5q3 0 3 -6t-3 -6q-32 0 -76.5 -33.5t-94.5 -101.5l-95 -130l171 -265
q47 -71 111 -71z" />
    <glyph glyph-name="Y" unicode="Y" horiz-adv-x="619" 
d="M625 625q2 0 2 -6t-2 -6q-31 0 -76 -38.5t-80 -96.5l-104 -174v-223q0 -44 12.5 -56.5t58.5 -12.5q3 0 3 -6t-3 -6q-16 0 -58 1t-69 1q-26 0 -69 -1t-59 -1q-2 0 -2 6t2 6q46 0 59.5 13t13.5 56v202l-146 227q-67 103 -103 103q-3 0 -3 6t3 6q10 0 31 -1.5t31 -1.5
q31 0 91.5 1.5t75.5 1.5q2 0 2 -6t-2 -6q-29 0 -35 -20t13 -47l137 -216l92 157q33 55 25 90.5t-54 35.5q-3 0 -3 6t3 6q18 0 59.5 -1.5t75.5 -1.5q17 0 40 1.5t38 1.5z" />
    <glyph glyph-name="Z" unicode="Z" horiz-adv-x="605" 
d="M60 13l351 587q3 5 2.5 6.5t-7.5 1.5q-165 0 -231 -23t-106 -107q-1 -1 -4 -1.5t-5.5 1t-2.5 3.5l40 174q0 1 3.5 1.5t6 -1t2.5 -2.5q-3 -18 7.5 -23t49.5 -5h365q5 0 7.5 -5t-0.5 -8l-346 -585q-4 -5 -3 -6.5t7 -1.5h202q55 0 101.5 40t56.5 94q1 3 6 3t5 -3l-14 -145
q0 -10 -9 -10q-149 2 -479 2q-4 0 -6 4.5t1 8.5z" />
    <glyph glyph-name="bracketleft" unicode="[" horiz-adv-x="274" 
d="M67 -106v821q0 7 1.5 8.5t7.5 1.5h160q3 0 3 -6t-3 -6q-45 0 -58 -13.5t-13 -57.5v-676q0 -44 13 -57.5t58 -13.5q3 0 3 -6t-3 -6h-160q-6 0 -7.5 2t-1.5 9z" />
    <glyph glyph-name="backslash" unicode="\" horiz-adv-x="351" 
d="M277 -165l-251 881q-1 5 22 11.5t25 2.5l252 -882q1 -4 -22.5 -10.5t-25.5 -2.5z" />
    <glyph glyph-name="bracketright" unicode="]" horiz-adv-x="274" 
d="M207 -106q0 -7 -1.5 -9t-7.5 -2h-160q-3 0 -3 6t3 6q45 0 58 13.5t13 57.5v676q0 44 -13 57.5t-58 13.5q-3 0 -3 6t3 6h160q6 0 7.5 -1.5t1.5 -8.5v-821z" />
    <glyph glyph-name="asciicircum" unicode="^" horiz-adv-x="392" 
d="M333 380q1 -1 -1 -3t-4.5 -2.5t-3.5 0.5l-128 134l-128 -134q-3 -2 -7 0.5t-3 4.5l127 249q1 5 11 5t11 -5z" />
    <glyph glyph-name="underscore" unicode="_" horiz-adv-x="398" 
d="M34 -81q-3 0 -4 12.5t0 24.5t3 12h331q4 0 4 -24.5t-4 -24.5h-330z" />
    <glyph glyph-name="grave" unicode="`" horiz-adv-x="213" 
d="M23 727q2 4 23.5 3t48 -5.5t27.5 -8.5l32 -240q0 -2 -4.5 -3.5t-5.5 1.5z" />
    <glyph glyph-name="a" unicode="a" horiz-adv-x="421" 
d="M418 54q2 1 4.5 -1.5t2.5 -5t-3 -4.5l-103 -49q-4 -2 -10 -2q-15 0 -29.5 15t-20.5 41l-46 -25q-58 -30 -104 -30q-32 0 -50.5 16.5t-18.5 47.5q0 33 23 48.5t90 37.5l102 33v79q0 117 -51 117q-50 0 -55 -77q-6 -56 -59 -56q-47 0 -47 41t71 78t129 37q47 0 76.5 -28
t29.5 -82v-177q0 -61 40 -61q14 0 29 7zM243 57l13 7q-1 7 -1 21v74l-55 -20q-50 -18 -50 -51q0 -21 12 -33t30 -12q22 0 51 14z" />
    <glyph glyph-name="b" unicode="b" horiz-adv-x="516" 
d="M318 399q70 0 118 -48.5t48 -137.5q0 -106 -64 -166t-152 -60q-79 0 -141 47l-91 -41q-3 -1 -5 1t-1.5 4.5t2.5 3.5q49 28 49 101v486q0 35 -6.5 50t-23.5 15q-13 0 -37 -11q-2 -1 -4.5 2t-3 6t0.5 4l146 69q3 1 5 1q5 0 10.5 -4.5t5.5 -8.5v-380q71 67 144 67zM292 7
q43 0 66 44t23 123q0 87 -29 129.5t-81 42.5q-47 0 -97 -34v-147q0 -80 37.5 -119t80.5 -39z" />
    <glyph glyph-name="c" unicode="c" horiz-adv-x="425" 
d="M234 -12q-97 0 -149.5 59.5t-52.5 138.5q0 94 73 151.5t163 57.5q48 0 86.5 -20t38.5 -55q0 -19 -14.5 -32.5t-40.5 -13.5q-44 0 -61 51q-6 19 -10 27.5t-13.5 15t-24.5 6.5q-43 0 -68.5 -42.5t-25.5 -112.5q0 -83 37 -132.5t118 -49.5q41 0 96 26q2 2 5.5 -2t1.5 -6
q-73 -67 -159 -67z" />
    <glyph glyph-name="d" unicode="d" horiz-adv-x="510" 
d="M502 65q2 1 4.5 -1.5t3 -5.5t-0.5 -4l-138 -67q-3 -1 -5 -1q-21 0 -26 71q-74 -70 -151 -70q-67 0 -112 52.5t-45 142.5q0 58 22 102t57 68t73 35.5t77 11.5q37 0 78 -12v202q0 35 -6.5 50t-22.5 15q-13 0 -37 -11q-2 -1 -5 2t-3.5 6t0.5 4l147 69q2 1 4 1q5 0 11 -4.5
t6 -8.5v-596q0 -34 6.5 -48t21.5 -14q13 0 41 11zM244 35q50 0 95 42v5v243q-35 48 -93 48q-111 0 -111 -159q0 -84 30 -131.5t79 -47.5z" />
    <glyph glyph-name="e" unicode="e" horiz-adv-x="418" 
d="M386 65q4 4 7 -4v-5q-69 -68 -158 -68q-93 0 -148 56.5t-55 136.5q0 89 65.5 151.5t162.5 62.5q62 0 95 -26.5t33 -72.5q0 -29 -11 -29h-61l-180 -2q-3 -19 -3 -42q0 -86 40.5 -136t111.5 -50q57 0 101 28zM223 375q-30 0 -52 -24t-32 -66l142 3q-3 87 -58 87z" />
    <glyph glyph-name="f" unicode="f" horiz-adv-x="305" 
d="M319 726q56 0 87 -15.5t31 -43.5q0 -23 -15.5 -36t-35.5 -13q-17 0 -28.5 7t-16 14.5t-10.5 21.5t-10 21t-15 14t-26 7q-99 0 -99 -264v-61q31 1 110 9q7 0 7 -24q0 -6 -1.5 -13t-4 -11.5t-4.5 -3.5q-48 12 -107 15v-269q0 -44 15.5 -56.5t73.5 -12.5q4 0 4 -6t-4 -6
q-24 0 -69 1t-68 1q-21 0 -57 -1t-49 -1q-4 0 -4 6t4 6q38 0 49 13t11 56v225q0 31 -13 40.5t-51 9.5q-3 0 -3 9t3 9q35 0 48 9.5t14 34.5q5 163 62 235.5t172 72.5z" />
    <glyph glyph-name="g" unicode="g" horiz-adv-x="451" 
d="M256 44q31 -5 43.5 -7.5t39.5 -9t39.5 -14.5t28.5 -20.5t22.5 -30t6.5 -40.5q0 -82 -75.5 -143t-178.5 -61q-74 0 -121 32t-47 83q0 74 104 149q-63 19 -63 72q0 57 80 101q-44 15 -68 46t-24 67q0 58 54 91.5t118 33.5q67 0 111 -33q52 36 109 36q8 0 8 -28
q0 -32 -9 -44l-2 -1q-42 17 -75 17h-8q26 -31 26 -70q0 -56 -53.5 -90.5t-119.5 -34.5q-27 0 -51 6q-20 -16 -20 -41q0 -16 9 -27.5t31 -19t36.5 -10.5t48.5 -9zM182 374q-42 0 -42 -79q0 -52 25 -92t64 -40q19 0 33.5 20t14.5 63q0 54 -28 91t-67 37zM235 -250
q52 0 84.5 30.5t32.5 81.5q0 20 -5.5 35t-18.5 25.5t-24.5 17t-34 12t-35 8t-39.5 6.5l-54 9q-28 -33 -28 -94q0 -63 34 -97t88 -34z" />
    <glyph glyph-name="h" unicode="h" horiz-adv-x="509" 
d="M491 12q4 0 4 -6t-4 -6q-12 0 -46 1t-54 1q-21 0 -55 -1t-46 -1q-2 0 -2 6t2 6q31 0 42.5 14.5t11.5 54.5v144q0 106 -82 106q-52 0 -94 -37v-213q0 -40 11.5 -54.5t42.5 -14.5q4 0 4 -6t-4 -6q-12 0 -46 1t-54 1q-21 0 -55 -1t-46 -1q-2 0 -2 6t2 6q31 0 42.5 14.5
t11.5 54.5v508q0 35 -6.5 50t-22.5 15q-14 0 -38 -11q-2 -1 -4.5 2t-3 6t0.5 4l146 69q3 1 5 1q5 0 10.5 -4.5t5.5 -8.5v-396q71 82 152 82q54 0 85.5 -34.5t31.5 -90.5v-192q0 -40 11.5 -54.5t42.5 -14.5z" />
    <glyph glyph-name="i" unicode="i" horiz-adv-x="263" 
d="M135 495q-29 0 -45 16t-16 45q0 26 16.5 41.5t44.5 15.5q27 0 42.5 -15.5t15.5 -41.5q0 -61 -58 -61zM39 0q-3 0 -3 6t3 6q31 0 42 14.5t11 54.5v179q0 64 -30 64q-13 0 -37 -11q-2 -1 -4.5 2t-3 6t1.5 4l151 70q2 1 3 1q5 0 10 -5t5 -9q0 -1 -1 -40t-1 -80v-181
q0 -40 11.5 -54.5t42.5 -14.5q3 0 3 -6t-3 -6q-12 0 -46 1t-55 1t-55 -1t-45 -1z" />
    <glyph glyph-name="j" unicode="j" horiz-adv-x="263" 
d="M133 495q-29 0 -45 16t-16 45q0 26 16.5 41.5t44.5 15.5q27 0 42.5 -15.5t15.5 -41.5q0 -61 -58 -61zM188 382q0 -1 -1 -40t-1 -80v-310q0 -100 -38.5 -151.5t-139.5 -82.5q-2 -1 -4.5 4.5t0.5 6.5q48 21 68 67t20 133v331q0 64 -29 64q-13 0 -37 -11q-4 -2 -8 6
q-1 5 1 6l151 70q2 1 3 1q5 0 10 -5t5 -9z" />
    <glyph glyph-name="k" unicode="k" horiz-adv-x="491" 
d="M497 12q3 0 3 -6t-3 -6q-12 0 -46 1t-55 1q-29 0 -69.5 -1t-53.5 -1q-3 0 -3 6t3 6q26 0 33.5 12t-5.5 29l-114 146l-19 -17v-101q0 -40 11.5 -54.5t42.5 -14.5q4 0 4 -6t-4 -6q-12 0 -46 1t-54 1q-21 0 -55 -1t-46 -1q-2 0 -2 6t2 6q31 0 42.5 14.5t11.5 54.5v508
q0 35 -6.5 50t-22.5 15q-14 0 -38 -11q-2 -1 -4.5 2t-3 6t0.5 4l146 69q3 1 5 1q5 0 10.5 -4.5t5.5 -8.5v-507l93 90q29 26 25.5 52.5t-37.5 26.5q-2 0 -2 6t2 6q14 0 52.5 -1t71.5 -1q31 0 65.5 1t46.5 1q3 0 3 -6t-3 -6q-43 0 -98.5 -21.5t-99.5 -62.5l-36 -33l137 -176
q55 -69 109 -69z" />
    <glyph glyph-name="l" unicode="l" horiz-adv-x="268" 
d="M35 0q-2 0 -2 6t2 6q31 0 42.5 14.5t11.5 54.5l1 508q0 35 -6.5 50t-22.5 15q-13 0 -38 -11q-2 -1 -4.5 2t-3 6t0.5 4l147 69q2 1 4 1q5 0 11 -4.5t6 -8.5v-631q0 -40 11 -54.5t42 -14.5q4 0 4 -6t-4 -6q-11 0 -45.5 1t-55.5 1t-55 -1t-46 -1z" />
    <glyph glyph-name="m" unicode="m" horiz-adv-x="777" 
d="M759 12q4 0 4 -6t-4 -6q-12 0 -46 1t-55 1q-20 0 -54 -1t-46 -1q-3 0 -3 6t3 6q31 0 42.5 14.5t11.5 54.5v144q0 106 -75 106q-56 0 -94 -41v-6v-203q0 -40 11.5 -54.5t42.5 -14.5q4 0 4 -6t-4 -6q-12 0 -46 1t-55 1q-20 0 -54 -1t-46 -1q-3 0 -3 6t3 6q31 0 42.5 14.5
t11.5 54.5v144q0 106 -75 106q-51 0 -89 -36v-214q0 -40 11.5 -54.5t42.5 -14.5q3 0 3 -6t-3 -6q-12 0 -46 1t-55 1t-55 -1t-45 -1q-3 0 -3 6t3 6q31 0 42 14.5t11 54.5v188q0 60 -31 60q-17 0 -48 -14q-2 -1 -4.5 1.5t-2.5 5.5t1 4l139 68q6 2 7 2q11 0 21 -21.5t12 -57.5
q68 81 146 81q97 0 109 -89q69 89 153 89q111 0 111 -125v-192q0 -40 11.5 -54.5t42.5 -14.5z" />
    <glyph glyph-name="n" unicode="n" horiz-adv-x="526" 
d="M509 12q3 0 3 -6t-3 -6q-12 0 -46 1t-55 1q-20 0 -54 -1t-46 -1q-3 0 -3 6t3 6q31 0 42 14.5t11 54.5v144q0 106 -81 106q-52 0 -94 -37v-213q0 -40 11.5 -54.5t42.5 -14.5q3 0 3 -6t-3 -6q-12 0 -46 1t-55 1t-55 -1t-45 -1q-3 0 -3 6t3 6q31 0 42 14.5t11 54.5v188
q0 60 -31 60q-17 0 -48 -14q-2 -1 -4.5 1.5t-2.5 5.5t1 4l139 68q6 2 7 2q11 0 21 -21.5t12 -58.5q69 82 152 82q54 0 85.5 -34.5t31.5 -90.5v-192q0 -40 11.5 -54.5t42.5 -14.5z" />
    <glyph glyph-name="o" unicode="o" horiz-adv-x="489" 
d="M237 -13q-92 0 -148.5 61.5t-56.5 149.5q0 96 68 148.5t154 52.5q92 0 147.5 -62t55.5 -145q0 -90 -65 -147.5t-155 -57.5zM267 8q80 0 80 149q0 104 -37.5 162.5t-89.5 58.5q-80 0 -80 -143q0 -101 36.5 -164t90.5 -63z" />
    <glyph glyph-name="p" unicode="p" horiz-adv-x="513" 
d="M261 -13q-49 0 -86 11v-192q0 -43 16.5 -56t72.5 -13q3 0 3 -6t-3 -6q-17 0 -63 1t-74 1q-20 0 -54.5 -1t-46.5 -1q-3 0 -3 6t3 6q35 0 45.5 13t10.5 56v463q0 60 -32 60q-16 0 -46 -14q-2 -1 -5 1.5t-3.5 5.5t0.5 4l142 69q2 1 5 1q10 0 18.5 -17t11.5 -46q73 66 150 66
q66 0 112.5 -50t46.5 -134q0 -61 -20.5 -107t-54 -71.5t-70.5 -37.5t-76 -12zM257 343q-45 0 -82 -32v-8v-241q45 -50 105 -50q101 0 101 172q0 76 -35.5 117.5t-88.5 41.5z" />
    <glyph glyph-name="q" unicode="q" horiz-adv-x="502" 
d="M491 -263q3 0 3 -6t-3 -6q-12 0 -46.5 1t-55.5 1q-24 0 -66.5 -1t-58.5 -1q-2 0 -2 6t2 6q49 0 63.5 13t14.5 56v250q-71 -69 -144 -69q-70 0 -118 48.5t-48 137.5q0 106 67 166t157 60q84 0 143 -40l81 29q5 3 6 -5q1 -4 -2 -5q-49 -25 -49 -83v-489q0 -43 10.5 -56
t45.5 -13zM244 40q49 0 98 35v188q0 56 -34.5 85.5t-72.5 29.5q-100 0 -100 -166q0 -87 29 -129.5t80 -42.5z" />
    <glyph glyph-name="r" unicode="r" horiz-adv-x="379" 
d="M299 396q23 0 44.5 -16.5t21.5 -39.5q0 -21 -13 -34.5t-34 -13.5q-22 0 -41.5 21.5t-33.5 21.5q-18 0 -57 -39v-215q0 -40 19 -54.5t70 -14.5q4 0 4 -6t-4 -6q-16 0 -61.5 1t-74.5 1q-21 0 -55 -1t-45 -1q-3 0 -3 6t3 6q31 0 42 14.5t11 54.5v188q0 60 -31 60
q-17 0 -48 -14q-2 -1 -4.5 1.5t-2.5 5.5t1 4l139 68q6 2 7 2q11 0 20.5 -20.5t11.5 -55.5q73 76 114 76z" />
    <glyph glyph-name="s" unicode="s" horiz-adv-x="337" 
d="M118 338q0 -29 20.5 -50t59.5 -44q61 -35 78 -54q27 -30 27 -70q0 -53 -39.5 -92t-109.5 -39q-55 0 -104 27q-6 6 -6 12l-2 99q0 3 5.5 3.5t6.5 -1.5q16 -50 53 -85t75 -35q46 0 46 51q0 26 -14 47t-28 31t-41 25q-23 12 -29.5 15.5t-24.5 16.5t-24.5 22.5t-13.5 27
t-7 37.5q0 59 42 86.5t103 27.5q43 0 83 -15q9 -3 9 -11q0 -12 -1 -41t-1 -48q0 -3 -6 -3t-6 3q0 30 -35 63t-75 33q-41 0 -41 -39z" />
    <glyph glyph-name="t" unicode="t" horiz-adv-x="336" 
d="M322 69q2 2 5 0.5t4 -4.5t-1 -5q-72 -72 -146 -72q-44 0 -75 21t-31 71v222q0 31 -11 43t-40 12q-4 0 -4 9t4 9q99 4 131 83q2 4 8.5 4t6.5 -4v-80q58 1 130 9q7 0 7 -24q0 -6 -1.5 -13t-4.5 -11.5t-5 -3.5q-65 14 -126 15v-237q0 -38 19.5 -56t51.5 -18q40 0 78 30z" />
    <glyph glyph-name="u" unicode="u" horiz-adv-x="505" 
d="M497 65q2 1 5 -1.5t3.5 -5.5t-1.5 -4l-138 -67q-2 -1 -5 -1q-23 0 -26 80q-66 -78 -143 -78q-55 0 -86.5 34.5t-31.5 90.5v147q0 65 -31 65q-11 0 -25 -7q-2 -1 -4.5 2t-3 6t1.5 4l134 64q3 1 5 1q5 0 10.5 -4.5t5.5 -8.5v-221q0 -108 83 -108q46 0 85 36v171
q0 65 -31 65q-11 0 -26 -7q-2 -1 -4 2t-2.5 6t1.5 4l134 64q2 1 5 1q5 0 10.5 -4.5t5.5 -8.5v-266q0 -34 6.5 -48t21.5 -14q14 0 41 11z" />
    <glyph glyph-name="v" unicode="v" horiz-adv-x="440" 
d="M454 386q2 0 2 -6t-2 -6q-56 0 -94 -90l-123 -284q-2 -5 -10.5 -5t-11.5 5l-153 303q-21 44 -37 57.5t-39 13.5q-3 0 -3 6t3 6q8 0 38.5 -1t58.5 -1q30 0 70 1t54 1q3 0 3 -6t-3 -6q-35 0 -49.5 -8.5t-3.5 -30.5l112 -210l66 160q16 41 0 65t-56 24q-2 0 -2 6t2 6
q14 0 45 -1t56 -1q16 0 39.5 1t37.5 1z" />
    <glyph glyph-name="w" unicode="w" horiz-adv-x="685" 
d="M699 386q3 0 3 -6t-3 -6q-54 0 -93 -90l-123 -283q-1 -4 -10.5 -4t-11.5 4l-121 238l-103 -238q-1 -4 -10.5 -4t-11.5 4l-153 302q-22 43 -37.5 57t-38.5 14q-3 0 -3 6t3 6q8 0 38.5 -1t58.5 -1q27 0 63.5 1t48.5 1q3 0 3 -6t-3 -6q-30 0 -43.5 -9t-1.5 -30l116 -209
l59 143l-17 34q-23 44 -35 57.5t-30 13.5q-2 0 -2 6t2 6q7 0 34 -1t52 -1q27 0 63.5 1t48.5 1q2 0 2 -6t-2 -6q-27 0 -39 -10.5t-2 -28.5l112 -210l66 160q16 40 0 64.5t-56 24.5q-3 0 -3 6t3 6q14 0 45 -1t55 -1q17 0 40 1t37 1z" />
    <glyph glyph-name="x" unicode="x" horiz-adv-x="440" 
d="M436 12q3 0 3 -6t-3 -6q-12 0 -37 1t-36 1q-26 0 -64 -1t-51 -1q-3 0 -3 6t3 6q39 0 12 39l-65 98l-35 -51q-28 -41 -22.5 -63.5t43.5 -22.5q3 0 3 -6t-3 -6q-14 0 -45 1t-55 1q-17 0 -40 -1t-37 -1q-3 0 -3 6t3 6q64 0 132 93l46 63l-90 135q-47 71 -78 71q-2 0 -2 6
t2 6q10 0 31 -1t31 -1q26 0 64 1t51 1q2 0 2 -6t-2 -6q-38 0 -12 -39l58 -88l28 41q59 86 -21 86q-2 0 -2 6t2 6q14 0 45 -1t56 -1q17 0 40 1t37 1q3 0 3 -6t-3 -6q-64 0 -132 -93l-40 -53l96 -145q47 -71 90 -71z" />
    <glyph glyph-name="y" unicode="y" horiz-adv-x="427" 
d="M441 386q2 0 2 -6t-2 -6q-58 0 -98 -107l-111 -295q-53 -140 -101.5 -196.5t-107.5 -56.5q-62 0 -62 49q0 23 14 35t34 12q17 0 37 -13t36 -13q33 0 60 40.5t68 150.5l-160 323q-22 43 -34.5 57t-30.5 14q-3 0 -3 6t3 6q14 0 42.5 -1t42.5 -1q26 0 62.5 1t49.5 1
q3 0 3 -6t-3 -6q-36 0 -45.5 -8t1.5 -31l118 -241l60 174q17 49 2.5 77.5t-55.5 28.5q-2 0 -2 6t2 6q14 0 45 -1t56 -1q16 0 39.5 1t37.5 1z" />
    <glyph glyph-name="z" unicode="z" horiz-adv-x="405" 
d="M33 12l223 352q4 7 -5 7q-172 0 -208 -106q0 -1 -3.5 -1.5t-6 1t-1.5 3.5l42 157q0 1 3.5 1.5t6 -1t1.5 -3.5q-5 -21 6.5 -28.5t43.5 -7.5h230q4 0 7 -4t1 -8l-228 -349q-3 -7 5 -7q192 0 217 114q1 3 6.5 3t5.5 -3l-2 -121q0 -11 -10 -11h-327q-4 0 -6.5 4t-0.5 8z" />
    <glyph glyph-name="braceleft" unicode="{" horiz-adv-x="289" 
d="M32 298q-3 0 -3 6.5t3 6.5q35 6 46.5 64.5t11.5 153.5q0 124 30 160t130 36q4 0 4 -6t-4 -6q-53 0 -55 -106q-1 -56 -2 -82.5t-3.5 -62t-7.5 -50.5t-12.5 -35t-20.5 -30t-29.5 -21t-41.5 -21q29 -12 47 -23t31.5 -31t20 -35.5t11 -53.5t5.5 -67.5t2 -93.5q2 -106 55 -106
q4 0 4 -6t-4 -6q-100 0 -130 36t-30 161q0 96 -11.5 154t-46.5 64z" />
    <glyph glyph-name="bar" unicode="|" horiz-adv-x="168" 
d="M62 -154v885q0 7 23.5 7t23.5 -7v-885q0 -8 -23.5 -8t-23.5 8z" />
    <glyph glyph-name="braceright" unicode="}" horiz-adv-x="283" 
d="M251 298q-35 -6 -46.5 -64t-11.5 -154q0 -125 -30 -161t-130 -36q-4 0 -4 6t4 6q53 0 55 106q1 64 2 93.5t5.5 67.5t11 53.5t20 35.5t31.5 31t47 23q-25 10 -41.5 21t-29.5 21t-20.5 30t-12.5 35t-7.5 50.5t-3.5 62t-2 82.5q-2 106 -55 106q-4 0 -4 6t4 6q100 0 130 -36
t30 -160q0 -95 11.5 -153.5t46.5 -64.5q3 0 3 -6.5t-3 -6.5z" />
    <glyph glyph-name="asciitilde" unicode="~" horiz-adv-x="443" 
d="M315 212q19 0 34.5 7t22 13t17.5 18q3 3 6 -2q3 -3 1 -5q-39 -62 -63 -83t-53 -21q-26 0 -73.5 18t-77.5 18q-8 0 -14.5 -0.5t-13.5 -3.5t-10 -4t-10 -6.5t-8 -6t-9 -8.5l-9 -9t-3 0t-3.5 3t-0.5 4q63 104 123 104q19 0 67 -18t77 -18z" />
    <glyph glyph-name="uni00A0" unicode="&#xa0;" horiz-adv-x="234" 
 />
    <glyph glyph-name="exclamdown" unicode="&#xa1;" horiz-adv-x="263" 
d="M138 365q28 0 44.5 -16.5t16.5 -44.5q0 -26 -16.5 -42t-44.5 -16t-43.5 15.5t-15.5 42.5q0 29 15.5 45t43.5 16zM202 -261q2 -7 -21 -10.5t-49 -3.5t-49.5 3.5t-21.5 10.5q6 20 11 42t9.5 48.5t7.5 45.5t6.5 51t5.5 47t5 51.5t4 46.5t4 49.5t3 44.5t17 5t17 -5
q18 -305 51 -426z" />
    <glyph glyph-name="cent" unicode="&#xa2;" horiz-adv-x="530" 
d="M474 140q2 4 6.5 3t4.5 -4l-8 -106q-1 -13 -14 -18q-77 -27 -160 -27h-1v-90q0 -7 -14.5 -7t-14.5 7v91q-65 5 -114 30t-76 62t-40 76t-13 79q0 96 68.5 163.5t174.5 78.5v83q0 7 14.5 7t14.5 -7v-81h6q92 0 152 -29q11 -5 11 -17l5 -103q0 -3 -5 -4t-7 3
q-37 64 -75.5 95t-86.5 33v-448q5 -1 16 -1q51 0 86.5 31t69.5 100zM149 251q0 -83 31 -149.5t93 -86.5v441q-60 -9 -92 -64t-32 -141z" />
    <glyph glyph-name="sterling" unicode="&#xa3;" horiz-adv-x="432" 
d="M368 129q0 1 3 1.5t6 -0.5t3 -3q-9 -52 -9 -112q0 -15 -15 -15h-343q-3 0 -3 5.5t3 6.5q55 12 72.5 39.5t15.5 66.5q-2 50 -17 97h-41q-7 0 -7 14.5t7 14.5h31q-17 51 -17 83q0 79 54 116t136 37q46 0 89 -13q15 -6 16 -19l7 -104q0 -4 -5 -4t-7 4q-17 31 -27 46.5
t-25.5 34.5t-32 27t-36.5 8q-70 0 -70 -97q0 -40 25 -119h93q7 0 7 -14.5t-7 -14.5h-85q9 -38 9 -66q0 -63 -45 -101h98q63 0 84.5 15t32.5 66z" />
    <glyph glyph-name="currency" unicode="&#xa4;" horiz-adv-x="414" 
d="M367 68l-38 -36l-49 55q-41 -22 -84 -22q-39 0 -68 17l-45 -50l-33 32l45 46q-34 40 -34 92q0 50 34 86l-49 50l37 35l52 -56q36 18 76 18q39 0 72 -19l52 54l31 -32l-49 -49q32 -38 32 -88q0 -48 -31 -84zM215 89q27 0 43 24t16 67q0 53 -23.5 92t-62.5 39
q-25 0 -40 -22.5t-15 -65.5q0 -52 21 -93t61 -41z" />
    <glyph glyph-name="yen" unicode="&#xa5;" horiz-adv-x="498" 
d="M497 468q3 0 3 -6t-3 -6q-61 0 -111 -90l-76 -137v-16h91q7 0 7 -13t-7 -13h-289q-7 0 -7 13t7 13h94v1l-110 171q-46 71 -90 71q-3 0 -3 6t3 6q8 0 38 -1.5t39 -1.5q26 0 85 1.5t72 1.5q2 0 2 -6t-2 -6q-74 0 -36 -56l93 -145l61 112q21 36 12.5 62.5t-48.5 26.5
q-3 0 -3 6t3 6q17 0 54 -1.5t67 -1.5q13 0 29 1.5t25 1.5zM401 142q7 0 7 -13t-7 -13h-91v-35q0 -44 13 -56.5t61 -12.5q2 0 2 -6t-2 -6q-16 0 -58 1t-69 1q-24 0 -67 -1t-59 -1q-3 0 -3 6t3 6q47 0 61 13t14 56v35h-94q-7 0 -7 13t7 13h289z" />
    <glyph glyph-name="brokenbar" unicode="&#xa6;" horiz-adv-x="168" 
d="M62 360v371q0 7 23.5 7t23.5 -7v-371q0 -7 -23.5 -7t-23.5 7zM62 -154v370q0 8 23.5 8t23.5 -8v-370q0 -8 -23.5 -8t-23.5 8z" />
    <glyph glyph-name="section" unicode="&#xa7;" horiz-adv-x="488" 
d="M356 34q42 -40 42 -92q0 -63 -50 -96.5t-120 -33.5q-50 0 -86 18q-11 7 -11 17l-8 117q0 2 5.5 2t6.5 -2l7 -14q7 -13 10 -19t11.5 -20.5t15 -22.5t17 -19.5t20 -18t21.5 -11t24 -4.5q51 0 51 67q0 36 -17 64.5t-42.5 46.5t-55.5 39t-55.5 40.5t-42.5 52.5t-17 74
q0 35 16.5 65t59.5 66q-41 41 -41 92q0 63 50 96.5t120 33.5q51 0 86 -19q11 -5 11 -16l8 -117q0 -3 -5.5 -3t-6.5 3l-6 12q-6 11 -8.5 16t-10 18t-13 20t-13.5 18.5t-16.5 18t-18 13.5t-19.5 10t-21 3q-24 0 -38 -17t-14 -50q0 -42 24 -74t58 -54t67.5 -45t57.5 -59.5
t24 -84.5q0 -35 -16.5 -65t-60.5 -66zM158 268q0 -36 11.5 -65.5t33.5 -51.5t42.5 -37t50 -34.5t45.5 -32.5q16 26 16 69q0 44 -20.5 80.5t-43.5 54.5t-63 45t-57 41q-15 -26 -15 -69z" />
    <glyph glyph-name="dieresis" unicode="&#xa8;" horiz-adv-x="322" 
d="M75 464q-26 0 -40.5 14.5t-14.5 40.5q0 24 15 38t40 14t38.5 -14t13.5 -38q0 -55 -52 -55zM249 464q-26 0 -40 14.5t-14 40.5q0 24 14.5 37.5t39.5 13.5t38.5 -13.5t13.5 -37.5q0 -55 -52 -55z" />
    <glyph glyph-name="copyright" unicode="&#xa9;" horiz-adv-x="727" 
d="M381 -106q-133 0 -225 79t-92 214q0 136 105 226t243 90q117 0 190 -69t73 -166q0 -91 -75.5 -160t-188.5 -69q-94 0 -139 46t-45 110q0 77 53.5 123t123.5 46q42 0 74.5 -15.5t32.5 -45.5q0 -42 -43 -42q-26 0 -43 36q-8 15 -13 21.5t-16 14t-25 7.5q-31 0 -42 -26
t-11 -84q0 -71 36 -117t110 -46q58 0 101 47t43 122q0 102 -66 173t-165 71q-111 0 -175 -77t-64 -190q0 -130 76 -207t204 -77q102 0 184 51q4 2 7 -4q1 -3 -1 -4q-99 -78 -227 -78z" />
    <glyph glyph-name="ordfeminine" unicode="&#xaa;" horiz-adv-x="288" 
d="M275 407q2 1 4.5 -1t2.5 -4.5t-1 -3.5l-68 -32q-13 -6 -25 4t-16 31l-30 -16q-36 -20 -67 -20q-23 0 -36 11t-13 28q0 36 44 51l100 34v49q0 46 -9 60t-25 14q-14 0 -23 -14.5t-11 -36.5q-7 -38 -38 -38q-17 0 -27.5 9.5t-10.5 25.5q0 27 48.5 49.5t88.5 22.5
q31 0 51 -18t20 -54v-117q0 -34 8.5 -40.5t32.5 6.5zM147 401l23 12v6v59l-43 -17q-28 -11 -28 -36q0 -13 7.5 -21t18.5 -8q10 0 22 5zM264 318q4 0 4 -17.5t-4 -17.5h-224q-3 0 -4 8.5t0 17.5t3 9h225z" />
    <glyph glyph-name="guillemotleft" unicode="&#xab;" horiz-adv-x="475" 
d="M241 40l-188 149q-11 11 0 23l188 149q1 2 3 1.5t3.5 -3t0.5 -3.5l-92 -155l92 -155q1 -3 -3 -6q-3 -2 -4 0zM412 40l-189 149q-10 11 0 23l189 149q1 2 3 1.5t3.5 -3t0.5 -3.5l-93 -155l93 -155q1 -3 -3 -6q-3 -2 -4 0z" />
    <glyph glyph-name="logicalnot" unicode="&#xac;" horiz-adv-x="395" 
d="M364 271v-194q0 -3 -12 -4t-23.5 0t-11.5 3v149h-283q-3 0 -4 11.5t0 23t3 11.5h331z" />
    <glyph glyph-name="uni00AD" unicode="&#xad;" horiz-adv-x="323" 
d="M32 154q-3 0 -4 13t-0.5 27t2.5 14l261 47q3 0 4 -13t0 -27t-4 -14z" />
    <glyph glyph-name="registered" unicode="&#xae;" horiz-adv-x="740" 
d="M398 725q130 0 210 -77.5t80 -196.5q0 -131 -94 -222t-230 -91q-120 0 -210 78.5t-90 202.5q0 138 98 222t236 84zM402 164q108 0 163.5 70t55.5 184q0 133 -72 208t-190 75q-117 0 -175 -70t-58 -175q0 -128 79 -210t197 -82zM561 282q2 -1 2 -4.5t-2 -3.5h-98
q-14 0 -90 160q-24 -2 -37 -2v-102q0 -30 7.5 -37.5t34.5 -7.5q2 0 2 -5.5t-2 -5.5q-9 0 -33 0.5t-40 0.5q-12 0 -38 -0.5t-33 -0.5q-2 0 -2 5.5t2 5.5q21 0 26 7.5t5 37.5v215q0 28 -5.5 36t-25.5 8q-2 0 -2 6t2 6q10 0 34.5 -0.5t36.5 -0.5q13 0 42 2t40 2q101 0 101 -69
q0 -58 -56 -84q36 -75 64 -111.5t65 -57.5zM336 447q46 -3 62.5 11.5t16.5 56.5q0 76 -44 76q-21 0 -28 -8t-7 -40v-96z" />
    <glyph glyph-name="macron" unicode="&#xaf;" horiz-adv-x="345" 
d="M47 474q-10 0 -10 18.5t10 18.5h251q10 0 10 -18.5t-10 -18.5h-251z" />
    <glyph glyph-name="degree" unicode="&#xb0;" horiz-adv-x="332" 
d="M167 373q-61 0 -99.5 37t-38.5 93q0 53 38.5 90t99.5 37t98.5 -37t37.5 -92t-37.5 -91.5t-98.5 -36.5zM174 387q33 0 43 26t10 81q0 122 -66 122q-32 0 -43.5 -28t-11.5 -82q0 -119 68 -119z" />
    <glyph glyph-name="plusminus" unicode="&#xb1;" horiz-adv-x="398" 
d="M34 228q-3 0 -4 12t0 24.5t3 12.5h141v141q0 4 24.5 4t24.5 -4v-141h141q4 0 4 -24.5t-4 -24.5h-141v-140q0 -3 -12.5 -4t-24.5 0t-12 3v141h-140zM364 44q4 0 4 -21.5t-4 -21.5h-330q-3 0 -4 10.5t0 21.5t3 11h331z" />
    <glyph glyph-name="uni00B2" unicode="&#xb2;" horiz-adv-x="253" 
d="M20 409q12 48 33.5 84t40 53t32.5 42t14 56q0 58 -41 58q-22 0 -38.5 -14t-23.5 -37q-1 -5 -8 -1q-4 1 -3 4q24 76 101 76q44 0 66 -20.5t22 -53.5q0 -30 -20.5 -56.5t-46 -43t-51.5 -40.5t-34 -48q-1 -4 2 -4q90 0 119 7.5t29 32.5q0 2 6 2t6 -2l-2 -96q0 -4 -4 -4h-196
q-5 0 -3 5z" />
    <glyph glyph-name="uni00B3" unicode="&#xb3;" horiz-adv-x="251" 
d="M157 575q32 -7 52 -27t20 -50q0 -38 -30 -70t-83 -32q-70 0 -95 69q0 2 2.5 4t6 1.5t3.5 -2.5q21 -45 66 -45q23 0 38.5 17t15.5 54q0 70 -75 70q-5 0 -4.5 5.5t4.5 5.5q30 0 46 18.5t16 49.5q0 55 -42 55q-22 0 -38.5 -14.5t-20.5 -33.5q-2 -3 -7.5 -2t-4.5 5
q21 76 100 76q43 0 66 -21t23 -53q0 -26 -17 -48t-42 -32z" />
    <glyph glyph-name="acute" unicode="&#xb4;" horiz-adv-x="212" 
d="M69 474q0 -2 -3 -2t-5.5 1.5t-2.5 2.5l33 240q4 9 67 14q34 3 31 -3z" />
    <glyph glyph-name="paragraph" unicode="&#xb6;" horiz-adv-x="657" 
d="M353 -193q-93 0 -93 60q0 20 12.5 32.5t37.5 12.5q24 0 35.5 -13.5t11.5 -29.5t4.5 -29.5t16.5 -13.5q20 0 27.5 38.5t7.5 143.5v117q-19 -3 -45 -3q-58 0 -111 14t-100 43t-75 82.5t-28 124.5q0 119 76.5 180.5t211.5 61.5q20 0 68.5 -3t79.5 -3q19 0 56.5 1.5t53.5 1.5
q3 0 3 -6t-3 -6q-43 0 -66 -21t-23 -60l1 -477q0 -129 -37.5 -188.5t-121.5 -59.5z" />
    <glyph glyph-name="periodcentered" unicode="&#xb7;" horiz-adv-x="195" 
d="M97 141q-28 0 -44.5 16.5t-16.5 44.5q0 26 16.5 42t44.5 16t43.5 -15.5t15.5 -42.5q0 -29 -15.5 -45t-43.5 -16z" />
    <glyph glyph-name="cedilla" unicode="&#xb8;" horiz-adv-x="232" 
d="M120 -2q-8 -31 0 -52.5t36 -37.5q55 -33 55 -78q0 -42 -30.5 -73.5t-91.5 -31.5q-75 0 -75 48q0 15 12 27t28 12q19 0 28.5 -10t11 -21.5t10 -21.5t25.5 -10q22 0 22 24q0 26 -18.5 47t-64.5 47q-14 5 -5 28q16 39 40 104z" />
    <glyph glyph-name="uni00B9" unicode="&#xb9;" horiz-adv-x="262" 
d="M37 404q-2 0 -2 5.5t2 5.5q44 0 54 11t10 58v118q0 58 -11 67t-57 -11q-5 -2 -7 7l1 4l136 60q3 1 6.5 -1.5t3.5 -5.5v-238q0 -47 9.5 -58t50.5 -11q2 0 2 -5.5t-2 -5.5q-12 0 -44 1t-51 1q-20 0 -54.5 -1t-46.5 -1z" />
    <glyph glyph-name="ordmasculine" unicode="&#xba;" horiz-adv-x="325" 
d="M158 359q-57 0 -92.5 40.5t-35.5 98.5q0 63 43 97.5t97 34.5q57 0 91.5 -40t34.5 -95q0 -56 -41 -96t-97 -40zM173 374q23 0 36.5 27.5t13.5 75.5q0 58 -20.5 97.5t-51.5 39.5q-48 0 -48 -97q0 -58 20 -100.5t50 -42.5zM42 283q-3 0 -4 8.5t0 17.5t3 9h243q4 0 4 -17.5
t-4 -17.5h-242z" />
    <glyph glyph-name="guillemotright" unicode="&#xbb;" horiz-adv-x="475" 
d="M63 361l188 -149q11 -12 0 -23l-188 -149q-2 -4 -6 1q-2 3 -1 5l93 154l-93 156q-1 2 3 5q3 1 4 0zM234 361l188 -149q4 -4 4 -11t-4 -12l-188 -149q-2 -4 -6 1q-2 3 -1 5l92 154l-92 156q-1 2 3 5q3 2 4 0z" />
    <glyph glyph-name="onequarter" unicode="&#xbc;" horiz-adv-x="607" 
d="M233 320q2 0 2 -5.5t-2 -5.5q-12 0 -44 1t-51 1q-20 0 -54.5 -1t-46.5 -1q-2 0 -2 5.5t2 5.5q44 0 54 11t10 58v119q0 58 -11 67t-57 -11q-5 -3 -7 5q-1 4 1 5l136 60q3 1 6.5 -1.5t3.5 -5.5v-238q0 -47 9.5 -58t50.5 -11zM436 630q2 4 18 -3.5t15 -10.5l-280 -617
q-1 -1 -4 -0.5t-8 3t-9.5 5t-7.5 4.5t-3 3zM586 88q-6 0 -19 1t-20 1v-49q0 -20 6 -25t33 -5q1 0 1 -6t-1 -6q-10 0 -32 0.5t-38 0.5q-18 0 -47.5 -0.5t-40.5 -0.5q-2 0 -2 6t2 6q33 0 41.5 5t8.5 25v51q-70 2 -126 2q-4 0 -6 4t1 7l166 215q4 5 19 4.5t15 -5.5v-206
q6 1 19 1.5t20 0.5q3 0 3 -13.5t-3 -13.5zM384 109q21 0 52 0.5t42 0.5v129l-96 -127q-3 -3 2 -3z" />
    <glyph glyph-name="onehalf" unicode="&#xbd;" horiz-adv-x="612" 
d="M37 309q-2 0 -2 5.5t2 5.5q44 0 54 11t10 58v119q0 58 -11 67t-57 -11q-5 -3 -7 5q-1 4 1 5l136 60q3 1 6.5 -1.5t3.5 -5.5v-238q0 -47 9.5 -58t50.5 -11q2 0 2 -5.5t-2 -5.5q-12 0 -44 1t-51 1q-20 0 -54.5 -1t-46.5 -1zM189 -1q-1 -1 -4 -0.5t-8 3t-9.5 5t-7.5 4.5
t-3 3l279 616q2 4 18 -3.5t15 -10.5zM379 6q12 48 33.5 84t40 52.5t32.5 41.5t14 57q0 57 -41 57q-22 0 -38.5 -14t-23.5 -36q0 -2 -3 -2.5t-5.5 1t-2.5 3.5q24 76 101 76q44 0 66 -20t22 -53q0 -30 -20.5 -57t-46 -43.5t-51.5 -40.5t-34 -48q-2 -3 2 -3q90 0 119 7.5
t29 32.5q0 1 6 1t6 -1l-2 -96q0 -5 -4 -5h-196q-4 0 -3 6z" />
    <glyph glyph-name="threequarters" unicode="&#xbe;" horiz-adv-x="596" 
d="M229 404q0 -39 -29.5 -70.5t-83.5 -31.5q-71 0 -95 69q0 2 2.5 3.5t6 1t3.5 -2.5q20 -44 66 -44q54 0 54 70t-75 70q-5 0 -4.5 6t4.5 6q30 0 46 18.5t16 49.5q0 55 -42 55q-21 0 -38 -15t-21 -33q-2 -6 -10 -2l-2 4q21 76 100 76q43 0 66 -21t23 -53q0 -27 -17.5 -48
t-42.5 -32q32 -7 52.5 -27t20.5 -49zM425 630q2 4 18 -3.5t15 -10.5l-280 -617q-1 -1 -4 -0.5t-8 3t-9.5 5t-7.5 4.5t-3 3zM575 88q-7 0 -20 1t-19 1v-49q0 -20 6 -25t33 -5q1 0 1 -6t-1 -6q-9 0 -32 0.5t-38 0.5q-18 0 -47.5 -0.5t-40.5 -0.5q-1 0 -1 6t1 6q33 0 41.5 5
t8.5 25v51q-70 2 -126 2q-4 0 -6 4t1 7l166 215q4 5 19 4.5t15 -5.5v-206q6 1 19 1.5t20 0.5q3 0 3 -13.5t-3 -13.5zM373 109q21 0 52 0.5t42 0.5v129l-96 -127q-3 -3 2 -3z" />
    <glyph glyph-name="questiondown" unicode="&#xbf;" horiz-adv-x="327" 
d="M174 361q28 0 44.5 -16.5t16.5 -44.5q0 -26 -16.5 -42t-44.5 -16t-43.5 15.5t-15.5 42.5q0 29 15.5 45t43.5 16zM162 -256q24 0 28 41q6 69 57 69q26 0 38 -14t12 -33q0 -35 -38.5 -58.5t-96.5 -23.5q-65 0 -109.5 31t-44.5 88q0 20 5 36.5t17.5 31t21 23t27.5 23.5
t26 21q59 52 59 123q0 15 -5 53q-1 2 3 4t7.5 2t5.5 -2q26 -60 26 -121q0 -31 -13 -56t-28 -40.5t-28 -44t-13 -66.5t11.5 -62.5t31.5 -24.5z" />
    <glyph glyph-name="Agrave" unicode="&#xc0;" 
d="M232 756q-13 3 15 15q52 24 80 24q4 -1 6 -2q13 -10 55.5 -47t69.5 -57q2 -1 2.5 -4t-1.5 -5t-5 -1q-112 50 -222 77zM717 12q5 0 5 -6t-5 -6q-20 0 -62.5 2t-62.5 2q-24 0 -59.5 -2t-55.5 -2q-5 0 -5 6t5 6q41 0 47.5 16.5t-18.5 65.5l-104 205h-178l-71 -157
q-25 -60 -1 -95t82 -35q4 0 4 -6t-4 -6q-19 0 -55 2t-63 2t-62.5 -2t-57.5 -2q-4 0 -4 6t4 6q40 0 66 27.5t64 112.5l217 477q1 3 8.5 3.5t9.5 -3.5l250 -492q35 -71 58 -98t48 -27zM237 327h151l-80 158z" />
    <glyph glyph-name="Aacute" unicode="&#xc1;" 
d="M257 679q-4 -2 -6 3t1 7q28 20 71.5 57.5t54.5 46.5q9 9 71 -16q37 -14 34 -19l-4 -2q-108 -27 -222 -77zM717 12q5 0 5 -6t-5 -6q-20 0 -62.5 2t-62.5 2q-24 0 -59.5 -2t-55.5 -2q-5 0 -5 6t5 6q41 0 47.5 16.5t-18.5 65.5l-104 205h-178l-71 -157q-25 -60 -1 -95
t82 -35q4 0 4 -6t-4 -6q-19 0 -55 2t-63 2t-62.5 -2t-57.5 -2q-4 0 -4 6t4 6q40 0 66 27.5t64 112.5l217 477q1 3 8.5 3.5t9.5 -3.5l250 -492q35 -71 58 -98t48 -27zM237 327h151l-80 158z" />
    <glyph glyph-name="Acircumflex" unicode="&#xc2;" 
d="M245 648q-1 0 -3 1t-3 3t0 3l103 116q12 11 23 0l102 -116q2 -1 1.5 -3t-3 -3.5t-3.5 -0.5l-108 39zM717 12q5 0 5 -6t-5 -6q-20 0 -62.5 2t-62.5 2q-24 0 -59.5 -2t-55.5 -2q-5 0 -5 6t5 6q41 0 47.5 16.5t-18.5 65.5l-104 205h-178l-71 -157q-25 -60 -1 -95t82 -35
q4 0 4 -6t-4 -6q-19 0 -55 2t-63 2t-62.5 -2t-57.5 -2q-4 0 -4 6t4 6q40 0 66 27.5t64 112.5l217 477q1 3 8.5 3.5t9.5 -3.5l250 -492q35 -71 58 -98t48 -27zM237 327h151l-80 158z" />
    <glyph glyph-name="Atilde" unicode="&#xc3;" 
d="M234 697q-2 -2 -5.5 1.5t-2.5 5.5q46 81 88 81q11 0 54 -12t67 -12q28 0 51 27q2 2 6 -2q3 -3 1 -5q-26 -48 -43.5 -64.5t-39.5 -16.5q-17 0 -59.5 12t-65.5 12q-14 0 -24 -4.5t-12.5 -7t-14.5 -15.5zM717 12q5 0 5 -6t-5 -6q-20 0 -62.5 2t-62.5 2q-24 0 -59.5 -2
t-55.5 -2q-5 0 -5 6t5 6q41 0 47.5 16.5t-18.5 65.5l-104 205h-178l-71 -157q-25 -60 -1 -95t82 -35q4 0 4 -6t-4 -6q-19 0 -55 2t-63 2t-62.5 -2t-57.5 -2q-4 0 -4 6t4 6q40 0 66 27.5t64 112.5l217 477q1 3 8.5 3.5t9.5 -3.5l250 -492q35 -71 58 -98t48 -27zM237 327h151
l-80 158z" />
    <glyph glyph-name="Adieresis" unicode="&#xc4;" 
d="M268 703q-26 0 -40.5 14.5t-14.5 40.5q0 24 15 38t40 14t38.5 -14t13.5 -38q0 -55 -52 -55zM442 703q-26 0 -40 14.5t-14 40.5q0 24 14.5 37.5t39.5 13.5t38.5 -13.5t13.5 -37.5q0 -55 -52 -55zM717 12q5 0 5 -6t-5 -6q-20 0 -62.5 2t-62.5 2q-24 0 -59.5 -2t-55.5 -2
q-5 0 -5 6t5 6q41 0 47.5 16.5t-18.5 65.5l-104 205h-178l-71 -157q-25 -60 -1 -95t82 -35q4 0 4 -6t-4 -6q-19 0 -55 2t-63 2t-62.5 -2t-57.5 -2q-4 0 -4 6t4 6q40 0 66 27.5t64 112.5l217 477q1 3 8.5 3.5t9.5 -3.5l250 -492q35 -71 58 -98t48 -27zM237 327h151l-80 158z
" />
    <glyph glyph-name="Aring" unicode="&#xc5;" 
d="M346 660q-49 0 -78 23.5t-29 55.5q0 36 35.5 56.5t80.5 20.5q44 0 75 -23t31 -56q0 -35 -35 -56t-80 -21zM335 802q-23 0 -23 -43q0 -33 13 -59t36 -26q27 0 27 45q0 34 -15.5 58.5t-37.5 24.5zM717 12q5 0 5 -6t-5 -6q-20 0 -62.5 2t-62.5 2q-24 0 -59.5 -2t-55.5 -2
q-5 0 -5 6t5 6q41 0 47.5 16.5t-18.5 65.5l-104 205h-178l-71 -157q-25 -60 -1 -95t82 -35q4 0 4 -6t-4 -6q-19 0 -55 2t-63 2t-62.5 -2t-57.5 -2q-4 0 -4 6t4 6q40 0 66 27.5t64 112.5l217 477q1 3 8.5 3.5t9.5 -3.5l250 -492q35 -71 58 -98t48 -27zM237 327h151l-80 158z
" />
    <glyph glyph-name="AE" unicode="&#xc6;" horiz-adv-x="888" 
d="M832 159q1 3 6 1.5t5 -3.5q-9 -88 -9 -142q0 -15 -15 -15h-437q-2 0 -2 6t2 6q46 0 59 12.5t13 56.5v230h-150l-110 -173q-36 -58 -23 -92t71 -34q4 0 4 -6t-4 -6q-22 0 -65 2t-76 2q-24 0 -56.5 -2t-51.5 -2q-5 0 -5 6t5 6q42 0 76.5 27t77.5 93l288 442q19 27 8 33
t-72 6q-3 0 -3 6t3 6h430q10 0 10 -9l2 -133q0 -2 -5.5 -3t-6.5 2q-10 38 -51.5 76t-91.5 38h-42q-57 0 -57 -53v-204h83q58 0 88.5 20t30.5 56q0 3 6 3t6 -3q0 -24 -0.5 -51.5t-0.5 -38.5q0 -17 1 -49.5t1 -52.5q0 -2 -5.5 -2t-5.5 2q0 41 -31.5 64.5t-90.5 23.5h-82v-226
q0 -57 46 -57h44q57 0 111.5 39t71.5 92zM322 339h132v208z" />
    <glyph glyph-name="Ccedilla" unicode="&#xc7;" horiz-adv-x="669" 
d="M614 181q2 4 7 3t5 -4l-15 -136q-2 -12 -4.5 -15.5t-11.5 -7.5q-89 -33 -183 -33h-17q-10 -53 38 -80q55 -33 55 -78q0 -42 -30.5 -73.5t-91.5 -31.5q-75 0 -75 48q0 15 12 27t28 12q19 0 28.5 -10t11 -21.5t10 -21.5t25.5 -10q22 0 22 24q0 26 -18.5 47t-64.5 47
q-14 5 -5 28q18 44 36 94q-84 6 -149 37.5t-102.5 78.5t-56.5 100.5t-19 109.5q0 142 110.5 231.5t261.5 89.5q107 0 167 -27q13 -4 16 -23l12 -139q0 -3 -5 -4t-6 3q-34 79 -91 122t-132 43q-99 0 -153 -73t-54 -196q0 -140 65.5 -236.5t168.5 -96.5q127 0 205 172z" />
    <glyph glyph-name="Egrave" unicode="&#xc8;" horiz-adv-x="552" 
d="M176 756q-13 3 15 15q52 24 80 24q4 -1 6 -2q13 -10 55.5 -47t69.5 -57q2 -1 2.5 -4t-1.5 -5t-5 -1q-112 50 -222 77zM496 159q1 3 6.5 1.5t5.5 -3.5q-10 -78 -10 -142q0 -15 -15 -15h-442q-3 0 -3 6t3 6q45 0 58 12.5t13 56.5v463q0 43 -13 56t-58 13q-3 0 -3 6t3 6h424
q10 0 10 -9l2 -133q0 -2 -5.5 -3t-6.5 2q-32 114 -154 114h-30q-58 0 -58 -53v-204h83q58 0 89 20t31 56q0 3 5.5 3t5.5 -3q0 -24 -0.5 -51.5t-0.5 -38.5q0 -17 1.5 -50t1.5 -52q0 -2 -6 -2t-6 2q0 41 -31.5 64.5t-90.5 23.5h-82v-226q0 -57 46 -57h33q152 0 194 131z" />
    <glyph glyph-name="Eacute" unicode="&#xc9;" horiz-adv-x="552" 
d="M201 679q-4 -2 -6 3t1 7q28 20 71.5 57.5t54.5 46.5q9 9 71 -16q37 -14 34 -19l-4 -2q-108 -27 -222 -77zM496 159q1 3 6.5 1.5t5.5 -3.5q-10 -78 -10 -142q0 -15 -15 -15h-442q-3 0 -3 6t3 6q45 0 58 12.5t13 56.5v463q0 43 -13 56t-58 13q-3 0 -3 6t3 6h424q10 0 10 -9
l2 -133q0 -2 -5.5 -3t-6.5 2q-32 114 -154 114h-30q-58 0 -58 -53v-204h83q58 0 89 20t31 56q0 3 5.5 3t5.5 -3q0 -24 -0.5 -51.5t-0.5 -38.5q0 -17 1.5 -50t1.5 -52q0 -2 -6 -2t-6 2q0 41 -31.5 64.5t-90.5 23.5h-82v-226q0 -57 46 -57h33q152 0 194 131z" />
    <glyph glyph-name="Ecircumflex" unicode="&#xca;" horiz-adv-x="552" 
d="M190 695q-1 0 -3 1t-3 3t0 3l103 116q5 4 12 4t11 -4l102 -116q2 -1 1.5 -3t-3 -3.5t-3.5 -0.5l-108 39zM496 159q1 3 6.5 1.5t5.5 -3.5q-10 -78 -10 -142q0 -15 -15 -15h-442q-3 0 -3 6t3 6q45 0 58 12.5t13 56.5v463q0 43 -13 56t-58 13q-3 0 -3 6t3 6h424q10 0 10 -9
l2 -133q0 -2 -5.5 -3t-6.5 2q-32 114 -154 114h-30q-58 0 -58 -53v-204h83q58 0 89 20t31 56q0 3 5.5 3t5.5 -3q0 -24 -0.5 -51.5t-0.5 -38.5q0 -17 1.5 -50t1.5 -52q0 -2 -6 -2t-6 2q0 41 -31.5 64.5t-90.5 23.5h-82v-226q0 -57 46 -57h33q152 0 194 131z" />
    <glyph glyph-name="Edieresis" unicode="&#xcb;" horiz-adv-x="552" 
d="M212 703q-26 0 -40.5 14.5t-14.5 40.5q0 24 15 38t40 14t38.5 -14t13.5 -38q0 -55 -52 -55zM386 703q-26 0 -40 14.5t-14 40.5q0 24 14.5 37.5t39.5 13.5t38.5 -13.5t13.5 -37.5q0 -55 -52 -55zM496 159q1 3 6.5 1.5t5.5 -3.5q-10 -78 -10 -142q0 -15 -15 -15h-442
q-3 0 -3 6t3 6q45 0 58 12.5t13 56.5v463q0 43 -13 56t-58 13q-3 0 -3 6t3 6h424q10 0 10 -9l2 -133q0 -2 -5.5 -3t-6.5 2q-32 114 -154 114h-30q-58 0 -58 -53v-204h83q58 0 89 20t31 56q0 3 5.5 3t5.5 -3q0 -24 -0.5 -51.5t-0.5 -38.5q0 -17 1.5 -50t1.5 -52q0 -2 -6 -2
t-6 2q0 41 -31.5 64.5t-90.5 23.5h-82v-226q0 -57 46 -57h33q152 0 194 131z" />
    <glyph glyph-name="Igrave" unicode="&#xcc;" horiz-adv-x="342" 
d="M271 679q-112 50 -222 77q-13 3 15 15q52 24 80 24l6 -2q13 -10 55.5 -47t69.5 -57q2 -1 2.5 -4t-1.5 -5t-5 -1zM227 81q0 -44 12.5 -56.5t58.5 -12.5q3 0 3 -6t-3 -6q-16 0 -58.5 1t-69.5 1q-26 0 -69 -1t-59 -1q-2 0 -2 6t2 6q46 0 59.5 13t13.5 56v463q0 43 -13.5 56
t-59.5 13q-2 0 -2 6t2 6q16 0 59 -1.5t69 -1.5q28 0 70.5 1.5t57.5 1.5q3 0 3 -6t-3 -6q-45 0 -58 -13.5t-13 -57.5v-461z" />
    <glyph glyph-name="Iacute" unicode="&#xcd;" horiz-adv-x="342" 
d="M74 679q-4 -2 -6 3t1 7q28 20 71.5 57.5t54.5 46.5q9 9 71 -16q37 -14 34 -19l-4 -2q-108 -27 -222 -77zM227 81q0 -44 12.5 -56.5t58.5 -12.5q3 0 3 -6t-3 -6q-16 0 -58.5 1t-69.5 1q-26 0 -69 -1t-59 -1q-2 0 -2 6t2 6q46 0 59.5 13t13.5 56v463q0 43 -13.5 56
t-59.5 13q-2 0 -2 6t2 6q16 0 59 -1.5t69 -1.5q28 0 70.5 1.5t57.5 1.5q3 0 3 -6t-3 -6q-45 0 -58 -13.5t-13 -57.5v-461z" />
    <glyph glyph-name="Icircumflex" unicode="&#xce;" horiz-adv-x="342" 
d="M57 702l103 116q4 4 11 4t12 -4l102 -116q2 -1 1.5 -3t-3 -3.5t-3.5 -0.5l-108 39l-109 -39q-1 0 -3 1t-3 3t0 3zM227 81q0 -44 12.5 -56.5t58.5 -12.5q3 0 3 -6t-3 -6q-16 0 -58.5 1t-69.5 1q-26 0 -69 -1t-59 -1q-2 0 -2 6t2 6q46 0 59.5 13t13.5 56v463q0 43 -13.5 56
t-59.5 13q-2 0 -2 6t2 6q16 0 59 -1.5t69 -1.5q28 0 70.5 1.5t57.5 1.5q3 0 3 -6t-3 -6q-45 0 -58 -13.5t-13 -57.5v-461z" />
    <glyph glyph-name="Idieresis" unicode="&#xcf;" horiz-adv-x="342" 
d="M95 703q-26 0 -40.5 14.5t-14.5 40.5q0 24 15 38t40 14t39 -14t14 -38q0 -26 -14 -40.5t-39 -14.5zM247 703q-25 0 -39 14.5t-14 40.5q0 24 14 37.5t39 13.5t38.5 -13.5t13.5 -37.5q0 -55 -52 -55zM227 81q0 -44 12.5 -56.5t58.5 -12.5q3 0 3 -6t-3 -6q-16 0 -58.5 1
t-69.5 1q-26 0 -69 -1t-59 -1q-2 0 -2 6t2 6q46 0 59.5 13t13.5 56v463q0 43 -13.5 56t-59.5 13q-2 0 -2 6t2 6q16 0 59 -1.5t69 -1.5q28 0 70.5 1.5t57.5 1.5q3 0 3 -6t-3 -6q-45 0 -58 -13.5t-13 -57.5v-461z" />
    <glyph glyph-name="Eth" unicode="&#xd0;" horiz-adv-x="705" 
d="M312 627q153 0 248.5 -86.5t95.5 -217.5q0 -146 -96 -236.5t-234 -90.5q-20 0 -80 3t-88 3q-26 0 -69 -1t-59 -1q-2 0 -2 6t2 6q46 0 59.5 13t13.5 56v216h-50q-5 0 -5 14t5 14h50v219q0 43 -13 56t-58 13q-3 0 -3 6t3 6q16 0 58 -1.5t68 -1.5t80 2.5t74 2.5zM316 19
q97 0 157 74t60 208q0 130 -58 217t-153 87q-62 0 -85 -12t-23 -51v-217h136q4 0 4 -14t-4 -14h-136v-205q0 -40 21 -56.5t81 -16.5z" />
    <glyph glyph-name="Ntilde" unicode="&#xd1;" horiz-adv-x="735" 
d="M262 697q-2 -2 -5.5 1.5t-2.5 5.5q46 81 88 81q11 0 54 -12t67 -12q28 0 51 27q2 2 6 -2q3 -3 1 -5q-26 -48 -43.5 -64.5t-39.5 -16.5q-17 0 -59.5 12t-65.5 12q-14 0 -24 -4.5t-12.5 -7t-14.5 -15.5zM723 625q2 0 2 -6t-2 -6q-40 0 -63 -31.5t-23 -84.5v-512
q0 -3 -4.5 -4t-6.5 1l-469 534v-389q0 -53 22 -84t61 -31q2 0 2 -6t-2 -6q-14 0 -46 1t-51 1q-21 0 -58.5 -1t-52.5 -1q-3 0 -3 6t3 6q44 0 69.5 31t25.5 84v423q-58 63 -105 63q-2 0 -2 6t2 6q13 0 40.5 -1t39.5 -1q27 0 65 1t45 1q8 0 12.5 -3.5t15.5 -19.5t22 -29
l346 -399v323q0 54 -22 85t-61 31q-2 0 -2 6t2 6q13 0 45 -1.5t52 -1.5q19 0 53 1.5t48 1.5z" />
    <glyph glyph-name="Ograve" unicode="&#xd2;" horiz-adv-x="766" 
d="M488 679q-112 50 -222 77q-13 3 15 15q52 24 80 24q4 -1 6 -2q13 -10 55.5 -47t69.5 -57q2 -1 2.5 -4t-1.5 -5t-5 -1zM366 -12q-141 0 -229 94t-88 230q0 78 32 141.5t83.5 102.5t112.5 59.5t124 20.5q142 0 229 -95t87 -222q0 -138 -103.5 -234.5t-247.5 -96.5zM399 13
q86 0 140.5 73.5t54.5 203.5q0 140 -63 229.5t-170 89.5q-91 0 -140 -68.5t-49 -191.5q0 -147 64 -241.5t163 -94.5z" />
    <glyph glyph-name="Oacute" unicode="&#xd3;" horiz-adv-x="766" 
d="M291 679q-4 -2 -6 3t1 7q28 20 71.5 57.5t54.5 46.5q9 9 71 -16q37 -14 34 -19l-4 -2q-108 -27 -222 -77zM366 -12q-141 0 -229 94t-88 230q0 78 32 141.5t83.5 102.5t112.5 59.5t124 20.5q142 0 229 -95t87 -222q0 -138 -103.5 -234.5t-247.5 -96.5zM399 13
q86 0 140.5 73.5t54.5 203.5q0 140 -63 229.5t-170 89.5q-91 0 -140 -68.5t-49 -191.5q0 -147 64 -241.5t163 -94.5z" />
    <glyph glyph-name="Ocircumflex" unicode="&#xd4;" horiz-adv-x="766" 
d="M274 702l103 116q5 4 12 4t11 -4l102 -116q2 -1 1.5 -3t-3 -3.5t-3.5 -0.5l-108 39l-109 -39q-1 0 -3 1t-3 3t0 3zM366 -12q-141 0 -229 94t-88 230q0 78 32 141.5t83.5 102.5t112.5 59.5t124 20.5q142 0 229 -95t87 -222q0 -138 -103.5 -234.5t-247.5 -96.5zM399 13
q86 0 140.5 73.5t54.5 203.5q0 140 -63 229.5t-170 89.5q-91 0 -140 -68.5t-49 -191.5q0 -147 64 -241.5t163 -94.5z" />
    <glyph glyph-name="Otilde" unicode="&#xd5;" horiz-adv-x="766" 
d="M469 761q28 0 51 27q1 1 3.5 0t3.5 -3.5t0 -3.5q-26 -48 -43.5 -64.5t-39.5 -16.5q-17 0 -59.5 12t-65.5 12q-14 0 -24 -4.5t-12.5 -7t-14.5 -15.5q-2 -2 -5.5 1.5t-2.5 5.5q46 81 88 81q11 0 54 -12t67 -12zM366 -12q-141 0 -229 94t-88 230q0 78 32 141.5t83.5 102.5
t112.5 59.5t124 20.5q142 0 229 -95t87 -222q0 -138 -103.5 -234.5t-247.5 -96.5zM399 13q86 0 140.5 73.5t54.5 203.5q0 140 -63 229.5t-170 89.5q-91 0 -140 -68.5t-49 -191.5q0 -147 64 -241.5t163 -94.5z" />
    <glyph glyph-name="Odieresis" unicode="&#xd6;" horiz-adv-x="766" 
d="M302 703q-26 0 -40.5 14.5t-14.5 40.5q0 24 15 38t40 14t38.5 -14t13.5 -38q0 -55 -52 -55zM476 703q-26 0 -40 14.5t-14 40.5q0 24 14.5 37.5t39.5 13.5t38.5 -13.5t13.5 -37.5q0 -55 -52 -55zM366 -12q-141 0 -229 94t-88 230q0 78 32 141.5t83.5 102.5t112.5 59.5
t124 20.5q142 0 229 -95t87 -222q0 -138 -103.5 -234.5t-247.5 -96.5zM399 13q86 0 140.5 73.5t54.5 203.5q0 140 -63 229.5t-170 89.5q-91 0 -140 -68.5t-49 -191.5q0 -147 64 -241.5t163 -94.5z" />
    <glyph glyph-name="multiply" unicode="&#xd7;" horiz-adv-x="399" 
d="M333 91q2 -2 -5.5 -11.5t-17 -17.5t-11.5 -6l-99 99l-99 -100q-4 -3 -21.5 14t-15.5 20l101 101l-100 99q-2 4 15 21t19 15l101 -100l98 98q2 2 12 -6t17.5 -17.5t5.5 -10.5l-99 -99z" />
    <glyph glyph-name="Oslash" unicode="&#xd8;" horiz-adv-x="789" 
d="M631 540q86 -91 86 -221q0 -138 -103.5 -234.5t-247.5 -96.5q-119 0 -207 73l-69 -70q-1 -2 -7 2t-10 10t-2 8l68 69q-90 93 -90 232q0 78 32 141.5t83.5 102.5t112.5 59.5t124 20.5q123 0 210 -77l73 74q2 1 8 -2.5t10 -9t2 -7.5zM172 349q0 -112 39 -196l336 341
q-65 115 -186 115q-91 0 -140 -68.5t-49 -191.5zM399 13q86 0 140.5 73.5t54.5 203.5q0 101 -34 178l-336 -341q66 -114 175 -114z" />
    <glyph glyph-name="Ugrave" unicode="&#xd9;" horiz-adv-x="703" 
d="M473 679q-112 50 -222 77q-13 3 15 15q52 24 80 24q4 -1 6 -2q13 -10 55.5 -47t69.5 -57q2 -1 2.5 -4t-1.5 -5t-5 -1zM571 497q0 54 -24.5 85t-68.5 31q-2 0 -2 6t2 6q15 0 51 -1.5t58 -1.5q19 0 53 1.5t48 1.5q2 0 2 -6t-2 -6q-39 0 -61 -31t-22 -85v-278
q0 -106 -68.5 -169.5t-180.5 -63.5q-113 0 -183 63t-70 172v323q0 43 -13 56t-58 13q-3 0 -3 6t3 6q16 0 58 -1.5t68 -1.5q27 0 69.5 1.5t57.5 1.5q3 0 3 -6t-3 -6q-44 0 -57.5 -14t-13.5 -57v-286q0 -233 180 -233q83 0 130 50.5t47 144.5v279z" />
    <glyph glyph-name="Uacute" unicode="&#xda;" horiz-adv-x="703" 
d="M276 679q-4 -2 -6 3t1 7q28 20 71.5 57.5t54.5 46.5q9 9 71 -16q37 -14 34 -19l-4 -2q-108 -27 -222 -77zM571 497q0 54 -24.5 85t-68.5 31q-2 0 -2 6t2 6q15 0 51 -1.5t58 -1.5q19 0 53 1.5t48 1.5q2 0 2 -6t-2 -6q-39 0 -61 -31t-22 -85v-278q0 -106 -68.5 -169.5
t-180.5 -63.5q-113 0 -183 63t-70 172v323q0 43 -13 56t-58 13q-3 0 -3 6t3 6q16 0 58 -1.5t68 -1.5q27 0 69.5 1.5t57.5 1.5q3 0 3 -6t-3 -6q-44 0 -57.5 -14t-13.5 -57v-286q0 -233 180 -233q83 0 130 50.5t47 144.5v279z" />
    <glyph glyph-name="Ucircumflex" unicode="&#xdb;" horiz-adv-x="703" 
d="M259 702l103 116q4 4 11 4t12 -4l102 -116q2 -1 1.5 -3t-3 -3.5t-3.5 -0.5l-108 39l-109 -39q-1 0 -3 1t-3 3t0 3zM571 497q0 54 -24.5 85t-68.5 31q-2 0 -2 6t2 6q15 0 51 -1.5t58 -1.5q19 0 53 1.5t48 1.5q2 0 2 -6t-2 -6q-39 0 -61 -31t-22 -85v-278
q0 -106 -68.5 -169.5t-180.5 -63.5q-113 0 -183 63t-70 172v323q0 43 -13 56t-58 13q-3 0 -3 6t3 6q16 0 58 -1.5t68 -1.5q27 0 69.5 1.5t57.5 1.5q3 0 3 -6t-3 -6q-44 0 -57.5 -14t-13.5 -57v-286q0 -233 180 -233q83 0 130 50.5t47 144.5v279z" />
    <glyph glyph-name="Udieresis" unicode="&#xdc;" horiz-adv-x="703" 
d="M287 703q-26 0 -40.5 14.5t-14.5 40.5q0 24 15 38t40 14t38.5 -14t13.5 -38q0 -55 -52 -55zM461 703q-26 0 -40 14.5t-14 40.5q0 24 14.5 37.5t39.5 13.5t38.5 -13.5t13.5 -37.5q0 -55 -52 -55zM571 497q0 54 -24.5 85t-68.5 31q-2 0 -2 6t2 6q15 0 51 -1.5t58 -1.5
q19 0 53 1.5t48 1.5q2 0 2 -6t-2 -6q-39 0 -61 -31t-22 -85v-278q0 -106 -68.5 -169.5t-180.5 -63.5q-113 0 -183 63t-70 172v323q0 43 -13 56t-58 13q-3 0 -3 6t3 6q16 0 58 -1.5t68 -1.5q27 0 69.5 1.5t57.5 1.5q3 0 3 -6t-3 -6q-44 0 -57.5 -14t-13.5 -57v-286
q0 -233 180 -233q83 0 130 50.5t47 144.5v279z" />
    <glyph glyph-name="Yacute" unicode="&#xdd;" horiz-adv-x="619" 
d="M227 679q-4 -2 -6 3t1 7q28 20 71.5 57.5t54.5 46.5q9 9 71 -16q37 -14 34 -19l-4 -2q-108 -27 -222 -77zM625 625q2 0 2 -6t-2 -6q-31 0 -76 -38.5t-80 -96.5l-104 -174v-223q0 -44 12.5 -56.5t58.5 -12.5q3 0 3 -6t-3 -6q-16 0 -58 1t-69 1q-26 0 -69 -1t-59 -1
q-2 0 -2 6t2 6q46 0 59.5 13t13.5 56v202l-146 227q-67 103 -103 103q-3 0 -3 6t3 6q10 0 31 -1.5t31 -1.5q31 0 91.5 1.5t75.5 1.5q2 0 2 -6t-2 -6q-29 0 -35 -20t13 -47l137 -216l92 157q33 55 25 90.5t-54 35.5q-3 0 -3 6t3 6q18 0 59.5 -1.5t75.5 -1.5q17 0 40 1.5
t38 1.5z" />
    <glyph glyph-name="Thorn" unicode="&#xde;" horiz-adv-x="549" 
d="M297 147q42 0 70.5 43.5t28.5 125.5q0 79 -32.5 120t-87.5 41q-29 0 -64 -5v-387q0 -46 17.5 -59.5t78.5 -13.5q2 0 2 -6t-2 -6q-20 0 -70 1t-81 1q-23 0 -62.5 -1t-53.5 -1q-3 0 -3 6t3 6q38 0 49 12.5t11 56.5v463q0 43 -11 56t-49 13q-3 0 -3 6t3 6q15 0 54 -1.5
t62 -1.5q31 0 81 1.5t70 1.5q2 0 2 -6t-2 -6q-61 0 -78.5 -14t-17.5 -60v-45q41 5 89 5q96 0 154.5 -38.5t61.5 -124.5q2 -98 -63 -150.5t-146 -52.5q-23 0 -50 5q-1 0 -1.5 2.5t0 5t1.5 4t3 1.5q24 -4 36 -4z" />
    <glyph glyph-name="germandbls" unicode="&#xdf;" horiz-adv-x="570" 
d="M380 -11q-56 0 -104 27q-6 6 -6 12l-2 111q0 3 5 3.5t7 -2.5q24 -52 62 -90.5t64 -38.5q25 0 35.5 22.5t7.5 51.5q-1 10 -4 19.5t-6 17t-10 17.5t-11 15.5t-14 16t-14 14.5t-16 15.5t-15 14.5q-32 31 -45 44.5t-29 41.5t-16 55q0 32 21.5 68t43.5 77t22 86q0 49 -21.5 85
t-61.5 36q-101 0 -101 -262v-365q0 -44 9.5 -56.5t45.5 -12.5q2 0 2 -6t-2 -6q-18 0 -51.5 0.5t-50.5 0.5q-21 0 -58 -0.5t-49 -0.5q-3 0 -3 6t3 6q37 0 48 13t11 56l-1 367q0 134 60.5 206t179.5 72q69 0 108 -24t39 -72q0 -34 -21.5 -62.5t-47 -45t-47 -40.5t-21.5 -49
q0 -21 16 -46.5t31 -40.5t49 -47q39 -36 57 -54.5t38 -51.5t20 -63q0 -53 -45.5 -97t-111.5 -44z" />
    <glyph glyph-name="agrave" unicode="&#xe0;" horiz-adv-x="421" 
d="M220 474l-121 253q2 4 23.5 3t48 -5.5t27.5 -8.5l32 -240q0 -2 -4.5 -3.5t-5.5 1.5zM418 54q2 1 4.5 -1.5t2.5 -5t-3 -4.5l-103 -49q-4 -2 -10 -2q-15 0 -29.5 15t-20.5 41l-46 -25q-58 -30 -104 -30q-32 0 -50.5 16.5t-18.5 47.5q0 33 23 48.5t90 37.5l102 33v79
q0 117 -51 117q-50 0 -55 -77q-6 -56 -59 -56q-47 0 -47 41t71 78t129 37q47 0 76.5 -28t29.5 -82v-177q0 -61 40 -61q14 0 29 7zM243 57l13 7q-1 7 -1 21v74l-55 -20q-50 -18 -50 -51q0 -21 12 -33t30 -12q22 0 51 14z" />
    <glyph glyph-name="aacute" unicode="&#xe1;" horiz-adv-x="421" 
d="M212 474q0 -2 -3 -2t-5.5 1.5t-2.5 2.5l33 240q4 9 67 14q34 3 31 -3zM418 54q2 1 4.5 -1.5t2.5 -5t-3 -4.5l-103 -49q-4 -2 -10 -2q-15 0 -29.5 15t-20.5 41l-46 -25q-58 -30 -104 -30q-32 0 -50.5 16.5t-18.5 47.5q0 33 23 48.5t90 37.5l102 33v79q0 117 -51 117
q-50 0 -55 -77q-6 -56 -59 -56q-47 0 -47 41t71 78t129 37q47 0 76.5 -28t29.5 -82v-177q0 -61 40 -61q14 0 29 7zM243 57l13 7q-1 7 -1 21v74l-55 -20q-50 -18 -50 -51q0 -21 12 -33t30 -12q22 0 51 14z" />
    <glyph glyph-name="acircumflex" unicode="&#xe2;" horiz-adv-x="421" 
d="M146 474q-1 -2 -4 -2t-5 1.5t-2 2.5l68 249q1 5 11 5t12 -5l67 -249q2 -2 -3.5 -3.5t-6.5 1.5l-68 108zM418 54q2 1 4.5 -1.5t2.5 -5t-3 -4.5l-103 -49q-4 -2 -10 -2q-15 0 -29.5 15t-20.5 41l-46 -25q-58 -30 -104 -30q-32 0 -50.5 16.5t-18.5 47.5q0 33 23 48.5
t90 37.5l102 33v79q0 117 -51 117q-50 0 -55 -77q-6 -56 -59 -56q-47 0 -47 41t71 78t129 37q47 0 76.5 -28t29.5 -82v-177q0 -61 40 -61q14 0 29 7zM243 57l13 7q-1 7 -1 21v74l-55 -20q-50 -18 -50 -51q0 -21 12 -33t30 -12q22 0 51 14z" />
    <glyph glyph-name="atilde" unicode="&#xe3;" horiz-adv-x="421" 
d="M88 470q-1 -1 -3.5 0t-3.5 3t0 4q45 81 87 81q12 0 55 -12.5t66 -12.5q28 0 51 27q1 1 3.5 0t3.5 -3t0 -4q-27 -48 -43.5 -64t-39.5 -16q-17 0 -59 12t-66 12q-14 0 -24 -4.5t-12.5 -7t-14.5 -15.5zM418 54q2 1 4.5 -1.5t2.5 -5t-3 -4.5l-103 -49q-4 -2 -10 -2
q-15 0 -29.5 15t-20.5 41l-46 -25q-58 -30 -104 -30q-32 0 -50.5 16.5t-18.5 47.5q0 33 23 48.5t90 37.5l102 33v79q0 117 -51 117q-50 0 -55 -77q-6 -56 -59 -56q-47 0 -47 41t71 78t129 37q47 0 76.5 -28t29.5 -82v-177q0 -61 40 -61q14 0 29 7zM243 57l13 7q-1 7 -1 21
v74l-55 -20q-50 -18 -50 -51q0 -21 12 -33t30 -12q22 0 51 14z" />
    <glyph glyph-name="adieresis" unicode="&#xe4;" horiz-adv-x="421" 
d="M128 464q-26 0 -40.5 14.5t-14.5 40.5q0 24 15 38t40 14t38.5 -14t13.5 -38q0 -55 -52 -55zM302 464q-26 0 -40 14.5t-14 40.5q0 24 14.5 37.5t39.5 13.5t38.5 -13.5t13.5 -37.5q0 -55 -52 -55zM418 54q2 1 4.5 -1.5t2.5 -5t-3 -4.5l-103 -49q-4 -2 -10 -2
q-15 0 -29.5 15t-20.5 41l-46 -25q-58 -30 -104 -30q-32 0 -50.5 16.5t-18.5 47.5q0 33 23 48.5t90 37.5l102 33v79q0 117 -51 117q-50 0 -55 -77q-6 -56 -59 -56q-47 0 -47 41t71 78t129 37q47 0 76.5 -28t29.5 -82v-177q0 -61 40 -61q14 0 29 7zM243 57l13 7q-1 7 -1 21
v74l-55 -20q-50 -18 -50 -51q0 -21 12 -33t30 -12q22 0 51 14z" />
    <glyph glyph-name="aring" unicode="&#xe5;" horiz-adv-x="421" 
d="M205 468q-48 0 -77 23.5t-29 55.5q0 36 36 57t80 21t75 -23.5t31 -56.5q0 -35 -35 -56t-81 -21zM195 611q-24 0 -24 -44q0 -33 13.5 -59t36.5 -26q26 0 26 45q0 34 -15 59t-37 25zM418 54q2 1 4.5 -1.5t2.5 -5t-3 -4.5l-103 -49q-4 -2 -10 -2q-15 0 -29.5 15t-20.5 41
l-46 -25q-58 -30 -104 -30q-32 0 -50.5 16.5t-18.5 47.5q0 33 23 48.5t90 37.5l102 33v79q0 117 -51 117q-50 0 -55 -77q-6 -56 -59 -56q-47 0 -47 41t71 78t129 37q47 0 76.5 -28t29.5 -82v-177q0 -61 40 -61q14 0 29 7zM243 57l13 7q-1 7 -1 21v74l-55 -20
q-50 -18 -50 -51q0 -21 12 -33t30 -12q22 0 51 14z" />
    <glyph glyph-name="ae" unicode="&#xe6;" horiz-adv-x="589" 
d="M571 65q4 4 7 -4v-5q-71 -68 -158 -68q-105 0 -152 68l-61 -33q-57 -30 -104 -30q-32 0 -50.5 16.5t-18.5 47.5q0 33 23 48.5t90 37.5l88 28q-5 140 -17 171q-11 31 -38 31q-49 0 -49 -82q0 -50 -51 -50q-52 0 -52 44q0 35 59 72.5t115 37.5q70 0 103 -55q61 55 146 55
q59 0 90.5 -28t31.5 -80q0 -11 -3 -15.5t-12 -4.5h-81l-137 -2q-3 -23 -3 -50q0 -181 126 -181q67 0 108 31zM418 375q-57 0 -75 -90l122 4q0 42 -12.5 64t-34.5 22zM237 57l23 12q-20 35 -24 85l-42 -15q-44 -17 -44 -51q0 -20 12 -32t31 -12q18 0 44 13z" />
    <glyph glyph-name="ccedilla" unicode="&#xe7;" horiz-adv-x="425" 
d="M234 -12h-4q-10 -53 38 -80q55 -33 55 -78q0 -42 -30.5 -73.5t-91.5 -31.5q-75 0 -75 48q0 15 12 27t28 12q19 0 28.5 -10t11 -21.5t10 -21.5t25.5 -10q22 0 22 24q0 26 -18.5 47t-64.5 47q-14 5 -5 28q18 44 36 94q-87 8 -133 65.5t-46 131.5q0 94 73 151.5t163 57.5
q48 0 86.5 -20t38.5 -55q0 -19 -14.5 -32.5t-40.5 -13.5q-44 0 -61 51q-6 19 -10 27.5t-13.5 15t-24.5 6.5q-43 0 -68.5 -42.5t-25.5 -112.5q0 -83 37 -132.5t118 -49.5q41 0 96 26q2 2 5.5 -2t1.5 -6q-73 -67 -159 -67z" />
    <glyph glyph-name="egrave" unicode="&#xe8;" horiz-adv-x="418" 
d="M241 474l-121 253q2 4 23.5 3t48 -5.5t27.5 -8.5l32 -240q0 -2 -4.5 -3.5t-5.5 1.5zM386 65q4 4 7 -4v-5q-69 -68 -158 -68q-93 0 -148 56.5t-55 136.5q0 89 65.5 151.5t162.5 62.5q62 0 95 -26.5t33 -72.5q0 -29 -11 -29h-61l-180 -2q-3 -19 -3 -42q0 -86 40.5 -136
t111.5 -50q57 0 101 28zM223 375q-30 0 -52 -24t-32 -66l142 3q-3 87 -58 87z" />
    <glyph glyph-name="eacute" unicode="&#xe9;" horiz-adv-x="418" 
d="M233 474q0 -2 -3 -2t-5.5 1.5t-2.5 2.5l33 240q4 9 67 14q34 3 31 -3zM386 65q4 4 7 -4v-5q-69 -68 -158 -68q-93 0 -148 56.5t-55 136.5q0 89 65.5 151.5t162.5 62.5q62 0 95 -26.5t33 -72.5q0 -29 -11 -29h-61l-180 -2q-3 -19 -3 -42q0 -86 40.5 -136t111.5 -50
q57 0 101 28zM223 375q-30 0 -52 -24t-32 -66l142 3q-3 87 -58 87z" />
    <glyph glyph-name="ecircumflex" unicode="&#xea;" horiz-adv-x="418" 
d="M167 474q-1 -2 -4 -2t-5 1.5t-2 2.5l68 249q1 5 11 5t12 -5l67 -249q2 -2 -3.5 -3.5t-6.5 1.5l-68 108zM386 65q4 4 7 -4v-5q-69 -68 -158 -68q-93 0 -148 56.5t-55 136.5q0 89 65.5 151.5t162.5 62.5q62 0 95 -26.5t33 -72.5q0 -29 -11 -29h-61l-180 -2q-3 -19 -3 -42
q0 -86 40.5 -136t111.5 -50q57 0 101 28zM223 375q-30 0 -52 -24t-32 -66l142 3q-3 87 -58 87z" />
    <glyph glyph-name="edieresis" unicode="&#xeb;" horiz-adv-x="418" 
d="M149 464q-26 0 -40.5 14.5t-14.5 40.5q0 24 15 38t40 14t38.5 -14t13.5 -38q0 -55 -52 -55zM323 464q-26 0 -40 14.5t-14 40.5q0 24 14.5 37.5t39.5 13.5t38.5 -13.5t13.5 -37.5q0 -55 -52 -55zM386 65q4 4 7 -4v-5q-69 -68 -158 -68q-93 0 -148 56.5t-55 136.5
q0 89 65.5 151.5t162.5 62.5q62 0 95 -26.5t33 -72.5q0 -29 -11 -29h-61l-180 -2q-3 -19 -3 -42q0 -86 40.5 -136t111.5 -50q57 0 101 28zM223 375q-30 0 -52 -24t-32 -66l142 3q-3 87 -58 87z" />
    <glyph glyph-name="igrave" unicode="&#xec;" horiz-adv-x="263" 
d="M20 727q2 4 23.5 3t48 -5.5t27.5 -8.5l32 -240q0 -2 -4.5 -3.5t-5.5 1.5zM39 0q-3 0 -3 6t3 6q31 0 42 14.5t11 54.5v179q0 64 -30 64q-13 0 -37 -11q-2 -1 -4.5 2t-3 6t1.5 4l151 70q2 1 3 1q5 0 10 -5t5 -9q0 -1 -1 -40t-1 -80v-181q0 -40 11.5 -54.5t42.5 -14.5
q3 0 3 -6t-3 -6q-12 0 -46 1t-55 1t-55 -1t-45 -1z" />
    <glyph glyph-name="iacute" unicode="&#xed;" horiz-adv-x="263" 
d="M133 474q0 -2 -3 -2t-5.5 1.5t-2.5 2.5l33 240q4 9 67 14q34 3 31 -3zM39 0q-3 0 -3 6t3 6q31 0 42 14.5t11 54.5v179q0 64 -30 64q-13 0 -37 -11q-2 -1 -4.5 2t-3 6t1.5 4l151 70q2 1 3 1q5 0 10 -5t5 -9q0 -1 -1 -40t-1 -80v-181q0 -40 11.5 -54.5t42.5 -14.5q3 0 3 -6
t-3 -6q-12 0 -46 1t-55 1t-55 -1t-45 -1z" />
    <glyph glyph-name="icircumflex" unicode="&#xee;" horiz-adv-x="263" 
d="M214 476q2 -2 -3.5 -3.5t-6.5 1.5l-68 108l-69 -108q-1 -2 -4 -2t-5 1.5t-2 2.5l68 249q1 5 11 5t12 -5zM39 0q-3 0 -3 6t3 6q31 0 42 14.5t11 54.5v179q0 64 -30 64q-13 0 -37 -11q-2 -1 -4.5 2t-3 6t1.5 4l151 70q2 1 3 1q5 0 10 -5t5 -9q0 -1 -1 -40t-1 -80v-181
q0 -40 11.5 -54.5t42.5 -14.5q3 0 3 -6t-3 -6q-12 0 -46 1t-55 1t-55 -1t-45 -1z" />
    <glyph glyph-name="idieresis" unicode="&#xef;" horiz-adv-x="263" 
d="M59 464q-26 0 -40.5 14.5t-14.5 40.5q0 24 15 38t40 14t39 -14t14 -38q0 -26 -14 -40.5t-39 -14.5zM211 464q-25 0 -39 14.5t-14 40.5q0 24 14 37.5t39 13.5t38.5 -13.5t13.5 -37.5q0 -55 -52 -55zM39 0q-3 0 -3 6t3 6q31 0 42 14.5t11 54.5v179q0 64 -30 64
q-13 0 -37 -11q-2 -1 -4.5 2t-3 6t1.5 4l151 70q2 1 3 1q5 0 10 -5t5 -9q0 -1 -1 -40t-1 -80v-181q0 -40 11.5 -54.5t42.5 -14.5q3 0 3 -6t-3 -6q-12 0 -46 1t-55 1t-55 -1t-45 -1z" />
    <glyph glyph-name="eth" unicode="&#xf0;" horiz-adv-x="470" 
d="M311 572q69 -75 107 -165t38 -180q0 -121 -65.5 -180.5t-167.5 -59.5q-94 0 -151.5 58t-57.5 141q0 52 21.5 94.5t55.5 67.5t72 38t76 13q45 0 85 -20q-28 91 -74 164l-125 -59q-4 -1 -9 6.5t-6.5 15.5t1.5 11l120 57q-60 86 -141 142q-6 2 1 8q3 2 5 1q109 -48 188 -126
l101 48q4 1 9.5 -6.5t7 -15t-2.5 -11.5zM251 9q49 0 75 41t26 141q0 58 -11 118q-43 68 -109 68q-51 0 -83 -42t-32 -120q0 -87 37.5 -146.5t96.5 -59.5z" />
    <glyph glyph-name="ntilde" unicode="&#xf1;" horiz-adv-x="526" 
d="M151 470q-1 -1 -3.5 0t-3.5 3t0 4q45 81 87 81q11 0 54 -12.5t67 -12.5q28 0 51 27q1 1 3.5 0t3.5 -3t0 -4q-27 -48 -43.5 -64t-39.5 -16q-17 0 -59 12t-66 12q-14 0 -24 -4.5t-12.5 -7t-14.5 -15.5zM509 12q3 0 3 -6t-3 -6q-12 0 -46 1t-55 1q-20 0 -54 -1t-46 -1
q-3 0 -3 6t3 6q31 0 42 14.5t11 54.5v144q0 106 -81 106q-52 0 -94 -37v-213q0 -40 11.5 -54.5t42.5 -14.5q3 0 3 -6t-3 -6q-12 0 -46 1t-55 1t-55 -1t-45 -1q-3 0 -3 6t3 6q31 0 42 14.5t11 54.5v188q0 60 -31 60q-17 0 -48 -14q-2 -1 -4.5 1.5t-2.5 5.5t1 4l139 68
q6 2 7 2q11 0 21 -21.5t12 -58.5q69 82 152 82q54 0 85.5 -34.5t31.5 -90.5v-192q0 -40 11.5 -54.5t42.5 -14.5z" />
    <glyph glyph-name="ograve" unicode="&#xf2;" horiz-adv-x="489" 
d="M131 727q2 4 23.5 3t48 -5.5t27.5 -8.5l32 -240q0 -2 -4.5 -3.5t-5.5 1.5zM237 -13q-92 0 -148.5 61.5t-56.5 149.5q0 96 68 148.5t154 52.5q92 0 147.5 -62t55.5 -145q0 -90 -65 -147.5t-155 -57.5zM267 8q80 0 80 149q0 104 -37.5 162.5t-89.5 58.5q-80 0 -80 -143
q0 -101 36.5 -164t90.5 -63z" />
    <glyph glyph-name="oacute" unicode="&#xf3;" horiz-adv-x="489" 
d="M244 474q0 -2 -3 -2t-5.5 1.5t-2.5 2.5l33 240q4 9 67 14q34 3 31 -3zM237 -13q-92 0 -148.5 61.5t-56.5 149.5q0 96 68 148.5t154 52.5q92 0 147.5 -62t55.5 -145q0 -90 -65 -147.5t-155 -57.5zM267 8q80 0 80 149q0 104 -37.5 162.5t-89.5 58.5q-80 0 -80 -143
q0 -101 36.5 -164t90.5 -63z" />
    <glyph glyph-name="ocircumflex" unicode="&#xf4;" horiz-adv-x="489" 
d="M325 476q2 -2 -3.5 -3.5t-6.5 1.5l-68 108l-69 -108q-1 -2 -4 -2t-5 1.5t-2 2.5l68 249q1 5 11 5t12 -5zM237 -13q-92 0 -148.5 61.5t-56.5 149.5q0 96 68 148.5t154 52.5q92 0 147.5 -62t55.5 -145q0 -90 -65 -147.5t-155 -57.5zM267 8q80 0 80 149q0 104 -37.5 162.5
t-89.5 58.5q-80 0 -80 -143q0 -101 36.5 -164t90.5 -63z" />
    <glyph glyph-name="otilde" unicode="&#xf5;" horiz-adv-x="489" 
d="M321 533q28 0 51 27q1 1 3.5 0t3.5 -3t0 -4q-27 -48 -43.5 -64t-39.5 -16q-17 0 -59 12t-66 12q-14 0 -24 -4.5t-12.5 -7t-14.5 -15.5q-1 -1 -3.5 0t-3.5 3t0 4q45 81 87 81q12 0 55 -12.5t66 -12.5zM237 -13q-92 0 -148.5 61.5t-56.5 149.5q0 96 68 148.5t154 52.5
q92 0 147.5 -62t55.5 -145q0 -90 -65 -147.5t-155 -57.5zM267 8q80 0 80 149q0 104 -37.5 162.5t-89.5 58.5q-80 0 -80 -143q0 -101 36.5 -164t90.5 -63z" />
    <glyph glyph-name="odieresis" unicode="&#xf6;" horiz-adv-x="489" 
d="M160 464q-26 0 -40.5 14.5t-14.5 40.5q0 24 15 38t40 14t38.5 -14t13.5 -38q0 -55 -52 -55zM334 464q-26 0 -40 14.5t-14 40.5q0 24 14.5 37.5t39.5 13.5t38.5 -13.5t13.5 -37.5q0 -55 -52 -55zM237 -13q-92 0 -148.5 61.5t-56.5 149.5q0 96 68 148.5t154 52.5
q92 0 147.5 -62t55.5 -145q0 -90 -65 -147.5t-155 -57.5zM267 8q80 0 80 149q0 104 -37.5 162.5t-89.5 58.5q-80 0 -80 -143q0 -101 36.5 -164t90.5 -63z" />
    <glyph glyph-name="divide" unicode="&#xf7;" horiz-adv-x="398" 
d="M199 274q-29 0 -45 16t-16 45q0 26 16.5 41.5t44.5 15.5q27 0 42.5 -15t15.5 -42q0 -61 -58 -61zM34 165q-3 0 -4 12.5t0 24.5t3 12h331q4 0 4 -24.5t-4 -24.5h-330zM199 -11q-29 0 -45 16.5t-16 44.5q0 26 16.5 42t44.5 16q27 0 42.5 -15.5t15.5 -42.5q0 -29 -15 -45
t-43 -16z" />
    <glyph glyph-name="oslash" unicode="&#xf8;" horiz-adv-x="477" 
d="M400 338q57 -60 57 -146q0 -90 -65 -147.5t-155 -57.5q-78 0 -132 46l-48 -49q-1 -2 -7 2t-10.5 10t-2.5 8l47 49q-52 60 -52 145q0 96 68 148.5t154 52.5q73 0 126 -42l43 44q2 2 8 -2t10 -9.5t2 -7.5zM140 235q0 -62 14 -110l167 171q-36 82 -101 82q-80 0 -80 -143z
M267 8q80 0 80 149q0 65 -15 111l-167 -173q36 -87 102 -87z" />
    <glyph glyph-name="ugrave" unicode="&#xf9;" horiz-adv-x="505" 
d="M263 474l-121 253q2 4 23.5 3t48 -5.5t27.5 -8.5l32 -240q0 -2 -4.5 -3.5t-5.5 1.5zM497 65q2 1 5 -1.5t3.5 -5.5t-1.5 -4l-138 -67q-2 -1 -5 -1q-23 0 -26 80q-66 -78 -143 -78q-55 0 -86.5 34.5t-31.5 90.5v147q0 65 -31 65q-11 0 -25 -7q-2 -1 -4.5 2t-3 6t1.5 4
l134 64q3 1 5 1q5 0 10.5 -4.5t5.5 -8.5v-221q0 -108 83 -108q46 0 85 36v171q0 65 -31 65q-11 0 -26 -7q-2 -1 -4 2t-2.5 6t1.5 4l134 64q2 1 5 1q5 0 10.5 -4.5t5.5 -8.5v-266q0 -34 6.5 -48t21.5 -14q14 0 41 11z" />
    <glyph glyph-name="uacute" unicode="&#xfa;" horiz-adv-x="505" 
d="M255 474q0 -2 -3 -2t-5.5 1.5t-2.5 2.5l33 240q4 9 67 14q34 3 31 -3zM497 65q2 1 5 -1.5t3.5 -5.5t-1.5 -4l-138 -67q-2 -1 -5 -1q-23 0 -26 80q-66 -78 -143 -78q-55 0 -86.5 34.5t-31.5 90.5v147q0 65 -31 65q-11 0 -25 -7q-2 -1 -4.5 2t-3 6t1.5 4l134 64q3 1 5 1
q5 0 10.5 -4.5t5.5 -8.5v-221q0 -108 83 -108q46 0 85 36v171q0 65 -31 65q-11 0 -26 -7q-2 -1 -4 2t-2.5 6t1.5 4l134 64q2 1 5 1q5 0 10.5 -4.5t5.5 -8.5v-266q0 -34 6.5 -48t21.5 -14q14 0 41 11z" />
    <glyph glyph-name="ucircumflex" unicode="&#xfb;" horiz-adv-x="505" 
d="M189 474q-1 -2 -4 -2t-5 1.5t-2 2.5l68 249q1 5 11 5t12 -5l67 -249q2 -2 -3.5 -3.5t-6.5 1.5l-68 108zM497 65q2 1 5 -1.5t3.5 -5.5t-1.5 -4l-138 -67q-2 -1 -5 -1q-23 0 -26 80q-66 -78 -143 -78q-55 0 -86.5 34.5t-31.5 90.5v147q0 65 -31 65q-11 0 -25 -7
q-2 -1 -4.5 2t-3 6t1.5 4l134 64q3 1 5 1q5 0 10.5 -4.5t5.5 -8.5v-221q0 -108 83 -108q46 0 85 36v171q0 65 -31 65q-11 0 -26 -7q-2 -1 -4 2t-2.5 6t1.5 4l134 64q2 1 5 1q5 0 10.5 -4.5t5.5 -8.5v-266q0 -34 6.5 -48t21.5 -14q14 0 41 11z" />
    <glyph glyph-name="udieresis" unicode="&#xfc;" horiz-adv-x="505" 
d="M171 464q-26 0 -40.5 14.5t-14.5 40.5q0 24 15 38t40 14t38.5 -14t13.5 -38q0 -55 -52 -55zM345 464q-26 0 -40 14.5t-14 40.5q0 24 14.5 37.5t39.5 13.5t38.5 -13.5t13.5 -37.5q0 -55 -52 -55zM497 65q2 1 5 -1.5t3.5 -5.5t-1.5 -4l-138 -67q-2 -1 -5 -1q-23 0 -26 80
q-66 -78 -143 -78q-55 0 -86.5 34.5t-31.5 90.5v147q0 65 -31 65q-11 0 -25 -7q-2 -1 -4.5 2t-3 6t1.5 4l134 64q3 1 5 1q5 0 10.5 -4.5t5.5 -8.5v-221q0 -108 83 -108q46 0 85 36v171q0 65 -31 65q-11 0 -26 -7q-2 -1 -4 2t-2.5 6t1.5 4l134 64q2 1 5 1q5 0 10.5 -4.5
t5.5 -8.5v-266q0 -34 6.5 -48t21.5 -14q14 0 41 11z" />
    <glyph glyph-name="yacute" unicode="&#xfd;" horiz-adv-x="427" 
d="M220 474q0 -2 -3 -2t-5.5 1.5t-2.5 2.5l33 240q4 9 67 14q34 3 31 -3zM441 386q2 0 2 -6t-2 -6q-58 0 -98 -107l-111 -295q-53 -140 -101.5 -196.5t-107.5 -56.5q-62 0 -62 49q0 23 14 35t34 12q17 0 37 -13t36 -13q33 0 60 40.5t68 150.5l-160 323q-22 43 -34.5 57
t-30.5 14q-3 0 -3 6t3 6q14 0 42.5 -1t42.5 -1q26 0 62.5 1t49.5 1q3 0 3 -6t-3 -6q-36 0 -45.5 -8t1.5 -31l118 -241l60 174q17 49 2.5 77.5t-55.5 28.5q-2 0 -2 6t2 6q14 0 45 -1t56 -1q16 0 39.5 1t37.5 1z" />
    <glyph glyph-name="thorn" unicode="&#xfe;" horiz-adv-x="496" 
d="M243 -13q-48 0 -85 11v-192q0 -43 16.5 -56t72.5 -13q2 0 2 -6t-2 -6q-18 0 -64 1t-73 1q-21 0 -55.5 -1t-46.5 -1q-2 0 -2 6t2 6q35 0 45.5 13t10.5 56v783q0 35 -6.5 50t-22.5 15q-13 0 -37 -11q-4 -2 -8 6q-1 5 1 6l146 69q2 1 5 1q5 0 10.5 -4.5t5.5 -8.5v-377
q73 64 147 64q66 0 112.5 -50t46.5 -134q0 -61 -20 -107t-53.5 -71.5t-70.5 -37.5t-77 -12zM240 343q-45 0 -82 -32v-250q44 -49 104 -49q102 0 102 172q0 76 -35.5 117.5t-88.5 41.5z" />
    <glyph glyph-name="ydieresis" unicode="&#xff;" horiz-adv-x="427" 
d="M136 464q-26 0 -40.5 14.5t-14.5 40.5q0 24 15 38t40 14t38.5 -14t13.5 -38q0 -55 -52 -55zM310 464q-26 0 -40 14.5t-14 40.5q0 24 14.5 37.5t39.5 13.5t38.5 -13.5t13.5 -37.5q0 -55 -52 -55zM441 386q2 0 2 -6t-2 -6q-58 0 -98 -107l-111 -295q-53 -140 -101.5 -196.5
t-107.5 -56.5q-62 0 -62 49q0 23 14 35t34 12q17 0 37 -13t36 -13q33 0 60 40.5t68 150.5l-160 323q-22 43 -34.5 57t-30.5 14q-3 0 -3 6t3 6q14 0 42.5 -1t42.5 -1q26 0 62.5 1t49.5 1q3 0 3 -6t-3 -6q-36 0 -45.5 -8t1.5 -31l118 -241l60 174q17 49 2.5 77.5t-55.5 28.5
q-2 0 -2 6t2 6q14 0 45 -1t56 -1q16 0 39.5 1t37.5 1z" />
    <glyph glyph-name="Amacron" unicode="&#x100;" 
d="M228 713q-10 0 -10 18.5t10 18.5h251q11 0 11 -18.5t-11 -18.5h-251zM717 12q5 0 5 -6t-5 -6q-20 0 -62.5 2t-62.5 2q-24 0 -59.5 -2t-55.5 -2q-5 0 -5 6t5 6q41 0 47.5 16.5t-18.5 65.5l-104 205h-178l-71 -157q-25 -60 -1 -95t82 -35q4 0 4 -6t-4 -6q-19 0 -55 2t-63 2
t-62.5 -2t-57.5 -2q-4 0 -4 6t4 6q40 0 66 27.5t64 112.5l217 477q1 3 8.5 3.5t9.5 -3.5l250 -492q35 -71 58 -98t48 -27zM237 327h151l-80 158z" />
    <glyph glyph-name="amacron" unicode="&#x101;" horiz-adv-x="421" 
d="M88 474q-10 0 -10 18.5t10 18.5h251q11 0 11 -18.5t-11 -18.5h-251zM418 54q2 1 4.5 -1.5t2.5 -5t-3 -4.5l-103 -49q-4 -2 -10 -2q-15 0 -29.5 15t-20.5 41l-46 -25q-58 -30 -104 -30q-32 0 -50.5 16.5t-18.5 47.5q0 33 23 48.5t90 37.5l102 33v79q0 117 -51 117
q-50 0 -55 -77q-6 -56 -59 -56q-47 0 -47 41t71 78t129 37q47 0 76.5 -28t29.5 -82v-177q0 -61 40 -61q14 0 29 7zM243 57l13 7q-1 7 -1 21v74l-55 -20q-50 -18 -50 -51q0 -21 12 -33t30 -12q22 0 51 14z" />
    <glyph glyph-name="Abreve" unicode="&#x102;" 
d="M354 690q-50 0 -76.5 32.5t-26.5 94.5q0 2 2.5 3t5.5 0t3 -2q0 -18 27 -34t65 -16q37 0 64 16t27 34q0 1 2.5 2t5.5 0t3 -3q0 -127 -102 -127zM717 12q5 0 5 -6t-5 -6q-20 0 -62.5 2t-62.5 2q-24 0 -59.5 -2t-55.5 -2q-5 0 -5 6t5 6q41 0 47.5 16.5t-18.5 65.5l-104 205
h-178l-71 -157q-25 -60 -1 -95t82 -35q4 0 4 -6t-4 -6q-19 0 -55 2t-63 2t-62.5 -2t-57.5 -2q-4 0 -4 6t4 6q40 0 66 27.5t64 112.5l217 477q1 3 8.5 3.5t9.5 -3.5l250 -492q35 -71 58 -98t48 -27zM237 327h151l-80 158z" />
    <glyph glyph-name="abreve" unicode="&#x103;" horiz-adv-x="421" 
d="M214 463q-50 0 -76.5 41.5t-26.5 120.5q0 2 2.5 3t5.5 0t3 -2q0 -32 26.5 -56t65.5 -24q38 0 64.5 24.5t26.5 55.5q0 1 2.5 2t5.5 0t3 -3q0 -162 -102 -162zM418 54q2 1 4.5 -1.5t2.5 -5t-3 -4.5l-103 -49q-4 -2 -10 -2q-15 0 -29.5 15t-20.5 41l-46 -25
q-58 -30 -104 -30q-32 0 -50.5 16.5t-18.5 47.5q0 33 23 48.5t90 37.5l102 33v79q0 117 -51 117q-50 0 -55 -77q-6 -56 -59 -56q-47 0 -47 41t71 78t129 37q47 0 76.5 -28t29.5 -82v-177q0 -61 40 -61q14 0 29 7zM243 57l13 7q-1 7 -1 21v74l-55 -20q-50 -18 -50 -51
q0 -21 12 -33t30 -12q22 0 51 14z" />
    <glyph glyph-name="Aogonek" unicode="&#x104;" 
d="M717 9q5 0 5 -5.5t-5 -5.5q-24 0 -59.5 1.5t-52.5 1.5q-50 0 -75.5 -30.5t-25.5 -85.5t24.5 -86.5t60.5 -31.5q23 0 43 11q2 2 5.5 -2t1.5 -6q-52 -45 -112 -45q-55 0 -86.5 30t-31.5 77q0 33 17 60.5t38 43.5t39 39.5t20.5 48.5t-17.5 70l-104 205h-177l-72 -157
q-24 -60 -0.5 -95t81.5 -35q4 0 4 -6t-4 -6q-19 0 -55 2t-63 2t-62.5 -2t-57.5 -2q-4 0 -4 6t4 6q41 0 66.5 28t62.5 112l218 477q1 3 8.5 3.5t9.5 -3.5l250 -492q34 -68 58.5 -98t47.5 -30zM237 327h151l-79 157z" />
    <glyph glyph-name="aogonek" unicode="&#x105;" horiz-adv-x="421" 
d="M418 54q2 1 4.5 -1.5t2.5 -5t-3 -4.5l-103 -49l-6 -2q-50 -51 -50 -109q0 -52 26 -84t71 -32q25 0 43 11q2 1 4.5 -0.5t3.5 -3.5t-1 -4q-55 -45 -112 -45q-51 0 -84.5 32t-33.5 78q0 78 114 161q-25 14 -35 52l-46 -25q-58 -30 -104 -30q-32 0 -50.5 16.5t-18.5 47.5
q0 33 23 48.5t90 37.5l102 33v79q0 117 -51 117q-50 0 -55 -77q-6 -56 -59 -56q-47 0 -47 41t71 78t129 37q47 0 76.5 -28t29.5 -82v-177q0 -61 40 -61q14 0 29 7zM243 57l13 7q-1 7 -1 21v74l-55 -20q-50 -18 -50 -51q0 -21 12 -33t30 -12q22 0 51 14z" />
    <glyph glyph-name="Cacute" unicode="&#x106;" horiz-adv-x="669" 
d="M282 679q-4 -2 -6 3t1 7q28 20 71.5 57.5t54.5 46.5q9 9 71 -16q37 -14 34 -19l-4 -2q-108 -27 -222 -77zM421 636q107 0 167 -27q13 -4 16 -23l12 -139q0 -3 -5 -4t-6 3q-34 79 -91 122t-132 43q-99 0 -153 -73t-54 -196q0 -140 65.5 -236.5t168.5 -96.5q127 0 205 172
q2 4 7 3t5 -4l-15 -136q-2 -12 -4.5 -15.5t-11.5 -7.5q-89 -33 -183 -33q-75 0 -137 19.5t-103 52t-69.5 75.5t-41 88t-12.5 92q0 142 110.5 231.5t261.5 89.5z" />
    <glyph glyph-name="cacute" unicode="&#x107;" horiz-adv-x="425" 
d="M246 474q0 -2 -3 -2t-5.5 1.5t-2.5 2.5l33 240q4 9 67 14q34 3 31 -3zM234 -12q-97 0 -149.5 59.5t-52.5 138.5q0 94 73 151.5t163 57.5q48 0 86.5 -20t38.5 -55q0 -19 -14.5 -32.5t-40.5 -13.5q-44 0 -61 51q-6 19 -10 27.5t-13.5 15t-24.5 6.5q-43 0 -68.5 -42.5
t-25.5 -112.5q0 -83 37 -132.5t118 -49.5q41 0 96 26q2 2 5.5 -2t1.5 -6q-73 -67 -159 -67z" />
    <glyph glyph-name="Ccircumflex" unicode="&#x108;" horiz-adv-x="669" 
d="M265 702l103 116q4 4 11 4t12 -4l102 -116q2 -1 1.5 -3t-3 -3.5t-3.5 -0.5l-108 39l-109 -39q-1 0 -3 1t-3 3t0 3zM421 636q107 0 167 -27q13 -4 16 -23l12 -139q0 -3 -5 -4t-6 3q-34 79 -91 122t-132 43q-99 0 -153 -73t-54 -196q0 -140 65.5 -236.5t168.5 -96.5
q127 0 205 172q2 4 7 3t5 -4l-15 -136q-2 -12 -4.5 -15.5t-11.5 -7.5q-89 -33 -183 -33q-75 0 -137 19.5t-103 52t-69.5 75.5t-41 88t-12.5 92q0 142 110.5 231.5t261.5 89.5z" />
    <glyph glyph-name="ccircumflex" unicode="&#x109;" horiz-adv-x="425" 
d="M327 476q2 -2 -3.5 -3.5t-6.5 1.5l-68 108l-69 -108q-1 -2 -4 -2t-5 1.5t-2 2.5l68 249q1 5 11 5t12 -5zM234 -12q-97 0 -149.5 59.5t-52.5 138.5q0 94 73 151.5t163 57.5q48 0 86.5 -20t38.5 -55q0 -19 -14.5 -32.5t-40.5 -13.5q-44 0 -61 51q-6 19 -10 27.5t-13.5 15
t-24.5 6.5q-43 0 -68.5 -42.5t-25.5 -112.5q0 -83 37 -132.5t118 -49.5q41 0 96 26q2 2 5.5 -2t1.5 -6q-73 -67 -159 -67z" />
    <glyph glyph-name="Cdotaccent" unicode="&#x10a;" horiz-adv-x="669" 
d="M380 713q-28 0 -44.5 16.5t-16.5 44.5q0 26 16.5 42t44.5 16q27 0 42.5 -15.5t15.5 -42.5q0 -29 -15 -45t-43 -16zM421 636q107 0 167 -27q13 -4 16 -23l12 -139q0 -3 -5 -4t-6 3q-34 79 -91 122t-132 43q-99 0 -153 -73t-54 -196q0 -140 65.5 -236.5t168.5 -96.5
q127 0 205 172q2 4 7 3t5 -4l-15 -136q-2 -12 -4.5 -15.5t-11.5 -7.5q-89 -33 -183 -33q-75 0 -137 19.5t-103 52t-69.5 75.5t-41 88t-12.5 92q0 142 110.5 231.5t261.5 89.5z" />
    <glyph glyph-name="cdotaccent" unicode="&#x10b;" horiz-adv-x="425" 
d="M248 495q-29 0 -45 16t-16 45q0 26 16.5 41.5t44.5 15.5t43 -15.5t15 -41.5q0 -61 -58 -61zM234 -12q-97 0 -149.5 59.5t-52.5 138.5q0 94 73 151.5t163 57.5q48 0 86.5 -20t38.5 -55q0 -19 -14.5 -32.5t-40.5 -13.5q-44 0 -61 51q-6 19 -10 27.5t-13.5 15t-24.5 6.5
q-43 0 -68.5 -42.5t-25.5 -112.5q0 -83 37 -132.5t118 -49.5q41 0 96 26q2 2 5.5 -2t1.5 -6q-73 -67 -159 -67z" />
    <glyph glyph-name="Ccaron" unicode="&#x10c;" horiz-adv-x="669" 
d="M367 687l-103 115q-1 2 0 4t3 3t3 0l109 -38l108 40q2 1 4.5 -2t0.5 -5l-102 -117q-12 -11 -23 0zM421 636q107 0 167 -27q13 -4 16 -23l12 -139q0 -3 -5 -4t-6 3q-34 79 -91 122t-132 43q-99 0 -153 -73t-54 -196q0 -140 65.5 -236.5t168.5 -96.5q127 0 205 172q2 4 7 3
t5 -4l-15 -136q-2 -12 -4.5 -15.5t-11.5 -7.5q-89 -33 -183 -33q-75 0 -137 19.5t-103 52t-69.5 75.5t-41 88t-12.5 92q0 142 110.5 231.5t261.5 89.5z" />
    <glyph glyph-name="ccaron" unicode="&#x10d;" horiz-adv-x="425" 
d="M168 726q0 2 2 3.5t5 1t4 -1.5l69 -109l68 109q1 1 4 1.5t5 -1t1 -3.5l-67 -249q-1 -5 -11 -5t-12 5zM234 -12q-97 0 -149.5 59.5t-52.5 138.5q0 94 73 151.5t163 57.5q48 0 86.5 -20t38.5 -55q0 -19 -14.5 -32.5t-40.5 -13.5q-44 0 -61 51q-6 19 -10 27.5t-13.5 15
t-24.5 6.5q-43 0 -68.5 -42.5t-25.5 -112.5q0 -83 37 -132.5t118 -49.5q41 0 96 26q2 2 5.5 -2t1.5 -6q-73 -67 -159 -67z" />
    <glyph glyph-name="Dcaron" unicode="&#x10e;" horiz-adv-x="705" 
d="M311 687l-103 115q-1 2 0 4t3 3t3 0l109 -38l108 40q2 1 4.5 -2t0.5 -5l-102 -117q-12 -11 -23 0zM326 -4q-20 0 -80 3t-88 3q-26 0 -69 -1t-59 -1q-2 0 -2 6t2 6q46 0 59.5 13t13.5 56v463q0 43 -13 56t-58 13q-3 0 -3 6t3 6q16 0 58 -1.5t68 -1.5t80 2.5t74 2.5
q153 0 248.5 -86.5t95.5 -217.5q0 -146 -96 -236.5t-234 -90.5zM316 19q97 0 157 74t60 208q0 130 -58 217t-153 87q-62 0 -85 -12t-23 -51v-450q0 -40 21 -56.5t81 -16.5z" />
    <glyph glyph-name="dcaron" unicode="&#x10f;" horiz-adv-x="510" 
d="M482 722q0 5 20.5 -1t40 -17t17.5 -19l-59 -236q-1 -2 -6 -1.5t-5 2.5zM502 65q2 1 4.5 -1.5t3 -5.5t-0.5 -4l-138 -67q-3 -1 -5 -1q-21 0 -26 71q-74 -70 -151 -70q-67 0 -112 52.5t-45 142.5q0 58 22 102t57 68t73 35.5t77 11.5q37 0 78 -12v202q0 35 -6.5 50t-22.5 15
q-13 0 -37 -11q-2 -1 -5 2t-3.5 6t0.5 4l147 69q2 1 4 1q5 0 11 -4.5t6 -8.5v-596q0 -34 6.5 -48t21.5 -14q13 0 41 11zM244 35q50 0 95 42v5v243q-35 48 -93 48q-111 0 -111 -159q0 -84 30 -131.5t79 -47.5z" />
    <glyph glyph-name="Dcroat" unicode="&#x110;" horiz-adv-x="705" 
d="M312 627q153 0 248.5 -86.5t95.5 -217.5q0 -146 -96 -236.5t-234 -90.5q-20 0 -80 3t-88 3q-26 0 -69 -1t-59 -1q-2 0 -2 6t2 6q46 0 59.5 13t13.5 56v216h-50q-5 0 -5 14t5 14h50v219q0 43 -13 56t-58 13q-3 0 -3 6t3 6q16 0 58 -1.5t68 -1.5t80 2.5t74 2.5zM316 19
q97 0 157 74t60 208q0 130 -58 217t-153 87q-62 0 -85 -12t-23 -51v-217h136q4 0 4 -14t-4 -14h-136v-205q0 -40 21 -56.5t81 -16.5z" />
    <glyph glyph-name="dcroat" unicode="&#x111;" horiz-adv-x="511" 
d="M502 65q2 1 4.5 -1.5t3 -5.5t-0.5 -4l-138 -67q-3 -1 -5 -1q-21 0 -26 71q-74 -70 -151 -70q-67 0 -112 52.5t-45 142.5q0 58 22 102t57 68t73 35.5t77 11.5q37 0 78 -12v117h-158q-7 0 -7 14t7 14h158v57q0 35 -6.5 50t-22.5 15q-13 0 -37 -11q-2 -1 -5 2t-3.5 6t0.5 4
l147 69q2 1 4 1q5 0 11 -4.5t6 -8.5v-180h58q9 0 9 -14t-9 -14h-58v-388q0 -34 6.5 -48t21.5 -14q13 0 41 11zM244 35q50 0 95 42v5v243q-35 48 -93 48q-111 0 -111 -159q0 -84 30 -131.5t79 -47.5z" />
    <glyph glyph-name="Emacron" unicode="&#x112;" horiz-adv-x="552" 
d="M172 713q-10 0 -10 18.5t10 18.5h251q11 0 11 -18.5t-11 -18.5h-251zM496 159q1 3 6.5 1.5t5.5 -3.5q-10 -78 -10 -142q0 -15 -15 -15h-442q-3 0 -3 6t3 6q45 0 58 12.5t13 56.5v463q0 43 -13 56t-58 13q-3 0 -3 6t3 6h424q10 0 10 -9l2 -133q0 -2 -5.5 -3t-6.5 2
q-32 114 -154 114h-30q-58 0 -58 -53v-204h83q58 0 89 20t31 56q0 3 5.5 3t5.5 -3q0 -24 -0.5 -51.5t-0.5 -38.5q0 -17 1.5 -50t1.5 -52q0 -2 -6 -2t-6 2q0 41 -31.5 64.5t-90.5 23.5h-82v-226q0 -57 46 -57h33q152 0 194 131z" />
    <glyph glyph-name="emacron" unicode="&#x113;" horiz-adv-x="418" 
d="M109 474q-10 0 -10 18.5t10 18.5h251q10 0 10 -18.5t-10 -18.5h-251zM386 65q4 4 7 -4v-5q-69 -68 -158 -68q-93 0 -148 56.5t-55 136.5q0 89 65.5 151.5t162.5 62.5q62 0 95 -26.5t33 -72.5q0 -29 -11 -29h-61l-180 -2q-3 -19 -3 -42q0 -86 40.5 -136t111.5 -50
q57 0 101 28zM223 375q-30 0 -52 -24t-32 -66l142 3q-3 87 -58 87z" />
    <glyph glyph-name="Ebreve" unicode="&#x114;" horiz-adv-x="552" 
d="M298 690q-50 0 -76.5 32.5t-26.5 94.5q0 2 2.5 3t5.5 0t3 -2q0 -18 27 -34t65 -16q37 0 64 16t27 34q0 1 2.5 2t5.5 0t3 -3q0 -127 -102 -127zM496 159q1 3 6.5 1.5t5.5 -3.5q-10 -78 -10 -142q0 -15 -15 -15h-442q-3 0 -3 6t3 6q45 0 58 12.5t13 56.5v463q0 43 -13 56
t-58 13q-3 0 -3 6t3 6h424q10 0 10 -9l2 -133q0 -2 -5.5 -3t-6.5 2q-32 114 -154 114h-30q-58 0 -58 -53v-204h83q58 0 89 20t31 56q0 3 5.5 3t5.5 -3q0 -24 -0.5 -51.5t-0.5 -38.5q0 -17 1.5 -50t1.5 -52q0 -2 -6 -2t-6 2q0 41 -31.5 64.5t-90.5 23.5h-82v-226
q0 -57 46 -57h33q152 0 194 131z" />
    <glyph glyph-name="ebreve" unicode="&#x115;" horiz-adv-x="418" 
d="M235 463q-50 0 -76.5 41.5t-26.5 120.5q0 2 3 3t5.5 0t2.5 -2q0 -32 26.5 -56t65.5 -24q38 0 64.5 24.5t26.5 55.5q0 1 3 2t5.5 0t2.5 -3q0 -162 -102 -162zM386 65q4 4 7 -4v-5q-69 -68 -158 -68q-93 0 -148 56.5t-55 136.5q0 89 65.5 151.5t162.5 62.5q62 0 95 -26.5
t33 -72.5q0 -29 -11 -29h-61l-180 -2q-3 -19 -3 -42q0 -86 40.5 -136t111.5 -50q57 0 101 28zM223 375q-30 0 -52 -24t-32 -66l142 3q-3 87 -58 87z" />
    <glyph glyph-name="Edotaccent" unicode="&#x116;" horiz-adv-x="552" 
d="M299 713q-29 0 -45 16.5t-16 44.5q0 26 16.5 42t44.5 16q27 0 42.5 -15.5t15.5 -42.5q0 -29 -15 -45t-43 -16zM496 159q1 3 6.5 1.5t5.5 -3.5q-10 -78 -10 -142q0 -15 -15 -15h-442q-3 0 -3 6t3 6q45 0 58 12.5t13 56.5v463q0 43 -13 56t-58 13q-3 0 -3 6t3 6h424
q10 0 10 -9l2 -133q0 -2 -5.5 -3t-6.5 2q-32 114 -154 114h-30q-58 0 -58 -53v-204h83q58 0 89 20t31 56q0 3 5.5 3t5.5 -3q0 -24 -0.5 -51.5t-0.5 -38.5q0 -17 1.5 -50t1.5 -52q0 -2 -6 -2t-6 2q0 41 -31.5 64.5t-90.5 23.5h-82v-226q0 -57 46 -57h33q152 0 194 131z" />
    <glyph glyph-name="edotaccent" unicode="&#x117;" horiz-adv-x="418" 
d="M235 495q-29 0 -45 16t-16 45q0 26 16.5 41.5t44.5 15.5q27 0 42.5 -15.5t15.5 -41.5q0 -61 -58 -61zM386 65q4 4 7 -4v-5q-69 -68 -158 -68q-93 0 -148 56.5t-55 136.5q0 89 65.5 151.5t162.5 62.5q62 0 95 -26.5t33 -72.5q0 -29 -11 -29h-61l-180 -2q-3 -19 -3 -42
q0 -86 40.5 -136t111.5 -50q57 0 101 28zM223 375q-30 0 -52 -24t-32 -66l142 3q-3 87 -58 87z" />
    <glyph glyph-name="Eogonek" unicode="&#x118;" horiz-adv-x="552" 
d="M503 -222q2 1 4.5 -0.5t3.5 -3.5t-1 -4q-55 -45 -112 -45q-51 0 -84.5 32t-33.5 78q0 80 119 165h-358q-3 0 -3 6t3 6q45 0 58 12.5t13 56.5v463q0 43 -13 56t-58 13q-3 0 -3 6t3 6h424q10 0 10 -9l2 -133q0 -2 -5.5 -3t-6.5 2q-32 114 -154 114h-30q-58 0 -58 -53v-204
h83q58 0 89 20t31 56q0 3 5.5 3t5.5 -3q0 -24 -0.5 -51.5t-0.5 -38.5q0 -17 1.5 -50t1.5 -52q0 -2 -6 -2t-6 2q0 41 -31.5 64.5t-90.5 23.5h-82v-226q0 -57 46 -57h33q152 0 194 131q1 3 6.5 1.5t5.5 -3.5q-10 -78 -10 -142q0 -15 -15 -15h-62q-31 -31 -44.5 -57t-13.5 -60
q0 -52 26 -84t71 -32q25 0 43 11z" />
    <glyph glyph-name="eogonek" unicode="&#x119;" horiz-adv-x="418" 
d="M356 25q-91 -84 -91 -172q0 -89 71 -89q24 0 46 14q2 1 4.5 -0.5t3.5 -3.5t-1 -4q-45 -45 -102 -45q-55 0 -85.5 26t-30.5 69q0 85 121 175q-25 -7 -57 -7q-93 0 -148 56.5t-55 136.5q0 89 65.5 151.5t162.5 62.5q62 0 95 -26.5t33 -72.5q0 -29 -11 -29h-61l-180 -2
q-3 -19 -3 -42q0 -86 40.5 -136t111.5 -50q57 0 101 28q4 4 7 -4v-5q-19 -19 -37 -31zM223 375q-30 0 -52 -24t-32 -66l142 3q-3 87 -58 87z" />
    <glyph glyph-name="Ecaron" unicode="&#x11a;" horiz-adv-x="552" 
d="M286 687l-103 115q-1 2 0 4t3 3t3 0l109 -38l108 40q2 1 4.5 -2t0.5 -5l-102 -117q-11 -11 -23 0zM496 159q1 3 6.5 1.5t5.5 -3.5q-10 -78 -10 -142q0 -15 -15 -15h-442q-3 0 -3 6t3 6q45 0 58 12.5t13 56.5v463q0 43 -13 56t-58 13q-3 0 -3 6t3 6h424q10 0 10 -9l2 -133
q0 -2 -5.5 -3t-6.5 2q-32 114 -154 114h-30q-58 0 -58 -53v-204h83q58 0 89 20t31 56q0 3 5.5 3t5.5 -3q0 -24 -0.5 -51.5t-0.5 -38.5q0 -17 1.5 -50t1.5 -52q0 -2 -6 -2t-6 2q0 41 -31.5 64.5t-90.5 23.5h-82v-226q0 -57 46 -57h33q152 0 194 131z" />
    <glyph glyph-name="ecaron" unicode="&#x11b;" horiz-adv-x="418" 
d="M223 477l-68 249q0 2 2 3.5t5 1t4 -1.5l69 -109l68 109q1 1 4 1.5t5 -1t1 -3.5l-67 -249q-2 -5 -11.5 -5t-11.5 5zM386 65q4 4 7 -4v-5q-69 -68 -158 -68q-93 0 -148 56.5t-55 136.5q0 89 65.5 151.5t162.5 62.5q62 0 95 -26.5t33 -72.5q0 -29 -11 -29h-61l-180 -2
q-3 -19 -3 -42q0 -86 40.5 -136t111.5 -50q57 0 101 28zM223 375q-30 0 -52 -24t-32 -66l142 3q-3 87 -58 87z" />
    <glyph glyph-name="Gcircumflex" unicode="&#x11c;" horiz-adv-x="719" 
d="M280 702l103 116q5 4 12 4t11 -4l102 -116q2 -1 1.5 -3t-3 -3.5t-3.5 -0.5l-108 39l-109 -39q-1 0 -3 1t-3 3t0 3zM409 -12q-166 0 -263 90.5t-97 227.5q0 146 107.5 238t271.5 92q108 0 172 -27q14 -5 15 -23l13 -139q0 -3 -5 -4t-7 3q-35 77 -96.5 120t-140.5 43
q-102 0 -155.5 -71t-53.5 -194q0 -150 74.5 -244.5t189.5 -94.5q60 0 82.5 23.5t22.5 97.5q0 73 -15.5 90t-83.5 17q-4 0 -5.5 4t0 8t4.5 4q121 -8 243 -2q5 0 5 -7t-5 -7q-25 1 -30.5 -17.5t-5.5 -99.5q0 -40 3.5 -63t3.5 -25q0 -8 -12 -12q-129 -28 -232 -28z" />
    <glyph glyph-name="gcircumflex" unicode="&#x11d;" horiz-adv-x="451" 
d="M155 474q-1 -2 -4 -2t-5 1.5t-2 2.5l68 249q1 5 11 5t12 -5l67 -249q2 -2 -3.5 -3.5t-6.5 1.5l-68 108zM256 44q31 -5 43.5 -7.5t39.5 -9t39.5 -14.5t28.5 -20.5t22.5 -30t6.5 -40.5q0 -82 -75.5 -143t-178.5 -61q-74 0 -121 32t-47 83q0 74 104 149q-63 19 -63 72
q0 57 80 101q-44 15 -68 46t-24 67q0 58 54 91.5t118 33.5q67 0 111 -33q52 36 109 36q8 0 8 -28q0 -32 -9 -44l-2 -1q-42 17 -75 17h-8q26 -31 26 -70q0 -56 -53.5 -90.5t-119.5 -34.5q-27 0 -51 6q-20 -16 -20 -41q0 -16 9 -27.5t31 -19t36.5 -10.5t48.5 -9zM182 374
q-42 0 -42 -79q0 -52 25 -92t64 -40q19 0 33.5 20t14.5 63q0 54 -28 91t-67 37zM235 -250q52 0 84.5 30.5t32.5 81.5q0 20 -5.5 35t-18.5 25.5t-24.5 17t-34 12t-35 8t-39.5 6.5l-54 9q-28 -33 -28 -94q0 -63 34 -97t88 -34z" />
    <glyph glyph-name="Gbreve" unicode="&#x11e;" horiz-adv-x="719" 
d="M394 690q-50 0 -76.5 32.5t-26.5 94.5q0 2 2.5 3t5.5 0t3 -2q0 -18 27 -34t65 -16q37 0 64 16t27 34q0 1 2.5 2t5.5 0t3 -3q0 -127 -102 -127zM409 -12q-166 0 -263 90.5t-97 227.5q0 146 107.5 238t271.5 92q108 0 172 -27q14 -5 15 -23l13 -139q0 -3 -5 -4t-7 3
q-35 77 -96.5 120t-140.5 43q-102 0 -155.5 -71t-53.5 -194q0 -150 74.5 -244.5t189.5 -94.5q60 0 82.5 23.5t22.5 97.5q0 73 -15.5 90t-83.5 17q-4 0 -5.5 4t0 8t4.5 4q121 -8 243 -2q5 0 5 -7t-5 -7q-25 1 -30.5 -17.5t-5.5 -99.5q0 -40 3.5 -63t3.5 -25q0 -8 -12 -12
q-129 -28 -232 -28z" />
    <glyph glyph-name="gbreve" unicode="&#x11f;" horiz-adv-x="451" 
d="M223 463q-50 0 -76.5 41.5t-26.5 120.5q0 2 3 3t5.5 0t2.5 -2q0 -32 26.5 -56t65.5 -24q38 0 64.5 24.5t26.5 55.5q0 1 3 2t5.5 0t2.5 -3q0 -162 -102 -162zM256 44q31 -5 43.5 -7.5t39.5 -9t39.5 -14.5t28.5 -20.5t22.5 -30t6.5 -40.5q0 -82 -75.5 -143t-178.5 -61
q-74 0 -121 32t-47 83q0 74 104 149q-63 19 -63 72q0 57 80 101q-44 15 -68 46t-24 67q0 58 54 91.5t118 33.5q67 0 111 -33q52 36 109 36q8 0 8 -28q0 -32 -9 -44l-2 -1q-42 17 -75 17h-8q26 -31 26 -70q0 -56 -53.5 -90.5t-119.5 -34.5q-27 0 -51 6q-20 -16 -20 -41
q0 -16 9 -27.5t31 -19t36.5 -10.5t48.5 -9zM182 374q-42 0 -42 -79q0 -52 25 -92t64 -40q19 0 33.5 20t14.5 63q0 54 -28 91t-67 37zM235 -250q52 0 84.5 30.5t32.5 81.5q0 20 -5.5 35t-18.5 25.5t-24.5 17t-34 12t-35 8t-39.5 6.5l-54 9q-28 -33 -28 -94q0 -63 34 -97
t88 -34z" />
    <glyph glyph-name="Gdotaccent" unicode="&#x120;" horiz-adv-x="719" 
d="M395 713q-29 0 -45 16.5t-16 44.5q0 26 16.5 42t44.5 16q27 0 42.5 -15.5t15.5 -42.5q0 -29 -15 -45t-43 -16zM409 -12q-166 0 -263 90.5t-97 227.5q0 146 107.5 238t271.5 92q108 0 172 -27q14 -5 15 -23l13 -139q0 -3 -5 -4t-7 3q-35 77 -96.5 120t-140.5 43
q-102 0 -155.5 -71t-53.5 -194q0 -150 74.5 -244.5t189.5 -94.5q60 0 82.5 23.5t22.5 97.5q0 73 -15.5 90t-83.5 17q-4 0 -5.5 4t0 8t4.5 4q121 -8 243 -2q5 0 5 -7t-5 -7q-25 1 -30.5 -17.5t-5.5 -99.5q0 -40 3.5 -63t3.5 -25q0 -8 -12 -12q-129 -28 -232 -28z" />
    <glyph glyph-name="gdotaccent" unicode="&#x121;" horiz-adv-x="451" 
d="M223 495q-29 0 -45 16t-16 45q0 26 16.5 41.5t44.5 15.5q27 0 42.5 -15.5t15.5 -41.5q0 -61 -58 -61zM256 44q31 -5 43.5 -7.5t39.5 -9t39.5 -14.5t28.5 -20.5t22.5 -30t6.5 -40.5q0 -82 -75.5 -143t-178.5 -61q-74 0 -121 32t-47 83q0 74 104 149q-63 19 -63 72
q0 57 80 101q-44 15 -68 46t-24 67q0 58 54 91.5t118 33.5q67 0 111 -33q52 36 109 36q8 0 8 -28q0 -32 -9 -44l-2 -1q-42 17 -75 17h-8q26 -31 26 -70q0 -56 -53.5 -90.5t-119.5 -34.5q-27 0 -51 6q-20 -16 -20 -41q0 -16 9 -27.5t31 -19t36.5 -10.5t48.5 -9zM182 374
q-42 0 -42 -79q0 -52 25 -92t64 -40q19 0 33.5 20t14.5 63q0 54 -28 91t-67 37zM235 -250q52 0 84.5 30.5t32.5 81.5q0 20 -5.5 35t-18.5 25.5t-24.5 17t-34 12t-35 8t-39.5 6.5l-54 9q-28 -33 -28 -94q0 -63 34 -97t88 -34z" />
    <glyph glyph-name="Gcommaaccent" unicode="&#x122;" horiz-adv-x="719" 
d="M682 247q5 0 5 -7t-5 -7q-25 1 -30.5 -17.5t-5.5 -99.5q0 -40 3.5 -63t3.5 -25q0 -8 -12 -12q-129 -28 -232 -28q-166 0 -263 90.5t-97 227.5q0 146 107.5 238t271.5 92q108 0 172 -27q14 -5 15 -23l13 -139q0 -3 -5 -4t-7 3q-35 77 -96.5 120t-140.5 43
q-102 0 -155.5 -71t-53.5 -194q0 -150 74.5 -244.5t189.5 -94.5q60 0 82.5 23.5t22.5 97.5q0 73 -15.5 90t-83.5 17q-4 0 -5.5 4t0 8t4.5 4q121 -8 243 -2zM413 -69q34 0 52 -22t18 -59q0 -69 -76 -125q-4 -2 -7.5 2.5t0.5 7.5q48 36 48 67q0 23 -10 33q-10 -19 -41 -19
q-21 0 -35 16t-14 41q0 27 19 42.5t46 15.5z" />
    <glyph glyph-name="gcommaaccent" unicode="&#x123;" horiz-adv-x="451" 
d="M223 478q-34 0 -52 22t-18 59q0 69 76 125q4 2 7.5 -2.5t-0.5 -7.5q-48 -36 -48 -67q0 -23 10 -33q10 19 41 19q21 0 35 -16t14 -41q0 -27 -19 -42.5t-46 -15.5zM256 44q31 -5 43.5 -7.5t39.5 -9t39.5 -14.5t28.5 -20.5t22.5 -30t6.5 -40.5q0 -82 -75.5 -143t-178.5 -61
q-74 0 -121 32t-47 83q0 74 104 149q-63 19 -63 72q0 57 80 101q-44 15 -68 46t-24 67q0 58 54 91.5t118 33.5q67 0 111 -33q52 36 109 36q8 0 8 -28q0 -32 -9 -44l-2 -1q-42 17 -75 17h-8q26 -31 26 -70q0 -56 -53.5 -90.5t-119.5 -34.5q-27 0 -51 6q-20 -16 -20 -41
q0 -16 9 -27.5t31 -19t36.5 -10.5t48.5 -9zM182 374q-42 0 -42 -79q0 -52 25 -92t64 -40q19 0 33.5 20t14.5 63q0 54 -28 91t-67 37zM235 -250q52 0 84.5 30.5t32.5 81.5q0 20 -5.5 35t-18.5 25.5t-24.5 17t-34 12t-35 8t-39.5 6.5l-54 9q-28 -33 -28 -94q0 -63 34 -97
t88 -34z" />
    <glyph glyph-name="Hcircumflex" unicode="&#x124;" horiz-adv-x="764" 
d="M277 695q-1 0 -3 1t-3 3t0 3l103 116q4 4 11 4t12 -4l102 -116q2 -1 1.5 -3t-3 -3.5t-3.5 -0.5l-108 39zM732 12q3 0 3 -6t-3 -6q-16 0 -61.5 1t-71.5 1q-35 0 -80 -1t-59 -1q-3 0 -3 6t3 6q54 0 68.5 12.5t14.5 56.5v230h-323v-230q0 -44 15 -56.5t68 -12.5q2 0 2 -6
t-2 -6q-17 0 -63.5 1t-79.5 1q-26 0 -70 -1t-60 -1q-2 0 -2 6t2 6q50 0 64.5 12.5t14.5 56.5v463q0 43 -14.5 56t-62.5 13q-3 0 -3 6t3 6q16 0 59 -1.5t69 -1.5q33 0 80 1.5t63 1.5q2 0 2 -6t-2 -6q-52 0 -67.5 -14t-15.5 -57v-203h323v203q0 44 -15 57.5t-68 13.5
q-3 0 -3 6t3 6q14 0 59 -1.5t80 -1.5q26 0 71.5 1.5t61.5 1.5q3 0 3 -6t-3 -6q-50 0 -64 -13t-14 -56v-463q0 -44 14 -56.5t64 -12.5z" />
    <glyph glyph-name="hcircumflex" unicode="&#x125;" horiz-adv-x="509" 
d="M22 730q-1 0 -3 1t-3 3t0 3l103 116q11 11 23 0l102 -116q2 -1 1.5 -3t-3 -3.5t-3.5 -0.5l-108 39zM491 12q4 0 4 -6t-4 -6q-12 0 -46 1t-54 1q-21 0 -55 -1t-46 -1q-2 0 -2 6t2 6q31 0 42.5 14.5t11.5 54.5v144q0 106 -82 106q-52 0 -94 -37v-213q0 -40 11.5 -54.5
t42.5 -14.5q4 0 4 -6t-4 -6q-12 0 -46 1t-54 1q-21 0 -55 -1t-46 -1q-2 0 -2 6t2 6q31 0 42.5 14.5t11.5 54.5v508q0 35 -6.5 50t-22.5 15q-14 0 -38 -11q-2 -1 -4.5 2t-3 6t0.5 4l146 69q3 1 5 1q5 0 10.5 -4.5t5.5 -8.5v-396q71 82 152 82q54 0 85.5 -34.5t31.5 -90.5
v-192q0 -40 11.5 -54.5t42.5 -14.5z" />
    <glyph glyph-name="Hbar" unicode="&#x126;" horiz-adv-x="764" 
d="M732 12q3 0 3 -6t-3 -6q-16 0 -61.5 1t-71.5 1q-35 0 -80 -1t-59 -1q-3 0 -3 6t3 6q54 0 68.5 12.5t14.5 56.5v137h-323v-137q0 -44 15 -56.5t68 -12.5q2 0 2 -6t-2 -6q-17 0 -63.5 1t-79.5 1q-26 0 -70 -1t-60 -1q-2 0 -2 6t2 6q50 0 64.5 12.5t14.5 56.5v463
q0 43 -14.5 56t-62.5 13q-3 0 -3 6t3 6q16 0 59 -1.5t69 -1.5q33 0 80 1.5t63 1.5q2 0 2 -6t-2 -6q-52 0 -67.5 -14t-15.5 -57v-109h323v109q0 44 -15 57.5t-68 13.5q-3 0 -3 6t3 6q14 0 59 -1.5t80 -1.5q26 0 71.5 1.5t61.5 1.5q3 0 3 -6t-3 -6q-50 0 -64 -13t-14 -56v-463
q0 -44 14 -56.5t64 -12.5zM220 246h323v159h-323v-159z" />
    <glyph glyph-name="hbar" unicode="&#x127;" horiz-adv-x="509" 
d="M491 12q4 0 4 -6t-4 -6q-12 0 -46 1t-54 1q-21 0 -55 -1t-46 -1q-2 0 -2 6t2 6q31 0 42.5 14.5t11.5 54.5v144q0 106 -82 106q-52 0 -94 -37v-213q0 -40 11.5 -54.5t42.5 -14.5q4 0 4 -6t-4 -6q-12 0 -46 1t-54 1q-21 0 -55 -1t-46 -1q-2 0 -2 6t2 6q31 0 42.5 14.5
t11.5 54.5v423h-69q-8 0 -8 14t8 14h69v57q0 35 -6.5 50t-22.5 15q-14 0 -38 -11q-2 -1 -4.5 2t-3 6t0.5 4l146 69q3 1 5 1q5 0 10.5 -4.5t5.5 -8.5v-180h148q8 0 8 -14t-8 -14h-148v-188q71 82 152 82q54 0 85.5 -34.5t31.5 -90.5v-192q0 -40 11.5 -54.5t42.5 -14.5z" />
    <glyph glyph-name="Itilde" unicode="&#x128;" horiz-adv-x="342" 
d="M47 697q-1 -1 -3 0t-3.5 3.5t-0.5 3.5q43 81 88 81q12 0 54 -12t66 -12q28 0 52 27q3 3 7 -4q1 -2 0 -3q-27 -49 -44 -65t-39 -16q-18 0 -60 12t-66 12q-14 0 -24 -4.5t-12.5 -7t-14.5 -15.5zM227 81q0 -44 12.5 -56.5t58.5 -12.5q3 0 3 -6t-3 -6q-16 0 -58.5 1t-69.5 1
q-26 0 -69 -1t-59 -1q-2 0 -2 6t2 6q46 0 59.5 13t13.5 56v463q0 43 -13.5 56t-59.5 13q-2 0 -2 6t2 6q16 0 59 -1.5t69 -1.5q28 0 70.5 1.5t57.5 1.5q3 0 3 -6t-3 -6q-45 0 -58 -13.5t-13 -57.5v-461z" />
    <glyph glyph-name="itilde" unicode="&#x129;" horiz-adv-x="263" 
d="M189 533q26 0 49 27q1 1 3.5 0t3.5 -3t0 -4q-26 -47 -43 -63.5t-35 -16.5q-14 0 -41 12t-44 12q-6 0 -10.5 -0.5t-9 -2.5t-7.5 -3.5t-6.5 -4.5t-5.5 -4.5t-6 -6t-5 -5.5t-3 0t-3.5 3.5t-0.5 3.5q47 81 85 81q10 0 36 -12.5t43 -12.5zM39 0q-3 0 -3 6t3 6q31 0 42 14.5
t11 54.5v179q0 64 -30 64q-13 0 -37 -11q-2 -1 -4.5 2t-3 6t1.5 4l151 70q2 1 3 1q5 0 10 -5t5 -9q0 -1 -1 -40t-1 -80v-181q0 -40 11.5 -54.5t42.5 -14.5q3 0 3 -6t-3 -6q-12 0 -46 1t-55 1t-55 -1t-45 -1z" />
    <glyph glyph-name="Imacron" unicode="&#x12a;" horiz-adv-x="342" 
d="M45 713q-10 0 -10 18.5t10 18.5h251q10 0 10 -18.5t-10 -18.5h-251zM227 81q0 -44 12.5 -56.5t58.5 -12.5q3 0 3 -6t-3 -6q-16 0 -58.5 1t-69.5 1q-26 0 -69 -1t-59 -1q-2 0 -2 6t2 6q46 0 59.5 13t13.5 56v463q0 43 -13.5 56t-59.5 13q-2 0 -2 6t2 6q16 0 59 -1.5
t69 -1.5q28 0 70.5 1.5t57.5 1.5q3 0 3 -6t-3 -6q-45 0 -58 -13.5t-13 -57.5v-461z" />
    <glyph glyph-name="imacron" unicode="&#x12b;" horiz-adv-x="263" 
d="M9 474q-10 0 -10 18.5t10 18.5h251q10 0 10 -18.5t-10 -18.5h-251zM39 0q-3 0 -3 6t3 6q31 0 42 14.5t11 54.5v179q0 64 -30 64q-13 0 -37 -11q-2 -1 -4.5 2t-3 6t1.5 4l151 70q2 1 3 1q5 0 10 -5t5 -9q0 -1 -1 -40t-1 -80v-181q0 -40 11.5 -54.5t42.5 -14.5q3 0 3 -6
t-3 -6q-12 0 -46 1t-55 1t-55 -1t-45 -1z" />
    <glyph glyph-name="Ibreve" unicode="&#x12c;" horiz-adv-x="342" 
d="M171 690q-50 0 -76.5 32.5t-26.5 94.5q0 2 3 3t5.5 0t2.5 -2q0 -18 27 -34t65 -16q37 0 64 16t27 34q0 1 3 2t5.5 0t2.5 -3q0 -127 -102 -127zM227 81q0 -44 12.5 -56.5t58.5 -12.5q3 0 3 -6t-3 -6q-16 0 -58.5 1t-69.5 1q-26 0 -69 -1t-59 -1q-2 0 -2 6t2 6
q46 0 59.5 13t13.5 56v463q0 43 -13.5 56t-59.5 13q-2 0 -2 6t2 6q16 0 59 -1.5t69 -1.5q28 0 70.5 1.5t57.5 1.5q3 0 3 -6t-3 -6q-45 0 -58 -13.5t-13 -57.5v-461z" />
    <glyph glyph-name="ibreve" unicode="&#x12d;" horiz-adv-x="263" 
d="M32 625q0 2 3 3t5.5 0t2.5 -2q0 -32 26.5 -56t65.5 -24q38 0 64.5 24.5t26.5 55.5q0 1 3 2t5.5 0t2.5 -3q0 -162 -102 -162q-50 0 -76.5 41.5t-26.5 120.5zM39 0q-3 0 -3 6t3 6q31 0 42 14.5t11 54.5v179q0 64 -30 64q-13 0 -37 -11q-2 -1 -4.5 2t-3 6t1.5 4l151 70
q2 1 3 1q5 0 10 -5t5 -9q0 -1 -1 -40t-1 -80v-181q0 -40 11.5 -54.5t42.5 -14.5q3 0 3 -6t-3 -6q-12 0 -46 1t-55 1t-55 -1t-45 -1z" />
    <glyph glyph-name="Iogonek" unicode="&#x12e;" horiz-adv-x="342" 
d="M298 12q3 0 3 -6t-3 -6q-15 0 -55 1t-65 1q-19 -42 -19 -93q0 -56 25.5 -97t60.5 -41q19 0 31 7q2 1 4.5 -0.5t3.5 -3.5t-1 -4q-45 -45 -103 -45q-49 0 -76.5 28.5t-27.5 78.5q0 83 84 170q-23 0 -63 -1t-55 -1q-2 0 -2 6t2 6q46 0 59.5 13t13.5 56v463q0 43 -13.5 56
t-59.5 13q-2 0 -2 6t2 6q16 0 59 -1.5t69 -1.5q28 0 70.5 1.5t57.5 1.5q3 0 3 -6t-3 -6q-45 0 -58 -13.5t-13 -57.5v-461q0 -44 12.5 -56.5t58.5 -12.5z" />
    <glyph glyph-name="iogonek" unicode="&#x12f;" horiz-adv-x="263" 
d="M135 495q-29 0 -45 16t-16 45q0 26 16.5 41.5t44.5 15.5q27 0 42.5 -15.5t15.5 -41.5q0 -61 -58 -61zM246 -219q2 1 4.5 -0.5t3.5 -3.5t-1 -4q-45 -45 -103 -45q-49 0 -76.5 28.5t-27.5 78.5q0 81 81 167q-18 0 -48 -1t-40 -1q-3 0 -3 6t3 6q31 0 42 14.5t11 54.5v179
q0 64 -30 64q-13 0 -37 -11q-2 -1 -4.5 2t-3 6t1.5 4l151 70q2 1 3 1q5 0 10 -5t5 -9q0 -1 -1 -40t-1 -80v-181q0 -40 11.5 -54.5t42.5 -14.5q3 0 3 -6t-3 -6q-11 0 -42.5 1t-50.5 1q-18 -42 -18 -90q0 -56 25.5 -97t60.5 -41q19 0 31 7z" />
    <glyph glyph-name="Idotaccent" unicode="&#x130;" horiz-adv-x="342" 
d="M172 713q-28 0 -44.5 16.5t-16.5 44.5q0 26 16.5 42t44.5 16q27 0 42.5 -15.5t15.5 -42.5q0 -29 -15 -45t-43 -16zM227 81q0 -44 12.5 -56.5t58.5 -12.5q3 0 3 -6t-3 -6q-16 0 -58.5 1t-69.5 1q-26 0 -69 -1t-59 -1q-2 0 -2 6t2 6q46 0 59.5 13t13.5 56v463
q0 43 -13.5 56t-59.5 13q-2 0 -2 6t2 6q16 0 59 -1.5t69 -1.5q28 0 70.5 1.5t57.5 1.5q3 0 3 -6t-3 -6q-45 0 -58 -13.5t-13 -57.5v-461z" />
    <glyph glyph-name="dotlessi" unicode="&#x131;" horiz-adv-x="263" 
d="M39 0q-3 0 -3 6t3 6q31 0 42 14.5t11 54.5v179q0 64 -30 64q-13 0 -37 -11q-2 -1 -4.5 2t-3 6t1.5 4l151 70q2 1 3 1q5 0 10 -5t5 -9q0 -1 -1 -40t-1 -80v-181q0 -40 11.5 -54.5t42.5 -14.5q3 0 3 -6t-3 -6q-12 0 -46 1t-55 1t-55 -1t-45 -1z" />
    <glyph glyph-name="IJ" unicode="&#x132;" horiz-adv-x="699" 
d="M221 350q0 -44 13 -56.5t60 -12.5q2 0 2 -6t-2 -6q-16 0 -59 1t-70 1q-25 0 -68 -1t-60 -1q-2 0 -2 6t2 6q46 0 59.5 13t13.5 56v194q0 43 -13.5 56t-59.5 13q-2 0 -2 6t2 6q16 0 59.5 -1.5t68.5 -1.5q28 0 71 1.5t58 1.5q2 0 2 -6t-2 -6q-46 0 -59.5 -14t-13.5 -57v-192
zM670 625q3 0 3 -6t-3 -6q-37 0 -48 -13.5t-11 -57.5v-284q0 -129 -72.5 -200t-193.5 -71q-101 0 -172.5 43.5t-71.5 99.5q0 25 16 42t46 17q29 0 43.5 -18.5t19 -45t12.5 -53.5t34.5 -45.5t73.5 -18.5q152 0 152 192v344q0 43 -15.5 56t-68.5 13q-2 0 -2 6t2 6
q19 0 65.5 -1.5t73.5 -1.5q25 0 64 1.5t53 1.5z" />
    <glyph glyph-name="ij" unicode="&#x133;" horiz-adv-x="532" 
d="M135 495q-29 0 -45 16t-16 45q0 26 16.5 41.5t44.5 15.5q27 0 42.5 -15.5t15.5 -41.5q0 -61 -58 -61zM402 495q-29 0 -45 16t-16 45q0 26 16.5 41.5t44.5 15.5t43 -15.5t15 -41.5q0 -61 -58 -61zM39 0q-3 0 -3 6t3 6q31 0 42 14.5t11 54.5v179q0 64 -30 64q-13 0 -37 -11
q-2 -1 -4.5 2t-3 6t1.5 4l151 70q2 1 3 1q5 0 10 -5t5 -9q0 -1 -1 -40t-1 -80v-181q0 -40 11.5 -54.5t42.5 -14.5q3 0 3 -6t-3 -6q-12 0 -46 1t-55 1t-55 -1t-45 -1zM457 382q0 -1 -1 -40t-1 -80v-310q0 -100 -38.5 -151.5t-139.5 -82.5q-2 -1 -4.5 4.5t0.5 6.5q48 21 68 67
t20 133v331q0 64 -29 64q-13 0 -37 -11q-4 -2 -8 6q-1 5 1 6l151 70q2 1 3 1q5 0 10 -5t5 -9z" />
    <glyph glyph-name="Jcircumflex" unicode="&#x134;" horiz-adv-x="339" 
d="M61 702l103 116q4 4 11 4t12 -4l102 -116q2 -1 1.5 -3t-3 -3.5t-3.5 -0.5l-108 39l-109 -39q-1 0 -3 1t-3 3t0 3zM298 625q3 0 3 -6t-3 -6q-37 0 -48 -13.5t-11 -57.5v-546q0 -112 -55.5 -175t-154.5 -63q-38 0 -62 16t-24 44q0 20 13 35.5t39 15.5q22 0 37 -14t20.5 -31
t14 -31t18.5 -14q41 0 41 147v618q0 43 -15.5 56t-68.5 13q-2 0 -2 6t2 6q19 0 65.5 -1.5t73.5 -1.5q26 0 64.5 1.5t52.5 1.5z" />
    <glyph glyph-name="jcircumflex" unicode="&#x135;" horiz-adv-x="263" 
d="M212 476q2 -2 -3.5 -3.5t-6.5 1.5l-68 108l-69 -108q-1 -2 -4 -2t-5 1.5t-2 2.5l68 249q1 5 11 5t12 -5zM188 382q0 -1 -1 -40t-1 -80v-310q0 -100 -38.5 -151.5t-139.5 -82.5q-2 -1 -4.5 4.5t0.5 6.5q48 21 68 67t20 133v331q0 64 -29 64q-13 0 -37 -11q-4 -2 -8 6
q-1 5 1 6l151 70q2 1 3 1q5 0 10 -5t5 -9z" />
    <glyph glyph-name="Kcommaaccent" unicode="&#x136;" horiz-adv-x="655" 
d="M664 12q3 0 3 -6t-3 -6h-112q-12 0 -29 -1q-26 -2 -38 4t-31 28t-68 88q-12 17 -19 26l-131 176l-22 -22v-218q0 -44 12.5 -56.5t58.5 -12.5q4 0 4 -6t-4 -6q-16 0 -58 1t-69 1q-26 0 -69 -1t-59 -1q-2 0 -2 6t2 6q46 0 59.5 13t13.5 56v463q0 43 -13 56t-58 13
q-3 0 -3 6t3 6q16 0 58 -1.5t68 -1.5q27 0 69.5 1.5t57.5 1.5q3 0 3 -6t-3 -6q-44 0 -57.5 -14t-13.5 -57v-212l188 192q37 37 27.5 64t-59.5 27q-3 0 -3 6t3 6q15 0 55 -1.5t74 -1.5q36 0 76 1.5t54 1.5q3 0 3 -6t-3 -6q-46 0 -101 -26.5t-100 -70.5l-113 -115l148 -200
q50 -71 78 -108t51 -55.5t35.5 -22t36.5 -3.5zM345 -69q34 0 52 -22t18 -59q0 -69 -76 -125q-4 -2 -7.5 2.5t0.5 7.5q48 36 48 67q0 23 -10 33q-10 -19 -41 -19q-21 0 -35 16t-14 41q0 27 19 42.5t46 15.5z" />
    <glyph glyph-name="kcommaaccent" unicode="&#x137;" horiz-adv-x="491" 
d="M497 12q3 0 3 -6t-3 -6q-12 0 -46 1t-55 1q-29 0 -69.5 -1t-53.5 -1q-3 0 -3 6t3 6q26 0 33.5 12t-5.5 29l-114 146l-19 -17v-101q0 -40 11.5 -54.5t42.5 -14.5q4 0 4 -6t-4 -6q-12 0 -46 1t-54 1q-21 0 -55 -1t-46 -1q-2 0 -2 6t2 6q31 0 42.5 14.5t11.5 54.5v508
q0 35 -6.5 50t-22.5 15q-14 0 -38 -11q-2 -1 -4.5 2t-3 6t0.5 4l146 69q3 1 5 1q5 0 10.5 -4.5t5.5 -8.5v-507l93 90q29 26 25.5 52.5t-37.5 26.5q-2 0 -2 6t2 6q14 0 52.5 -1t71.5 -1q31 0 65.5 1t46.5 1q3 0 3 -6t-3 -6q-43 0 -98.5 -21.5t-99.5 -62.5l-36 -33l137 -176
q55 -69 109 -69zM246 -69q34 0 52 -22t18 -59q0 -69 -76 -125q-4 -2 -7.5 2.5t0.5 7.5q48 36 48 67q0 23 -10 33q-10 -19 -41 -19q-21 0 -35 16t-14 41q0 27 19 42.5t46 15.5z" />
    <glyph glyph-name="kgreenlandic" unicode="&#x138;" horiz-adv-x="509" 
d="M515 12q2 0 2 -6t-2 -6q-12 0 -46 1t-55 1q-30 0 -70 -1t-54 -1q-2 0 -2 6t2 6q27 0 34.5 12t-6.5 29l-113 146l-19 -17v-101q0 -40 11.5 -54.5t42.5 -14.5q3 0 3 -6t-3 -6q-12 0 -46 1t-55 1t-55 -1t-45 -1q-3 0 -3 6t3 6q31 0 42 14.5t11 54.5v188q0 60 -31 60
q-17 0 -48 -14q-2 -1 -4.5 1.5t-2.5 5.5t1 4l139 68q6 2 7 2q12 0 22.5 -25.5t10.5 -67.5v-97l92 89q29 26 26 52.5t-37 26.5q-3 0 -3 6t3 6q14 0 52.5 -1t71.5 -1q31 0 65.5 1t46.5 1q2 0 2 -6t-2 -6q-43 0 -98.5 -22t-100.5 -62l-36 -33l138 -176q54 -69 109 -69z" />
    <glyph glyph-name="Lacute" unicode="&#x139;" horiz-adv-x="545" 
d="M66 679q-4 -2 -6 3t1 7q28 20 71.5 57.5t54.5 46.5q9 9 71 -16q37 -14 34 -19l-4 -2q-108 -27 -222 -77zM213 543v-458q0 -37 10 -47t47 -10h34q78 0 135 41.5t76 112.5q1 3 6 2t5 -4q-9 -99 -9 -165q0 -15 -15 -15h-472q-2 0 -2 6t2 6q46 0 59 12.5t13 56.5v463
q0 43 -13.5 56t-58.5 13q-2 0 -2 6t2 6q14 0 57.5 -1.5t69.5 -1.5q27 0 69.5 1.5t57.5 1.5q3 0 3 -6t-3 -6q-45 0 -58 -13.5t-13 -56.5z" />
    <glyph glyph-name="lacute" unicode="&#x13a;" horiz-adv-x="268" 
d="M34 728q-4 -2 -6 3t1 7q28 20 71.5 57.5t54.5 46.5q9 9 71 -16q37 -14 34 -19l-4 -2q-108 -27 -222 -77zM35 0q-2 0 -2 6t2 6q31 0 42.5 14.5t11.5 54.5l1 508q0 35 -6.5 50t-22.5 15q-13 0 -38 -11q-2 -1 -4.5 2t-3 6t0.5 4l147 69q2 1 4 1q5 0 11 -4.5t6 -8.5v-631
q0 -40 11 -54.5t42 -14.5q4 0 4 -6t-4 -6q-11 0 -45.5 1t-55.5 1t-55 -1t-46 -1z" />
    <glyph glyph-name="Lcommaaccent" unicode="&#x13b;" horiz-adv-x="545" 
d="M515 182q1 3 6 2t5 -4q-9 -99 -9 -165q0 -15 -15 -15h-472q-2 0 -2 6t2 6q46 0 59 12.5t13 56.5v463q0 43 -13.5 56t-58.5 13q-2 0 -2 6t2 6q14 0 57.5 -1.5t69.5 -1.5q27 0 69.5 1.5t57.5 1.5q3 0 3 -6t-3 -6q-45 0 -58 -13.5t-13 -56.5v-458q0 -37 10 -47t47 -10h34
q78 0 135 41.5t76 112.5zM287 -69q34 0 52 -22t18 -59q0 -69 -76 -125q-4 -2 -7.5 2.5t0.5 7.5q48 36 48 67q0 23 -10 33q-10 -19 -41 -19q-21 0 -35 16t-14 41q0 27 19 42.5t46 15.5z" />
    <glyph glyph-name="lcommaaccent" unicode="&#x13c;" horiz-adv-x="268" 
d="M237 12q4 0 4 -6t-4 -6q-11 0 -45.5 1t-55.5 1t-55 -1t-46 -1q-2 0 -2 6t2 6q31 0 42.5 14.5t11.5 54.5l1 508q0 35 -6.5 50t-22.5 15q-13 0 -38 -11q-2 -1 -4.5 2t-3 6t0.5 4l147 69q2 1 4 1q5 0 11 -4.5t6 -8.5v-631q0 -40 11 -54.5t42 -14.5zM132 -69q34 0 52 -22
t18 -59q0 -69 -76 -125q-4 -2 -7.5 2.5t0.5 7.5q48 36 48 67q0 23 -10 33q-10 -19 -41 -19q-21 0 -35 16t-14 41q0 27 19 42.5t46 15.5z" />
    <glyph glyph-name="Lcaron" unicode="&#x13d;" horiz-adv-x="545" 
d="M353 625q0 5 20.5 -1t40 -17t17.5 -19l-59 -236q-2 -2 -6.5 -1.5t-4.5 2.5zM213 543v-458q0 -37 10 -47t47 -10h34q78 0 135 41.5t76 112.5q1 3 6 2t5 -4q-9 -99 -9 -165q0 -15 -15 -15h-472q-2 0 -2 6t2 6q46 0 59 12.5t13 56.5v463q0 43 -13.5 56t-58.5 13q-2 0 -2 6
t2 6q14 0 57.5 -1.5t69.5 -1.5q27 0 69.5 1.5t57.5 1.5q3 0 3 -6t-3 -6q-45 0 -58 -13.5t-13 -56.5z" />
    <glyph glyph-name="lcaron" unicode="&#x13e;" horiz-adv-x="268" 
d="M241 725q0 5 20.5 -1t40 -17t17.5 -19l-59 -236q-2 -2 -6.5 -1.5t-4.5 2.5zM35 0q-2 0 -2 6t2 6q31 0 42.5 14.5t11.5 54.5l1 508q0 35 -6.5 50t-22.5 15q-13 0 -38 -11q-2 -1 -4.5 2t-3 6t0.5 4l147 69q2 1 4 1q5 0 11 -4.5t6 -8.5v-631q0 -40 11 -54.5t42 -14.5
q4 0 4 -6t-4 -6q-11 0 -45.5 1t-55.5 1t-55 -1t-46 -1z" />
    <glyph glyph-name="Ldot" unicode="&#x13f;" horiz-adv-x="545" 
d="M213 543v-458q0 -37 10 -47t47 -10h34q78 0 135 41.5t76 112.5q1 3 6 2t5 -4q-9 -99 -9 -165q0 -15 -15 -15h-472q-2 0 -2 6t2 6q46 0 59 12.5t13 56.5v463q0 43 -13.5 56t-58.5 13q-2 0 -2 6t2 6q14 0 57.5 -1.5t69.5 -1.5q27 0 69.5 1.5t57.5 1.5q3 0 3 -6t-3 -6
q-45 0 -58 -13.5t-13 -56.5zM428 256q-28 0 -44.5 16.5t-16.5 44.5q0 26 16.5 42t44.5 16t43.5 -15.5t15.5 -42.5q0 -29 -15.5 -45t-43.5 -16z" />
    <glyph glyph-name="ldot" unicode="&#x140;" horiz-adv-x="262" 
d="M35 0q-2 0 -2 6t2 6q31 0 42.5 14.5t11.5 54.5l1 508q0 35 -6.5 50t-22.5 15q-13 0 -38 -11q-2 -1 -4.5 2t-3 6t0.5 4l147 69q2 1 4 1q5 0 11 -4.5t6 -8.5v-631q0 -40 11 -54.5t42 -14.5q4 0 4 -6t-4 -6q-11 0 -45.5 1t-55.5 1t-55 -1t-46 -1zM256 263q-28 0 -44.5 16.5
t-16.5 44.5q0 26 16.5 42t44.5 16t43.5 -15.5t15.5 -42.5q0 -29 -15.5 -45t-43.5 -16z" />
    <glyph glyph-name="Lslash" unicode="&#x141;" horiz-adv-x="545" 
d="M515 182q1 3 6 2t5 -4q-9 -99 -9 -165q0 -15 -15 -15h-472q-2 0 -2 6t2 6q46 0 59 12.5t13 56.5v165l-53 -31q-4 -2 -11 10.5t-3 14.5l67 39v265q0 43 -13.5 56t-58.5 13q-2 0 -2 6t2 6q14 0 57.5 -1.5t69.5 -1.5q27 0 69.5 1.5t57.5 1.5q3 0 3 -6t-3 -6q-45 0 -58 -13.5
t-13 -56.5v-200l112 64q2 1 6 -4.5t6.5 -12.5t0.5 -8l-125 -72v-225q0 -37 10 -47t47 -10h34q78 0 135 41.5t76 112.5z" />
    <glyph glyph-name="lslash" unicode="&#x142;" horiz-adv-x="271" 
d="M233 440q4 3 11 -4t9 -15.5t-2 -12.5l-63 -38v-289q0 -40 11 -54.5t42 -14.5q4 0 4 -6t-4 -6q-11 0 -45.5 1t-55.5 1t-55 -1t-46 -1q-2 0 -2 6t2 6q31 0 42.5 14.5t11.5 54.5v231l-47 -29q-5 -3 -11 4.5t-8.5 15.5t0.5 12l67 40v234q0 35 -6.5 50t-22.5 15q-13 0 -38 -11
q-2 -1 -4.5 2t-3 6t0.5 4l147 69q2 1 4 1q5 0 11 -4.5t6 -8.5v-299z" />
    <glyph glyph-name="Nacute" unicode="&#x143;" horiz-adv-x="735" 
d="M285 679q-4 -2 -6 3t1 7q28 20 71.5 57.5t54.5 46.5q9 9 71 -16q37 -14 34 -19l-4 -2q-108 -27 -222 -77zM723 625q2 0 2 -6t-2 -6q-40 0 -63 -31.5t-23 -84.5v-512q0 -3 -4.5 -4t-6.5 1l-469 534v-389q0 -53 22 -84t61 -31q2 0 2 -6t-2 -6q-14 0 -46 1t-51 1
q-21 0 -58.5 -1t-52.5 -1q-3 0 -3 6t3 6q44 0 69.5 31t25.5 84v423q-58 63 -105 63q-2 0 -2 6t2 6q13 0 40.5 -1t39.5 -1q27 0 65 1t45 1q8 0 12.5 -3.5t15.5 -19.5t22 -29l346 -399v323q0 54 -22 85t-61 31q-2 0 -2 6t2 6q13 0 45 -1.5t52 -1.5q19 0 53 1.5t48 1.5z" />
    <glyph glyph-name="nacute" unicode="&#x144;" horiz-adv-x="526" 
d="M275 474q0 -2 -3 -2t-5.5 1.5t-2.5 2.5l33 240q4 9 67 14q34 3 31 -3zM509 12q3 0 3 -6t-3 -6q-12 0 -46 1t-55 1q-20 0 -54 -1t-46 -1q-3 0 -3 6t3 6q31 0 42 14.5t11 54.5v144q0 106 -81 106q-52 0 -94 -37v-213q0 -40 11.5 -54.5t42.5 -14.5q3 0 3 -6t-3 -6
q-12 0 -46 1t-55 1t-55 -1t-45 -1q-3 0 -3 6t3 6q31 0 42 14.5t11 54.5v188q0 60 -31 60q-17 0 -48 -14q-2 -1 -4.5 1.5t-2.5 5.5t1 4l139 68q6 2 7 2q11 0 21 -21.5t12 -58.5q69 82 152 82q54 0 85.5 -34.5t31.5 -90.5v-192q0 -40 11.5 -54.5t42.5 -14.5z" />
    <glyph glyph-name="Ncommaaccent" unicode="&#x145;" horiz-adv-x="735" 
d="M723 625q2 0 2 -6t-2 -6q-40 0 -63 -31.5t-23 -84.5v-512q0 -3 -4.5 -4t-6.5 1l-469 534v-389q0 -53 22 -84t61 -31q2 0 2 -6t-2 -6q-14 0 -46 1t-51 1q-21 0 -58.5 -1t-52.5 -1q-3 0 -3 6t3 6q44 0 69.5 31t25.5 84v423q-58 63 -105 63q-2 0 -2 6t2 6q13 0 40.5 -1
t39.5 -1q27 0 65 1t45 1q8 0 12.5 -3.5t15.5 -19.5t22 -29l346 -399v323q0 54 -22 85t-61 31q-2 0 -2 6t2 6q13 0 45 -1.5t52 -1.5q19 0 53 1.5t48 1.5zM369 -69q34 0 52 -22t18 -59q0 -69 -76 -125q-4 -2 -7.5 2.5t0.5 7.5q48 36 48 67q0 23 -10 33q-10 -19 -41 -19
q-21 0 -35 16t-14 41q0 27 19 42.5t46 15.5z" />
    <glyph glyph-name="ncommaaccent" unicode="&#x146;" horiz-adv-x="526" 
d="M509 12q3 0 3 -6t-3 -6q-12 0 -46 1t-55 1q-20 0 -54 -1t-46 -1q-3 0 -3 6t3 6q31 0 42 14.5t11 54.5v144q0 106 -81 106q-52 0 -94 -37v-213q0 -40 11.5 -54.5t42.5 -14.5q3 0 3 -6t-3 -6q-12 0 -46 1t-55 1t-55 -1t-45 -1q-3 0 -3 6t3 6q31 0 42 14.5t11 54.5v188
q0 60 -31 60q-17 0 -48 -14q-2 -1 -4.5 1.5t-2.5 5.5t1 4l139 68q6 2 7 2q11 0 21 -21.5t12 -58.5q69 82 152 82q54 0 85.5 -34.5t31.5 -90.5v-192q0 -40 11.5 -54.5t42.5 -14.5zM258 -69q34 0 52 -22t18 -59q0 -69 -76 -125q-4 -2 -7.5 2.5t0.5 7.5q48 36 48 67
q0 23 -10 33q-10 -19 -41 -19q-21 0 -35 16t-14 41q0 27 19 42.5t46 15.5z" />
    <glyph glyph-name="Ncaron" unicode="&#x147;" horiz-adv-x="735" 
d="M370 687l-103 115q-1 2 0 4t3 3t3 0l109 -38l108 40q2 1 4.5 -2t0.5 -5l-102 -117q-11 -11 -23 0zM723 625q2 0 2 -6t-2 -6q-40 0 -63 -31.5t-23 -84.5v-512q0 -3 -4.5 -4t-6.5 1l-469 534v-389q0 -53 22 -84t61 -31q2 0 2 -6t-2 -6q-14 0 -46 1t-51 1q-21 0 -58.5 -1
t-52.5 -1q-3 0 -3 6t3 6q44 0 69.5 31t25.5 84v423q-58 63 -105 63q-2 0 -2 6t2 6q13 0 40.5 -1t39.5 -1q27 0 65 1t45 1q8 0 12.5 -3.5t15.5 -19.5t22 -29l346 -399v323q0 54 -22 85t-61 31q-2 0 -2 6t2 6q13 0 45 -1.5t52 -1.5q19 0 53 1.5t48 1.5z" />
    <glyph glyph-name="ncaron" unicode="&#x148;" horiz-adv-x="526" 
d="M265 477l-68 249q0 2 2 3.5t5 1t4 -1.5l69 -109l68 109q1 1 4 1.5t5 -1t1 -3.5l-67 -249q-2 -5 -11.5 -5t-11.5 5zM509 12q3 0 3 -6t-3 -6q-12 0 -46 1t-55 1q-20 0 -54 -1t-46 -1q-3 0 -3 6t3 6q31 0 42 14.5t11 54.5v144q0 106 -81 106q-52 0 -94 -37v-213
q0 -40 11.5 -54.5t42.5 -14.5q3 0 3 -6t-3 -6q-12 0 -46 1t-55 1t-55 -1t-45 -1q-3 0 -3 6t3 6q31 0 42 14.5t11 54.5v188q0 60 -31 60q-17 0 -48 -14q-2 -1 -4.5 1.5t-2.5 5.5t1 4l139 68q6 2 7 2q11 0 21 -21.5t12 -58.5q69 82 152 82q54 0 85.5 -34.5t31.5 -90.5v-192
q0 -40 11.5 -54.5t42.5 -14.5z" />
    <glyph glyph-name="napostrophe" unicode="&#x149;" horiz-adv-x="526" 
d="M78 546q-26 0 -40.5 15t-14.5 41q0 27 17.5 42.5t47.5 15.5q74 0 74 -97q0 -100 -100 -198q-4 -3 -7 0t-1 7q48 58 48 138q0 21 -4 39q-9 -3 -20 -3zM509 12q3 0 3 -6t-3 -6q-12 0 -46 1t-55 1q-20 0 -54 -1t-46 -1q-3 0 -3 6t3 6q31 0 42 14.5t11 54.5v144
q0 106 -81 106q-52 0 -94 -37v-213q0 -40 11.5 -54.5t42.5 -14.5q3 0 3 -6t-3 -6q-12 0 -46 1t-55 1t-55 -1t-45 -1q-3 0 -3 6t3 6q31 0 42 14.5t11 54.5v188q0 60 -31 60q-17 0 -48 -14q-2 -1 -4.5 1.5t-2.5 5.5t1 4l139 68q6 2 7 2q11 0 21 -21.5t12 -58.5q69 82 152 82
q54 0 85.5 -34.5t31.5 -90.5v-192q0 -40 11.5 -54.5t42.5 -14.5z" />
    <glyph glyph-name="Eng" unicode="&#x14a;" horiz-adv-x="735" 
d="M723 625q2 0 2 -6t-2 -6q-40 0 -63 -31.5t-23 -84.5v-512q0 -81 -36 -128.5t-97 -47.5q-47 0 -76 18t-29 47q0 22 14.5 37.5t37.5 15.5q27 0 38.5 -14t11.5 -31.5t6 -31.5t23 -14q36 0 57 40.5t21 107.5v18l-451 514v-389q0 -53 22 -84t61 -31q2 0 2 -6t-2 -6
q-14 0 -46 1t-51 1q-21 0 -58.5 -1t-52.5 -1q-3 0 -3 6t3 6q44 0 69.5 31t25.5 84v423q-58 63 -105 63q-2 0 -2 6t2 6q13 0 40.5 -1t39.5 -1q27 0 65 1t45 1q8 0 12.5 -3.5t15.5 -19.5t22 -29l346 -399v323q0 54 -22 85t-61 31q-2 0 -2 6t2 6q13 0 45 -1.5t52 -1.5
q19 0 53 1.5t48 1.5z" />
    <glyph glyph-name="eng" unicode="&#x14b;" horiz-adv-x="509" 
d="M338 398q54 0 85.5 -34.5t31.5 -90.5v-321q0 -100 -38.5 -151.5t-139.5 -82.5q-2 -1 -4.5 4.5t0.5 6.5q48 21 68 67t20 133v296q0 106 -81 106q-52 0 -94 -37v-213q0 -40 11.5 -54.5t42.5 -14.5q3 0 3 -6t-3 -6q-12 0 -46 1t-55 1t-55 -1t-45 -1q-3 0 -3 6t3 6
q31 0 42 14.5t11 54.5v188q0 60 -31 60q-17 0 -48 -14q-2 -1 -4.5 1.5t-2.5 5.5t1 4l139 68q6 2 7 2q11 0 21 -21.5t12 -58.5q69 82 152 82z" />
    <glyph glyph-name="Omacron" unicode="&#x14c;" horiz-adv-x="766" 
d="M262 713q-10 0 -10 18.5t10 18.5h251q11 0 11 -18.5t-11 -18.5h-251zM366 -12q-141 0 -229 94t-88 230q0 78 32 141.5t83.5 102.5t112.5 59.5t124 20.5q142 0 229 -95t87 -222q0 -138 -103.5 -234.5t-247.5 -96.5zM399 13q86 0 140.5 73.5t54.5 203.5q0 140 -63 229.5
t-170 89.5q-91 0 -140 -68.5t-49 -191.5q0 -147 64 -241.5t163 -94.5z" />
    <glyph glyph-name="omacron" unicode="&#x14d;" horiz-adv-x="489" 
d="M120 474q-10 0 -10 18.5t10 18.5h251q11 0 11 -18.5t-11 -18.5h-251zM237 -13q-92 0 -148.5 61.5t-56.5 149.5q0 96 68 148.5t154 52.5q92 0 147.5 -62t55.5 -145q0 -90 -65 -147.5t-155 -57.5zM267 8q80 0 80 149q0 104 -37.5 162.5t-89.5 58.5q-80 0 -80 -143
q0 -101 36.5 -164t90.5 -63z" />
    <glyph glyph-name="Obreve" unicode="&#x14e;" horiz-adv-x="766" 
d="M388 690q-50 0 -76.5 32.5t-26.5 94.5q0 2 2.5 3t5.5 0t3 -2q0 -18 27 -34t65 -16q37 0 64 16t27 34q0 1 2.5 2t5.5 0t3 -3q0 -127 -102 -127zM366 -12q-141 0 -229 94t-88 230q0 78 32 141.5t83.5 102.5t112.5 59.5t124 20.5q142 0 229 -95t87 -222
q0 -138 -103.5 -234.5t-247.5 -96.5zM399 13q86 0 140.5 73.5t54.5 203.5q0 140 -63 229.5t-170 89.5q-91 0 -140 -68.5t-49 -191.5q0 -147 64 -241.5t163 -94.5z" />
    <glyph glyph-name="obreve" unicode="&#x14f;" horiz-adv-x="489" 
d="M143 625q0 2 2.5 3t5.5 0t3 -2q0 -32 26.5 -56t65.5 -24q38 0 64.5 24.5t26.5 55.5q0 1 2.5 2t5.5 0t3 -3q0 -162 -102 -162q-50 0 -76.5 41.5t-26.5 120.5zM237 -13q-92 0 -148.5 61.5t-56.5 149.5q0 96 68 148.5t154 52.5q92 0 147.5 -62t55.5 -145q0 -90 -65 -147.5
t-155 -57.5zM267 8q80 0 80 149q0 104 -37.5 162.5t-89.5 58.5q-80 0 -80 -143q0 -101 36.5 -164t90.5 -63z" />
    <glyph glyph-name="Ohungarumlaut" unicode="&#x150;" horiz-adv-x="766" 
d="M277 668q-4 -2 -7.5 2t-0.5 8q54 67 90 127q4 11 56 -10q39 -16 37 -24q-1 -2 -3 -3q-91 -41 -172 -100zM429 668q-4 -2 -7 2t-1 8q37 43 90 127q4 11 56 -10q39 -16 37 -24q-1 -2 -3 -3q-91 -41 -172 -100zM366 -12q-141 0 -229 94t-88 230q0 78 32 141.5t83.5 102.5
t112.5 59.5t124 20.5q142 0 229 -95t87 -222q0 -138 -103.5 -234.5t-247.5 -96.5zM399 13q86 0 140.5 73.5t54.5 203.5q0 140 -63 229.5t-170 89.5q-91 0 -140 -68.5t-49 -191.5q0 -147 64 -241.5t163 -94.5z" />
    <glyph glyph-name="ohungarumlaut" unicode="&#x151;" horiz-adv-x="489" 
d="M146 441q-4 -3 -7.5 1.5t-0.5 7.5q45 57 78 114q4 11 53 -7q37 -13 35 -22l-3 -3q-56 -24 -155 -91zM287 441q-4 -3 -7.5 1.5t-1.5 7.5q39 48 79 114q3 11 51 -7q38 -13 36 -22q-1 -2 -3 -3q-55 -23 -154 -91zM237 -13q-92 0 -148.5 61.5t-56.5 149.5q0 96 68 148.5
t154 52.5q92 0 147.5 -62t55.5 -145q0 -90 -65 -147.5t-155 -57.5zM267 8q80 0 80 149q0 104 -37.5 162.5t-89.5 58.5q-80 0 -80 -143q0 -101 36.5 -164t90.5 -63z" />
    <glyph glyph-name="OE" unicode="&#x152;" horiz-adv-x="932" 
d="M876 159q1 3 6.5 1.5t5.5 -3.5q-10 -78 -10 -142q0 -15 -15 -15h-319q-21 0 -64 -2t-64 -2q-163 0 -265 87t-102 218q0 146 103 236t250 90q24 0 75.5 -1t76.5 -1h292q9 0 9 -9l2 -133q0 -2 -5 -3t-6 2q-10 39 -52 77.5t-91 38.5h-42q-57 0 -57 -55v-204h83q58 0 88.5 20
t30.5 56q0 3 6 3t6 -3q0 -24 -1 -51.5t-1 -38.5q0 -17 1.5 -50t1.5 -52q0 -2 -6 -2t-6 2q0 41 -31.5 64.5t-90.5 23.5h-81v-226q0 -57 45 -57h45q57 0 111 39t71 92zM492 81v463q0 39 -14.5 50.5t-64.5 11.5q-108 0 -174.5 -75t-66.5 -208q0 -131 64.5 -218t170.5 -87
q54 0 69.5 11.5t15.5 51.5z" />
    <glyph glyph-name="oe" unicode="&#x153;" horiz-adv-x="687" 
d="M663 65q3 2 6.5 -2t0.5 -7q-71 -68 -157 -68q-99 0 -151 60q-55 -61 -140 -61q-89 0 -145.5 62t-56.5 149q0 96 68.5 148.5t152.5 52.5q92 0 142 -71q65 67 159 67q60 0 93.5 -26.5t33.5 -72.5q0 -29 -12 -29h-84l-150 -2q-4 -24 -4 -58q0 -79 37.5 -125t100.5 -46
q65 0 106 29zM249 5q33 0 52 43t19 122q0 95 -31 152.5t-81 57.5q-40 0 -62.5 -39.5t-22.5 -113.5q0 -92 36.5 -157t89.5 -65zM508 375q-60 0 -81 -90l135 4q-1 41 -15.5 63.5t-38.5 22.5z" />
    <glyph glyph-name="Racute" unicode="&#x154;" horiz-adv-x="698" 
d="M160 679q-4 -2 -6 3t1 7q28 20 71.5 57.5t54.5 46.5q9 9 71 -16q37 -14 34 -19l-4 -2q-108 -27 -222 -77zM708 12q2 0 2 -6t-2 -6h-178q-47 0 -227 313q-8 -1 -23 -1q-39 0 -55 1v-232q0 -44 12.5 -56.5t58.5 -12.5q2 0 2 -6t-2 -6q-16 0 -58 1t-70 1q-26 0 -68.5 -1
t-58.5 -1q-3 0 -3 6t3 6q46 0 59 12.5t13 56.5v463q0 43 -13 56t-58 13q-2 0 -2 6t2 6q16 0 58 -1.5t68 -1.5q20 0 66 3t68 3q92 0 142.5 -33.5t50.5 -93.5q0 -46 -28 -88t-73 -68q118 -186 186.5 -259.5t127.5 -73.5zM225 342q24 -4 58 -4q54 0 75.5 26.5t21.5 98.5
q0 82 -24 113t-69 31q-34 0 -48 -15t-14 -50v-200z" />
    <glyph glyph-name="racute" unicode="&#x155;" horiz-adv-x="379" 
d="M200 474q0 -2 -3 -2t-5.5 1.5t-2.5 2.5l33 240q4 9 67 14q34 3 31 -3zM299 396q23 0 44.5 -16.5t21.5 -39.5q0 -21 -13 -34.5t-34 -13.5q-22 0 -41.5 21.5t-33.5 21.5q-18 0 -57 -39v-215q0 -40 19 -54.5t70 -14.5q4 0 4 -6t-4 -6q-16 0 -61.5 1t-74.5 1q-21 0 -55 -1
t-45 -1q-3 0 -3 6t3 6q31 0 42 14.5t11 54.5v188q0 60 -31 60q-17 0 -48 -14q-2 -1 -4.5 1.5t-2.5 5.5t1 4l139 68q6 2 7 2q11 0 20.5 -20.5t11.5 -55.5q73 76 114 76z" />
    <glyph glyph-name="Rcommaaccent" unicode="&#x156;" horiz-adv-x="698" 
d="M708 12q2 0 2 -6t-2 -6h-178q-47 0 -227 313q-8 -1 -23 -1q-39 0 -55 1v-232q0 -44 12.5 -56.5t58.5 -12.5q2 0 2 -6t-2 -6q-16 0 -58 1t-70 1q-26 0 -68.5 -1t-58.5 -1q-3 0 -3 6t3 6q46 0 59 12.5t13 56.5v463q0 43 -13 56t-58 13q-2 0 -2 6t2 6q16 0 58 -1.5t68 -1.5
q20 0 66 3t68 3q92 0 142.5 -33.5t50.5 -93.5q0 -46 -28 -88t-73 -68q118 -186 186.5 -259.5t127.5 -73.5zM225 342q24 -4 58 -4q54 0 75.5 26.5t21.5 98.5q0 82 -24 113t-69 31q-34 0 -48 -15t-14 -50v-200zM340 -69q34 0 52 -22t18 -59q0 -69 -76 -125q-4 -2 -7.5 2.5
t0.5 7.5q48 36 48 67q0 23 -10 33q-10 -19 -41 -19q-21 0 -35 16t-14 41q0 27 19 42.5t46 15.5z" />
    <glyph glyph-name="rcommaaccent" unicode="&#x157;" horiz-adv-x="379" 
d="M299 396q23 0 44.5 -16.5t21.5 -39.5q0 -21 -13 -34.5t-34 -13.5q-22 0 -41.5 21.5t-33.5 21.5q-18 0 -57 -39v-215q0 -40 19 -54.5t70 -14.5q4 0 4 -6t-4 -6q-16 0 -61.5 1t-74.5 1q-21 0 -55 -1t-45 -1q-3 0 -3 6t3 6q31 0 42 14.5t11 54.5v188q0 60 -31 60
q-17 0 -48 -14q-2 -1 -4.5 1.5t-2.5 5.5t1 4l139 68q6 2 7 2q11 0 20.5 -20.5t11.5 -55.5q73 76 114 76zM148 -69q34 0 52 -22t18 -59q0 -69 -76 -125q-4 -2 -7.5 2.5t0.5 7.5q48 36 48 67q0 23 -10 33q-10 -19 -41 -19q-21 0 -35 16t-14 41q0 27 19 42.5t46 15.5z" />
    <glyph glyph-name="Rcaron" unicode="&#x158;" horiz-adv-x="698" 
d="M245 687l-103 115q-1 2 0 4t3 3t3 0l109 -38l108 40q2 1 4.5 -2t0.5 -5l-102 -117q-12 -11 -23 0zM708 12q2 0 2 -6t-2 -6h-178q-47 0 -227 313q-8 -1 -23 -1q-39 0 -55 1v-232q0 -44 12.5 -56.5t58.5 -12.5q2 0 2 -6t-2 -6q-16 0 -58 1t-70 1q-26 0 -68.5 -1t-58.5 -1
q-3 0 -3 6t3 6q46 0 59 12.5t13 56.5v463q0 43 -13 56t-58 13q-2 0 -2 6t2 6q16 0 58 -1.5t68 -1.5q20 0 66 3t68 3q92 0 142.5 -33.5t50.5 -93.5q0 -46 -28 -88t-73 -68q118 -186 186.5 -259.5t127.5 -73.5zM225 342q24 -4 58 -4q54 0 75.5 26.5t21.5 98.5q0 82 -24 113
t-69 31q-34 0 -48 -15t-14 -50v-200z" />
    <glyph glyph-name="rcaron" unicode="&#x159;" horiz-adv-x="379" 
d="M190 477l-68 249q0 2 2 3.5t5 1t4 -1.5l69 -109l68 109q1 1 4 1.5t5 -1t1 -3.5l-67 -249q-1 -5 -11 -5t-12 5zM299 396q23 0 44.5 -16.5t21.5 -39.5q0 -21 -13 -34.5t-34 -13.5q-22 0 -41.5 21.5t-33.5 21.5q-18 0 -57 -39v-215q0 -40 19 -54.5t70 -14.5q4 0 4 -6t-4 -6
q-16 0 -61.5 1t-74.5 1q-21 0 -55 -1t-45 -1q-3 0 -3 6t3 6q31 0 42 14.5t11 54.5v188q0 60 -31 60q-17 0 -48 -14q-2 -1 -4.5 1.5t-2.5 5.5t1 4l139 68q6 2 7 2q11 0 20.5 -20.5t11.5 -55.5q73 76 114 76z" />
    <glyph glyph-name="Sacute" unicode="&#x15a;" horiz-adv-x="515" 
d="M174 679q-4 -2 -6 3t1 7q28 20 71.5 57.5t54.5 46.5q9 9 71 -16q37 -14 34 -19l-4 -2q-108 -27 -222 -77zM174 524q0 -27 10 -50t33.5 -44.5t41 -34.5t52.5 -35q37 -24 57 -38.5t46 -39.5t37.5 -53.5t11.5 -62.5q0 -79 -61.5 -128.5t-154.5 -49.5q-45 0 -94 12.5
t-66 27.5q-10 7 -10 19l-3 159q-1 4 4 5t7 -3q18 -37 26.5 -54t29 -49.5t37.5 -48.5t42.5 -29.5t52.5 -13.5q92 0 92 95q0 34 -11 61.5t-36 52t-42.5 37.5t-54.5 37q-29 19 -42.5 28t-36 28.5t-33 35t-19 38.5t-8.5 49q0 78 63 119.5t147 41.5q78 0 129 -22q15 -7 15 -20
v-147q0 -3 -5 -4.5t-6 1.5q-1 2 -11.5 29t-21.5 46t-28.5 43.5t-43 38t-55.5 13.5q-40 0 -65.5 -23t-25.5 -67z" />
    <glyph glyph-name="sacute" unicode="&#x15b;" horiz-adv-x="337" 
d="M171 474q0 -2 -3 -2t-5.5 1.5t-2.5 2.5l33 240q4 9 67 14q34 3 31 -3zM118 338q0 -29 20.5 -50t59.5 -44q61 -35 78 -54q27 -30 27 -70q0 -53 -39.5 -92t-109.5 -39q-55 0 -104 27q-6 6 -6 12l-2 99q0 3 5.5 3.5t6.5 -1.5q16 -50 53 -85t75 -35q46 0 46 51q0 26 -14 47
t-28 31t-41 25q-23 12 -29.5 15.5t-24.5 16.5t-24.5 22.5t-13.5 27t-7 37.5q0 59 42 86.5t103 27.5q43 0 83 -15q9 -3 9 -11q0 -12 -1 -41t-1 -48q0 -3 -6 -3t-6 3q0 30 -35 63t-75 33q-41 0 -41 -39z" />
    <glyph glyph-name="Scircumflex" unicode="&#x15c;" horiz-adv-x="515" 
d="M157 702l103 116q4 4 11 4t12 -4l102 -116q2 -1 1.5 -3t-3 -3.5t-3.5 -0.5l-108 39l-109 -39q-1 0 -3 1t-3 3t0 3zM174 524q0 -27 10 -50t33.5 -44.5t41 -34.5t52.5 -35q37 -24 57 -38.5t46 -39.5t37.5 -53.5t11.5 -62.5q0 -79 -61.5 -128.5t-154.5 -49.5q-45 0 -94 12.5
t-66 27.5q-10 7 -10 19l-3 159q-1 4 4 5t7 -3q18 -37 26.5 -54t29 -49.5t37.5 -48.5t42.5 -29.5t52.5 -13.5q92 0 92 95q0 34 -11 61.5t-36 52t-42.5 37.5t-54.5 37q-29 19 -42.5 28t-36 28.5t-33 35t-19 38.5t-8.5 49q0 78 63 119.5t147 41.5q78 0 129 -22q15 -7 15 -20
v-147q0 -3 -5 -4.5t-6 1.5q-1 2 -11.5 29t-21.5 46t-28.5 43.5t-43 38t-55.5 13.5q-40 0 -65.5 -23t-25.5 -67z" />
    <glyph glyph-name="scircumflex" unicode="&#x15d;" horiz-adv-x="337" 
d="M252 476q2 -2 -3.5 -3.5t-6.5 1.5l-68 108l-69 -108q-1 -2 -4 -2t-5 1.5t-2 2.5l68 249q1 5 11 5t12 -5zM118 338q0 -29 20.5 -50t59.5 -44q61 -35 78 -54q27 -30 27 -70q0 -53 -39.5 -92t-109.5 -39q-55 0 -104 27q-6 6 -6 12l-2 99q0 3 5.5 3.5t6.5 -1.5q16 -50 53 -85
t75 -35q46 0 46 51q0 26 -14 47t-28 31t-41 25q-23 12 -29.5 15.5t-24.5 16.5t-24.5 22.5t-13.5 27t-7 37.5q0 59 42 86.5t103 27.5q43 0 83 -15q9 -3 9 -11q0 -12 -1 -41t-1 -48q0 -3 -6 -3t-6 3q0 30 -35 63t-75 33q-41 0 -41 -39z" />
    <glyph glyph-name="Scedilla" unicode="&#x15e;" horiz-adv-x="515" 
d="M463 166q0 -72 -52 -120.5t-134 -56.5q-10 -54 38 -81q55 -33 55 -78q0 -42 -30.5 -73.5t-91.5 -31.5q-75 0 -75 48q0 15 12 27t28 12q19 0 28.5 -10t11 -21.5t10 -21.5t25.5 -10q22 0 22 24q0 26 -18.5 47t-64.5 47q-14 5 -5 28q16 37 36 93h-11q-45 0 -94 12.5
t-66 27.5q-10 7 -10 19l-3 159q-1 4 4 5t7 -3q18 -37 26.5 -54t29 -49.5t37.5 -48.5t42.5 -29.5t52.5 -13.5q92 0 92 95q0 34 -11 61.5t-36 52t-42.5 37.5t-54.5 37q-29 19 -42.5 28t-36 28.5t-33 35t-19 38.5t-8.5 49q0 78 63 119.5t147 41.5q78 0 129 -22q15 -7 15 -20
v-147q0 -3 -5 -4.5t-6 1.5q-1 2 -11.5 29t-21.5 46t-28.5 43.5t-43 38t-55.5 13.5q-40 0 -65.5 -23t-25.5 -67q0 -27 10 -50t33.5 -44.5t41 -34.5t52.5 -35q37 -24 57 -38.5t46 -39.5t37.5 -53.5t11.5 -62.5z" />
    <glyph glyph-name="scedilla" unicode="&#x15f;" horiz-adv-x="337" 
d="M215 -92q55 -33 55 -78q0 -42 -30.5 -73.5t-91.5 -31.5q-75 0 -75 48q0 15 12 27t28 12q19 0 28.5 -10t11 -21.5t10 -21.5t25.5 -10q22 0 22 24q0 26 -18.5 47t-64.5 47q-14 5 -5 28q18 44 36 94h-4q-55 0 -104 27q-6 6 -6 12l-2 99q0 3 5.5 3.5t6.5 -1.5q16 -50 53 -85
t75 -35q46 0 46 51q0 26 -14 47t-28 31t-41 25q-23 12 -29.5 15.5t-24.5 16.5t-24.5 22.5t-13.5 27t-7 37.5q0 59 42 86.5t103 27.5q43 0 83 -15q9 -3 9 -11q0 -12 -1 -41t-1 -48q0 -3 -6 -3t-6 3q0 30 -35 63t-75 33q-41 0 -41 -39q0 -29 20.5 -50t59.5 -44q61 -35 78 -54
q27 -30 27 -70q0 -48 -33 -85.5t-93 -44.5q-5 -29 3 -48t35 -34z" />
    <glyph glyph-name="Scaron" unicode="&#x160;" horiz-adv-x="515" 
d="M259 687l-103 115q-1 2 0 4t3 3t3 0l109 -38l108 40q2 1 4.5 -2t0.5 -5l-102 -117q-12 -11 -23 0zM174 524q0 -27 10 -50t33.5 -44.5t41 -34.5t52.5 -35q37 -24 57 -38.5t46 -39.5t37.5 -53.5t11.5 -62.5q0 -79 -61.5 -128.5t-154.5 -49.5q-45 0 -94 12.5t-66 27.5
q-10 7 -10 19l-3 159q-1 4 4 5t7 -3q18 -37 26.5 -54t29 -49.5t37.5 -48.5t42.5 -29.5t52.5 -13.5q92 0 92 95q0 34 -11 61.5t-36 52t-42.5 37.5t-54.5 37q-29 19 -42.5 28t-36 28.5t-33 35t-19 38.5t-8.5 49q0 78 63 119.5t147 41.5q78 0 129 -22q15 -7 15 -20v-147
q0 -3 -5 -4.5t-6 1.5q-1 2 -11.5 29t-21.5 46t-28.5 43.5t-43 38t-55.5 13.5q-40 0 -65.5 -23t-25.5 -67z" />
    <glyph glyph-name="scaron" unicode="&#x161;" horiz-adv-x="337" 
d="M93 726q0 2 2 3.5t5 1t4 -1.5l69 -109l68 109q1 1 4 1.5t5 -1t1 -3.5l-67 -249q-2 -5 -11.5 -5t-11.5 5zM118 338q0 -29 20.5 -50t59.5 -44q61 -35 78 -54q27 -30 27 -70q0 -53 -39.5 -92t-109.5 -39q-55 0 -104 27q-6 6 -6 12l-2 99q0 3 5.5 3.5t6.5 -1.5q16 -50 53 -85
t75 -35q46 0 46 51q0 26 -14 47t-28 31t-41 25q-23 12 -29.5 15.5t-24.5 16.5t-24.5 22.5t-13.5 27t-7 37.5q0 59 42 86.5t103 27.5q43 0 83 -15q9 -3 9 -11q0 -12 -1 -41t-1 -48q0 -3 -6 -3t-6 3q0 30 -35 63t-75 33q-41 0 -41 -39z" />
    <glyph glyph-name="uni0162" unicode="&#x162;" horiz-adv-x="643" 
d="M594 650q1 4 6.5 4t5.5 -4q-10 -88 -10 -202q0 -3 -5 -3t-6 3q-15 77 -56 115.5t-101 38.5q-29 0 -38.5 -12.5t-9.5 -47.5v-461q0 -44 14.5 -56.5t68.5 -12.5q3 0 3 -6t-3 -6q-16 0 -59.5 1t-70.5 1q-9 -42 -3 -60t34 -34q55 -33 55 -78q0 -42 -30.5 -73.5t-91.5 -31.5
q-75 0 -75 48q0 15 12 27t28 12q19 0 28.5 -10t11 -21.5t10 -21.5t25.5 -10q22 0 22 24q0 26 -18.5 47t-64.5 47q-14 5 -5 28q25 57 42 107q-26 0 -69.5 -1t-59.5 -1q-3 0 -3 6t3 6q53 0 68.5 13t15.5 56v463q0 34 -9 46t-37 12q-119 0 -171 -155q-1 -3 -6 -2.5t-5 3.5
q14 130 14 199q0 5 5.5 5t5.5 -5q0 -22 57 -22q86 -3 201 -3q52 0 112 1.5t81 1.5q38 0 55.5 5t22.5 20z" />
    <glyph glyph-name="uni0163" unicode="&#x163;" horiz-adv-x="336" 
d="M322 69q2 2 5 0.5t4 -4.5t-1 -5q-71 -71 -141 -72q-10 -53 38 -80q55 -33 55 -78q0 -42 -30.5 -73.5t-91.5 -31.5q-75 0 -75 48q0 15 12 27t28 12q19 0 28.5 -10t11 -21.5t10 -21.5t25.5 -10q22 0 22 24q0 26 -18.5 47t-64.5 47q-14 5 -5 28q18 44 36 94
q-39 3 -65.5 24.5t-26.5 66.5v222q0 31 -11 43t-40 12q-4 0 -4 9t4 9q99 4 131 83q2 4 8.5 4t6.5 -4v-80q58 1 130 9q7 0 7 -24q0 -6 -1.5 -13t-4.5 -11.5t-5 -3.5q-65 14 -126 15v-237q0 -38 19.5 -56t51.5 -18q40 0 78 30z" />
    <glyph glyph-name="Tcaron" unicode="&#x164;" horiz-adv-x="643" 
d="M310 687l-103 115q-1 2 0 4t3 3t3 0l109 -38l108 40q2 1 4.5 -2t0.5 -5l-102 -117q-11 -11 -23 0zM222 602q-119 0 -171 -155q-1 -3 -6 -2.5t-5 3.5q14 130 14 199q0 5 5.5 5t5.5 -5q0 -22 57 -22q86 -3 201 -3q52 0 112 1.5t81 1.5q38 0 55.5 5t22.5 20q1 4 6.5 4
t5.5 -4q-10 -88 -10 -202q0 -3 -5 -3t-6 3q-15 77 -56 115.5t-101 38.5q-29 0 -38.5 -12.5t-9.5 -47.5v-461q0 -44 14.5 -56.5t68.5 -12.5q3 0 3 -6t-3 -6q-17 0 -63.5 1t-76.5 1q-28 0 -75 -1t-64 -1q-3 0 -3 6t3 6q53 0 68.5 13t15.5 56v463q0 34 -9 46t-37 12z" />
    <glyph glyph-name="tcaron" unicode="&#x165;" horiz-adv-x="336" 
d="M229 423q-1 -2 -6 -1.5t-5 2.5l-8 272q0 5 20.5 -1t40 -17t17.5 -19zM322 69q2 2 5 0.5t4 -4.5t-1 -5q-72 -72 -146 -72q-44 0 -75 21t-31 71v222q0 31 -11 43t-40 12q-4 0 -4 9t4 9q99 4 131 83q2 4 8.5 4t6.5 -4v-80q58 1 130 9q7 0 7 -24q0 -6 -1.5 -13t-4.5 -11.5
t-5 -3.5q-65 14 -126 15v-237q0 -38 19.5 -56t51.5 -18q40 0 78 30z" />
    <glyph glyph-name="Tbar" unicode="&#x166;" horiz-adv-x="632" 
d="M594 650q1 4 6.5 4t5.5 -4q-10 -88 -10 -202q0 -3 -5 -3t-6 3q-15 77 -56 115.5t-101 38.5q-29 0 -38.5 -12.5t-9.5 -47.5v-205h90q4 0 4 -14t-4 -14h-90v-228q0 -44 14.5 -56.5t68.5 -12.5q3 0 3 -6t-3 -6q-17 0 -63.5 1t-76.5 1q-28 0 -75 -1t-64 -1q-3 0 -3 6t3 6
q53 0 68.5 13t15.5 56v228h-91q-5 0 -5 14t5 14h91v207q0 34 -9 46t-37 12q-119 0 -171 -155q-1 -3 -6 -2.5t-5 3.5q14 130 14 199q0 5 5.5 5t5.5 -5q0 -22 57 -22q86 -3 201 -3q52 0 112 1.5t81 1.5q38 0 55.5 5t22.5 20z" />
    <glyph glyph-name="tbar" unicode="&#x167;" horiz-adv-x="339" 
d="M322 69q2 2 5 0.5t4 -4.5t-1 -5q-72 -72 -146 -72q-44 0 -75 21t-31 71v119h-27q-4 0 -4 14t4 14h27v75q0 31 -11 43t-40 12q-4 0 -4 9t4 9q99 4 131 83q2 4 8.5 4t6.5 -4v-80q58 1 130 9q7 0 7 -24q0 -6 -1.5 -13t-4.5 -11.5t-5 -3.5q-65 14 -126 15v-123h107q4 0 4 -14
t-4 -14h-107v-86q0 -38 19.5 -56t51.5 -18q40 0 78 30z" />
    <glyph glyph-name="Utilde" unicode="&#x168;" horiz-adv-x="703" 
d="M448 772q28 0 51 27q1 1 3.5 0t3.5 -3t0 -4q-27 -48 -43.5 -64t-39.5 -16q-17 0 -59 12t-66 12q-14 0 -24 -4.5t-12.5 -7t-14.5 -15.5q-1 -1 -3.5 0t-3.5 3t0 4q45 81 87 81q11 0 54 -12.5t67 -12.5zM571 497q0 54 -24.5 85t-68.5 31q-2 0 -2 6t2 6q15 0 51 -1.5t58 -1.5
q19 0 53 1.5t48 1.5q2 0 2 -6t-2 -6q-39 0 -61 -31t-22 -85v-278q0 -106 -68.5 -169.5t-180.5 -63.5q-113 0 -183 63t-70 172v323q0 43 -13 56t-58 13q-3 0 -3 6t3 6q16 0 58 -1.5t68 -1.5q27 0 69.5 1.5t57.5 1.5q3 0 3 -6t-3 -6q-44 0 -57.5 -14t-13.5 -57v-286
q0 -233 180 -233q83 0 130 50.5t47 144.5v279z" />
    <glyph glyph-name="utilde" unicode="&#x169;" horiz-adv-x="505" 
d="M131 470q-1 -1 -3.5 0t-3.5 3t0 4q45 81 87 81q11 0 54 -12.5t67 -12.5q28 0 51 27q1 1 3.5 0t3.5 -3t0 -4q-27 -48 -43.5 -64t-39.5 -16q-17 0 -59 12t-66 12q-14 0 -24 -4.5t-12.5 -7t-14.5 -15.5zM497 65q2 1 5 -1.5t3.5 -5.5t-1.5 -4l-138 -67q-2 -1 -5 -1
q-23 0 -26 80q-66 -78 -143 -78q-55 0 -86.5 34.5t-31.5 90.5v147q0 65 -31 65q-11 0 -25 -7q-2 -1 -4.5 2t-3 6t1.5 4l134 64q3 1 5 1q5 0 10.5 -4.5t5.5 -8.5v-221q0 -108 83 -108q46 0 85 36v171q0 65 -31 65q-11 0 -26 -7q-2 -1 -4 2t-2.5 6t1.5 4l134 64q2 1 5 1
q5 0 10.5 -4.5t5.5 -8.5v-266q0 -34 6.5 -48t21.5 -14q14 0 41 11z" />
    <glyph glyph-name="Umacron" unicode="&#x16a;" horiz-adv-x="703" 
d="M247 713q-10 0 -10 18.5t10 18.5h251q10 0 10 -18.5t-10 -18.5h-251zM571 497q0 54 -24.5 85t-68.5 31q-2 0 -2 6t2 6q15 0 51 -1.5t58 -1.5q19 0 53 1.5t48 1.5q2 0 2 -6t-2 -6q-39 0 -61 -31t-22 -85v-278q0 -106 -68.5 -169.5t-180.5 -63.5q-113 0 -183 63t-70 172
v323q0 43 -13 56t-58 13q-3 0 -3 6t3 6q16 0 58 -1.5t68 -1.5q27 0 69.5 1.5t57.5 1.5q3 0 3 -6t-3 -6q-44 0 -57.5 -14t-13.5 -57v-286q0 -233 180 -233q83 0 130 50.5t47 144.5v279z" />
    <glyph glyph-name="umacron" unicode="&#x16b;" horiz-adv-x="505" 
d="M131 474q-10 0 -10 18.5t10 18.5h251q10 0 10 -18.5t-10 -18.5h-251zM497 65q2 1 5 -1.5t3.5 -5.5t-1.5 -4l-138 -67q-2 -1 -5 -1q-23 0 -26 80q-66 -78 -143 -78q-55 0 -86.5 34.5t-31.5 90.5v147q0 65 -31 65q-11 0 -25 -7q-2 -1 -4.5 2t-3 6t1.5 4l134 64q3 1 5 1
q5 0 10.5 -4.5t5.5 -8.5v-221q0 -108 83 -108q46 0 85 36v171q0 65 -31 65q-11 0 -26 -7q-2 -1 -4 2t-2.5 6t1.5 4l134 64q2 1 5 1q5 0 10.5 -4.5t5.5 -8.5v-266q0 -34 6.5 -48t21.5 -14q14 0 41 11z" />
    <glyph glyph-name="Ubreve" unicode="&#x16c;" horiz-adv-x="703" 
d="M373 690q-50 0 -76.5 32.5t-26.5 94.5q0 2 3 3t5.5 0t2.5 -2q0 -18 27 -34t65 -16q37 0 64 16t27 34q0 1 3 2t5.5 0t2.5 -3q0 -127 -102 -127zM571 497q0 54 -24.5 85t-68.5 31q-2 0 -2 6t2 6q15 0 51 -1.5t58 -1.5q19 0 53 1.5t48 1.5q2 0 2 -6t-2 -6q-39 0 -61 -31
t-22 -85v-278q0 -106 -68.5 -169.5t-180.5 -63.5q-113 0 -183 63t-70 172v323q0 43 -13 56t-58 13q-3 0 -3 6t3 6q16 0 58 -1.5t68 -1.5q27 0 69.5 1.5t57.5 1.5q3 0 3 -6t-3 -6q-44 0 -57.5 -14t-13.5 -57v-286q0 -233 180 -233q83 0 130 50.5t47 144.5v279z" />
    <glyph glyph-name="ubreve" unicode="&#x16d;" horiz-adv-x="505" 
d="M257 463q-50 0 -76.5 41.5t-26.5 120.5q0 2 3 3t5.5 0t2.5 -2q0 -32 26.5 -56t65.5 -24q38 0 64.5 24.5t26.5 55.5q0 1 3 2t5.5 0t2.5 -3q0 -162 -102 -162zM497 65q2 1 5 -1.5t3.5 -5.5t-1.5 -4l-138 -67q-2 -1 -5 -1q-23 0 -26 80q-66 -78 -143 -78q-55 0 -86.5 34.5
t-31.5 90.5v147q0 65 -31 65q-11 0 -25 -7q-2 -1 -4.5 2t-3 6t1.5 4l134 64q3 1 5 1q5 0 10.5 -4.5t5.5 -8.5v-221q0 -108 83 -108q46 0 85 36v171q0 65 -31 65q-11 0 -26 -7q-2 -1 -4 2t-2.5 6t1.5 4l134 64q2 1 5 1q5 0 10.5 -4.5t5.5 -8.5v-266q0 -34 6.5 -48t21.5 -14
q14 0 41 11z" />
    <glyph glyph-name="Uring" unicode="&#x16e;" horiz-adv-x="703" 
d="M364 707q-48 0 -77 23.5t-29 55.5q0 36 36 57t80 21t75 -23.5t31 -56.5q0 -35 -35 -56t-81 -21zM380 721q26 0 26 45q0 34 -15 59t-37 25q-24 0 -24 -44q0 -33 13.5 -59t36.5 -26zM571 497q0 54 -24.5 85t-68.5 31q-2 0 -2 6t2 6q15 0 51 -1.5t58 -1.5q19 0 53 1.5
t48 1.5q2 0 2 -6t-2 -6q-39 0 -61 -31t-22 -85v-278q0 -106 -68.5 -169.5t-180.5 -63.5q-113 0 -183 63t-70 172v323q0 43 -13 56t-58 13q-3 0 -3 6t3 6q16 0 58 -1.5t68 -1.5q27 0 69.5 1.5t57.5 1.5q3 0 3 -6t-3 -6q-44 0 -57.5 -14t-13.5 -57v-286q0 -233 180 -233
q83 0 130 50.5t47 144.5v279z" />
    <glyph glyph-name="uring" unicode="&#x16f;" horiz-adv-x="505" 
d="M248 468q-48 0 -77 23.5t-29 55.5q0 36 36 57t80 21t75 -23.5t31 -56.5q0 -35 -35 -56t-81 -21zM238 611q-24 0 -24 -44q0 -33 13.5 -59t36.5 -26q26 0 26 45q0 34 -15 59t-37 25zM497 65q2 1 5 -1.5t3.5 -5.5t-1.5 -4l-138 -67q-2 -1 -5 -1q-23 0 -26 80
q-66 -78 -143 -78q-55 0 -86.5 34.5t-31.5 90.5v147q0 65 -31 65q-11 0 -25 -7q-2 -1 -4.5 2t-3 6t1.5 4l134 64q3 1 5 1q5 0 10.5 -4.5t5.5 -8.5v-221q0 -108 83 -108q46 0 85 36v171q0 65 -31 65q-11 0 -26 -7q-2 -1 -4 2t-2.5 6t1.5 4l134 64q2 1 5 1q5 0 10.5 -4.5
t5.5 -8.5v-266q0 -34 6.5 -48t21.5 -14q14 0 41 11z" />
    <glyph glyph-name="Uhungarumlaut" unicode="&#x170;" horiz-adv-x="703" 
d="M262 668q-4 -2 -7.5 2t-0.5 8q54 67 90 127q4 11 56 -10q39 -16 37 -24q-1 -2 -3 -3q-91 -41 -172 -100zM414 668q-4 -2 -7 2t-1 8q37 43 90 127q4 11 56 -10q39 -16 37 -24q-1 -2 -3 -3q-91 -41 -172 -100zM571 497q0 54 -24.5 85t-68.5 31q-2 0 -2 6t2 6q15 0 51 -1.5
t58 -1.5q19 0 53 1.5t48 1.5q2 0 2 -6t-2 -6q-39 0 -61 -31t-22 -85v-278q0 -106 -68.5 -169.5t-180.5 -63.5q-113 0 -183 63t-70 172v323q0 43 -13 56t-58 13q-3 0 -3 6t3 6q16 0 58 -1.5t68 -1.5q27 0 69.5 1.5t57.5 1.5q3 0 3 -6t-3 -6q-44 0 -57.5 -14t-13.5 -57v-286
q0 -233 180 -233q83 0 130 50.5t47 144.5v279z" />
    <glyph glyph-name="uhungarumlaut" unicode="&#x171;" horiz-adv-x="505" 
d="M157 441q-4 -3 -7.5 1.5t-0.5 7.5q45 57 78 114q4 11 53 -7q37 -13 35 -22l-3 -3q-56 -24 -155 -91zM298 441q-4 -3 -7.5 1.5t-1.5 7.5q39 48 79 114q3 11 51 -7q38 -13 36 -22q-1 -2 -3 -3q-55 -23 -154 -91zM497 65q2 1 5 -1.5t3.5 -5.5t-1.5 -4l-138 -67q-2 -1 -5 -1
q-23 0 -26 80q-66 -78 -143 -78q-55 0 -86.5 34.5t-31.5 90.5v147q0 65 -31 65q-11 0 -25 -7q-2 -1 -4.5 2t-3 6t1.5 4l134 64q3 1 5 1q5 0 10.5 -4.5t5.5 -8.5v-221q0 -108 83 -108q46 0 85 36v171q0 65 -31 65q-11 0 -26 -7q-2 -1 -4 2t-2.5 6t1.5 4l134 64q2 1 5 1
q5 0 10.5 -4.5t5.5 -8.5v-266q0 -34 6.5 -48t21.5 -14q14 0 41 11z" />
    <glyph glyph-name="Uogonek" unicode="&#x172;" horiz-adv-x="703" 
d="M688 625q2 0 2 -6t-2 -6q-39 0 -61 -31t-22 -85v-278q0 -86 -46 -145t-126 -79q-53 -53 -53 -112q0 -52 26 -84t71 -32q25 0 43 11q2 1 4.5 -0.5t3.5 -3.5t-1 -4q-55 -45 -112 -45q-51 0 -84.5 32t-33.5 78q0 74 104 154q-21 -3 -45 -3q-113 0 -183 63t-70 172v323
q0 43 -13 56t-58 13q-3 0 -3 6t3 6q16 0 58 -1.5t68 -1.5q27 0 69.5 1.5t57.5 1.5q3 0 3 -6t-3 -6q-44 0 -57.5 -14t-13.5 -57v-286q0 -233 180 -233q83 0 130 50.5t47 144.5v279q0 54 -24.5 85t-68.5 31q-2 0 -2 6t2 6q15 0 51 -1.5t58 -1.5q19 0 53 1.5t48 1.5z" />
    <glyph glyph-name="uogonek" unicode="&#x173;" horiz-adv-x="505" 
d="M497 65q2 1 5 -1.5t3.5 -5.5t-1.5 -4l-8 -4q-94 -46 -129.5 -88t-35.5 -107q0 -91 76 -91q28 0 52 14q2 1 4.5 -0.5t3.5 -3.5t-1 -4q-55 -45 -120 -45q-53 0 -81.5 26t-28.5 70q0 85 121 166q-19 10 -22 79q-66 -78 -143 -78q-55 0 -86.5 34.5t-31.5 90.5v147
q0 65 -31 65q-11 0 -25 -7q-2 -1 -4.5 2t-3 6t1.5 4l134 64q3 1 5 1q5 0 10.5 -4.5t5.5 -8.5v-221q0 -108 83 -108q46 0 85 36v171q0 65 -31 65q-11 0 -26 -7q-2 -1 -4 2t-2.5 6t1.5 4l134 64q2 1 5 1q5 0 10.5 -4.5t5.5 -8.5v-266q0 -34 6.5 -48t21.5 -14q14 0 41 11z" />
    <glyph glyph-name="Wcircumflex" unicode="&#x174;" horiz-adv-x="911" 
d="M363 695q-1 0 -3 1t-3 3t0 3l103 116q4 4 11 4t12 -4l102 -116q2 -1 1.5 -3t-3 -3.5t-3.5 -0.5l-108 39zM917 625q2 0 2 -6t-2 -6q-37 0 -69.5 -31.5t-53.5 -86.5l-185 -494q-1 -4 -11 -4t-11 4l-128 271l-101 -271q-2 -4 -11 -4t-11 4l-255 541q-22 45 -35 58t-41 13
q-3 0 -3 6t3 6q8 0 26.5 -1.5t46.5 -1.5q52 0 95.5 1.5t49.5 1.5q3 0 3 -6t-3 -6q-41 0 -45 -16.5t22 -72.5l180 -382l63 165l-111 235q-34 71 -64 71q-3 0 -3 6t3 6q7 0 22.5 -1.5t39.5 -1.5q44 0 80.5 1.5t40.5 1.5q3 0 3 -6t-3 -6q-14 0 -20.5 -3t-6 -14t6.5 -27t20 -45
l44 -93l25 67q44 115 -3 115q-3 0 -3 6t3 6q5 0 17.5 -1.5t47.5 -1.5q17 0 40 1.5t38 1.5q2 0 2 -6t-2 -6q-67 0 -111 -118l-37 -99l120 -253l129 345q20 54 6.5 89.5t-51.5 35.5q-3 0 -3 6t3 6q16 0 50.5 -1.5t61.5 -1.5q19 0 45.5 1.5t43.5 1.5z" />
    <glyph glyph-name="wcircumflex" unicode="&#x175;" horiz-adv-x="685" 
d="M272 474q-1 -2 -4 -2t-5 1.5t-2 2.5l68 249q1 5 11 5t12 -5l67 -249q2 -2 -3.5 -3.5t-6.5 1.5l-68 108zM699 386q3 0 3 -6t-3 -6q-54 0 -93 -90l-123 -283q-1 -4 -10.5 -4t-11.5 4l-121 238l-103 -238q-1 -4 -10.5 -4t-11.5 4l-153 302q-22 43 -37.5 57t-38.5 14
q-3 0 -3 6t3 6q8 0 38.5 -1t58.5 -1q27 0 63.5 1t48.5 1q3 0 3 -6t-3 -6q-30 0 -43.5 -9t-1.5 -30l116 -209l59 143l-17 34q-23 44 -35 57.5t-30 13.5q-2 0 -2 6t2 6q7 0 34 -1t52 -1q27 0 63.5 1t48.5 1q2 0 2 -6t-2 -6q-27 0 -39 -10.5t-2 -28.5l112 -210l66 160
q16 40 0 64.5t-56 24.5q-3 0 -3 6t3 6q14 0 45 -1t55 -1q17 0 40 1t37 1z" />
    <glyph glyph-name="Ycircumflex" unicode="&#x176;" horiz-adv-x="619" 
d="M216 695q-1 0 -3 1t-3 3t0 3l103 116q5 4 12 4t11 -4l102 -116q2 -1 1.5 -3t-3 -3.5t-3.5 -0.5l-108 39zM625 625q2 0 2 -6t-2 -6q-31 0 -76 -38.5t-80 -96.5l-104 -174v-223q0 -44 12.5 -56.5t58.5 -12.5q3 0 3 -6t-3 -6q-16 0 -58 1t-69 1q-26 0 -69 -1t-59 -1
q-2 0 -2 6t2 6q46 0 59.5 13t13.5 56v202l-146 227q-67 103 -103 103q-3 0 -3 6t3 6q10 0 31 -1.5t31 -1.5q31 0 91.5 1.5t75.5 1.5q2 0 2 -6t-2 -6q-29 0 -35 -20t13 -47l137 -216l92 157q33 55 25 90.5t-54 35.5q-3 0 -3 6t3 6q18 0 59.5 -1.5t75.5 -1.5q17 0 40 1.5
t38 1.5z" />
    <glyph glyph-name="ycircumflex" unicode="&#x177;" horiz-adv-x="427" 
d="M154 474q-1 -2 -4 -2t-5 1.5t-2 2.5l68 249q1 5 11 5t12 -5l67 -249q2 -2 -3.5 -3.5t-6.5 1.5l-68 108zM441 386q2 0 2 -6t-2 -6q-58 0 -98 -107l-111 -295q-53 -140 -101.5 -196.5t-107.5 -56.5q-62 0 -62 49q0 23 14 35t34 12q17 0 37 -13t36 -13q33 0 60 40.5
t68 150.5l-160 323q-22 43 -34.5 57t-30.5 14q-3 0 -3 6t3 6q14 0 42.5 -1t42.5 -1q26 0 62.5 1t49.5 1q3 0 3 -6t-3 -6q-36 0 -45.5 -8t1.5 -31l118 -241l60 174q17 49 2.5 77.5t-55.5 28.5q-2 0 -2 6t2 6q14 0 45 -1t56 -1q16 0 39.5 1t37.5 1z" />
    <glyph glyph-name="Ydieresis" unicode="&#x178;" horiz-adv-x="619" 
d="M238 703q-26 0 -40.5 14.5t-14.5 40.5q0 24 15 38t40 14t38.5 -14t13.5 -38q0 -55 -52 -55zM412 703q-26 0 -40 14.5t-14 40.5q0 24 14.5 37.5t39.5 13.5t38.5 -13.5t13.5 -37.5q0 -55 -52 -55zM625 625q2 0 2 -6t-2 -6q-31 0 -76 -38.5t-80 -96.5l-104 -174v-223
q0 -44 12.5 -56.5t58.5 -12.5q3 0 3 -6t-3 -6q-16 0 -58 1t-69 1q-26 0 -69 -1t-59 -1q-2 0 -2 6t2 6q46 0 59.5 13t13.5 56v202l-146 227q-67 103 -103 103q-3 0 -3 6t3 6q10 0 31 -1.5t31 -1.5q31 0 91.5 1.5t75.5 1.5q2 0 2 -6t-2 -6q-29 0 -35 -20t13 -47l137 -216
l92 157q33 55 25 90.5t-54 35.5q-3 0 -3 6t3 6q18 0 59.5 -1.5t75.5 -1.5q17 0 40 1.5t38 1.5z" />
    <glyph glyph-name="Zacute" unicode="&#x179;" horiz-adv-x="605" 
d="M222 679q-4 -2 -6 3t1 7q28 20 71.5 57.5t54.5 46.5q9 9 71 -16q37 -14 34 -19l-4 -2q-108 -27 -222 -77zM60 13l351 587q3 5 2.5 6.5t-7.5 1.5q-165 0 -231 -23t-106 -107q-1 -1 -4 -1.5t-5.5 1t-2.5 3.5l40 174q0 1 3.5 1.5t6 -1t2.5 -2.5q-3 -18 7.5 -23t49.5 -5h365
q5 0 7.5 -5t-0.5 -8l-346 -585q-4 -5 -3 -6.5t7 -1.5h202q55 0 101.5 40t56.5 94q1 3 6 3t5 -3l-14 -145q0 -10 -9 -10q-149 2 -479 2q-4 0 -6 4.5t1 8.5z" />
    <glyph glyph-name="zacute" unicode="&#x17a;" horiz-adv-x="405" 
d="M212 474q0 -2 -3 -2t-5.5 1.5t-2.5 2.5l33 240q4 9 67 14q34 3 31 -3zM33 12l223 352q4 7 -5 7q-172 0 -208 -106q0 -1 -3.5 -1.5t-6 1t-1.5 3.5l42 157q0 1 3.5 1.5t6 -1t1.5 -3.5q-5 -21 6.5 -28.5t43.5 -7.5h230q4 0 7 -4t1 -8l-228 -349q-3 -7 5 -7q192 0 217 114
q1 3 6.5 3t5.5 -3l-2 -121q0 -11 -10 -11h-327q-4 0 -6.5 4t-0.5 8z" />
    <glyph glyph-name="Zdotaccent" unicode="&#x17b;" horiz-adv-x="605" 
d="M320 713q-28 0 -44.5 16.5t-16.5 44.5q0 26 16.5 42t44.5 16q27 0 42.5 -15.5t15.5 -42.5q0 -29 -15 -45t-43 -16zM60 13l351 587q3 5 2.5 6.5t-7.5 1.5q-165 0 -231 -23t-106 -107q-1 -1 -4 -1.5t-5.5 1t-2.5 3.5l40 174q0 1 3.5 1.5t6 -1t2.5 -2.5q-3 -18 7.5 -23
t49.5 -5h365q5 0 7.5 -5t-0.5 -8l-346 -585q-4 -5 -3 -6.5t7 -1.5h202q55 0 101.5 40t56.5 94q1 3 6 3t5 -3l-14 -145q0 -10 -9 -10q-149 2 -479 2q-4 0 -6 4.5t1 8.5z" />
    <glyph glyph-name="zdotaccent" unicode="&#x17c;" horiz-adv-x="405" 
d="M214 495q-29 0 -45 16t-16 45q0 26 16.5 41.5t44.5 15.5t43 -15.5t15 -41.5q0 -61 -58 -61zM33 12l223 352q4 7 -5 7q-172 0 -208 -106q0 -1 -3.5 -1.5t-6 1t-1.5 3.5l42 157q0 1 3.5 1.5t6 -1t1.5 -3.5q-5 -21 6.5 -28.5t43.5 -7.5h230q4 0 7 -4t1 -8l-228 -349
q-3 -7 5 -7q192 0 217 114q1 3 6.5 3t5.5 -3l-2 -121q0 -11 -10 -11h-327q-4 0 -6.5 4t-0.5 8z" />
    <glyph glyph-name="Zcaron" unicode="&#x17d;" horiz-adv-x="605" 
d="M307 687l-103 115q-1 2 0 4t3 3t3 0l109 -38l108 40q2 1 4.5 -2t0.5 -5l-102 -117q-12 -11 -23 0zM60 13l351 587q3 5 2.5 6.5t-7.5 1.5q-165 0 -231 -23t-106 -107q-1 -1 -4 -1.5t-5.5 1t-2.5 3.5l40 174q0 1 3.5 1.5t6 -1t2.5 -2.5q-3 -18 7.5 -23t49.5 -5h365
q5 0 7.5 -5t-0.5 -8l-346 -585q-4 -5 -3 -6.5t7 -1.5h202q55 0 101.5 40t56.5 94q1 3 6 3t5 -3l-14 -145q0 -10 -9 -10q-149 2 -479 2q-4 0 -6 4.5t1 8.5z" />
    <glyph glyph-name="zcaron" unicode="&#x17e;" horiz-adv-x="405" 
d="M134 726q0 2 2 3.5t5 1t4 -1.5l69 -109l68 109q1 1 4 1.5t5 -1t1 -3.5l-67 -249q-1 -5 -11 -5t-12 5zM33 12l223 352q4 7 -5 7q-172 0 -208 -106q0 -1 -3.5 -1.5t-6 1t-1.5 3.5l42 157q0 1 3.5 1.5t6 -1t1.5 -3.5q-5 -21 6.5 -28.5t43.5 -7.5h230q4 0 7 -4t1 -8
l-228 -349q-3 -7 5 -7q192 0 217 114q1 3 6.5 3t5.5 -3l-2 -121q0 -11 -10 -11h-327q-4 0 -6.5 4t-0.5 8z" />
    <glyph glyph-name="longs" unicode="&#x17f;" horiz-adv-x="260" 
d="M23 0q-3 0 -3 6t3 6q38 0 49 12.5t11 56.5v337q0 162 56.5 235t166.5 73t110 -59q0 -23 -16 -36t-37 -13t-34 13.5t-17 30t-15 30t-29 13.5q-90 0 -90 -266v-358q0 -44 13.5 -56.5t63.5 -12.5q4 0 4 -6t-4 -6q-22 0 -63 1t-62 1t-57 -1t-50 -1z" />
    <glyph glyph-name="uni018F" unicode="&#x18f;" horiz-adv-x="639" 
d="M271 636q74 0 131 -19t91.5 -49t56.5 -72t30.5 -83.5t8.5 -88.5q0 -156 -93 -246t-232 -90q-113 0 -172 56t-59 119q0 12 11 12l415 2q10 47 10 111q0 144 -52 234.5t-154 90.5q-67 0 -120.5 -40.5t-78.5 -116.5q-1 -5 -9 -1l-2 3l46 190q1 3 4 3.5t5 -1t2 -3.5
q-4 -18 3.5 -25.5t23.5 -2.5q64 17 134 17zM299 7q120 0 156 150l-302 -4q6 -66 46.5 -106t99.5 -40z" />
    <glyph glyph-name="florin" unicode="&#x192;" horiz-adv-x="352" 
d="M303 726q95 0 95 -51q0 -17 -12 -29t-34 -12q-33 0 -50 37q-5 11 -8.5 16.5t-10.5 10.5t-16 5q-30 0 -45 -55t-29 -209l-5 -61q43 1 120 8q2 0 4.5 -4t3 -10t-0.5 -13q-2 -11 -7 -18t-9 -6q-51 12 -114 15l-36 -414q-14 -112 -45 -150.5t-126 -60.5q-2 0 -4 2.5t-2 5
t1 3.5q37 13 52.5 51.5t23.5 128.5l33 390q2 34 -5.5 42.5t-40.5 8.5q-1 0 -1.5 4.5t1 9t3.5 4.5q28 0 39 9.5t12 33.5q20 169 67 238.5t146 69.5z" />
    <glyph glyph-name="Ohorn" unicode="&#x1a0;" horiz-adv-x="766" 
d="M746 662q0 -40 -32 -68t-87 -50q90 -93 90 -225q0 -138 -103.5 -234.5t-247.5 -96.5q-141 0 -229 94t-88 230q0 78 32 141.5t83.5 102.5t112.5 59.5t124 20.5q127 0 215 -81q52 24 52 52q0 9 -11 24t-11 32q0 24 15.5 37.5t36.5 13.5q23 0 35.5 -15.5t12.5 -36.5zM399 13
q86 0 140.5 73.5t54.5 203.5q0 140 -63 229.5t-170 89.5q-91 0 -140 -68.5t-49 -191.5q0 -147 64 -241.5t163 -94.5z" />
    <glyph glyph-name="ohorn" unicode="&#x1a1;" horiz-adv-x="489" 
d="M374 362q39 -29 61 -74.5t22 -95.5q0 -90 -65 -147.5t-155 -57.5q-92 0 -148.5 61.5t-56.5 149.5q0 96 68 148.5t154 52.5q56 0 103 -26q28 18 28 39q0 9 -11 24t-11 32q0 24 15.5 37.5t36.5 13.5q23 0 35.5 -15.5t12.5 -36.5q0 -61 -89 -105zM267 8q80 0 80 149
q0 104 -37.5 162.5t-89.5 58.5q-80 0 -80 -143q0 -101 36.5 -164t90.5 -63z" />
    <glyph glyph-name="Uhorn" unicode="&#x1af;" horiz-adv-x="703" 
d="M605 497v-302q0 -95 -68.5 -152t-178.5 -57q-115 0 -185 56.5t-70 155.5v346q0 43 -13 56t-58 13q-3 0 -3 6t3 6q16 0 58 -1.5t68 -1.5q27 0 69.5 1.5t57.5 1.5q3 0 3 -6t-3 -6q-44 0 -57.5 -14t-13.5 -57v-309q0 -106 47 -158t130 -52q86 0 133 44.5t47 126.5v303
q0 54 -24.5 85t-68.5 31q-2 0 -2 6t2 6q15 0 51 -1.5t58 -1.5q100 0 100 38q0 8 -11.5 23t-11.5 33q0 24 16 37t37 13q23 0 35.5 -16t12.5 -39q0 -21 -9.5 -38t-27 -29t-31 -18t-34.5 -14q-58 -23 -58 -115z" />
    <glyph glyph-name="uhorn" unicode="&#x1b0;" horiz-adv-x="508" 
d="M497 65q2 1 5 -1.5t3.5 -5.5t-1.5 -4l-138 -67q-2 -1 -5 -1q-23 0 -26 80q-66 -78 -143 -78q-55 0 -86.5 34.5t-31.5 90.5v147q0 65 -31 65q-11 0 -25 -7q-2 -1 -4.5 2t-3 6t1.5 4l134 64q3 1 5 1q5 0 10.5 -4.5t5.5 -8.5v-221q0 -108 83 -108q46 0 85 36v171
q0 50 -8.5 66.5t-30.5 16.5q-13 0 -20 -1q-4 0 -4.5 5.5t3.5 6.5q95 13 131.5 25.5t36.5 32.5q0 8 -11 23t-11 33q0 24 16 37t37 13q22 0 35 -15.5t13 -35.5q0 -57 -87 -95q-7 -2 -7 -9v-247q0 -34 6.5 -48t21.5 -14q14 0 41 11z" />
    <glyph glyph-name="uni01CD" unicode="&#x1cd;" 
d="M342 687l-103 115q-1 2 0 4t3 3t3 0l109 -38l108 40q2 1 4.5 -2t0.5 -5l-102 -117q-11 -11 -23 0zM717 12q5 0 5 -6t-5 -6q-20 0 -62.5 2t-62.5 2q-24 0 -59.5 -2t-55.5 -2q-5 0 -5 6t5 6q41 0 47.5 16.5t-18.5 65.5l-104 205h-178l-71 -157q-25 -60 -1 -95t82 -35
q4 0 4 -6t-4 -6q-19 0 -55 2t-63 2t-62.5 -2t-57.5 -2q-4 0 -4 6t4 6q40 0 66 27.5t64 112.5l217 477q1 3 8.5 3.5t9.5 -3.5l250 -492q35 -71 58 -98t48 -27zM237 327h151l-80 158z" />
    <glyph glyph-name="uni01CE" unicode="&#x1ce;" horiz-adv-x="421" 
d="M202 477l-68 249q0 2 2 3.5t5 1t4 -1.5l69 -109l68 109q1 1 4 1.5t5 -1t1 -3.5l-67 -249q-1 -5 -11 -5t-12 5zM418 54q2 1 4.5 -1.5t2.5 -5t-3 -4.5l-103 -49q-4 -2 -10 -2q-15 0 -29.5 15t-20.5 41l-46 -25q-58 -30 -104 -30q-32 0 -50.5 16.5t-18.5 47.5q0 33 23 48.5
t90 37.5l102 33v79q0 117 -51 117q-50 0 -55 -77q-6 -56 -59 -56q-47 0 -47 41t71 78t129 37q47 0 76.5 -28t29.5 -82v-177q0 -61 40 -61q14 0 29 7zM243 57l13 7q-1 7 -1 21v74l-55 -20q-50 -18 -50 -51q0 -21 12 -33t30 -12q22 0 51 14z" />
    <glyph glyph-name="uni01CF" unicode="&#x1cf;" horiz-adv-x="342" 
d="M159 687l-103 115q-1 2 0 4t3 3t3 0l109 -38l108 40q2 1 4.5 -2t0.5 -5l-102 -117q-12 -11 -23 0zM227 81q0 -44 12.5 -56.5t58.5 -12.5q3 0 3 -6t-3 -6q-16 0 -58.5 1t-69.5 1q-26 0 -69 -1t-59 -1q-2 0 -2 6t2 6q46 0 59.5 13t13.5 56v463q0 43 -13.5 56t-59.5 13
q-2 0 -2 6t2 6q16 0 59 -1.5t69 -1.5q28 0 70.5 1.5t57.5 1.5q3 0 3 -6t-3 -6q-45 0 -58 -13.5t-13 -57.5v-461z" />
    <glyph glyph-name="uni01D0" unicode="&#x1d0;" horiz-adv-x="263" 
d="M55 726q0 2 2 3.5t5 1t4 -1.5l69 -109l68 109q1 1 4 1.5t5 -1t1 -3.5l-67 -249q-2 -5 -11.5 -5t-11.5 5zM39 0q-3 0 -3 6t3 6q31 0 42 14.5t11 54.5v179q0 64 -30 64q-13 0 -37 -11q-2 -1 -4.5 2t-3 6t1.5 4l151 70q2 1 3 1q5 0 10 -5t5 -9q0 -1 -1 -40t-1 -80v-181
q0 -40 11.5 -54.5t42.5 -14.5q3 0 3 -6t-3 -6q-12 0 -46 1t-55 1t-55 -1t-45 -1z" />
    <glyph glyph-name="uni01D1" unicode="&#x1d1;" horiz-adv-x="766" 
d="M376 687l-103 115q-1 2 0 4t3 3t3 0l109 -38l108 40q2 1 4.5 -2t0.5 -5l-102 -117q-11 -11 -23 0zM366 -12q-141 0 -229 94t-88 230q0 78 32 141.5t83.5 102.5t112.5 59.5t124 20.5q142 0 229 -95t87 -222q0 -138 -103.5 -234.5t-247.5 -96.5zM399 13q86 0 140.5 73.5
t54.5 203.5q0 140 -63 229.5t-170 89.5q-91 0 -140 -68.5t-49 -191.5q0 -147 64 -241.5t163 -94.5z" />
    <glyph glyph-name="uni01D2" unicode="&#x1d2;" horiz-adv-x="489" 
d="M166 726q0 2 2 3.5t5 1t4 -1.5l69 -109l68 109q1 1 4 1.5t5 -1t1 -3.5l-67 -249q-1 -5 -11 -5t-12 5zM237 -13q-92 0 -148.5 61.5t-56.5 149.5q0 96 68 148.5t154 52.5q92 0 147.5 -62t55.5 -145q0 -90 -65 -147.5t-155 -57.5zM267 8q80 0 80 149q0 104 -37.5 162.5
t-89.5 58.5q-80 0 -80 -143q0 -101 36.5 -164t90.5 -63z" />
    <glyph glyph-name="uni01D3" unicode="&#x1d3;" horiz-adv-x="703" 
d="M361 687l-103 115q-1 2 0 4t3 3t3 0l109 -38l108 40q2 1 4.5 -2t0.5 -5l-102 -117q-12 -11 -23 0zM571 497q0 54 -24.5 85t-68.5 31q-2 0 -2 6t2 6q15 0 51 -1.5t58 -1.5q19 0 53 1.5t48 1.5q2 0 2 -6t-2 -6q-39 0 -61 -31t-22 -85v-278q0 -106 -68.5 -169.5
t-180.5 -63.5q-113 0 -183 63t-70 172v323q0 43 -13 56t-58 13q-3 0 -3 6t3 6q16 0 58 -1.5t68 -1.5q27 0 69.5 1.5t57.5 1.5q3 0 3 -6t-3 -6q-44 0 -57.5 -14t-13.5 -57v-286q0 -233 180 -233q83 0 130 50.5t47 144.5v279z" />
    <glyph glyph-name="uni01D4" unicode="&#x1d4;" horiz-adv-x="505" 
d="M245 477l-68 249q0 2 2 3.5t5 1t4 -1.5l69 -109l68 109q1 1 4 1.5t5 -1t1 -3.5l-67 -249q-2 -5 -11.5 -5t-11.5 5zM497 65q2 1 5 -1.5t3.5 -5.5t-1.5 -4l-138 -67q-2 -1 -5 -1q-23 0 -26 80q-66 -78 -143 -78q-55 0 -86.5 34.5t-31.5 90.5v147q0 65 -31 65q-11 0 -25 -7
q-2 -1 -4.5 2t-3 6t1.5 4l134 64q3 1 5 1q5 0 10.5 -4.5t5.5 -8.5v-221q0 -108 83 -108q46 0 85 36v171q0 65 -31 65q-11 0 -26 -7q-2 -1 -4 2t-2.5 6t1.5 4l134 64q2 1 5 1q5 0 10.5 -4.5t5.5 -8.5v-266q0 -34 6.5 -48t21.5 -14q14 0 41 11z" />
    <glyph glyph-name="uni01D5" unicode="&#x1d5;" horiz-adv-x="703" 
d="M246 841q-10 0 -10 19t10 19h251q11 0 11 -19t-11 -19h-251zM287 692q-26 0 -40.5 14.5t-14.5 40.5q0 23 15 37t40 14t38.5 -14t13.5 -37q0 -55 -52 -55zM461 692q-26 0 -40 14.5t-14 40.5q0 23 14.5 36.5t39.5 13.5t38.5 -13.5t13.5 -36.5q0 -55 -52 -55zM571 497
q0 54 -24.5 85t-68.5 31q-2 0 -2 6t2 6q15 0 51 -1.5t58 -1.5q19 0 53 1.5t48 1.5q2 0 2 -6t-2 -6q-39 0 -61 -31t-22 -85v-278q0 -106 -68.5 -169.5t-180.5 -63.5q-113 0 -183 63t-70 172v323q0 43 -13 56t-58 13q-3 0 -3 6t3 6q16 0 58 -1.5t68 -1.5q27 0 69.5 1.5
t57.5 1.5q3 0 3 -6t-3 -6q-44 0 -57.5 -14t-13.5 -57v-286q0 -233 180 -233q83 0 130 50.5t47 144.5v279z" />
    <glyph glyph-name="uni01D6" unicode="&#x1d6;" horiz-adv-x="505" 
d="M130 602q-10 0 -10 19t10 19h251q11 0 11 -19t-11 -19h-251zM171 453q-26 0 -40.5 14.5t-14.5 40.5q0 23 15 37t40 14t38.5 -13.5t13.5 -37.5q0 -55 -52 -55zM345 558q25 0 38.5 -13.5t13.5 -36.5q0 -55 -52 -55q-26 0 -40 14.5t-14 40.5q0 23 14.5 36.5t39.5 13.5z
M497 65q2 1 5 -1.5t3.5 -5.5t-1.5 -4l-138 -67q-2 -1 -5 -1q-23 0 -26 80q-66 -78 -143 -78q-55 0 -86.5 34.5t-31.5 90.5v147q0 65 -31 65q-11 0 -25 -7q-2 -1 -4.5 2t-3 6t1.5 4l134 64q3 1 5 1q5 0 10.5 -4.5t5.5 -8.5v-221q0 -108 83 -108q46 0 85 36v171q0 65 -31 65
q-11 0 -26 -7q-2 -1 -4 2t-2.5 6t1.5 4l134 64q2 1 5 1q5 0 10.5 -4.5t5.5 -8.5v-266q0 -34 6.5 -48t21.5 -14q14 0 41 11z" />
    <glyph glyph-name="uni01D7" unicode="&#x1d7;" horiz-adv-x="703" 
d="M240 821q-4 -1 -6 4t1 7q32 16 178 102q11 8 73 -17q35 -14 33 -19q-1 -1 -4 -2q-157 -31 -275 -75zM287 692q-26 0 -40.5 14.5t-14.5 40.5q0 23 15 37t40 14t38.5 -14t13.5 -37q0 -55 -52 -55zM461 692q-26 0 -40 14.5t-14 40.5q0 23 14.5 36.5t39.5 13.5t38.5 -13.5
t13.5 -36.5q0 -55 -52 -55zM571 497q0 54 -24.5 85t-68.5 31q-2 0 -2 6t2 6q15 0 51 -1.5t58 -1.5q19 0 53 1.5t48 1.5q2 0 2 -6t-2 -6q-39 0 -61 -31t-22 -85v-278q0 -106 -68.5 -169.5t-180.5 -63.5q-113 0 -183 63t-70 172v323q0 43 -13 56t-58 13q-3 0 -3 6t3 6
q16 0 58 -1.5t68 -1.5q27 0 69.5 1.5t57.5 1.5q3 0 3 -6t-3 -6q-44 0 -57.5 -14t-13.5 -57v-286q0 -233 180 -233q83 0 130 50.5t47 144.5v279z" />
    <glyph glyph-name="uni01D8" unicode="&#x1d8;" horiz-adv-x="505" 
d="M124 582q-4 -1 -6 4t1 7q32 16 178 102q11 8 73 -17q35 -14 33 -19q-1 -1 -4 -2q-157 -31 -275 -75zM171 453q-26 0 -40.5 14.5t-14.5 40.5q0 23 15 37t40 14t38.5 -13.5t13.5 -37.5q0 -55 -52 -55zM291 508q0 23 14.5 36.5t39.5 13.5t38.5 -13.5t13.5 -36.5
q0 -55 -52 -55q-26 0 -40 14.5t-14 40.5zM497 65q2 1 5 -1.5t3.5 -5.5t-1.5 -4l-138 -67q-2 -1 -5 -1q-23 0 -26 80q-66 -78 -143 -78q-55 0 -86.5 34.5t-31.5 90.5v147q0 65 -31 65q-11 0 -25 -7q-2 -1 -4.5 2t-3 6t1.5 4l134 64q3 1 5 1q5 0 10.5 -4.5t5.5 -8.5v-221
q0 -108 83 -108q46 0 85 36v171q0 65 -31 65q-11 0 -26 -7q-2 -1 -4 2t-2.5 6t1.5 4l134 64q2 1 5 1q5 0 10.5 -4.5t5.5 -8.5v-266q0 -34 6.5 -48t21.5 -14q14 0 41 11z" />
    <glyph glyph-name="uni01D9" unicode="&#x1d9;" horiz-adv-x="703" 
d="M365 813l-118 116q-1 1 0 3t3 3t3 1l124 -50l122 51q3 1 5 -1.5t0 -5.5l-117 -117q-4 -5 -10.5 -5t-11.5 5zM287 692q-26 0 -40.5 14.5t-14.5 40.5q0 23 15 37t40 14t38.5 -14t13.5 -37q0 -55 -52 -55zM461 692q-26 0 -40 14.5t-14 40.5q0 23 14.5 36.5t39.5 13.5
t38.5 -13.5t13.5 -36.5q0 -55 -52 -55zM571 497q0 54 -24.5 85t-68.5 31q-2 0 -2 6t2 6q15 0 51 -1.5t58 -1.5q19 0 53 1.5t48 1.5q2 0 2 -6t-2 -6q-39 0 -61 -31t-22 -85v-278q0 -106 -68.5 -169.5t-180.5 -63.5q-113 0 -183 63t-70 172v323q0 43 -13 56t-58 13q-3 0 -3 6
t3 6q16 0 58 -1.5t68 -1.5q27 0 69.5 1.5t57.5 1.5q3 0 3 -6t-3 -6q-44 0 -57.5 -14t-13.5 -57v-286q0 -233 180 -233q83 0 130 50.5t47 144.5v279z" />
    <glyph glyph-name="uni01DA" unicode="&#x1da;" horiz-adv-x="505" 
d="M131 690q-1 1 0 3t3 3t3 1l124 -50l122 51q3 1 5 -1.5t0 -5.5l-117 -117q-4 -4 -10.5 -4t-11.5 4zM171 453q-26 0 -40.5 14.5t-14.5 40.5q0 23 15 37t40 14t38.5 -13.5t13.5 -37.5q0 -55 -52 -55zM345 558q25 0 38.5 -13.5t13.5 -36.5q0 -55 -52 -55q-26 0 -40 14.5
t-14 40.5q0 23 14.5 36.5t39.5 13.5zM497 65q2 1 5 -1.5t3.5 -5.5t-1.5 -4l-138 -67q-2 -1 -5 -1q-23 0 -26 80q-66 -78 -143 -78q-55 0 -86.5 34.5t-31.5 90.5v147q0 65 -31 65q-11 0 -25 -7q-2 -1 -4.5 2t-3 6t1.5 4l134 64q3 1 5 1q5 0 10.5 -4.5t5.5 -8.5v-221
q0 -108 83 -108q46 0 85 36v171q0 65 -31 65q-11 0 -26 -7q-2 -1 -4 2t-2.5 6t1.5 4l134 64q2 1 5 1q5 0 10.5 -4.5t5.5 -8.5v-266q0 -34 6.5 -48t21.5 -14q14 0 41 11z" />
    <glyph glyph-name="uni01DB" unicode="&#x1db;" horiz-adv-x="703" 
d="M521 821q-118 44 -275 75q-13 2 15 15q52 24 81 24q4 0 6 -1q149 -88 177 -102q4 -2 2 -7t-6 -4zM474 692q-25 0 -39 14.5t-14 40.5q0 23 14 37t39 14t40 -14t15 -37q0 -26 -14.5 -40.5t-40.5 -14.5zM300 692q-52 0 -52 55q0 23 13.5 36.5t38.5 13.5t39 -13.5t14 -36.5
q0 -55 -53 -55zM571 497q0 54 -24.5 85t-68.5 31q-2 0 -2 6t2 6q15 0 51 -1.5t58 -1.5q19 0 53 1.5t48 1.5q2 0 2 -6t-2 -6q-39 0 -61 -31t-22 -85v-278q0 -106 -68.5 -169.5t-180.5 -63.5q-113 0 -183 63t-70 172v323q0 43 -13 56t-58 13q-3 0 -3 6t3 6q16 0 58 -1.5
t68 -1.5q27 0 69.5 1.5t57.5 1.5q3 0 3 -6t-3 -6q-44 0 -57.5 -14t-13.5 -57v-286q0 -233 180 -233q83 0 130 50.5t47 144.5v279z" />
    <glyph glyph-name="uni01DC" unicode="&#x1dc;" horiz-adv-x="505" 
d="M130 657q-13 2 15 15q52 24 81 24l6 -1q149 -88 177 -102q4 -2 2 -7t-6 -4q-118 44 -275 75zM358 559q25 0 40 -14t15 -37q0 -26 -14.5 -40.5t-40.5 -14.5q-25 0 -39 14.5t-14 40.5q0 23 14 37t39 14zM132 508q0 23 13.5 36.5t38.5 13.5t39 -13.5t14 -36.5q0 -55 -53 -55
q-52 0 -52 55zM497 65q2 1 5 -1.5t3.5 -5.5t-1.5 -4l-138 -67q-2 -1 -5 -1q-23 0 -26 80q-66 -78 -143 -78q-55 0 -86.5 34.5t-31.5 90.5v147q0 65 -31 65q-11 0 -25 -7q-2 -1 -4.5 2t-3 6t1.5 4l134 64q3 1 5 1q5 0 10.5 -4.5t5.5 -8.5v-221q0 -108 83 -108q46 0 85 36v171
q0 65 -31 65q-11 0 -26 -7q-2 -1 -4 2t-2.5 6t1.5 4l134 64q2 1 5 1q5 0 10.5 -4.5t5.5 -8.5v-266q0 -34 6.5 -48t21.5 -14q14 0 41 11z" />
    <glyph glyph-name="uni01E2" unicode="&#x1e2;" horiz-adv-x="888" 
d="M453 713q-10 0 -10 18.5t10 18.5h251q10 0 10 -18.5t-10 -18.5h-251zM832 159q1 3 6 1.5t5 -3.5q-9 -88 -9 -142q0 -15 -15 -15h-437q-2 0 -2 6t2 6q46 0 59 12.5t13 56.5v230h-150l-110 -173q-36 -58 -23 -92t71 -34q4 0 4 -6t-4 -6q-22 0 -65 2t-76 2q-24 0 -56.5 -2
t-51.5 -2q-5 0 -5 6t5 6q42 0 76.5 27t77.5 93l288 442q19 27 8 33t-72 6q-3 0 -3 6t3 6h430q10 0 10 -9l2 -133q0 -2 -5.5 -3t-6.5 2q-10 38 -51.5 76t-91.5 38h-42q-57 0 -57 -53v-204h83q58 0 88.5 20t30.5 56q0 3 6 3t6 -3q0 -24 -0.5 -51.5t-0.5 -38.5q0 -17 1 -49.5
t1 -52.5q0 -2 -5.5 -2t-5.5 2q0 41 -31.5 64.5t-90.5 23.5h-82v-226q0 -57 46 -57h44q57 0 111.5 39t71.5 92zM322 339h132v208z" />
    <glyph glyph-name="uni01E3" unicode="&#x1e3;" horiz-adv-x="589" 
d="M189 474q-10 0 -10 18.5t10 18.5h251q10 0 10 -18.5t-10 -18.5h-251zM571 65q4 4 7 -4v-5q-71 -68 -158 -68q-105 0 -152 68l-61 -33q-57 -30 -104 -30q-32 0 -50.5 16.5t-18.5 47.5q0 33 23 48.5t90 37.5l88 28q-5 140 -17 171q-11 31 -38 31q-49 0 -49 -82
q0 -50 -51 -50q-52 0 -52 44q0 35 59 72.5t115 37.5q70 0 103 -55q61 55 146 55q59 0 90.5 -28t31.5 -80q0 -11 -3 -15.5t-12 -4.5h-81l-137 -2q-3 -23 -3 -50q0 -181 126 -181q67 0 108 31zM418 375q-57 0 -75 -90l122 4q0 42 -12.5 64t-34.5 22zM237 57l23 12
q-20 35 -24 85l-42 -15q-44 -17 -44 -51q0 -20 12 -32t31 -12q18 0 44 13z" />
    <glyph glyph-name="Gcaron" unicode="&#x1e6;" horiz-adv-x="719" 
d="M382 687l-103 115q-1 2 0 4t3 3t3 0l109 -38l108 40q2 1 4.5 -2t0.5 -5l-102 -117q-11 -11 -23 0zM409 -12q-166 0 -263 90.5t-97 227.5q0 146 107.5 238t271.5 92q108 0 172 -27q14 -5 15 -23l13 -139q0 -3 -5 -4t-7 3q-35 77 -96.5 120t-140.5 43q-102 0 -155.5 -71
t-53.5 -194q0 -150 74.5 -244.5t189.5 -94.5q60 0 82.5 23.5t22.5 97.5q0 73 -15.5 90t-83.5 17q-4 0 -5.5 4t0 8t4.5 4q121 -8 243 -2q5 0 5 -7t-5 -7q-25 1 -30.5 -17.5t-5.5 -99.5q0 -40 3.5 -63t3.5 -25q0 -8 -12 -12q-129 -28 -232 -28z" />
    <glyph glyph-name="gcaron" unicode="&#x1e7;" horiz-adv-x="451" 
d="M211 477l-68 249q0 2 2 3.5t5 1t4 -1.5l69 -109l68 109q1 1 4 1.5t5 -1t1 -3.5l-67 -249q-2 -5 -11.5 -5t-11.5 5zM256 44q31 -5 43.5 -7.5t39.5 -9t39.5 -14.5t28.5 -20.5t22.5 -30t6.5 -40.5q0 -82 -75.5 -143t-178.5 -61q-74 0 -121 32t-47 83q0 74 104 149
q-63 19 -63 72q0 57 80 101q-44 15 -68 46t-24 67q0 58 54 91.5t118 33.5q67 0 111 -33q52 36 109 36q8 0 8 -28q0 -32 -9 -44l-2 -1q-42 17 -75 17h-8q26 -31 26 -70q0 -56 -53.5 -90.5t-119.5 -34.5q-27 0 -51 6q-20 -16 -20 -41q0 -16 9 -27.5t31 -19t36.5 -10.5t48.5 -9
zM182 374q-42 0 -42 -79q0 -52 25 -92t64 -40q19 0 33.5 20t14.5 63q0 54 -28 91t-67 37zM235 -250q52 0 84.5 30.5t32.5 81.5q0 20 -5.5 35t-18.5 25.5t-24.5 17t-34 12t-35 8t-39.5 6.5l-54 9q-28 -33 -28 -94q0 -63 34 -97t88 -34z" />
    </font>
</defs>
</svg>
