<?xml version="1.0" standalone="no"?>
<!DOCTYPE svg PUBLIC "-//W3C//DTD SVG 1.1//EN" "http://www.w3.org/Graphics/SVG/1.1/DTD/svg11.dtd" >
<svg xmlns="http://www.w3.org/2000/svg" xmlns:xlink="http://www.w3.org/1999/xlink" version="1.1">
<metadata>
Created by FontForge 20161003 at Fri Dec 21 16:26:21 2018
 By www-data
Copyright 2015 The Cormorant Project Authors (github.com/CatharsisFonts/Cormorant)
</metadata>
<defs>
<font id="CormorantRegular" horiz-adv-x="702" >
  <font-face 
    font-family="CormorantRegular"
    font-weight="400"
    font-stretch="normal"
    units-per-em="1000"
    panose-1="0 0 5 0 0 0 0 0 0 0"
    ascent="800"
    descent="-200"
    x-height="386"
    cap-height="625"
    bbox="-353.5 -282.167 1452 925.385"
    underline-thickness="50"
    underline-position="-150"
    unicode-range="U+0020-A78C"
  />
<missing-glyph horiz-adv-x="501" 
d="M94 -275v1000h317v-1000h-317zM168 626h65v-38h-66v-32h166v32h-66v38h66v32h-165v-32zM167 426h166v34h-66v69h-100v-103zM200 460v35h33v-35h-33zM167 365h66v-36h-66v-34h100v70h66v33h-166v-33zM301 273h-134v-34h166v99h-32v-65zM233 160h34v24h34v-48h-101v80h-33
v-113h166v113h-100v-56zM167 -70h166v113h-166v-113zM200 -37v48h101v-48h-101zM167 -126h70l-70 -47v-33h166v33h-101l69 47h32v34h-166v-34z" />
    <glyph glyph-name="Aogonek_acutecomb.liga" unicode="&#x104;&#x301;" horiz-adv-x="704" 
d="M247 679q-4 -2 -6 3t1 7q37 19 96.5 55t66.5 40q9 5 50 -15q17 -8 16 -12q0 -1 -2 -1q-108 -27 -222 -77zM699 9q4 0 4 -5.5t-4 -5.5q-21 0 -51.5 1.5t-44.5 1.5q-54 0 -91 -36.5t-37 -93.5q0 -49 27.5 -82.5t80.5 -33.5q30 0 56 13q2 2 5.5 -2t1.5 -6q-45 -35 -105 -35
q-58 0 -91 29.5t-33 79.5q0 35 17 65.5t38.5 48.5t42 41t27 42.5t-6.5 52.5l-118 247h-186l-86 -204q-24 -61 -3.5 -88t87.5 -27q5 0 5 -6t-5 -6q-19 0 -55 2t-63 2q-25 0 -57.5 -2t-52.5 -2q-5 0 -5 6t5 6q41 0 66.5 25.5t56.5 98.5l211 498q1 3 6.5 3t6.5 -3l236 -499
q34 -73 58.5 -99.5t56.5 -26.5zM240 352h167l-88 186z" />
    <glyph glyph-name="Eogonek_acutecomb.liga" unicode="&#x118;&#x301;" horiz-adv-x="537" 
d="M172 679q-4 -2 -6 3t1 7q37 19 96.5 55t66.5 40q9 5 50 -15q17 -8 16 -12q0 -1 -2 -1q-108 -27 -222 -77zM497 -222q2 1 4.5 -0.5t3.5 -3.5t-1 -4q-52 -45 -108 -45q-54 0 -83 27t-29 72q0 86 112 176h-353q-2 0 -2 6t2 6q55 0 70.5 12.5t15.5 56.5v463q0 43 -16 56
t-70 13q-2 0 -2 6t2 6h402q9 0 9 -9l2 -123q0 -3 -5 -3.5t-6 2.5q-3 53 -32 82.5t-77 29.5h-61q-50 0 -65.5 -12.5t-15.5 -52.5v-203h122q48 0 68.5 16t20.5 54q0 2 6 2t6 -2q0 -22 -0.5 -46t-0.5 -35q0 -15 1 -45t1 -47q0 -2 -6 -2t-6 2q0 44 -21.5 63t-71.5 19h-119v-230
q0 -40 14.5 -52t63.5 -12h80q48 0 80 34t43 94q1 3 6.5 2t5.5 -4q-9 -63 -9 -132q0 -15 -16 -15h-47q-76 -69 -76 -143q0 -48 24 -75t69 -27q34 0 65 23z" />
    <glyph glyph-name="IJ_acutecomb.liga" unicode="&#x132;&#x301;" horiz-adv-x="690" 
d="M70 679q-4 -2 -6 3t1 7q37 19 96.5 55t66.5 40q9 5 50 -15q17 -8 16 -12q0 -1 -2 -1q-108 -27 -222 -77zM444 679q-4 -2 -6 3t1 7q37 19 96.5 55t66.5 40q9 5 50 -15q17 -8 16 -12q0 -1 -2 -1q-108 -27 -222 -77zM194 350q0 -44 15 -56.5t71 -12.5q2 0 2 -6t-2 -6
q-15 0 -54.5 1t-65.5 1q-23 0 -63 -1t-55 -1q-2 0 -2 6t2 6q55 0 70.5 12.5t15.5 56.5v194q0 43 -16 56t-70 13q-2 0 -2 6t2 6q15 0 55 -1.5t63 -1.5q26 0 66.5 1.5t53.5 1.5q2 0 2 -6t-2 -6q-54 0 -70 -14t-16 -57v-192zM656 625q3 0 3 -6t-3 -6q-46 0 -60 -13.5t-14 -57.5
v-284q0 -129 -65.5 -200t-173.5 -71q-93 0 -158.5 47t-65.5 101q0 17 9 26.5t25 9.5q22 0 32 -17.5t15 -42.5t15 -49.5t40.5 -42t82.5 -17.5q179 0 179 198v344q0 43 -18 56t-80 13q-3 0 -3 6t3 6q18 0 61 -1.5t68 -1.5q23 0 59.5 1.5t48.5 1.5z" />
    <glyph glyph-name="Iogonek_acutecomb.liga" unicode="&#x12e;&#x301;" horiz-adv-x="332" 
d="M227 784q9 5 50 -15q17 -8 16 -12q0 -1 -2 -1q-108 -27 -222 -77q-4 -2 -6 3t1 7q37 19 96.5 55t66.5 40zM284 613q-53 0 -69 -14t-16 -57v-461q0 -44 15.5 -56.5t69.5 -12.5q3 0 3 -6t-3 -6q-13 0 -49 1t-60 1q-49 -65 -49 -140q0 -48 22.5 -77t61.5 -29q24 0 52 22
q2 2 5.5 -2t1.5 -6q-46 -45 -96 -45q-48 0 -75 26.5t-27 71.5q0 88 88 179q-23 0 -60.5 -1t-51.5 -1q-3 0 -3 6t3 6q55 0 70.5 12.5t15.5 56.5v463q0 43 -16 56t-70 13q-3 0 -3 6t3 6q14 0 54 -1.5t64 -1.5q26 0 66 1.5t53 1.5q3 0 3 -6t-3 -6z" />
    <glyph glyph-name="J_acutecomb.liga" unicode="J&#x301;" horiz-adv-x="320" 
d="M66 678q-4 -1 -6 4t1 7q36 18 92 52t71 42q9 6 50 -14q17 -8 16 -12q0 -1 -2 -1q-118 -30 -222 -78zM203 67q0 -120 -31 -176t-116 -91q-2 -1 -4 1t-2.5 5t0.5 4q49 27 68.5 83t19.5 147v504q0 43 -16 56t-71 13q-2 0 -2 6t2 6q16 0 55.5 -1.5t62.5 -1.5t59 1.5t49 1.5
q2 0 2 -6t-2 -6q-47 0 -60.5 -13.5t-13.5 -57.5v-475z" />
    <glyph glyph-name="uni01EA0301.liga" unicode="&#x1ea;&#x301;" horiz-adv-x="766" 
d="M287 679q-4 -2 -6 3t1 7q37 19 96.5 55t66.5 40q9 5 50 -15q17 -8 16 -12q0 -1 -2 -1q-108 -27 -222 -77zM439 -5q-71 -64 -71 -138q0 -48 24 -75t69 -27q34 0 65 23q2 1 4.5 -0.5t3.5 -3.5t-1 -4q-52 -45 -108 -45q-54 0 -83 27t-29 72q0 82 102 167q-24 -3 -49 -3
q-141 0 -229 94t-88 230q0 78 32 141.5t83.5 102.5t112.5 59.5t124 20.5q142 0 229 -95t87 -222q0 -119 -79.5 -209.5t-198.5 -114.5zM125 347q0 -144 77.5 -241t198.5 -97q104 0 172 75t68 207q0 143 -77 232.5t-205 89.5q-110 0 -172 -71t-62 -195z" />
    <glyph glyph-name="aogonek_acutecomb.liga" unicode="&#x105;&#x301;" horiz-adv-x="419" 
d="M207 474q0 -2 -3 -2t-5.5 1.5t-2.5 2.5l52 240q3 9 43 14q19 2 18 -3zM413 54q5 2 6.5 -3.5t-2.5 -7.5l-103 -49q-1 0 -2 -1l-2 -1q-68 -62 -68 -135q0 -48 24 -75t69 -27q34 0 65 23q2 1 4.5 -0.5t3.5 -3.5t-1 -4q-52 -45 -108 -45q-54 0 -83 27t-29 72q0 84 108 172
q-21 14 -25 60l-62 -33q-57 -30 -90 -30q-31 0 -47.5 16.5t-16.5 41.5q0 27 20.5 43.5t73.5 34.5l121 43v83q0 119 -64 119q-34 0 -53 -24t-23 -58q-4 -38 -37 -38q-34 0 -34 30q0 35 62.5 73t116.5 38q40 0 64 -27.5t24 -82.5v-177q0 -67 39 -67q19 0 49 13zM208 39l61 31
v6v84l-103 -39q-42 -16 -42 -48q0 -21 12 -32.5t31 -11.5t41 10z" />
    <glyph glyph-name="eogonek_acutecomb.liga" unicode="&#x119;&#x301;" horiz-adv-x="408" 
d="M201 474q0 -2 -3 -2t-5.5 1.5t-2.5 2.5l52 240q3 9 43 14q19 2 18 -3zM369 -222q2 1 4.5 -0.5t3.5 -3.5t-1 -4q-46 -45 -97 -45q-49 0 -75.5 26t-26.5 70q0 86 110 177q-29 -10 -63 -10q-88 0 -138 56.5t-50 135.5q0 91 62 153t153 62q54 0 84 -26.5t30 -72.5
q0 -23 -12 -23l-246 -2q-5 -27 -5 -52q0 -87 42 -141.5t116 -54.5q57 0 103 33q2 2 5.5 -2.5t1.5 -7.5q-16 -14 -33 -24q-103 -84 -103 -171q0 -46 20 -71.5t58 -25.5q29 0 57 24zM217 375q-83 0 -107 -90l186 4q0 41 -21.5 63.5t-57.5 22.5z" />
    <glyph glyph-name="ij_acutecomb.liga" unicode="&#x133;&#x301;" horiz-adv-x="526" 
d="M135 474q0 -2 -3 -2t-5.5 1.5t-2.5 2.5l52 240q3 9 43 14q19 2 18 -3zM395 474q0 -2 -3 -2t-5.5 1.5t-2.5 2.5l52 240q3 9 43 14q19 2 18 -3zM53 0q-2 0 -2 6t2 6q39 0 51.5 13t12.5 56v187q0 36 -7.5 52t-25.5 16t-45 -14q-4 -1 -6.5 4.5t0.5 7.5l130 60l4 1q2 0 5 -2.5
t3 -5.5t-0.5 -19.5t-1 -43.5t-0.5 -55v-188q0 -43 11.5 -56t51.5 -13q3 0 3 -6t-3 -6q-11 0 -41.5 1t-49.5 1t-50 -1t-42 -1zM436 387q0 -3 -0.5 -19.5t-1 -43.5t-0.5 -55v-317q0 -100 -31 -151.5t-110 -82.5q-2 -1 -4.5 4.5t-0.5 6.5q49 21 69 67t20 133v339q0 68 -31 68
q-18 0 -46 -14q-4 -1 -7 4.5t1 7.5l130 60q2 1 3 1q9 0 9 -8z" />
    <glyph glyph-name="iogonek_acutecomb.liga" unicode="&#x12f;&#x301;" horiz-adv-x="273" 
d="M135 474q0 -2 -3 -2t-5.5 1.5t-2.5 2.5l52 240q3 9 43 14q19 2 18 -3zM239 -215q2 2 5.5 -2t1.5 -6q-46 -45 -96 -45q-48 0 -75 26.5t-27 71.5q0 85 81 172q-58 -2 -76 -2q-2 0 -2 6t2 6q39 0 51.5 13t12.5 56v187q0 36 -7.5 52t-25.5 16t-45 -14q-4 -1 -6.5 4.5t0.5 7.5
l130 60l4 1q2 0 5 -2.5t3 -5.5t-0.5 -19.5t-1 -43.5t-0.5 -55v-188q0 -43 11.5 -56t51.5 -13q3 0 3 -6t-3 -6q-11 0 -41 1t-48 1q-44 -61 -44 -133q0 -48 22.5 -77t61.5 -29q24 0 52 22z" />
    <glyph glyph-name="j_acutecomb.liga" unicode="j&#x301;" horiz-adv-x="257" 
d="M126 474q0 -2 -3 -2t-5.5 1.5t-2.5 2.5l52 240q3 9 43 14q19 2 18 -3zM167 387q0 -3 -0.5 -19.5t-1 -43.5t-0.5 -55v-317q0 -100 -31 -151.5t-110 -82.5q-2 -1 -4.5 4.5t-0.5 6.5q49 21 69 67t20 133v339q0 68 -31 68q-18 0 -46 -14q-4 -1 -7 4.5t1 7.5l130 60q2 1 3 1
q9 0 9 -8z" />
    <glyph glyph-name="uni01EB0301.liga" unicode="&#x1eb;&#x301;" horiz-adv-x="479" 
d="M238 474q0 -2 -3 -2t-5.5 1.5t-2.5 2.5l52 240q3 9 43 14q19 2 18 -3zM443 193q0 -81 -48 -135.5t-122 -66.5q-58 -65 -58 -140q0 -97 84 -97q34 0 68 24q2 2 5.5 -2t1.5 -6q-53 -45 -111 -45q-51 0 -78.5 25.5t-27.5 70.5q0 81 93 167q-6 -1 -19 -1q-87 0 -141 61.5
t-54 149.5q0 96 65.5 148.5t147.5 52.5q87 0 140.5 -61.5t53.5 -144.5zM103 229q0 -94 44 -158.5t113 -64.5q115 0 115 159q0 94 -44.5 154.5t-114.5 60.5q-54 0 -83.5 -39t-29.5 -112z" />
    <glyph glyph-name="T_T.liga" unicode="TT" horiz-adv-x="1149" 
d="M1101 650q1 4 6.5 4t5.5 -4q-9 -72 -9 -184q0 -2 -5.5 -2t-6.5 2q-4 79 -32.5 110.5t-96.5 31.5q-64 0 -80 -10.5t-16 -55.5v-461q0 -44 17.5 -56.5t79.5 -12.5q3 0 3 -6t-3 -6q-16 0 -59.5 1t-71.5 1q-26 0 -70 -1t-60 -1q-2 0 -2 6t2 6q62 0 80.5 13t18.5 56v463
q0 43 -15.5 53.5t-73.5 10.5q-48 0 -69 -2.5t-36 -19.5t-18.5 -41t-5.5 -79q0 -2 -6 -2t-6 2q1 100 -19 121t-115 21q-54 0 -70 -12t-16 -54v-461q0 -44 15.5 -56.5t70.5 -12.5q2 0 2 -6t-2 -6q-15 0 -54.5 1t-65.5 1t-69.5 -1t-60.5 -1q-2 0 -2 6t2 6q62 0 80.5 13t18.5 56
v463q0 44 -17 54t-81 10q-62 0 -93.5 -31.5t-46.5 -110.5q0 -2 -5.5 -2t-5.5 2q14 95 14 181q0 5 6 5t6 -5q0 -22 53 -22q85 -3 201 -3q49 0 105.5 1.5t75.5 1.5q57 0 67 3.5t11 22.5q0 4 6 4t6 -4q-1 -19 5.5 -22t48.5 -4q81 -3 190 -3q52 0 112 1.5t81 1.5q36 0 53 5
t22 20z" />
    <glyph glyph-name="T_h.liga" unicode="Th" horiz-adv-x="1028" 
d="M1006 12q3 0 3 -6t-3 -6q-10 0 -41 1t-50 1t-50 -1t-42 -1q-2 0 -2 6t2 6q40 0 52 13t12 56v159q0 116 -92 116q-67 0 -121 -62v-213q0 -43 11.5 -56t51.5 -13q3 0 3 -6t-3 -6q-10 0 -41 1t-50 1t-50 -1t-42 -1q-2 0 -2 6t2 6q40 0 52 13t12 56v514q0 13 -14 13h-155
q-64 0 -80.5 -11t-16.5 -55v-461q0 -44 17.5 -56.5t79.5 -12.5q3 0 3 -6t-3 -6q-15 0 -59 1t-72 1q-26 0 -70 -1t-60 -1q-2 0 -2 6t2 6q62 0 80 12.5t18 56.5v463q0 44 -16.5 54t-80.5 10q-63 0 -94.5 -32.5t-45.5 -109.5q0 -2 -5.5 -2t-5.5 2q14 119 14 181q0 5 5.5 5
t5.5 -5q0 -22 54 -22q57 -2 201 -2t193 2q126 3 150 100q1 3 7 2t6 -3v-413q73 85 154 85q55 0 85.5 -31t30.5 -90v-194q0 -43 11.5 -56t50.5 -13z" />
    <glyph glyph-name="f_b.liga" unicode="fb" horiz-adv-x="821" 
d="M624 399q67 0 114 -48.5t47 -136.5q0 -107 -66 -167t-154 -60q-74 0 -138 42l-74 -34q-4 -1 -6 3.5t1 6.5q31 22 44 41.5t13 56.5l1 530q-46 77 -121 77q-73 0 -101 -76q-26 -62 -26 -195v-64q46 1 128 10q7 0 7 -24q0 -5 -1.5 -11t-4 -9.5t-4.5 -3.5q-58 14 -125 16
v-272q0 -44 17 -56.5t81 -12.5q3 0 3 -6t-3 -6q-22 0 -64 1t-64 1q-19 0 -51.5 -1t-44.5 -1q-3 0 -3 6t3 6q43 0 56 13t13 56v225q0 36 -12 45t-61 9q-3 0 -3 6.5t3 6.5q41 0 55.5 9.5t15.5 35.5q6 150 50 223q51 85 162 85q83 0 131 -38q11 19 11 40q0 3 5.5 3t5.5 -3v-413
q80 84 160 84zM596 6q58 0 90.5 45t32.5 129q0 90 -35 138t-93 48q-61 0 -127 -68v-217q56 -75 132 -75z" />
    <glyph glyph-name="f_f.liga" unicode="ff" horiz-adv-x="600" 
d="M614 726q51 0 83.5 -15.5t32.5 -37.5q0 -15 -10.5 -23.5t-24.5 -8.5q-21 0 -40 26q-30 42 -76 42q-58 0 -92 -67t-34 -203v-64q46 1 128 10q7 0 7 -24q0 -5 -1.5 -11t-4 -9.5t-4.5 -3.5q-58 14 -125 16v-272q0 -44 17 -56.5t81 -12.5q3 0 3 -6t-3 -6q-22 0 -64 1t-64 1
q-19 0 -51.5 -1t-44.5 -1q-3 0 -3 6t3 6q43 0 56 13t13 56v225q-1 34 -12 40t-71 8q-34 2 -155 2v-275q0 -44 17 -56.5t81 -12.5q3 0 3 -6t-3 -6q-22 0 -64 1t-64 1q-19 0 -51.5 -1t-44.5 -1q-3 0 -3 6t3 6q43 0 56 13t13 56v225q0 36 -12 45t-61 9q-3 0 -3 6.5t3 6.5
q41 0 55.5 9.5t15.5 35.5q7 134 68.5 203.5t166.5 69.5q72 0 128 -28q52 63 152 63zM394 418q4 122 36 194q-55 62 -129 62q-66 0 -104.5 -60t-38.5 -175v-64q122 0 164 1q58 1 68 20q4 8 4 22z" />
    <glyph glyph-name="f_f_b.liga" unicode="ffb" horiz-adv-x="1116" 
d="M919 399q67 0 114 -48.5t47 -136.5q0 -107 -66 -167t-154 -60q-74 0 -138 42l-74 -34q-4 -1 -6 3.5t1 6.5q31 22 44 41.5t13 56.5l1 530q-46 77 -121 77q-73 0 -101 -76q-26 -62 -26 -195v-64q46 1 128 10q7 0 7 -24q0 -5 -1.5 -11t-4 -9.5t-4.5 -3.5q-58 14 -125 16
v-272q0 -44 17 -56.5t81 -12.5q3 0 3 -6t-3 -6q-22 0 -64 1t-64 1q-19 0 -51.5 -1t-44.5 -1q-3 0 -3 6t3 6q43 0 56 13t13 56v225q-1 34 -12 40t-71 8q-34 2 -155 2v-275q0 -44 17 -56.5t81 -12.5q3 0 3 -6t-3 -6q-22 0 -64 1t-64 1q-19 0 -51.5 -1t-44.5 -1q-3 0 -3 6t3 6
q43 0 56 13t13 56v225q0 36 -12 45t-61 9q-3 0 -3 6.5t3 6.5q41 0 55.5 9.5t15.5 35.5q7 134 68.5 203.5t166.5 69.5q72 0 126 -27q50 62 146 62q84 0 131 -38q11 19 11 40q0 3 5.5 3t5.5 -3v-413q80 84 160 84zM394 418q4 121 35 194q-55 62 -128 62q-66 0 -104.5 -60
t-38.5 -175v-64q122 0 164 1q58 1 68 20q4 8 4 22zM891 6q58 0 90.5 45t32.5 129q0 90 -35 138t-93 48q-61 0 -127 -68v-217q56 -75 132 -75z" />
    <glyph glyph-name="f_f_f.liga" unicode="fff" horiz-adv-x="896" 
d="M824 726q51 0 83.5 -15.5t32.5 -37.5q0 -15 -10.5 -23.5t-24.5 -8.5q-21 0 -40 26q-30 42 -76 42q-34 0 -59 -22q27 -17 42 -32l-30 -65q-19 35 -42 58q-37 -71 -37 -209v-58q26 6 27 37l21 -40q20 1 80 7q7 0 7 -24q0 -5 -1.5 -11t-4 -9.5t-4.5 -3.5q-39 10 -81 13
l-16 -44q-1 18 -2 25.5t-7 12.5t-19 7v-270q0 -44 17 -56.5t81 -12.5q3 0 3 -6t-3 -6q-22 0 -64 1t-64 1q-35 0 -81 -2h-1h-9h-5h-1q-19 0 -56.5 1t-56.5 1t-52 -1t-45 -1q-2 0 -2 6t2 6q44 0 57 13t13 56v225q-1 34 -12 40t-71 8q-34 2 -155 2v-275q0 -44 17 -56.5
t81 -12.5q3 0 3 -6t-3 -6q-22 0 -64 1t-64 1q-19 0 -51.5 -1t-44.5 -1q-3 0 -3 6t3 6q43 0 56 13t13 56v225q0 36 -12 45t-61 9q-3 0 -3 6.5t3 6.5q41 0 55.5 9.5t15.5 35.5q7 134 68.5 203.5t166.5 69.5q82 0 142 -35q59 59 152 59q43 0 82 -18q45 29 114 29zM604 418
q6 178 72 250q-39 28 -81 28q-66 0 -104 -66t-38 -191v-64h114q36 6 37 43zM394 418q4 110 44 185q-58 71 -137 71q-66 0 -104.5 -60t-38.5 -175v-64q122 0 164 1q58 1 68 20q4 8 4 22zM606 81v225q0 42 -19 49q-34 1 -134 1v-275q0 -43 15.5 -55.5t74.5 -13.5q39 1 51 14
t12 55z" />
    <glyph glyph-name="f_f_h.liga" unicode="ffh" horiz-adv-x="1112" 
d="M1090 12q2 0 2 -6t-2 -6q-11 0 -41.5 1t-49.5 1t-50 -1t-41 -1q-3 0 -3 6t3 6q39 0 50.5 13t11.5 56v159q0 116 -91 116q-65 0 -121 -62v-213q0 -43 11.5 -56t51.5 -13q2 0 2 -6t-2 -6q-11 0 -41.5 1t-49.5 1t-50 -1t-41 -1q-3 0 -3 6t3 6q39 0 50.5 13t11.5 56v552
q-46 77 -121 77q-65 0 -96 -63.5t-31 -207.5v-64q46 1 128 10q7 0 7 -24q0 -5 -1.5 -11t-4 -9.5t-4.5 -3.5q-58 14 -125 16v-272q0 -44 17 -56.5t81 -12.5q3 0 3 -6t-3 -6q-22 0 -64 1t-64 1q-19 0 -51.5 -1t-44.5 -1q-3 0 -3 6t3 6q43 0 56 13t13 56v225q-1 34 -12 40
t-71 8q-34 2 -155 2v-275q0 -44 17 -56.5t81 -12.5q3 0 3 -6t-3 -6q-22 0 -64 1t-64 1q-19 0 -51.5 -1t-44.5 -1q-3 0 -3 6t3 6q43 0 56 13t13 56v225q0 36 -12 45t-61 9q-3 0 -3 6.5t3 6.5q41 0 55.5 9.5t15.5 35.5q7 134 68.5 203.5t166.5 69.5q72 0 126 -27q50 62 146 62
q82 0 130 -37q10 20 10 39q0 3 6 3t6 -3v-417q73 85 154 85q55 0 85 -31t30 -90v-194q0 -43 11.5 -56t51.5 -13zM394 418q5 124 35 195q-55 61 -128 61q-66 0 -104.5 -60t-38.5 -175v-64q122 0 164 1q58 1 68 20q4 8 4 22z" />
    <glyph glyph-name="f_f_i.liga" unicode="ffi" horiz-adv-x="863" 
d="M599 709q-67 0 -106.5 -67t-39.5 -203v-64q44 1 128 10q7 0 7 -24q0 -6 -2 -12.5t-4.5 -10.5t-3.5 -3q-65 19 -125 22v-276q0 -44 17 -56.5t81 -12.5q3 0 3 -6t-3 -6q-22 0 -64 1t-64 1q-19 0 -51.5 -1t-44.5 -1q-3 0 -3 6t3 6q43 0 56 13t13 56v225q-1 34 -12 40t-71 8
q-34 2 -155 2v-275q0 -44 17 -56.5t81 -12.5q3 0 3 -6t-3 -6q-22 0 -64 1t-64 1q-19 0 -51.5 -1t-44.5 -1q-3 0 -3 6t3 6q43 0 56 13t13 56v225q0 36 -12 45t-61 9q-3 0 -3 6.5t3 6.5q41 0 55.5 9.5t15.5 35.5q7 134 68.5 203.5t166.5 69.5q76 0 134 -31q59 66 164 66
q55 0 90.5 -22.5t35.5 -52.5q0 -31 -30 -31q-17 0 -29 14t-19.5 30.5t-28 30.5t-52.5 14zM394 418q4 116 40 190q-58 66 -133 66q-66 0 -104.5 -60t-38.5 -175v-64q122 0 164 1q58 1 68 20q4 8 4 22zM827 12q3 0 3 -6t-3 -6q-11 0 -41.5 1t-49.5 1t-49.5 -1t-41.5 -1
q-3 0 -3 6t3 6q39 0 51 13t12 56v187q0 53 -16.5 64.5t-61.5 -10.5q-5 -2 -7 4t2 8l130 61q3 2 7 -1.5t4 -6.5t-0.5 -19.5t-1 -43.5t-0.5 -55v-188q0 -43 12 -56t51 -13z" />
    <glyph glyph-name="f_f_j.liga" unicode="ffj" horiz-adv-x="864" 
d="M604 709q-69 0 -110 -67t-41 -203v-64q46 1 128 10q7 0 7 -24q0 -5 -1.5 -11t-4 -9.5t-4.5 -3.5q-58 14 -125 16v-272q0 -44 17 -56.5t81 -12.5q3 0 3 -6t-3 -6q-22 0 -64 1t-64 1q-19 0 -51.5 -1t-44.5 -1q-3 0 -3 6t3 6q43 0 56 13t13 56v225q-1 34 -12 40t-71 8
q-34 2 -155 2v-275q0 -44 17 -56.5t81 -12.5q3 0 3 -6t-3 -6q-22 0 -64 1t-64 1q-19 0 -51.5 -1t-44.5 -1q-3 0 -3 6t3 6q43 0 56 13t13 56v225q0 36 -12 45t-61 9q-3 0 -3 6.5t3 6.5q41 0 55.5 9.5t15.5 35.5q7 134 68.5 203.5t166.5 69.5q80 0 135 -32q60 67 167 67
q59 0 96.5 -22.5t37.5 -52.5q0 -31 -31 -31q-18 0 -30.5 14t-20.5 30.5t-29.5 30.5t-54.5 14zM394 418q4 116 40 189q-56 67 -133 67q-66 0 -104.5 -60t-38.5 -175v-64q122 0 164 1q58 1 68 20q4 8 4 22zM763 395q4 2 8 -1.5t4 -6.5t-0.5 -19.5t-1.5 -43.5t-1 -55v-317
q0 -100 -30.5 -148.5t-110.5 -79.5q-2 -1 -4.5 4.5t0.5 6.5q49 21 69 65t20 129v339q0 53 -16.5 64.5t-61.5 -10.5q-5 -2 -7 4t2 8z" />
    <glyph glyph-name="f_f_k.liga" unicode="ffk" horiz-adv-x="1104" 
d="M1095 12q3 0 3 -6t-3 -6q-10 0 -40.5 1t-49.5 1q-28 0 -65.5 -1t-49.5 -1q-3 0 -3 6t3 6q36 0 46 9.5t-6 31.5l-122 167l-50 -39v-100q0 -43 11.5 -56t51.5 -13q2 0 2 -6t-2 -6q-11 0 -41.5 1t-49.5 1t-50 -1t-41 -1q-3 0 -3 6t3 6q39 0 50.5 13t11.5 56v552
q-46 77 -122 77q-64 0 -95 -63.5t-31 -207.5v-64q46 1 128 10q7 0 7 -24q0 -5 -1.5 -11t-4 -9.5t-4.5 -3.5q-58 14 -125 16v-272q0 -44 17 -56.5t81 -12.5q3 0 3 -6t-3 -6q-22 0 -64 1t-64 1q-19 0 -51.5 -1t-44.5 -1q-3 0 -3 6t3 6q43 0 56 13t13 56v225q-1 34 -12 40
t-71 8q-34 2 -155 2v-275q0 -44 17 -56.5t81 -12.5q3 0 3 -6t-3 -6q-22 0 -64 1t-64 1q-19 0 -51.5 -1t-44.5 -1q-3 0 -3 6t3 6q43 0 56 13t13 56v225q0 36 -12 45t-61 9q-3 0 -3 6.5t3 6.5q41 0 55.5 9.5t15.5 35.5q7 134 68.5 203.5t166.5 69.5q72 0 126 -27q50 62 144 62
q85 0 132 -37q10 20 10 39q0 3 6 3t6 -3v-531l134 108q38 31 31 50t-56 19q-3 0 -3 6t3 6q13 0 48.5 -1t65.5 -1q28 0 60 1t43 1q2 0 2 -6t-2 -6q-81 0 -172 -72l-59 -46l128 -175q49 -69 114 -69zM394 418q5 124 35 195q-55 61 -128 61q-66 0 -104.5 -60t-38.5 -175v-64
q122 0 164 1q58 1 68 20q4 8 4 22z" />
    <glyph glyph-name="f_f_l.liga" unicode="ffl" horiz-adv-x="862" 
d="M834 12q3 0 3 -6t-3 -6q-10 0 -41 1t-51 1q-19 0 -50.5 -1t-41.5 -1q-3 0 -3 6t3 6q39 0 50.5 13t11.5 56v549q-52 80 -128 80q-131 0 -131 -271v-64q44 1 128 10q7 0 7 -25q0 -6 -2 -12.5t-4.5 -10t-3.5 -2.5q-65 19 -125 22v-276q0 -44 17 -56.5t81 -12.5q3 0 3 -6
t-3 -6q-22 0 -64 1t-64 1q-19 0 -51.5 -1t-44.5 -1q-3 0 -3 6t3 6q43 0 56 13t13 56v225q-1 34 -12 40t-71 8q-34 2 -155 2v-275q0 -44 17 -56.5t81 -12.5q3 0 3 -6t-3 -6q-22 0 -64 1t-64 1q-19 0 -51.5 -1t-44.5 -1q-3 0 -3 6t3 6q43 0 56 13t13 56v225q0 36 -12 45t-61 9
q-3 0 -3 6.5t3 6.5q41 0 55.5 9.5t15.5 35.5q7 134 68.5 203.5t166.5 69.5q69 0 127 -27q52 62 148 62q88 0 138 -39q12 18 12 41q0 3 6 3t6 -3v-647q0 -43 11.5 -56t51.5 -13zM394 418q4 122 36 194q-55 62 -129 62q-66 0 -104.5 -60t-38.5 -175v-64q122 0 164 1
q58 1 68 20q4 8 4 22z" />
    <glyph glyph-name="f_f_thorn.liga" unicode="ff&#xfe;" horiz-adv-x="1106" 
d="M917 399q63 0 108 -50t45 -134q0 -57 -21 -103t-54 -72t-69 -39.5t-71 -13.5q-61 0 -104 25v-206q0 -43 17.5 -56t79.5 -13q3 0 3 -6t-3 -6q-16 0 -58.5 1t-68.5 1q-19 0 -50.5 -1t-42.5 -1q-2 0 -2 6t2 6q40 0 52 13t12 56v841q-44 63 -113 63q-64 0 -95 -63.5
t-31 -207.5v-64q46 1 128 10q7 0 7 -24q0 -5 -1.5 -11t-4 -9.5t-4.5 -3.5q-58 14 -125 16v-272q0 -44 17 -56.5t81 -12.5q3 0 3 -6t-3 -6q-22 0 -64 1t-64 1q-19 0 -51.5 -1t-44.5 -1q-3 0 -3 6t3 6q43 0 56 13t13 56v225q-1 34 -12 40t-71 8q-34 2 -155 2v-275
q0 -44 17 -56.5t81 -12.5q3 0 3 -6t-3 -6q-22 0 -64 1t-64 1q-19 0 -51.5 -1t-44.5 -1q-3 0 -3 6t3 6q43 0 56 13t13 56v225q0 36 -12 45t-61 9q-3 0 -3 6.5t3 6.5q41 0 55.5 9.5t15.5 35.5q7 134 68.5 203.5t166.5 69.5q72 0 126 -27q50 62 144 62q78 0 126 -33q9 17 9 35
q0 3 6 3t6 -3v-413q83 84 166 84zM394 418q5 124 35 195q-55 61 -128 61q-66 0 -104.5 -60t-38.5 -175v-64q122 0 164 1q58 1 68 20q4 8 4 22zM884 8q54 0 88 46.5t34 129.5q0 84 -37.5 130.5t-94.5 46.5q-60 0 -123 -63v-229q54 -61 133 -61z" />
    <glyph glyph-name="f_f_t.liga" unicode="fft" horiz-adv-x="918" 
d="M888 50q2 2 5 0.5t3.5 -4.5t-1.5 -5q-68 -53 -128 -53q-95 0 -95 82v236v1q0 37 -27.5 43t-191.5 6v-275q0 -44 17 -56.5t81 -12.5q3 0 3 -6t-3 -6q-22 0 -64 1t-64 1q-19 0 -51.5 -1t-44.5 -1q-3 0 -3 6t3 6q43 0 56 13t13 56v225q-1 34 -12 40t-71 8q-34 2 -155 2v-275
q0 -44 17 -56.5t81 -12.5q3 0 3 -6t-3 -6q-22 0 -64 1t-64 1q-19 0 -51.5 -1t-44.5 -1q-3 0 -3 6t3 6q43 0 56 13t13 56v225q0 36 -12 45t-61 9q-3 0 -3 6.5t3 6.5q41 0 55.5 9.5t15.5 35.5q7 134 68.5 203.5t166.5 69.5q72 0 128 -28q52 63 152 63q51 0 83.5 -15.5
t32.5 -37.5q0 -15 -10.5 -23.5t-24.5 -8.5q-19 0 -41 28q-29 40 -75 40q-58 0 -92 -67t-34 -203v-64q91 0 142 3q66 1 90 16t29 55q1 3 8 3t7 -3v-74q50 1 139 10q7 0 7 -24q0 -5 -1.5 -11t-4 -9.5t-4.5 -3.5q-57 14 -136 16v-249q0 -81 79 -81q45 0 80 27zM394 418
q4 122 36 194q-55 62 -129 62q-66 0 -104.5 -60t-38.5 -175v-64q122 0 164 1q58 1 68 20q4 8 4 22z" />
    <glyph glyph-name="f_h.liga" unicode="fh" horiz-adv-x="817" 
d="M795 12q2 0 2 -6t-2 -6q-11 0 -41.5 1t-49.5 1t-50 -1t-41 -1q-3 0 -3 6t3 6q39 0 50.5 13t11.5 56v159q0 116 -91 116q-65 0 -121 -62v-213q0 -43 11.5 -56t51.5 -13q2 0 2 -6t-2 -6q-11 0 -41.5 1t-49.5 1t-50 -1t-41 -1q-3 0 -3 6t3 6q39 0 50.5 13t11.5 56v552
q-46 77 -121 77q-65 0 -96 -63.5t-31 -207.5v-64q46 1 128 10q7 0 7 -24q0 -5 -1.5 -11t-4 -9.5t-4.5 -3.5q-58 14 -125 16v-272q0 -44 17 -56.5t81 -12.5q3 0 3 -6t-3 -6q-22 0 -64 1t-64 1q-19 0 -51.5 -1t-44.5 -1q-3 0 -3 6t3 6q43 0 56 13t13 56v225q0 36 -12 45t-61 9
q-3 0 -3 6.5t3 6.5q41 0 55.5 9.5t15.5 35.5q5 159 56 233.5t156 74.5q82 0 130 -37q10 20 10 39q0 3 6 3t6 -3v-417q73 85 154 85q55 0 85 -31t30 -90v-194q0 -43 11.5 -56t51.5 -13z" />
    <glyph glyph-name="f_j.liga" unicode="fj" horiz-adv-x="569" 
d="M309 709q-69 0 -110 -67t-41 -203v-64q46 1 128 10q7 0 7 -24q0 -5 -1.5 -11t-4 -9.5t-4.5 -3.5q-58 14 -125 16v-272q0 -44 17 -56.5t81 -12.5q3 0 3 -6t-3 -6q-22 0 -64 1t-64 1q-19 0 -51.5 -1t-44.5 -1q-3 0 -3 6t3 6q43 0 56 13t13 56v225q0 36 -12 45t-61 9
q-3 0 -3 6.5t3 6.5q41 0 55.5 9.5t15.5 35.5q11 308 242 308q59 0 96.5 -22.5t37.5 -52.5q0 -31 -31 -31q-18 0 -30.5 14t-20.5 30.5t-29.5 30.5t-54.5 14zM468 395q4 2 8 -1.5t4 -6.5t-1 -19.5t-1.5 -43.5t-0.5 -55v-317q0 -100 -30.5 -148.5t-110.5 -79.5q-2 -1 -4.5 4.5
t0.5 6.5q49 21 69 65t20 129v339q0 53 -16.5 64.5t-61.5 -10.5q-5 -2 -7 4t2 8z" />
    <glyph glyph-name="f_k.liga" unicode="fk" horiz-adv-x="809" 
d="M800 12q3 0 3 -6t-3 -6q-10 0 -40.5 1t-49.5 1q-28 0 -65.5 -1t-49.5 -1q-3 0 -3 6t3 6q36 0 45.5 9.5t-5.5 31.5l-122 167l-50 -39v-100q0 -43 11.5 -56t51.5 -13q2 0 2 -6t-2 -6q-11 0 -41.5 1t-49.5 1t-50 -1t-41 -1q-3 0 -3 6t3 6q39 0 50.5 13t11.5 56v552
q-46 77 -122 77q-64 0 -95 -63.5t-31 -207.5v-64q46 1 128 10q7 0 7 -24q0 -5 -1.5 -11t-4 -9.5t-4.5 -3.5q-58 14 -125 16v-272q0 -44 17 -56.5t81 -12.5q3 0 3 -6t-3 -6q-22 0 -64 1t-64 1q-19 0 -51.5 -1t-44.5 -1q-3 0 -3 6t3 6q43 0 56 13t13 56v225q0 36 -12 45t-61 9
q-3 0 -3 6.5t3 6.5q41 0 55.5 9.5t15.5 35.5q5 159 56 233.5t154 74.5q85 0 132 -37q10 20 10 39q0 3 6 3t6 -3v-531l134 108q38 31 31 50t-56 19q-3 0 -3 6t3 6q13 0 48.5 -1t65.5 -1q28 0 60 1t43 1q2 0 2 -6t-2 -6q-81 0 -172 -72l-59 -46l128 -175q49 -69 114 -69z" />
    <glyph glyph-name="f_thorn.liga" unicode="f&#xfe;" horiz-adv-x="811" 
d="M622 399q63 0 108 -50t45 -134q0 -57 -21 -103t-54 -72t-69 -39.5t-71 -13.5q-61 0 -104 25v-206q0 -43 17.5 -56t79.5 -13q3 0 3 -6t-3 -6q-16 0 -58.5 1t-68.5 1q-19 0 -50.5 -1t-42.5 -1q-2 0 -2 6t2 6q40 0 52 13t12 56v841q-44 63 -113 63q-64 0 -95 -63.5
t-31 -207.5v-64q46 1 128 10q7 0 7 -24q0 -5 -1.5 -11t-4 -9.5t-4.5 -3.5q-58 14 -125 16v-272q0 -44 17 -56.5t81 -12.5q3 0 3 -6t-3 -6q-22 0 -64 1t-64 1q-19 0 -51.5 -1t-44.5 -1q-3 0 -3 6t3 6q43 0 56 13t13 56v225q0 36 -12 45t-61 9q-3 0 -3 6.5t3 6.5
q41 0 55.5 9.5t15.5 35.5q5 159 56 233.5t154 74.5q78 0 126 -33q9 17 9 35q0 3 6 3t6 -3v-413q83 84 166 84zM589 8q54 0 88 46.5t34 129.5q0 84 -37.5 130.5t-94.5 46.5q-60 0 -123 -63v-229q54 -61 133 -61z" />
    <glyph glyph-name="f_t.liga" unicode="ft" horiz-adv-x="623" 
d="M593 50q2 2 5 0.5t3.5 -4.5t-1.5 -5q-68 -53 -128 -53q-95 0 -95 82v236v1q0 37 -27.5 43t-191.5 6v-275q0 -44 17 -56.5t81 -12.5q3 0 3 -6t-3 -6q-22 0 -64 1t-64 1q-19 0 -51.5 -1t-44.5 -1q-3 0 -3 6t3 6q43 0 56 13t13 56v225q0 36 -12 45t-61 9q-3 0 -3 6.5t3 6.5
q41 0 55.5 9.5t15.5 35.5q5 162 59.5 235t160.5 73q51 0 83.5 -15.5t32.5 -37.5q0 -15 -10.5 -23.5t-24.5 -8.5q-19 0 -41 28q-29 40 -75 40q-58 0 -92 -67t-34 -203v-64q91 0 142 3q66 1 90 16t29 55q1 3 8 3t7 -3v-74q50 1 139 10q7 0 7 -24q0 -5 -1.5 -11t-4 -9.5
t-4.5 -3.5q-57 14 -136 16v-249q0 -81 79 -81q45 0 80 27z" />
    <glyph glyph-name="fi.liga" unicode="fi" horiz-adv-x="568" 
d="M304 709q-66 0 -106 -67t-40 -203v-64q44 1 128 10q7 0 7 -24q0 -6 -2 -12.5t-4.5 -10.5t-3.5 -3q-65 19 -125 22v-276q0 -44 17 -56.5t81 -12.5q3 0 3 -6t-3 -6q-22 0 -64 1t-64 1q-19 0 -51.5 -1t-44.5 -1q-3 0 -3 6t3 6q43 0 56 13t13 56v225q0 36 -12 45t-61 9
q-3 0 -3 6.5t3 6.5q41 0 55.5 9.5t15.5 35.5q11 308 238 308q55 0 90.5 -22.5t35.5 -52.5q0 -31 -30 -31q-17 0 -29 14t-19.5 30.5t-28 30.5t-52.5 14zM532 12q3 0 3 -6t-3 -6q-11 0 -41.5 1t-49.5 1t-49.5 -1t-41.5 -1q-3 0 -3 6t3 6q39 0 51 13t12 56v187q0 53 -16.5 64.5
t-61.5 -10.5q-5 -2 -7 4t2 8l130 61q3 2 7 -1.5t4 -6.5t-0.5 -19.5t-1 -43.5t-0.5 -55v-188q0 -43 12 -56t51 -13z" />
    <glyph glyph-name="fl.liga" unicode="fl" horiz-adv-x="567" 
d="M539 12q3 0 3 -6t-3 -6q-11 0 -42 1t-50 1t-50.5 -1t-41.5 -1q-3 0 -3 6t3 6q39 0 50.5 13t11.5 56v549q-52 80 -128 80q-131 0 -131 -271v-64q44 1 128 10q7 0 7 -25q0 -6 -2 -12.5t-4.5 -10t-3.5 -2.5q-65 19 -125 22v-276q0 -44 17 -56.5t81 -12.5q3 0 3 -6t-3 -6
q-22 0 -64 1t-64 1q-19 0 -51.5 -1t-44.5 -1q-3 0 -3 6t3 6q43 0 56 13t13 56v225q0 36 -12 45t-61 9q-3 0 -3 6.5t3 6.5q41 0 55.5 9.5t15.5 35.5q5 162 59 235t156 73q88 0 138 -39q12 18 12 41q0 3 6 3t6 -3v-647q0 -43 11.5 -56t51.5 -13z" />
    <glyph glyph-name="g_g.liga" unicode="gg" horiz-adv-x="865" 
d="M439 394q7 0 7 -22q0 -26 -8 -33l-3 -1q-54 15 -89 15q-11 0 -25 -2q26 -30 26 -71q0 -52 -42 -88.5t-109 -36.5q-28 0 -51 6q-37 -26 -37 -64q0 -14 7 -24t16 -16.5t27.5 -11.5t29.5 -7t34 -6q6 -1 19 -3q27 -4 41.5 -7t38 -8.5t36.5 -13.5t27 -20t20 -29t6 -39
q0 -71 -71 -132.5t-166 -61.5q-71 0 -114.5 34t-43.5 87q0 79 114 155q-68 20 -68 68q0 54 72 103q-39 14 -60 43.5t-21 66.5q0 52 44 85t111 33q66 0 103 -32q68 33 129 33zM654 32q7 -1 20 -3q35 -5 53.5 -8.5t47 -12t42.5 -19.5t25.5 -31t11.5 -46q0 -71 -74.5 -132.5
t-173.5 -61.5q-69 0 -111 34t-42 87q0 77 110 155q-70 20 -70 68q0 54 72 103q-39 14 -60 43.5t-21 66.5q0 52 44 85t111 33q66 0 102 -31q54 32 107 32q6 0 6 -22q0 -28 -8 -34h-2q-39 15 -66 15q-9 0 -25 -2q27 -30 27 -71q0 -52 -42.5 -88.5t-109.5 -36.5q-28 0 -50 6
q-38 -26 -38 -64q0 -14 7 -24t16 -16.5t27.5 -11.5t29.5 -7t34 -6zM217 169q30 0 49 22.5t19 68.5q0 52 -30.5 85t-72.5 33q-67 0 -67 -82q0 -58 30.5 -92.5t71.5 -34.5zM615 378q-31 0 -49.5 -20t-18.5 -62q0 -58 30.5 -92.5t71.5 -34.5q30 0 49 22.5t19 68.5
q0 52 -30.5 85t-71.5 33zM358 -123q0 29 -13 49t-38.5 30t-48.5 15t-57 10q-6 1 -9 1q-31 4 -43 7q-75 -46 -75 -118q0 -56 37.5 -89.5t101.5 -33.5q67 0 106 38t39 91zM645 -252q73 0 115 38t42 91q0 29 -14 49t-41 30t-52 15t-61 10q-7 1 -10 1q-28 4 -42 7
q-70 -48 -70 -118q0 -56 36 -89.5t97 -33.5z" />
    <glyph glyph-name="longs_b.liga" unicode="&#x17f;b" horiz-adv-x="809" 
d="M612 399q67 0 113.5 -48t47.5 -137q-1 -107 -67 -167t-153 -60q-78 0 -138 42l-74 -34q-4 -1 -6.5 3.5t1.5 6.5q31 22 44 41.5t13 56.5l1 529q-41 78 -112 78q-63 0 -94 -63.5t-31 -207.5v-358q0 -44 17.5 -56.5t81.5 -12.5q2 0 2 -6t-2 -6q-23 0 -65 1t-63 1
q-19 0 -52 -1t-45 -1q-3 0 -3 6t3 6q43 0 55.5 13t12.5 56v337q0 308 208 308q78 0 123 -38q11 19 11 40q0 3 6 3t6 -3l-1 -412q81 83 160 83zM583 6q59 0 91 45t32 129q0 90 -35 138t-93 48q-60 0 -126 -68v-218q56 -74 131 -74z" />
    <glyph glyph-name="longs_h.liga" unicode="&#x17f;h" horiz-adv-x="804" 
d="M782 12q3 0 3 -6t-3 -6q-10 0 -41 1t-50 1t-49.5 -1t-41.5 -1q-2 0 -2 6t2 6q39 0 51 13t12 56v159q0 116 -92 116q-67 0 -121 -62v-213q0 -43 12 -56t51 -13q3 0 3 -6t-3 -6q-10 0 -41 1t-50 1t-49.5 -1t-41.5 -1q-2 0 -2 6t2 6q39 0 51 13t12 56v551q-41 78 -112 78
q-63 0 -94 -63.5t-31 -207.5v-358q0 -44 17.5 -56.5t81.5 -12.5q2 0 2 -6t-2 -6q-23 0 -65 1t-63 1q-19 0 -52 -1t-45 -1q-3 0 -3 6t3 6q43 0 56 13t13 56v337q0 308 207 308q79 0 122 -37q10 20 10 39q0 3 5.5 3t5.5 -3v-417q75 85 155 85q55 0 84.5 -31t29.5 -90v-194
q0 -43 12 -56t51 -13z" />
    <glyph glyph-name="longs_i.liga" unicode="&#x17f;i" horiz-adv-x="547" 
d="M31 0q-3 0 -3 6t3 6q43 0 56 13t13 56v337q0 308 215 308q54 0 85 -16t31 -40q0 -31 -34 -31q-16 0 -28 11.5t-19.5 24.5t-24 24.5t-39.5 11.5q-59 0 -93 -66.5t-34 -205.5v-358q0 -44 15 -56.5t72 -12.5q3 0 3 -6t-3 -6q-21 0 -59.5 1t-58.5 1q-19 0 -52 -1t-45 -1z
M321 0q-2 0 -2 6t2 6q39 0 51 13t12 56v187q0 53 -16.5 64.5t-61.5 -10.5q-3 -1 -5 1.5t-2 6t3 4.5l130 61q3 2 7 -1.5t4 -6.5t-0.5 -19.5t-1 -43.5t-0.5 -55v-188q0 -43 11.5 -56t51.5 -13q3 0 3 -6t-3 -6q-11 0 -42 1t-50 1t-49.5 -1t-41.5 -1z" />
    <glyph glyph-name="longs_j.liga" unicode="&#x17f;j" horiz-adv-x="529" 
d="M31 0q-3 0 -3 6t3 6q43 0 56 13t13 56v337q0 308 215 308q54 0 85 -16t31 -40q0 -31 -34 -31q-16 0 -28 11.5t-19.5 24.5t-24 24.5t-39.5 11.5q-59 0 -93 -66.5t-34 -205.5v-358q0 -44 15 -56.5t72 -12.5q3 0 3 -6t-3 -6q-21 0 -59.5 1t-58.5 1q-19 0 -52 -1t-45 -1z
M296 -276q-2 -1 -4.5 4.5t-0.5 6.5q49 21 69 64.5t20 129.5v339q0 53 -16 64.5t-61 -10.5q-5 -2 -7 4t2 8l130 61q3 2 7 -1.5t4 -6.5t-0.5 -19.5t-1 -43.5t-0.5 -55v-317q0 -100 -30.5 -148.5t-110.5 -79.5z" />
    <glyph glyph-name="longs_k.liga" unicode="&#x17f;k" horiz-adv-x="796" 
d="M788 12q3 0 3 -6t-3 -6q-11 0 -41.5 1t-49.5 1q-27 0 -64 -1t-50 -1q-3 0 -3 6t3 6q35 0 45 9.5t-5 31.5l-123 167l-50 -40v-99q0 -43 12 -56t51 -13q3 0 3 -6t-3 -6q-10 0 -41 1t-50 1t-49.5 -1t-41.5 -1q-2 0 -2 6t2 6q39 0 51 13t12 56v551q-41 78 -112 78
q-63 0 -94 -63.5t-31 -207.5v-358q0 -44 17.5 -56.5t81.5 -12.5q2 0 2 -6t-2 -6q-23 0 -65 1t-63 1q-19 0 -52 -1t-45 -1q-3 0 -3 6t3 6q43 0 56 13t13 56v337q0 308 207 308q79 0 122 -37q10 20 10 39q0 3 5.5 3t5.5 -3v-531l134 108q39 31 31.5 50t-56.5 19q-2 0 -2 6t2 6
q13 0 49 -1t66 -1q28 0 60 1t43 1q2 0 2 -6t-2 -6q-82 0 -173 -72l-58 -46l127 -175q50 -69 115 -69z" />
    <glyph glyph-name="longs_l.liga" unicode="&#x17f;l" horiz-adv-x="546" 
d="M517 12q3 0 3 -6t-3 -6q-11 0 -42 1t-50 1t-50 -1t-42 -1q-3 0 -3 6t3 6q39 0 51 13t12 56v547q-41 82 -114 82q-63 0 -94 -63.5t-31 -207.5v-358q0 -44 17.5 -56.5t81.5 -12.5q2 0 2 -6t-2 -6q-23 0 -65 1t-63 1q-19 0 -52 -1t-45 -1q-3 0 -3 6t3 6q43 0 56 13t13 56
v337q0 308 207 308q81 0 123 -39q12 18 12 41q0 3 6 3t6 -3v-647q0 -43 11.5 -56t51.5 -13z" />
    <glyph glyph-name="longs_thorn.liga" unicode="&#x17f;&#xfe;" horiz-adv-x="799" 
d="M610 399q64 0 108.5 -50t44.5 -134q0 -57 -21 -103t-54 -72t-69 -39.5t-71 -13.5q-61 0 -105 26v-207q0 -43 18 -56t81 -13q2 0 2 -6t-2 -6q-17 0 -60 1t-68 1q-19 0 -50.5 -1t-42.5 -1q-2 0 -2 6t2 6q40 0 52 13t12 56v842q-40 62 -103 62t-94 -63.5t-31 -207.5v-358
q0 -44 17.5 -56.5t81.5 -12.5q2 0 2 -6t-2 -6q-23 0 -65 1t-63 1q-19 0 -52 -1t-45 -1q-3 0 -3 6t3 6q43 0 56 13t13 56v337q0 308 207 308q73 0 116 -32q8 16 8 34q0 3 6 3t6 -3v-414q85 85 167 85zM578 8q53 0 87 46.5t34 129.5q0 84 -37 130.5t-94 46.5q-63 0 -125 -64
v-227q57 -62 135 -62z" />
    <glyph glyph-name="longs_longs.liga" unicode="&#x17f;&#x17f;" horiz-adv-x="538" 
d="M589 726q46 0 75.5 -15.5t29.5 -37.5q0 -15 -10.5 -23t-25.5 -8q-16 0 -27.5 10.5t-18.5 23.5t-21.5 23.5t-36.5 10.5q-114 0 -114 -271v-358q0 -44 14.5 -56.5t70.5 -12.5q2 0 2 -6t-2 -6q-21 0 -59 1t-57 1t-52 -1t-45 -1q-3 0 -3 6t3 6q43 0 56 13t13 56v337
q0 125 32 198q-50 58 -113 58q-66 0 -104.5 -60t-38.5 -175v-358q0 -44 16.5 -56.5t77.5 -12.5q2 0 2 -6t-2 -6q-22 0 -62.5 1t-60.5 1q-19 0 -52 -1t-45 -1q-3 0 -3 6t3 6q43 0 56 13t13 56v337q0 132 63.5 202.5t169.5 70.5q61 0 111 -24q50 59 145 59z" />
    <glyph glyph-name="longs_longs_b.liga" unicode="&#x17f;&#x17f;b" horiz-adv-x="1094" 
d="M897 399q67 0 113.5 -48t47.5 -137q-1 -107 -67 -167t-153 -60q-78 0 -138 42l-74 -34q-4 -1 -6.5 3.5t1.5 6.5q31 22 44 41.5t13 56.5l1 529q-41 78 -112 78q-63 0 -94 -63.5t-31 -207.5v-358q0 -44 17.5 -56.5t81.5 -12.5q2 0 2 -6t-2 -6q-23 0 -65 1t-63 1
q-19 0 -52 -1t-45 -1q-3 0 -3 6t3 6q43 0 55.5 13t12.5 56v337q0 119 32 194q-51 62 -116 62q-66 0 -104.5 -60t-38.5 -175v-358q0 -44 16.5 -56.5t77.5 -12.5q2 0 2 -6t-2 -6q-22 0 -62.5 1t-60.5 1q-19 0 -52 -1t-45 -1q-3 0 -3 6t3 6q43 0 56 13t13 56v337
q0 132 63.5 202.5t169.5 70.5q63 0 115 -26q51 61 144 61q78 0 123 -38q11 19 11 40q0 3 6 3t6 -3l-1 -412q81 83 160 83zM868 6q59 0 91 45t32 129q0 90 -35 138t-93 48q-60 0 -126 -68v-218q56 -74 131 -74z" />
    <glyph glyph-name="longs_longs_h.liga" unicode="&#x17f;&#x17f;h" horiz-adv-x="1091" 
d="M1069 12q3 0 3 -6t-3 -6q-10 0 -41 1t-50 1t-49.5 -1t-41.5 -1q-2 0 -2 6t2 6q39 0 51 13t12 56v159q0 116 -92 116q-67 0 -121 -62v-213q0 -43 12 -56t51 -13q3 0 3 -6t-3 -6q-10 0 -41 1t-50 1t-49.5 -1t-41.5 -1q-2 0 -2 6t2 6q39 0 51 13t12 56v551q-41 78 -112 78
q-63 0 -94 -63.5t-31 -207.5v-358q0 -44 17.5 -56.5t81.5 -12.5q2 0 2 -6t-2 -6q-23 0 -65 1t-63 1q-19 0 -52 -1t-45 -1q-3 0 -3 6t3 6q43 0 56 13t13 56v337q0 118 30 192q-49 64 -117 64q-66 0 -104.5 -60t-38.5 -175v-358q0 -44 16.5 -56.5t77.5 -12.5q2 0 2 -6t-2 -6
q-22 0 -62.5 1t-60.5 1q-19 0 -52 -1t-45 -1q-3 0 -3 6t3 6q43 0 56 13t13 56v337q0 132 63.5 202.5t169.5 70.5q67 0 116 -27q52 62 145 62q79 0 122 -37q10 20 10 39q0 3 5.5 3t5.5 -3v-417q75 85 155 85q55 0 84.5 -31t29.5 -90v-194q0 -43 12 -56t51 -13z" />
    <glyph glyph-name="longs_longs_i.liga" unicode="&#x17f;&#x17f;i" horiz-adv-x="828" 
d="M567 711q-59 0 -93 -66.5t-34 -205.5v-358q0 -44 15 -56.5t72 -12.5q3 0 3 -6t-3 -6q-21 0 -59.5 1t-58.5 1q-19 0 -52 -1t-45 -1q-3 0 -3 6t3 6q43 0 56 13t13 56v337q0 121 34 195q-50 61 -115 61q-66 0 -104.5 -60t-38.5 -175v-358q0 -44 16.5 -56.5t77.5 -12.5
q2 0 2 -6t-2 -6q-22 0 -62.5 1t-60.5 1q-19 0 -52 -1t-45 -1q-3 0 -3 6t3 6q43 0 56 13t13 56v337q0 132 63.5 202.5t169.5 70.5q63 0 115 -26q52 61 148 61q54 0 85 -16t31 -40q0 -31 -34 -31q-16 0 -28 11.5t-19.5 24.5t-24 24.5t-39.5 11.5zM785 12q3 0 3 -6t-3 -6
q-11 0 -42 1t-50 1t-49.5 -1t-41.5 -1q-2 0 -2 6t2 6q39 0 51 13t12 56v187q0 53 -16.5 64.5t-61.5 -10.5q-6 -2 -7 6q-1 4 3 6l130 61q3 2 7 -1.5t4 -6.5t-0.5 -19.5t-1 -43.5t-0.5 -55v-188q0 -43 11.5 -56t51.5 -13z" />
    <glyph glyph-name="longs_longs_j.liga" unicode="&#x17f;&#x17f;j" horiz-adv-x="810" 
d="M567 711q-59 0 -93 -66.5t-34 -205.5v-358q0 -44 15 -56.5t72 -12.5q3 0 3 -6t-3 -6q-21 0 -59.5 1t-58.5 1q-19 0 -52 -1t-45 -1q-3 0 -3 6t3 6q43 0 56 13t13 56v337q0 121 34 195q-50 61 -115 61q-66 0 -104.5 -60t-38.5 -175v-358q0 -44 16.5 -56.5t77.5 -12.5
q2 0 2 -6t-2 -6q-22 0 -62.5 1t-60.5 1q-19 0 -52 -1t-45 -1q-3 0 -3 6t3 6q43 0 56 13t13 56v337q0 132 63.5 202.5t169.5 70.5q63 0 115 -26q52 61 148 61q54 0 85 -16t31 -40q0 -31 -34 -31q-16 0 -28 11.5t-19.5 24.5t-24 24.5t-39.5 11.5zM709 395q3 2 7 -1.5t4 -6.5
t-0.5 -19.5t-1 -43.5t-0.5 -55v-317q0 -100 -30.5 -148.5t-110.5 -79.5q-2 -1 -4.5 4.5t-0.5 6.5q49 21 69 64.5t20 129.5v339q0 53 -16 64.5t-61 -10.5q-5 -2 -7 4t2 8z" />
    <glyph glyph-name="longs_longs_k.liga" unicode="&#x17f;&#x17f;k" horiz-adv-x="1083" 
d="M1075 12q3 0 3 -6t-3 -6q-11 0 -41.5 1t-49.5 1q-27 0 -64 -1t-50 -1q-3 0 -3 6t3 6q36 0 45.5 9.5t-5.5 31.5l-123 167l-50 -40v-99q0 -43 12 -56t51 -13q3 0 3 -6t-3 -6q-10 0 -41 1t-50 1t-49.5 -1t-41.5 -1q-2 0 -2 6t2 6q39 0 51 13t12 56v551q-41 78 -112 78
q-63 0 -94 -63.5t-31 -207.5v-358q0 -44 17.5 -56.5t81.5 -12.5q2 0 2 -6t-2 -6q-23 0 -65 1t-63 1q-19 0 -52 -1t-45 -1q-3 0 -3 6t3 6q43 0 56 13t13 56v337q0 118 30 192q-49 64 -117 64q-66 0 -104.5 -60t-38.5 -175v-358q0 -44 16.5 -56.5t77.5 -12.5q2 0 2 -6t-2 -6
q-22 0 -62.5 1t-60.5 1q-19 0 -52 -1t-45 -1q-3 0 -3 6t3 6q43 0 56 13t13 56v337q0 132 63.5 202.5t169.5 70.5q67 0 116 -27q52 62 145 62q79 0 122 -37q10 20 10 39q0 3 5.5 3t5.5 -3v-531l134 108q39 31 31.5 50t-56.5 19q-2 0 -2 6t2 6q13 0 49 -1t66 -1q28 0 60 1
t43 1q2 0 2 -6t-2 -6q-82 0 -173 -72l-58 -46l127 -175q50 -69 115 -69z" />
    <glyph glyph-name="longs_longs_l.liga" unicode="&#x17f;&#x17f;l" horiz-adv-x="832" 
d="M804 12q3 0 3 -6t-3 -6q-10 0 -41 1t-51 1q-19 0 -50 -1t-42 -1q-3 0 -3 6t3 6q39 0 51 13t12 56v547q-41 82 -114 82q-63 0 -94 -63.5t-31 -207.5v-358q0 -44 17.5 -56.5t81.5 -12.5q2 0 2 -6t-2 -6q-23 0 -65 1t-63 1q-19 0 -52 -1t-45 -1q-3 0 -3 6t3 6q43 0 56 13
t13 56v337q0 118 30 192q-49 64 -117 64q-66 0 -104.5 -60t-38.5 -175v-358q0 -44 16.5 -56.5t77.5 -12.5q2 0 2 -6t-2 -6q-22 0 -62.5 1t-60.5 1q-19 0 -52 -1t-45 -1q-3 0 -3 6t3 6q43 0 56 13t13 56v337q0 132 63.5 202.5t169.5 70.5q67 0 116 -27q52 62 145 62
q81 0 123 -39q12 18 12 41q0 3 6 3t6 -3v-647q0 -43 11.5 -56t51.5 -13z" />
    <glyph glyph-name="longs_longs_thorn.liga" unicode="&#x17f;&#x17f;&#xfe;" horiz-adv-x="1086" 
d="M897 399q64 0 108.5 -50t44.5 -134q0 -57 -21 -103t-54 -72t-69 -39.5t-71 -13.5q-61 0 -105 26v-207q0 -43 18 -56t81 -13q2 0 2 -6t-2 -6q-17 0 -60 1t-68 1q-19 0 -50.5 -1t-42.5 -1q-2 0 -2 6t2 6q40 0 52 13t12 56v842q-40 62 -103 62t-94 -63.5t-31 -207.5v-358
q0 -44 17.5 -56.5t81.5 -12.5q2 0 2 -6t-2 -6q-23 0 -65 1t-63 1q-19 0 -52 -1t-45 -1q-3 0 -3 6t3 6q43 0 56 13t13 56v337q0 118 30 192q-49 64 -117 64q-66 0 -104.5 -60t-38.5 -175v-358q0 -44 16.5 -56.5t77.5 -12.5q2 0 2 -6t-2 -6q-22 0 -62.5 1t-60.5 1
q-19 0 -52 -1t-45 -1q-3 0 -3 6t3 6q43 0 56 13t13 56v337q0 132 63.5 202.5t169.5 70.5q67 0 116 -27q52 62 145 62q73 0 116 -32q8 16 8 34q0 3 6 3t6 -3v-414q85 85 167 85zM865 8q53 0 87 46.5t34 129.5q0 84 -37 130.5t-94 46.5q-63 0 -125 -64v-227q57 -62 135 -62z
" />
    <glyph glyph-name=".notdef" horiz-adv-x="501" 
d="M94 -275v1000h317v-1000h-317zM168 626h65v-38h-66v-32h166v32h-66v38h66v32h-165v-32zM167 426h166v34h-66v69h-100v-103zM200 460v35h33v-35h-33zM167 365h66v-36h-66v-34h100v70h66v33h-166v-33zM301 273h-134v-34h166v99h-32v-65zM233 160h34v24h34v-48h-101v80h-33
v-113h166v113h-100v-56zM167 -70h166v113h-166v-113zM200 -37v48h101v-48h-101zM167 -126h70l-70 -47v-33h166v33h-101l69 47h32v34h-166v-34z" />
    <glyph glyph-name=".null" horiz-adv-x="0" 
 />
    <glyph glyph-name="nonmarkingreturn" horiz-adv-x="333" 
 />
    <glyph glyph-name="space" unicode=" " horiz-adv-x="234" 
 />
    <glyph glyph-name="exclam" unicode="!" horiz-adv-x="247" 
d="M78 620q-1 4 14 6.5t32 2.5q44 -1 45 -9q-24 -125 -40 -431q0 -3 -7.5 -3t-7.5 3q-11 295 -36 431zM119 -11q-20 0 -32 12t-12 31t12 30.5t32 11.5q44 0 44 -42q0 -20 -11.5 -31.5t-32.5 -11.5z" />
    <glyph glyph-name="quotedbl" unicode="&#x22;" horiz-adv-x="283" 
d="M55 365l-12 243q-1 16 43 28q35 10 33 0l-52 -270q-1 -1 -4 -2t-5.5 -1t-2.5 2zM197 365l-12 243q-1 16 43 28q35 10 33 0l-52 -270q-1 -1 -4 -2t-5.5 -1t-2.5 2z" />
    <glyph glyph-name="numbersign" unicode="#" horiz-adv-x="526" 
d="M463 314q5 0 5 -19.5t-5 -19.5h-73l-29 -159h67q4 0 4 -20t-4 -20h-74l-27 -155q-1 -3 -9.5 -3t-17.5 2.5t-9 4.5l27 151h-151l-27 -155q-1 -3 -9.5 -3t-17.5 2.5t-9 4.5l27 151h-68q-3 0 -4 10t0 20t3 10h76l28 159h-68q-3 0 -4 9.5t0 19.5t3 10h76l30 168q0 7 25 -1
q9 -3 10 -6l-28 -161h150l30 168q0 7 25 -1q10 -3 10 -6l-28 -161h66zM325 116l28 159h-150l-29 -159h151z" />
    <glyph glyph-name="dollar" unicode="$" horiz-adv-x="411" 
d="M366 122q0 -52 -38 -89t-104 -44v-91q0 -7 -10.5 -7t-10.5 7v90h-5q-73 0 -119 35q-7 3 -9 19l-11 99q-1 4 4 5q7 2 8 -3q13 -52 49.5 -91.5t82.5 -46.5v211l-14 8q-30 16 -45.5 25.5t-35.5 26.5t-29 37.5t-9 45.5q0 52 38 83.5t95 36.5v82q0 7 10.5 7t10.5 -7v-81
q47 0 96 -23q14 -7 15 -17l7 -87q0 -4 -5 -5t-7 3q-7 35 -36 69.5t-70 42.5v-193l17 -9q31 -16 46.5 -25.5t37.5 -27t31.5 -39t9.5 -47.5zM123 386q0 -60 80 -105v184q-38 0 -59 -22t-21 -57zM224 4q35 1 60 21.5t25 63.5q0 65 -85 115v-200z" />
    <glyph glyph-name="percent" unicode="%" horiz-adv-x="574" 
d="M150 303q-53 0 -88 37.5t-35 92.5q0 53 35 90t88 37q52 0 86 -37.5t34 -92.5q0 -54 -34 -90.5t-86 -36.5zM106 -6q-1 -1 -7.5 1t-12 6t-4.5 6l371 544q1 2 7.5 -1t12 -7t4.5 -6zM157 314q33 0 44 27.5t11 81.5q0 126 -68 126q-59 0 -59 -113q0 -122 72 -122zM427 -5
q-53 0 -88 37.5t-35 92.5q0 53 35 90.5t88 37.5q52 0 86 -38t34 -92t-34 -91t-86 -37zM434 7q33 0 44 27.5t11 81.5q0 125 -68 125q-58 0 -58 -112q0 -122 71 -122z" />
    <glyph glyph-name="ampersand" unicode="&#x26;" horiz-adv-x="697" 
d="M697 12q3 0 3.5 -3t-0.5 -6t-3 -3h-108q-45 0 -137 72q-81 -84 -202 -84q-91 0 -138.5 43.5t-47.5 105.5q0 57 35.5 99.5t102.5 91.5q-18 27 -29 50q-29 64 -29 109q0 66 46.5 112.5t119.5 46.5q48 0 82.5 -23t34.5 -76q0 -13 -3 -26t-6 -23.5t-12 -23t-13.5 -19.5
t-18.5 -19.5t-19 -17.5t-23 -17.5t-22 -15.5t-24.5 -16.5t-23.5 -15.5q70 -114 213 -223q35 61 35 135q0 36 -14.5 54t-56.5 18q-3 0 -3.5 6t3.5 6l209 1q4 0 4 -6t-4 -6q-48 0 -63.5 -12.5t-25.5 -46.5q-29 -99 -69 -160q121 -89 207 -107zM202 529q0 -77 52 -164
q55 41 84.5 79.5t29.5 86.5q0 44 -23.5 69t-63.5 25q-79 0 -79 -96zM295 18q84 0 145 64q-6 4 -18 14q-129 100 -211 220q-83 -67 -83 -144q0 -65 47.5 -109.5t119.5 -44.5z" />
    <glyph glyph-name="quotesingle" unicode="'" horiz-adv-x="140" 
d="M55 365l-12 243q-1 16 43 28q35 10 33 0l-52 -270q-1 -1 -4 -2t-5.5 -1t-2.5 2z" />
    <glyph glyph-name="parenleft" unicode="(" horiz-adv-x="309" 
d="M65 304q0 142 55 255t154 166q2 1 4 -1.5t0 -4.5q-143 -136 -143 -415t143 -415q2 -1 0 -4t-4 -2q-99 54 -154 166.5t-55 254.5z" />
    <glyph glyph-name="parenright" unicode=")" horiz-adv-x="309" 
d="M244 304q0 -142 -55 -255t-154 -166q-2 -1 -4 1.5t0 4.5q143 136 143 415t-143 415q-2 1 0 4t4 2q99 -54 154 -166.5t55 -254.5z" />
    <glyph glyph-name="asterisk" unicode="*" horiz-adv-x="448" 
d="M226 529l2 128q0 16 49 28q30 7 28 0l-69 -156q-1 -3 -5.5 -3t-4.5 3zM204 511l-122 41q-16 6 -11 60q3 24 8 23l128 -115q2 -1 2 -3.5t-2 -4t-3 -1.5zM422 486l-171 17q-2 0 -3.5 4.5t0.5 5.5l123 38q15 5 41 -36q19 -30 10 -29zM137 383q-9 -14 -58 7q-23 10 -21 15
l148 86q2 2 6 -1t2 -5zM269 314l-36 167q0 1 1.5 3.5t4 3.5t2.5 0l75 -106q9 -13 -24 -52q-21 -24 -23 -16z" />
    <glyph glyph-name="plus" unicode="+" horiz-adv-x="398" 
d="M364 209q4 0 4 -19.5t-4 -19.5h-145v-145q0 -3 -10 -4t-20 -0.5t-10 2.5v147h-145q-3 0 -4 10t0 19.5t3 9.5h146v145q0 4 20 4t20 -4v-145h145z" />
    <glyph glyph-name="comma" unicode="," horiz-adv-x="222" 
d="M102 71q64 0 64 -87q0 -84 -75 -165q-4 -3 -7 0.5t-1 6.5q38 52 38 122q0 25 -9 47q-8 -3 -16 -3q-19 0 -29.5 10.5t-10.5 28.5q0 40 46 40z" />
    <glyph glyph-name="hyphen" unicode="-" horiz-adv-x="323" 
d="M32 165q-3 0 -4 10t-0.5 21t2.5 11l261 47q3 0 4 -10t0 -21t-4 -11z" />
    <glyph glyph-name="period" unicode="." horiz-adv-x="197" 
d="M99 -11q-20 0 -32 12t-12 31t12 30.5t32 11.5q44 0 44 -42q0 -20 -11.5 -31.5t-32.5 -11.5z" />
    <glyph glyph-name="slash" unicode="/" horiz-adv-x="341" 
d="M64 -163q-1 -4 -20 1.5t-18 9.5l252 882q1 2 5 2t10 -1.5t11 -3.5t8.5 -4.5t2.5 -4.5z" />
    <glyph glyph-name="zero" unicode="0" horiz-adv-x="477" 
d="M240 -13q-89 0 -147 59t-58 150q0 89 58 146t148 57q88 0 144.5 -58t56.5 -148t-57 -148t-145 -58zM251 1q60 0 90.5 48.5t30.5 131.5q0 100 -40.5 152t-101.5 52q-59 0 -92.5 -50t-33.5 -131q0 -89 40 -146t107 -57z" />
    <glyph glyph-name="one" unicode="1" horiz-adv-x="332" 
d="M55 0q-3 0 -3 6t3 6q62 0 80 13t18 56v186q0 59 -16 66.5t-83 -22.5q-2 -1 -4.5 1.5t-3 5.5t2.5 4l151 73q3 2 6.5 -1t3.5 -6v-307q0 -44 17 -56.5t80 -12.5q3 0 3 -6t-3 -6q-15 0 -57.5 1t-68.5 1q-25 0 -68 -1t-58 -1z" />
    <glyph glyph-name="two" unicode="2" horiz-adv-x="402" 
d="M37 15q130 106 178 162t48 109q0 40 -24.5 65.5t-63.5 25.5q-79 0 -114 -124q0 -1 -3.5 -1.5t-6 1t-2.5 3.5l39 152q1 4 9 1q3 -1 2 -3q-6 -27 14 -27q6 0 40.5 10t62.5 10q51 0 80.5 -27.5t29.5 -71.5q0 -51 -47 -103t-163 -141q-4 -3 -2.5 -5t6.5 -2q153 0 192 9.5
t49 55.5q1 2 6.5 1.5t5.5 -2.5l-15 -102q0 -11 -9 -11h-305q-5 0 -8 5.5t1 9.5z" />
    <glyph glyph-name="three" unicode="3" horiz-adv-x="389" 
d="M214 131q66 -7 100.5 -47t34.5 -93q0 -77 -74.5 -152t-215.5 -114q-4 -1 -7 6q0 4 2 5q63 19 108.5 49t69.5 64.5t34.5 66.5t10.5 64q0 54 -28 91t-85 37q-26 0 -48 -6q-3 -1 -5 5t1 7q78 20 110.5 56t32.5 98q0 109 -87 109q-89 0 -123 -119q-1 -1 -4 -1.5t-5.5 1
t-2.5 3.5l37 146q1 2 4 2t5.5 -1.5t2.5 -2.5q-7 -28 15 -28q6 0 41 11t63 11q56 0 87 -33.5t31 -80.5q0 -49 -28 -91.5t-77 -62.5z" />
    <glyph glyph-name="four" unicode="4" horiz-adv-x="451" 
d="M414 44q3 0 4 -10.5t-0.5 -21.5t-4.5 -11q-30 2 -84 4v-158q0 -11 -8 -14l-42 -21q-9 -5 -9 6v188q-63 2 -241 2q-5 0 -7.5 4t0.5 8l292 376q2 3 8.5 1.5t6.5 -5.5v-350q23 0 85 2zM78 38q86 0 192 2v257l-197 -252q-7 -7 5 -7z" />
    <glyph glyph-name="five" unicode="5" horiz-adv-x="409" 
d="M119 325q-13 0 -15 -14l-21 -115q138 -1 203 -50.5t65 -136.5q0 -84 -65.5 -149t-217.5 -135q-4 -2 -7 3.5t1 7.5q123 61 173 123.5t50 132.5q0 83 -56 129t-161 46q-12 0 -10 12l32 178q1 7 3 8.5t10 2.5q172 20 203.5 27.5t38.5 27.5q0 2 3 2.5t5.5 -1t2.5 -3.5
l-20 -74q-4 -11 -9.5 -14.5t-18.5 -3.5z" />
    <glyph glyph-name="six" unicode="6" horiz-adv-x="465" 
d="M299 283q67 0 99 -36t32 -88q0 -71 -58.5 -121.5t-141.5 -50.5q-85 0 -134 58t-49 163q0 143 95.5 270t257.5 183q4 1 6 -4t-1 -7q-140 -64 -217 -182.5t-77 -242.5q0 -94 39.5 -156.5t107.5 -62.5q49 0 78.5 34t29.5 92q0 55 -25.5 89t-75.5 34q-47 0 -100 -47
q-2 -2 -4.5 -1t-4.5 3.5t-1 4.5q54 68 144 68z" />
    <glyph glyph-name="seven" unicode="7" horiz-adv-x="429" 
d="M163 -218q-5 -13 -21 -24l-50 -33q-2 -1 -5 2t-2 5l266 596q3 7 -5 7q-76 0 -119.5 -0.5t-81.5 -3.5t-54 -6.5t-29.5 -12.5t-17.5 -18t-9 -27q-2 -3 -7.5 -2t-4.5 5l35 143q4 3 12 -1q-4 -17 4.5 -21.5t42.5 -4.5h265q4 0 7.5 -4.5t1.5 -8.5z" />
    <glyph glyph-name="eight" unicode="8" horiz-adv-x="489" 
d="M298 344q37 -21 57.5 -34t47 -36t38.5 -50.5t12 -61.5q0 -75 -62 -125t-149 -50q-86 0 -140.5 48.5t-54.5 114.5q0 59 39.5 111t97.5 82q-81 49 -81 111q0 57 49 88.5t107 31.5q59 0 96.5 -32.5t37.5 -72.5q0 -67 -95 -125zM238 558q-35 0 -57.5 -20t-22.5 -54
q0 -30 20.5 -56t43 -40.5t65.5 -37.5q49 49 49 103q0 47 -28 76t-70 29zM270 5q55 0 90.5 34t35.5 91q0 35 -12.5 63t-40.5 51.5t-47.5 35.5t-59.5 33q-26 14 -38 21q-86 -55 -86 -158q0 -69 44.5 -120t113.5 -51z" />
    <glyph glyph-name="nine" unicode="9" horiz-adv-x="465" 
d="M177 109q-72 0 -107 41t-35 94q0 68 52.5 111.5t129.5 43.5q92 0 146.5 -64t54.5 -169q0 -141 -95.5 -266t-257.5 -175q-3 -1 -5.5 4t1.5 7q139 57 216 174t77 236q0 53 -14 103.5t-50 90.5t-89 40q-48 0 -75 -31t-27 -86t28.5 -90.5t81.5 -35.5q46 0 91 37q3 3 8 -0.5
t3 -6.5q-49 -58 -134 -58z" />
    <glyph glyph-name="colon" unicode=":" horiz-adv-x="197" 
d="M99 270q-20 0 -32 12t-12 31t12 30.5t32 11.5q44 0 44 -42q0 -20 -11.5 -31.5t-32.5 -11.5zM99 -11q-20 0 -32 12t-12 31t12 30.5t32 11.5q44 0 44 -42q0 -20 -11.5 -31.5t-32.5 -11.5z" />
    <glyph glyph-name="semicolon" unicode=";" horiz-adv-x="224" 
d="M101 270q-20 0 -32 12t-12 31t12 30.5t32 11.5q44 0 44 -42q0 -20 -11.5 -31.5t-32.5 -11.5zM104 71q64 0 64 -87q0 -84 -75 -165q-4 -3 -7 0.5t-1 6.5q38 52 38 122q0 25 -9 47q-8 -3 -16 -3q-19 0 -29.5 10.5t-10.5 28.5q0 40 46 40z" />
    <glyph glyph-name="less" unicode="&#x3c;" horiz-adv-x="407" 
d="M370 66q9 -4 6 -30q-2 -12 -6 -11l-334 148q-5 3 -5 17.5t5 16.5l334 147q4 2 6 -5q5 -21 -4 -33l-2 -2l-291 -124z" />
    <glyph glyph-name="equal" unicode="=" horiz-adv-x="468" 
d="M34 240q-3 0 -4 10t0 19.5t3 9.5h401q4 0 4 -19.5t-4 -19.5h-400zM34 100q-3 0 -4 10t0 19.5t3 9.5h401q4 0 4 -19.5t-4 -19.5h-400z" />
    <glyph glyph-name="greater" unicode="&#x3e;" horiz-adv-x="407" 
d="M371 206q5 -3 5 -17.5t-5 -16.5l-334 -147q-4 -2 -6 5q-5 21 4 33l2 2l291 124l-291 124q-9 4 -6 30q2 12 6 11z" />
    <glyph glyph-name="question" unicode="?" horiz-adv-x="329" 
d="M159 612q-39 0 -43 -47q-8 -44 -39 -44q-16 0 -25 10.5t-9 23.5q0 29 35 49.5t84 20.5q59 0 97.5 -31t38.5 -89q0 -28 -11 -53t-25 -40t-34 -34q-5 -4 -7 -6q-35 -34 -49 -61.5t-14 -62.5q0 -22 6 -55q0 -2 -2.5 -3t-6 -1t-3.5 2q-26 60 -26 119q0 32 16 58t35.5 41.5
t35.5 43.5t16 64q0 43 -19.5 69t-50.5 26zM147 -11q-20 0 -32 12t-12 31t12 30.5t32 11.5q44 0 44 -42q0 -20 -11.5 -31.5t-32.5 -11.5z" />
    <glyph glyph-name="at" unicode="@" horiz-adv-x="719" 
d="M467 51q-68 0 -53 87l10 51q-35 -63 -77.5 -101.5t-80.5 -38.5q-26 0 -41 19.5t-9 60.5q12 82 77 154t125 72q32 0 47 -21q15 13 18 28q1 2 9.5 1.5t8.5 -2.5l-41 -224q-8 -29 -1.5 -47.5t34.5 -18.5q44 0 81 45.5t37 119.5q0 98 -70.5 166t-174.5 68q-113 0 -181 -79.5
t-68 -191.5q0 -120 76.5 -192.5t199.5 -72.5q87 0 166 46q1 1 3.5 -0.5t3 -4t-0.5 -3.5q-87 -69 -204 -69q-124 0 -205.5 73t-81.5 197q0 137 97.5 228.5t226.5 91.5q111 0 180.5 -66.5t69.5 -161.5q0 -85 -54 -149.5t-127 -64.5zM293 89q40 0 86 57.5t60 123.5q5 27 -6 45
t-37 17q-38 -1 -77.5 -52.5t-50.5 -118.5q-11 -72 25 -72z" />
    <glyph glyph-name="A" unicode="A" 
d="M699 12q4 0 4 -6t-4 -6q-19 0 -59 2t-58 2q-22 0 -54.5 -2t-50.5 -2q-5 0 -5 6t5 6q54 0 66 15t-8 59l-115 245h-189l-86 -204q-24 -61 -3.5 -88t87.5 -27q5 0 5 -6t-5 -6q-19 0 -55 2t-63 2q-25 0 -57.5 -2t-52.5 -2q-5 0 -5 6t5 6q41 0 66.5 25.5t56.5 98.5l211 498
q1 3 6.5 3t6.5 -3l236 -497q34 -74 58 -99.5t57 -25.5zM240 352h170l-90 190z" />
    <glyph glyph-name="B" unicode="B" horiz-adv-x="558" 
d="M332 352q79 -6 127.5 -52.5t48.5 -115.5q0 -81 -57 -134.5t-142 -53.5q-21 0 -72.5 3t-74.5 3t-63.5 -1t-55.5 -1q-2 0 -2 6t2 6q54 0 71 13t17 56v463q0 43 -16 56t-70 13q-3 0 -3 6t3 6q15 0 54 -1.5t63 -1.5q17 0 59.5 3t58.5 3q84 0 126 -36.5t42 -95.5
q0 -48 -31 -85.5t-85 -58.5zM258 613q-38 0 -50.5 -12t-12.5 -59v-190q26 -1 45 -1q73 0 108 37.5t35 99.5q0 56 -30.5 90.5t-94.5 34.5zM294 14q144 0 144 145q0 76 -44.5 123t-122.5 48q-32 1 -76 -2v-247q0 -38 19.5 -52.5t79.5 -14.5z" />
    <glyph glyph-name="C" unicode="C" horiz-adv-x="669" 
d="M415 636q114 0 175 -35q14 -7 15 -24l11 -112q0 -3 -5 -3.5t-6 2.5q-42 150 -229 150q-115 0 -183.5 -73.5t-68.5 -195.5q0 -142 83.5 -242.5t200.5 -100.5q150 0 206 161q1 3 6.5 2.5t5.5 -3.5l-14 -113q-2 -12 -4.5 -15.5t-11.5 -7.5q-90 -38 -190 -38q-92 0 -163 29.5
t-112 78t-61.5 105.5t-20.5 117q0 92 52 166t135 113t179 39z" />
    <glyph glyph-name="D" unicode="D" horiz-adv-x="691" 
d="M303 -4q-18 0 -71.5 3t-78.5 3q-23 0 -63 -1t-55 -1q-2 0 -2 6t2 6q55 0 70.5 12.5t15.5 56.5v463q0 43 -15.5 56t-69.5 13q-2 0 -2 6t2 6q15 0 54.5 -1.5t62.5 -1.5t71 2.5t65 2.5q157 0 255 -86.5t98 -217.5q0 -146 -98.5 -236.5t-240.5 -90.5zM293 11q123 0 198 76
t75 214q0 133 -73.5 222t-194.5 89q-64 0 -88 -13t-24 -57v-450q0 -44 22 -62.5t85 -18.5z" />
    <glyph glyph-name="E" unicode="E" horiz-adv-x="537" 
d="M475 149q1 3 6.5 2t5.5 -4q-9 -63 -9 -132q0 -15 -16 -15h-419q-2 0 -2 6t2 6q55 0 70.5 12.5t15.5 56.5v463q0 43 -16 56t-70 13q-2 0 -2 6t2 6h402q9 0 9 -9l2 -123q0 -3 -5 -3.5t-6 2.5q-3 53 -32 82.5t-77 29.5h-61q-50 0 -65.5 -12.5t-15.5 -52.5v-203h122
q48 0 68.5 16t20.5 54q0 2 6 2t6 -2q0 -22 -0.5 -46t-0.5 -35q0 -15 1 -45t1 -47q0 -2 -6 -2t-6 2q0 44 -21.5 63t-71.5 19h-119v-230q0 -40 14.5 -52t63.5 -12h80q48 0 80 34t43 94z" />
    <glyph glyph-name="F" unicode="F" horiz-adv-x="509" 
d="M454 616l2 -123q0 -3 -5 -3.5t-6 2.5q-3 53 -32 82.5t-77 29.5h-61q-49 0 -65 -12t-16 -49v-219h101q53 0 75.5 16.5t22.5 53.5q0 2 6 2t6 -2q0 -22 -0.5 -46t-0.5 -35q0 -15 1 -45t1 -47q0 -2 -6 -2t-6 2q0 44 -23.5 63t-78.5 19h-98v-218q0 -46 21.5 -59.5t99.5 -13.5
q3 0 3 -6t-3 -6q-20 0 -70.5 1t-83.5 1q-23 0 -63.5 -1t-55.5 -1q-2 0 -2 6t2 6q55 0 71 12.5t16 56.5v463q0 43 -16 56t-70 13q-2 0 -2 6t2 6h402q9 0 9 -9z" />
    <glyph glyph-name="G" unicode="G" horiz-adv-x="714" 
d="M405 -12q-164 0 -260 90.5t-96 226.5q0 147 107.5 239t273.5 92q108 0 166 -36q11 -7 12 -23l12 -112q0 -3 -5.5 -3.5t-6.5 2.5q-22 72 -79.5 111t-141.5 39q-126 0 -195 -73t-69 -200q0 -147 86.5 -241.5t219.5 -94.5q76 0 104.5 23.5t28.5 97.5q0 73 -17.5 90t-95.5 17
q-4 0 -5.5 4t0 8t4.5 4q112 -8 224 -2q5 0 5 -7t-5 -7q-34 1 -42 -18t-8 -99q0 -40 3.5 -63t3.5 -25q0 -6 -2 -8t-9 -4q-121 -28 -213 -28z" />
    <glyph glyph-name="H" unicode="H" horiz-adv-x="759" 
d="M722 12q3 0 3 -6t-3 -6q-14 0 -54 1t-64 1q-27 0 -67 -1t-54 -1q-3 0 -3 6t3 6q57 0 72.5 12.5t15.5 56.5v234h-384v-234q0 -44 15.5 -56.5t72.5 -12.5q2 0 2 -6t-2 -6q-15 0 -55 1t-66 1q-24 0 -64 -1t-55 -1q-2 0 -2 6t2 6q55 0 71.5 12.5t16.5 56.5v463q0 43 -16 56
t-71 13q-2 0 -2 6t2 6q15 0 55 -1.5t63 -1.5q27 0 67 1.5t54 1.5q2 0 2 -6t-2 -6q-55 0 -71.5 -13.5t-16.5 -57.5v-206h384v206q0 44 -16 57.5t-72 13.5q-3 0 -3 6t3 6q14 0 54 -1.5t67 -1.5q24 0 64 1.5t54 1.5q3 0 3 -6t-3 -6q-55 0 -71 -13t-16 -56v-463q0 -44 16 -56.5
t71 -12.5z" />
    <glyph glyph-name="I" unicode="I" horiz-adv-x="332" 
d="M199 81q0 -44 15.5 -56.5t69.5 -12.5q3 0 3 -6t-3 -6q-14 0 -53.5 1t-65.5 1q-24 0 -64 -1t-54 -1q-3 0 -3 6t3 6q55 0 70.5 12.5t15.5 56.5v463q0 43 -16 56t-70 13q-3 0 -3 6t3 6q14 0 54 -1.5t64 -1.5q26 0 66 1.5t53 1.5q3 0 3 -6t-3 -6q-53 0 -69 -14t-16 -57v-461z
" />
    <glyph glyph-name="J" unicode="J" horiz-adv-x="322" 
d="M280 625q2 0 2 -6t-2 -6q-47 0 -60.5 -13.5t-13.5 -57.5v-570q0 -99 -46 -157.5t-133 -58.5q-34 0 -53.5 11.5t-19.5 31.5q0 15 9 24t25 9q25 0 43.5 -28t37.5 -28q71 0 71 175v593q0 43 -18 56t-80 13q-2 0 -2 6t2 6q18 0 61.5 -1.5t68.5 -1.5q23 0 59 1.5t49 1.5z" />
    <glyph glyph-name="K" unicode="K" horiz-adv-x="650" 
d="M641 12q3 0 3 -6t-3 -6h-112q-39 0 -46 3q-10 5 -40 48q-35 49 -71 94l-153 193l-33 -32v-225q0 -44 15.5 -56.5t69.5 -12.5q3 0 3 -6t-3 -6q-14 0 -53.5 1t-64.5 1q-23 0 -63 -1t-55 -1q-2 0 -2 6t2 6q55 0 70.5 12.5t15.5 56.5v463q0 43 -15.5 56t-69.5 13q-2 0 -2 6
t2 6q15 0 54.5 -1.5t62.5 -1.5q25 0 65 1.5t53 1.5q3 0 3 -6t-3 -6q-53 0 -69 -14t-16 -57v-211l214 213q38 38 32 53.5t-58 15.5q-2 0 -2 6t2 6q14 0 50 -1.5t66 -1.5q29 0 62 1.5t44 1.5q3 0 3 -6t-3 -6q-97 0 -173 -75l-158 -155l144 -184q38 -49 64.5 -82t49.5 -53.5
t34.5 -31.5t30.5 -15t24 -4.5t29 -0.5z" />
    <glyph glyph-name="L" unicode="L" horiz-adv-x="533" 
d="M185 543v-458q0 -41 14.5 -52.5t65.5 -11.5h109q57 0 91 35t45 97q0 2 3 2.5t5.5 -0.5t2.5 -3q-9 -83 -9 -137q0 -15 -15 -15h-462q-2 0 -2 6t2 6q54 0 69.5 12.5t15.5 56.5v463q0 43 -15.5 56t-69.5 13q-2 0 -2 6t2 6q15 0 54 -1.5t63 -1.5q25 0 64.5 1.5t53.5 1.5
q3 0 3 -6t-3 -6q-53 0 -69 -13.5t-16 -56.5z" />
    <glyph glyph-name="M" unicode="M" horiz-adv-x="836" 
d="M812 12q3 0 3 -6t-3 -6q-14 0 -54 1t-64 1q-23 0 -59.5 -1t-49.5 -1q-2 0 -2 6t2 6q50 0 64 13t12 56l-18 455l-228 -529q-1 -4 -8 -4t-9 4l-246 523l-9 -421q-1 -53 18 -75t67 -22q2 0 2 -6t-2 -6q-14 0 -46 1t-51 1t-49 -1t-43 -1q-2 0 -2 6t2 6q42 0 60.5 22.5
t19.5 74.5l9 464q-30 40 -82 40q-2 0 -2 6t2 6q12 0 34.5 -1t30.5 -1q12 0 29.5 1t20.5 1q13 0 21.5 -9.5t24.5 -42.5l223 -470l218 497q11 25 30 25q2 0 15.5 -1t24.5 -1q19 0 44 1t36 1q3 0 3 -6t-3 -6q-50 0 -71.5 -14.5t-20.5 -54.5l20 -463q2 -44 17 -56.5t69 -12.5z
" />
    <glyph glyph-name="N" unicode="N" horiz-adv-x="727" 
d="M704 625q3 0 3 -6t-3 -6q-42 0 -61 -23t-19 -75v-527q0 -2 -5 -3t-7 1l-460 557q-3 4 -9 10v-444q0 -52 18.5 -74.5t59.5 -22.5q3 0 3 -6t-3 -6q-12 0 -41 1t-47 1q-17 0 -48 -1t-44 -1q-2 0 -2 6t2 6q43 0 61 22.5t18 74.5v468q-39 36 -79 36q-3 0 -3 6t3 6q12 0 36 -1
t34 -1q14 0 34 1t24 1q8 0 12 -4t14 -19t21 -29l385 -473v415q0 52 -17.5 75t-58.5 23q-2 0 -2 6t2 6q13 0 41.5 -1.5t46.5 -1.5q17 0 48 1.5t43 1.5z" />
    <glyph glyph-name="O" unicode="O" horiz-adv-x="766" 
d="M366 -12q-141 0 -229 94t-88 230q0 78 32 141.5t83.5 102.5t112.5 59.5t124 20.5q142 0 229 -95t87 -222q0 -138 -103.5 -234.5t-247.5 -96.5zM401 9q104 0 172 75t68 207q0 143 -77 232.5t-205 89.5q-110 0 -172 -71t-62 -195q0 -144 77.5 -241t198.5 -97z" />
    <glyph glyph-name="P" unicode="P" horiz-adv-x="543" 
d="M192 85q0 -46 21.5 -59.5t97.5 -13.5q3 0 3 -6t-3 -6q-19 0 -69 1t-82 1q-23 0 -63 -1t-55 -1q-2 0 -2 6t2 6q54 0 69.5 12.5t15.5 56.5v463q0 43 -15.5 56t-69.5 13q-2 0 -2 6t2 6q15 0 54.5 -1.5t62.5 -1.5q15 0 63 3t76 3q91 0 146.5 -40.5t56.5 -123.5
q1 -97 -67 -149.5t-154 -52.5q-29 0 -48 5q-2 0 -2.5 3.5t1 6.5t3.5 3q16 -4 36 -4q66 0 111.5 43t45.5 124q0 79 -43 124.5t-110 45.5q-52 0 -67 -11.5t-15 -59.5v-457z" />
    <glyph glyph-name="Q" unicode="Q" horiz-adv-x="766" 
d="M745 -161q2 1 3.5 -1.5t1.5 -5t-1 -3.5q-51 -12 -85 -12q-69 0 -145.5 45.5t-132.5 126.5q-7 -1 -20 -1q-141 0 -229 94t-88 230q0 78 32 141.5t83.5 102.5t112.5 59.5t124 20.5q142 0 229 -95t87 -222q0 -112 -71 -199t-180 -118q42 -72 111.5 -118.5t131.5 -46.5
q18 0 36 2zM125 347q0 -144 77.5 -241t198.5 -97q104 0 172 75t68 207q0 143 -77 232.5t-205 89.5q-110 0 -172 -71t-62 -195z" />
    <glyph glyph-name="R" unicode="R" horiz-adv-x="673" 
d="M683 12q2 0 2 -6t-2 -6h-129q-52 0 -260 324q-24 -7 -54 -7q-19 0 -45 2v-238q0 -44 15 -56.5t70 -12.5q3 0 3 -6t-3 -6q-15 0 -54 1t-64 1q-23 0 -63.5 -1t-55.5 -1q-2 0 -2 6t2 6q55 0 71.5 13t16.5 56v463q0 43 -16 56t-70 13q-3 0 -3 6t3 6q15 0 54 -1.5t63 -1.5
q18 0 61 3t59 3q81 0 125 -33t44 -92q0 -48 -28 -90.5t-74 -67.5q125 -187 198 -260t136 -73zM195 344q25 -4 59 -4q69 0 99 29.5t30 98.5q0 145 -122 145q-40 0 -53 -12t-13 -59v-198z" />
    <glyph glyph-name="S" unicode="S" horiz-adv-x="491" 
d="M145 508q0 -24 9 -45.5t19 -35.5t34 -32.5t36 -26t43 -26.5q32 -19 45 -27t38.5 -28t36.5 -35.5t21 -40t10 -52.5q0 -74 -54.5 -122.5t-151.5 -48.5q-77 0 -141 35q-7 4 -9 19l-13 136q-1 4 4.5 5t6.5 -3q16 -72 59.5 -124t115.5 -52q50 0 84.5 27.5t34.5 87.5
q0 35 -11 62.5t-36 50.5t-43.5 35.5t-55.5 34.5q-36 22 -53 34t-42 35t-35.5 49.5t-10.5 59.5q0 74 55.5 115t130.5 41q58 0 117 -24q15 -5 15 -17l7 -115q0 -2 -2.5 -3.5t-5.5 -0.5t-3 4q-3 22 -12.5 44.5t-25.5 45.5t-43.5 37t-62.5 14q-56 0 -83.5 -32.5t-27.5 -80.5z
" />
    <glyph glyph-name="T" unicode="T" horiz-adv-x="634" 
d="M189 607q-63 0 -94.5 -32t-45.5 -109q0 -2 -5.5 -2t-5.5 2q14 119 14 181q0 5 5.5 5t5.5 -5q0 -22 54 -22q85 -3 201 -3q52 0 112 1.5t81 1.5q68 0 76 25q1 4 6 4t5 -4q-9 -90 -9 -184q0 -2 -6 -2t-6 2q-3 78 -32 109.5t-96 31.5q-64 0 -80.5 -10.5t-16.5 -54.5v-461
q0 -44 17.5 -56.5t79.5 -12.5q3 0 3 -6t-3 -6q-15 0 -59 1t-72 1q-26 0 -70 -1t-60 -1q-2 0 -2 6t2 6q62 0 80 12.5t18 56.5v463q0 44 -16.5 53.5t-80.5 9.5z" />
    <glyph glyph-name="U" unicode="U" horiz-adv-x="698" 
d="M572 515q0 98 -87 98q-3 0 -3 6t3 6q14 0 46.5 -1.5t53.5 -1.5q17 0 47.5 1.5t43.5 1.5q2 0 2 -6t-2 -6q-80 0 -80 -98v-284q0 -115 -64 -179.5t-172 -64.5q-112 0 -179 64.5t-67 172.5v320q0 43 -15.5 56t-69.5 13q-2 0 -2 6t2 6q14 0 53.5 -1.5t63.5 -1.5
q25 0 64.5 1.5t53.5 1.5q3 0 3 -6t-3 -6q-54 0 -69.5 -13.5t-15.5 -57.5v-283q0 -117 53.5 -179.5t149.5 -62.5q90 0 140 56.5t50 156.5v285z" />
    <glyph glyph-name="V" unicode="V" horiz-adv-x="666" 
d="M669 625q3 0 3 -6t-3 -6q-69 0 -101 -79l-213 -533q-1 -4 -10.5 -4t-11.5 4l-249 541q-17 39 -36 55t-49 16q-3 0 -3 6t3 6q13 0 39.5 -1.5t43.5 -1.5q34 0 75 1.5t52 1.5q3 0 3 -6t-3 -6q-84 0 -53 -67l209 -458l180 451q15 38 -0.5 56t-69.5 18q-3 0 -3 6t3 6
q15 0 47.5 -1.5t57.5 -1.5q20 0 46 1.5t43 1.5z" />
    <glyph glyph-name="W" unicode="W" horiz-adv-x="931" 
d="M935 625q2 0 2 -6t-2 -6q-69 0 -102 -79l-213 -533q-2 -4 -11 -4t-11 4l-130 284l-113 -284q-1 -4 -10.5 -4t-11.5 4l-249 541q-18 40 -36 55.5t-49 15.5q-3 0 -3 6t3 6q13 0 39.5 -1.5t43.5 -1.5q31 0 69 1.5t50 1.5q3 0 3 -6t-3 -6q-41 0 -53 -13.5t4 -53.5l213 -457
l90 224l-105 229q-18 39 -36 55t-47 16q-3 0 -3 6t3 6q12 0 38.5 -1.5t42.5 -1.5q24 0 51 1.5t34 1.5q3 0 3 -6t-3 -6q-31 0 -33 -11.5t18 -55.5l73 -156l59 149q16 40 9 57t-40 17q-3 0 -3 6t3 6q8 0 27 -1.5t38 -1.5t45 1.5t42 1.5q2 0 2 -6t-2 -6q-34 0 -57.5 -17.5
t-41.5 -61.5l-68 -171l127 -274l179 448q16 39 0.5 57.5t-67.5 18.5q-3 0 -3 6t3 6q14 0 46 -1.5t57 -1.5q19 0 45.5 1.5t43.5 1.5z" />
    <glyph glyph-name="X" unicode="X" horiz-adv-x="652" 
d="M635 12q2 0 2 -6t-2 -6q-12 0 -44.5 1t-51.5 1q-29 0 -70 -1t-56 -1q-2 0 -2 6t2 6q37 0 46.5 8t-4.5 31l-152 230l-127 -179q-31 -44 -22 -67t57 -23q3 0 3 -6t-3 -6q-16 0 -51 1t-64 1q-18 0 -41 -1t-38 -1q-3 0 -3 6t3 6q69 0 136 91l141 193l-161 244
q-26 40 -51.5 56.5t-60.5 16.5q-2 0 -2 6t2 6q12 0 38 -1.5t38 -1.5q29 0 74 1.5t60 1.5q3 0 3 -6t-3 -6q-37 0 -47 -8.5t5 -31.5l148 -223l117 166q33 46 25.5 71.5t-54.5 25.5q-3 0 -3 6t3 6q15 0 50.5 -1.5t63.5 -1.5q17 0 41 1.5t38 1.5q3 0 3 -6t-3 -6q-68 0 -141 -99
l-131 -179l167 -252q26 -39 53.5 -55t68.5 -16z" />
    <glyph glyph-name="Y" unicode="Y" horiz-adv-x="609" 
d="M614 625q2 0 2 -6t-2 -6q-36 0 -73 -26.5t-66 -72.5l-134 -206v-227q0 -44 15 -56.5t70 -12.5q3 0 3 -6t-3 -6q-14 0 -53.5 1t-64.5 1q-24 0 -64 -1t-54 -1q-3 0 -3 6t3 6q55 0 70.5 12.5t15.5 56.5v211l-166 243q-28 44 -53 61t-58 17q-3 0 -3 6t3 6q12 0 36 -1.5
t35 -1.5q30 0 78 1.5t62 1.5q2 0 2 -6t-2 -6q-38 0 -48 -11.5t6 -34.5l161 -236l122 187q59 95 -32 95q-2 0 -2 6t2 6q16 0 52 -1.5t65 -1.5q17 0 40 1.5t38 1.5z" />
    <glyph glyph-name="Z" unicode="Z" horiz-adv-x="595" 
d="M55 13l395 587q3 5 2.5 6.5t-7.5 1.5h-108.5t-81.5 -2t-63 -4.5t-43.5 -9t-33 -13t-20.5 -20t-17.5 -26.5t-13.5 -36q0 -2 -3.5 -2t-6 1.5t-2.5 2.5l40 156q0 1 3.5 1.5t6 -1t2.5 -2.5q-3 -18 7.5 -23t49.5 -5h365q5 0 7.5 -5t-0.5 -8l-390 -585q-4 -5 -3 -6.5t8 -1.5
h255q67 0 102 28t46 88q1 2 6 2t5 -2l-14 -127q0 -10 -9 -10q-149 2 -478 2q-5 0 -7 4.5t1 8.5z" />
    <glyph glyph-name="bracketleft" unicode="[" horiz-adv-x="274" 
d="M88 -106v821q0 7 1.5 8.5t7.5 1.5h139q3 0 3 -6t-3 -6q-56 0 -72.5 -13.5t-16.5 -57.5v-676q0 -44 16.5 -57.5t72.5 -13.5q3 0 3 -6t-3 -6h-139q-6 0 -7.5 2t-1.5 9z" />
    <glyph glyph-name="backslash" unicode="\" horiz-adv-x="341" 
d="M277 -163l-251 881q-1 2 2.5 4.5t8.5 4.5t11 3.5t10 1.5t5 -2l252 -882q1 -1 -2.5 -3.5t-9 -4.5t-11.5 -3.5t-10 -1.5t-5 2z" />
    <glyph glyph-name="bracketright" unicode="]" horiz-adv-x="274" 
d="M186 -106q0 -7 -1.5 -9t-7.5 -2h-139q-3 0 -3 6t3 6q56 0 72.5 13.5t16.5 57.5v676q0 44 -16.5 57.5t-72.5 13.5q-3 0 -3 6t3 6h139q6 0 7.5 -1.5t1.5 -8.5v-821z" />
    <glyph glyph-name="asciicircum" unicode="^" horiz-adv-x="392" 
d="M333 380q1 -1 -1 -3t-4.5 -2.5t-3.5 0.5l-128 172l-128 -172q-2 -2 -6.5 0.5t-3.5 4.5l127 249q1 5 11 5t11 -5z" />
    <glyph glyph-name="underscore" unicode="_" horiz-adv-x="398" 
d="M34 -76q-3 0 -4 10t0 20t3 10h331q4 0 4 -20t-4 -20h-330z" />
    <glyph glyph-name="grave" unicode="`" horiz-adv-x="213" 
d="M42 727q-1 3 5 4q24 1 50 -10q6 -3 6 -5l51 -240q1 -2 -2 -3q-7 -3 -8 1z" />
    <glyph glyph-name="a" unicode="a" horiz-adv-x="419" 
d="M413 54q5 2 6.5 -3.5t-2.5 -7.5l-103 -49q-4 -2 -8 -2q-13 0 -23 17t-13 47l-62 -33q-57 -30 -90 -30q-31 0 -47.5 16.5t-16.5 41.5q0 27 20.5 43.5t73.5 34.5l121 43v83q0 119 -64 119q-34 0 -53 -24t-23 -58q-4 -38 -37 -38q-34 0 -34 30q0 35 62.5 73t116.5 38
q40 0 64 -27.5t24 -82.5v-177q0 -67 39 -67q19 0 49 13zM208 39l61 31v6v84l-103 -39q-42 -16 -42 -48q0 -21 12 -32.5t31 -11.5t41 10z" />
    <glyph glyph-name="b" unicode="b" horiz-adv-x="510" 
d="M312 399q67 0 114 -48.5t47 -136.5q0 -107 -66 -167t-154 -60q-77 0 -136 44l-76 -36q-4 -1 -6 3.5t1 6.5q32 22 45 41.5t13 56.5v494q0 36 -7.5 52t-25.5 16q-14 0 -45 -13q-2 -1 -4.5 1.5t-2.5 5.5t2 4l125 61q3 1 5 1q3 0 6 -2.5t3 -5.5v-405q83 87 162 87zM284 6
q58 0 90.5 45t32.5 129q0 90 -35 138t-93 48q-59 0 -129 -70v-164q0 -63 43 -94.5t91 -31.5z" />
    <glyph glyph-name="c" unicode="c" horiz-adv-x="411" 
d="M231 -12q-96 0 -145.5 59t-49.5 138q0 95 67.5 152.5t150.5 57.5q44 0 80.5 -17.5t36.5 -43.5q0 -13 -9.5 -22.5t-25.5 -9.5q-28 0 -44 33q-13 20 -28 30t-43 10q-56 0 -87.5 -43.5t-31.5 -116.5q0 -84 42 -138t126 -54q61 0 102 33q2 2 5.5 -2t1.5 -6q-67 -60 -148 -60z
" />
    <glyph glyph-name="d" unicode="d" horiz-adv-x="512" 
d="M504 56q4 2 7 -3.5t-1 -7.5l-110 -52q-6 -2 -8 -2q-13 0 -22 22t-10 61q-83 -87 -168 -87q-64 0 -110 53t-46 138q0 104 72 162.5t156 58.5q53 0 96 -26v224q0 36 -7.5 52t-25.5 16q-13 0 -46 -14q-3 -1 -5 1.5t-2.5 5.5t1.5 4l127 62q2 1 5 1t6 -2.5t3 -5.5v-607
q0 -36 8.5 -52t27.5 -16q29 0 52 14zM231 23q64 0 129 67v220q-50 69 -123 69q-63 0 -99.5 -44.5t-36.5 -126.5q0 -83 37 -134t93 -51z" />
    <glyph glyph-name="e" unicode="e" horiz-adv-x="408" 
d="M363 56q2 2 5.5 -2.5t1.5 -7.5q-68 -58 -146 -58q-88 0 -138 56.5t-50 135.5q0 91 62 153t153 62q54 0 84 -26.5t30 -72.5q0 -23 -12 -23l-246 -2q-5 -27 -5 -52q0 -87 42 -141.5t116 -54.5q57 0 103 33zM217 375q-83 0 -107 -90l186 4q0 41 -21.5 63.5t-57.5 22.5z" />
    <glyph glyph-name="f" unicode="f" horiz-adv-x="305" 
d="M319 726q51 0 83.5 -15.5t32.5 -37.5q0 -15 -10.5 -23.5t-24.5 -8.5q-21 0 -40 26q-30 42 -76 42q-58 0 -92 -67t-34 -203v-64q46 1 128 10q7 0 7 -24q0 -5 -1.5 -11t-4 -9.5t-4.5 -3.5q-58 14 -125 16v-272q0 -44 17 -56.5t81 -12.5q3 0 3 -6t-3 -6q-22 0 -64 1t-64 1
q-19 0 -51.5 -1t-44.5 -1q-3 0 -3 6t3 6q43 0 56 13t13 56v225q0 36 -12 45t-61 9q-3 0 -3 6.5t3 6.5q41 0 55.5 9.5t15.5 35.5q5 162 59.5 235t160.5 73z" />
    <glyph glyph-name="g" unicode="g" horiz-adv-x="433" 
d="M222 32q7 -1 20 -3q35 -5 53.5 -8.5t47 -12t42.5 -19.5t25.5 -31t11.5 -46q0 -71 -75 -132.5t-174 -61.5q-71 0 -114.5 34t-43.5 87q0 79 114 155q-68 20 -68 68q0 54 72 103q-39 14 -60 43.5t-21 66.5q0 52 44 85t111 33q66 0 102 -31q53 32 107 32q6 0 6 -22
q0 -28 -8 -34q-1 -1 -2 0q-42 15 -66 15q-11 0 -25 -2q26 -30 26 -71q0 -52 -42 -88.5t-109 -36.5q-28 0 -51 6q-37 -26 -37 -64q0 -14 7 -24t16 -16.5t27.5 -11.5t29.5 -7t34 -6zM182 378q-67 0 -67 -82q0 -58 30.5 -92.5t71.5 -34.5q30 0 49 22.5t19 68.5q0 52 -30.5 85
t-72.5 33zM213 -252q73 0 115 38t42 91q0 29 -14 49t-41 30t-52 15t-61 10q-7 1 -10 1q-31 4 -43 7q-36 -23 -55.5 -50t-19.5 -68q0 -56 37.5 -89.5t101.5 -33.5z" />
    <glyph glyph-name="h" unicode="h" horiz-adv-x="499" 
d="M477 12q3 0 3 -6t-3 -6q-11 0 -41.5 1t-49.5 1t-49.5 -1t-41.5 -1q-3 0 -3 6t3 6q39 0 51 13t12 56v159q0 116 -92 116q-65 0 -121 -62v-213q0 -43 12 -56t51 -13q3 0 3 -6t-3 -6q-11 0 -41.5 1t-49.5 1t-49.5 -1t-41.5 -1q-3 0 -3 6t3 6q39 0 51 13t12 56v517
q0 36 -7 52t-25 16q-15 0 -46 -14q-2 -1 -4.5 1.5t-3 5.5t2.5 4l127 62h3q9 0 9 -8v-406q73 85 154 85q55 0 85 -31t30 -90v-194q0 -43 12 -56t51 -13z" />
    <glyph glyph-name="i" unicode="i" horiz-adv-x="273" 
d="M137 512q-44 0 -44 42t44 42q42 0 42 -42t-42 -42zM53 0q-2 0 -2 6t2 6q39 0 51.5 13t12.5 56v187q0 36 -7.5 52t-25.5 16t-45 -14q-4 -1 -6.5 4.5t0.5 7.5l130 60l4 1q2 0 5 -2.5t3 -5.5t-0.5 -19.5t-1 -43.5t-0.5 -55v-188q0 -43 11.5 -56t51.5 -13q3 0 3 -6t-3 -6
q-11 0 -41.5 1t-49.5 1t-50 -1t-42 -1z" />
    <glyph glyph-name="j" unicode="j" horiz-adv-x="257" 
d="M128 512q-44 0 -44 42t44 42q42 0 42 -42t-42 -42zM167 387q0 -3 -0.5 -19.5t-1 -43.5t-0.5 -55v-317q0 -100 -31 -151.5t-110 -82.5q-2 -1 -4.5 4.5t-0.5 6.5q49 21 69 67t20 133v339q0 68 -31 68q-18 0 -46 -14q-4 -1 -7 4.5t1 7.5l130 60q2 1 3 1q9 0 9 -8z" />
    <glyph glyph-name="k" unicode="k" horiz-adv-x="491" 
d="M483 12q3 0 3 -6t-3 -6q-11 0 -41.5 1t-49.5 1q-28 0 -65 -1t-50 -1q-2 0 -2 6t2 6q36 0 46 9.5t-5 31.5l-123 167l-50 -39v-100q0 -43 12 -56t51 -13q3 0 3 -6t-3 -6q-11 0 -41.5 1t-49.5 1t-49.5 -1t-41.5 -1q-3 0 -3 6t3 6q39 0 51 13t12 56v517q0 36 -7 52t-25 16
q-15 0 -46 -14q-2 -1 -4.5 1.5t-3 5.5t2.5 4l125 61q3 1 5 1q9 0 9 -8v-520l134 108q39 31 31.5 50t-56.5 19q-3 0 -3 6t3 6q13 0 48.5 -1t65.5 -1q28 0 60 1t43 1q3 0 3 -6t-3 -6q-81 0 -172 -72l-58 -46l127 -175q50 -69 115 -69z" />
    <glyph glyph-name="l" unicode="l" horiz-adv-x="258" 
d="M40 0q-3 0 -3 6t3 6q39 0 51 13t12 56v517q0 36 -7 52t-25 16q-15 0 -46 -14q-2 -1 -4.5 1.5t-2.5 5.5t2 4l128 61q2 1 5 1t6 -2.5t3 -5.5v-636q0 -42 11.5 -55.5t50.5 -13.5q3 0 3 -6t-3 -6q-10 0 -41 1t-51 1q-19 0 -50 -1t-42 -1z" />
    <glyph glyph-name="m" unicode="m" horiz-adv-x="763" 
d="M742 12q3 0 3 -6t-3 -6q-11 0 -41.5 1t-49.5 1t-49.5 -1t-41.5 -1q-3 0 -3 6t3 6q39 0 51 13t12 56v159q0 116 -86 116q-62 0 -117 -63q1 -5 1 -16v-196q0 -43 11.5 -56t51.5 -13q3 0 3 -6t-3 -6q-11 0 -41.5 1t-49.5 1t-50 -1t-41 -1q-3 0 -3 6t3 6q39 0 50.5 13
t11.5 56v159q0 116 -85 116q-62 0 -115 -61v-214q0 -43 11.5 -56t50.5 -13q3 0 3 -6t-3 -6q-10 0 -41 1t-49 1q-19 0 -50 -1t-41 -1q-3 0 -3 6t3 6q39 0 50.5 13t11.5 56v198q0 34 -8 49t-27 15q-16 0 -54 -15q-5 -2 -7 3.5t2 7.5l116 55q2 1 6 1q5 0 11.5 -9t12 -28.5
t5.5 -44.5v-1q70 84 147 84q93 0 108 -88q72 88 151 88q110 0 110 -121v-194q0 -43 11.5 -56t50.5 -13z" />
    <glyph glyph-name="n" unicode="n" horiz-adv-x="517" 
d="M495 12q3 0 3 -6t-3 -6q-10 0 -41 1t-49 1q-19 0 -50 -1t-41 -1q-3 0 -3 6t3 6q39 0 50.5 13t11.5 56v162q0 59 -22.5 87t-69.5 28q-64 0 -120 -62v-215q0 -43 11.5 -56t50.5 -13q3 0 3 -6t-3 -6q-10 0 -41 1t-49 1q-19 0 -50 -1t-41 -1q-3 0 -3 6t3 6q39 0 50.5 13
t11.5 56v198q0 34 -8 49t-27 15q-16 0 -54 -15q-5 -2 -7 3.5t2 7.5l116 55q2 1 6 1q5 0 11.5 -9t12 -28.5t5.5 -44.5q74 86 153 86q56 0 86 -31t30 -91v-196q0 -43 11.5 -56t50.5 -13z" />
    <glyph glyph-name="o" unicode="o" horiz-adv-x="479" 
d="M231 -13q-87 0 -141 61.5t-54 149.5q0 96 65.5 148.5t147.5 52.5q87 0 140.5 -61.5t53.5 -144.5q0 -92 -61.5 -149t-150.5 -57zM260 6q115 0 115 159q0 94 -44.5 154.5t-114.5 60.5q-54 0 -83.5 -39t-29.5 -112q0 -94 44 -158.5t113 -64.5z" />
    <glyph glyph-name="p" unicode="p" horiz-adv-x="511" 
d="M319 399q64 0 108.5 -50t44.5 -134q0 -57 -21 -103t-54 -72t-69 -39.5t-71 -13.5q-58 0 -106 26v-207q0 -43 18.5 -56t81.5 -13q2 0 2 -6t-2 -6q-16 0 -58.5 1t-68.5 1q-19 0 -50.5 -1t-41.5 -1q-3 0 -3 6t3 6q40 0 51.5 13t11.5 56v470q0 36 -8 51.5t-28 15.5
q-22 0 -53 -14q-4 -2 -7 3.5t1 7.5l111 53q2 1 7 1q14 0 23 -21t10 -60q85 86 168 86zM287 8q53 0 87 46.5t34 129.5q0 84 -37 130.5t-94 46.5q-61 0 -126 -65v-225q56 -63 136 -63z" />
    <glyph glyph-name="q" unicode="q" horiz-adv-x="488" 
d="M473 -263q2 0 2 -6t-2 -6q-11 0 -42.5 1t-50.5 1q-20 0 -56 -1t-50 -1q-2 0 -2 6t2 6q49 0 64 13t15 56v266q-79 -85 -161 -85q-65 0 -110.5 49.5t-45.5 134.5q0 60 20 105.5t52.5 71.5t69.5 38.5t76 12.5q67 0 132 -35l67 24q4 3 6 -3q0 -4 -2 -6q-48 -28 -48 -84v-489
q0 -43 12 -56t52 -13zM226 20q58 0 127 69v180q0 51 -36.5 81t-93.5 30q-121 0 -121 -176q0 -87 34 -135.5t90 -48.5z" />
    <glyph glyph-name="r" unicode="r" horiz-adv-x="364" 
d="M275 395q22 0 42 -12t20 -29q0 -13 -8.5 -22t-24.5 -9q-13 0 -31.5 15t-35.5 15q-13 0 -27.5 -10.5t-45.5 -46.5v-215q0 -43 18 -56t79 -13q4 0 4 -6t-4 -6q-14 0 -57 1t-68 1q-19 0 -50 -1t-41 -1q-3 0 -3 6t3 6q39 0 50.5 13t11.5 56v198q0 34 -8 49t-27 15
q-16 0 -54 -15q-5 -2 -7 3.5t2 7.5l116 55q2 1 6 1q5 0 11.5 -9t12 -28.5t5.5 -44.5v-1q41 48 65 65.5t46 17.5z" />
    <glyph glyph-name="s" unicode="s" horiz-adv-x="338" 
d="M100 325q0 -19 7 -34t22.5 -27t27.5 -19.5t34 -18.5q27 -14 38.5 -21t30 -21.5t26 -32.5t7.5 -41q0 -51 -38 -86t-103 -35q-53 0 -96 30q-6 4 -6 12l-2 78q0 3 5.5 3.5t6.5 -2.5q38 -102 120 -102q69 0 66 63q-1 20 -8 36t-22.5 28.5t-27.5 19t-34 17.5
q-25 12 -37.5 19.5t-29.5 21.5t-24.5 32t-7.5 42q0 54 40.5 82.5t95.5 28.5q40 0 73 -15q9 -3 9 -11q0 -10 -1 -34t-1 -39q0 -2 -6 -2t-6 2q0 32 -33.5 56t-70.5 24q-55 0 -55 -54z" />
    <glyph glyph-name="t" unicode="t" horiz-adv-x="338" 
d="M309 51q4 2 7.5 -2.5t-0.5 -7.5q-68 -53 -128 -53q-96 0 -96 82v235q0 37 -8.5 46t-42.5 9q-4 0 -4 6.5t4 6.5q40 1 65 21.5t29 54.5q0 3 7.5 3t7.5 -3v-74q50 1 139 10q7 0 7 -24q0 -5 -1.5 -11t-4.5 -9.5t-5 -3.5q-55 14 -135 16v-249q0 -81 79 -81q46 0 80 28z" />
    <glyph glyph-name="u" unicode="u" horiz-adv-x="493" 
d="M485 57q4 1 6.5 -4t-1.5 -7l-117 -55q-2 -1 -4 -1q-6 0 -12 9t-11 29t-5 45v4q-76 -85 -159 -85q-50 0 -78 31.5t-28 91.5v153q0 74 -30 74q-14 0 -34 -10q-2 -1 -4.5 1.5t-2.5 6t2 4.5l111 50q2 1 4 1q3 0 6.5 -2.5t3.5 -5.5v-239q0 -116 84 -116q68 0 125 62v174
q0 40 -6.5 57t-23.5 17q-14 0 -34 -10q-2 -1 -4.5 2t-2.5 6t3 4l111 50q2 1 3 1q10 0 10 -8v-280q0 -64 35 -64q17 0 53 14z" />
    <glyph glyph-name="v" unicode="v" horiz-adv-x="434" 
d="M431 386q2 0 2 -6t-2 -6q-26 0 -43.5 -16t-33.5 -57l-125 -300q-1 -5 -11 -5t-11 5l-140 302q-20 43 -33.5 57t-33.5 14q-3 0 -3 6t3 6q9 0 32.5 -1t36.5 -1q25 0 59 1t46 1q3 0 3 -6t-3 -6q-36 0 -51 -8.5t-5 -30.5l122 -258l94 229q14 36 -3 52t-69 16q-2 0 -2 6t2 6
q14 0 45 -1t56 -1q14 0 34.5 1t33.5 1z" />
    <glyph glyph-name="w" unicode="w" horiz-adv-x="671" 
d="M666 386q3 0 3 -6t-3 -6q-24 0 -41.5 -16t-34.5 -57l-125 -300q-1 -4 -11 -4t-11 4l-113 243l-101 -243q-1 -4 -11 -4t-11 4l-140 302q-20 43 -33.5 57t-33.5 14q-3 0 -3 6t3 6q9 0 32.5 -1t36.5 -1q23 0 56.5 1t46.5 1q3 0 3 -6t-3 -6q-35 0 -50 -8.5t-4 -30.5l122 -258
l79 191l-16 35q-20 43 -33 57t-32 14q-2 0 -2 6t2 6q10 0 32 -1t35 -1q25 0 58.5 1t44.5 1q3 0 3 -6t-3 -6q-34 0 -49 -8.5t-4 -30.5l121 -260l94 231q15 36 -2 52t-70 16q-2 0 -2 6t2 6q14 0 45 -1t56 -1q15 0 35 1t32 1z" />
    <glyph glyph-name="x" unicode="x" horiz-adv-x="439" 
d="M427 12q2 0 2 -6t-2 -6q-10 0 -32 1t-32 1q-25 0 -58.5 -1t-45.5 -1q-3 0 -3 6t3 6q29 0 32.5 8t-11.5 31l-76 115l-60 -86q-25 -33 -19 -50.5t56 -17.5q3 0 3 -6t-3 -6q-14 0 -45 1t-55 1q-15 0 -35 -1t-33 -1q-2 0 -2 6t2 6q59 0 113 74l68 95l-81 122q-47 71 -97 71
q-2 0 -2 6t2 6q10 0 31 -1t31 -1q24 0 58 1t45 1q2 0 2 -6t-2 -6q-28 0 -32 -8t12 -31l69 -104l51 75q26 35 19.5 51.5t-56.5 16.5q-2 0 -2 6t2 6q14 0 45 -1t56 -1q15 0 35 1t33 1q2 0 2 -6t-2 -6q-59 0 -113 -74l-61 -83l89 -134q46 -71 99 -71z" />
    <glyph glyph-name="y" unicode="y" horiz-adv-x="435" 
d="M431 386q3 0 3 -6t-3 -6q-25 0 -43 -18t-34 -59l-122 -325q-54 -143 -102 -198t-114 -55q-51 0 -51 39q0 14 9 22t22 8q20 0 40 -12t36 -12q35 0 68 49.5t81 178.5l-152 311q-23 44 -35 57.5t-31 13.5q-2 0 -2 6t2 6q11 0 34 -1t33 -1q24 0 58 1t45 1q2 0 2 -6t-2 -6
q-35 0 -49.5 -8.5t-3.5 -30.5l132 -271l80 230q15 45 -0.5 62.5t-68.5 17.5q-2 0 -2 6t2 6q14 0 45 -1t56 -1q15 0 35 1t32 1z" />
    <glyph glyph-name="z" unicode="z" horiz-adv-x="405" 
d="M42 12l239 354q4 7 -5 7q-114 0 -160 -17t-63 -72q-1 -4 -9 -1q-3 1 -2 3l34 129q3 3 11 -1q-4 -17 7 -22.5t41 -5.5h212q4 0 6.5 -4t1.5 -8l-236 -352q-4 -7 5 -7q60 0 92.5 2t59.5 6.5t40.5 16.5t23 28.5t18.5 45.5q1 2 6 2t5 -2l-2 -103q0 -11 -9 -11h-309
q-4 0 -6.5 4t-0.5 8z" />
    <glyph glyph-name="braceleft" unicode="{" horiz-adv-x="289" 
d="M32 298q-3 0 -3 6.5t3 6.5q25 3 42 22.5t24.5 53.5t10 66t2.5 76q0 86 12 126.5t40 55t87 14.5q4 0 4 -6t-4 -6q-74 0 -76 -106q-3 -170 -19 -219.5t-91 -82.5q27 -12 44 -23t29.5 -31t19 -35.5t10.5 -53.5t5 -67.5t2 -93.5q2 -106 76 -106q4 0 4 -6t-4 -6
q-87 0 -113 36.5t-26 160.5q0 45 -2.5 77t-10 65.5t-24.5 53t-42 22.5z" />
    <glyph glyph-name="bar" unicode="|" horiz-adv-x="168" 
d="M66 -154v885q0 7 19.5 7t19.5 -7v-885q0 -8 -19.5 -8t-19.5 8z" />
    <glyph glyph-name="braceright" unicode="}" horiz-adv-x="283" 
d="M251 298q-25 -3 -42 -22.5t-24.5 -53t-10 -65.5t-2.5 -77q0 -124 -26 -160.5t-113 -36.5q-4 0 -4 6t4 6q74 0 76 106q1 55 2 81.5t3.5 61.5t7 50.5t11.5 36t19.5 31t28 22t38.5 21.5q-75 33 -91 82.5t-19 219.5q-2 106 -76 106q-4 0 -4 6t4 6q59 0 87 -14.5t40 -55
t12 -126.5q0 -44 2.5 -76t10 -66t24.5 -53.5t42 -22.5q3 0 3 -6.5t-3 -6.5z" />
    <glyph glyph-name="asciitilde" unicode="~" horiz-adv-x="443" 
d="M313 198q20 0 36 6.5t22.5 12.5t17.5 19q3 3 6 -2q3 -3 1 -5q-35 -45 -57.5 -60.5t-48.5 -15.5q-28 0 -79 18t-81 18q-10 0 -18 -1.5t-13 -3t-12.5 -6.5t-9.5 -6.5t-11 -10t-11 -10.5q-1 -1 -3 0t-3.5 3t-0.5 4q57 76 113 76q21 0 72 -18t80 -18z" />
    <glyph glyph-name="uni00A0" unicode="&#xa0;" horiz-adv-x="234" 
 />
    <glyph glyph-name="exclamdown" unicode="&#xa1;" horiz-adv-x="247" 
d="M128 365q20 0 32 -12t12 -31t-12 -30.5t-32 -11.5q-44 0 -44 42q0 20 11.5 31.5t32.5 11.5zM169 -266q1 -4 -14 -6.5t-32 -2.5q-44 1 -45 9q24 125 40 431q0 3 7.5 3t7.5 -3q11 -295 36 -431z" />
    <glyph glyph-name="cent" unicode="&#xa2;" horiz-adv-x="538" 
d="M482 140q1 4 6.5 3t5.5 -4l-13 -106q-1 -13 -14 -18q-77 -27 -160 -27h-9v-90q0 -7 -11 -7t-11 7v91q-122 10 -181 84.5t-59 162.5q0 96 68 163.5t172 78.5v83q0 7 11 7t11 -7v-81h13q94 0 152 -29q11 -4 12 -17l10 -103q0 -3 -5.5 -4t-6.5 3q-35 132 -175 135v-462
q6 -1 19 -1q126 0 165 138zM108 251q0 -87 43.5 -158t124.5 -87v458q-74 -5 -121 -64.5t-47 -148.5z" />
    <glyph glyph-name="sterling" unicode="&#xa3;" horiz-adv-x="432" 
d="M368 124q0 1 3 1.5t6 -0.5t3 -2q-9 -50 -9 -108q0 -15 -15 -15h-325q-2 0 -2 5.5t2 6.5q52 13 70.5 35t17.5 61q0 52 -19 111h-47q-7 0 -7 11t7 11h40q-17 53 -17 91q0 74 49 111t121 37q46 0 90 -16q15 -4 16 -19l7 -101q0 -4 -5.5 -4t-6.5 4q-10 50 -38 86t-76 36
q-50 0 -73 -30t-23 -72q0 -38 24 -123h113q7 0 7 -11t-7 -11h-107q10 -38 10 -72q0 -65 -51 -105h125q63 0 84.5 15t32.5 67z" />
    <glyph glyph-name="currency" unicode="&#xa4;" horiz-adv-x="414" 
d="M362 63l-28 -27l-48 55q-41 -26 -90 -26q-42 0 -74 21l-44 -50l-23 23l44 46q-38 40 -38 97q0 54 39 91l-50 50l28 25l51 -54q37 21 82 21q44 0 78 -23l50 53l22 -22l-49 -50q37 -39 37 -92q0 -51 -36 -89zM215 83q35 0 56 25.5t21 71.5q0 55 -28 96t-76 41
q-34 0 -53.5 -24t-19.5 -70q0 -55 25.5 -97.5t74.5 -42.5z" />
    <glyph glyph-name="yen" unicode="&#xa5;" horiz-adv-x="481" 
d="M472 468q3 0 3 -6t-3 -6q-66 0 -120 -90l-82 -137v-16h103q7 0 7 -10.5t-7 -10.5h-270q-7 0 -7 10.5t7 10.5h105v2l-111 170q-26 39 -47.5 55t-52.5 16q-2 0 -2 6t2 6q10 0 33 -1.5t32 -1.5q26 0 69.5 1.5t56.5 1.5q3 0 3 -6t-3 -6q-62 0 -35 -43l109 -166l69 120
q23 41 15 65t-40 24q-3 0 -3 6t3 6q15 0 46 -1.5t57 -1.5q14 0 32.5 1.5t30.5 1.5zM373 153q7 0 7 -10.5t-7 -10.5h-103v-51q0 -44 15 -56.5t71 -12.5q2 0 2 -6t-2 -6q-14 0 -53 1t-64 1q-22 0 -62.5 -1t-55.5 -1q-2 0 -2 6t2 6q55 0 71 12.5t16 56.5v51h-105q-7 0 -7 10.5
t7 10.5h270z" />
    <glyph glyph-name="brokenbar" unicode="&#xa6;" horiz-adv-x="168" 
d="M66 360v371q0 7 19.5 7t19.5 -7v-371q0 -7 -19.5 -7t-19.5 7zM66 -154v370q0 8 19.5 8t19.5 -8v-370q0 -8 -19.5 -8t-19.5 8z" />
    <glyph glyph-name="section" unicode="&#xa7;" horiz-adv-x="441" 
d="M320 31q41 -38 41 -87q0 -65 -45 -98.5t-107 -33.5q-52 0 -88 18q-11 7 -11 17l-8 98q0 3 6 3t6 -3q7 -36 45 -73t86 -37q29 0 48 18t19 55q0 33 -18 60t-44.5 44.5t-57.5 39t-57.5 42t-44.5 54.5t-18 76q0 38 14 66.5t54 65.5q-37 37 -37 84q0 65 44.5 98.5t105.5 33.5
q52 0 87 -19q11 -5 11 -16l8 -99q0 -2 -5.5 -2t-6.5 2q-6 37 -44.5 74t-85.5 37q-29 0 -47.5 -18t-18.5 -55q0 -33 17.5 -60t43.5 -45t56.5 -39.5t56.5 -42t43.5 -54t17.5 -75.5q0 -38 -14 -66t-52 -63zM121 258q0 -44 21 -79.5t45.5 -54t65 -44.5t58.5 -41q27 33 27 86
q0 44 -21 80t-46 55t-64.5 45t-57.5 42q-28 -33 -28 -89z" />
    <glyph glyph-name="dieresis" unicode="&#xa8;" horiz-adv-x="322" 
d="M74 478q-43 0 -43 41t43 41q41 0 41 -41t-41 -41zM249 478q-20 0 -31.5 11t-11.5 30t11.5 30t31.5 11q42 0 42 -41t-42 -41z" />
    <glyph glyph-name="copyright" unicode="&#xa9;" horiz-adv-x="719" 
d="M369 -102q-52 0 -103 18.5t-94.5 53t-70.5 92t-27 128.5q0 133 96.5 220.5t227.5 87.5q112 0 181 -66.5t69 -161.5q0 -94 -71 -162.5t-175 -68.5q-89 0 -134 46.5t-45 109.5q0 76 52.5 122.5t119.5 46.5q36 0 65 -14t30 -36q0 -12 -8 -20.5t-20 -8.5q-21 0 -36 26
q-12 18 -24 27t-34 9q-82 0 -82 -126q0 -69 35.5 -112.5t113.5 -43.5q72 0 123 45.5t51 130.5q0 97 -70 165.5t-172 68.5q-116 0 -181.5 -74.5t-65.5 -187.5q0 -69 25.5 -125t67 -89.5t89 -51.5t95.5 -18q58 0 101.5 9t95.5 37q2 1 4.5 -2t-0.5 -5q-93 -70 -229 -70z" />
    <glyph glyph-name="ordfeminine" unicode="&#xaa;" horiz-adv-x="278" 
d="M270 407q2 1 4.5 -1t2.5 -4.5t-1 -3.5l-68 -32q-10 -5 -19 6t-11 35l-41 -22q-36 -20 -57 -20t-33 11t-12 28q0 16 12 26.5t44 21.5l87 31v55q0 46 -12.5 60t-34.5 14q-39 0 -48 -51q-4 -24 -24 -24q-10 0 -17 6.5t-7 14.5q0 23 44.5 47.5t78.5 24.5q26 0 42 -18t16 -54
v-117q0 -34 11.5 -40.5t42.5 6.5zM134 396l44 23v54l-70 -28q-16 -6 -21.5 -11.5t-5.5 -15.5q0 -12 7.5 -20t20.5 -8q11 0 25 6zM259 314q5 0 5 -13.5t-5 -13.5h-224q-3 0 -4 6.5t0 13.5t3 7h225z" />
    <glyph glyph-name="guillemotleft" unicode="&#xab;" horiz-adv-x="456" 
d="M236 40l-177 149q-11 11 0 23l177 149q1 2 3 1.5t3.5 -3t0.5 -3.5l-122 -155l122 -155q1 -3 -3 -6q-3 -2 -4 0zM388 40l-177 149q-11 11 0 23l177 149q1 2 3.5 1t3.5 -2.5t0 -3.5l-122 -155l122 -155q1 -1 0 -3.5t-3 -3.5t-4 1z" />
    <glyph glyph-name="logicalnot" unicode="&#xac;" horiz-adv-x="395" 
d="M364 268v-191q0 -3 -10 -4t-20 0t-10 3v152h-290q-3 0 -4 10t0 20t3 10h331z" />
    <glyph glyph-name="uni00AD" unicode="&#xad;" horiz-adv-x="323" 
d="M32 165q-3 0 -4 10t-0.5 21t2.5 11l261 47q3 0 4 -10t0 -21t-4 -11z" />
    <glyph glyph-name="registered" unicode="&#xae;" horiz-adv-x="750" 
d="M395 725q126 0 204.5 -79.5t78.5 -194.5q0 -131 -91.5 -222t-219.5 -91q-115 0 -204 79t-89 211q0 128 95.5 212.5t225.5 84.5zM395 166q112 0 178 69.5t66 186.5q0 121 -78.5 200.5t-197.5 79.5q-117 0 -181.5 -72t-64.5 -176q0 -89 43 -156.5t105 -99.5t130 -32z
M564 280q2 0 2 -4t-2 -4h-79q-16 0 -100 163q-23 -6 -55 -4v-103q0 -30 9 -37.5t42 -7.5q2 0 2 -5.5t-2 -5.5q-8 0 -32 0.5t-40 0.5q-12 0 -38 -0.5t-33 -0.5q-2 0 -2 5.5t2 5.5q33 0 41.5 7.5t8.5 37.5v215q0 28 -9 36t-41 8q-2 0 -2 6t2 6q9 0 34 -0.5t37 -0.5q13 0 42 2
t40 2q91 0 91 -66q0 -60 -55 -88q50 -98 75 -131t62 -37zM330 448q55 -7 81 7t26 58q0 76 -63 76q-27 0 -35.5 -7.5t-8.5 -40.5v-93z" />
    <glyph glyph-name="macron" unicode="&#xaf;" horiz-adv-x="345" 
d="M47 483q-6 0 -6 14t6 14h251q6 0 6 -14t-6 -14h-251z" />
    <glyph glyph-name="degree" unicode="&#xb0;" horiz-adv-x="332" 
d="M167 373q-61 0 -99.5 37t-38.5 93q0 53 38.5 90t99.5 37t98.5 -37t37.5 -92t-37.5 -91.5t-98.5 -36.5zM174 385q44 0 57.5 26.5t13.5 82.5q0 125 -84 125q-43 0 -58 -29t-15 -84q0 -121 86 -121z" />
    <glyph glyph-name="plusminus" unicode="&#xb1;" horiz-adv-x="398" 
d="M34 233q-3 0 -4 10t0 19.5t3 9.5h146v146q0 4 20 4t20 -4v-146h145q4 0 4 -19.5t-4 -19.5h-145v-145q0 -3 -10 -4t-20 0t-10 3v146h-145zM364 37q4 0 4 -18t-4 -18h-330q-3 0 -4 9t0 18t3 9h331z" />
    <glyph glyph-name="uni00B2" unicode="&#xb2;" horiz-adv-x="251" 
d="M31 408q9 29 41 74t58 88.5t26 78.5q0 28 -13.5 43.5t-36.5 15.5q-24 0 -42 -16.5t-24 -41.5q-1 -5 -10 -1q-2 2 -2 4q24 76 96 76q39 0 59.5 -20t20.5 -51q0 -32 -30 -72.5t-66 -80t-44 -62.5q0 -3 3 -3q43 0 62.5 1t37.5 3t24.5 9t10.5 15t9 26q0 2 3.5 2t3.5 -2
l-1 -87q0 -5 -4 -5h-179q-5 0 -3 6z" />
    <glyph glyph-name="uni00B3" unicode="&#xb3;" horiz-adv-x="251" 
d="M139 573q78 -18 78 -78q0 -40 -27 -69.5t-75 -29.5q-74 0 -92 69q0 2 2.5 4t6 1.5t3.5 -2.5q6 -21 24.5 -37t48.5 -16q61 0 61 69q0 37 -21 59t-54 22q-3 0 -2.5 6t2.5 6q29 0 45.5 22.5t16.5 49.5q0 25 -14 41.5t-38 16.5q-22 0 -40 -16.5t-23 -40.5q-2 -3 -7.5 -2
t-4.5 5q20 76 94 76q37 0 59 -20.5t22 -51.5q0 -28 -18 -50.5t-47 -33.5z" />
    <glyph glyph-name="acute" unicode="&#xb4;" horiz-adv-x="212" 
d="M69 474q0 -2 -3 -2t-5.5 1.5t-2.5 2.5l52 240q3 9 43 14q19 2 18 -3z" />
    <glyph glyph-name="paragraph" unicode="&#xb6;" horiz-adv-x="639" 
d="M332 -193q-26 0 -42.5 12.5t-16.5 30.5q0 34 31 34q16 0 25.5 -8.5t12 -19t11.5 -19t25 -8.5q28 0 39.5 41t11.5 138v117q-36 -3 -79 -3q-55 0 -105 14t-94 43t-70.5 82.5t-26.5 124.5q0 118 71.5 180t197.5 62q21 0 69.5 -3t79.5 -3q19 0 56.5 1.5t53.5 1.5q2 0 2 -6
t-2 -6q-89 0 -89 -81l1 -477q0 -130 -38 -189t-124 -59z" />
    <glyph glyph-name="periodcentered" unicode="&#xb7;" horiz-adv-x="195" 
d="M97 157q-20 0 -32 12t-12 31t12 30.5t32 11.5q44 0 44 -42q0 -20 -11.5 -31.5t-32.5 -11.5z" />
    <glyph glyph-name="cedilla" unicode="&#xb8;" horiz-adv-x="232" 
d="M114 -2q-15 -54 -11 -66t42 -34q54 -31 54 -77q0 -37 -26.5 -66.5t-77.5 -29.5q-28 0 -46 10t-18 28q0 13 9 21.5t21 8.5q17 0 30 -24t36 -24q34 0 34 38q0 26 -18.5 46.5t-67.5 46.5q-9 5 -12 8t-2.5 7t5.5 15q10 25 35 93z" />
    <glyph glyph-name="uni00B9" unicode="&#xb9;" horiz-adv-x="262" 
d="M47 402q-2 0 -2 6t2 6q47 0 57.5 11t10.5 58v118q0 66 -5 74q-8 12 -48 -5q-8 -3 -22 -9q-2 -1 -4.5 1.5t-3 5.5t1.5 4l115 55q3 2 6.5 -1t3.5 -6v-237q0 -47 10 -58t54 -11q3 0 3 -6t-3 -6q-10 0 -38.5 1.5t-46.5 1.5t-49 -1.5t-42 -1.5z" />
    <glyph glyph-name="ordmasculine" unicode="&#xba;" horiz-adv-x="315" 
d="M153 359q-57 0 -92 40.5t-35 98.5q0 63 43 97.5t96 34.5q57 0 91.5 -40t34.5 -95q0 -56 -41 -96t-97 -40zM168 374q36 0 57.5 27.5t21.5 75.5q0 58 -28.5 97.5t-72.5 39.5q-36 0 -56 -25.5t-20 -71.5q0 -58 28 -100.5t70 -42.5zM37 287q-3 0 -4 6.5t0 13.5t3 7h243
q5 0 5 -13.5t-5 -13.5h-242z" />
    <glyph glyph-name="guillemotright" unicode="&#xbb;" horiz-adv-x="456" 
d="M68 361l177 -149q11 -12 0 -23l-177 -149q-2 -4 -6 1q-2 3 -1 5l122 154l-122 156q-1 2 3 5q3 1 4 0zM220 361l177 -149q11 -12 0 -23l-177 -149q-2 -4 -6 1q-2 3 -1 5l122 154l-122 156q-1 2 3 5q3 2 4 0z" />
    <glyph glyph-name="onequarter" unicode="&#xbc;" horiz-adv-x="600" 
d="M223 320q3 0 3 -5.5t-3 -5.5q-10 0 -38.5 1t-46.5 1t-49 -1t-42 -1q-2 0 -2 5.5t2 5.5q47 0 57.5 11t10.5 58v119q0 65 -5 74q-8 12 -48 -5q-8 -4 -22 -10q-2 -1 -4.5 1.5t-3 5.5t1.5 4l115 56q3 1 6.5 -1.5t3.5 -5.5v-238q0 -47 10 -58t54 -11zM439 627q1 2 5 1t8.5 -3
t7.5 -4t3 -3l-280 -618q0 -1 -2.5 -1t-6.5 1.5t-7.5 3.5t-5.5 3.5t-2 2.5zM572 88q-28 2 -44 2v-49q0 -20 6.5 -25t37.5 -5q1 0 1 -6t-1 -6q-8 0 -27.5 0.5t-33.5 0.5q-16 0 -42 -0.5t-36 -0.5q-1 0 -1 6t1 6q36 0 45 5t9 25v51q-68 2 -125 2q-2 0 -4 2t0 4l157 223
q1 2 7 1.5t6 -3.5v-208q12 0 44 2q3 0 3 -13.5t-3 -13.5zM398 109q41 0 89 2v149l-91 -148q-3 -3 2 -3z" />
    <glyph glyph-name="onehalf" unicode="&#xbd;" horiz-adv-x="610" 
d="M47 309q-2 0 -2 5.5t2 5.5q47 0 57.5 11t10.5 58v119q0 65 -5 74q-8 12 -48 -5q-8 -4 -22 -10q-2 -1 -4.5 1.5t-3 5.5t1.5 4l115 56q3 1 6.5 -1.5t3.5 -5.5v-238q0 -47 10 -58t54 -11q3 0 3 -5.5t-3 -5.5q-10 0 -38.5 1t-46.5 1t-49 -1t-42 -1zM183 0q0 -1 -2.5 -1
t-6.5 1.5t-7.5 3.5t-5.5 3.5t-2 2.5l280 617q1 2 5 1t8.5 -3t7.5 -4t3 -3zM390 6q7 24 28.5 57.5t42.5 60.5t37.5 61t16.5 62q0 27 -13.5 42t-36.5 15q-24 0 -42 -15.5t-24 -40.5q0 -2 -3.5 -2.5t-6 1t-2.5 3.5q24 76 96 76q39 0 59.5 -20t20.5 -51q0 -32 -30 -72.5t-66 -80
t-44 -61.5q0 -3 3 -3q43 0 62.5 1t37.5 3t24.5 9t10.5 14.5t9 25.5q0 1 3.5 1t3.5 -1l-1 -86q0 -5 -4 -5h-179q-5 0 -3 6z" />
    <glyph glyph-name="threequarters" unicode="&#xbe;" horiz-adv-x="589" 
d="M217 401q0 -40 -27 -69t-75 -29q-74 0 -92 69q0 2 2.5 3.5t6 1t3.5 -2.5q6 -21 24.5 -37t48.5 -16q61 0 61 68q0 38 -21 60t-54 22q-3 0 -2.5 6t2.5 6q29 0 45.5 22.5t16.5 49.5q0 25 -14 41.5t-38 16.5q-22 0 -40 -16.5t-23 -39.5q-2 -6 -10 -2l-2 4q20 76 94 76
q37 0 59 -20t22 -52q0 -27 -18.5 -50t-46.5 -34q78 -16 78 -78zM428 627q1 2 5 1t8.5 -3t7.5 -4t3 -3l-280 -618q0 -1 -2.5 -1t-6.5 1.5t-7.5 3.5t-5.5 3.5t-2 2.5zM561 88q-28 2 -44 2v-49q0 -20 6.5 -25t37.5 -5q1 0 1 -6t-1 -6q-8 0 -27.5 0.5t-33.5 0.5q-16 0 -42 -0.5
t-36 -0.5q-2 0 -2 6t2 6q36 0 45 5t9 25v51q-68 2 -125 2q-2 0 -4 2t0 4l157 223q2 2 7.5 1.5t5.5 -3.5v-208q12 0 44 2q3 0 3 -13.5t-3 -13.5zM387 109q41 0 89 2v149l-91 -148q-3 -3 2 -3z" />
    <glyph glyph-name="questiondown" unicode="&#xbf;" horiz-adv-x="327" 
d="M180 361q20 0 32 -12t12 -31t-12 -30.5t-32 -11.5q-44 0 -44 42q0 20 11.5 31.5t32.5 11.5zM168 -262q39 0 43 47q8 44 39 44q16 0 25 -10.5t9 -23.5q0 -29 -35 -49.5t-84 -20.5q-59 0 -97.5 31t-38.5 89q0 28 11 53t25 40t34 34l3.5 3.5t3.5 2.5q35 34 49 61.5t14 62.5
q0 22 -6 55q0 2 2.5 3t6 1t3.5 -2q26 -60 26 -119q0 -32 -16 -58t-35.5 -41.5t-35.5 -43.5t-16 -64q0 -43 19.5 -69t50.5 -26z" />
    <glyph glyph-name="Agrave" unicode="&#xc0;" 
d="M217 756q-8 2 11 11q40 20 54 17q120 -73 162 -95q5 -2 1 -8q-2 -4 -5 -2q-113 50 -223 77zM699 12q4 0 4 -6t-4 -6q-19 0 -59 2t-58 2q-22 0 -54.5 -2t-50.5 -2q-5 0 -5 6t5 6q54 0 66 15t-8 59l-115 245h-189l-86 -204q-24 -61 -3.5 -88t87.5 -27q5 0 5 -6t-5 -6
q-19 0 -55 2t-63 2q-25 0 -57.5 -2t-52.5 -2q-5 0 -5 6t5 6q41 0 66.5 25.5t56.5 98.5l211 498q1 3 6.5 3t6.5 -3l236 -497q34 -74 58 -99.5t57 -25.5zM240 352h170l-90 190z" />
    <glyph glyph-name="Aacute" unicode="&#xc1;" 
d="M244 679q-4 -2 -6 3t1 7q37 19 96.5 55t66.5 40q9 5 50 -15q17 -8 16 -12q0 -1 -2 -1q-108 -27 -222 -77zM699 12q4 0 4 -6t-4 -6q-19 0 -59 2t-58 2q-22 0 -54.5 -2t-50.5 -2q-5 0 -5 6t5 6q54 0 66 15t-8 59l-115 245h-189l-86 -204q-24 -61 -3.5 -88t87.5 -27
q5 0 5 -6t-5 -6q-19 0 -55 2t-63 2q-25 0 -57.5 -2t-52.5 -2q-5 0 -5 6t5 6q41 0 66.5 25.5t56.5 98.5l211 498q1 3 6.5 3t6.5 -3l236 -497q34 -74 58 -99.5t57 -25.5zM240 352h170l-90 190z" />
    <glyph glyph-name="Acircumflex" unicode="&#xc2;" 
d="M232 648q-1 0 -3 1t-3 3t0 3l103 97q5 4 12 4t11 -4l102 -97q2 -1 1.5 -3t-3 -3.5t-3.5 -0.5l-108 57zM699 12q4 0 4 -6t-4 -6q-19 0 -59 2t-58 2q-22 0 -54.5 -2t-50.5 -2q-5 0 -5 6t5 6q54 0 66 15t-8 59l-115 245h-189l-86 -204q-24 -61 -3.5 -88t87.5 -27q5 0 5 -6
t-5 -6q-19 0 -55 2t-63 2q-25 0 -57.5 -2t-52.5 -2q-5 0 -5 6t5 6q41 0 66.5 25.5t56.5 98.5l211 498q1 3 6.5 3t6.5 -3l236 -497q34 -74 58 -99.5t57 -25.5zM240 352h170l-90 190z" />
    <glyph glyph-name="Atilde" unicode="&#xc3;" 
d="M216 697q-5 -3 -7 4q-1 2 0 3q42 63 85 63q14 0 56 -12.5t69 -12.5t49 27q2 2 5.5 -1t1.5 -6q-26 -37 -43 -49.5t-36 -12.5q-21 0 -63 12t-67 12q-7 0 -12.5 -1t-9.5 -2.5t-8.5 -5t-6.5 -5t-6.5 -6.5t-6.5 -7zM699 12q4 0 4 -6t-4 -6q-19 0 -59 2t-58 2q-22 0 -54.5 -2
t-50.5 -2q-5 0 -5 6t5 6q54 0 66 15t-8 59l-115 245h-189l-86 -204q-24 -61 -3.5 -88t87.5 -27q5 0 5 -6t-5 -6q-19 0 -55 2t-63 2q-25 0 -57.5 -2t-52.5 -2q-5 0 -5 6t5 6q41 0 66.5 25.5t56.5 98.5l211 498q1 3 6.5 3t6.5 -3l236 -497q34 -74 58 -99.5t57 -25.5zM240 352
h170l-90 190z" />
    <glyph glyph-name="Adieresis" unicode="&#xc4;" 
d="M254 717q-43 0 -43 41t43 41q41 0 41 -41t-41 -41zM429 717q-20 0 -31.5 11t-11.5 30t11.5 30t31.5 11q42 0 42 -41t-42 -41zM699 12q4 0 4 -6t-4 -6q-19 0 -59 2t-58 2q-22 0 -54.5 -2t-50.5 -2q-5 0 -5 6t5 6q54 0 66 15t-8 59l-115 245h-189l-86 -204
q-24 -61 -3.5 -88t87.5 -27q5 0 5 -6t-5 -6q-19 0 -55 2t-63 2q-25 0 -57.5 -2t-52.5 -2q-5 0 -5 6t5 6q41 0 66.5 25.5t56.5 98.5l211 498q1 3 6.5 3t6.5 -3l236 -497q34 -74 58 -99.5t57 -25.5zM240 352h170l-90 190z" />
    <glyph glyph-name="Aring" unicode="&#xc5;" 
d="M336 664q-40 0 -64 24t-24 56q0 36 30.5 56.5t67.5 20.5q36 0 62 -23t26 -56q0 -35 -30 -56.5t-68 -21.5zM326 811q-33 0 -33 -47q0 -34 16 -61.5t42 -27.5q37 0 37 49q0 35 -18 61t-44 26zM699 12q4 0 4 -6t-4 -6q-19 0 -59 2t-58 2q-22 0 -54.5 -2t-50.5 -2q-5 0 -5 6
t5 6q54 0 66 15t-8 59l-115 245h-189l-86 -204q-24 -61 -3.5 -88t87.5 -27q5 0 5 -6t-5 -6q-19 0 -55 2t-63 2q-25 0 -57.5 -2t-52.5 -2q-5 0 -5 6t5 6q41 0 66.5 25.5t56.5 98.5l211 498q1 3 6.5 3t6.5 -3l236 -497q34 -74 58 -99.5t57 -25.5zM240 352h170l-90 190z" />
    <glyph glyph-name="AE" unicode="&#xc6;" horiz-adv-x="874" 
d="M813 149q0 2 3 2t6 -1t3 -3q-9 -63 -9 -132q0 -15 -16 -15h-408q-2 0 -2 6t2 6q54 0 69.5 12.5t15.5 56.5v234h-172l-129 -189q-78 -114 48 -114q4 0 4 -6t-4 -6q-20 0 -57.5 2t-65.5 2q-23 0 -52 -2t-46 -2q-5 0 -5 6t5 6q64 0 147 120l303 442q19 27 8 33t-72 6
q-2 0 -2 6t2 6h394q9 0 9 -9l2 -123q0 -2 -3 -3t-5.5 -0.5t-2.5 2.5q-2 47 -32.5 79.5t-74.5 32.5h-55q-49 0 -64.5 -11.5t-15.5 -49.5v-207h112q49 0 69.5 16t20.5 54q0 2 6 2t6 -2q0 -22 -0.5 -46t-0.5 -35q0 -15 1 -45t1 -47q0 -2 -6 -2t-6 2q0 44 -21.5 63t-71.5 19
h-110v-230q0 -39 15 -51.5t63 -12.5h73q43 0 77 36t44 92zM319 336h158v231z" />
    <glyph glyph-name="Ccedilla" unicode="&#xc7;" horiz-adv-x="669" 
d="M614 163q1 3 6.5 2.5t5.5 -3.5l-14 -113q-2 -12 -4.5 -15.5t-11.5 -7.5q-90 -38 -190 -38h-20q-13 -47 -8 -58t42 -32q54 -31 54 -77q0 -37 -26.5 -66.5t-77.5 -29.5q-28 0 -46 10t-18 28q0 13 9 21.5t21 8.5q17 0 30 -24t36 -24q34 0 34 38q0 26 -18.5 46.5t-67.5 46.5
q-9 5 -12 8t-2.5 7t5.5 15q13 33 31 83q-83 5 -147 36.5t-101.5 79t-56 102t-18.5 111.5q0 92 52 166t135 113t179 39q114 0 175 -35q14 -7 15 -24l11 -112q0 -3 -5 -3.5t-6 2.5q-42 150 -229 150q-115 0 -183.5 -73.5t-68.5 -195.5q0 -142 83.5 -242.5t200.5 -100.5
q150 0 206 161z" />
    <glyph glyph-name="Egrave" unicode="&#xc8;" horiz-adv-x="537" 
d="M168 756q-8 2 11 11q40 20 54 17q120 -73 162 -95q5 -2 1 -8q-2 -4 -5 -2q-113 50 -223 77zM475 149q1 3 6.5 2t5.5 -4q-9 -63 -9 -132q0 -15 -16 -15h-419q-2 0 -2 6t2 6q55 0 70.5 12.5t15.5 56.5v463q0 43 -16 56t-70 13q-2 0 -2 6t2 6h402q9 0 9 -9l2 -123
q0 -3 -5 -3.5t-6 2.5q-3 53 -32 82.5t-77 29.5h-61q-50 0 -65.5 -12.5t-15.5 -52.5v-203h122q48 0 68.5 16t20.5 54q0 2 6 2t6 -2q0 -22 -0.5 -46t-0.5 -35q0 -15 1 -45t1 -47q0 -2 -6 -2t-6 2q0 44 -21.5 63t-71.5 19h-119v-230q0 -40 14.5 -52t63.5 -12h80q48 0 80 34
t43 94z" />
    <glyph glyph-name="Eacute" unicode="&#xc9;" horiz-adv-x="537" 
d="M195 679q-4 -2 -6 3t1 7q37 19 96.5 55t66.5 40q9 5 50 -15q17 -8 16 -12q0 -1 -2 -1q-108 -27 -222 -77zM475 149q1 3 6.5 2t5.5 -4q-9 -63 -9 -132q0 -15 -16 -15h-419q-2 0 -2 6t2 6q55 0 70.5 12.5t15.5 56.5v463q0 43 -16 56t-70 13q-2 0 -2 6t2 6h402q9 0 9 -9
l2 -123q0 -3 -5 -3.5t-6 2.5q-3 53 -32 82.5t-77 29.5h-61q-50 0 -65.5 -12.5t-15.5 -52.5v-203h122q48 0 68.5 16t20.5 54q0 2 6 2t6 -2q0 -22 -0.5 -46t-0.5 -35q0 -15 1 -45t1 -47q0 -2 -6 -2t-6 2q0 44 -21.5 63t-71.5 19h-119v-230q0 -40 14.5 -52t63.5 -12h80
q48 0 80 34t43 94z" />
    <glyph glyph-name="Ecircumflex" unicode="&#xca;" horiz-adv-x="537" 
d="M184 685q-1 0 -3 1t-3 3t0 3l103 98q5 4 12 4t11 -4l102 -98q2 -1 1.5 -3t-3 -3.5t-3.5 -0.5l-108 58zM475 149q1 3 6.5 2t5.5 -4q-9 -63 -9 -132q0 -15 -16 -15h-419q-2 0 -2 6t2 6q55 0 70.5 12.5t15.5 56.5v463q0 43 -16 56t-70 13q-2 0 -2 6t2 6h402q9 0 9 -9l2 -123
q0 -3 -5 -3.5t-6 2.5q-3 53 -32 82.5t-77 29.5h-61q-50 0 -65.5 -12.5t-15.5 -52.5v-203h122q48 0 68.5 16t20.5 54q0 2 6 2t6 -2q0 -22 -0.5 -46t-0.5 -35q0 -15 1 -45t1 -47q0 -2 -6 -2t-6 2q0 44 -21.5 63t-71.5 19h-119v-230q0 -40 14.5 -52t63.5 -12h80q48 0 80 34
t43 94z" />
    <glyph glyph-name="Edieresis" unicode="&#xcb;" horiz-adv-x="537" 
d="M205 717q-43 0 -43 41t43 41q41 0 41 -41t-41 -41zM380 717q-20 0 -31.5 11t-11.5 30t11.5 30t31.5 11q42 0 42 -41t-42 -41zM475 149q1 3 6.5 2t5.5 -4q-9 -63 -9 -132q0 -15 -16 -15h-419q-2 0 -2 6t2 6q55 0 70.5 12.5t15.5 56.5v463q0 43 -16 56t-70 13q-2 0 -2 6
t2 6h402q9 0 9 -9l2 -123q0 -3 -5 -3.5t-6 2.5q-3 53 -32 82.5t-77 29.5h-61q-50 0 -65.5 -12.5t-15.5 -52.5v-203h122q48 0 68.5 16t20.5 54q0 2 6 2t6 -2q0 -22 -0.5 -46t-0.5 -35q0 -15 1 -45t1 -47q0 -2 -6 -2t-6 2q0 44 -21.5 63t-71.5 19h-119v-230q0 -40 14.5 -52
t63.5 -12h80q48 0 80 34t43 94z" />
    <glyph glyph-name="Igrave" unicode="&#xcc;" horiz-adv-x="332" 
d="M265 679q-113 50 -223 77q-8 2 11 11q40 20 54 17q120 -73 162 -95q5 -2 1 -8q-2 -4 -5 -2zM199 81q0 -44 15.5 -56.5t69.5 -12.5q3 0 3 -6t-3 -6q-14 0 -53.5 1t-65.5 1q-24 0 -64 -1t-54 -1q-3 0 -3 6t3 6q55 0 70.5 12.5t15.5 56.5v463q0 43 -16 56t-70 13q-3 0 -3 6
t3 6q14 0 54 -1.5t64 -1.5q26 0 66 1.5t53 1.5q3 0 3 -6t-3 -6q-53 0 -69 -14t-16 -57v-461z" />
    <glyph glyph-name="Iacute" unicode="&#xcd;" horiz-adv-x="332" 
d="M69 679q-4 -2 -6 3t1 7q37 19 96.5 55t66.5 40q9 5 50 -15q17 -8 16 -12q0 -1 -2 -1q-108 -27 -222 -77zM199 81q0 -44 15.5 -56.5t69.5 -12.5q3 0 3 -6t-3 -6q-14 0 -53.5 1t-65.5 1q-24 0 -64 -1t-54 -1q-3 0 -3 6t3 6q55 0 70.5 12.5t15.5 56.5v463q0 43 -16 56
t-70 13q-3 0 -3 6t3 6q14 0 54 -1.5t64 -1.5q26 0 66 1.5t53 1.5q3 0 3 -6t-3 -6q-53 0 -69 -14t-16 -57v-461z" />
    <glyph glyph-name="Icircumflex" unicode="&#xce;" horiz-adv-x="332" 
d="M52 692l103 98q5 4 12 4t11 -4l102 -98q2 -1 1.5 -3t-3 -3.5t-3.5 -0.5l-108 58l-109 -58q-1 0 -3 1t-3 3t0 3zM199 81q0 -44 15.5 -56.5t69.5 -12.5q3 0 3 -6t-3 -6q-14 0 -53.5 1t-65.5 1q-24 0 -64 -1t-54 -1q-3 0 -3 6t3 6q55 0 70.5 12.5t15.5 56.5v463q0 43 -16 56
t-70 13q-3 0 -3 6t3 6q14 0 54 -1.5t64 -1.5q26 0 66 1.5t53 1.5q3 0 3 -6t-3 -6q-53 0 -69 -14t-16 -57v-461z" />
    <glyph glyph-name="Idieresis" unicode="&#xcf;" horiz-adv-x="332" 
d="M95 717q-20 0 -31.5 11t-11.5 30t11.5 30t31.5 11q42 0 42 -41t-42 -41zM238 717q-43 0 -43 41t43 41q41 0 41 -41t-41 -41zM199 81q0 -44 15.5 -56.5t69.5 -12.5q3 0 3 -6t-3 -6q-14 0 -53.5 1t-65.5 1q-24 0 -64 -1t-54 -1q-3 0 -3 6t3 6q55 0 70.5 12.5t15.5 56.5v463
q0 43 -16 56t-70 13q-3 0 -3 6t3 6q14 0 54 -1.5t64 -1.5q26 0 66 1.5t53 1.5q3 0 3 -6t-3 -6q-53 0 -69 -14t-16 -57v-461z" />
    <glyph glyph-name="Eth" unicode="&#xd0;" horiz-adv-x="691" 
d="M289 627q157 0 255 -86.5t98 -217.5q0 -146 -98.5 -236.5t-240.5 -90.5q-18 0 -71.5 3t-78.5 3q-23 0 -63 -1t-55 -1q-2 0 -2 6t2 6q55 0 70.5 12.5t15.5 56.5v220h-68q-5 0 -5 10t5 10h68v223q0 43 -15.5 56t-69.5 13q-2 0 -2 6t2 6q15 0 54.5 -1.5t62.5 -1.5t71 2.5
t65 2.5zM293 11q123 0 198 76t75 214q0 133 -73.5 222t-194.5 89q-64 0 -88 -13t-24 -57v-221h136q4 0 4 -10t-4 -10h-136v-209q0 -44 22 -62.5t85 -18.5z" />
    <glyph glyph-name="Ntilde" unicode="&#xd1;" horiz-adv-x="727" 
d="M251 697q-1 -1 -3.5 0t-3.5 3t0 4q42 63 85 63q15 0 57 -12.5t68 -12.5q27 0 49 27q2 2 5.5 -1t1.5 -6q-26 -37 -43 -49.5t-36 -12.5q-21 0 -63 12t-67 12q-7 0 -12.5 -1t-9.5 -2.5t-8.5 -5t-6.5 -5t-6.5 -6.5t-6.5 -7zM704 625q3 0 3 -6t-3 -6q-42 0 -61 -23t-19 -75
v-527q0 -2 -5 -3t-7 1l-460 557q-3 4 -9 10v-444q0 -52 18.5 -74.5t59.5 -22.5q3 0 3 -6t-3 -6q-12 0 -41 1t-47 1q-17 0 -48 -1t-44 -1q-2 0 -2 6t2 6q43 0 61 22.5t18 74.5v468q-39 36 -79 36q-3 0 -3 6t3 6q12 0 36 -1t34 -1q14 0 34 1t24 1q8 0 12 -4t14 -19t21 -29
l385 -473v415q0 52 -17.5 75t-58.5 23q-2 0 -2 6t2 6q13 0 41.5 -1.5t46.5 -1.5q17 0 48 1.5t43 1.5z" />
    <glyph glyph-name="Ograve" unicode="&#xd2;" horiz-adv-x="766" 
d="M484 679q-113 50 -223 77q-8 2 11 11q40 20 54 17q120 -73 162 -95q5 -2 1 -8q-2 -4 -5 -2zM366 -12q-141 0 -229 94t-88 230q0 78 32 141.5t83.5 102.5t112.5 59.5t124 20.5q142 0 229 -95t87 -222q0 -138 -103.5 -234.5t-247.5 -96.5zM401 9q104 0 172 75t68 207
q0 143 -77 232.5t-205 89.5q-110 0 -172 -71t-62 -195q0 -144 77.5 -241t198.5 -97z" />
    <glyph glyph-name="Oacute" unicode="&#xd3;" horiz-adv-x="766" 
d="M288 679q-4 -2 -6 3t1 7q37 19 96.5 55t66.5 40q9 5 50 -15q17 -8 16 -12q0 -1 -2 -1q-108 -27 -222 -77zM366 -12q-141 0 -229 94t-88 230q0 78 32 141.5t83.5 102.5t112.5 59.5t124 20.5q142 0 229 -95t87 -222q0 -138 -103.5 -234.5t-247.5 -96.5zM401 9q104 0 172 75
t68 207q0 143 -77 232.5t-205 89.5q-110 0 -172 -71t-62 -195q0 -144 77.5 -241t198.5 -97z" />
    <glyph glyph-name="Ocircumflex" unicode="&#xd4;" horiz-adv-x="766" 
d="M271 692l103 98q4 4 11 4t12 -4l102 -98q2 -1 1.5 -3t-3 -3.5t-3.5 -0.5l-108 58l-109 -58q-1 0 -3 1t-3 3t0 3zM366 -12q-141 0 -229 94t-88 230q0 78 32 141.5t83.5 102.5t112.5 59.5t124 20.5q142 0 229 -95t87 -222q0 -138 -103.5 -234.5t-247.5 -96.5zM401 9
q104 0 172 75t68 207q0 143 -77 232.5t-205 89.5q-110 0 -172 -71t-62 -195q0 -144 77.5 -241t198.5 -97z" />
    <glyph glyph-name="Otilde" unicode="&#xd5;" horiz-adv-x="766" 
d="M463 742q27 0 49 27q2 2 5.5 -1t1.5 -6q-26 -37 -43 -49.5t-36 -12.5q-21 0 -63 12t-67 12q-7 0 -12.5 -1t-9.5 -2.5t-8.5 -5t-6.5 -5t-6.5 -6.5t-6.5 -7q-1 -1 -3.5 0t-3.5 3t0 4q42 63 85 63q14 0 56 -12.5t69 -12.5zM366 -12q-141 0 -229 94t-88 230q0 78 32 141.5
t83.5 102.5t112.5 59.5t124 20.5q142 0 229 -95t87 -222q0 -138 -103.5 -234.5t-247.5 -96.5zM401 9q104 0 172 75t68 207q0 143 -77 232.5t-205 89.5q-110 0 -172 -71t-62 -195q0 -144 77.5 -241t198.5 -97z" />
    <glyph glyph-name="Odieresis" unicode="&#xd6;" horiz-adv-x="766" 
d="M298 717q-43 0 -43 41t43 41q41 0 41 -41t-41 -41zM473 717q-20 0 -31.5 11t-11.5 30t11.5 30t31.5 11q42 0 42 -41t-42 -41zM366 -12q-141 0 -229 94t-88 230q0 78 32 141.5t83.5 102.5t112.5 59.5t124 20.5q142 0 229 -95t87 -222q0 -138 -103.5 -234.5t-247.5 -96.5z
M401 9q104 0 172 75t68 207q0 143 -77 232.5t-205 89.5q-110 0 -172 -71t-62 -195q0 -144 77.5 -241t198.5 -97z" />
    <glyph glyph-name="multiply" unicode="&#xd7;" horiz-adv-x="382" 
d="M220 190l102 -102q3 -4 -11 -18t-18 -11l-102 102l-103 -102q-1 -2 -9 4t-14.5 14t-5.5 9l104 104l-102 103q-2 1 4 9t14 14.5t9 4.5l103 -103l102 102q4 3 18 -11t11 -18z" />
    <glyph glyph-name="Oslash" unicode="&#xd8;" horiz-adv-x="771" 
d="M625 546q92 -92 92 -227q0 -138 -103.5 -234.5t-247.5 -96.5q-126 0 -213 79l-73 -74q-1 -2 -6 1t-8 7.5t-1 6.5l73 74q-89 92 -89 230q0 78 32 141.5t83.5 102.5t112.5 59.5t124 20.5q123 0 209 -75l68 69q2 2 7 -0.5t8 -6.5t1 -6zM125 347q0 -125 60 -217l383 388
q-78 95 -209 95q-110 0 -172 -71t-62 -195zM401 9q104 0 172 75t68 207q0 124 -60 211l-384 -390q79 -103 204 -103z" />
    <glyph glyph-name="Ugrave" unicode="&#xd9;" horiz-adv-x="698" 
d="M473 679q-113 50 -223 77q-8 2 11 11q40 20 54 17q120 -73 162 -95q5 -2 1 -8q-2 -4 -5 -2zM572 515q0 98 -87 98q-3 0 -3 6t3 6q14 0 46.5 -1.5t53.5 -1.5q17 0 47.5 1.5t43.5 1.5q2 0 2 -6t-2 -6q-80 0 -80 -98v-284q0 -115 -64 -179.5t-172 -64.5q-112 0 -179 64.5
t-67 172.5v320q0 43 -15.5 56t-69.5 13q-2 0 -2 6t2 6q14 0 53.5 -1.5t63.5 -1.5q25 0 64.5 1.5t53.5 1.5q3 0 3 -6t-3 -6q-54 0 -69.5 -13.5t-15.5 -57.5v-283q0 -117 53.5 -179.5t149.5 -62.5q90 0 140 56.5t50 156.5v285z" />
    <glyph glyph-name="Uacute" unicode="&#xda;" horiz-adv-x="698" 
d="M277 679q-4 -2 -6 3t1 7q37 19 96.5 55t66.5 40q9 5 50 -15q17 -8 16 -12q0 -1 -2 -1q-108 -27 -222 -77zM572 515q0 98 -87 98q-3 0 -3 6t3 6q14 0 46.5 -1.5t53.5 -1.5q17 0 47.5 1.5t43.5 1.5q2 0 2 -6t-2 -6q-80 0 -80 -98v-284q0 -115 -64 -179.5t-172 -64.5
q-112 0 -179 64.5t-67 172.5v320q0 43 -15.5 56t-69.5 13q-2 0 -2 6t2 6q14 0 53.5 -1.5t63.5 -1.5q25 0 64.5 1.5t53.5 1.5q3 0 3 -6t-3 -6q-54 0 -69.5 -13.5t-15.5 -57.5v-283q0 -117 53.5 -179.5t149.5 -62.5q90 0 140 56.5t50 156.5v285z" />
    <glyph glyph-name="Ucircumflex" unicode="&#xdb;" horiz-adv-x="698" 
d="M260 692l103 98q5 4 12 4t11 -4l102 -98q2 -1 1.5 -3t-3 -3.5t-3.5 -0.5l-108 58l-109 -58q-1 0 -3 1t-3 3t0 3zM572 515q0 98 -87 98q-3 0 -3 6t3 6q14 0 46.5 -1.5t53.5 -1.5q17 0 47.5 1.5t43.5 1.5q2 0 2 -6t-2 -6q-80 0 -80 -98v-284q0 -115 -64 -179.5t-172 -64.5
q-112 0 -179 64.5t-67 172.5v320q0 43 -15.5 56t-69.5 13q-2 0 -2 6t2 6q14 0 53.5 -1.5t63.5 -1.5q25 0 64.5 1.5t53.5 1.5q3 0 3 -6t-3 -6q-54 0 -69.5 -13.5t-15.5 -57.5v-283q0 -117 53.5 -179.5t149.5 -62.5q90 0 140 56.5t50 156.5v285z" />
    <glyph glyph-name="Udieresis" unicode="&#xdc;" horiz-adv-x="698" 
d="M287 717q-43 0 -43 41t43 41q41 0 41 -41t-41 -41zM462 717q-20 0 -31.5 11t-11.5 30t11.5 30t31.5 11q42 0 42 -41t-42 -41zM572 515q0 98 -87 98q-3 0 -3 6t3 6q14 0 46.5 -1.5t53.5 -1.5q17 0 47.5 1.5t43.5 1.5q2 0 2 -6t-2 -6q-80 0 -80 -98v-284q0 -115 -64 -179.5
t-172 -64.5q-112 0 -179 64.5t-67 172.5v320q0 43 -15.5 56t-69.5 13q-2 0 -2 6t2 6q14 0 53.5 -1.5t63.5 -1.5q25 0 64.5 1.5t53.5 1.5q3 0 3 -6t-3 -6q-54 0 -69.5 -13.5t-15.5 -57.5v-283q0 -117 53.5 -179.5t149.5 -62.5q90 0 140 56.5t50 156.5v285z" />
    <glyph glyph-name="Yacute" unicode="&#xdd;" horiz-adv-x="609" 
d="M221 679q-4 -2 -6 3t1 7q37 19 96.5 55t66.5 40q9 5 50 -15q17 -8 16 -12q0 -1 -2 -1q-108 -27 -222 -77zM614 625q2 0 2 -6t-2 -6q-36 0 -73 -26.5t-66 -72.5l-134 -206v-227q0 -44 15 -56.5t70 -12.5q3 0 3 -6t-3 -6q-14 0 -53.5 1t-64.5 1q-24 0 -64 -1t-54 -1
q-3 0 -3 6t3 6q55 0 70.5 12.5t15.5 56.5v211l-166 243q-28 44 -53 61t-58 17q-3 0 -3 6t3 6q12 0 36 -1.5t35 -1.5q30 0 78 1.5t62 1.5q2 0 2 -6t-2 -6q-38 0 -48 -11.5t6 -34.5l161 -236l122 187q59 95 -32 95q-2 0 -2 6t2 6q16 0 52 -1.5t65 -1.5q17 0 40 1.5t38 1.5z
" />
    <glyph glyph-name="Thorn" unicode="&#xde;" horiz-adv-x="538" 
d="M272 147q65 0 110 43.5t45 125.5q0 80 -46 124.5t-121 44.5q-34 0 -69 -8v-392q0 -46 21.5 -59.5t97.5 -13.5q3 0 3 -6t-3 -6q-20 0 -69.5 1t-81.5 1q-23 0 -62 -1t-54 -1q-2 0 -2 6t2 6q53 0 68 12.5t15 56.5v463q0 43 -15 56t-68 13q-2 0 -2 6t2 6q15 0 54 -1.5
t62 -1.5q31 0 81 1.5t70 1.5q3 0 3 -6t-3 -6q-76 0 -97.5 -14t-21.5 -60v-47q45 7 94 7q96 0 155 -38.5t61 -124.5q2 -67 -33 -115t-83.5 -68t-101.5 -20q-23 0 -50 5q-1 0 -1.5 2.5t0 5t1.5 4t3 1.5q24 -4 36 -4z" />
    <glyph glyph-name="germandbls" unicode="&#xdf;" horiz-adv-x="507" 
d="M348 -11q-44 0 -82 30q-6 4 -6 12l-2 90q0 2 5.5 2.5t6.5 -1.5q18 -55 46 -84t61 -29q27 0 42.5 21.5t12.5 54.5q-1 24 -15 48.5t-28 40t-40 41.5q-28 28 -43 45.5t-29.5 46.5t-14.5 57q0 31 15 60t33 49t33 52.5t15 67.5q0 46 -21 82t-69 36q-59 0 -90.5 -69.5
t-31.5 -195.5v-365q0 -44 11.5 -56.5t52.5 -12.5q2 0 2 -6t-2 -6q-17 0 -46.5 0.5t-45.5 0.5q-19 0 -52.5 -0.5t-45.5 -0.5q-3 0 -3 6t3 6q43 0 55.5 13t12.5 56l-1 367q0 133 54.5 205.5t152.5 72.5q63 0 93.5 -30t30.5 -68q0 -32 -18 -62.5t-39.5 -50.5t-39.5 -48t-18 -55
q0 -23 14.5 -49t28.5 -41.5t44 -46.5q31 -31 46.5 -49t31 -47.5t15.5 -57.5q0 -51 -38 -91.5t-97 -40.5z" />
    <glyph glyph-name="agrave" unicode="&#xe0;" horiz-adv-x="419" 
d="M215 474l-102 253q-1 3 5 4q24 1 50 -10l6 -5l51 -240q1 -2 -2 -3q-7 -3 -8 1zM413 54q5 2 6.5 -3.5t-2.5 -7.5l-103 -49q-4 -2 -8 -2q-13 0 -23 17t-13 47l-62 -33q-57 -30 -90 -30q-31 0 -47.5 16.5t-16.5 41.5q0 27 20.5 43.5t73.5 34.5l121 43v83q0 119 -64 119
q-34 0 -53 -24t-23 -58q-4 -38 -37 -38q-34 0 -34 30q0 35 62.5 73t116.5 38q40 0 64 -27.5t24 -82.5v-177q0 -67 39 -67q19 0 49 13zM208 39l61 31v6v84l-103 -39q-42 -16 -42 -48q0 -21 12 -32.5t31 -11.5t41 10z" />
    <glyph glyph-name="aacute" unicode="&#xe1;" horiz-adv-x="419" 
d="M207 474q0 -2 -3 -2t-5.5 1.5t-2.5 2.5l52 240q3 9 43 14q19 2 18 -3zM413 54q5 2 6.5 -3.5t-2.5 -7.5l-103 -49q-4 -2 -8 -2q-13 0 -23 17t-13 47l-62 -33q-57 -30 -90 -30q-31 0 -47.5 16.5t-16.5 41.5q0 27 20.5 43.5t73.5 34.5l121 43v83q0 119 -64 119
q-34 0 -53 -24t-23 -58q-4 -38 -37 -38q-34 0 -34 30q0 35 62.5 73t116.5 38q40 0 64 -27.5t24 -82.5v-177q0 -67 39 -67q19 0 49 13zM208 39l61 31v6v84l-103 -39q-42 -16 -42 -48q0 -21 12 -32.5t31 -11.5t41 10z" />
    <glyph glyph-name="acircumflex" unicode="&#xe2;" horiz-adv-x="419" 
d="M141 474q0 -2 -3 -2t-5.5 1.5t-2.5 2.5l68 249q1 5 11 5t12 -5l67 -249q1 -2 -2 -3q-7 -3 -8 1l-68 164zM413 54q5 2 6.5 -3.5t-2.5 -7.5l-103 -49q-4 -2 -8 -2q-13 0 -23 17t-13 47l-62 -33q-57 -30 -90 -30q-31 0 -47.5 16.5t-16.5 41.5q0 27 20.5 43.5t73.5 34.5
l121 43v83q0 119 -64 119q-34 0 -53 -24t-23 -58q-4 -38 -37 -38q-34 0 -34 30q0 35 62.5 73t116.5 38q40 0 64 -27.5t24 -82.5v-177q0 -67 39 -67q19 0 49 13zM208 39l61 31v6v84l-103 -39q-42 -16 -42 -48q0 -21 12 -32.5t31 -11.5t41 10z" />
    <glyph glyph-name="atilde" unicode="&#xe3;" horiz-adv-x="419" 
d="M83 480q-2 -2 -5.5 1t-1.5 6q44 61 85 61q15 0 57 -12t68 -12t49 27q2 2 5.5 -1.5t1.5 -5.5q-26 -36 -43 -49t-36 -13q-21 0 -63 12.5t-68 12.5q-10 0 -18 -3t-11 -5t-11 -10zM413 54q5 2 6.5 -3.5t-2.5 -7.5l-103 -49q-4 -2 -8 -2q-13 0 -23 17t-13 47l-62 -33
q-57 -30 -90 -30q-31 0 -47.5 16.5t-16.5 41.5q0 27 20.5 43.5t73.5 34.5l121 43v83q0 119 -64 119q-34 0 -53 -24t-23 -58q-4 -38 -37 -38q-34 0 -34 30q0 35 62.5 73t116.5 38q40 0 64 -27.5t24 -82.5v-177q0 -67 39 -67q19 0 49 13zM208 39l61 31v6v84l-103 -39
q-42 -16 -42 -48q0 -21 12 -32.5t31 -11.5t41 10z" />
    <glyph glyph-name="adieresis" unicode="&#xe4;" horiz-adv-x="419" 
d="M122 478q-43 0 -43 41t43 41q41 0 41 -41t-41 -41zM297 478q-20 0 -31.5 11t-11.5 30t11.5 30t31.5 11q42 0 42 -41t-42 -41zM413 54q5 2 6.5 -3.5t-2.5 -7.5l-103 -49q-4 -2 -8 -2q-13 0 -23 17t-13 47l-62 -33q-57 -30 -90 -30q-31 0 -47.5 16.5t-16.5 41.5
q0 27 20.5 43.5t73.5 34.5l121 43v83q0 119 -64 119q-34 0 -53 -24t-23 -58q-4 -38 -37 -38q-34 0 -34 30q0 35 62.5 73t116.5 38q40 0 64 -27.5t24 -82.5v-177q0 -67 39 -67q19 0 49 13zM208 39l61 31v6v84l-103 -39q-42 -16 -42 -48q0 -21 12 -32.5t31 -11.5t41 10z" />
    <glyph glyph-name="aring" unicode="&#xe5;" horiz-adv-x="419" 
d="M200 468q-40 0 -64 23.5t-24 55.5q0 36 30.5 57t67.5 21q36 0 62 -23.5t26 -56.5q0 -35 -30 -56t-68 -21zM190 614q-33 0 -33 -47q0 -34 16 -61.5t43 -27.5q36 0 36 49q0 36 -18 61.5t-44 25.5zM413 54q5 2 6.5 -3.5t-2.5 -7.5l-103 -49q-4 -2 -8 -2q-13 0 -23 17t-13 47
l-62 -33q-57 -30 -90 -30q-31 0 -47.5 16.5t-16.5 41.5q0 27 20.5 43.5t73.5 34.5l121 43v83q0 119 -64 119q-34 0 -53 -24t-23 -58q-4 -38 -37 -38q-34 0 -34 30q0 35 62.5 73t116.5 38q40 0 64 -27.5t24 -82.5v-177q0 -67 39 -67q19 0 49 13zM208 39l61 31v6v84l-103 -39
q-42 -16 -42 -48q0 -21 12 -32.5t31 -11.5t41 10z" />
    <glyph glyph-name="ae" unicode="&#xe6;" horiz-adv-x="589" 
d="M552 56q3 2 6.5 -2.5t0.5 -7.5q-64 -58 -139 -58q-99 0 -138 74l-81 -41q-53 -28 -87 -28q-31 0 -49 16.5t-18 42.5t20 41t74 34l116 39v4q-6 135 -18 168q-16 39 -56 40q-57 0 -67 -87q-3 -36 -34 -36q-36 0 -36 32q0 34 53.5 71t105.5 37q34 0 60.5 -18.5t36.5 -50.5
q59 69 149 69q50 0 77 -26.5t27 -74.5q0 -21 -13 -21h-46l-175 -2q-5 -28 -5 -56q5 -194 135 -194q62 0 101 35zM418 375q-35 0 -59 -23.5t-35 -66.5l161 4q0 41 -18 63.5t-49 22.5zM201 36l76 36q-14 33 -19 82l-99 -36q-23 -8 -32 -18t-9 -26q0 -20 12 -32.5t32 -12.5
q24 0 39 7z" />
    <glyph glyph-name="ccedilla" unicode="&#xe7;" horiz-adv-x="411" 
d="M231 -12h-7q-13 -47 -8 -58t42 -32q54 -31 54 -77q0 -37 -26.5 -66.5t-77.5 -29.5q-28 0 -46 10t-18 28q0 13 9 21.5t21 8.5q17 0 30 -24t36 -24q34 0 34 38q0 26 -18.5 46.5t-67.5 46.5q-9 5 -12 8t-2.5 7t5.5 15q13 33 31 83q-85 7 -129.5 64.5t-44.5 131.5
q0 95 67.5 152.5t150.5 57.5q44 0 80.5 -17.5t36.5 -43.5q0 -13 -9.5 -22.5t-25.5 -9.5q-28 0 -44 33q-13 20 -28 30t-43 10q-56 0 -87.5 -43.5t-31.5 -116.5q0 -84 42 -138t126 -54q61 0 102 33q2 2 5.5 -2t1.5 -6q-67 -60 -148 -60z" />
    <glyph glyph-name="egrave" unicode="&#xe8;" horiz-adv-x="408" 
d="M233 474l-102 253q-1 3 5 4q24 1 50 -10l6 -5l51 -240q1 -2 -2 -3q-7 -3 -8 1zM363 56q2 2 5.5 -2.5t1.5 -7.5q-68 -58 -146 -58q-88 0 -138 56.5t-50 135.5q0 91 62 153t153 62q54 0 84 -26.5t30 -72.5q0 -23 -12 -23l-246 -2q-5 -27 -5 -52q0 -87 42 -141.5t116 -54.5
q57 0 103 33zM217 375q-83 0 -107 -90l186 4q0 41 -21.5 63.5t-57.5 22.5z" />
    <glyph glyph-name="eacute" unicode="&#xe9;" horiz-adv-x="408" 
d="M225 474q0 -2 -3 -2t-5.5 1.5t-2.5 2.5l52 240q3 9 43 14q19 2 18 -3zM363 56q2 2 5.5 -2.5t1.5 -7.5q-68 -58 -146 -58q-88 0 -138 56.5t-50 135.5q0 91 62 153t153 62q54 0 84 -26.5t30 -72.5q0 -23 -12 -23l-246 -2q-5 -27 -5 -52q0 -87 42 -141.5t116 -54.5
q57 0 103 33zM217 375q-83 0 -107 -90l186 4q0 41 -21.5 63.5t-57.5 22.5z" />
    <glyph glyph-name="ecircumflex" unicode="&#xea;" horiz-adv-x="408" 
d="M159 474q0 -2 -3 -2t-5.5 1.5t-2.5 2.5l68 249q1 5 11 5t12 -5l67 -249q1 -2 -2 -3q-7 -3 -8 1l-68 164zM363 56q2 2 5.5 -2.5t1.5 -7.5q-68 -58 -146 -58q-88 0 -138 56.5t-50 135.5q0 91 62 153t153 62q54 0 84 -26.5t30 -72.5q0 -23 -12 -23l-246 -2q-5 -27 -5 -52
q0 -87 42 -141.5t116 -54.5q57 0 103 33zM217 375q-83 0 -107 -90l186 4q0 41 -21.5 63.5t-57.5 22.5z" />
    <glyph glyph-name="edieresis" unicode="&#xeb;" horiz-adv-x="408" 
d="M140 478q-43 0 -43 41t43 41q41 0 41 -41t-41 -41zM315 478q-20 0 -31.5 11t-11.5 30t11.5 30t31.5 11q42 0 42 -41t-42 -41zM363 56q2 2 5.5 -2.5t1.5 -7.5q-68 -58 -146 -58q-88 0 -138 56.5t-50 135.5q0 91 62 153t153 62q54 0 84 -26.5t30 -72.5q0 -23 -12 -23
l-246 -2q-5 -27 -5 -52q0 -87 42 -141.5t116 -54.5q57 0 103 33zM217 375q-83 0 -107 -90l186 4q0 41 -21.5 63.5t-57.5 22.5z" />
    <glyph glyph-name="igrave" unicode="&#xec;" horiz-adv-x="273" 
d="M41 727q-1 3 5 4q24 1 50 -10q6 -3 6 -5l51 -240q1 -2 -2 -3q-7 -3 -8 1zM53 0q-2 0 -2 6t2 6q39 0 51.5 13t12.5 56v187q0 36 -7.5 52t-25.5 16t-45 -14q-4 -1 -6.5 4.5t0.5 7.5l130 60l4 1q2 0 5 -2.5t3 -5.5t-0.5 -19.5t-1 -43.5t-0.5 -55v-188q0 -43 11.5 -56
t51.5 -13q3 0 3 -6t-3 -6q-11 0 -41.5 1t-49.5 1t-50 -1t-42 -1z" />
    <glyph glyph-name="iacute" unicode="&#xed;" horiz-adv-x="273" 
d="M135 474q0 -2 -3 -2t-5.5 1.5t-2.5 2.5l52 240q3 9 43 14q19 2 18 -3zM53 0q-2 0 -2 6t2 6q39 0 51.5 13t12.5 56v187q0 36 -7.5 52t-25.5 16t-45 -14q-4 -1 -6.5 4.5t0.5 7.5l130 60l4 1q2 0 5 -2.5t3 -5.5t-0.5 -19.5t-1 -43.5t-0.5 -55v-188q0 -43 11.5 -56t51.5 -13
q3 0 3 -6t-3 -6q-11 0 -41.5 1t-49.5 1t-50 -1t-42 -1z" />
    <glyph glyph-name="icircumflex" unicode="&#xee;" horiz-adv-x="273" 
d="M216 476q1 -2 -2 -3q-7 -3 -8 1l-68 164l-69 -164q0 -2 -3 -2t-5.5 1.5t-2.5 2.5l68 249q1 5 11 5t12 -5zM53 0q-2 0 -2 6t2 6q39 0 51.5 13t12.5 56v187q0 36 -7.5 52t-25.5 16t-45 -14q-4 -1 -6.5 4.5t0.5 7.5l130 60l4 1q2 0 5 -2.5t3 -5.5t-0.5 -19.5t-1 -43.5
t-0.5 -55v-188q0 -43 11.5 -56t51.5 -13q3 0 3 -6t-3 -6q-11 0 -41.5 1t-49.5 1t-50 -1t-42 -1z" />
    <glyph glyph-name="idieresis" unicode="&#xef;" horiz-adv-x="273" 
d="M66 478q-20 0 -31.5 11t-11.5 30t11.5 30t31.5 11q42 0 42 -41t-42 -41zM209 478q-43 0 -43 41t43 41q41 0 41 -41t-41 -41zM53 0q-2 0 -2 6t2 6q39 0 51.5 13t12.5 56v187q0 36 -7.5 52t-25.5 16t-45 -14q-4 -1 -6.5 4.5t0.5 7.5l130 60l4 1q2 0 5 -2.5t3 -5.5
t-0.5 -19.5t-1 -43.5t-0.5 -55v-188q0 -43 11.5 -56t51.5 -13q3 0 3 -6t-3 -6q-11 0 -41.5 1t-49.5 1t-50 -1t-42 -1z" />
    <glyph glyph-name="eth" unicode="&#xf0;" horiz-adv-x="470" 
d="M303 569q135 -157 135 -342q0 -121 -60.5 -180.5t-154.5 -59.5q-86 0 -138.5 58t-52.5 141q0 101 65.5 157t143.5 56q58 0 103 -33q-27 94 -85 181l-134 -63q-3 -1 -6 4t-4 10t2 7l129 61q-69 95 -156 150q-6 2 1 8q3 2 5 1q106 -48 192 -139l103 49q5 2 9 -8.5t-1 -12.5
zM251 6q57 0 88 42t31 143q0 55 -11 112q-42 77 -130 77q-57 0 -93.5 -43.5t-36.5 -121.5q0 -87 42.5 -148t109.5 -61z" />
    <glyph glyph-name="ntilde" unicode="&#xf1;" horiz-adv-x="517" 
d="M145 480q-2 -2 -5.5 1t-1.5 6q44 61 85 61q14 0 56.5 -12t68.5 -12t49 27q5 3 7 -4q1 -2 0 -3q-26 -36 -43 -49t-36 -13q-21 0 -63 12.5t-68 12.5q-10 0 -18 -3t-11 -5t-11 -10zM495 12q3 0 3 -6t-3 -6q-10 0 -41 1t-49 1q-19 0 -50 -1t-41 -1q-3 0 -3 6t3 6
q39 0 50.5 13t11.5 56v162q0 59 -22.5 87t-69.5 28q-64 0 -120 -62v-215q0 -43 11.5 -56t50.5 -13q3 0 3 -6t-3 -6q-10 0 -41 1t-49 1q-19 0 -50 -1t-41 -1q-3 0 -3 6t3 6q39 0 50.5 13t11.5 56v198q0 34 -8 49t-27 15q-16 0 -54 -15q-5 -2 -7 3.5t2 7.5l116 55q2 1 6 1
q5 0 11.5 -9t12 -28.5t5.5 -44.5q74 86 153 86q56 0 86 -31t30 -91v-196q0 -43 11.5 -56t50.5 -13z" />
    <glyph glyph-name="ograve" unicode="&#xf2;" horiz-adv-x="479" 
d="M144 727q-1 3 5 4q24 1 50 -10l6 -5l51 -240q1 -2 -2 -3q-7 -3 -8 1zM231 -13q-87 0 -141 61.5t-54 149.5q0 96 65.5 148.5t147.5 52.5q87 0 140.5 -61.5t53.5 -144.5q0 -92 -61.5 -149t-150.5 -57zM260 6q115 0 115 159q0 94 -44.5 154.5t-114.5 60.5q-54 0 -83.5 -39
t-29.5 -112q0 -94 44 -158.5t113 -64.5z" />
    <glyph glyph-name="oacute" unicode="&#xf3;" horiz-adv-x="479" 
d="M238 474q0 -2 -3 -2t-5.5 1.5t-2.5 2.5l52 240q3 9 43 14q19 2 18 -3zM231 -13q-87 0 -141 61.5t-54 149.5q0 96 65.5 148.5t147.5 52.5q87 0 140.5 -61.5t53.5 -144.5q0 -92 -61.5 -149t-150.5 -57zM260 6q115 0 115 159q0 94 -44.5 154.5t-114.5 60.5q-54 0 -83.5 -39
t-29.5 -112q0 -94 44 -158.5t113 -64.5z" />
    <glyph glyph-name="ocircumflex" unicode="&#xf4;" horiz-adv-x="479" 
d="M319 476q1 -2 -2 -3q-7 -3 -8 1l-68 164l-69 -164q0 -2 -3 -2t-5.5 1.5t-2.5 2.5l68 249q1 5 11 5t12 -5zM231 -13q-87 0 -141 61.5t-54 149.5q0 96 65.5 148.5t147.5 52.5q87 0 140.5 -61.5t53.5 -144.5q0 -92 -61.5 -149t-150.5 -57zM260 6q115 0 115 159
q0 94 -44.5 154.5t-114.5 60.5q-54 0 -83.5 -39t-29.5 -112q0 -94 44 -158.5t113 -64.5z" />
    <glyph glyph-name="otilde" unicode="&#xf5;" horiz-adv-x="479" 
d="M317 524q26 0 49 27q2 2 5.5 -1.5t1.5 -5.5q-26 -36 -43 -49t-36 -13q-21 0 -63 12.5t-68 12.5q-10 0 -18 -3t-11 -5t-11 -10l-9 -9q-2 -2 -5.5 1t-1.5 6q44 61 85 61q14 0 56 -12t69 -12zM231 -13q-87 0 -141 61.5t-54 149.5q0 96 65.5 148.5t147.5 52.5
q87 0 140.5 -61.5t53.5 -144.5q0 -92 -61.5 -149t-150.5 -57zM260 6q115 0 115 159q0 94 -44.5 154.5t-114.5 60.5q-54 0 -83.5 -39t-29.5 -112q0 -94 44 -158.5t113 -64.5z" />
    <glyph glyph-name="odieresis" unicode="&#xf6;" horiz-adv-x="479" 
d="M153 478q-43 0 -43 41t43 41q41 0 41 -41t-41 -41zM328 478q-20 0 -31.5 11t-11.5 30t11.5 30t31.5 11q42 0 42 -41t-42 -41zM231 -13q-87 0 -141 61.5t-54 149.5q0 96 65.5 148.5t147.5 52.5q87 0 140.5 -61.5t53.5 -144.5q0 -92 -61.5 -149t-150.5 -57zM260 6
q115 0 115 159q0 94 -44.5 154.5t-114.5 60.5q-54 0 -83.5 -39t-29.5 -112q0 -94 44 -158.5t113 -64.5z" />
    <glyph glyph-name="divide" unicode="&#xf7;" horiz-adv-x="398" 
d="M198 311q-20 0 -32 11.5t-12 31.5q0 19 12 30t32 11q42 0 42 -41q0 -43 -42 -43zM34 170q-3 0 -4 10t0 19.5t3 9.5h331q4 0 4 -19.5t-4 -19.5h-330zM198 -11q-20 0 -32 11.5t-12 31.5q0 19 12 30.5t32 11.5q42 0 42 -42q0 -20 -11 -31.5t-31 -11.5z" />
    <glyph glyph-name="oslash" unicode="&#xf8;" horiz-adv-x="477" 
d="M390 337q53 -61 53 -144q0 -92 -61.5 -149t-150.5 -57q-77 0 -130 51l-50 -52q-1 -2 -6 1t-8 7.5t-1 6.5l50 52q-50 59 -50 145q0 96 65.5 148.5t147.5 52.5q76 0 127 -48l46 48q2 1 6.5 -1.5t7.5 -6.5t1 -6zM103 229q0 -74 28 -130l206 212q-47 69 -121 69
q-54 0 -83.5 -39t-29.5 -112zM260 6q115 0 115 159q0 73 -28 127l-206 -213q45 -73 119 -73z" />
    <glyph glyph-name="ugrave" unicode="&#xf9;" horiz-adv-x="493" 
d="M244 474l-102 253q-1 3 5 4q24 1 50 -10l6 -5l51 -240q1 -2 -2 -3q-7 -3 -8 1zM485 57q4 1 6.5 -4t-1.5 -7l-117 -55q-2 -1 -4 -1q-6 0 -12 9t-11 29t-5 45v4q-76 -85 -159 -85q-50 0 -78 31.5t-28 91.5v153q0 74 -30 74q-14 0 -34 -10q-2 -1 -4.5 1.5t-2.5 6t2 4.5
l111 50q2 1 4 1q3 0 6.5 -2.5t3.5 -5.5v-239q0 -116 84 -116q68 0 125 62v174q0 40 -6.5 57t-23.5 17q-14 0 -34 -10q-2 -1 -4.5 2t-2.5 6t3 4l111 50q2 1 3 1q10 0 10 -8v-280q0 -64 35 -64q17 0 53 14z" />
    <glyph glyph-name="uacute" unicode="&#xfa;" horiz-adv-x="493" 
d="M236 474q0 -2 -3 -2t-5.5 1.5t-2.5 2.5l52 240q3 9 43 14q19 2 18 -3zM485 57q4 1 6.5 -4t-1.5 -7l-117 -55q-2 -1 -4 -1q-6 0 -12 9t-11 29t-5 45v4q-76 -85 -159 -85q-50 0 -78 31.5t-28 91.5v153q0 74 -30 74q-14 0 -34 -10q-2 -1 -4.5 1.5t-2.5 6t2 4.5l111 50
q2 1 4 1q3 0 6.5 -2.5t3.5 -5.5v-239q0 -116 84 -116q68 0 125 62v174q0 40 -6.5 57t-23.5 17q-14 0 -34 -10q-2 -1 -4.5 2t-2.5 6t3 4l111 50q2 1 3 1q10 0 10 -8v-280q0 -64 35 -64q17 0 53 14z" />
    <glyph glyph-name="ucircumflex" unicode="&#xfb;" horiz-adv-x="493" 
d="M170 474q0 -2 -3 -2t-5.5 1.5t-2.5 2.5l68 249q1 5 11 5t12 -5l67 -249q1 -2 -2 -3q-7 -3 -8 1l-68 164zM485 57q4 1 6.5 -4t-1.5 -7l-117 -55q-2 -1 -4 -1q-6 0 -12 9t-11 29t-5 45v4q-76 -85 -159 -85q-50 0 -78 31.5t-28 91.5v153q0 74 -30 74q-14 0 -34 -10
q-2 -1 -4.5 1.5t-2.5 6t2 4.5l111 50q2 1 4 1q3 0 6.5 -2.5t3.5 -5.5v-239q0 -116 84 -116q68 0 125 62v174q0 40 -6.5 57t-23.5 17q-14 0 -34 -10q-2 -1 -4.5 2t-2.5 6t3 4l111 50q2 1 3 1q10 0 10 -8v-280q0 -64 35 -64q17 0 53 14z" />
    <glyph glyph-name="udieresis" unicode="&#xfc;" horiz-adv-x="493" 
d="M151 478q-43 0 -43 41t43 41q41 0 41 -41t-41 -41zM326 478q-20 0 -31.5 11t-11.5 30t11.5 30t31.5 11q42 0 42 -41t-42 -41zM485 57q4 1 6.5 -4t-1.5 -7l-117 -55q-2 -1 -4 -1q-6 0 -12 9t-11 29t-5 45v4q-76 -85 -159 -85q-50 0 -78 31.5t-28 91.5v153q0 74 -30 74
q-14 0 -34 -10q-2 -1 -4.5 1.5t-2.5 6t2 4.5l111 50q2 1 4 1q3 0 6.5 -2.5t3.5 -5.5v-239q0 -116 84 -116q68 0 125 62v174q0 40 -6.5 57t-23.5 17q-14 0 -34 -10q-2 -1 -4.5 2t-2.5 6t3 4l111 50q2 1 3 1q10 0 10 -8v-280q0 -64 35 -64q17 0 53 14z" />
    <glyph glyph-name="yacute" unicode="&#xfd;" horiz-adv-x="435" 
d="M222 474q0 -2 -3 -2t-5.5 1.5t-2.5 2.5l52 240q3 9 43 14q19 2 18 -3zM431 386q3 0 3 -6t-3 -6q-25 0 -43 -18t-34 -59l-122 -325q-54 -143 -102 -198t-114 -55q-51 0 -51 39q0 14 9 22t22 8q20 0 40 -12t36 -12q35 0 68 49.5t81 178.5l-152 311q-23 44 -35 57.5
t-31 13.5q-2 0 -2 6t2 6q11 0 34 -1t33 -1q24 0 58 1t45 1q2 0 2 -6t-2 -6q-35 0 -49.5 -8.5t-3.5 -30.5l132 -271l80 230q15 45 -0.5 62.5t-68.5 17.5q-2 0 -2 6t2 6q14 0 45 -1t56 -1q15 0 35 1t32 1z" />
    <glyph glyph-name="thorn" unicode="&#xfe;" horiz-adv-x="491" 
d="M302 399q63 0 108 -50t45 -134q0 -57 -21 -103t-54 -72t-69 -39.5t-71 -13.5q-59 0 -107 26v-207q0 -43 19 -56t81 -13q3 0 3 -6t-3 -6q-16 0 -58.5 1t-68.5 1q-19 0 -50 -1t-42 -1q-2 0 -2 6t2 6q40 0 52 13t12 56v792q0 36 -7.5 52t-25.5 16q-15 0 -45 -14
q-3 -1 -5.5 1.5t-2.5 5.5t2 4l126 61q2 1 4 1q9 0 9 -8v-405q84 87 169 87zM269 8q54 0 88 46.5t34 129.5q0 84 -37.5 130.5t-94.5 46.5q-62 0 -126 -66v-223q57 -64 136 -64z" />
    <glyph glyph-name="ydieresis" unicode="&#xff;" horiz-adv-x="435" 
d="M137 478q-43 0 -43 41t43 41q41 0 41 -41t-41 -41zM312 478q-20 0 -31.5 11t-11.5 30t11.5 30t31.5 11q42 0 42 -41t-42 -41zM431 386q3 0 3 -6t-3 -6q-25 0 -43 -18t-34 -59l-122 -325q-54 -143 -102 -198t-114 -55q-51 0 -51 39q0 14 9 22t22 8q20 0 40 -12t36 -12
q35 0 68 49.5t81 178.5l-152 311q-23 44 -35 57.5t-31 13.5q-2 0 -2 6t2 6q11 0 34 -1t33 -1q24 0 58 1t45 1q2 0 2 -6t-2 -6q-35 0 -49.5 -8.5t-3.5 -30.5l132 -271l80 230q15 45 -0.5 62.5t-68.5 17.5q-2 0 -2 6t2 6q14 0 45 -1t56 -1q15 0 35 1t32 1z" />
    <glyph glyph-name="Amacron" unicode="&#x100;" 
d="M215 722q-6 0 -6 14t6 14h251q6 0 6 -14t-6 -14h-251zM699 12q4 0 4 -6t-4 -6q-19 0 -59 2t-58 2q-22 0 -54.5 -2t-50.5 -2q-5 0 -5 6t5 6q54 0 66 15t-8 59l-115 245h-189l-86 -204q-24 -61 -3.5 -88t87.5 -27q5 0 5 -6t-5 -6q-19 0 -55 2t-63 2q-25 0 -57.5 -2
t-52.5 -2q-5 0 -5 6t5 6q41 0 66.5 25.5t56.5 98.5l211 498q1 3 6.5 3t6.5 -3l236 -497q34 -74 58 -99.5t57 -25.5zM240 352h170l-90 190z" />
    <glyph glyph-name="amacron" unicode="&#x101;" horiz-adv-x="419" 
d="M83 483q-6 0 -6 14t6 14h251q6 0 6 -14t-6 -14h-251zM413 54q5 2 6.5 -3.5t-2.5 -7.5l-103 -49q-4 -2 -8 -2q-13 0 -23 17t-13 47l-62 -33q-57 -30 -90 -30q-31 0 -47.5 16.5t-16.5 41.5q0 27 20.5 43.5t73.5 34.5l121 43v83q0 119 -64 119q-34 0 -53 -24t-23 -58
q-4 -38 -37 -38q-34 0 -34 30q0 35 62.5 73t116.5 38q40 0 64 -27.5t24 -82.5v-177q0 -67 39 -67q19 0 49 13zM208 39l61 31v6v84l-103 -39q-42 -16 -42 -48q0 -21 12 -32.5t31 -11.5t41 10z" />
    <glyph glyph-name="Abreve" unicode="&#x102;" 
d="M341 690q-42 0 -68.5 28t-34.5 79q-1 4 4 4.5t7 -1.5q7 -27 33.5 -47t58.5 -20q31 0 57.5 20t33.5 47q0 1 3 1.5t5.5 -1t2.5 -3.5q-16 -107 -102 -107zM699 12q4 0 4 -6t-4 -6q-19 0 -59 2t-58 2q-22 0 -54.5 -2t-50.5 -2q-5 0 -5 6t5 6q54 0 66 15t-8 59l-115 245h-189
l-86 -204q-24 -61 -3.5 -88t87.5 -27q5 0 5 -6t-5 -6q-19 0 -55 2t-63 2q-25 0 -57.5 -2t-52.5 -2q-5 0 -5 6t5 6q41 0 66.5 25.5t56.5 98.5l211 498q1 3 6.5 3t6.5 -3l236 -497q34 -74 58 -99.5t57 -25.5zM240 352h170l-90 190z" />
    <glyph glyph-name="abreve" unicode="&#x103;" horiz-adv-x="419" 
d="M209 473q-103 0 -103 150q0 2 3 3.5t5.5 1t2.5 -1.5q0 -44 26 -73.5t66 -29.5q38 0 64.5 30t26.5 73q0 1 3 1.5t5.5 -1t2.5 -3.5q0 -150 -102 -150zM413 54q5 2 6.5 -3.5t-2.5 -7.5l-103 -49q-4 -2 -8 -2q-13 0 -23 17t-13 47l-62 -33q-57 -30 -90 -30q-31 0 -47.5 16.5
t-16.5 41.5q0 27 20.5 43.5t73.5 34.5l121 43v83q0 119 -64 119q-34 0 -53 -24t-23 -58q-4 -38 -37 -38q-34 0 -34 30q0 35 62.5 73t116.5 38q40 0 64 -27.5t24 -82.5v-177q0 -67 39 -67q19 0 49 13zM208 39l61 31v6v84l-103 -39q-42 -16 -42 -48q0 -21 12 -32.5t31 -11.5
t41 10z" />
    <glyph glyph-name="Aogonek" unicode="&#x104;" horiz-adv-x="704" 
d="M699 9q4 0 4 -5.5t-4 -5.5q-21 0 -51.5 1.5t-44.5 1.5q-54 0 -91 -36.5t-37 -93.5q0 -49 27.5 -82.5t80.5 -33.5q30 0 56 13q2 2 5.5 -2t1.5 -6q-45 -35 -105 -35q-58 0 -91 29.5t-33 79.5q0 35 17 65.5t38.5 48.5t42 41t27 42.5t-6.5 52.5l-118 247h-186l-86 -204
q-24 -61 -3.5 -88t87.5 -27q5 0 5 -6t-5 -6q-19 0 -55 2t-63 2q-25 0 -57.5 -2t-52.5 -2q-5 0 -5 6t5 6q41 0 66.5 25.5t56.5 98.5l211 498q1 3 6.5 3t6.5 -3l236 -499q34 -73 58.5 -99.5t56.5 -26.5zM240 352h167l-88 186z" />
    <glyph glyph-name="aogonek" unicode="&#x105;" horiz-adv-x="419" 
d="M413 54q5 2 6.5 -3.5t-2.5 -7.5l-103 -49q-1 0 -2 -1l-2 -1q-68 -62 -68 -135q0 -48 24 -75t69 -27q34 0 65 23q2 1 4.5 -0.5t3.5 -3.5t-1 -4q-52 -45 -108 -45q-54 0 -83 27t-29 72q0 84 108 172q-21 14 -25 60l-62 -33q-57 -30 -90 -30q-31 0 -47.5 16.5t-16.5 41.5
q0 27 20.5 43.5t73.5 34.5l121 43v83q0 119 -64 119q-34 0 -53 -24t-23 -58q-4 -38 -37 -38q-34 0 -34 30q0 35 62.5 73t116.5 38q40 0 64 -27.5t24 -82.5v-177q0 -67 39 -67q19 0 49 13zM208 39l61 31v6v84l-103 -39q-42 -16 -42 -48q0 -21 12 -32.5t31 -11.5t41 10z" />
    <glyph glyph-name="Cacute" unicode="&#x106;" horiz-adv-x="669" 
d="M282 679q-4 -2 -6 3t1 7q37 19 96.5 55t66.5 40q9 5 50 -15q17 -8 16 -12q0 -1 -2 -1q-108 -27 -222 -77zM415 636q114 0 175 -35q14 -7 15 -24l11 -112q0 -3 -5 -3.5t-6 2.5q-42 150 -229 150q-115 0 -183.5 -73.5t-68.5 -195.5q0 -142 83.5 -242.5t200.5 -100.5
q150 0 206 161q1 3 6.5 2.5t5.5 -3.5l-14 -113q-2 -12 -4.5 -15.5t-11.5 -7.5q-90 -38 -190 -38q-92 0 -163 29.5t-112 78t-61.5 105.5t-20.5 117q0 92 52 166t135 113t179 39z" />
    <glyph glyph-name="cacute" unicode="&#x107;" horiz-adv-x="411" 
d="M223 474q0 -2 -3 -2t-5.5 1.5t-2.5 2.5l52 240q3 9 43 14q19 2 18 -3zM231 -12q-96 0 -145.5 59t-49.5 138q0 95 67.5 152.5t150.5 57.5q44 0 80.5 -17.5t36.5 -43.5q0 -13 -9.5 -22.5t-25.5 -9.5q-28 0 -44 33q-13 20 -28 30t-43 10q-56 0 -87.5 -43.5t-31.5 -116.5
q0 -84 42 -138t126 -54q61 0 102 33q2 2 5.5 -2t1.5 -6q-67 -60 -148 -60z" />
    <glyph glyph-name="Ccircumflex" unicode="&#x108;" horiz-adv-x="669" 
d="M265 692l103 98q4 4 11 4t12 -4l102 -98q2 -1 1.5 -3t-3 -3.5t-3.5 -0.5l-108 58l-109 -58q-1 0 -3 1t-3 3t0 3zM415 636q114 0 175 -35q14 -7 15 -24l11 -112q0 -3 -5 -3.5t-6 2.5q-42 150 -229 150q-115 0 -183.5 -73.5t-68.5 -195.5q0 -142 83.5 -242.5t200.5 -100.5
q150 0 206 161q1 3 6.5 2.5t5.5 -3.5l-14 -113q-2 -12 -4.5 -15.5t-11.5 -7.5q-90 -38 -190 -38q-92 0 -163 29.5t-112 78t-61.5 105.5t-20.5 117q0 92 52 166t135 113t179 39z" />
    <glyph glyph-name="ccircumflex" unicode="&#x109;" horiz-adv-x="411" 
d="M304 476q1 -2 -2 -3q-7 -3 -8 1l-68 164l-69 -164q0 -2 -3 -2t-5.5 1.5t-2.5 2.5l68 249q1 5 11 5t12 -5zM231 -12q-96 0 -145.5 59t-49.5 138q0 95 67.5 152.5t150.5 57.5q44 0 80.5 -17.5t36.5 -43.5q0 -13 -9.5 -22.5t-25.5 -9.5q-28 0 -44 33q-13 20 -28 30t-43 10
q-56 0 -87.5 -43.5t-31.5 -116.5q0 -84 42 -138t126 -54q61 0 102 33q2 2 5.5 -2t1.5 -6q-67 -60 -148 -60z" />
    <glyph glyph-name="Cdotaccent" unicode="&#x10a;" horiz-adv-x="669" 
d="M379 713q-44 0 -44 43q0 42 44 42q42 0 42 -42q0 -43 -42 -43zM415 636q114 0 175 -35q14 -7 15 -24l11 -112q0 -3 -5 -3.5t-6 2.5q-42 150 -229 150q-115 0 -183.5 -73.5t-68.5 -195.5q0 -142 83.5 -242.5t200.5 -100.5q150 0 206 161q1 3 6.5 2.5t5.5 -3.5l-14 -113
q-2 -12 -4.5 -15.5t-11.5 -7.5q-90 -38 -190 -38q-92 0 -163 29.5t-112 78t-61.5 105.5t-20.5 117q0 92 52 166t135 113t179 39z" />
    <glyph glyph-name="cdotaccent" unicode="&#x10b;" horiz-adv-x="411" 
d="M225 512q-44 0 -44 42t44 42q42 0 42 -42t-42 -42zM231 -12q-96 0 -145.5 59t-49.5 138q0 95 67.5 152.5t150.5 57.5q44 0 80.5 -17.5t36.5 -43.5q0 -13 -9.5 -22.5t-25.5 -9.5q-28 0 -44 33q-13 20 -28 30t-43 10q-56 0 -87.5 -43.5t-31.5 -116.5q0 -84 42 -138t126 -54
q61 0 102 33q2 2 5.5 -2t1.5 -6q-67 -60 -148 -60z" />
    <glyph glyph-name="Ccaron" unicode="&#x10c;" horiz-adv-x="669" 
d="M367 687l-103 97q-1 1 0 3t3 3t3 1l109 -57l108 57q1 1 3.5 -0.5t3 -3.5t-1.5 -3l-102 -97q-12 -11 -23 0zM415 636q114 0 175 -35q14 -7 15 -24l11 -112q0 -3 -5 -3.5t-6 2.5q-42 150 -229 150q-115 0 -183.5 -73.5t-68.5 -195.5q0 -142 83.5 -242.5t200.5 -100.5
q150 0 206 161q1 3 6.5 2.5t5.5 -3.5l-14 -113q-2 -12 -4.5 -15.5t-11.5 -7.5q-90 -38 -190 -38q-92 0 -163 29.5t-112 78t-61.5 105.5t-20.5 117q0 92 52 166t135 113t179 39z" />
    <glyph glyph-name="ccaron" unicode="&#x10d;" horiz-adv-x="411" 
d="M145 726q0 2 2.5 3.5t5.5 1t3 -1.5l69 -165l68 165q0 1 3 1.5t5.5 -1t1.5 -3.5l-67 -249q-2 -5 -11.5 -5t-11.5 5zM231 -12q-96 0 -145.5 59t-49.5 138q0 95 67.5 152.5t150.5 57.5q44 0 80.5 -17.5t36.5 -43.5q0 -13 -9.5 -22.5t-25.5 -9.5q-28 0 -44 33q-13 20 -28 30
t-43 10q-56 0 -87.5 -43.5t-31.5 -116.5q0 -84 42 -138t126 -54q61 0 102 33q2 2 5.5 -2t1.5 -6q-67 -60 -148 -60z" />
    <glyph glyph-name="Dcaron" unicode="&#x10e;" horiz-adv-x="691" 
d="M306 687l-103 97q-1 1 0 3t3 3t3 1l109 -57l108 57q1 1 3.5 -0.5t3 -3.5t-1.5 -3l-102 -97q-11 -11 -23 0zM303 -4q-18 0 -71.5 3t-78.5 3q-23 0 -63 -1t-55 -1q-2 0 -2 6t2 6q55 0 70.5 12.5t15.5 56.5v463q0 43 -15.5 56t-69.5 13q-2 0 -2 6t2 6q15 0 54.5 -1.5
t62.5 -1.5t71 2.5t65 2.5q157 0 255 -86.5t98 -217.5q0 -146 -98.5 -236.5t-240.5 -90.5zM293 11q123 0 198 76t75 214q0 133 -73.5 222t-194.5 89q-64 0 -88 -13t-24 -57v-450q0 -44 22 -62.5t85 -18.5z" />
    <glyph glyph-name="dcaron" unicode="&#x10f;" horiz-adv-x="512" 
d="M489 722q0 9 32 -11q20 -13 19 -19l-32 -243q0 -1 -3 -1.5t-5.5 0.5t-2.5 2zM504 56q4 2 7 -3.5t-1 -7.5l-110 -52q-6 -2 -8 -2q-13 0 -22 22t-10 61q-83 -87 -168 -87q-64 0 -110 53t-46 138q0 104 72 162.5t156 58.5q53 0 96 -26v224q0 36 -7.5 52t-25.5 16
q-13 0 -46 -14q-3 -1 -5 1.5t-2.5 5.5t1.5 4l127 62q2 1 5 1t6 -2.5t3 -5.5v-607q0 -36 8.5 -52t27.5 -16q29 0 52 14zM231 23q64 0 129 67v220q-50 69 -123 69q-63 0 -99.5 -44.5t-36.5 -126.5q0 -83 37 -134t93 -51z" />
    <glyph glyph-name="Dcroat" unicode="&#x110;" horiz-adv-x="691" 
d="M289 627q157 0 255 -86.5t98 -217.5q0 -146 -98.5 -236.5t-240.5 -90.5q-18 0 -71.5 3t-78.5 3q-23 0 -63 -1t-55 -1q-2 0 -2 6t2 6q55 0 70.5 12.5t15.5 56.5v220h-68q-5 0 -5 10t5 10h68v223q0 43 -15.5 56t-69.5 13q-2 0 -2 6t2 6q15 0 54.5 -1.5t62.5 -1.5t71 2.5
t65 2.5zM293 11q123 0 198 76t75 214q0 133 -73.5 222t-194.5 89q-64 0 -88 -13t-24 -57v-221h136q4 0 4 -10t-4 -10h-136v-209q0 -44 22 -62.5t85 -18.5z" />
    <glyph glyph-name="dcroat" unicode="&#x111;" horiz-adv-x="513" 
d="M504 56q4 2 7 -3.5t-1 -7.5l-110 -52q-6 -2 -8 -2q-13 0 -22 22t-10 61q-83 -87 -168 -87q-64 0 -110 53t-46 138q0 104 72 162.5t156 58.5q53 0 96 -26v129h-169q-5 0 -5 10t5 10h169v75q0 36 -7.5 52t-25.5 16q-13 0 -46 -14q-3 -1 -5 1.5t-2.5 5.5t1.5 4l127 62
q2 1 5 1t6 -2.5t3 -5.5v-195h66q5 0 5 -10t-5 -10h-66v-392q0 -36 8.5 -52t27.5 -16q29 0 52 14zM231 23q64 0 129 67v220q-50 69 -123 69q-63 0 -99.5 -44.5t-36.5 -126.5q0 -83 37 -134t93 -51z" />
    <glyph glyph-name="Emacron" unicode="&#x112;" horiz-adv-x="537" 
d="M166 722q-6 0 -6 14t6 14h251q6 0 6 -14t-6 -14h-251zM475 149q1 3 6.5 2t5.5 -4q-9 -63 -9 -132q0 -15 -16 -15h-419q-2 0 -2 6t2 6q55 0 70.5 12.5t15.5 56.5v463q0 43 -16 56t-70 13q-2 0 -2 6t2 6h402q9 0 9 -9l2 -123q0 -3 -5 -3.5t-6 2.5q-3 53 -32 82.5t-77 29.5
h-61q-50 0 -65.5 -12.5t-15.5 -52.5v-203h122q48 0 68.5 16t20.5 54q0 2 6 2t6 -2q0 -22 -0.5 -46t-0.5 -35q0 -15 1 -45t1 -47q0 -2 -6 -2t-6 2q0 44 -21.5 63t-71.5 19h-119v-230q0 -40 14.5 -52t63.5 -12h80q48 0 80 34t43 94z" />
    <glyph glyph-name="emacron" unicode="&#x113;" horiz-adv-x="408" 
d="M101 483q-6 0 -6 14t6 14h251q6 0 6 -14t-6 -14h-251zM363 56q2 2 5.5 -2.5t1.5 -7.5q-68 -58 -146 -58q-88 0 -138 56.5t-50 135.5q0 91 62 153t153 62q54 0 84 -26.5t30 -72.5q0 -23 -12 -23l-246 -2q-5 -27 -5 -52q0 -87 42 -141.5t116 -54.5q57 0 103 33zM217 375
q-83 0 -107 -90l186 4q0 41 -21.5 63.5t-57.5 22.5z" />
    <glyph glyph-name="Ebreve" unicode="&#x114;" horiz-adv-x="537" 
d="M292 690q-42 0 -68.5 28t-34.5 79q-1 4 4 4.5t7 -1.5q7 -27 33.5 -47t58.5 -20q31 0 57.5 20t33.5 47q0 1 3 1.5t5.5 -1t2.5 -3.5q-16 -107 -102 -107zM475 149q1 3 6.5 2t5.5 -4q-9 -63 -9 -132q0 -15 -16 -15h-419q-2 0 -2 6t2 6q55 0 70.5 12.5t15.5 56.5v463
q0 43 -16 56t-70 13q-2 0 -2 6t2 6h402q9 0 9 -9l2 -123q0 -3 -5 -3.5t-6 2.5q-3 53 -32 82.5t-77 29.5h-61q-50 0 -65.5 -12.5t-15.5 -52.5v-203h122q48 0 68.5 16t20.5 54q0 2 6 2t6 -2q0 -22 -0.5 -46t-0.5 -35q0 -15 1 -45t1 -47q0 -2 -6 -2t-6 2q0 44 -21.5 63
t-71.5 19h-119v-230q0 -40 14.5 -52t63.5 -12h80q48 0 80 34t43 94z" />
    <glyph glyph-name="ebreve" unicode="&#x115;" horiz-adv-x="408" 
d="M227 473q-103 0 -103 150q0 2 3 3.5t5.5 1t2.5 -1.5q0 -44 26 -73.5t66 -29.5q38 0 64.5 30t26.5 73q0 1 3 1.5t5.5 -1t2.5 -3.5q0 -150 -102 -150zM363 56q2 2 5.5 -2.5t1.5 -7.5q-68 -58 -146 -58q-88 0 -138 56.5t-50 135.5q0 91 62 153t153 62q54 0 84 -26.5
t30 -72.5q0 -23 -12 -23l-246 -2q-5 -27 -5 -52q0 -87 42 -141.5t116 -54.5q57 0 103 33zM217 375q-83 0 -107 -90l186 4q0 41 -21.5 63.5t-57.5 22.5z" />
    <glyph glyph-name="Edotaccent" unicode="&#x116;" horiz-adv-x="537" 
d="M292 713q-44 0 -44 43q0 42 44 42q42 0 42 -42q0 -43 -42 -43zM475 149q1 3 6.5 2t5.5 -4q-9 -63 -9 -132q0 -15 -16 -15h-419q-2 0 -2 6t2 6q55 0 70.5 12.5t15.5 56.5v463q0 43 -16 56t-70 13q-2 0 -2 6t2 6h402q9 0 9 -9l2 -123q0 -3 -5 -3.5t-6 2.5q-3 53 -32 82.5
t-77 29.5h-61q-50 0 -65.5 -12.5t-15.5 -52.5v-203h122q48 0 68.5 16t20.5 54q0 2 6 2t6 -2q0 -22 -0.5 -46t-0.5 -35q0 -15 1 -45t1 -47q0 -2 -6 -2t-6 2q0 44 -21.5 63t-71.5 19h-119v-230q0 -40 14.5 -52t63.5 -12h80q48 0 80 34t43 94z" />
    <glyph glyph-name="edotaccent" unicode="&#x117;" horiz-adv-x="408" 
d="M227 512q-44 0 -44 42t44 42q42 0 42 -42t-42 -42zM363 56q2 2 5.5 -2.5t1.5 -7.5q-68 -58 -146 -58q-88 0 -138 56.5t-50 135.5q0 91 62 153t153 62q54 0 84 -26.5t30 -72.5q0 -23 -12 -23l-246 -2q-5 -27 -5 -52q0 -87 42 -141.5t116 -54.5q57 0 103 33zM217 375
q-83 0 -107 -90l186 4q0 41 -21.5 63.5t-57.5 22.5z" />
    <glyph glyph-name="Eogonek" unicode="&#x118;" horiz-adv-x="537" 
d="M497 -222q2 1 4.5 -0.5t3.5 -3.5t-1 -4q-52 -45 -108 -45q-54 0 -83 27t-29 72q0 86 112 176h-353q-2 0 -2 6t2 6q55 0 70.5 12.5t15.5 56.5v463q0 43 -16 56t-70 13q-2 0 -2 6t2 6h402q9 0 9 -9l2 -123q0 -3 -5 -3.5t-6 2.5q-3 53 -32 82.5t-77 29.5h-61
q-50 0 -65.5 -12.5t-15.5 -52.5v-203h122q48 0 68.5 16t20.5 54q0 2 6 2t6 -2q0 -22 -0.5 -46t-0.5 -35q0 -15 1 -45t1 -47q0 -2 -6 -2t-6 2q0 44 -21.5 63t-71.5 19h-119v-230q0 -40 14.5 -52t63.5 -12h80q48 0 80 34t43 94q1 3 6.5 2t5.5 -4q-9 -63 -9 -132q0 -15 -16 -15
h-47q-76 -69 -76 -143q0 -48 24 -75t69 -27q34 0 65 23z" />
    <glyph glyph-name="eogonek" unicode="&#x119;" horiz-adv-x="408" 
d="M369 -222q2 1 4.5 -0.5t3.5 -3.5t-1 -4q-46 -45 -97 -45q-49 0 -75.5 26t-26.5 70q0 86 110 177q-29 -10 -63 -10q-88 0 -138 56.5t-50 135.5q0 91 62 153t153 62q54 0 84 -26.5t30 -72.5q0 -23 -12 -23l-246 -2q-5 -27 -5 -52q0 -87 42 -141.5t116 -54.5q57 0 103 33
q2 2 5.5 -2.5t1.5 -7.5q-16 -14 -33 -24q-103 -84 -103 -171q0 -46 20 -71.5t58 -25.5q29 0 57 24zM217 375q-83 0 -107 -90l186 4q0 41 -21.5 63.5t-57.5 22.5z" />
    <glyph glyph-name="Ecaron" unicode="&#x11a;" horiz-adv-x="537" 
d="M177 784q-1 1 0 3t3 3t3 1l109 -57l108 57q1 1 3.5 -0.5t3 -3.5t-1.5 -3l-102 -97q-11 -11 -23 0zM475 149q1 3 6.5 2t5.5 -4q-9 -63 -9 -132q0 -15 -16 -15h-419q-2 0 -2 6t2 6q55 0 70.5 12.5t15.5 56.5v463q0 43 -16 56t-70 13q-2 0 -2 6t2 6h402q9 0 9 -9l2 -123
q0 -3 -5 -3.5t-6 2.5q-3 53 -32 82.5t-77 29.5h-61q-50 0 -65.5 -12.5t-15.5 -52.5v-203h122q48 0 68.5 16t20.5 54q0 2 6 2t6 -2q0 -22 -0.5 -46t-0.5 -35q0 -15 1 -45t1 -47q0 -2 -6 -2t-6 2q0 44 -21.5 63t-71.5 19h-119v-230q0 -40 14.5 -52t63.5 -12h80q48 0 80 34
t43 94z" />
    <glyph glyph-name="ecaron" unicode="&#x11b;" horiz-adv-x="408" 
d="M215 477l-68 249q0 2 2.5 3.5t5.5 1t3 -1.5l69 -165l68 165q0 1 3 1.5t5.5 -1t1.5 -3.5l-67 -249q-2 -5 -11.5 -5t-11.5 5zM363 56q2 2 5.5 -2.5t1.5 -7.5q-68 -58 -146 -58q-88 0 -138 56.5t-50 135.5q0 91 62 153t153 62q54 0 84 -26.5t30 -72.5q0 -23 -12 -23l-246 -2
q-5 -27 -5 -52q0 -87 42 -141.5t116 -54.5q57 0 103 33zM217 375q-83 0 -107 -90l186 4q0 41 -21.5 63.5t-57.5 22.5z" />
    <glyph glyph-name="Gcircumflex" unicode="&#x11c;" horiz-adv-x="714" 
d="M280 692l103 98q5 4 12 4t11 -4l102 -98q2 -1 1.5 -3t-3 -3.5t-3.5 -0.5l-108 58l-109 -58q-1 0 -3 1t-3 3t0 3zM405 -12q-164 0 -260 90.5t-96 226.5q0 147 107.5 239t273.5 92q108 0 166 -36q11 -7 12 -23l12 -112q0 -3 -5.5 -3.5t-6.5 2.5q-22 72 -79.5 111t-141.5 39
q-126 0 -195 -73t-69 -200q0 -147 86.5 -241.5t219.5 -94.5q76 0 104.5 23.5t28.5 97.5q0 73 -17.5 90t-95.5 17q-4 0 -5.5 4t0 8t4.5 4q112 -8 224 -2q5 0 5 -7t-5 -7q-34 1 -42 -18t-8 -99q0 -40 3.5 -63t3.5 -25q0 -6 -2 -8t-9 -4q-121 -28 -213 -28z" />
    <glyph glyph-name="gcircumflex" unicode="&#x11d;" horiz-adv-x="433" 
d="M144 474q0 -2 -3 -2t-5.5 1.5t-2.5 2.5l68 249q1 5 11 5t12 -5l67 -249q1 -2 -2 -3q-7 -3 -8 1l-68 164zM222 32q7 -1 20 -3q35 -5 53.5 -8.5t47 -12t42.5 -19.5t25.5 -31t11.5 -46q0 -71 -75 -132.5t-174 -61.5q-71 0 -114.5 34t-43.5 87q0 79 114 155q-68 20 -68 68
q0 54 72 103q-39 14 -60 43.5t-21 66.5q0 52 44 85t111 33q66 0 102 -31q53 32 107 32q6 0 6 -22q0 -28 -8 -34q-1 -1 -2 0q-42 15 -66 15q-11 0 -25 -2q26 -30 26 -71q0 -52 -42 -88.5t-109 -36.5q-28 0 -51 6q-37 -26 -37 -64q0 -14 7 -24t16 -16.5t27.5 -11.5t29.5 -7
t34 -6zM182 378q-67 0 -67 -82q0 -58 30.5 -92.5t71.5 -34.5q30 0 49 22.5t19 68.5q0 52 -30.5 85t-72.5 33zM213 -252q73 0 115 38t42 91q0 29 -14 49t-41 30t-52 15t-61 10q-7 1 -10 1q-31 4 -43 7q-36 -23 -55.5 -50t-19.5 -68q0 -56 37.5 -89.5t101.5 -33.5z" />
    <glyph glyph-name="Gbreve" unicode="&#x11e;" horiz-adv-x="714" 
d="M394 690q-42 0 -68.5 28t-34.5 79q-1 4 4 4.5t7 -1.5q7 -27 33.5 -47t58.5 -20q31 0 57.5 20t33.5 47q0 1 3 1.5t5.5 -1t2.5 -3.5q-16 -107 -102 -107zM405 -12q-164 0 -260 90.5t-96 226.5q0 147 107.5 239t273.5 92q108 0 166 -36q11 -7 12 -23l12 -112q0 -3 -5.5 -3.5
t-6.5 2.5q-22 72 -79.5 111t-141.5 39q-126 0 -195 -73t-69 -200q0 -147 86.5 -241.5t219.5 -94.5q76 0 104.5 23.5t28.5 97.5q0 73 -17.5 90t-95.5 17q-4 0 -5.5 4t0 8t4.5 4q112 -8 224 -2q5 0 5 -7t-5 -7q-34 1 -42 -18t-8 -99q0 -40 3.5 -63t3.5 -25q0 -6 -2 -8t-9 -4
q-121 -28 -213 -28z" />
    <glyph glyph-name="gbreve" unicode="&#x11f;" horiz-adv-x="433" 
d="M212 473q-103 0 -103 150q0 2 2.5 3.5t5.5 1t3 -1.5q0 -44 26 -73.5t66 -29.5q38 0 64.5 30t26.5 73q0 1 2.5 1.5t5.5 -1t3 -3.5q0 -150 -102 -150zM222 32q7 -1 20 -3q35 -5 53.5 -8.5t47 -12t42.5 -19.5t25.5 -31t11.5 -46q0 -71 -75 -132.5t-174 -61.5
q-71 0 -114.5 34t-43.5 87q0 79 114 155q-68 20 -68 68q0 54 72 103q-39 14 -60 43.5t-21 66.5q0 52 44 85t111 33q66 0 102 -31q53 32 107 32q6 0 6 -22q0 -28 -8 -34q-1 -1 -2 0q-42 15 -66 15q-11 0 -25 -2q26 -30 26 -71q0 -52 -42 -88.5t-109 -36.5q-28 0 -51 6
q-37 -26 -37 -64q0 -14 7 -24t16 -16.5t27.5 -11.5t29.5 -7t34 -6zM182 378q-67 0 -67 -82q0 -58 30.5 -92.5t71.5 -34.5q30 0 49 22.5t19 68.5q0 52 -30.5 85t-72.5 33zM213 -252q73 0 115 38t42 91q0 29 -14 49t-41 30t-52 15t-61 10q-7 1 -10 1q-31 4 -43 7
q-36 -23 -55.5 -50t-19.5 -68q0 -56 37.5 -89.5t101.5 -33.5z" />
    <glyph glyph-name="Gdotaccent" unicode="&#x120;" horiz-adv-x="714" 
d="M394 713q-44 0 -44 43q0 42 44 42q42 0 42 -42q0 -43 -42 -43zM405 -12q-164 0 -260 90.5t-96 226.5q0 147 107.5 239t273.5 92q108 0 166 -36q11 -7 12 -23l12 -112q0 -3 -5.5 -3.5t-6.5 2.5q-22 72 -79.5 111t-141.5 39q-126 0 -195 -73t-69 -200q0 -147 86.5 -241.5
t219.5 -94.5q76 0 104.5 23.5t28.5 97.5q0 73 -17.5 90t-95.5 17q-4 0 -5.5 4t0 8t4.5 4q112 -8 224 -2q5 0 5 -7t-5 -7q-34 1 -42 -18t-8 -99q0 -40 3.5 -63t3.5 -25q0 -6 -2 -8t-9 -4q-121 -28 -213 -28z" />
    <glyph glyph-name="gdotaccent" unicode="&#x121;" horiz-adv-x="433" 
d="M212 512q-44 0 -44 42t44 42q42 0 42 -42t-42 -42zM222 32q7 -1 20 -3q35 -5 53.5 -8.5t47 -12t42.5 -19.5t25.5 -31t11.5 -46q0 -71 -75 -132.5t-174 -61.5q-71 0 -114.5 34t-43.5 87q0 79 114 155q-68 20 -68 68q0 54 72 103q-39 14 -60 43.5t-21 66.5q0 52 44 85
t111 33q66 0 102 -31q53 32 107 32q6 0 6 -22q0 -28 -8 -34q-1 -1 -2 0q-42 15 -66 15q-11 0 -25 -2q26 -30 26 -71q0 -52 -42 -88.5t-109 -36.5q-28 0 -51 6q-37 -26 -37 -64q0 -14 7 -24t16 -16.5t27.5 -11.5t29.5 -7t34 -6zM182 378q-67 0 -67 -82q0 -58 30.5 -92.5
t71.5 -34.5q30 0 49 22.5t19 68.5q0 52 -30.5 85t-72.5 33zM213 -252q73 0 115 38t42 91q0 29 -14 49t-41 30t-52 15t-61 10q-7 1 -10 1q-31 4 -43 7q-36 -23 -55.5 -50t-19.5 -68q0 -56 37.5 -89.5t101.5 -33.5z" />
    <glyph glyph-name="Gcommaaccent" unicode="&#x122;" horiz-adv-x="714" 
d="M672 247q5 0 5 -7t-5 -7q-34 1 -42 -18t-8 -99q0 -40 3.5 -63t3.5 -25q0 -6 -2 -8t-9 -4q-121 -28 -213 -28q-164 0 -260 90.5t-96 226.5q0 147 107.5 239t273.5 92q108 0 166 -36q11 -7 12 -23l12 -112q0 -3 -5.5 -3.5t-6.5 2.5q-22 72 -79.5 111t-141.5 39
q-126 0 -195 -73t-69 -200q0 -147 86.5 -241.5t219.5 -94.5q76 0 104.5 23.5t28.5 97.5q0 73 -17.5 90t-95.5 17q-4 0 -5.5 4t0 8t4.5 4q112 -8 224 -2zM411 -85q57 0 57 -73q0 -61 -61 -117q-4 -2 -7.5 1.5t-0.5 6.5q44 38 44 89q0 20 -6 29q-7 -15 -30 -15q-18 0 -28.5 11
t-10.5 28q0 40 43 40z" />
    <glyph glyph-name="gcommaaccent" unicode="&#x123;" horiz-adv-x="433" 
d="M218 485q-57 0 -57 73q0 61 61 117q4 2 7.5 -1.5t0.5 -6.5q-44 -38 -44 -89q0 -20 6 -29q8 15 30 15q18 0 28.5 -11t10.5 -28q0 -40 -43 -40zM222 32q7 -1 20 -3q35 -5 53.5 -8.5t47 -12t42.5 -19.5t25.5 -31t11.5 -46q0 -71 -75 -132.5t-174 -61.5q-71 0 -114.5 34
t-43.5 87q0 79 114 155q-68 20 -68 68q0 54 72 103q-39 14 -60 43.5t-21 66.5q0 52 44 85t111 33q66 0 102 -31q53 32 107 32q6 0 6 -22q0 -28 -8 -34q-1 -1 -2 0q-42 15 -66 15q-11 0 -25 -2q26 -30 26 -71q0 -52 -42 -88.5t-109 -36.5q-28 0 -51 6q-37 -26 -37 -64
q0 -14 7 -24t16 -16.5t27.5 -11.5t29.5 -7t34 -6zM182 378q-67 0 -67 -82q0 -58 30.5 -92.5t71.5 -34.5q30 0 49 22.5t19 68.5q0 52 -30.5 85t-72.5 33zM213 -252q73 0 115 38t42 91q0 29 -14 49t-41 30t-52 15t-61 10q-7 1 -10 1q-31 4 -43 7q-36 -23 -55.5 -50t-19.5 -68
q0 -56 37.5 -89.5t101.5 -33.5z" />
    <glyph glyph-name="Hcircumflex" unicode="&#x124;" horiz-adv-x="759" 
d="M272 685q-1 0 -3 1t-3 3t0 3l103 98q5 4 12 4t11 -4l102 -98q2 -1 1.5 -3t-3 -3.5t-3.5 -0.5l-108 58zM722 12q3 0 3 -6t-3 -6q-14 0 -54 1t-64 1q-27 0 -67 -1t-54 -1q-3 0 -3 6t3 6q57 0 72.5 12.5t15.5 56.5v234h-384v-234q0 -44 15.5 -56.5t72.5 -12.5q2 0 2 -6
t-2 -6q-15 0 -55 1t-66 1q-24 0 -64 -1t-55 -1q-2 0 -2 6t2 6q55 0 71.5 12.5t16.5 56.5v463q0 43 -16 56t-71 13q-2 0 -2 6t2 6q15 0 55 -1.5t63 -1.5q27 0 67 1.5t54 1.5q2 0 2 -6t-2 -6q-55 0 -71.5 -13.5t-16.5 -57.5v-206h384v206q0 44 -16 57.5t-72 13.5q-3 0 -3 6
t3 6q14 0 54 -1.5t67 -1.5q24 0 64 1.5t54 1.5q3 0 3 -6t-3 -6q-55 0 -71 -13t-16 -56v-463q0 -44 16 -56.5t71 -12.5z" />
    <glyph glyph-name="hcircumflex" unicode="&#x125;" horiz-adv-x="499" 
d="M17 720q-1 0 -3 1t-3 3t0 3l103 98q12 11 23 0l102 -98q2 -1 1.5 -3t-3 -3.5t-3.5 -0.5l-108 58zM477 12q3 0 3 -6t-3 -6q-11 0 -41.5 1t-49.5 1t-49.5 -1t-41.5 -1q-3 0 -3 6t3 6q39 0 51 13t12 56v159q0 116 -92 116q-65 0 -121 -62v-213q0 -43 12 -56t51 -13q3 0 3 -6
t-3 -6q-11 0 -41.5 1t-49.5 1t-49.5 -1t-41.5 -1q-3 0 -3 6t3 6q39 0 51 13t12 56v517q0 36 -7 52t-25 16q-15 0 -46 -14q-2 -1 -4.5 1.5t-3 5.5t2.5 4l127 62h3q9 0 9 -8v-406q73 85 154 85q55 0 85 -31t30 -90v-194q0 -43 12 -56t51 -13z" />
    <glyph glyph-name="Hbar" unicode="&#x126;" horiz-adv-x="759" 
d="M722 12q3 0 3 -6t-3 -6q-14 0 -54 1t-64 1q-27 0 -67 -1t-54 -1q-3 0 -3 6t3 6q57 0 72.5 12.5t15.5 56.5v140h-384v-140q0 -44 15.5 -56.5t72.5 -12.5q2 0 2 -6t-2 -6q-15 0 -55 1t-66 1q-24 0 -64 -1t-55 -1q-2 0 -2 6t2 6q55 0 71.5 12.5t16.5 56.5v463q0 43 -16 56
t-71 13q-2 0 -2 6t2 6q15 0 55 -1.5t63 -1.5q27 0 67 1.5t54 1.5q2 0 2 -6t-2 -6q-55 0 -71.5 -13.5t-16.5 -57.5v-113h384v113q0 44 -16 57.5t-72 13.5q-3 0 -3 6t3 6q14 0 54 -1.5t67 -1.5q24 0 64 1.5t54 1.5q3 0 3 -6t-3 -6q-55 0 -71 -13t-16 -56v-463q0 -44 16 -56.5
t71 -12.5zM187 242h384v166h-384v-166z" />
    <glyph glyph-name="hbar" unicode="&#x127;" horiz-adv-x="499" 
d="M477 12q3 0 3 -6t-3 -6q-11 0 -41.5 1t-49.5 1t-49.5 -1t-41.5 -1q-3 0 -3 6t3 6q39 0 51 13t12 56v159q0 116 -92 116q-65 0 -121 -62v-213q0 -43 12 -56t51 -13q3 0 3 -6t-3 -6q-11 0 -41.5 1t-49.5 1t-49.5 -1t-41.5 -1q-3 0 -3 6t3 6q39 0 51 13t12 56v421h-77
q-5 0 -5 10t5 10h77v76q0 36 -7 52t-25 16q-15 0 -46 -14q-2 -1 -4.5 1.5t-3 5.5t2.5 4l127 62h3q9 0 9 -8v-195h159q4 0 4 -10t-4 -10h-159v-191q73 85 154 85q55 0 85 -31t30 -90v-194q0 -43 12 -56t51 -13z" />
    <glyph glyph-name="Itilde" unicode="&#x128;" horiz-adv-x="332" 
d="M40 697q-1 -1 -3 0t-3.5 3.5t-0.5 3.5q42 63 85 63q15 0 57 -12.5t68 -12.5q27 0 50 27q3 3 7 -4q1 -1 0 -3q-27 -37 -43.5 -49.5t-35.5 -12.5q-22 0 -63.5 12t-67.5 12q-7 0 -12.5 -1t-9.5 -2.5t-8.5 -5t-6.5 -5t-6.5 -6.5t-6.5 -7zM199 81q0 -44 15.5 -56.5t69.5 -12.5
q3 0 3 -6t-3 -6q-14 0 -53.5 1t-65.5 1q-24 0 -64 -1t-54 -1q-3 0 -3 6t3 6q55 0 70.5 12.5t15.5 56.5v463q0 43 -16 56t-70 13q-3 0 -3 6t3 6q14 0 54 -1.5t64 -1.5q26 0 66 1.5t53 1.5q3 0 3 -6t-3 -6q-53 0 -69 -14t-16 -57v-461z" />
    <glyph glyph-name="itilde" unicode="&#x129;" horiz-adv-x="273" 
d="M191 524q26 0 49 27q2 2 5.5 -1.5t1.5 -5.5q-26 -36 -43 -49t-35 -13q-14 0 -41 12.5t-44 12.5q-6 0 -10.5 -0.5t-9 -2.5t-7.5 -3.5t-6.5 -4.5t-5.5 -4.5t-6 -6t-5 -5.5q-3 -3 -7 4v3q47 61 85 61q10 0 36 -12t43 -12zM53 0q-2 0 -2 6t2 6q39 0 51.5 13t12.5 56v187
q0 36 -7.5 52t-25.5 16t-45 -14q-4 -1 -6.5 4.5t0.5 7.5l130 60l4 1q2 0 5 -2.5t3 -5.5t-0.5 -19.5t-1 -43.5t-0.5 -55v-188q0 -43 11.5 -56t51.5 -13q3 0 3 -6t-3 -6q-11 0 -41.5 1t-49.5 1t-50 -1t-42 -1z" />
    <glyph glyph-name="Imacron" unicode="&#x12a;" horiz-adv-x="332" 
d="M40 722q-6 0 -6 14t6 14h251q6 0 6 -14t-6 -14h-251zM199 81q0 -44 15.5 -56.5t69.5 -12.5q3 0 3 -6t-3 -6q-14 0 -53.5 1t-65.5 1q-24 0 -64 -1t-54 -1q-3 0 -3 6t3 6q55 0 70.5 12.5t15.5 56.5v463q0 43 -16 56t-70 13q-3 0 -3 6t3 6q14 0 54 -1.5t64 -1.5q26 0 66 1.5
t53 1.5q3 0 3 -6t-3 -6q-53 0 -69 -14t-16 -57v-461z" />
    <glyph glyph-name="imacron" unicode="&#x12b;" horiz-adv-x="273" 
d="M11 483q-6 0 -6 14t6 14h251q6 0 6 -14t-6 -14h-251zM53 0q-2 0 -2 6t2 6q39 0 51.5 13t12.5 56v187q0 36 -7.5 52t-25.5 16t-45 -14q-4 -1 -6.5 4.5t0.5 7.5l130 60l4 1q2 0 5 -2.5t3 -5.5t-0.5 -19.5t-1 -43.5t-0.5 -55v-188q0 -43 11.5 -56t51.5 -13q3 0 3 -6t-3 -6
q-11 0 -41.5 1t-49.5 1t-50 -1t-42 -1z" />
    <glyph glyph-name="Ibreve" unicode="&#x12c;" horiz-adv-x="332" 
d="M166 690q-42 0 -68.5 28t-34.5 79q-1 4 4 4.5t7 -1.5q7 -27 33.5 -47t58.5 -20q31 0 57.5 20t33.5 47q0 1 3 1.5t5.5 -1t2.5 -3.5q-16 -107 -102 -107zM199 81q0 -44 15.5 -56.5t69.5 -12.5q3 0 3 -6t-3 -6q-14 0 -53.5 1t-65.5 1q-24 0 -64 -1t-54 -1q-3 0 -3 6t3 6
q55 0 70.5 12.5t15.5 56.5v463q0 43 -16 56t-70 13q-3 0 -3 6t3 6q14 0 54 -1.5t64 -1.5q26 0 66 1.5t53 1.5q3 0 3 -6t-3 -6q-53 0 -69 -14t-16 -57v-461z" />
    <glyph glyph-name="ibreve" unicode="&#x12d;" horiz-adv-x="273" 
d="M34 623q0 2 3 3.5t5.5 1t2.5 -1.5q0 -44 26 -73.5t66 -29.5q38 0 64.5 30t26.5 73q0 1 3 1.5t5.5 -1t2.5 -3.5q0 -150 -102 -150q-103 0 -103 150zM53 0q-2 0 -2 6t2 6q39 0 51.5 13t12.5 56v187q0 36 -7.5 52t-25.5 16t-45 -14q-4 -1 -6.5 4.5t0.5 7.5l130 60l4 1
q2 0 5 -2.5t3 -5.5t-0.5 -19.5t-1 -43.5t-0.5 -55v-188q0 -43 11.5 -56t51.5 -13q3 0 3 -6t-3 -6q-11 0 -41.5 1t-49.5 1t-50 -1t-42 -1z" />
    <glyph glyph-name="Iogonek" unicode="&#x12e;" horiz-adv-x="332" 
d="M284 12q3 0 3 -6t-3 -6q-13 0 -49 1t-60 1q-49 -65 -49 -140q0 -48 22.5 -77t61.5 -29q24 0 52 22q2 2 5.5 -2t1.5 -6q-46 -45 -96 -45q-48 0 -75 26.5t-27 71.5q0 88 88 179q-23 0 -60.5 -1t-51.5 -1q-3 0 -3 6t3 6q55 0 70.5 12.5t15.5 56.5v463q0 43 -16 56t-70 13
q-3 0 -3 6t3 6q14 0 54 -1.5t64 -1.5q26 0 66 1.5t53 1.5q3 0 3 -6t-3 -6q-53 0 -69 -14t-16 -57v-461q0 -44 15.5 -56.5t69.5 -12.5z" />
    <glyph glyph-name="iogonek" unicode="&#x12f;" horiz-adv-x="273" 
d="M137 512q-44 0 -44 42t44 42q42 0 42 -42t-42 -42zM239 -215q2 2 5.5 -2t1.5 -6q-46 -45 -96 -45q-48 0 -75 26.5t-27 71.5q0 85 81 172q-58 -2 -76 -2q-2 0 -2 6t2 6q39 0 51.5 13t12.5 56v187q0 36 -7.5 52t-25.5 16t-45 -14q-4 -1 -6.5 4.5t0.5 7.5l130 60l4 1
q2 0 5 -2.5t3 -5.5t-0.5 -19.5t-1 -43.5t-0.5 -55v-188q0 -43 11.5 -56t51.5 -13q3 0 3 -6t-3 -6q-11 0 -41 1t-48 1q-44 -61 -44 -133q0 -48 22.5 -77t61.5 -29q24 0 52 22z" />
    <glyph glyph-name="Idotaccent" unicode="&#x130;" horiz-adv-x="332" 
d="M166 713q-44 0 -44 43q0 42 44 42q42 0 42 -42q0 -43 -42 -43zM199 81q0 -44 15.5 -56.5t69.5 -12.5q3 0 3 -6t-3 -6q-14 0 -53.5 1t-65.5 1q-24 0 -64 -1t-54 -1q-3 0 -3 6t3 6q55 0 70.5 12.5t15.5 56.5v463q0 43 -16 56t-70 13q-3 0 -3 6t3 6q14 0 54 -1.5t64 -1.5
q26 0 66 1.5t53 1.5q3 0 3 -6t-3 -6q-53 0 -69 -14t-16 -57v-461z" />
    <glyph glyph-name="dotlessi" unicode="&#x131;" horiz-adv-x="273" 
d="M53 0q-2 0 -2 6t2 6q39 0 51.5 13t12.5 56v187q0 36 -7.5 52t-25.5 16t-45 -14q-4 -1 -6.5 4.5t0.5 7.5l130 60l4 1q2 0 5 -2.5t3 -5.5t-0.5 -19.5t-1 -43.5t-0.5 -55v-188q0 -43 11.5 -56t51.5 -13q3 0 3 -6t-3 -6q-11 0 -41.5 1t-49.5 1t-50 -1t-42 -1z" />
    <glyph glyph-name="IJ" unicode="&#x132;" horiz-adv-x="690" 
d="M194 350q0 -44 15 -56.5t71 -12.5q2 0 2 -6t-2 -6q-15 0 -54.5 1t-65.5 1q-23 0 -63 -1t-55 -1q-2 0 -2 6t2 6q55 0 70.5 12.5t15.5 56.5v194q0 43 -16 56t-70 13q-2 0 -2 6t2 6q15 0 55 -1.5t63 -1.5q26 0 66.5 1.5t53.5 1.5q2 0 2 -6t-2 -6q-54 0 -70 -14t-16 -57v-192
zM656 625q3 0 3 -6t-3 -6q-46 0 -60 -13.5t-14 -57.5v-284q0 -129 -65.5 -200t-173.5 -71q-93 0 -158.5 47t-65.5 101q0 17 9 26.5t25 9.5q22 0 32 -17.5t15 -42.5t15 -49.5t40.5 -42t82.5 -17.5q179 0 179 198v344q0 43 -18 56t-80 13q-3 0 -3 6t3 6q18 0 61 -1.5t68 -1.5
q23 0 59.5 1.5t48.5 1.5z" />
    <glyph glyph-name="ij" unicode="&#x133;" horiz-adv-x="526" 
d="M137 512q-44 0 -44 42t44 42q42 0 42 -42t-42 -42zM397 512q-44 0 -44 42t44 42q42 0 42 -42t-42 -42zM53 0q-2 0 -2 6t2 6q39 0 51.5 13t12.5 56v187q0 36 -7.5 52t-25.5 16t-45 -14q-4 -1 -6.5 4.5t0.5 7.5l130 60l4 1q2 0 5 -2.5t3 -5.5t-0.5 -19.5t-1 -43.5t-0.5 -55
v-188q0 -43 11.5 -56t51.5 -13q3 0 3 -6t-3 -6q-11 0 -41.5 1t-49.5 1t-50 -1t-42 -1zM436 387q0 -3 -0.5 -19.5t-1 -43.5t-0.5 -55v-317q0 -100 -31 -151.5t-110 -82.5q-2 -1 -4.5 4.5t-0.5 6.5q49 21 69 67t20 133v339q0 68 -31 68q-18 0 -46 -14q-4 -1 -7 4.5t1 7.5
l130 60q2 1 3 1q9 0 9 -8z" />
    <glyph glyph-name="Jcircumflex" unicode="&#x134;" horiz-adv-x="322" 
d="M49 701l103 98q12 11 23 0l102 -98q2 -1 1.5 -3t-3 -3.5t-3.5 -0.5l-108 58l-109 -58q-1 0 -3 1t-3 3t0 3zM280 625q2 0 2 -6t-2 -6q-47 0 -60.5 -13.5t-13.5 -57.5v-570q0 -99 -46 -157.5t-133 -58.5q-34 0 -53.5 11.5t-19.5 31.5q0 15 9 24t25 9q25 0 43.5 -28
t37.5 -28q71 0 71 175v593q0 43 -18 56t-80 13q-2 0 -2 6t2 6q18 0 61.5 -1.5t68.5 -1.5q23 0 59 1.5t49 1.5z" />
    <glyph glyph-name="jcircumflex" unicode="&#x135;" horiz-adv-x="257" 
d="M207 476q1 -2 -2 -3q-7 -3 -8 1l-68 164l-69 -164q0 -2 -3 -2t-5.5 1.5t-2.5 2.5l68 249q1 5 11 5t12 -5zM167 387q0 -3 -0.5 -19.5t-1 -43.5t-0.5 -55v-317q0 -100 -31 -151.5t-110 -82.5q-2 -1 -4.5 4.5t-0.5 6.5q49 21 69 67t20 133v339q0 68 -31 68q-18 0 -46 -14
q-4 -1 -7 4.5t1 7.5l130 60q2 1 3 1q9 0 9 -8z" />
    <glyph glyph-name="Kcommaaccent" unicode="&#x136;" horiz-adv-x="650" 
d="M641 12q3 0 3 -6t-3 -6h-112q-39 0 -46 3q-10 5 -40 48q-35 49 -71 94l-153 193l-33 -32v-225q0 -44 15.5 -56.5t69.5 -12.5q3 0 3 -6t-3 -6q-14 0 -53.5 1t-64.5 1q-23 0 -63 -1t-55 -1q-2 0 -2 6t2 6q55 0 70.5 12.5t15.5 56.5v463q0 43 -15.5 56t-69.5 13q-2 0 -2 6
t2 6q15 0 54.5 -1.5t62.5 -1.5q25 0 65 1.5t53 1.5q3 0 3 -6t-3 -6q-53 0 -69 -14t-16 -57v-211l214 213q38 38 32 53.5t-58 15.5q-2 0 -2 6t2 6q14 0 50 -1.5t66 -1.5q29 0 62 1.5t44 1.5q3 0 3 -6t-3 -6q-97 0 -173 -75l-158 -155l144 -184q38 -49 64.5 -82t49.5 -53.5
t34.5 -31.5t30.5 -15t24 -4.5t29 -0.5zM337 -85q57 0 57 -73q0 -61 -61 -117q-4 -2 -7.5 1.5t-0.5 6.5q44 38 44 89q0 20 -6 29q-7 -15 -30 -15q-18 0 -28.5 11t-10.5 28q0 40 43 40z" />
    <glyph glyph-name="kcommaaccent" unicode="&#x137;" horiz-adv-x="491" 
d="M483 12q3 0 3 -6t-3 -6q-11 0 -41.5 1t-49.5 1q-28 0 -65 -1t-50 -1q-2 0 -2 6t2 6q36 0 46 9.5t-5 31.5l-123 167l-50 -39v-100q0 -43 12 -56t51 -13q3 0 3 -6t-3 -6q-11 0 -41.5 1t-49.5 1t-49.5 -1t-41.5 -1q-3 0 -3 6t3 6q39 0 51 13t12 56v517q0 36 -7 52t-25 16
q-15 0 -46 -14q-2 -1 -4.5 1.5t-3 5.5t2.5 4l125 61q3 1 5 1q9 0 9 -8v-520l134 108q39 31 31.5 50t-56.5 19q-3 0 -3 6t3 6q13 0 48.5 -1t65.5 -1q28 0 60 1t43 1q3 0 3 -6t-3 -6q-81 0 -172 -72l-58 -46l127 -175q50 -69 115 -69zM240 -85q57 0 57 -73q0 -61 -61 -117
q-4 -2 -7.5 1.5t-0.5 6.5q44 38 44 89q0 20 -6 29q-8 -15 -30 -15q-18 0 -28.5 11t-10.5 28q0 40 43 40z" />
    <glyph glyph-name="kgreenlandic" unicode="&#x138;" horiz-adv-x="509" 
d="M501 12q2 0 2 -6t-2 -6q-11 0 -42 1t-50 1q-28 0 -64.5 -1t-49.5 -1q-3 0 -3 6t3 6q35 0 45 9.5t-5 31.5l-122 168l-50 -40v-100q0 -43 11.5 -56t51.5 -13q3 0 3 -6t-3 -6q-11 0 -42 1t-50 1t-49.5 -1t-41.5 -1q-2 0 -2 6t2 6q39 0 51 13t12 56v198q0 34 -8 49t-27 15
q-16 0 -54 -15q-5 -2 -7 3.5t2 7.5l116 55q3 1 6 1q5 0 11.5 -9t12 -28.5t5.5 -44.5v-116l134 108q39 31 31.5 50t-56.5 19q-3 0 -3 6t3 6q13 0 48.5 -1t65.5 -1q28 0 60 1t43 1q2 0 2 -6t-2 -6q-82 0 -173 -72l-58 -46l127 -175q50 -69 116 -69z" />
    <glyph glyph-name="Lacute" unicode="&#x139;" horiz-adv-x="533" 
d="M61 679q-4 -2 -6 3t1 7q37 19 96.5 55t66.5 40q9 5 50 -15q17 -8 16 -12q0 -1 -2 -1q-108 -27 -222 -77zM185 543v-458q0 -41 14.5 -52.5t65.5 -11.5h109q57 0 91 35t45 97q0 2 3 2.5t5.5 -0.5t2.5 -3q-9 -83 -9 -137q0 -15 -15 -15h-462q-2 0 -2 6t2 6q54 0 69.5 12.5
t15.5 56.5v463q0 43 -15.5 56t-69.5 13q-2 0 -2 6t2 6q15 0 54 -1.5t63 -1.5q25 0 64.5 1.5t53.5 1.5q3 0 3 -6t-3 -6q-53 0 -69 -13.5t-16 -56.5z" />
    <glyph glyph-name="lacute" unicode="&#x13a;" horiz-adv-x="258" 
d="M29 728q-4 -2 -6 3t1 7q37 19 96.5 55t66.5 40q9 5 50 -15q17 -8 16 -12q0 -1 -2 -1q-108 -27 -222 -77zM40 0q-3 0 -3 6t3 6q39 0 51 13t12 56v517q0 36 -7 52t-25 16q-15 0 -46 -14q-2 -1 -4.5 1.5t-2.5 5.5t2 4l128 61q2 1 5 1t6 -2.5t3 -5.5v-636q0 -42 11.5 -55.5
t50.5 -13.5q3 0 3 -6t-3 -6q-10 0 -41 1t-51 1q-19 0 -50 -1t-42 -1z" />
    <glyph glyph-name="Lcommaaccent" unicode="&#x13b;" horiz-adv-x="533" 
d="M510 153q0 2 3 2.5t5.5 -0.5t2.5 -3q-9 -83 -9 -137q0 -15 -15 -15h-462q-2 0 -2 6t2 6q54 0 69.5 12.5t15.5 56.5v463q0 43 -15.5 56t-69.5 13q-2 0 -2 6t2 6q15 0 54 -1.5t63 -1.5q25 0 64.5 1.5t53.5 1.5q3 0 3 -6t-3 -6q-53 0 -69 -13.5t-16 -56.5v-458
q0 -41 14.5 -52.5t65.5 -11.5h109q57 0 91 35t45 97zM290 -85q57 0 57 -73q0 -61 -61 -117q-4 -2 -7.5 1.5t-0.5 6.5q44 38 44 89q0 20 -6 29q-8 -15 -30 -15q-18 0 -28.5 11t-10.5 28q0 40 43 40z" />
    <glyph glyph-name="lcommaaccent" unicode="&#x13c;" horiz-adv-x="258" 
d="M224 12q3 0 3 -6t-3 -6q-10 0 -41 1t-51 1q-19 0 -50 -1t-42 -1q-3 0 -3 6t3 6q39 0 51 13t12 56v517q0 36 -7 52t-25 16q-15 0 -46 -14q-2 -1 -4.5 1.5t-2.5 5.5t2 4l128 61q2 1 5 1t6 -2.5t3 -5.5v-636q0 -42 11.5 -55.5t50.5 -13.5zM125 -85q57 0 57 -73
q0 -61 -61 -117q-5 -3 -9 3q-1 3 1 5q44 38 44 89q0 20 -6 29q-7 -15 -30 -15q-18 0 -28.5 11t-10.5 28q0 40 43 40z" />
    <glyph glyph-name="Lcaron" unicode="&#x13d;" horiz-adv-x="533" 
d="M353 625q0 9 32 -11q20 -13 19 -19l-32 -243q0 -1 -3 -1.5t-5.5 0.5t-2.5 2zM185 543v-458q0 -41 14.5 -52.5t65.5 -11.5h109q57 0 91 35t45 97q0 2 3 2.5t5.5 -0.5t2.5 -3q-9 -83 -9 -137q0 -15 -15 -15h-462q-2 0 -2 6t2 6q54 0 69.5 12.5t15.5 56.5v463q0 43 -15.5 56
t-69.5 13q-2 0 -2 6t2 6q15 0 54 -1.5t63 -1.5q25 0 64.5 1.5t53.5 1.5q3 0 3 -6t-3 -6q-53 0 -69 -13.5t-16 -56.5z" />
    <glyph glyph-name="lcaron" unicode="&#x13e;" horiz-adv-x="258" 
d="M231 725q0 9 32 -11q20 -13 19 -19l-32 -243q0 -1 -3 -1.5t-5.5 0.5t-2.5 2zM40 0q-3 0 -3 6t3 6q39 0 51 13t12 56v517q0 36 -7 52t-25 16q-15 0 -46 -14q-2 -1 -4.5 1.5t-2.5 5.5t2 4l128 61q2 1 5 1t6 -2.5t3 -5.5v-636q0 -42 11.5 -55.5t50.5 -13.5q3 0 3 -6t-3 -6
q-10 0 -41 1t-51 1q-19 0 -50 -1t-42 -1z" />
    <glyph glyph-name="Ldot" unicode="&#x13f;" horiz-adv-x="533" 
d="M185 543v-458q0 -41 14.5 -52.5t65.5 -11.5h109q57 0 91 35t45 97q0 2 3 2.5t5.5 -0.5t2.5 -3q-9 -83 -9 -137q0 -15 -15 -15h-462q-2 0 -2 6t2 6q54 0 69.5 12.5t15.5 56.5v463q0 43 -15.5 56t-69.5 13q-2 0 -2 6t2 6q15 0 54 -1.5t63 -1.5q25 0 64.5 1.5t53.5 1.5
q3 0 3 -6t-3 -6q-53 0 -69 -13.5t-16 -56.5zM428 278q-20 0 -32 12t-12 31t12 30.5t32 11.5q44 0 44 -42q0 -20 -11.5 -31.5t-32.5 -11.5z" />
    <glyph glyph-name="ldot" unicode="&#x140;" horiz-adv-x="257" 
d="M40 0q-3 0 -3 6t3 6q39 0 51 13t12 56v517q0 36 -7 52t-25 16q-15 0 -46 -14q-2 -1 -4.5 1.5t-2.5 5.5t2 4l128 61q2 1 5 1t6 -2.5t3 -5.5v-636q0 -42 11.5 -55.5t50.5 -13.5q3 0 3 -6t-3 -6q-10 0 -41 1t-51 1q-19 0 -50 -1t-42 -1zM256 292q-20 0 -32 12t-12 31
t12 30.5t32 11.5q44 0 44 -42q0 -20 -11.5 -31.5t-32.5 -11.5z" />
    <glyph glyph-name="Lslash" unicode="&#x141;" horiz-adv-x="524" 
d="M510 153q0 2 3 2.5t5.5 -0.5t2.5 -3q-9 -83 -9 -137q0 -15 -15 -15h-462q-2 0 -2 6t2 6q54 0 69.5 12.5t15.5 56.5v183l-51 -29q-2 -1 -6 3t-5 8.5t0 6.5l62 36v255q0 43 -15.5 56t-69.5 13q-2 0 -2 6t2 6q15 0 54 -1.5t63 -1.5q25 0 64.5 1.5t53.5 1.5q3 0 3 -6t-3 -6
q-53 0 -69 -13.5t-16 -56.5v-217l107 61q2 1 5.5 -3t4.5 -8.5t-1 -6.5l-116 -67v-217q0 -41 14.5 -52.5t65.5 -11.5h109q57 0 91 35t45 97z" />
    <glyph glyph-name="lslash" unicode="&#x142;" horiz-adv-x="262" 
d="M223 413q2 1 6 -3.5t5.5 -9.5t-1.5 -7l-67 -39v-273q0 -42 11.5 -55.5t50.5 -13.5q3 0 3 -6t-3 -6q-10 0 -41 1t-51 1q-19 0 -50 -1t-42 -1q-3 0 -3 6t3 6q39 0 51 13t12 56v238l-57 -33q-2 -1 -6 3.5t-5.5 9t0.5 6.5l68 40v253q0 36 -7 52t-25 16q-15 0 -46 -14
q-2 -1 -4.5 1.5t-2.5 5.5t2 4l128 61q2 1 5 1q2 0 5.5 -2.5t3.5 -5.5v-337z" />
    <glyph glyph-name="Nacute" unicode="&#x143;" horiz-adv-x="727" 
d="M279 679q-4 -2 -6 3t1 7q37 19 96.5 55t66.5 40q9 5 50 -15q17 -8 16 -12q0 -1 -2 -1q-108 -27 -222 -77zM704 625q3 0 3 -6t-3 -6q-42 0 -61 -23t-19 -75v-527q0 -2 -5 -3t-7 1l-460 557q-3 4 -9 10v-444q0 -52 18.5 -74.5t59.5 -22.5q3 0 3 -6t-3 -6q-12 0 -41 1t-47 1
q-17 0 -48 -1t-44 -1q-2 0 -2 6t2 6q43 0 61 22.5t18 74.5v468q-39 36 -79 36q-3 0 -3 6t3 6q12 0 36 -1t34 -1q14 0 34 1t24 1q8 0 12 -4t14 -19t21 -29l385 -473v415q0 52 -17.5 75t-58.5 23q-2 0 -2 6t2 6q13 0 41.5 -1.5t46.5 -1.5q17 0 48 1.5t43 1.5z" />
    <glyph glyph-name="nacute" unicode="&#x144;" horiz-adv-x="517" 
d="M269 474q0 -2 -3 -2t-5.5 1.5t-2.5 2.5l52 240q3 9 43 14q19 2 18 -3zM495 12q3 0 3 -6t-3 -6q-10 0 -41 1t-49 1q-19 0 -50 -1t-41 -1q-3 0 -3 6t3 6q39 0 50.5 13t11.5 56v162q0 59 -22.5 87t-69.5 28q-64 0 -120 -62v-215q0 -43 11.5 -56t50.5 -13q3 0 3 -6t-3 -6
q-10 0 -41 1t-49 1q-19 0 -50 -1t-41 -1q-3 0 -3 6t3 6q39 0 50.5 13t11.5 56v198q0 34 -8 49t-27 15q-16 0 -54 -15q-5 -2 -7 3.5t2 7.5l116 55q2 1 6 1q5 0 11.5 -9t12 -28.5t5.5 -44.5q74 86 153 86q56 0 86 -31t30 -91v-196q0 -43 11.5 -56t50.5 -13z" />
    <glyph glyph-name="Ncommaaccent" unicode="&#x145;" horiz-adv-x="727" 
d="M704 625q3 0 3 -6t-3 -6q-42 0 -61 -23t-19 -75v-527q0 -2 -5 -3t-7 1l-460 557q-3 4 -9 10v-444q0 -52 18.5 -74.5t59.5 -22.5q3 0 3 -6t-3 -6q-12 0 -41 1t-47 1q-17 0 -48 -1t-44 -1q-2 0 -2 6t2 6q43 0 61 22.5t18 74.5v468q-39 36 -79 36q-3 0 -3 6t3 6q12 0 36 -1
t34 -1q14 0 34 1t24 1q8 0 12 -4t14 -19t21 -29l385 -473v415q0 52 -17.5 75t-58.5 23q-2 0 -2 6t2 6q13 0 41.5 -1.5t46.5 -1.5q17 0 48 1.5t43 1.5zM367 -85q57 0 57 -73q0 -61 -61 -117q-4 -2 -7.5 1.5t-0.5 6.5q44 38 44 89q0 20 -6 29q-7 -15 -30 -15q-18 0 -28.5 11
t-10.5 28q0 40 43 40z" />
    <glyph glyph-name="ncommaaccent" unicode="&#x146;" horiz-adv-x="517" 
d="M495 12q3 0 3 -6t-3 -6q-10 0 -41 1t-49 1q-19 0 -50 -1t-41 -1q-3 0 -3 6t3 6q39 0 50.5 13t11.5 56v162q0 59 -22.5 87t-69.5 28q-64 0 -120 -62v-215q0 -43 11.5 -56t50.5 -13q3 0 3 -6t-3 -6q-10 0 -41 1t-49 1q-19 0 -50 -1t-41 -1q-3 0 -3 6t3 6q39 0 50.5 13
t11.5 56v198q0 34 -8 49t-27 15q-16 0 -54 -15q-5 -2 -7 3.5t2 7.5l116 55q2 1 6 1q5 0 11.5 -9t12 -28.5t5.5 -44.5q74 86 153 86q56 0 86 -31t30 -91v-196q0 -43 11.5 -56t50.5 -13zM251 -85q57 0 57 -73q0 -61 -61 -117q-4 -2 -7.5 1.5t-0.5 6.5q44 38 44 89q0 20 -6 29
q-7 -15 -30 -15q-18 0 -28.5 11t-10.5 28q0 40 43 40z" />
    <glyph glyph-name="Ncaron" unicode="&#x147;" horiz-adv-x="727" 
d="M261 784q-1 1 0 3t3 3t3 1l109 -57l108 57q1 1 3.5 -0.5t3 -3.5t-1.5 -3l-102 -97q-11 -11 -23 0zM704 625q3 0 3 -6t-3 -6q-42 0 -61 -23t-19 -75v-527q0 -2 -5 -3t-7 1l-460 557q-3 4 -9 10v-444q0 -52 18.5 -74.5t59.5 -22.5q3 0 3 -6t-3 -6q-12 0 -41 1t-47 1
q-17 0 -48 -1t-44 -1q-2 0 -2 6t2 6q43 0 61 22.5t18 74.5v468q-39 36 -79 36q-3 0 -3 6t3 6q12 0 36 -1t34 -1q14 0 34 1t24 1q8 0 12 -4t14 -19t21 -29l385 -473v415q0 52 -17.5 75t-58.5 23q-2 0 -2 6t2 6q13 0 41.5 -1.5t46.5 -1.5q17 0 48 1.5t43 1.5z" />
    <glyph glyph-name="ncaron" unicode="&#x148;" horiz-adv-x="517" 
d="M259 477l-68 249q0 2 2.5 3.5t5.5 1t3 -1.5l69 -165l68 165q0 1 3 1.5t5.5 -1t1.5 -3.5l-67 -249q-2 -5 -11.5 -5t-11.5 5zM495 12q3 0 3 -6t-3 -6q-10 0 -41 1t-49 1q-19 0 -50 -1t-41 -1q-3 0 -3 6t3 6q39 0 50.5 13t11.5 56v162q0 59 -22.5 87t-69.5 28
q-64 0 -120 -62v-215q0 -43 11.5 -56t50.5 -13q3 0 3 -6t-3 -6q-10 0 -41 1t-49 1q-19 0 -50 -1t-41 -1q-3 0 -3 6t3 6q39 0 50.5 13t11.5 56v198q0 34 -8 49t-27 15q-16 0 -54 -15q-5 -2 -7 3.5t2 7.5l116 55q2 1 6 1q5 0 11.5 -9t12 -28.5t5.5 -44.5q74 86 153 86
q56 0 86 -31t30 -91v-196q0 -43 11.5 -56t50.5 -13z" />
    <glyph glyph-name="napostrophe" unicode="&#x149;" horiz-adv-x="517" 
d="M81 561q-19 0 -29.5 10.5t-10.5 28.5q0 40 46 40q64 0 64 -87q0 -84 -75 -165q-4 -3 -7 0.5t-1 6.5q38 52 38 122q0 25 -9 47q-8 -3 -16 -3zM495 12q3 0 3 -6t-3 -6q-10 0 -41 1t-49 1q-19 0 -50 -1t-41 -1q-3 0 -3 6t3 6q39 0 50.5 13t11.5 56v162q0 59 -22.5 87
t-69.5 28q-64 0 -120 -62v-215q0 -43 11.5 -56t50.5 -13q3 0 3 -6t-3 -6q-10 0 -41 1t-49 1q-19 0 -50 -1t-41 -1q-3 0 -3 6t3 6q39 0 50.5 13t11.5 56v198q0 34 -8 49t-27 15q-16 0 -54 -15q-5 -2 -7 3.5t2 7.5l116 55q2 1 6 1q5 0 11.5 -9t12 -28.5t5.5 -44.5
q74 86 153 86q56 0 86 -31t30 -91v-196q0 -43 11.5 -56t50.5 -13z" />
    <glyph glyph-name="Eng" unicode="&#x14a;" horiz-adv-x="727" 
d="M704 625q3 0 3 -6t-3 -6q-42 0 -61 -23t-19 -75v-527q0 -87 -32.5 -133t-94.5 -46q-37 0 -59.5 16.5t-22.5 40.5q0 36 32 36q17 0 26 -11.5t11.5 -25t11.5 -25t26 -11.5q38 0 59 43t21 114v12l-450 545q-3 4 -9 10v-444q0 -52 18.5 -74.5t59.5 -22.5q3 0 3 -6t-3 -6
q-12 0 -41 1t-47 1q-17 0 -48 -1t-44 -1q-2 0 -2 6t2 6q43 0 61.5 22.5t18.5 74.5v467q-41 37 -80 37q-3 0 -3 6t3 6q12 0 36 -1t34 -1q14 0 34 1t24 1q8 0 12 -4t14 -19t21 -29l386 -474v416q0 52 -18 75t-59 23q-2 0 -2 6t2 6q13 0 41.5 -1.5t46.5 -1.5q17 0 48 1.5
t43 1.5z" />
    <glyph glyph-name="eng" unicode="&#x14b;" horiz-adv-x="504" 
d="M317 399q55 0 85 -31t30 -91v-325q0 -100 -30.5 -148.5t-110.5 -79.5q-2 -1 -4.5 4.5t0.5 6.5q49 21 68.5 64.5t19.5 129.5v314q0 59 -22.5 87t-69.5 28q-64 0 -120 -62v-215q0 -43 11.5 -56t51.5 -13q3 0 3 -6t-3 -6q-11 0 -42 1t-50 1t-49.5 -1t-41.5 -1q-2 0 -2 6t2 6
q39 0 51 13t12 56v198q0 34 -8 49t-27 15q-16 0 -54 -15q-5 -2 -7 3.5t2 7.5l116 55q3 1 6 1q5 0 11.5 -9t12 -28.5t5.5 -43.5q75 85 154 85z" />
    <glyph glyph-name="Omacron" unicode="&#x14c;" horiz-adv-x="766" 
d="M259 722q-6 0 -6 14t6 14h251q6 0 6 -14t-6 -14h-251zM366 -12q-141 0 -229 94t-88 230q0 78 32 141.5t83.5 102.5t112.5 59.5t124 20.5q142 0 229 -95t87 -222q0 -138 -103.5 -234.5t-247.5 -96.5zM401 9q104 0 172 75t68 207q0 143 -77 232.5t-205 89.5
q-110 0 -172 -71t-62 -195q0 -144 77.5 -241t198.5 -97z" />
    <glyph glyph-name="omacron" unicode="&#x14d;" horiz-adv-x="479" 
d="M114 483q-6 0 -6 14t6 14h251q6 0 6 -14t-6 -14h-251zM231 -13q-87 0 -141 61.5t-54 149.5q0 96 65.5 148.5t147.5 52.5q87 0 140.5 -61.5t53.5 -144.5q0 -92 -61.5 -149t-150.5 -57zM260 6q115 0 115 159q0 94 -44.5 154.5t-114.5 60.5q-54 0 -83.5 -39t-29.5 -112
q0 -94 44 -158.5t113 -64.5z" />
    <glyph glyph-name="Obreve" unicode="&#x14e;" horiz-adv-x="766" 
d="M385 690q-42 0 -68.5 28t-34.5 79q-1 4 4 4.5t7 -1.5q7 -27 33.5 -47t58.5 -20q31 0 57.5 20t33.5 47q0 1 3 1.5t5.5 -1t2.5 -3.5q-16 -107 -102 -107zM366 -12q-141 0 -229 94t-88 230q0 78 32 141.5t83.5 102.5t112.5 59.5t124 20.5q142 0 229 -95t87 -222
q0 -138 -103.5 -234.5t-247.5 -96.5zM401 9q104 0 172 75t68 207q0 143 -77 232.5t-205 89.5q-110 0 -172 -71t-62 -195q0 -144 77.5 -241t198.5 -97z" />
    <glyph glyph-name="obreve" unicode="&#x14f;" horiz-adv-x="479" 
d="M137 623q0 2 2.5 3.5t5.5 1t3 -1.5q0 -44 26 -73.5t66 -29.5q38 0 64.5 30t26.5 73q0 1 2.5 1.5t5.5 -1t3 -3.5q0 -150 -102 -150q-103 0 -103 150zM231 -13q-87 0 -141 61.5t-54 149.5q0 96 65.5 148.5t147.5 52.5q87 0 140.5 -61.5t53.5 -144.5q0 -92 -61.5 -149
t-150.5 -57zM260 6q115 0 115 159q0 94 -44.5 154.5t-114.5 60.5q-54 0 -83.5 -39t-29.5 -112q0 -94 44 -158.5t113 -64.5z" />
    <glyph glyph-name="Ohungarumlaut" unicode="&#x150;" horiz-adv-x="766" 
d="M280 677q-5 -4 -7 4q-1 4 1 6q48 45 90 95q7 8 48 -9q18 -10 17 -15q-71 -29 -149 -81zM404 677q-5 -4 -7 4q-1 4 1 6q48 45 90 95q7 8 46 -9q18 -10 17 -15q-66 -27 -147 -81zM366 -12q-141 0 -229 94t-88 230q0 78 32 141.5t83.5 102.5t112.5 59.5t124 20.5
q142 0 229 -95t87 -222q0 -138 -103.5 -234.5t-247.5 -96.5zM401 9q104 0 172 75t68 207q0 143 -77 232.5t-205 89.5q-110 0 -172 -71t-62 -195q0 -144 77.5 -241t198.5 -97z" />
    <glyph glyph-name="ohungarumlaut" unicode="&#x151;" horiz-adv-x="479" 
d="M148 459q-4 -2 -6.5 3t0.5 7q18 17 46.5 52.5t41.5 48.5q8 7 54 -10q18 -8 17 -12q-61 -24 -153 -89zM270 459q-4 -2 -6.5 3t0.5 7q18 17 46.5 52.5t41.5 48.5q8 7 53 -10q21 -7 19 -11l-2 -1q-60 -24 -152 -89zM231 -13q-87 0 -141 61.5t-54 149.5q0 96 65.5 148.5
t147.5 52.5q87 0 140.5 -61.5t53.5 -144.5q0 -92 -61.5 -149t-150.5 -57zM260 6q115 0 115 159q0 94 -44.5 154.5t-114.5 60.5q-54 0 -83.5 -39t-29.5 -112q0 -94 44 -158.5t113 -64.5z" />
    <glyph glyph-name="OE" unicode="&#x152;" horiz-adv-x="914" 
d="M853 148q0 2 2.5 2.5t5.5 -0.5t3 -3q-9 -79 -9 -132q0 -15 -15 -15h-298q-22 0 -71.5 -2t-72.5 -2q-153 0 -251 87.5t-98 217.5q0 146 100 236t244 90q19 0 71 -1t76 -1h282q10 0 10 -9l2 -123q0 -2 -3 -3t-6 -0.5t-3 2.5q-2 47 -32 79.5t-75 32.5h-64q-50 0 -65 -11.5
t-15 -49.5v-207h122q49 0 69.5 16t20.5 54q0 2 5.5 2t5.5 -2q0 -22 -0.5 -46t-0.5 -35q0 -15 1 -45t1 -47q0 -2 -5.5 -2t-5.5 2q0 44 -21.5 63t-72.5 19h-119v-230q0 -39 15 -51.5t63 -12.5h83q43 0 77 36t44 91zM506 82v452q0 43 -21 60.5t-82 17.5q-124 0 -201 -76
t-77 -213q0 -134 74.5 -223t197.5 -89q64 0 86.5 13.5t22.5 57.5z" />
    <glyph glyph-name="oe" unicode="&#x153;" horiz-adv-x="685" 
d="M647 56q3 2 6.5 -2.5t0.5 -7.5q-64 -58 -136 -58q-112 0 -160 83q-52 -84 -150 -84q-80 0 -131.5 62t-51.5 149q0 96 62.5 148.5t139.5 52.5q104 0 148 -96q64 92 171 92q50 0 77.5 -26.5t27.5 -72.5q0 -23 -12 -23h-48l-189 -2q-7 -27 -7 -64q0 -85 43 -134.5t114 -49.5
q56 0 95 33zM235 5q46 0 72.5 43t26.5 122q0 95 -38.5 152.5t-101.5 57.5q-48 0 -76 -39.5t-28 -113.5q0 -92 41.5 -157t103.5 -65zM512 375q-39 0 -66.5 -24t-39.5 -66l175 4q0 41 -19 63.5t-50 22.5z" />
    <glyph glyph-name="Racute" unicode="&#x154;" horiz-adv-x="673" 
d="M160 679q-4 -2 -6 3t1 7q37 19 96.5 55t66.5 40q9 5 50 -15q17 -8 16 -12q0 -1 -2 -1q-108 -27 -222 -77zM683 12q2 0 2 -6t-2 -6h-129q-52 0 -260 324q-24 -7 -54 -7q-19 0 -45 2v-238q0 -44 15 -56.5t70 -12.5q3 0 3 -6t-3 -6q-15 0 -54 1t-64 1q-23 0 -63.5 -1
t-55.5 -1q-2 0 -2 6t2 6q55 0 71.5 13t16.5 56v463q0 43 -16 56t-70 13q-3 0 -3 6t3 6q15 0 54 -1.5t63 -1.5q18 0 61 3t59 3q81 0 125 -33t44 -92q0 -48 -28 -90.5t-74 -67.5q125 -187 198 -260t136 -73zM195 344q25 -4 59 -4q69 0 99 29.5t30 98.5q0 145 -122 145
q-40 0 -53 -12t-13 -59v-198z" />
    <glyph glyph-name="racute" unicode="&#x155;" horiz-adv-x="364" 
d="M183 474q0 -2 -3 -2t-5.5 1.5t-2.5 2.5l52 240q3 9 43 14q19 2 18 -3zM275 395q22 0 42 -12t20 -29q0 -13 -8.5 -22t-24.5 -9q-13 0 -31.5 15t-35.5 15q-13 0 -27.5 -10.5t-45.5 -46.5v-215q0 -43 18 -56t79 -13q4 0 4 -6t-4 -6q-14 0 -57 1t-68 1q-19 0 -50 -1t-41 -1
q-3 0 -3 6t3 6q39 0 50.5 13t11.5 56v198q0 34 -8 49t-27 15q-16 0 -54 -15q-5 -2 -7 3.5t2 7.5l116 55q2 1 6 1q5 0 11.5 -9t12 -28.5t5.5 -44.5v-1q41 48 65 65.5t46 17.5z" />
    <glyph glyph-name="Rcommaaccent" unicode="&#x156;" horiz-adv-x="673" 
d="M683 12q2 0 2 -6t-2 -6h-129q-52 0 -260 324q-24 -7 -54 -7q-19 0 -45 2v-238q0 -44 15 -56.5t70 -12.5q3 0 3 -6t-3 -6q-15 0 -54 1t-64 1q-23 0 -63.5 -1t-55.5 -1q-2 0 -2 6t2 6q55 0 71.5 13t16.5 56v463q0 43 -16 56t-70 13q-3 0 -3 6t3 6q15 0 54 -1.5t63 -1.5
q18 0 61 3t59 3q81 0 125 -33t44 -92q0 -48 -28 -90.5t-74 -67.5q125 -187 198 -260t136 -73zM195 344q25 -4 59 -4q69 0 99 29.5t30 98.5q0 145 -122 145q-40 0 -53 -12t-13 -59v-198zM334 -85q57 0 57 -73q0 -61 -61 -117q-4 -2 -7.5 1.5t-0.5 6.5q44 38 44 89q0 20 -6 29
q-8 -15 -30 -15q-18 0 -28.5 11t-10.5 28q0 40 43 40z" />
    <glyph glyph-name="rcommaaccent" unicode="&#x157;" horiz-adv-x="364" 
d="M275 395q22 0 42 -12t20 -29q0 -13 -8.5 -22t-24.5 -9q-13 0 -31.5 15t-35.5 15q-13 0 -27.5 -10.5t-45.5 -46.5v-215q0 -43 18 -56t79 -13q4 0 4 -6t-4 -6q-14 0 -57 1t-68 1q-19 0 -50 -1t-41 -1q-3 0 -3 6t3 6q39 0 50.5 13t11.5 56v198q0 34 -8 49t-27 15
q-16 0 -54 -15q-5 -2 -7 3.5t2 7.5l116 55q2 1 6 1q5 0 11.5 -9t12 -28.5t5.5 -44.5v-1q41 48 65 65.5t46 17.5zM147 -85q57 0 57 -73q0 -61 -61 -117q-4 -2 -7.5 1.5t-0.5 6.5q44 38 44 89q0 20 -6 29q-7 -15 -30 -15q-18 0 -28.5 11t-10.5 28q0 40 43 40z" />
    <glyph glyph-name="Rcaron" unicode="&#x158;" horiz-adv-x="673" 
d="M142 784q-1 1 0 3t3 3t3 1l109 -57l108 57q1 1 3.5 -0.5t3 -3.5t-1.5 -3l-102 -97q-12 -11 -23 0zM683 12q2 0 2 -6t-2 -6h-129q-52 0 -260 324q-24 -7 -54 -7q-19 0 -45 2v-238q0 -44 15 -56.5t70 -12.5q3 0 3 -6t-3 -6q-15 0 -54 1t-64 1q-23 0 -63.5 -1t-55.5 -1
q-2 0 -2 6t2 6q55 0 71.5 13t16.5 56v463q0 43 -16 56t-70 13q-3 0 -3 6t3 6q15 0 54 -1.5t63 -1.5q18 0 61 3t59 3q81 0 125 -33t44 -92q0 -48 -28 -90.5t-74 -67.5q125 -187 198 -260t136 -73zM195 344q25 -4 59 -4q69 0 99 29.5t30 98.5q0 145 -122 145q-40 0 -53 -12
t-13 -59v-198z" />
    <glyph glyph-name="rcaron" unicode="&#x159;" horiz-adv-x="364" 
d="M173 477l-68 249q0 2 2.5 3.5t5.5 1t3 -1.5l69 -165l68 165q0 1 3 1.5t5.5 -1t1.5 -3.5l-67 -249q-2 -5 -11.5 -5t-11.5 5zM275 395q22 0 42 -12t20 -29q0 -13 -8.5 -22t-24.5 -9q-13 0 -31.5 15t-35.5 15q-13 0 -27.5 -10.5t-45.5 -46.5v-215q0 -43 18 -56t79 -13
q4 0 4 -6t-4 -6q-14 0 -57 1t-68 1q-19 0 -50 -1t-41 -1q-3 0 -3 6t3 6q39 0 50.5 13t11.5 56v198q0 34 -8 49t-27 15q-16 0 -54 -15q-5 -2 -7 3.5t2 7.5l116 55q2 1 6 1q5 0 11.5 -9t12 -28.5t5.5 -44.5v-1q41 48 65 65.5t46 17.5z" />
    <glyph glyph-name="Sacute" unicode="&#x15a;" horiz-adv-x="491" 
d="M158 679q-4 -2 -6 3t1 7q37 19 96.5 55t66.5 40q9 5 50 -15q17 -8 16 -12q0 -1 -2 -1q-108 -27 -222 -77zM145 508q0 -24 9 -45.5t19 -35.5t34 -32.5t36 -26t43 -26.5q32 -19 45 -27t38.5 -28t36.5 -35.5t21 -40t10 -52.5q0 -74 -54.5 -122.5t-151.5 -48.5q-77 0 -141 35
q-7 4 -9 19l-13 136q-1 4 4.5 5t6.5 -3q16 -72 59.5 -124t115.5 -52q50 0 84.5 27.5t34.5 87.5q0 35 -11 62.5t-36 50.5t-43.5 35.5t-55.5 34.5q-36 22 -53 34t-42 35t-35.5 49.5t-10.5 59.5q0 74 55.5 115t130.5 41q58 0 117 -24q15 -5 15 -17l7 -115q0 -2 -2.5 -3.5
t-5.5 -0.5t-3 4q-3 22 -12.5 44.5t-25.5 45.5t-43.5 37t-62.5 14q-56 0 -83.5 -32.5t-27.5 -80.5z" />
    <glyph glyph-name="sacute" unicode="&#x15b;" horiz-adv-x="338" 
d="M170 474q0 -2 -3 -2t-5.5 1.5t-2.5 2.5l52 240q3 9 43 14q19 2 18 -3zM100 325q0 -19 7 -34t22.5 -27t27.5 -19.5t34 -18.5q27 -14 38.5 -21t30 -21.5t26 -32.5t7.5 -41q0 -51 -38 -86t-103 -35q-53 0 -96 30q-6 4 -6 12l-2 78q0 3 5.5 3.5t6.5 -2.5q38 -102 120 -102
q69 0 66 63q-1 20 -8 36t-22.5 28.5t-27.5 19t-34 17.5q-25 12 -37.5 19.5t-29.5 21.5t-24.5 32t-7.5 42q0 54 40.5 82.5t95.5 28.5q40 0 73 -15q9 -3 9 -11q0 -10 -1 -34t-1 -39q0 -2 -6 -2t-6 2q0 32 -33.5 56t-70.5 24q-55 0 -55 -54z" />
    <glyph glyph-name="Scircumflex" unicode="&#x15c;" horiz-adv-x="491" 
d="M141 692l103 98q4 4 11 4t12 -4l102 -98q2 -1 1.5 -3t-3 -3.5t-3.5 -0.5l-108 58l-109 -58q-1 0 -3 1t-3 3t0 3zM145 508q0 -24 9 -45.5t19 -35.5t34 -32.5t36 -26t43 -26.5q32 -19 45 -27t38.5 -28t36.5 -35.5t21 -40t10 -52.5q0 -74 -54.5 -122.5t-151.5 -48.5
q-77 0 -141 35q-7 4 -9 19l-13 136q-1 4 4.5 5t6.5 -3q16 -72 59.5 -124t115.5 -52q50 0 84.5 27.5t34.5 87.5q0 35 -11 62.5t-36 50.5t-43.5 35.5t-55.5 34.5q-36 22 -53 34t-42 35t-35.5 49.5t-10.5 59.5q0 74 55.5 115t130.5 41q58 0 117 -24q15 -5 15 -17l7 -115
q0 -2 -2.5 -3.5t-5.5 -0.5t-3 4q-3 22 -12.5 44.5t-25.5 45.5t-43.5 37t-62.5 14q-56 0 -83.5 -32.5t-27.5 -80.5z" />
    <glyph glyph-name="scircumflex" unicode="&#x15d;" horiz-adv-x="338" 
d="M251 476q1 -2 -2 -3q-7 -3 -8 1l-68 164l-69 -164q0 -2 -3 -2t-5.5 1.5t-2.5 2.5l68 249q1 5 11 5t12 -5zM100 325q0 -19 7 -34t22.5 -27t27.5 -19.5t34 -18.5q27 -14 38.5 -21t30 -21.5t26 -32.5t7.5 -41q0 -51 -38 -86t-103 -35q-53 0 -96 30q-6 4 -6 12l-2 78
q0 3 5.5 3.5t6.5 -2.5q38 -102 120 -102q69 0 66 63q-1 20 -8 36t-22.5 28.5t-27.5 19t-34 17.5q-25 12 -37.5 19.5t-29.5 21.5t-24.5 32t-7.5 42q0 54 40.5 82.5t95.5 28.5q40 0 73 -15q9 -3 9 -11q0 -10 -1 -34t-1 -39q0 -2 -6 -2t-6 2q0 32 -33.5 56t-70.5 24
q-55 0 -55 -54z" />
    <glyph glyph-name="Scedilla" unicode="&#x15e;" horiz-adv-x="491" 
d="M437 159q0 -68 -46.5 -115t-130.5 -55q-13 -47 -8 -58.5t42 -32.5q54 -31 54 -77q0 -37 -26.5 -66.5t-77.5 -29.5q-28 0 -46 10t-18 28q0 13 9 21.5t21 8.5q17 0 30 -24t36 -24q34 0 34 38q0 26 -18.5 46.5t-67.5 46.5q-9 5 -12 8t-2.5 7t5.5 15q13 31 31 82h-15
q-77 0 -141 35q-7 4 -9 19l-13 136q-1 4 4.5 5t6.5 -3q16 -72 59.5 -124t115.5 -52q50 0 84.5 27.5t34.5 87.5q0 35 -11 62.5t-36 50.5t-43.5 35.5t-55.5 34.5q-36 22 -53 34t-42 35t-35.5 49.5t-10.5 59.5q0 74 55.5 115t130.5 41q58 0 117 -24q15 -5 15 -17l7 -115
q0 -2 -2.5 -3.5t-5.5 -0.5t-3 4q-3 22 -12.5 44.5t-25.5 45.5t-43.5 37t-62.5 14q-56 0 -83.5 -32.5t-27.5 -80.5q0 -24 9 -45.5t19 -35.5t34 -32.5t36 -26t43 -26.5q32 -19 45 -27t38.5 -28t36.5 -35.5t21 -40t10 -52.5z" />
    <glyph glyph-name="scedilla" unicode="&#x15f;" horiz-adv-x="338" 
d="M293 110q0 -47 -32.5 -81t-90.5 -39q-13 -48 -8 -59.5t42 -32.5q54 -31 54 -77q0 -37 -26.5 -66.5t-77.5 -29.5q-28 0 -46 10t-18 28q0 13 9 21.5t21 8.5q17 0 30 -24t36 -24q34 0 34 38q0 26 -18.5 46.5t-67.5 46.5q-9 5 -12 8t-2.5 7t5.5 15q13 33 31 83h-4
q-53 0 -96 30q-6 4 -6 12l-2 78q0 3 5.5 3.5t6.5 -2.5q38 -102 120 -102q69 0 66 63q-1 20 -8 36t-22.5 28.5t-27.5 19t-34 17.5q-25 12 -37.5 19.5t-29.5 21.5t-24.5 32t-7.5 42q0 54 40.5 82.5t95.5 28.5q40 0 73 -15q9 -3 9 -11q0 -10 -1 -34t-1 -39q0 -2 -6 -2t-6 2
q0 32 -33.5 56t-70.5 24q-55 0 -55 -54q0 -19 7 -34t22.5 -27t27.5 -19.5t34 -18.5q27 -14 38.5 -21t30 -21.5t26 -32.5t7.5 -41z" />
    <glyph glyph-name="Scaron" unicode="&#x160;" horiz-adv-x="491" 
d="M243 687l-103 97q-1 1 0 3t3 3t3 1l109 -57l108 57q1 1 3.5 -0.5t3 -3.5t-1.5 -3l-102 -97q-12 -11 -23 0zM145 508q0 -24 9 -45.5t19 -35.5t34 -32.5t36 -26t43 -26.5q32 -19 45 -27t38.5 -28t36.5 -35.5t21 -40t10 -52.5q0 -74 -54.5 -122.5t-151.5 -48.5
q-77 0 -141 35q-7 4 -9 19l-13 136q-1 4 4.5 5t6.5 -3q16 -72 59.5 -124t115.5 -52q50 0 84.5 27.5t34.5 87.5q0 35 -11 62.5t-36 50.5t-43.5 35.5t-55.5 34.5q-36 22 -53 34t-42 35t-35.5 49.5t-10.5 59.5q0 74 55.5 115t130.5 41q58 0 117 -24q15 -5 15 -17l7 -115
q0 -2 -2.5 -3.5t-5.5 -0.5t-3 4q-3 22 -12.5 44.5t-25.5 45.5t-43.5 37t-62.5 14q-56 0 -83.5 -32.5t-27.5 -80.5z" />
    <glyph glyph-name="scaron" unicode="&#x161;" horiz-adv-x="338" 
d="M92 726q0 2 2.5 3.5t5.5 1t3 -1.5l69 -165l68 165q0 1 3 1.5t5.5 -1t1.5 -3.5l-67 -249q-1 -5 -11 -5t-12 5zM100 325q0 -19 7 -34t22.5 -27t27.5 -19.5t34 -18.5q27 -14 38.5 -21t30 -21.5t26 -32.5t7.5 -41q0 -51 -38 -86t-103 -35q-53 0 -96 30q-6 4 -6 12l-2 78
q0 3 5.5 3.5t6.5 -2.5q38 -102 120 -102q69 0 66 63q-1 20 -8 36t-22.5 28.5t-27.5 19t-34 17.5q-25 12 -37.5 19.5t-29.5 21.5t-24.5 32t-7.5 42q0 54 40.5 82.5t95.5 28.5q40 0 73 -15q9 -3 9 -11q0 -10 -1 -34t-1 -39q0 -2 -6 -2t-6 2q0 32 -33.5 56t-70.5 24
q-55 0 -55 -54z" />
    <glyph glyph-name="uni0162" unicode="&#x162;" horiz-adv-x="634" 
d="M587 650q1 4 6 4t5 -4q-9 -90 -9 -184q0 -2 -6 -2t-6 2q-3 78 -32 109.5t-96 31.5q-64 0 -80.5 -10.5t-16.5 -54.5v-461q0 -44 17.5 -56.5t79.5 -12.5q3 0 3 -6t-3 -6q-15 0 -57 1t-69 1q-16 -51 -11.5 -67.5t39.5 -36.5q54 -31 54 -77q0 -37 -26.5 -66.5t-77.5 -29.5
q-28 0 -46 10t-18 28q0 13 9 21.5t21 8.5q17 0 30 -24t36 -24q34 0 34 38q0 26 -18.5 46.5t-67.5 46.5q-9 5 -12 8t-2.5 7t5.5 15q9 22 37 96q-25 0 -65 -1t-56 -1q-2 0 -2 6t2 6q62 0 80 12.5t18 56.5v463q0 44 -16.5 53.5t-80.5 9.5q-63 0 -94.5 -32t-45.5 -109
q0 -2 -5.5 -2t-5.5 2q14 119 14 181q0 5 5.5 5t5.5 -5q0 -22 54 -22q85 -3 201 -3q52 0 112 1.5t81 1.5q68 0 76 25z" />
    <glyph glyph-name="uni0163" unicode="&#x163;" horiz-adv-x="338" 
d="M309 51q4 2 7.5 -2.5t-0.5 -7.5q-68 -53 -128 -53h-1q-12 -47 -7.5 -58t41.5 -32q54 -31 54 -77q0 -37 -26.5 -66.5t-77.5 -29.5q-28 0 -46 10t-18 28q0 13 9 21.5t21 8.5q17 0 30 -24t36 -24q34 0 34 38q0 26 -18.5 46.5t-67.5 46.5q-9 5 -12 8t-2.5 7t5.5 15
q13 33 31 83q-81 6 -81 81v235q0 37 -8.5 46t-42.5 9q-4 0 -4 6.5t4 6.5q40 1 65 21.5t29 54.5q0 3 7.5 3t7.5 -3v-74q50 1 139 10q7 0 7 -24q0 -5 -1.5 -11t-4.5 -9.5t-5 -3.5q-55 14 -135 16v-249q0 -81 79 -81q46 0 80 28z" />
    <glyph glyph-name="Tcaron" unicode="&#x164;" horiz-adv-x="634" 
d="M305 687l-103 97q-1 1 0 3t3 3t3 1l109 -57l108 57q1 1 3.5 -0.5t3 -3.5t-1.5 -3l-102 -97q-12 -11 -23 0zM189 607q-63 0 -94.5 -32t-45.5 -109q0 -2 -5.5 -2t-5.5 2q14 119 14 181q0 5 5.5 5t5.5 -5q0 -22 54 -22q85 -3 201 -3q52 0 112 1.5t81 1.5q68 0 76 25q1 4 6 4
t5 -4q-9 -90 -9 -184q0 -2 -6 -2t-6 2q-3 78 -32 109.5t-96 31.5q-64 0 -80.5 -10.5t-16.5 -54.5v-461q0 -44 17.5 -56.5t79.5 -12.5q3 0 3 -6t-3 -6q-15 0 -59 1t-72 1q-26 0 -70 -1t-60 -1q-2 0 -2 6t2 6q62 0 80 12.5t18 56.5v463q0 44 -16.5 53.5t-80.5 9.5z" />
    <glyph glyph-name="tcaron" unicode="&#x165;" horiz-adv-x="338" 
d="M215 433q0 -1 -2.5 -1.5t-5.5 0.5t-3 2l-8 272q0 9 32 -11q20 -13 19 -19zM309 51q4 2 7.5 -2.5t-0.5 -7.5q-68 -53 -128 -53q-96 0 -96 82v235q0 37 -8.5 46t-42.5 9q-4 0 -4 6.5t4 6.5q40 1 65 21.5t29 54.5q0 3 7.5 3t7.5 -3v-74q50 1 139 10q7 0 7 -24q0 -5 -1.5 -11
t-4.5 -9.5t-5 -3.5q-55 14 -135 16v-249q0 -81 79 -81q46 0 80 28z" />
    <glyph glyph-name="Tbar" unicode="&#x166;" horiz-adv-x="632" 
d="M587 650q1 4 6 4t5 -4q-9 -90 -9 -184q0 -2 -6 -2t-6 2q-3 78 -32 109.5t-96 31.5q-64 0 -80.5 -10.5t-16.5 -54.5v-209h100q4 0 4 -10.5t-4 -10.5h-100v-231q0 -44 17.5 -56.5t79.5 -12.5q3 0 3 -6t-3 -6q-15 0 -59 1t-72 1q-26 0 -70 -1t-60 -1q-2 0 -2 6t2 6
q62 0 80 12.5t18 56.5v231h-99q-5 0 -5 10.5t5 10.5h99v211q0 44 -16.5 53.5t-80.5 9.5q-63 0 -94.5 -32t-45.5 -109q0 -2 -5.5 -2t-5.5 2q14 119 14 181q0 5 5.5 5t5.5 -5q0 -22 54 -22q85 -3 201 -3q52 0 112 1.5t81 1.5q68 0 76 25z" />
    <glyph glyph-name="tbar" unicode="&#x167;" horiz-adv-x="339" 
d="M309 51q4 2 7.5 -2.5t-0.5 -7.5q-68 -53 -128 -53q-96 0 -96 82v136h-41q-4 0 -4 10.5t4 10.5h41v78q0 37 -8.5 46t-42.5 9q-4 0 -4 6.5t4 6.5q40 1 65 21.5t29 54.5q0 3 7.5 3t7.5 -3v-74q50 1 139 10q7 0 7 -24q0 -5 -1.5 -11t-4.5 -9.5t-5 -3.5q-55 14 -135 16v-126
h130q4 0 4 -10.5t-4 -10.5h-130v-102q0 -81 79 -81q46 0 80 28z" />
    <glyph glyph-name="Utilde" unicode="&#x168;" horiz-adv-x="698" 
d="M451 763q26 0 49 27q2 2 5.5 -1.5t1.5 -5.5q-26 -36 -43 -49t-36 -13q-21 0 -63 12.5t-68 12.5q-10 0 -18 -3t-11 -5t-11 -10l-9 -9q-2 -2 -5.5 1t-1.5 6q44 61 85 61q14 0 56 -12t69 -12zM572 515q0 98 -87 98q-3 0 -3 6t3 6q14 0 46.5 -1.5t53.5 -1.5q17 0 47.5 1.5
t43.5 1.5q2 0 2 -6t-2 -6q-80 0 -80 -98v-284q0 -115 -64 -179.5t-172 -64.5q-112 0 -179 64.5t-67 172.5v320q0 43 -15.5 56t-69.5 13q-2 0 -2 6t2 6q14 0 53.5 -1.5t63.5 -1.5q25 0 64.5 1.5t53.5 1.5q3 0 3 -6t-3 -6q-54 0 -69.5 -13.5t-15.5 -57.5v-283
q0 -117 53.5 -179.5t149.5 -62.5q90 0 140 56.5t50 156.5v285z" />
    <glyph glyph-name="utilde" unicode="&#x169;" horiz-adv-x="493" 
d="M112 480q-2 -2 -5.5 1t-1.5 6q44 61 85 61q15 0 56.5 -12t68.5 -12q26 0 49 27q5 3 7 -4q1 -2 0 -3q-26 -36 -43 -49t-36 -13q-21 0 -63 12.5t-68 12.5q-10 0 -18 -3t-11 -5t-11 -10zM485 57q4 1 6.5 -4t-1.5 -7l-117 -55q-2 -1 -4 -1q-6 0 -12 9t-11 29t-5 45v4
q-76 -85 -159 -85q-50 0 -78 31.5t-28 91.5v153q0 74 -30 74q-14 0 -34 -10q-2 -1 -4.5 1.5t-2.5 6t2 4.5l111 50q2 1 4 1q3 0 6.5 -2.5t3.5 -5.5v-239q0 -116 84 -116q68 0 125 62v174q0 40 -6.5 57t-23.5 17q-14 0 -34 -10q-2 -1 -4.5 2t-2.5 6t3 4l111 50q2 1 3 1
q10 0 10 -8v-280q0 -64 35 -64q17 0 53 14z" />
    <glyph glyph-name="Umacron" unicode="&#x16a;" horiz-adv-x="698" 
d="M248 722q-6 0 -6 14t6 14h251q6 0 6 -14t-6 -14h-251zM572 515q0 98 -87 98q-3 0 -3 6t3 6q14 0 46.5 -1.5t53.5 -1.5q17 0 47.5 1.5t43.5 1.5q2 0 2 -6t-2 -6q-80 0 -80 -98v-284q0 -115 -64 -179.5t-172 -64.5q-112 0 -179 64.5t-67 172.5v320q0 43 -15.5 56t-69.5 13
q-2 0 -2 6t2 6q14 0 53.5 -1.5t63.5 -1.5q25 0 64.5 1.5t53.5 1.5q3 0 3 -6t-3 -6q-54 0 -69.5 -13.5t-15.5 -57.5v-283q0 -117 53.5 -179.5t149.5 -62.5q90 0 140 56.5t50 156.5v285z" />
    <glyph glyph-name="umacron" unicode="&#x16b;" horiz-adv-x="493" 
d="M112 483q-6 0 -6 14t6 14h251q6 0 6 -14t-6 -14h-251zM485 57q4 1 6.5 -4t-1.5 -7l-117 -55q-2 -1 -4 -1q-6 0 -12 9t-11 29t-5 45v4q-76 -85 -159 -85q-50 0 -78 31.5t-28 91.5v153q0 74 -30 74q-14 0 -34 -10q-2 -1 -4.5 1.5t-2.5 6t2 4.5l111 50q2 1 4 1q3 0 6.5 -2.5
t3.5 -5.5v-239q0 -116 84 -116q68 0 125 62v174q0 40 -6.5 57t-23.5 17q-14 0 -34 -10q-2 -1 -4.5 2t-2.5 6t3 4l111 50q2 1 3 1q10 0 10 -8v-280q0 -64 35 -64q17 0 53 14z" />
    <glyph glyph-name="Ubreve" unicode="&#x16c;" horiz-adv-x="698" 
d="M374 690q-42 0 -68.5 28t-34.5 79q-1 4 4 4.5t7 -1.5q7 -27 33.5 -47t58.5 -20q31 0 57.5 20t33.5 47q0 1 3 1.5t5.5 -1t2.5 -3.5q-16 -107 -102 -107zM572 515q0 98 -87 98q-3 0 -3 6t3 6q14 0 46.5 -1.5t53.5 -1.5q17 0 47.5 1.5t43.5 1.5q2 0 2 -6t-2 -6
q-80 0 -80 -98v-284q0 -115 -64 -179.5t-172 -64.5q-112 0 -179 64.5t-67 172.5v320q0 43 -15.5 56t-69.5 13q-2 0 -2 6t2 6q14 0 53.5 -1.5t63.5 -1.5q25 0 64.5 1.5t53.5 1.5q3 0 3 -6t-3 -6q-54 0 -69.5 -13.5t-15.5 -57.5v-283q0 -117 53.5 -179.5t149.5 -62.5
q90 0 140 56.5t50 156.5v285z" />
    <glyph glyph-name="ubreve" unicode="&#x16d;" horiz-adv-x="493" 
d="M238 473q-103 0 -103 150q0 2 2.5 3.5t5.5 1t3 -1.5q0 -44 26 -73.5t66 -29.5q38 0 64.5 30t26.5 73q0 1 2.5 1.5t5.5 -1t3 -3.5q0 -150 -102 -150zM485 57q4 1 6.5 -4t-1.5 -7l-117 -55q-2 -1 -4 -1q-6 0 -12 9t-11 29t-5 45v4q-76 -85 -159 -85q-50 0 -78 31.5
t-28 91.5v153q0 74 -30 74q-14 0 -34 -10q-2 -1 -4.5 1.5t-2.5 6t2 4.5l111 50q2 1 4 1q3 0 6.5 -2.5t3.5 -5.5v-239q0 -116 84 -116q68 0 125 62v174q0 40 -6.5 57t-23.5 17q-14 0 -34 -10q-2 -1 -4.5 2t-2.5 6t3 4l111 50q2 1 3 1q10 0 10 -8v-280q0 -64 35 -64
q17 0 53 14z" />
    <glyph glyph-name="Uring" unicode="&#x16e;" horiz-adv-x="698" 
d="M365 707q-40 0 -64 23.5t-24 55.5q0 36 30.5 57t67.5 21q36 0 62 -23.5t26 -56.5q0 -35 -30 -56t-68 -21zM381 717q36 0 36 49q0 36 -18 61.5t-44 25.5q-33 0 -33 -47q0 -34 16 -61.5t43 -27.5zM572 515q0 98 -87 98q-3 0 -3 6t3 6q14 0 46.5 -1.5t53.5 -1.5
q17 0 47.5 1.5t43.5 1.5q2 0 2 -6t-2 -6q-80 0 -80 -98v-284q0 -115 -64 -179.5t-172 -64.5q-112 0 -179 64.5t-67 172.5v320q0 43 -15.5 56t-69.5 13q-2 0 -2 6t2 6q14 0 53.5 -1.5t63.5 -1.5q25 0 64.5 1.5t53.5 1.5q3 0 3 -6t-3 -6q-54 0 -69.5 -13.5t-15.5 -57.5v-283
q0 -117 53.5 -179.5t149.5 -62.5q90 0 140 56.5t50 156.5v285z" />
    <glyph glyph-name="uring" unicode="&#x16f;" horiz-adv-x="493" 
d="M229 468q-40 0 -64 23.5t-24 55.5q0 36 30.5 57t67.5 21q36 0 62 -23.5t26 -56.5q0 -35 -30 -56t-68 -21zM219 614q-33 0 -33 -47q0 -34 16 -61.5t43 -27.5q36 0 36 49q0 36 -18 61.5t-44 25.5zM485 57q4 1 6.5 -4t-1.5 -7l-117 -55q-2 -1 -4 -1q-6 0 -12 9t-11 29t-5 45
v4q-76 -85 -159 -85q-50 0 -78 31.5t-28 91.5v153q0 74 -30 74q-14 0 -34 -10q-2 -1 -4.5 1.5t-2.5 6t2 4.5l111 50q2 1 4 1q3 0 6.5 -2.5t3.5 -5.5v-239q0 -116 84 -116q68 0 125 62v174q0 40 -6.5 57t-23.5 17q-14 0 -34 -10q-2 -1 -4.5 2t-2.5 6t3 4l111 50q2 1 3 1
q10 0 10 -8v-280q0 -64 35 -64q17 0 53 14z" />
    <glyph glyph-name="Uhungarumlaut" unicode="&#x170;" horiz-adv-x="698" 
d="M269 677q-5 -4 -7 4q-1 4 1 6q48 45 90 95q7 8 48 -9q18 -10 17 -15q-71 -29 -149 -81zM393 677q-5 -4 -7 4q-1 4 1 6q48 45 90 95q7 8 46 -9q18 -10 17 -15q-66 -27 -147 -81zM572 515q0 98 -87 98q-3 0 -3 6t3 6q14 0 46.5 -1.5t53.5 -1.5q17 0 47.5 1.5t43.5 1.5
q2 0 2 -6t-2 -6q-80 0 -80 -98v-284q0 -115 -64 -179.5t-172 -64.5q-112 0 -179 64.5t-67 172.5v320q0 43 -15.5 56t-69.5 13q-2 0 -2 6t2 6q14 0 53.5 -1.5t63.5 -1.5q25 0 64.5 1.5t53.5 1.5q3 0 3 -6t-3 -6q-54 0 -69.5 -13.5t-15.5 -57.5v-283q0 -117 53.5 -179.5
t149.5 -62.5q90 0 140 56.5t50 156.5v285z" />
    <glyph glyph-name="uhungarumlaut" unicode="&#x171;" horiz-adv-x="493" 
d="M146 459q-4 -2 -6.5 3t0.5 7q18 17 46.5 52.5t41.5 48.5q8 7 54 -10q18 -8 17 -12q-61 -24 -153 -89zM262 469q18 17 46.5 52.5t41.5 48.5q8 7 53 -10q21 -7 19 -11l-2 -1q-60 -24 -152 -89q-4 -2 -6.5 3t0.5 7zM485 57q4 1 6.5 -4t-1.5 -7l-117 -55q-2 -1 -4 -1
q-6 0 -12 9t-11 29t-5 45v4q-76 -85 -159 -85q-50 0 -78 31.5t-28 91.5v153q0 74 -30 74q-14 0 -34 -10q-2 -1 -4.5 1.5t-2.5 6t2 4.5l111 50q2 1 4 1q3 0 6.5 -2.5t3.5 -5.5v-239q0 -116 84 -116q68 0 125 62v174q0 40 -6.5 57t-23.5 17q-14 0 -34 -10q-2 -1 -4.5 2t-2.5 6
t3 4l111 50q2 1 3 1q10 0 10 -8v-280q0 -64 35 -64q17 0 53 14z" />
    <glyph glyph-name="Uogonek" unicode="&#x172;" horiz-adv-x="698" 
d="M676 625q2 0 2 -6t-2 -6q-80 0 -80 -98v-284q0 -95 -44.5 -156t-122.5 -80q-70 -66 -70 -138q0 -48 24 -75t69 -27q34 0 65 23q2 1 4.5 -0.5t3.5 -3.5t-1 -4q-52 -45 -108 -45q-54 0 -83 27t-29 72q0 82 100 166q-21 -3 -44 -3q-112 0 -179 64.5t-67 172.5v320
q0 43 -15.5 56t-69.5 13q-2 0 -2 6t2 6q14 0 53.5 -1.5t63.5 -1.5q25 0 64.5 1.5t53.5 1.5q3 0 3 -6t-3 -6q-54 0 -69.5 -13.5t-15.5 -57.5v-283q0 -117 53.5 -179.5t149.5 -62.5q90 0 140 56.5t50 156.5v285q0 98 -87 98q-3 0 -3 6t3 6q14 0 46.5 -1.5t53.5 -1.5
q17 0 47.5 1.5t43.5 1.5z" />
    <glyph glyph-name="uogonek" unicode="&#x173;" horiz-adv-x="493" 
d="M486 57q4 1 6 -4t-2 -7l-57 -27q-126 -74 -126 -168q0 -46 22.5 -71.5t66.5 -25.5q35 0 67 24q2 1 4.5 -0.5t3.5 -3.5t-1 -4q-52 -45 -110 -45q-54 0 -82 25.5t-28 70.5q0 89 113 171q-22 18 -22 81v4q-76 -85 -159 -85q-50 0 -78 31.5t-28 91.5v153q0 74 -30 74
q-14 0 -34 -10q-2 -1 -4.5 1.5t-2.5 6t2 4.5l111 50q2 1 4 1q3 0 6.5 -2.5t3.5 -5.5v-239q0 -116 84 -116q68 0 125 62v174q0 40 -6.5 57t-23.5 17q-14 0 -34 -10q-2 -1 -4.5 2t-2.5 6t3 4l111 50q2 1 3 1q10 0 10 -8v-280q0 -64 35 -64q13 0 29 6q4 1 12 4.5t12 5.5z" />
    <glyph glyph-name="Wcircumflex" unicode="&#x174;" horiz-adv-x="931" 
d="M361 685q-1 0 -3 1t-3 3t0 3l103 98q4 4 11 4t12 -4l102 -98q2 -1 1.5 -3t-3 -3.5t-3.5 -0.5l-108 58zM935 625q2 0 2 -6t-2 -6q-69 0 -102 -79l-213 -533q-2 -4 -11 -4t-11 4l-130 284l-113 -284q-1 -4 -10.5 -4t-11.5 4l-249 541q-18 40 -36 55.5t-49 15.5q-3 0 -3 6
t3 6q13 0 39.5 -1.5t43.5 -1.5q31 0 69 1.5t50 1.5q3 0 3 -6t-3 -6q-41 0 -53 -13.5t4 -53.5l213 -457l90 224l-105 229q-18 39 -36 55t-47 16q-3 0 -3 6t3 6q12 0 38.5 -1.5t42.5 -1.5q24 0 51 1.5t34 1.5q3 0 3 -6t-3 -6q-31 0 -33 -11.5t18 -55.5l73 -156l59 149
q16 40 9 57t-40 17q-3 0 -3 6t3 6q8 0 27 -1.5t38 -1.5t45 1.5t42 1.5q2 0 2 -6t-2 -6q-34 0 -57.5 -17.5t-41.5 -61.5l-68 -171l127 -274l179 448q16 39 0.5 57.5t-67.5 18.5q-3 0 -3 6t3 6q14 0 46 -1.5t57 -1.5q19 0 45.5 1.5t43.5 1.5z" />
    <glyph glyph-name="wcircumflex" unicode="&#x175;" horiz-adv-x="671" 
d="M259 474q0 -2 -3 -2t-5.5 1.5t-2.5 2.5l68 249q1 5 11 5t12 -5l67 -249q1 -2 -2 -3q-7 -3 -8 1l-68 164zM666 386q3 0 3 -6t-3 -6q-24 0 -41.5 -16t-34.5 -57l-125 -300q-1 -4 -11 -4t-11 4l-113 243l-101 -243q-1 -4 -11 -4t-11 4l-140 302q-20 43 -33.5 57t-33.5 14
q-3 0 -3 6t3 6q9 0 32.5 -1t36.5 -1q23 0 56.5 1t46.5 1q3 0 3 -6t-3 -6q-35 0 -50 -8.5t-4 -30.5l122 -258l79 191l-16 35q-20 43 -33 57t-32 14q-2 0 -2 6t2 6q10 0 32 -1t35 -1q25 0 58.5 1t44.5 1q3 0 3 -6t-3 -6q-34 0 -49 -8.5t-4 -30.5l121 -260l94 231q15 36 -2 52
t-70 16q-2 0 -2 6t2 6q14 0 45 -1t56 -1q15 0 35 1t32 1z" />
    <glyph glyph-name="Ycircumflex" unicode="&#x176;" horiz-adv-x="609" 
d="M210 685q-1 0 -3 1t-3 3t0 3l103 98q5 4 12 4t11 -4l102 -98q2 -1 1.5 -3t-3 -3.5t-3.5 -0.5l-108 58zM614 625q2 0 2 -6t-2 -6q-36 0 -73 -26.5t-66 -72.5l-134 -206v-227q0 -44 15 -56.5t70 -12.5q3 0 3 -6t-3 -6q-14 0 -53.5 1t-64.5 1q-24 0 -64 -1t-54 -1q-3 0 -3 6
t3 6q55 0 70.5 12.5t15.5 56.5v211l-166 243q-28 44 -53 61t-58 17q-3 0 -3 6t3 6q12 0 36 -1.5t35 -1.5q30 0 78 1.5t62 1.5q2 0 2 -6t-2 -6q-38 0 -48 -11.5t6 -34.5l161 -236l122 187q59 95 -32 95q-2 0 -2 6t2 6q16 0 52 -1.5t65 -1.5q17 0 40 1.5t38 1.5z" />
    <glyph glyph-name="ycircumflex" unicode="&#x177;" horiz-adv-x="435" 
d="M156 474q0 -2 -3 -2t-5.5 1.5t-2.5 2.5l68 249q1 5 11 5t12 -5l67 -249q1 -2 -2 -3q-7 -3 -8 1l-68 164zM431 386q3 0 3 -6t-3 -6q-25 0 -43 -18t-34 -59l-122 -325q-54 -143 -102 -198t-114 -55q-51 0 -51 39q0 14 9 22t22 8q20 0 40 -12t36 -12q35 0 68 49.5t81 178.5
l-152 311q-23 44 -35 57.5t-31 13.5q-2 0 -2 6t2 6q11 0 34 -1t33 -1q24 0 58 1t45 1q2 0 2 -6t-2 -6q-35 0 -49.5 -8.5t-3.5 -30.5l132 -271l80 230q15 45 -0.5 62.5t-68.5 17.5q-2 0 -2 6t2 6q14 0 45 -1t56 -1q15 0 35 1t32 1z" />
    <glyph glyph-name="Ydieresis" unicode="&#x178;" horiz-adv-x="609" 
d="M231 717q-43 0 -43 41t43 41q41 0 41 -41t-41 -41zM406 717q-20 0 -31.5 11t-11.5 30t11.5 30t31.5 11q42 0 42 -41t-42 -41zM614 625q2 0 2 -6t-2 -6q-36 0 -73 -26.5t-66 -72.5l-134 -206v-227q0 -44 15 -56.5t70 -12.5q3 0 3 -6t-3 -6q-14 0 -53.5 1t-64.5 1
q-24 0 -64 -1t-54 -1q-3 0 -3 6t3 6q55 0 70.5 12.5t15.5 56.5v211l-166 243q-28 44 -53 61t-58 17q-3 0 -3 6t3 6q12 0 36 -1.5t35 -1.5q30 0 78 1.5t62 1.5q2 0 2 -6t-2 -6q-38 0 -48 -11.5t6 -34.5l161 -236l122 187q59 95 -32 95q-2 0 -2 6t2 6q16 0 52 -1.5t65 -1.5
q17 0 40 1.5t38 1.5z" />
    <glyph glyph-name="Zacute" unicode="&#x179;" horiz-adv-x="595" 
d="M216 679q-4 -2 -6 3t1 7q37 19 96.5 55t66.5 40q9 5 50 -15q17 -8 16 -12q0 -1 -2 -1q-108 -27 -222 -77zM55 13l395 587q3 5 2.5 6.5t-7.5 1.5h-108.5t-81.5 -2t-63 -4.5t-43.5 -9t-33 -13t-20.5 -20t-17.5 -26.5t-13.5 -36q0 -2 -3.5 -2t-6 1.5t-2.5 2.5l40 156
q0 1 3.5 1.5t6 -1t2.5 -2.5q-3 -18 7.5 -23t49.5 -5h365q5 0 7.5 -5t-0.5 -8l-390 -585q-4 -5 -3 -6.5t8 -1.5h255q67 0 102 28t46 88q1 2 6 2t5 -2l-14 -127q0 -10 -9 -10q-149 2 -478 2q-5 0 -7 4.5t1 8.5z" />
    <glyph glyph-name="zacute" unicode="&#x17a;" horiz-adv-x="405" 
d="M202 474q0 -2 -3 -2t-5.5 1.5t-2.5 2.5l52 240q3 9 43 14q19 2 18 -3zM42 12l239 354q4 7 -5 7q-114 0 -160 -17t-63 -72q-1 -4 -9 -1q-3 1 -2 3l34 129q3 3 11 -1q-4 -17 7 -22.5t41 -5.5h212q4 0 6.5 -4t1.5 -8l-236 -352q-4 -7 5 -7q60 0 92.5 2t59.5 6.5t40.5 16.5
t23 28.5t18.5 45.5q1 2 6 2t5 -2l-2 -103q0 -11 -9 -11h-309q-4 0 -6.5 4t-0.5 8z" />
    <glyph glyph-name="Zdotaccent" unicode="&#x17b;" horiz-adv-x="595" 
d="M313 713q-44 0 -44 43q0 42 44 42q42 0 42 -42q0 -43 -42 -43zM55 13l395 587q3 5 2.5 6.5t-7.5 1.5h-108.5t-81.5 -2t-63 -4.5t-43.5 -9t-33 -13t-20.5 -20t-17.5 -26.5t-13.5 -36q0 -2 -3.5 -2t-6 1.5t-2.5 2.5l40 156q0 1 3.5 1.5t6 -1t2.5 -2.5q-3 -18 7.5 -23
t49.5 -5h365q5 0 7.5 -5t-0.5 -8l-390 -585q-4 -5 -3 -6.5t8 -1.5h255q67 0 102 28t46 88q1 2 6 2t5 -2l-14 -127q0 -10 -9 -10q-149 2 -478 2q-5 0 -7 4.5t1 8.5z" />
    <glyph glyph-name="zdotaccent" unicode="&#x17c;" horiz-adv-x="405" 
d="M204 512q-44 0 -44 42t44 42q42 0 42 -42t-42 -42zM42 12l239 354q4 7 -5 7q-114 0 -160 -17t-63 -72q-1 -4 -9 -1q-3 1 -2 3l34 129q3 3 11 -1q-4 -17 7 -22.5t41 -5.5h212q4 0 6.5 -4t1.5 -8l-236 -352q-4 -7 5 -7q60 0 92.5 2t59.5 6.5t40.5 16.5t23 28.5t18.5 45.5
q1 2 6 2t5 -2l-2 -103q0 -11 -9 -11h-309q-4 0 -6.5 4t-0.5 8z" />
    <glyph glyph-name="Zcaron" unicode="&#x17d;" horiz-adv-x="595" 
d="M301 687l-103 97q-1 1 0 3t3 3t3 1l109 -57l108 57q1 1 3.5 -0.5t3 -3.5t-1.5 -3l-102 -97q-12 -11 -23 0zM55 13l395 587q3 5 2.5 6.5t-7.5 1.5h-108.5t-81.5 -2t-63 -4.5t-43.5 -9t-33 -13t-20.5 -20t-17.5 -26.5t-13.5 -36q0 -2 -3.5 -2t-6 1.5t-2.5 2.5l40 156
q0 1 3.5 1.5t6 -1t2.5 -2.5q-3 -18 7.5 -23t49.5 -5h365q5 0 7.5 -5t-0.5 -8l-390 -585q-4 -5 -3 -6.5t8 -1.5h255q67 0 102 28t46 88q1 2 6 2t5 -2l-14 -127q0 -10 -9 -10q-149 2 -478 2q-5 0 -7 4.5t1 8.5z" />
    <glyph glyph-name="zcaron" unicode="&#x17e;" horiz-adv-x="405" 
d="M124 726q0 2 2.5 3.5t5.5 1t3 -1.5l69 -165l68 165q0 1 3 1.5t5.5 -1t1.5 -3.5l-67 -249q-1 -5 -11 -5t-12 5zM42 12l239 354q4 7 -5 7q-114 0 -160 -17t-63 -72q-1 -4 -9 -1q-3 1 -2 3l34 129q3 3 11 -1q-4 -17 7 -22.5t41 -5.5h212q4 0 6.5 -4t1.5 -8l-236 -352
q-4 -7 5 -7q60 0 92.5 2t59.5 6.5t40.5 16.5t23 28.5t18.5 45.5q1 2 6 2t5 -2l-2 -103q0 -11 -9 -11h-309q-4 0 -6.5 4t-0.5 8z" />
    <glyph glyph-name="longs" unicode="&#x17f;" horiz-adv-x="262" 
d="M31 0q-3 0 -3 6t3 6q43 0 56 13t13 56v337q0 163 52.5 235.5t155.5 72.5q46 0 75.5 -15.5t29.5 -37.5q0 -15 -10.5 -23t-25.5 -8q-16 0 -27.5 10.5t-18.5 23.5t-22 23.5t-36 10.5q-114 0 -114 -271v-358q0 -44 14.5 -56.5t70.5 -12.5q2 0 2 -6t-2 -6q-21 0 -59 1t-57 1
t-52 -1t-45 -1z" />
    <glyph glyph-name="uni018F" unicode="&#x18f;" horiz-adv-x="640" 
d="M284 636q68 0 121.5 -18.5t87 -49t55 -72t30 -83.5t8.5 -89q0 -156 -90.5 -246t-225.5 -90q-109 0 -166 56t-57 119q0 12 12 12l441 2q12 49 12 111q0 145 -61.5 240t-167.5 95q-67 0 -128 -37t-84 -105q-1 -2 -4 -2.5t-5.5 0.5t-2.5 3l42 156q2 6 9 3q3 -1 2 -4
q-4 -18 3.5 -25.5t23.5 -2.5q78 27 145 27zM305 7q72 0 120.5 39t69.5 112l-374 -5q8 -66 59 -106t125 -40z" />
    <glyph glyph-name="florin" unicode="&#x192;" horiz-adv-x="334" 
d="M289 726q40 0 62.5 -12t21.5 -32q-1 -12 -10 -21t-24 -9q-22 0 -34 29q-15 28 -43 28q-42 0 -61.5 -55.5t-36.5 -214.5l-6 -64q60 1 140 9q2 0 3.5 -3.5t2 -9.5t0.5 -12q-2 -10 -6.5 -17.5t-7.5 -6.5q-68 21 -133 22l-38 -421q-10 -110 -35.5 -149.5t-96.5 -61.5
q-2 0 -4 2.5t-2 5t2 3.5q33 13 51.5 54t25.5 126l33 390q4 37 -6.5 45.5t-58.5 8.5q-2 0 -3 3t0.5 6.5t3.5 3.5q40 0 55 9.5t17 35.5q17 168 59.5 238t128.5 70z" />
    <glyph glyph-name="Ohorn" unicode="&#x1a0;" horiz-adv-x="766" 
d="M733 660q0 -67 -105 -117q89 -94 89 -224q0 -138 -103.5 -234.5t-247.5 -96.5q-141 0 -229 94t-88 230q0 78 32 141.5t83.5 102.5t112.5 59.5t124 20.5q129 0 216 -82q57 28 57 62q0 10 -10.5 22.5t-10.5 27.5q0 18 12.5 28t28.5 10q19 0 29 -13t10 -31zM401 9
q104 0 172 75t68 207q0 143 -77 232.5t-205 89.5q-110 0 -172 -71t-62 -195q0 -144 77.5 -241t198.5 -97z" />
    <glyph glyph-name="ohorn" unicode="&#x1a1;" horiz-adv-x="479" 
d="M369 358q74 -62 74 -165q0 -92 -61.5 -149t-150.5 -57q-87 0 -141 61.5t-54 149.5q0 96 65.5 148.5t147.5 52.5q59 0 106 -31q44 26 44 55q0 10 -10.5 22.5t-10.5 27.5q0 18 12.5 28t28.5 10q19 0 29 -13t10 -31q0 -64 -89 -109zM260 6q115 0 115 159q0 94 -44.5 154.5
t-114.5 60.5q-54 0 -83.5 -39t-29.5 -112q0 -94 44 -158.5t113 -64.5z" />
    <glyph glyph-name="Uhorn" unicode="&#x1af;" horiz-adv-x="698" 
d="M596 515v-289q0 -113 -65.5 -176t-175.5 -63q-111 0 -176 62t-65 170v325q0 43 -15.5 56t-69.5 13q-2 0 -2 6t2 6q14 0 53.5 -1.5t63.5 -1.5q25 0 64.5 1.5t53.5 1.5q3 0 3 -6t-3 -6q-54 0 -69.5 -13.5t-15.5 -57.5v-288q0 -116 53 -176.5t145 -60.5q91 0 143 55t52 153
v290q0 98 -87 98q-3 0 -3 6t3 6q14 0 46.5 -1.5t53.5 -1.5q47 0 68 10.5t21 34.5q0 14 -9 26.5t-9 23.5q0 18 12.5 28.5t28.5 10.5q19 0 29 -13.5t10 -33.5q0 -58 -88 -95q-14 -5 -23.5 -12t-19 -29.5t-9.5 -57.5z" />
    <glyph glyph-name="uhorn" unicode="&#x1b0;" horiz-adv-x="497" 
d="M485 57q4 1 6.5 -4t-1.5 -7l-117 -55q-2 -1 -4 -1q-6 0 -12 9t-11 29t-5 45v4q-76 -85 -159 -85q-50 0 -78 31.5t-28 91.5v153q0 74 -30 74q-14 0 -34 -10q-2 -1 -4.5 1.5t-2.5 6t2 4.5l111 50q2 1 4 1q3 0 6.5 -2.5t3.5 -5.5v-239q0 -116 84 -116q68 0 125 62v174
q0 49 -8.5 65t-30.5 16q-12 0 -28 -3q-2 0 -3.5 3t-1 6t3.5 3q153 15 153 64q0 8 -7.5 22.5t-7.5 27.5q0 20 12.5 30t29.5 10q18 0 28 -13.5t10 -30.5q0 -28 -25.5 -53t-62.5 -41q-6 -3 -6 -9v-258q0 -64 35 -64q17 0 53 14z" />
    <glyph glyph-name="uni01CD" unicode="&#x1cd;" 
d="M226 784q-1 1 0 3t3 3t3 1l109 -57l108 57q1 1 3.5 -0.5t3 -3.5t-1.5 -3l-102 -97q-12 -11 -23 0zM699 12q4 0 4 -6t-4 -6q-19 0 -59 2t-58 2q-22 0 -54.5 -2t-50.5 -2q-5 0 -5 6t5 6q54 0 66 15t-8 59l-115 245h-189l-86 -204q-24 -61 -3.5 -88t87.5 -27q5 0 5 -6t-5 -6
q-19 0 -55 2t-63 2q-25 0 -57.5 -2t-52.5 -2q-5 0 -5 6t5 6q41 0 66.5 25.5t56.5 98.5l211 498q1 3 6.5 3t6.5 -3l236 -497q34 -74 58 -99.5t57 -25.5zM240 352h170l-90 190z" />
    <glyph glyph-name="uni01CE" unicode="&#x1ce;" horiz-adv-x="419" 
d="M197 477l-68 249q0 2 2.5 3.5t5.5 1t3 -1.5l69 -165l68 165q0 1 3 1.5t5.5 -1t1.5 -3.5l-67 -249q-2 -5 -11.5 -5t-11.5 5zM413 54q5 2 6.5 -3.5t-2.5 -7.5l-103 -49q-4 -2 -8 -2q-13 0 -23 17t-13 47l-62 -33q-57 -30 -90 -30q-31 0 -47.5 16.5t-16.5 41.5
q0 27 20.5 43.5t73.5 34.5l121 43v83q0 119 -64 119q-34 0 -53 -24t-23 -58q-4 -38 -37 -38q-34 0 -34 30q0 35 62.5 73t116.5 38q40 0 64 -27.5t24 -82.5v-177q0 -67 39 -67q19 0 49 13zM208 39l61 31v6v84l-103 -39q-42 -16 -42 -48q0 -21 12 -32.5t31 -11.5t41 10z" />
    <glyph glyph-name="uni01CF" unicode="&#x1cf;" horiz-adv-x="332" 
d="M154 687l-103 97q-1 1 0 3t3 3t3 1l109 -57l108 57q1 1 3.5 -0.5t3 -3.5t-1.5 -3l-102 -97q-11 -11 -23 0zM199 81q0 -44 15.5 -56.5t69.5 -12.5q3 0 3 -6t-3 -6q-14 0 -53.5 1t-65.5 1q-24 0 -64 -1t-54 -1q-3 0 -3 6t3 6q55 0 70.5 12.5t15.5 56.5v463q0 43 -16 56
t-70 13q-3 0 -3 6t3 6q14 0 54 -1.5t64 -1.5q26 0 66 1.5t53 1.5q3 0 3 -6t-3 -6q-53 0 -69 -14t-16 -57v-461z" />
    <glyph glyph-name="uni01D0" unicode="&#x1d0;" horiz-adv-x="273" 
d="M57 726q0 2 2.5 3.5t5.5 1t3 -1.5l69 -165l68 165q0 1 3 1.5t5.5 -1t1.5 -3.5l-67 -249q-2 -5 -11.5 -5t-11.5 5zM53 0q-2 0 -2 6t2 6q39 0 51.5 13t12.5 56v187q0 36 -7.5 52t-25.5 16t-45 -14q-4 -1 -6.5 4.5t0.5 7.5l130 60l4 1q2 0 5 -2.5t3 -5.5t-0.5 -19.5
t-1 -43.5t-0.5 -55v-188q0 -43 11.5 -56t51.5 -13q3 0 3 -6t-3 -6q-11 0 -41.5 1t-49.5 1t-50 -1t-42 -1z" />
    <glyph glyph-name="uni01D1" unicode="&#x1d1;" horiz-adv-x="766" 
d="M373 687l-103 97q-1 1 0 3t3 3t3 1l109 -57l108 57q1 1 3.5 -0.5t3 -3.5t-1.5 -3l-102 -97q-12 -11 -23 0zM366 -12q-141 0 -229 94t-88 230q0 78 32 141.5t83.5 102.5t112.5 59.5t124 20.5q142 0 229 -95t87 -222q0 -138 -103.5 -234.5t-247.5 -96.5zM401 9
q104 0 172 75t68 207q0 143 -77 232.5t-205 89.5q-110 0 -172 -71t-62 -195q0 -144 77.5 -241t198.5 -97z" />
    <glyph glyph-name="uni01D2" unicode="&#x1d2;" horiz-adv-x="479" 
d="M160 726q0 2 2.5 3.5t5.5 1t3 -1.5l69 -165l68 165q0 1 3 1.5t5.5 -1t1.5 -3.5l-67 -249q-1 -5 -11 -5t-12 5zM231 -13q-87 0 -141 61.5t-54 149.5q0 96 65.5 148.5t147.5 52.5q87 0 140.5 -61.5t53.5 -144.5q0 -92 -61.5 -149t-150.5 -57zM260 6q115 0 115 159
q0 94 -44.5 154.5t-114.5 60.5q-54 0 -83.5 -39t-29.5 -112q0 -94 44 -158.5t113 -64.5z" />
    <glyph glyph-name="uni01D3" unicode="&#x1d3;" horiz-adv-x="698" 
d="M362 687l-103 97q-1 1 0 3t3 3t3 1l109 -57l108 57q1 1 3.5 -0.5t3 -3.5t-1.5 -3l-102 -97q-11 -11 -23 0zM572 515q0 98 -87 98q-3 0 -3 6t3 6q14 0 46.5 -1.5t53.5 -1.5q17 0 47.5 1.5t43.5 1.5q2 0 2 -6t-2 -6q-80 0 -80 -98v-284q0 -115 -64 -179.5t-172 -64.5
q-112 0 -179 64.5t-67 172.5v320q0 43 -15.5 56t-69.5 13q-2 0 -2 6t2 6q14 0 53.5 -1.5t63.5 -1.5q25 0 64.5 1.5t53.5 1.5q3 0 3 -6t-3 -6q-54 0 -69.5 -13.5t-15.5 -57.5v-283q0 -117 53.5 -179.5t149.5 -62.5q90 0 140 56.5t50 156.5v285z" />
    <glyph glyph-name="uni01D4" unicode="&#x1d4;" horiz-adv-x="493" 
d="M226 477l-68 249q0 2 2.5 3.5t5.5 1t3 -1.5l69 -165l68 165q0 1 3 1.5t5.5 -1t1.5 -3.5l-67 -249q-1 -5 -11 -5t-12 5zM485 57q4 1 6.5 -4t-1.5 -7l-117 -55q-2 -1 -4 -1q-6 0 -12 9t-11 29t-5 45v4q-76 -85 -159 -85q-50 0 -78 31.5t-28 91.5v153q0 74 -30 74
q-14 0 -34 -10q-2 -1 -4.5 1.5t-2.5 6t2 4.5l111 50q2 1 4 1q3 0 6.5 -2.5t3.5 -5.5v-239q0 -116 84 -116q68 0 125 62v174q0 40 -6.5 57t-23.5 17q-14 0 -34 -10q-2 -1 -4.5 2t-2.5 6t3 4l111 50q2 1 3 1q10 0 10 -8v-280q0 -64 35 -64q17 0 53 14z" />
    <glyph glyph-name="uni01D5" unicode="&#x1d5;" horiz-adv-x="698" 
d="M257 841q-6 0 -6 14t6 14h233q6 0 6 -14t-6 -14h-233zM287 705q-43 0 -43 42q0 40 43 40q41 0 41 -40q0 -42 -41 -42zM462 705q-20 0 -31.5 11t-11.5 31q0 19 11.5 29.5t31.5 10.5q42 0 42 -40q0 -42 -42 -42zM572 515q0 98 -87 98q-3 0 -3 6t3 6q14 0 46.5 -1.5
t53.5 -1.5q17 0 47.5 1.5t43.5 1.5q2 0 2 -6t-2 -6q-80 0 -80 -98v-284q0 -115 -64 -179.5t-172 -64.5q-112 0 -179 64.5t-67 172.5v320q0 43 -15.5 56t-69.5 13q-2 0 -2 6t2 6q14 0 53.5 -1.5t63.5 -1.5q25 0 64.5 1.5t53.5 1.5q3 0 3 -6t-3 -6q-54 0 -69.5 -13.5
t-15.5 -57.5v-283q0 -117 53.5 -179.5t149.5 -62.5q90 0 140 56.5t50 156.5v285z" />
    <glyph glyph-name="uni01D6" unicode="&#x1d6;" horiz-adv-x="493" 
d="M121 602q-6 0 -6 14t6 14h233q6 0 6 -14t-6 -14h-233zM151 466q-43 0 -43 42q0 40 43 40q41 0 41 -40q0 -42 -41 -42zM326 548q42 0 42 -40q0 -42 -42 -42q-20 0 -31.5 11t-11.5 31q0 19 11.5 29.5t31.5 10.5zM485 57q4 1 6.5 -4t-1.5 -7l-117 -55q-2 -1 -4 -1
q-6 0 -12 9t-11 29t-5 45v4q-76 -85 -159 -85q-50 0 -78 31.5t-28 91.5v153q0 74 -30 74q-14 0 -34 -10q-2 -1 -4.5 1.5t-2.5 6t2 4.5l111 50q2 1 4 1q3 0 6.5 -2.5t3.5 -5.5v-239q0 -116 84 -116q68 0 125 62v174q0 40 -6.5 57t-23.5 17q-14 0 -34 -10q-2 -1 -4.5 2t-2.5 6
t3 4l111 50q2 1 3 1q10 0 10 -8v-280q0 -64 35 -64q17 0 53 14z" />
    <glyph glyph-name="uni01D7" unicode="&#x1d7;" horiz-adv-x="698" 
d="M259 819q-2 -1 -4 1.5t-2 5.5t2 4q38 18 98 52t75 42q9 6 50 -14q18 -9 17 -12q0 -2 -2 -2q-122 -29 -234 -77zM287 705q-43 0 -43 42q0 40 43 40q41 0 41 -40q0 -42 -41 -42zM462 705q-20 0 -31.5 11t-11.5 31q0 19 11.5 29.5t31.5 10.5q42 0 42 -40q0 -42 -42 -42z
M572 515q0 98 -87 98q-3 0 -3 6t3 6q14 0 46.5 -1.5t53.5 -1.5q17 0 47.5 1.5t43.5 1.5q2 0 2 -6t-2 -6q-80 0 -80 -98v-284q0 -115 -64 -179.5t-172 -64.5q-112 0 -179 64.5t-67 172.5v320q0 43 -15.5 56t-69.5 13q-2 0 -2 6t2 6q14 0 53.5 -1.5t63.5 -1.5q25 0 64.5 1.5
t53.5 1.5q3 0 3 -6t-3 -6q-54 0 -69.5 -13.5t-15.5 -57.5v-283q0 -117 53.5 -179.5t149.5 -62.5q90 0 140 56.5t50 156.5v285z" />
    <glyph glyph-name="uni01D8" unicode="&#x1d8;" horiz-adv-x="493" 
d="M123 580q-2 -1 -4 1.5t-2 5.5t2 4q38 18 98 52t75 42q9 6 50 -14q18 -9 17 -12q0 -2 -2 -2q-122 -29 -234 -77zM151 466q-43 0 -43 42q0 40 43 40q41 0 41 -40q0 -42 -41 -42zM326 548q42 0 42 -40q0 -42 -42 -42q-20 0 -31.5 11t-11.5 31q0 19 11.5 29.5t31.5 10.5z
M485 57q4 1 6.5 -4t-1.5 -7l-117 -55q-2 -1 -4 -1q-6 0 -12 9t-11 29t-5 45v4q-76 -85 -159 -85q-50 0 -78 31.5t-28 91.5v153q0 74 -30 74q-14 0 -34 -10q-2 -1 -4.5 1.5t-2.5 6t2 4.5l111 50q2 1 4 1q3 0 6.5 -2.5t3.5 -5.5v-239q0 -116 84 -116q68 0 125 62v174
q0 40 -6.5 57t-23.5 17q-14 0 -34 -10q-2 -1 -4.5 2t-2.5 6t3 4l111 50q2 1 3 1q10 0 10 -8v-280q0 -64 35 -64q17 0 53 14z" />
    <glyph glyph-name="uni01D9" unicode="&#x1d9;" horiz-adv-x="698" 
d="M365 815l-106 97q-1 1 0 3t3 3t3 1l112 -59l110 59q2 1 4.5 0t3 -3t-1.5 -4l-106 -97q-11 -11 -22 0zM287 705q-43 0 -43 42q0 40 43 40q41 0 41 -40q0 -42 -41 -42zM462 705q-20 0 -31.5 11t-11.5 31q0 19 11.5 29.5t31.5 10.5q42 0 42 -40q0 -42 -42 -42zM572 515
q0 98 -87 98q-3 0 -3 6t3 6q14 0 46.5 -1.5t53.5 -1.5q17 0 47.5 1.5t43.5 1.5q2 0 2 -6t-2 -6q-80 0 -80 -98v-284q0 -115 -64 -179.5t-172 -64.5q-112 0 -179 64.5t-67 172.5v320q0 43 -15.5 56t-69.5 13q-2 0 -2 6t2 6q14 0 53.5 -1.5t63.5 -1.5q25 0 64.5 1.5t53.5 1.5
q3 0 3 -6t-3 -6q-54 0 -69.5 -13.5t-15.5 -57.5v-283q0 -117 53.5 -179.5t149.5 -62.5q90 0 140 56.5t50 156.5v285z" />
    <glyph glyph-name="uni01DA" unicode="&#x1da;" horiz-adv-x="493" 
d="M123 673q-1 1 0 3t3 3t3 1l112 -59l110 59q2 1 4.5 0t3 -3t-1.5 -4l-106 -97q-11 -11 -22 0zM151 466q-43 0 -43 42q0 40 43 40q41 0 41 -40q0 -42 -41 -42zM326 548q42 0 42 -40q0 -42 -42 -42q-20 0 -31.5 11t-11.5 31q0 19 11.5 29.5t31.5 10.5zM485 57q4 1 6.5 -4
t-1.5 -7l-117 -55q-2 -1 -4 -1q-6 0 -12 9t-11 29t-5 45v4q-76 -85 -159 -85q-50 0 -78 31.5t-28 91.5v153q0 74 -30 74q-14 0 -34 -10q-2 -1 -4.5 1.5t-2.5 6t2 4.5l111 50q2 1 4 1q3 0 6.5 -2.5t3.5 -5.5v-239q0 -116 84 -116q68 0 125 62v174q0 40 -6.5 57t-23.5 17
q-14 0 -34 -10q-2 -1 -4.5 2t-2.5 6t3 4l111 50q2 1 3 1q10 0 10 -8v-280q0 -64 35 -64q17 0 53 14z" />
    <glyph glyph-name="uni01DB" unicode="&#x1db;" horiz-adv-x="698" 
d="M502 819q-111 48 -233 77q-9 2 12 13q41 19 53 15q15 -8 75 -42t98 -52q2 -1 2 -4t-2 -5.5t-5 -1.5zM300 705q-41 0 -41 42q0 40 41 40q20 0 31 -10.5t11 -29.5q0 -42 -42 -42zM475 705q-42 0 -42 42q0 40 42 40q43 0 43 -40q0 -42 -43 -42zM572 515q0 98 -87 98
q-3 0 -3 6t3 6q14 0 46.5 -1.5t53.5 -1.5q17 0 47.5 1.5t43.5 1.5q2 0 2 -6t-2 -6q-80 0 -80 -98v-284q0 -115 -64 -179.5t-172 -64.5q-112 0 -179 64.5t-67 172.5v320q0 43 -15.5 56t-69.5 13q-2 0 -2 6t2 6q14 0 53.5 -1.5t63.5 -1.5q25 0 64.5 1.5t53.5 1.5q3 0 3 -6
t-3 -6q-54 0 -69.5 -13.5t-15.5 -57.5v-283q0 -117 53.5 -179.5t149.5 -62.5q90 0 140 56.5t50 156.5v285z" />
    <glyph glyph-name="uni01DC" unicode="&#x1dc;" horiz-adv-x="493" 
d="M133 657q-9 2 12 13q41 19 53 15q15 -8 75 -42t98 -52q2 -1 2 -4t-2 -5.5t-5 -1.5q-111 48 -233 77zM164 466q-41 0 -41 42q0 40 41 40q20 0 31 -10.5t11 -29.5q0 -42 -42 -42zM339 548q43 0 43 -40q0 -42 -43 -42q-42 0 -42 42q0 40 42 40zM485 57q4 1 6.5 -4t-1.5 -7
l-117 -55q-2 -1 -4 -1q-6 0 -12 9t-11 29t-5 45v4q-76 -85 -159 -85q-50 0 -78 31.5t-28 91.5v153q0 74 -30 74q-14 0 -34 -10q-2 -1 -4.5 1.5t-2.5 6t2 4.5l111 50q2 1 4 1q3 0 6.5 -2.5t3.5 -5.5v-239q0 -116 84 -116q68 0 125 62v174q0 40 -6.5 57t-23.5 17
q-14 0 -34 -10q-2 -1 -4.5 2t-2.5 6t3 4l111 50q2 1 3 1q10 0 10 -8v-280q0 -64 35 -64q17 0 53 14z" />
    <glyph glyph-name="uni01E2" unicode="&#x1e2;" horiz-adv-x="874" 
d="M453 722q-6 0 -6 14t6 14h251q6 0 6 -14t-6 -14h-251zM813 149q0 2 3 2t6 -1t3 -3q-9 -63 -9 -132q0 -15 -16 -15h-408q-2 0 -2 6t2 6q54 0 69.5 12.5t15.5 56.5v234h-172l-129 -189q-78 -114 48 -114q4 0 4 -6t-4 -6q-20 0 -57.5 2t-65.5 2q-23 0 -52 -2t-46 -2
q-5 0 -5 6t5 6q64 0 147 120l303 442q19 27 8 33t-72 6q-2 0 -2 6t2 6h394q9 0 9 -9l2 -123q0 -2 -3 -3t-5.5 -0.5t-2.5 2.5q-2 47 -32.5 79.5t-74.5 32.5h-55q-49 0 -64.5 -11.5t-15.5 -49.5v-207h112q49 0 69.5 16t20.5 54q0 2 6 2t6 -2q0 -22 -0.5 -46t-0.5 -35
q0 -15 1 -45t1 -47q0 -2 -6 -2t-6 2q0 44 -21.5 63t-71.5 19h-110v-230q0 -39 15 -51.5t63 -12.5h73q43 0 77 36t44 92zM319 336h158v231z" />
    <glyph glyph-name="uni01E3" unicode="&#x1e3;" horiz-adv-x="589" 
d="M179 483q-6 0 -6 14t6 14h251q6 0 6 -14t-6 -14h-251zM552 56q3 2 6.5 -2.5t0.5 -7.5q-64 -58 -139 -58q-99 0 -138 74l-81 -41q-53 -28 -87 -28q-31 0 -49 16.5t-18 42.5t20 41t74 34l116 39v4q-6 135 -18 168q-16 39 -56 40q-57 0 -67 -87q-3 -36 -34 -36q-36 0 -36 32
q0 34 53.5 71t105.5 37q34 0 60.5 -18.5t36.5 -50.5q59 69 149 69q50 0 77 -26.5t27 -74.5q0 -21 -13 -21h-46l-175 -2q-5 -28 -5 -56q5 -194 135 -194q62 0 101 35zM418 375q-35 0 -59 -23.5t-35 -66.5l161 4q0 41 -18 63.5t-49 22.5zM201 36l76 36q-14 33 -19 82l-99 -36
q-23 -8 -32 -18t-9 -26q0 -20 12 -32.5t32 -12.5q24 0 39 7z" />
    <glyph glyph-name="Gcaron" unicode="&#x1e6;" horiz-adv-x="714" 
d="M382 687l-103 97q-1 1 0 3t3 3t3 1l109 -57l108 57q1 1 3.5 -0.5t3 -3.5t-1.5 -3l-102 -97q-11 -11 -23 0zM405 -12q-164 0 -260 90.5t-96 226.5q0 147 107.5 239t273.5 92q108 0 166 -36q11 -7 12 -23l12 -112q0 -3 -5.5 -3.5t-6.5 2.5q-22 72 -79.5 111t-141.5 39
q-126 0 -195 -73t-69 -200q0 -147 86.5 -241.5t219.5 -94.5q76 0 104.5 23.5t28.5 97.5q0 73 -17.5 90t-95.5 17q-4 0 -5.5 4t0 8t4.5 4q112 -8 224 -2q5 0 5 -7t-5 -7q-34 1 -42 -18t-8 -99q0 -40 3.5 -63t3.5 -25q0 -6 -2 -8t-9 -4q-121 -28 -213 -28z" />
    <glyph glyph-name="gcaron" unicode="&#x1e7;" horiz-adv-x="433" 
d="M200 477l-68 249q0 2 2.5 3.5t5.5 1t3 -1.5l69 -165l68 165q0 1 3 1.5t5.5 -1t1.5 -3.5l-67 -249q-1 -5 -11 -5t-12 5zM222 32q7 -1 20 -3q35 -5 53.5 -8.5t47 -12t42.5 -19.5t25.5 -31t11.5 -46q0 -71 -75 -132.5t-174 -61.5q-71 0 -114.5 34t-43.5 87q0 79 114 155
q-68 20 -68 68q0 54 72 103q-39 14 -60 43.5t-21 66.5q0 52 44 85t111 33q66 0 102 -31q53 32 107 32q6 0 6 -22q0 -28 -8 -34q-1 -1 -2 0q-42 15 -66 15q-11 0 -25 -2q26 -30 26 -71q0 -52 -42 -88.5t-109 -36.5q-28 0 -51 6q-37 -26 -37 -64q0 -14 7 -24t16 -16.5
t27.5 -11.5t29.5 -7t34 -6zM182 378q-67 0 -67 -82q0 -58 30.5 -92.5t71.5 -34.5q30 0 49 22.5t19 68.5q0 52 -30.5 85t-72.5 33zM213 -252q73 0 115 38t42 91q0 29 -14 49t-41 30t-52 15t-61 10q-7 1 -10 1q-31 4 -43 7q-36 -23 -55.5 -50t-19.5 -68q0 -56 37.5 -89.5
t101.5 -33.5z" />
    <glyph glyph-name="uni01E8" unicode="&#x1e8;" horiz-adv-x="650" 
d="M211 784q-1 1 0 3t3 3t3 1l109 -57l108 57q1 1 3.5 -0.5t3 -3.5t-1.5 -3l-102 -97q-11 -11 -23 0zM641 12q3 0 3 -6t-3 -6h-112q-39 0 -46 3q-10 5 -40 48q-35 49 -71 94l-153 193l-33 -32v-225q0 -44 15.5 -56.5t69.5 -12.5q3 0 3 -6t-3 -6q-14 0 -53.5 1t-64.5 1
q-23 0 -63 -1t-55 -1q-2 0 -2 6t2 6q55 0 70.5 12.5t15.5 56.5v463q0 43 -15.5 56t-69.5 13q-2 0 -2 6t2 6q15 0 54.5 -1.5t62.5 -1.5q25 0 65 1.5t53 1.5q3 0 3 -6t-3 -6q-53 0 -69 -14t-16 -57v-211l214 213q38 38 32 53.5t-58 15.5q-2 0 -2 6t2 6q14 0 50 -1.5t66 -1.5
q29 0 62 1.5t44 1.5q3 0 3 -6t-3 -6q-97 0 -173 -75l-158 -155l144 -184q38 -49 64.5 -82t49.5 -53.5t34.5 -31.5t30.5 -15t24 -4.5t29 -0.5z" />
    <glyph glyph-name="uni01E9" unicode="&#x1e9;" horiz-adv-x="491" 
d="M108 739q-12 -11 -23 0l-103 97q-1 1 0 3t3 3t3 1l109 -57l108 57q1 1 3.5 -0.5t3 -3.5t-1.5 -3zM483 12q3 0 3 -6t-3 -6q-11 0 -41.5 1t-49.5 1q-28 0 -65 -1t-50 -1q-2 0 -2 6t2 6q36 0 46 9.5t-5 31.5l-123 167l-50 -39v-100q0 -43 12 -56t51 -13q3 0 3 -6t-3 -6
q-11 0 -41.5 1t-49.5 1t-49.5 -1t-41.5 -1q-3 0 -3 6t3 6q39 0 51 13t12 56v517q0 36 -7 52t-25 16q-15 0 -46 -14q-2 -1 -4.5 1.5t-3 5.5t2.5 4l125 61q3 1 5 1q9 0 9 -8v-520l134 108q39 31 31.5 50t-56.5 19q-3 0 -3 6t3 6q13 0 48.5 -1t65.5 -1q28 0 60 1t43 1q3 0 3 -6
t-3 -6q-81 0 -172 -72l-58 -46l127 -175q50 -69 115 -69z" />
    </font>
</defs>
</svg>
