<?xml version="1.0" standalone="no"?>
<!DOCTYPE svg PUBLIC "-//W3C//DTD SVG 1.1//EN" "http://www.w3.org/Graphics/SVG/1.1/DTD/svg11.dtd" >
<svg xmlns="http://www.w3.org/2000/svg">
<metadata></metadata>
<defs>
<font id="myriad_probold" horiz-adv-x="1136" >
<font-face units-per-em="2048" ascent="1536" descent="-512" />
<missing-glyph horiz-adv-x="413" />
<glyph unicode="&#xfb01;" horiz-adv-x="1204" d="M29 772v229h133v43q0 104 38 184.5t107.5 135.5t164.5 84t212 29q39 0 82 -4.5t83 -12.5t73.5 -19t56.5 -26l-59 -235q-37 20 -95.5 35.5t-132.5 15.5q-123 0 -172 -55.5t-49 -139.5v-35h608v-1001h-311v772h-295v-772h-311v772h-133z" />
<glyph unicode="&#xfb02;" horiz-adv-x="1204" d="M29 772v229h133v43q0 86 40 173.5t111 146.5q74 59 167 86t214 27q113 0 211.5 -21.5t173.5 -62.5v-1393h-311v1225q-37 20 -119 20q-94 0 -136 -59.5t-42 -145.5v-39h182v-229h-180v-772h-311v772h-133z" />
<glyph unicode="&#xfb03;" horiz-adv-x="1841" d="M29 772v229h133v17q0 92 29.5 178t99.5 150q49 47 122.5 76.5t176.5 29.5q53 0 99 -11t75 -22l-70 -225q-37 20 -88 20q-31 0 -53.5 -10t-38.5 -26q-25 -25 -34 -66t-9 -82v-29h328v43q0 104 37.5 184.5t107.5 135.5t165 84t212 29q74 0 151.5 -14.5t126.5 -39.5 l-65 -233q-37 16 -89 28.5t-116 12.5q-123 0 -172 -55.5t-49 -139.5v-35h608v-1001h-311v772h-295v-772h-311v772h-326v-772h-311v772h-133z" />
<glyph unicode="&#xfb04;" horiz-adv-x="1841" d="M29 772v229h133v15q0 100 31.5 183t93.5 140q59 55 143 84t182 29q45 0 88 -9t68 -20l-66 -227q-43 16 -92 16q-61 0 -94 -36q-27 -25 -36 -64t-9 -82v-29h328v43q0 86 40 173.5t111 146.5q74 59 167 86t214 27q113 0 211 -21.5t174 -62.5v-1393h-311v1225 q-37 20 -119 20q-94 0 -136 -59.5t-42 -145.5v-39h182v-229h-180v-772h-311v772h-326v-772h-311v772h-133z" />
<glyph horiz-adv-x="2048" />
<glyph horiz-adv-x="2048" />
<glyph unicode="&#xd;" horiz-adv-x="413" />
<glyph unicode=" "  horiz-adv-x="413" />
<glyph unicode="&#x09;" horiz-adv-x="413" />
<glyph unicode="&#xa0;" horiz-adv-x="413" />
<glyph unicode="!" horiz-adv-x="548" d="M90 164q0 84 51.5 135t132.5 51q82 0 131.5 -51t51.5 -135q0 -80 -49.5 -133.5t-133.5 -53.5h-2q-82 0 -132 53.5t-50 133.5zM113 1380h323l-45 -927h-233z" />
<glyph unicode="&#x22;" horiz-adv-x="813" d="M74 1417h274l-45 -555h-184zM467 1417h274l-45 -555h-184z" />
<glyph unicode="#" horiz-adv-x="1126" d="M76 367v188h198l33 231h-172v189h201l53 356h180l-51 -356h189l51 356h182l-51 -356h164v-189h-195l-31 -231h168v-188h-200l-52 -367h-184l53 367h-186l-51 -367h-185l54 367h-168zM457 555h188l31 231h-187z" />
<glyph unicode="$" d="M113 104l61 240q66 -35 153 -62.5t187 -27.5q88 0 143.5 34t55.5 93t-52.5 99t-166.5 79q-82 27 -150 61.5t-117 78.5t-75.5 102.5t-26.5 132.5q0 137 90 235.5t256 128.5v195h201v-180q104 -4 175 -23.5t124 -44.5l-62 -231q-39 18 -111.5 44.5t-183.5 26.5 q-100 0 -138 -36.5t-38 -79.5q0 -49 57.5 -88t188.5 -86q184 -66 263 -156t79 -229q0 -137 -93 -242t-271 -135v-211h-201v196q-104 4 -196.5 29t-151.5 57z" />
<glyph unicode="%" horiz-adv-x="1802" d="M55 936q0 88 27 165t75 133t116.5 88t154.5 32h2q86 0 151.5 -30t111.5 -83t69.5 -126t23.5 -159q0 -104 -30.5 -183t-81.5 -132t-118 -81t-138 -28q-76 0 -142.5 28t-115.5 80t-77 127t-28 169zM287 942q-2 -104 33.5 -172t103.5 -68q66 0 98.5 63.5t32.5 178.5 q0 102 -30.5 171t-102.5 69h-2q-70 0 -101.5 -70t-31.5 -172zM432 -23l766 1375h166l-764 -1375h-168zM1016 383q0 88 26.5 165t74.5 133t117 88t152 32h3q86 0 151.5 -30t111.5 -83t69.5 -124.5t23.5 -157.5q0 -104 -31 -183.5t-82 -132.5t-117.5 -80.5t-138.5 -27.5 q-76 0 -141.5 27.5t-114.5 79.5t-76.5 126t-27.5 168zM1247 391q-2 -104 34 -171.5t101 -67.5q66 0 98.5 63.5t32.5 175.5q0 51 -7 94t-22.5 76t-41 51.5t-60.5 18.5h-2q-70 0 -101.5 -69.5t-31.5 -170.5z" />
<glyph unicode="&#x26;" horiz-adv-x="1388" d="M63 369q0 137 72 235t191 162v6q-45 49 -75 121t-30 145q0 66 25.5 131.5t78 117.5t130 84t182.5 32q80 0 148.5 -22.5t117.5 -64.5t78 -102.5t29 -134.5q0 -104 -64.5 -193t-208.5 -161v-8q59 -66 118.5 -135.5t111.5 -122.5q41 66 71.5 154.5t44.5 181.5h279 q-29 -158 -83 -289t-146 -236q59 -66 118.5 -133t124.5 -137h-362q-23 23 -44.5 46.5t-45.5 51.5q-68 -53 -162 -87t-217 -34q-125 0 -216 34t-149.5 89.5t-87.5 125t-29 143.5zM356 420q0 -90 61.5 -153.5t170.5 -63.5h2q59 0 108.5 20.5t79.5 48.5q-66 63 -145.5 152.5 t-165.5 185.5q-43 -31 -77 -77t-34 -113zM500 1067q0 -53 23.5 -100t70.5 -99q76 53 113.5 98.5t37.5 104.5q0 49 -29.5 93t-90.5 44h-2q-59 0 -91 -43t-32 -98z" />
<glyph unicode="'" horiz-adv-x="419" d="M74 1417h274l-45 -555h-184z" />
<glyph unicode="(" horiz-adv-x="643" d="M123 586q0 150 21.5 275.5t55 229t74.5 184.5t82 140h217q-86 -141 -146 -347t-60 -482q0 -272 60 -476t146 -350h-217q-41 59 -82 140.5t-74.5 184.5t-55 228t-21.5 273z" />
<glyph unicode=")" horiz-adv-x="643" d="M72 -240q86 143 146.5 349t60.5 481q0 272 -60.5 477t-146.5 348h217q41 -59 82 -140t74.5 -183.5t55 -228.5t21.5 -275q0 -150 -21.5 -275t-55 -227t-74.5 -183t-82 -143h-217z" />
<glyph unicode="*" horiz-adv-x="929" d="M61 895v207l320 -66v4l-215 258l182 105l113 -313h4l119 313l178 -103l-219 -260v-4l327 66v-207l-329 55v-6l221 -252l-180 -106l-119 317l-4 -2l-117 -315l-176 106l219 256l-2 4z" />
<glyph unicode="+" horiz-adv-x="1220" d="M82 453v190h428v447h201v-447h428v-190h-428v-453h-201v453h-428z" />
<glyph unicode="," horiz-adv-x="532" d="M2 -246q49 137 88 289t62 293l317 20q-51 -158 -117.5 -310t-140.5 -273z" />
<glyph unicode="-" horiz-adv-x="659" d="M61 434v207h537v-207h-537z" />
<glyph unicode="." horiz-adv-x="532" d="M102 166q0 86 51.5 138t133.5 52q80 0 130 -52t52 -138q0 -82 -50 -135.5t-134 -53.5h-2q-78 0 -129.5 53.5t-51.5 135.5z" />
<glyph unicode="/" horiz-adv-x="677" d="M33 -82l438 1485h207l-438 -1485h-207z" />
<glyph unicode="0" d="M68 664q0 145 30.5 271t93 219t157.5 146.5t224 53.5q133 0 227.5 -55.5t154 -149.5t87 -217t27.5 -260q0 -154 -30.5 -282t-94 -219t-158 -142.5t-219.5 -51.5h-2q-129 0 -222 54.5t-154.5 147.5t-91 218t-29.5 267zM379 668q-2 -231 49 -343t141 -112h2q186 0 187 455 q0 223 -47 336.5t-142 113.5q-88 0 -139 -111.5t-51 -338.5z" />
<glyph unicode="1" d="M174 1167l354 164h256v-1331h-301v1055h-4l-254 -121z" />
<glyph unicode="2" d="M88 0v188l170 154q111 98 191.5 177t135 146.5t82 126t27.5 117.5q0 82 -51 138.5t-166 56.5q-86 0 -158.5 -35t-125.5 -74l-89 222q74 57 186.5 97t248.5 40q113 0 200.5 -32t146 -87t89.5 -132t31 -167q0 -84 -28 -160t-76 -146.5t-112.5 -137t-138.5 -130.5l-123 -102 v-4h504v-256h-944z" />
<glyph unicode="3" d="M78 70l63 235q20 -12 53 -26.5t74 -26.5t88 -20.5t95 -8.5q123 0 183 51.5t60 124.5q0 49 -22.5 86t-59.5 60.5t-85 35t-99 11.5h-127v223h121q39 0 81 8t75.5 26.5t56 47.5t22.5 72q0 59 -48 99t-148 40q-82 0 -159 -27.5t-118 -52.5l-63 225q59 39 169.5 70t241.5 31 q106 0 188.5 -27t138.5 -72t85 -105t29 -128q0 -106 -60.5 -187t-183.5 -122v-4q59 -10 112.5 -38t92.5 -70t61.5 -97t22.5 -121q0 -88 -38 -162t-108.5 -128t-171 -85t-227.5 -31q-129 0 -232.5 29t-162.5 64z" />
<glyph unicode="4" d="M47 317v203l502 811h383v-780h158v-234h-158v-317h-295v317h-590zM336 551h301v295q0 59 2 120.5t6 127.5h-6q-33 -66 -61.5 -125.5t-63.5 -122.5l-176 -291z" />
<glyph unicode="5" d="M86 53l57 234q43 -23 125 -44.5t174 -21.5q49 0 96.5 12.5t85.5 37t61.5 62.5t23.5 91q0 104 -87 162.5t-288 58.5q-55 0 -96 -3t-82 -9l86 698h733v-256h-516l-29 -205q23 2 42.5 3t43.5 1q96 0 188.5 -22.5t161.5 -73.5q76 -51 119 -134t43 -200q0 -92 -39 -177 t-112.5 -149.5t-179 -102.5t-240.5 -38q-123 0 -219.5 24t-151.5 52z" />
<glyph unicode="6" d="M61 559q0 188 63.5 340t174.5 254q98 92 227 139t285 56q43 4 72.5 4t52.5 -2v-240q-27 2 -55.5 1t-65.5 -5q-104 -8 -180 -37t-128 -72t-83 -97t-43 -112h6q49 49 120 77t163 28q84 0 158.5 -28.5t131 -84t89 -136.5t32.5 -185q0 -98 -35.5 -186.5t-101 -154 t-156 -103.5t-196.5 -38q-133 0 -233.5 46.5t-166 126t-98.5 185t-33 224.5zM371 475q2 -53 16 -101t41 -85t65.5 -59.5t92.5 -22.5h2q82 0 130 66.5t48 168.5q0 92 -49 161t-150 69q-63 0 -111 -34t-71 -83q-14 -27 -14 -80z" />
<glyph unicode="7" d="M100 1075v256h940v-194l-548 -1137h-330l549 1071v4h-611z" />
<glyph unicode="8" d="M66 348q0 121 63.5 204t173.5 130v4q-98 51 -145 128t-47 165q0 84 35.5 153.5t98 118.5t148.5 76t185 27h2q117 0 199.5 -31t137 -80t79 -109.5t24.5 -121.5q0 -86 -47 -165t-148 -128v-6q49 -18 93.5 -48t78 -72t54 -94.5t20.5 -115.5q0 -90 -37 -165t-103.5 -128 t-160.5 -83t-211 -30q-127 0 -220 33t-153.5 85t-90 119t-29.5 134zM383 379q0 -37 12.5 -70t37 -59.5t59 -41.5t77.5 -15h2q82 0 132.5 47t50.5 118q0 88 -58.5 141.5t-150.5 78.5q-78 -23 -120 -75t-42 -124zM406 989q0 -68 53 -111.5t133 -68.5q53 16 94 61t41 107 q0 63 -38 114.5t-122 51.5h-2q-80 0 -119.5 -46t-39.5 -108z" />
<glyph unicode="9" d="M61 874q0 98 37 185.5t103.5 153t159 103.5t202.5 38q129 0 223.5 -46t157 -124t93 -182.5t30.5 -221.5q0 -211 -61.5 -361.5t-169.5 -250.5q-96 -88 -225.5 -134t-286.5 -52q-39 -4 -77 -3t-65 3v243q31 -4 59.5 -4t75.5 4q72 4 141.5 24.5t123.5 57.5 q66 43 108.5 106.5t59.5 139.5l-5 2q-47 -47 -112.5 -71.5t-157.5 -24.5q-84 0 -159.5 28.5t-132 82t-89.5 130t-33 174.5zM371 893q0 -86 47 -149.5t141 -63.5q66 0 110 25.5t66 60.5q8 16 11.5 33.5t3.5 46.5q0 53 -10.5 103t-34 90t-60.5 63.5t-90 23.5h-2 q-78 0 -130 -64.5t-52 -168.5z" />
<glyph unicode=":" horiz-adv-x="532" d="M104 164q0 84 51.5 136t131.5 52q82 0 131 -51t51 -137q0 -80 -49 -133.5t-133 -53.5h-2q-80 0 -130.5 53.5t-50.5 133.5zM104 825q0 84 51.5 136.5t131.5 52.5q82 0 131 -51.5t51 -137.5q0 -80 -49 -133t-133 -53h-2q-80 0 -130.5 53t-50.5 133z" />
<glyph unicode=";" horiz-adv-x="532" d="M4 -244q49 135 88 288t62 294l313 20q-49 -158 -116.5 -310t-139.5 -273zM115 825q0 84 51 136.5t131 52.5q82 0 131 -51.5t51 -137.5q0 -80 -49 -133t-133 -53h-2q-80 0 -130 53t-50 133z" />
<glyph unicode="&#x3c;" horiz-adv-x="1220" d="M119 455v176l985 456v-217l-746 -325v-4l746 -324v-217z" />
<glyph unicode="=" horiz-adv-x="1220" d="M82 242v190h1057v-190h-1057zM82 666v190h1057v-190h-1057z" />
<glyph unicode="&#x3e;" horiz-adv-x="1220" d="M117 0v215l762 326v4l-762 325v217l985 -450v-188z" />
<glyph unicode="?" horiz-adv-x="911" d="M100 1321q55 33 143.5 58.5t198.5 25.5q100 0 174 -25.5t123 -69.5t73 -101.5t24 -121.5q0 -59 -16.5 -108t-42 -91t-57.5 -78t-61 -69q-106 -123 -104 -256v-36h-270l-4 53q-4 78 23.5 157.5t96.5 163.5q49 59 84 110.5t35 102.5q0 53 -35.5 87t-111.5 36 q-53 0 -108.5 -16.5t-96.5 -44.5zM229 164q0 84 51.5 135t131.5 51q84 0 133 -51t51 -135q0 -80 -49 -133.5t-133 -53.5h-2q-82 0 -132.5 53.5t-50.5 133.5z" />
<glyph unicode="@" horiz-adv-x="1576" d="M102 432q0 156 55.5 298t156 248.5t241.5 170t313 63.5q135 0 250 -44t197 -122.5t128 -187t46 -237.5q0 -113 -29.5 -203t-82 -153.5t-124 -98.5t-153.5 -35q-72 0 -120 39t-56 121h-4q-100 -160 -267 -160q-98 0 -163.5 70.5t-65.5 199.5q0 94 34 180.5t96 152 t151.5 104.5t199.5 39q68 0 136.5 -14.5t105.5 -35.5l-62 -381q-14 -90 -1.5 -133t55.5 -45q33 -2 67.5 19.5t64 64.5t48 108.5t18.5 153.5q0 100 -31.5 187.5t-94 151t-153.5 99t-210 35.5t-225.5 -44t-187.5 -126.5t-128 -200.5t-47 -265q0 -129 39 -229.5t107.5 -168 t165 -103.5t210.5 -36q78 0 158 16.5t141 46.5l35 -116q-92 -41 -179 -57.5t-196 -16.5q-127 0 -242.5 44t-203.5 128t-140.5 203t-52.5 270zM631 424q0 -59 25.5 -92t74.5 -33q59 0 110.5 61.5t63.5 151.5l31 195q-12 4 -28.5 6t-35.5 2q-51 0 -95 -23.5t-76.5 -63.5 t-51 -92.5t-18.5 -111.5z" />
<glyph unicode="A" horiz-adv-x="1343" d="M35 0l422 1380h407l430 -1380h-336l-106 354h-397l-97 -354h-323zM500 588h305l-86 293q-16 61 -33.5 133.5t-34.5 132.5h-6q-14 -61 -29.5 -134t-31.5 -132z" />
<glyph unicode="B" horiz-adv-x="1236" d="M135 6v1354q31 6 76 11t98 10t111.5 7.5t118.5 2.5q143 0 237 -16.5t170 -61.5q72 -39 118 -107.5t46 -165.5q0 -92 -54.5 -169.5t-170.5 -122.5v-5q119 -31 196.5 -117.5t77.5 -222.5q0 -96 -39 -168.5t-104 -123.5q-76 -59 -206 -92t-337 -33q-117 0 -201 6t-137 14z M444 221q23 -4 51.5 -5t69.5 -1q53 0 101.5 11.5t85 35t58 61t21.5 93.5q0 51 -21.5 89t-60 60.5t-90 33.5t-108.5 11h-107v-389zM444 834h103q125 0 188.5 46t63.5 124t-57.5 118.5t-163.5 40.5q-53 0 -84 -3t-50 -7v-319z" />
<glyph unicode="C" horiz-adv-x="1218" d="M72 672q0 176 59 312t160.5 228.5t239 140.5t294.5 48q123 0 211 -19.5t129 -40.5l-65 -247q-47 20 -111.5 35.5t-150.5 15.5q-92 0 -172 -29t-139.5 -85t-93.5 -142t-34 -201q0 -207 116 -327.5t325 -120.5q72 0 143.5 12t118.5 33l45 -246q-41 -20 -134 -39.5 t-218 -19.5q-178 0 -314.5 53t-226.5 145t-136 219t-46 275z" />
<glyph unicode="D" horiz-adv-x="1425" d="M135 6v1354q86 16 194.5 23.5t225.5 7.5q199 0 334 -37t233 -111q109 -80 171.5 -207t62.5 -313q0 -199 -64.5 -336t-163.5 -223q-111 -92 -272.5 -135t-366.5 -43q-123 0 -209.5 6t-144.5 14zM446 236q20 -4 50 -5.5t59 -1.5q106 0 193.5 29t148.5 88.5t95 151.5t34 215 q0 217 -116.5 327.5t-321.5 110.5q-51 0 -86 -4t-56 -8v-903z" />
<glyph unicode="E" horiz-adv-x="1093" d="M137 0v1380h850v-256h-538v-286h507v-254h-507v-328h567v-256h-879z" />
<glyph unicode="F" horiz-adv-x="1079" d="M137 0v1380h842v-256h-530v-315h495v-254h-495v-555h-312z" />
<glyph unicode="G" horiz-adv-x="1396" d="M72 674q0 172 60.5 306t164.5 226t248.5 140.5t314.5 48.5q135 0 233.5 -21.5t149.5 -44.5l-65 -252q-57 27 -131 43.5t-189 16.5q-98 0 -182 -28t-145.5 -83t-96.5 -139t-35 -197q0 -109 32 -192.5t90.5 -141t138 -88t176.5 -30.5q53 0 93 5t58 13v291h-213v244h514 v-728q-37 -12 -87 -25t-110.5 -25.5t-128 -19.5t-135.5 -7q-190 0 -327.5 46t-233.5 138q-94 92 -144 221t-50 283z" />
<glyph unicode="H" horiz-adv-x="1411" d="M137 0v1380h312v-532h514v532h311v-1380h-311v575h-514v-575h-312z" />
<glyph unicode="I" horiz-adv-x="583" d="M137 0v1380h312v-1380h-312z" />
<glyph unicode="J" horiz-adv-x="841" d="M-2 10l35 252q33 -10 72.5 -17t87.5 -7q49 0 87.5 12t66.5 44t43.5 84t15.5 132v870h311v-872q0 -147 -34 -248.5t-97.5 -164t-154.5 -90.5t-204 -28q-55 0 -118.5 8.5t-110.5 24.5z" />
<glyph unicode="K" horiz-adv-x="1257" d="M135 0v1380h309v-610h5q23 41 47 78t49 74l311 458h385l-457 -587l480 -793h-363l-340 596l-117 -145v-451h-309z" />
<glyph unicode="L" horiz-adv-x="1046" d="M137 0v1380h312v-1118h548v-262h-860z" />
<glyph unicode="M" horiz-adv-x="1732" d="M104 0l89 1380h415l135 -460q35 -121 65 -246t52 -248h8q29 121 63 250t68 246l146 458h409l74 -1380h-303l-22 528q-4 125 -8.5 269.5t-4.5 298.5h-4q-35 -133 -75 -272.5t-81 -262.5l-167 -538h-244l-148 534q-35 123 -66.5 262t-58.5 277h-4q-4 -141 -10 -292 t-12 -280l-27 -524h-289z" />
<glyph unicode="N" horiz-adv-x="1413" d="M135 0v1380h365l286 -506q61 -111 120 -233.5t106 -239.5h4q-14 137 -19.5 278.5t-5.5 299.5v401h287v-1380h-328l-295 532q-61 113 -125.5 239t-113.5 249h-8q8 -139 11 -286.5t3 -317.5v-416h-287z" />
<glyph unicode="O" horiz-adv-x="1468" d="M72 680q0 156 48 288t136 228t212 151.5t275 55.5q160 0 282 -55.5t205 -150.5t126 -222t43 -270q0 -170 -49.5 -305.5t-138.5 -229.5t-213 -143.5t-275 -49.5h-2q-154 0 -273.5 54.5t-203.5 149.5t-128 223t-44 276zM401 688q0 -98 22.5 -182t65.5 -146.5t105.5 -98.5 t140.5 -36h2q80 0 141.5 35t103.5 98.5t64.5 148.5t22.5 187q0 92 -21.5 176t-63.5 147.5t-104.5 100.5t-142.5 37t-142.5 -37t-105.5 -100.5t-65.5 -148.5t-22.5 -181z" />
<glyph unicode="P" horiz-adv-x="1189" d="M135 0v1362q72 12 175.5 20.5t246.5 8.5q285 0 422 -113q68 -51 107.5 -133t39.5 -184q0 -104 -31.5 -187.5t-95.5 -140.5q-80 -74 -194.5 -110t-253.5 -36q-31 0 -57.5 2.5t-49.5 6.5v-496h-309zM444 735q35 -8 105 -8q125 0 196.5 59.5t71.5 163.5q0 96 -63.5 149.5 t-182.5 53.5q-90 0 -127 -10v-408z" />
<glyph unicode="Q" horiz-adv-x="1468" d="M72 678q0 156 47 289t135 229t213 151.5t281 55.5q158 0 278.5 -56.5t203.5 -151.5t126 -221t43 -267q0 -117 -25.5 -217.5t-69.5 -178.5t-103.5 -134t-127.5 -87v-8q78 -23 164 -42.5t168 -35.5l-88 -242q-147 43 -277.5 89.5t-269.5 105.5q-43 16 -94 20 q-117 8 -226.5 55.5t-193.5 134.5t-134 214t-50 297zM401 688q0 -98 22.5 -183t65.5 -147.5t105.5 -97.5t140.5 -35h2q80 0 141.5 35t103.5 98.5t64.5 148.5t22.5 187q0 94 -21.5 178t-64.5 146.5t-104.5 99.5t-141.5 37t-142.5 -37t-105.5 -99.5t-65.5 -147.5t-22.5 -183z " />
<glyph unicode="R" horiz-adv-x="1214" d="M135 0v1360q76 14 182.5 22.5t233.5 8.5q154 0 263.5 -26t182.5 -85q129 -100 129 -289q0 -66 -21.5 -121t-56 -98t-77.5 -72.5t-88 -46.5v-6q72 -29 114.5 -94.5t69.5 -161.5q16 -59 31.5 -119.5t30 -115t26.5 -95.5t23 -61h-320q-16 31 -40.5 112t-53.5 210 q-14 66 -33.5 107.5t-46.5 67t-62.5 36t-84.5 10.5h-93v-543h-309zM444 768h123q117 0 182.5 53t65.5 146q0 94 -60.5 142t-168.5 48q-57 0 -91 -3t-51 -7v-379z" />
<glyph unicode="S" horiz-adv-x="1105" d="M82 66l63 256q61 -33 153.5 -59.5t193.5 -26.5q109 0 164 40.5t55 108.5q0 66 -53.5 108t-178.5 85q-172 61 -276.5 159.5t-104.5 249.5q0 88 36 164t103.5 131t165 87t218.5 32q119 0 204.5 -20.5t147.5 -49.5l-70 -250q-41 20 -113.5 43t-173.5 23q-102 0 -151 -40 t-49 -93q0 -33 14 -58.5t46 -47t80 -43t116 -46.5q184 -68 270 -166t86 -245q0 -86 -33.5 -164t-102.5 -136.5t-173.5 -93t-245.5 -34.5q-119 0 -225.5 26.5t-165.5 59.5z" />
<glyph unicode="T" horiz-adv-x="1122" d="M31 1118v262h1061v-262h-377v-1118h-312v1118h-372z" />
<glyph unicode="U" horiz-adv-x="1396" d="M135 610v770h311v-792q0 -180 66 -270.5t184 -90.5q123 0 188.5 87t65.5 274v792h312v-774q0 -319 -153 -474t-423 -155q-131 0 -233.5 37t-173 115t-107.5 197.5t-37 283.5z" />
<glyph unicode="V" horiz-adv-x="1302" d="M18 1380h342l168 -583q35 -125 67 -245t56 -249h6q27 125 59 247t66 241l176 589h332l-465 -1380h-364z" />
<glyph unicode="W" horiz-adv-x="1818" d="M31 1380h334l104 -567q23 -125 44.5 -252t37.5 -233h4q16 115 39.5 237.5t50.5 251.5l117 563h332l110 -581q23 -123 40.5 -234.5t33.5 -228.5h4q16 117 36.5 236.5t43.5 244.5l113 563h317l-356 -1380h-338l-117 594q-20 104 -36.5 205.5t-29.5 220.5h-4 q-18 -117 -36.5 -219.5t-43.5 -208.5l-131 -592h-342z" />
<glyph unicode="X" horiz-adv-x="1255" d="M33 0l399 698l-385 682h359l120 -252q31 -63 55.5 -116.5t49.5 -112.5h4q25 66 46 118t48 111l117 252h356l-389 -673l410 -707h-361l-125 250q-39 72 -66.5 130t-56.5 118h-4q-23 -59 -48 -117.5t-60 -130.5l-113 -250h-356z" />
<glyph unicode="Y" horiz-adv-x="1234" d="M18 1380h359l139 -331q33 -76 57.5 -136.5t49.5 -128.5h4q23 66 48 128.5t56 136.5l139 331h351l-455 -805v-575h-311v565z" />
<glyph unicode="Z" horiz-adv-x="1181" d="M49 0v168l658 948v6h-598v258h1001v-180l-643 -934v-8h653v-258h-1071z" />
<glyph unicode="[" horiz-adv-x="643" d="M139 -229v1634h418v-172h-195v-1290h195v-172h-418z" />
<glyph unicode="\" horiz-adv-x="675" d="M25 1403h206l412 -1485h-207z" />
<glyph unicode="]" horiz-adv-x="643" d="M86 -57h195v1290h-195v172h418v-1634h-418v172z" />
<glyph unicode="^" horiz-adv-x="1220" d="M88 362l428 969h191l428 -969h-224l-299 730h-6l-299 -730h-219z" />
<glyph unicode="_" horiz-adv-x="1024" d="M0 -154h1024v-102h-1024v102z" />
<glyph unicode="`" horiz-adv-x="614" d="M8 1438h287l176 -312h-213z" />
<glyph unicode="a" horiz-adv-x="1081" d="M59 285q0 98 42 169.5t119 119t185.5 71t241.5 23.5v12q0 20 -7 42.5t-26.5 42t-55.5 32t-93 12.5q-78 0 -152.5 -22.5t-124.5 -51.5l-57 199q53 29 152.5 59.5t236.5 30.5q125 0 209 -35t135 -93t72.5 -137t21.5 -167v-350q0 -72 3.5 -136.5t13.5 -105.5h-281l-18 100 h-6q-49 -59 -123 -91t-164 -32q-76 0 -136.5 26t-101.5 69t-63.5 98t-22.5 115zM367 315q0 -59 34.5 -88.5t87.5 -29.5q57 0 101.5 33.5t60.5 80.5q6 25 6 54v108q-61 0 -114.5 -8t-92 -26.5t-61 -48.5t-22.5 -75z" />
<glyph unicode="b" horiz-adv-x="1224" d="M117 0q4 49 6 131t2 168v1157h311v-573h4q45 66 122 103.5t181 37.5q90 0 166 -36t131.5 -102.5t85 -159.5t29.5 -208q0 -135 -39 -236.5t-103.5 -169t-146.5 -101.5t-168 -34q-88 0 -167.5 36t-133.5 126h-4l-12 -139h-264zM436 426q0 -31 6 -55q16 -61 65.5 -104.5 t117.5 -43.5q100 0 157.5 74t57.5 209q0 117 -53.5 197.5t-161.5 80.5q-63 0 -114.5 -43t-68.5 -110q-6 -29 -6 -58v-147z" />
<glyph unicode="c" horiz-adv-x="923" d="M68 492q0 109 36.5 205t109.5 168.5t180.5 114.5t246.5 42q61 0 124.5 -10.5t113.5 -28.5l-50 -231q-29 12 -70.5 21t-103.5 9q-61 0 -111 -20.5t-85 -57t-53.5 -88t-18.5 -112.5q0 -70 21.5 -122t58.5 -88t87 -53.5t108 -17.5q55 0 99 8.5t79 24.5l37 -229 q-41 -20 -115 -33.5t-164 -13.5q-121 0 -219 35.5t-168 102t-106.5 162t-36.5 212.5z" />
<glyph unicode="d" horiz-adv-x="1220" d="M68 492q0 125 35.5 224t97 167.5t143.5 104.5t172 36q94 0 161.5 -30.5t102.5 -82.5h4v545h312v-1157q0 -86 2 -167t6 -132h-277l-12 145h-6q-47 -84 -131 -126t-182 -42q-90 0 -168 37t-135.5 103.5t-91 162t-33.5 212.5zM383 500q0 -127 57.5 -201t155.5 -74 q68 0 118 42t64 108q6 31 6 69v131v28.5t-4 29.5q-14 63 -62 107t-120 44q-53 0 -94 -22.5t-67.5 -60t-40 -90t-13.5 -111.5z" />
<glyph unicode="e" horiz-adv-x="1081" d="M68 489q0 94 30.5 190.5t93 172.5t157.5 124t224 48q121 0 206 -43t138.5 -113.5t78 -161t24.5 -182.5q0 -41 -3 -73.5t-7 -49.5h-645q4 -49 27.5 -84.5t62.5 -59.5t88 -35t104 -11q80 0 146.5 10t130.5 33l41 -211q-78 -33 -169 -48t-194 -15q-256 0 -395 137t-139 372z M362 614h369q0 29 -7 64t-26.5 65.5t-53.5 52t-87 21.5q-49 0 -85 -20.5t-59.5 -50t-35.5 -65.5t-15 -67z" />
<glyph unicode="f" horiz-adv-x="698" d="M29 772v229h133v39q0 92 29.5 183.5t95.5 152.5q59 55 134 78t144 23q51 0 91 -6.5t73 -14.5l-12 -239q-20 6 -45 10t-56 4q-78 0 -111.5 -52.5t-33.5 -125.5v-52h201v-229h-199v-772h-311v772h-133z" />
<glyph unicode="g" horiz-adv-x="1198" d="M68 496q0 121 35.5 219t98 166.5t145.5 105.5t175 37q104 0 170 -40t105 -103h4l10 120h270q-4 -49 -6 -117.5t-2 -181.5v-557q0 -145 -33.5 -259.5t-119.5 -190.5q-82 -72 -188.5 -97.5t-217.5 -25.5q-100 0 -196.5 19.5t-163.5 56.5l61 237q47 -29 124 -52t167 -23 q111 0 185.5 62t74.5 202v63h-4q-45 -61 -114.5 -95t-155.5 -34q-92 0 -170 36t-134.5 100.5t-88 153.5t-31.5 198zM383 504q0 -113 52 -189.5t151 -76.5q61 0 105 35.5t61 88.5q6 18 8 41t2 43v148q0 29 -6 57q-16 61 -59.5 99t-108.5 38q-86 0 -145.5 -73.5t-59.5 -210.5z " />
<glyph unicode="h" horiz-adv-x="1200" d="M125 0v1456h311v-575h4q49 68 123 104q74 39 162 39q74 0 138.5 -26.5t111.5 -80t73.5 -137.5t26.5 -196v-584h-311v551q0 98 -37 159.5t-125 61.5q-61 0 -100 -33.5t-56 -76.5q-6 -14 -8 -33t-2 -35v-594h-311z" />
<glyph unicode="i" horiz-adv-x="561" d="M117 1280q0 66 45 111t121 45t118.5 -45t44.5 -111q0 -66 -44 -111t-121 -45h-2q-74 0 -118 45t-44 111zM125 0v1001h311v-1001h-311z" />
<glyph unicode="j" horiz-adv-x="595" d="M-80 -197q59 4 107.5 19.5t76.5 46.5q16 18 28.5 43t20 62.5t10.5 92t3 128.5v806h311v-880q0 -166 -34.5 -269.5t-106.5 -168.5q-70 -63 -172.5 -93t-212.5 -30zM156 1280q0 66 45 111t121 45t118.5 -45t44.5 -111q0 -66 -44 -111t-122 -45h-2q-74 0 -117.5 45 t-43.5 111z" />
<glyph unicode="k" horiz-adv-x="1110" d="M125 0v1456h311v-876h4q33 61 72 120l203 301h375l-359 -405l410 -596h-383l-244 412l-78 -99v-313h-311z" />
<glyph unicode="l" horiz-adv-x="563" d="M125 0v1456h311v-1456h-311z" />
<glyph unicode="m" horiz-adv-x="1761" d="M117 1001h264l12 -137h6q16 25 42 52.5t63 52t86 40t112 15.5q98 0 170 -47t105 -125h4q59 82 131 123q41 23 88 36t103 13q72 0 134 -25.5t107 -79t70.5 -135.5t25.5 -194v-590h-303v543q0 111 -35.5 170t-111.5 59q-55 0 -92 -31.5t-54 -76.5q-10 -37 -10 -78v-586 h-303v561q0 94 -34.5 152.5t-110.5 58.5q-59 0 -95 -37t-51 -73q-8 -18 -10 -39t-2 -41v-582h-303v682q0 94 -2 173t-6 146z" />
<glyph unicode="n" horiz-adv-x="1200" d="M117 1001h270l14 -139h7q14 25 40.5 53.5t65.5 52t89 40t114 16.5q76 0 142.5 -25.5t113.5 -80t74.5 -135.5t27.5 -191v-592h-311v555q0 98 -36 157.5t-122 59.5q-66 0 -104.5 -37t-55.5 -80q-6 -16 -8 -35.5t-2 -41.5v-578h-311v682q0 94 -2 173t-6 146z" />
<glyph unicode="o" horiz-adv-x="1181" d="M68 494q0 121 37.5 219t108.5 166.5t170 106.5t220 38q115 0 209 -38t160.5 -105.5t103.5 -162.5t37 -208q0 -137 -45 -237.5t-118.5 -166t-168 -97.5t-194.5 -32h-2q-111 0 -205 35t-164 101.5t-109.5 163t-39.5 217.5zM389 500q0 -63 13.5 -118.5t39 -95.5t63.5 -62.5 t87 -22.5h2q92 0 145.5 83t53.5 218q0 55 -11.5 108.5t-35 96.5t-61.5 68.5t-91 25.5q-55 0 -94 -25.5t-63.5 -68.5t-36 -97.5t-11.5 -109.5z" />
<glyph unicode="p" horiz-adv-x="1224" d="M117 1001h270l14 -139h5q55 78 139 120t194 42q82 0 158 -35t133 -100.5t91 -160.5t34 -214q0 -137 -40 -237.5t-104.5 -167t-145.5 -99.5t-165 -33q-92 0 -158.5 33t-101.5 82h-4v-498h-311v1072q0 98 -2 181t-6 154zM436 430q0 -35 6 -65q16 -63 65.5 -105.5 t117.5 -42.5q102 0 158.5 77t56.5 206q0 121 -53.5 200.5t-157.5 79.5q-66 0 -118 -44t-69 -113q-6 -25 -6 -56v-137z" />
<glyph unicode="q" horiz-adv-x="1218" d="M68 487q0 135 38.5 235.5t101 167t142.5 100.5t160 34q195 0 281 -139l4 -2l8 118h299q-2 -74 -4 -148.5t-2 -152.5v-1106h-312v533h-4q-47 -72 -121.5 -111t-177.5 -39q-82 0 -156.5 35t-132 101.5t-91 161t-33.5 212.5zM383 500q0 -127 57.5 -202t155.5 -75 q66 0 115 40t65 102q4 16 6 33.5t2 33.5v150q0 27 -6 49q-12 61 -60 105t-120 44q-106 0 -160.5 -78.5t-54.5 -201.5z" />
<glyph unicode="r" horiz-adv-x="778" d="M117 1001h266l12 -186h8q18 55 49 95t68 64.5t77 37t77 12.5q23 0 36 -1t29 -5v-293q-18 4 -37.5 6t-46.5 2q-86 0 -141 -42t-72 -116q-6 -31 -6 -69v-506h-311v672q0 111 -2 187.5t-6 141.5z" />
<glyph unicode="s" horiz-adv-x="888" d="M68 51l55 221q20 -12 52 -25.5t69 -24.5t74.5 -17t72.5 -6q72 0 102.5 21.5t30.5 60.5t-29.5 62.5t-115.5 51.5q-157 53 -223 132q-64 77 -64 162v5q0 70 29 130.5t82 105.5t129 69.5t168 24.5q88 0 160.5 -18.5t119.5 -40.5l-53 -213q-35 16 -94.5 35.5t-122.5 19.5 q-57 0 -88 -21.5t-31 -58.5q0 -35 35 -59.5t127 -55.5q143 -49 205.5 -122.5t64.5 -184.5q0 -141 -108.5 -233t-323.5 -92q-98 0 -182 20t-141 51z" />
<glyph unicode="t" horiz-adv-x="751" d="M35 772v229h133v189l305 84v-273h223v-229h-223v-362q0 -92 26.5 -134.5t96.5 -42.5q33 0 51.5 2.5t40.5 6.5l2 -236q-29 -10 -82 -18t-119 -8q-76 0 -136 23.5t-99 62.5q-86 90 -86 296v410h-133z" />
<glyph unicode="u" horiz-adv-x="1193" d="M121 414v587h311v-538q0 -111 37 -172.5t121 -61.5q66 0 103.5 36t51.5 73q12 27 13 68v595h311v-679q0 -98 2 -178.5t6 -143.5h-270l-14 141h-7q-14 -23 -39.5 -51.5t-63.5 -53t-90 -42t-120 -17.5q-78 0 -142.5 25t-110.5 78t-72.5 135t-26.5 199z" />
<glyph unicode="v" horiz-adv-x="1085" d="M18 1001h338l136 -464q18 -63 31.5 -124t25.5 -120h6q12 61 25.5 119.5t29.5 124.5l129 464h328l-373 -1001h-311z" />
<glyph unicode="w" horiz-adv-x="1554" d="M23 1001h317l82 -411q14 -78 28.5 -160t26.5 -168h6q14 86 35 169t37 157l107 413h245l101 -399q23 -86 41 -170t32 -170h4q10 86 25.5 171t34.5 171l84 397h305l-307 -1001h-291l-94 350q-20 74 -34.5 146.5t-31.5 167.5h-4q-14 -94 -29.5 -168t-33.5 -144l-101 -352 h-293z" />
<glyph unicode="x" horiz-adv-x="1062" d="M6 0l340 512l-332 489h348l99 -167q23 -39 42 -76t40 -74h4q39 80 78 156l88 161h338l-330 -477l334 -524h-353l-100 180q-23 37 -42 75t-36 79h-6q-18 -41 -37.5 -79t-38.5 -75l-94 -180h-342z" />
<glyph unicode="y" horiz-adv-x="1071" d="M12 1001h346l150 -493q12 -43 25.5 -94.5t23.5 -91.5h6q10 41 22.5 92t22.5 96l123 491h334l-234 -659q-53 -150 -99 -257.5t-88 -184t-82 -128t-83 -87.5q-80 -72 -160.5 -101.5t-140.5 -36.5l-65 263q29 6 64.5 19t70.5 34q35 18 70.5 53t58.5 72q16 27 16 45 q0 10 -2 21.5t-10 29.5z" />
<glyph unicode="z" horiz-adv-x="960" d="M45 0v180l315 393q43 49 80 90.5t80 86.5v4h-440v247h819v-188l-301 -379q-41 -47 -81 -94t-83 -88v-4h481v-248h-870z" />
<glyph unicode="{" horiz-adv-x="643" d="M61 510v156q53 2 84 16t47.5 33.5t20.5 44t4 47.5q0 37 -3 78t-7 82l-8 82t-4 79q0 145 83.5 211t227.5 66h72v-174h-37q-70 -2 -97.5 -40t-27.5 -106q0 -29 3 -56.5t7 -59.5q4 -31 7 -66t3 -76q2 -115 -44 -167t-130 -70v-4q86 -16 131 -68.5t43 -169.5q0 -41 -3 -75.5 t-7 -67.5q-4 -31 -7 -59.5t-3 -55.5q0 -68 26.5 -106.5t98.5 -40.5h37v-172h-74q-68 0 -125 14t-98 48t-63.5 86t-22.5 130q0 39 4 80l8 82t7 81t3 79q0 20 -4 43.5t-20.5 44t-47 35t-84.5 16.5z" />
<glyph unicode="|" horiz-adv-x="579" d="M180 -512v2048h217v-2048h-217z" />
<glyph unicode="}" horiz-adv-x="643" d="M66 -57h36q72 2 98.5 41t26.5 106q0 27 -3 55.5t-7 59.5q-4 33 -7 67.5t-3 75.5q-2 117 43 169t131 69v4q-84 18 -130 70.5t-44 166.5q0 41 3 76t7 66q4 33 7 60.5t3 55.5q0 68 -27.5 106t-97.5 40h-36v174h71q143 0 227.5 -65.5t84.5 -211.5q0 -39 -3.5 -79.5 t-7.5 -81.5l-8 -82t-4 -78q0 -23 4 -47.5t20.5 -44t47 -33.5t84.5 -16v-156q-53 -2 -84 -16.5t-47.5 -35t-20.5 -44t-4 -43.5q0 -39 4 -79t8 -81t7.5 -82t3.5 -80q0 -78 -23 -130t-63.5 -86t-98 -48t-125.5 -14h-73v172z" />
<glyph unicode="~" horiz-adv-x="1220" d="M88 395q0 102 20.5 174t58.5 118t91 67.5t115 21.5q76 0 137 -24.5t149 -73.5q68 -37 113 -58.5t84 -21.5q35 0 56.5 37t25.5 129h195q4 -109 -15.5 -182.5t-57.5 -118.5t-90 -64.5t-110 -19.5q-74 0 -138.5 25.5t-148.5 72.5q-68 39 -112.5 61.5t-81.5 22.5 q-39 0 -64.5 -33.5t-31.5 -132.5h-195z" />
<glyph unicode="&#xa1;" horiz-adv-x="548" d="M92 823q0 82 51.5 134.5t132.5 52.5h3q80 0 130 -52.5t50 -134.5q-2 -82 -50.5 -134t-132.5 -52t-134 52t-50 134zM113 -391l45 923h233l45 -923h-323z" />
<glyph unicode="&#xa2;" d="M154 672q0 92 27.5 176t79.5 151.5t130 115.5t180 67v196h201v-186q49 -2 101.5 -13.5t93.5 -27.5l-49 -229q-33 16 -78 26t-105 10q-123 0 -193.5 -75.5t-70.5 -200.5q0 -68 21.5 -120t58.5 -86t85 -51t101 -17q66 0 114 10t89 26l37 -225q-37 -16 -90 -29.5t-115 -17.5 v-195h-201v201q-98 14 -173.5 54t-131.5 102q-53 63 -82.5 149t-29.5 189z" />
<glyph unicode="&#xa3;" d="M104 0v166q41 16 82 46t74 68.5t53.5 86t20.5 100.5q0 23 -1 42t-5 40h-201v213h164q-16 82 -17 166q0 96 34 175t94.5 134t145.5 86t189 31q84 0 144.5 -15.5t95.5 -33.5l-49 -236q-31 16 -74 26.5t-100 10.5q-55 0 -91 -16.5t-58.5 -43t-32 -61.5t-9.5 -72 q0 -41 5 -76.5t14 -74.5h282v-213h-254q0 -37 -4 -74t-14 -72q-14 -39 -39 -75.5t-61 -69.5v-4h546v-254h-934z" />
<glyph unicode="&#xa4;" d="M37 1083l137 142l158 -174q94 76 235 75h2q141 0 238 -73l156 172l137 -140l-178 -159q23 -41 44 -97.5t21 -140.5q0 -86 -21.5 -146.5t-50.5 -99.5l175 -166l-136 -137l-149 180q-47 -41 -112.5 -61t-127.5 -20q-63 0 -127.5 19t-109.5 58l-148 -176l-133 137l170 162 q-29 39 -51.5 98.5t-22.5 145.5t22.5 144.5t49.5 99.5zM377 684q0 -61 17.5 -105t45 -74t60 -44.5t65.5 -14.5q35 0 69 14.5t60.5 43t43 75t16.5 107.5q0 100 -52.5 166t-136.5 66h-2q-78 0 -132 -63.5t-54 -170.5z" />
<glyph unicode="&#xa5;" d="M4 1331h334l143 -327q29 -61 47.5 -115.5t38.5 -108.5h4q20 51 41 108.5t47 117.5l146 325h328l-351 -581h244v-146h-321v-131h321v-145h-321v-328h-293v328h-320v145h320v131h-320v146h246z" />
<glyph unicode="&#xa6;" horiz-adv-x="579" d="M180 356h217v-716h-217v716zM180 664v716h217v-716h-217z" />
<glyph unicode="&#xa7;" horiz-adv-x="1148" d="M92 647q0 68 42 138.5t128 111.5q-33 27 -57.5 78t-24.5 108q0 78 35 137.5t95.5 99.5t141 60.5t175.5 20.5q90 0 171 -14.5t152 -47.5l-49 -188q-47 23 -112.5 40t-157.5 17q-90 0 -136 -26.5t-46 -71.5q0 -47 54 -78t165 -65q82 -25 153.5 -54.5t123.5 -70.5t82 -97.5 t30 -136.5q0 -82 -41 -144.5t-107 -103.5q29 -23 59.5 -71.5t30.5 -118.5q0 -94 -44 -156.5t-111.5 -100.5t-147.5 -54.5t-151 -16.5q-92 0 -195.5 18.5t-187.5 71.5l59 189q47 -27 132 -55.5t179 -28.5q82 0 133.5 25.5t51.5 78.5q0 51 -50.5 84t-166.5 70 q-82 25 -156 54.5t-130 70.5t-89 96t-33 131zM334 700q0 -49 43 -87t135 -70q72 -27 138.5 -48.5t101.5 -39.5q29 16 45 44.5t16 61.5q0 45 -32.5 82t-108.5 66q-66 25 -141.5 51t-122.5 49q-33 -16 -53.5 -44t-20.5 -63v-2z" />
<glyph unicode="&#xa8;" horiz-adv-x="614" d="M-53 1286q0 61 43 102.5t104 41.5q59 0 99 -41t40 -103q0 -59 -39.5 -102t-99.5 -43h-2q-61 0 -103 43t-42 102zM379 1286q0 61 41 102.5t104 41.5q59 0 100.5 -41t41.5 -103q0 -59 -40 -102t-102 -43h-4q-59 0 -100 43t-41 102z" />
<glyph unicode="&#xa9;" horiz-adv-x="1386" d="M66 696q0 131 49 246t135 201t200.5 135t245.5 49h2q129 0 243 -49t199 -135t133 -201t48 -246q0 -133 -49 -248.5t-133 -201.5t-198 -135.5t-245 -49.5t-245.5 49.5t-200.5 135.5t-135 201.5t-49 248.5zM201 694q0 -109 39 -203t105.5 -163.5t156.5 -109.5t192 -40 t191.5 40t156 109.5t105.5 164t39 202.5q0 106 -39 200.5t-105.5 165t-155.5 110.5t-192 40h-2q-102 0 -191 -40t-155.5 -110.5t-105.5 -164.5t-39 -201zM348 684q0 88 33 158.5t88 120t127 76t149 26.5q74 0 139.5 -17.5t86.5 -39.5l-31 -109q-18 10 -72.5 27.5 t-122.5 17.5q-119 0 -186 -66.5t-67 -187.5q0 -113 68.5 -184.5t182.5 -71.5q63 0 116.5 13.5t88.5 35.5l31 -104q-53 -35 -119.5 -50.5t-134.5 -15.5q-90 0 -159.5 29t-118 79t-74 117.5t-25.5 145.5z" />
<glyph unicode="&#xaa;" horiz-adv-x="774" d="M66 735q0 119 110.5 178.5t296.5 59.5v14q0 6 -4 19.5t-17.5 27t-39 22.5t-66.5 9q-57 0 -106.5 -15.5t-83.5 -37.5l-41 133q41 23 110.5 44t161.5 21q84 0 141.5 -23.5t93 -63.5t51 -91t15.5 -108v-219q0 -47 3 -89.5t7 -70.5h-190l-14 67h-5q-37 -35 -88 -57.5 t-116 -19.5q-102 0 -160.5 57t-58.5 143zM276 754q0 -35 26 -57.5t65 -22.5q33 0 62.5 17.5t39.5 43.5q6 12 8 23.5t2 21.5v72q-84 2 -143.5 -21.5t-59.5 -76.5z" />
<glyph unicode="&#xab;" horiz-adv-x="952" d="M53 516l238 391h217l-246 -391l246 -389h-217zM451 516l237 391h217l-246 -391l246 -389h-217z" />
<glyph unicode="&#xac;" horiz-adv-x="1220" d="M82 674v190h1057v-647h-199v457h-858z" />
<glyph unicode="&#xad;" horiz-adv-x="659" d="M61 434v207h537v-207h-537z" />
<glyph unicode="&#xae;" horiz-adv-x="940" d="M106 1051q0 74 29 137t78 111.5t115.5 76t142.5 27.5h2q76 0 141.5 -27.5t114.5 -76t77 -112t28 -136.5q0 -74 -28 -138.5t-77 -112.5t-115.5 -76t-142.5 -28t-142.5 28t-115.5 76t-78 112.5t-29 138.5zM215 1049q0 -55 19.5 -103.5t53.5 -84.5t81 -56.5t102 -20.5 t102.5 20.5t81 56.5t53 85t19.5 105q0 55 -19.5 103t-53 84t-82 56.5t-103.5 20.5h-2q-53 0 -99 -20.5t-80 -57.5t-53.5 -85t-19.5 -103zM324 885v321q16 4 55 8.5t90 4.5q57 0 85 -7.5t46 -19.5q35 -20 35 -70q0 -25 -20.5 -44t-53.5 -29v-5q51 -14 66 -81q8 -35 13 -52.5 t9 -25.5h-110q-8 10 -13.5 28.5t-11.5 40.5q-8 47 -55 47h-33v-116h-102zM428 1069h31q61 0 61 39q0 41 -57 41q-10 0 -18.5 -1t-16.5 -1v-78z" />
<glyph unicode="&#xaf;" horiz-adv-x="614" d="M53 1192v172h512v-172h-512z" />
<glyph unicode="&#xb0;" horiz-adv-x="729" d="M55 1098q0 63 23.5 118.5t65.5 97.5t99.5 65.5t123.5 23.5h2q70 0 126 -24.5t97 -65.5t63.5 -95.5t22.5 -113.5q0 -66 -25.5 -122t-68.5 -96t-99.5 -62.5t-119.5 -22.5q-68 0 -124.5 23.5t-98.5 63.5t-64.5 94t-22.5 116zM219 1100q0 -66 42 -111t106 -45q66 0 106.5 45 t40.5 113q0 59 -38 108.5t-109 49.5h-2q-66 0 -106 -48.5t-40 -111.5z" />
<glyph unicode="&#xb1;" horiz-adv-x="1220" d="M82 0v190h1057v-190h-1057zM82 641v190h428v355h201v-355h428v-190h-428v-362h-201v362h-428z" />
<glyph unicode="&#xb2;" horiz-adv-x="720" d="M31 907v117l127 113q115 102 176 165.5t61 129.5q0 43 -30.5 70.5t-90.5 27.5q-51 0 -96 -17.5t-80 -39.5l-61 155q51 37 128 62.5t171 25.5q154 0 232.5 -71.5t78.5 -176.5q0 -55 -19.5 -100t-52 -86t-75.5 -78t-88 -74l-50 -40v-5h300v-178h-631z" />
<glyph unicode="&#xb3;" horiz-adv-x="710" d="M18 954l48 160q31 -16 88 -34.5t112 -18.5q63 0 104.5 25.5t41.5 66.5q0 53 -54.5 77.5t-121.5 24.5h-62v140h57q25 0 53.5 4t51 14t38 25.5t15.5 40.5q0 33 -25.5 53t-82.5 20q-53 0 -104.5 -17t-82.5 -34l-43 150q45 27 121 46t166 19q147 0 221 -58.5t74 -144.5 q0 -66 -47 -112.5t-121 -69.5v-4q86 -8 142.5 -58t56.5 -128q0 -109 -99.5 -176.5t-269.5 -67.5q-84 0 -158 16.5t-119 40.5z" />
<glyph unicode="&#xb4;" horiz-adv-x="614" d="M156 1126l176 312h286l-249 -312h-213z" />
<glyph unicode="&#xb5;" horiz-adv-x="1198" d="M125 -43v1044h311v-559q0 -102 37 -158.5t115 -56.5q59 0 102 36t60 75q6 14 8 31.5t2 36.5v595h311v-675q0 -66 20.5 -89.5t63.5 -25.5l-16 -215q-37 -18 -113 -19q-88 0 -145.5 41t-79.5 119h-6q-12 -27 -35 -54.5t-53.5 -49t-70.5 -34.5t-89 -13q-41 0 -78 15t-63 44 v-86q0 -41 1 -92t4 -101.5t7 -96.5t10 -75h-274q-8 18 -13.5 56.5t-8.5 88.5t-5 106.5t-2 111.5z" />
<glyph unicode="&#xb6;" horiz-adv-x="1110" d="M66 924q-2 82 22.5 164.5t92 149.5t186 109t303.5 42q92 0 168.5 -6.5t124.5 -16.5v-1462h-197v1292h-148v-1292h-196v637h-12q-45 0 -103.5 22.5t-112 70.5t-90 119.5t-38.5 170.5z" />
<glyph unicode="&#xb7;" horiz-adv-x="532" d="M84 530q0 86 51 138.5t133 52.5q80 0 130.5 -52.5t52.5 -138.5q0 -82 -50.5 -135t-134.5 -53h-2q-78 0 -129 53.5t-51 134.5z" />
<glyph unicode="&#xb8;" horiz-adv-x="614" d="M94 -377l41 115q27 -16 57.5 -24.5t55.5 -8.5q27 0 49 12.5t22 40.5q0 29 -36.5 48.5t-122.5 25.5l88 176h168l-56 -98q57 -8 102.5 -47t45.5 -103q0 -49 -20.5 -83.5t-55.5 -55t-80 -30t-94 -9.5t-91 11.5t-73 29.5z" />
<glyph unicode="&#xb9;" horiz-adv-x="614" d="M45 1608l227 98h209v-799h-239v604h-2l-164 -71z" />
<glyph unicode="&#xba;" horiz-adv-x="790" d="M49 866q0 78 25.5 141.5t72 108.5t109.5 69.5t141 24.5h2q78 0 141.5 -24.5t107.5 -69.5t68.5 -105.5t24.5 -131.5q0 -88 -29.5 -152.5t-77.5 -108t-111.5 -63.5t-131.5 -20q-72 0 -134 23.5t-108.5 66.5t-73 104.5t-26.5 136.5zM268 868q0 -74 34 -128t93 -54t92 52.5 t33 135.5q0 33 -8 66t-23.5 59.5t-40 43t-55.5 16.5h-2q-35 0 -57.5 -18.5t-37.5 -46t-21.5 -61.5t-6.5 -65z" />
<glyph unicode="&#xbb;" horiz-adv-x="952" d="M47 127l244 389l-244 391h213l240 -391l-238 -389h-215zM440 127l244 389l-244 391h213l240 -391l-240 -389h-213z" />
<glyph unicode="&#xbc;" horiz-adv-x="1701" d="M74 1245l227 98h209v-798h-240v604h-2l-164 -72zM354 -23l756 1377h170l-756 -1377h-170zM899 184v129l350 494h273v-471h108v-152h-108v-184h-222v184h-401zM1116 338l4 -2h180v151q0 41 3.5 78t5.5 74h-4q-20 -37 -38 -70.5t-36 -62.5z" />
<glyph unicode="&#xbd;" horiz-adv-x="1701" d="M49 1245l227 98h209v-798h-239v604h-2l-164 -72zM307 -23l754 1377h170l-754 -1377h-170zM993 0v117l127 112q115 102 176.5 166t61.5 129q0 43 -31 71t-90 28q-51 0 -96 -17.5t-80 -40.5l-62 156q51 37 128 62.5t171 25.5q154 0 233 -71.5t79 -176.5q0 -55 -19.5 -100 t-52.5 -86t-76 -78t-88 -74l-49 -41v-4h299v-178h-631z" />
<glyph unicode="&#xbe;" horiz-adv-x="1701" d="M55 592l47 160q31 -18 88.5 -36t112.5 -18q63 0 104.5 26t41.5 67q0 53 -54.5 77.5t-122.5 24.5h-61v139h57q25 0 53.5 4t51 14.5t38 26t15.5 39.5q0 33 -25.5 53.5t-83.5 20.5q-53 0 -104 -17.5t-82 -33.5l-43 149q45 27 121 46.5t166 19.5q147 0 221 -58.5t74 -144.5 q0 -66 -47.5 -113t-120.5 -69v-4q86 -8 142 -58.5t56 -128.5q0 -109 -99 -176t-269 -67q-84 0 -158 16t-119 41zM422 -23l752 1377h169l-753 -1377h-168zM918 184v129l350 494h272v-471h109v-152h-109v-184h-221v184h-401zM1135 338l4 -2h180v151q0 41 3 78t5 74h-4 q-20 -37 -37.5 -70.5t-36.5 -62.5z" />
<glyph unicode="&#xbf;" horiz-adv-x="911" d="M86 -96q0 59 16.5 108t42 91t57 78t60.5 69q55 61 81 122.5t24 131.5v37h270l4 -54q4 -78 -23.5 -157.5t-97.5 -161.5q-49 -59 -84 -110.5t-35 -104.5t36 -86t112 -35q53 0 108.5 16.5t96.5 45.5l67 -224q-55 -33 -143 -58.5t-199 -25.5q-100 0 -174 26t-123 70 t-72.5 101t-23.5 121zM326 823q0 82 50 134.5t132 52.5h2q80 0 130 -52.5t50 -134.5t-49 -134t-133 -52t-133 52t-49 134z" />
<glyph unicode="&#xc0;" horiz-adv-x="1343" d="M35 0l422 1380h407l430 -1380h-336l-106 354h-397l-97 -354h-323zM311 1708h328l172 -250h-250zM500 588h305l-86 293q-16 61 -33.5 133.5t-34.5 132.5h-6q-14 -61 -29.5 -134t-31.5 -132z" />
<glyph unicode="&#xc1;" horiz-adv-x="1343" d="M35 0l422 1380h407l430 -1380h-336l-106 354h-397l-97 -354h-323zM500 588h305l-86 293q-16 61 -33.5 133.5t-34.5 132.5h-6q-14 -61 -29.5 -134t-31.5 -132zM518 1454l172 252h328l-250 -252h-250z" />
<glyph unicode="&#xc2;" horiz-adv-x="1343" d="M35 0l422 1380h407l430 -1380h-336l-106 354h-397l-97 -354h-323zM350 1454l205 252h233l207 -252h-219l-102 127h-4l-103 -127h-217zM500 588h305l-86 293q-16 61 -33.5 133.5t-34.5 132.5h-6q-14 -61 -29.5 -134t-31.5 -132z" />
<glyph unicode="&#xc3;" horiz-adv-x="1343" d="M35 0l422 1380h407l430 -1380h-336l-106 354h-397l-97 -354h-323zM391 1464q-4 129 40 194.5t118 65.5q41 0 71.5 -12t59.5 -29q27 -16 48.5 -27t41.5 -11q27 0 38 17t17 71h140q4 -139 -38 -197.5t-122 -58.5q-41 0 -73 11t-60 28q-29 16 -47.5 26t-40.5 10 q-43 0 -49 -88h-144zM500 588h305l-86 293q-16 61 -33.5 133.5t-34.5 132.5h-6q-14 -61 -29.5 -134t-31.5 -132z" />
<glyph unicode="&#xc4;" horiz-adv-x="1343" d="M35 0l422 1380h407l430 -1380h-336l-106 354h-397l-97 -354h-323zM326 1597q0 59 41 100.5t100 41.5q57 0 96 -40t39 -102q0 -57 -38 -98t-97 -41h-2q-59 0 -99 41t-40 98zM500 588h305l-86 293q-16 61 -33.5 133.5t-34.5 132.5h-6q-14 -61 -29.5 -134t-31.5 -132z M752 1597q0 59 39.5 100.5t99.5 41.5q59 0 98 -40t39 -102q0 -57 -39 -98t-98 -41h-2q-59 0 -98 41t-39 98z" />
<glyph unicode="&#xc5;" horiz-adv-x="1343" d="M35 0l422 1380h407l430 -1380h-336l-106 354h-397l-97 -354h-323zM430 1634q0 84 60.5 143.5t175.5 59.5h2q117 0 174 -58.5t57 -142.5t-61.5 -141t-171.5 -57q-111 0 -173.5 57t-62.5 139zM500 588h305l-86 293q-16 61 -33.5 133.5t-34.5 132.5h-6q-14 -61 -29.5 -134 t-31.5 -132zM573 1634q0 -35 24 -63.5t67 -28.5t66.5 26.5t23.5 67.5q0 37 -23.5 67t-66.5 30h-2q-43 0 -66 -30t-23 -69z" />
<glyph unicode="&#xc6;" horiz-adv-x="1777" d="M6 0l588 1380h1051v-256h-566l35 -293h522v-253h-481l43 -322h522v-256h-790l-49 377h-404l-149 -377h-322zM571 627h275l-41 334q-6 47 -13.5 99t-11.5 101h-6q-16 -51 -35.5 -104t-36.5 -99z" />
<glyph unicode="&#xc7;" horiz-adv-x="1222" d="M72 670q0 176 59 312t160.5 229.5t239 141.5t294.5 48q123 0 210 -19.5t128 -40.5l-63 -247q-47 20 -111.5 35.5t-148.5 15.5q-92 0 -173 -29t-140.5 -85t-93.5 -142t-34 -201q0 -209 116 -329.5t325 -120.5q72 0 143.5 12t118.5 33l45 -246q-41 -18 -124 -36.5 t-200 -20.5l-39 -70q59 -14 104.5 -55t45.5 -113q0 -53 -21.5 -89t-56.5 -58.5t-79 -31.5t-87 -9q-47 0 -94 9t-82 29l41 127q23 -12 54.5 -20t60.5 -8q31 0 52 11t21 40q0 31 -37.5 48t-123.5 28l80 170q-145 18 -256 77.5t-185 148.5t-111.5 205t-37.5 251z" />
<glyph unicode="&#xc8;" horiz-adv-x="1093" d="M137 0v1380h850v-256h-538v-286h507v-254h-507v-328h567v-256h-879zM227 1708h328l172 -250h-250z" />
<glyph unicode="&#xc9;" horiz-adv-x="1093" d="M137 0v1380h850v-256h-538v-286h507v-254h-507v-328h567v-256h-879zM420 1454l172 252h328l-250 -252h-250z" />
<glyph unicode="&#xca;" horiz-adv-x="1093" d="M137 0v1380h850v-256h-538v-286h507v-254h-507v-328h567v-256h-879zM250 1454l205 252h233l207 -252h-219l-103 127h-4l-102 -127h-217z" />
<glyph unicode="&#xcb;" horiz-adv-x="1093" d="M137 0v1380h850v-256h-538v-286h507v-254h-507v-328h567v-256h-879zM205 1599q0 59 41 100.5t100 41.5q57 0 96 -40t39 -102q0 -57 -37.5 -98t-97.5 -41h-2q-59 0 -99 41t-40 98zM631 1599q0 59 40 100.5t99 41.5t98 -40t39 -102q0 -57 -39 -98t-98 -41h-2q-59 0 -98 41 t-39 98z" />
<glyph unicode="&#xcc;" horiz-adv-x="583" d="M-59 1708h327l172 -250h-250zM137 0v1380h312v-1380h-312z" />
<glyph unicode="&#xcd;" horiz-adv-x="583" d="M137 0v1380h312v-1380h-312zM139 1454l172 252h328l-250 -252h-250z" />
<glyph unicode="&#xce;" horiz-adv-x="583" d="M-29 1454l205 252h234l206 -252h-219l-102 127h-4l-103 -127h-217zM137 0v1380h312v-1380h-312z" />
<glyph unicode="&#xcf;" horiz-adv-x="583" d="M-59 1599q0 59 41 100.5t100 41.5q57 0 96 -40t39 -102q0 -57 -38 -98t-97 -41h-2q-59 0 -99 41t-40 98zM137 0v1380h312v-1380h-312zM367 1599q0 59 39.5 100.5t99.5 41.5q59 0 98 -40t39 -102q0 -57 -39 -98t-98 -41h-2q-59 0 -98 41t-39 98z" />
<glyph unicode="&#xd0;" horiz-adv-x="1441" d="M6 582v243h146v541q86 16 194.5 23.5t224.5 7.5q197 0 332 -34t234 -110q109 -80 171 -212t62 -316q0 -201 -64.5 -339t-162.5 -224q-111 -92 -272.5 -136t-364.5 -44q-123 0 -210 6t-144 12v582h-146zM463 231q20 -4 50 -5t58 -1q215 0 342 118t127 372 q0 225 -116.5 333.5t-319.5 108.5q-53 0 -87 -4t-54 -8v-320h274v-243h-274v-351z" />
<glyph unicode="&#xd1;" horiz-adv-x="1413" d="M135 0v1380h365l286 -506q61 -111 120 -233.5t106 -239.5h4q-14 137 -19.5 278.5t-5.5 299.5v401h287v-1380h-328l-295 532q-61 113 -125.5 239t-113.5 249h-8q8 -139 11 -286.5t3 -317.5v-416h-287zM424 1464q-4 129 40 194.5t118 65.5q41 0 71.5 -12t59.5 -29 q27 -16 48 -27t42 -11q27 0 38 17t17 71h139q4 -139 -37.5 -197.5t-121.5 -58.5q-41 0 -73 11t-60 28q-29 16 -47.5 26t-41.5 10q-43 0 -49 -88h-143z" />
<glyph unicode="&#xd2;" horiz-adv-x="1468" d="M72 680q0 156 48 288t136 228t212 151.5t275 55.5q160 0 282 -55.5t205 -150.5t126 -222t43 -270q0 -170 -49.5 -305.5t-138.5 -229.5t-213 -143.5t-275 -49.5h-2q-154 0 -273.5 54.5t-203.5 149.5t-128 223t-44 276zM385 1710h328l172 -250h-250zM401 688 q0 -98 22.5 -182t65.5 -146.5t105.5 -98.5t140.5 -36h2q80 0 141.5 35t103.5 98.5t64.5 148.5t22.5 187q0 92 -21.5 176t-63.5 147.5t-104.5 100.5t-142.5 37t-142.5 -37t-105.5 -100.5t-65.5 -148.5t-22.5 -181z" />
<glyph unicode="&#xd3;" horiz-adv-x="1468" d="M72 680q0 156 48 288t136 228t212 151.5t275 55.5q160 0 282 -55.5t205 -150.5t126 -222t43 -270q0 -170 -49.5 -305.5t-138.5 -229.5t-213 -143.5t-275 -49.5h-2q-154 0 -273.5 54.5t-203.5 149.5t-128 223t-44 276zM401 688q0 -98 22.5 -182t65.5 -146.5t105.5 -98.5 t140.5 -36h2q80 0 141.5 35t103.5 98.5t64.5 148.5t22.5 187q0 92 -21.5 176t-63.5 147.5t-104.5 100.5t-142.5 37t-142.5 -37t-105.5 -100.5t-65.5 -148.5t-22.5 -181zM592 1456l172 252h328l-250 -252h-250z" />
<glyph unicode="&#xd4;" horiz-adv-x="1468" d="M72 680q0 156 48 288t136 228t212 151.5t275 55.5q160 0 282 -55.5t205 -150.5t126 -222t43 -270q0 -170 -49.5 -305.5t-138.5 -229.5t-213 -143.5t-275 -49.5h-2q-154 0 -273.5 54.5t-203.5 149.5t-128 223t-44 276zM401 688q0 -98 22.5 -182t65.5 -146.5t105.5 -98.5 t140.5 -36h2q80 0 141.5 35t103.5 98.5t64.5 148.5t22.5 187q0 92 -21.5 176t-63.5 147.5t-104.5 100.5t-142.5 37t-142.5 -37t-105.5 -100.5t-65.5 -148.5t-22.5 -181zM414 1456l204 252h234l207 -252h-219l-103 127h-4l-102 -127h-217z" />
<glyph unicode="&#xd5;" horiz-adv-x="1468" d="M72 680q0 156 48 288t136 228t212 151.5t275 55.5q160 0 282 -55.5t205 -150.5t126 -222t43 -270q0 -170 -49.5 -305.5t-138.5 -229.5t-213 -143.5t-275 -49.5h-2q-154 0 -273.5 54.5t-203.5 149.5t-128 223t-44 276zM401 688q0 -98 22.5 -182t65.5 -146.5t105.5 -98.5 t140.5 -36h2q80 0 141.5 35t103.5 98.5t64.5 148.5t22.5 187q0 92 -21.5 176t-63.5 147.5t-104.5 100.5t-142.5 37t-142.5 -37t-105.5 -100.5t-65.5 -148.5t-22.5 -181zM449 1464q-4 129 39.5 194.5t117.5 65.5q41 0 72 -12t59 -29q27 -16 48.5 -27t41.5 -11q27 0 38.5 17 t17.5 71h139q4 -139 -38 -197.5t-122 -58.5q-41 0 -72.5 11t-60.5 28q-29 16 -47 26t-41 10q-43 0 -49 -88h-143z" />
<glyph unicode="&#xd6;" horiz-adv-x="1468" d="M72 680q0 156 48 288t136 228t212 151.5t275 55.5q160 0 282 -55.5t205 -150.5t126 -222t43 -270q0 -170 -49.5 -305.5t-138.5 -229.5t-213 -143.5t-275 -49.5h-2q-154 0 -273.5 54.5t-203.5 149.5t-128 223t-44 276zM383 1599q0 59 41 100.5t100 41.5q57 0 96 -40 t39 -102q0 -57 -37.5 -98t-97.5 -41h-2q-59 0 -99 41t-40 98zM401 688q0 -98 22.5 -182t65.5 -146.5t105.5 -98.5t140.5 -36h2q80 0 141.5 35t103.5 98.5t64.5 148.5t22.5 187q0 92 -21.5 176t-63.5 147.5t-104.5 100.5t-142.5 37t-142.5 -37t-105.5 -100.5t-65.5 -148.5 t-22.5 -181zM809 1599q0 59 40 100.5t99 41.5t98 -40t39 -102q0 -57 -38.5 -98t-98.5 -41h-2q-59 0 -98 41t-39 98z" />
<glyph unicode="&#xd7;" horiz-adv-x="1220" d="M82 137l393 402l-393 403l133 135l395 -403l396 403l133 -135l-394 -403l394 -402l-135 -137l-394 401l-393 -401z" />
<glyph unicode="&#xd8;" horiz-adv-x="1468" d="M72 688q0 152 47 282t135 226t210 151.5t273 55.5q172 0 305 -72l113 166l176 -119l-114 -172q92 -98 136 -229t44 -279q0 -170 -49.5 -303t-137.5 -226t-209.5 -142.5t-265.5 -49.5q-162 0 -297 70l-123 -182l-168 131l115 174q-92 98 -141 231.5t-49 286.5zM383 690 q0 -72 12.5 -131t40.5 -123l2 2l459 670q-70 51 -162 51q-84 0 -148.5 -34.5t-110.5 -97t-69.5 -148.5t-23.5 -189zM584 270q57 -49 151 -49q82 0 146.5 35t109.5 96.5t69.5 148.5t24.5 191q0 59 -10 117.5t-35 118.5h-4z" />
<glyph unicode="&#xd9;" horiz-adv-x="1396" d="M135 610v770h311v-792q0 -180 66 -270.5t184 -90.5q123 0 188.5 87t65.5 274v792h312v-774q0 -319 -153 -474t-423 -155q-131 0 -233.5 37t-173 115t-107.5 197.5t-37 283.5zM356 1708h328l172 -250h-250z" />
<glyph unicode="&#xda;" horiz-adv-x="1396" d="M135 610v770h311v-792q0 -180 66 -270.5t184 -90.5q123 0 188.5 87t65.5 274v792h312v-774q0 -319 -153 -474t-423 -155q-131 0 -233.5 37t-173 115t-107.5 197.5t-37 283.5zM541 1454l172 252h327l-249 -252h-250z" />
<glyph unicode="&#xdb;" horiz-adv-x="1396" d="M135 610v770h311v-792q0 -180 66 -270.5t184 -90.5q123 0 188.5 87t65.5 274v792h312v-774q0 -319 -153 -474t-423 -155q-131 0 -233.5 37t-173 115t-107.5 197.5t-37 283.5zM399 1454l205 252h234l206 -252h-219l-102 127h-4l-103 -127h-217z" />
<glyph unicode="&#xdc;" horiz-adv-x="1396" d="M135 610v770h311v-792q0 -180 66 -270.5t184 -90.5q123 0 188.5 87t65.5 274v792h312v-774q0 -319 -153 -474t-423 -155q-131 0 -233.5 37t-173 115t-107.5 197.5t-37 283.5zM358 1599q0 59 41 100.5t101 41.5q57 0 96 -40t39 -102q0 -57 -38 -98t-97 -41h-2 q-59 0 -99.5 41t-40.5 98zM784 1599q0 59 40 100.5t100 41.5q59 0 98 -40t39 -102q0 -57 -39 -98t-98 -41h-2q-59 0 -98.5 41t-39.5 98z" />
<glyph unicode="&#xdd;" horiz-adv-x="1234" d="M18 1380h359l139 -331q33 -76 57.5 -136.5t49.5 -128.5h4q23 66 48 128.5t56 136.5l139 331h351l-455 -805v-575h-311v565zM483 1450l172 252h328l-250 -252h-250z" />
<glyph unicode="&#xde;" horiz-adv-x="1187" d="M135 0v1380h307v-247q29 4 67 6t103 2q123 0 216.5 -25.5t162.5 -85.5q63 -53 98 -130t35 -169q0 -127 -43 -217t-116.5 -146.5t-172 -82t-208.5 -25.5q-49 0 -84 3t-58 7v-270h-307zM442 514q23 -6 56.5 -9t72.5 -3q127 0 186.5 57t59.5 148q0 96 -62.5 146t-176.5 50 q-94 0 -136 -10v-379z" />
<glyph unicode="&#xdf;" horiz-adv-x="1228" d="M125 0v883q0 176 41 285.5t117 179.5q135 129 368 129q92 0 173 -27t140.5 -76t93.5 -119.5t34 -156.5q0 -47 -12.5 -93.5t-35.5 -74.5q-61 -29 -89.5 -67t-28.5 -77q0 -35 17.5 -65.5t53.5 -69.5q25 -29 53.5 -60.5t52 -69.5t39 -86t15.5 -105q0 -158 -106.5 -255.5 t-305.5 -97.5q-57 0 -116.5 8.5t-102.5 24.5l39 230q57 -29 142 -29q66 0 101.5 29.5t35.5 74.5q0 39 -18.5 70t-55.5 72q-25 27 -53.5 56.5t-51 65t-38 77.5t-15.5 92q0 78 42 144t124 109q6 16 10.5 34t4.5 40q0 70 -43 117t-117 47q-43 0 -79 -16.5t-62.5 -55.5 t-41 -102.5t-14.5 -155.5v-909h-311z" />
<glyph unicode="&#xe0;" horiz-adv-x="1081" d="M59 285q0 98 42 169.5t119 119t185.5 71t241.5 23.5v12q0 20 -7 42.5t-26.5 42t-55.5 32t-93 12.5q-78 0 -152.5 -22.5t-124.5 -51.5l-57 199q53 29 152.5 59.5t236.5 30.5q125 0 209 -35t135 -93t72.5 -137t21.5 -167v-350q0 -72 3.5 -136.5t13.5 -105.5h-281l-18 100 h-6q-49 -59 -123 -91t-164 -32q-76 0 -136.5 26t-101.5 69t-63.5 98t-22.5 115zM205 1438h287l176 -312h-213zM367 315q0 -59 34.5 -88.5t87.5 -29.5q57 0 101.5 33.5t60.5 80.5q6 25 6 54v108q-61 0 -114.5 -8t-92 -26.5t-61 -48.5t-22.5 -75z" />
<glyph unicode="&#xe1;" horiz-adv-x="1081" d="M59 285q0 98 42 169.5t119 119t185.5 71t241.5 23.5v12q0 20 -7 42.5t-26.5 42t-55.5 32t-93 12.5q-78 0 -152.5 -22.5t-124.5 -51.5l-57 199q53 29 152.5 59.5t236.5 30.5q125 0 209 -35t135 -93t72.5 -137t21.5 -167v-350q0 -72 3.5 -136.5t13.5 -105.5h-281l-18 100 h-6q-49 -59 -123 -91t-164 -32q-76 0 -136.5 26t-101.5 69t-63.5 98t-22.5 115zM367 315q0 -59 34.5 -88.5t87.5 -29.5q57 0 101.5 33.5t60.5 80.5q6 25 6 54v108q-61 0 -114.5 -8t-92 -26.5t-61 -48.5t-22.5 -75zM401 1126l177 312h286l-250 -312h-213z" />
<glyph unicode="&#xe2;" horiz-adv-x="1081" d="M59 285q0 98 42 169.5t119 119t185.5 71t241.5 23.5v12q0 20 -7 42.5t-26.5 42t-55.5 32t-93 12.5q-78 0 -152.5 -22.5t-124.5 -51.5l-57 199q53 29 152.5 59.5t236.5 30.5q125 0 209 -35t135 -93t72.5 -137t21.5 -167v-350q0 -72 3.5 -136.5t13.5 -105.5h-281l-18 100 h-6q-49 -59 -123 -91t-164 -32q-76 0 -136.5 26t-101.5 69t-63.5 98t-22.5 115zM225 1126l205 312h209l203 -312h-203l-102 179h-5l-104 -179h-203zM367 315q0 -59 34.5 -88.5t87.5 -29.5q57 0 101.5 33.5t60.5 80.5q6 25 6 54v108q-61 0 -114.5 -8t-92 -26.5t-61 -48.5 t-22.5 -75z" />
<glyph unicode="&#xe3;" horiz-adv-x="1081" d="M59 285q0 98 42 169.5t119 119t185.5 71t241.5 23.5v12q0 20 -7 42.5t-26.5 42t-55.5 32t-93 12.5q-78 0 -152.5 -22.5t-124.5 -51.5l-57 199q53 29 152.5 59.5t236.5 30.5q125 0 209 -35t135 -93t72.5 -137t21.5 -167v-350q0 -72 3.5 -136.5t13.5 -105.5h-281l-18 100 h-6q-49 -59 -123 -91t-164 -32q-76 0 -136.5 26t-101.5 69t-63.5 98t-22.5 115zM231 1143q-4 129 43.5 198.5t124.5 69.5q39 0 71 -12.5t62 -28.5q25 -14 46.5 -26.5t39.5 -12.5q25 0 37.5 18.5t16.5 71.5h143q4 -141 -41 -201.5t-127 -60.5q-43 0 -75.5 13.5t-65.5 29.5 q-29 16 -43 24.5t-35 8.5q-43 0 -49 -92h-148zM367 315q0 -59 34.5 -88.5t87.5 -29.5q57 0 101.5 33.5t60.5 80.5q6 25 6 54v108q-61 0 -114.5 -8t-92 -26.5t-61 -48.5t-22.5 -75z" />
<glyph unicode="&#xe4;" horiz-adv-x="1081" d="M59 285q0 98 42 169.5t119 119t185.5 71t241.5 23.5v12q0 20 -7 42.5t-26.5 42t-55.5 32t-93 12.5q-78 0 -152.5 -22.5t-124.5 -51.5l-57 199q53 29 152.5 59.5t236.5 30.5q125 0 209 -35t135 -93t72.5 -137t21.5 -167v-350q0 -72 3.5 -136.5t13.5 -105.5h-281l-18 100 h-6q-49 -59 -123 -91t-164 -32q-76 0 -136.5 26t-101.5 69t-63.5 98t-22.5 115zM180 1286q0 61 43 102.5t105 41.5q59 0 99 -41t40 -103q0 -59 -40 -102t-99 -43h-2q-61 0 -103.5 43t-42.5 102zM367 315q0 -59 34.5 -88.5t87.5 -29.5q57 0 101.5 33.5t60.5 80.5q6 25 6 54 v108q-61 0 -114.5 -8t-92 -26.5t-61 -48.5t-22.5 -75zM612 1286q0 61 41 102.5t105 41.5q59 0 100 -41t41 -103q0 -59 -40 -102t-101 -43h-4q-59 0 -100.5 43t-41.5 102z" />
<glyph unicode="&#xe5;" horiz-adv-x="1081" d="M59 285q0 98 42 169.5t119 119t185.5 71t241.5 23.5v12q0 20 -7 42.5t-26.5 42t-55.5 32t-93 12.5q-78 0 -152.5 -22.5t-124.5 -51.5l-57 199q53 29 152.5 59.5t236.5 30.5q125 0 209 -35t135 -93t72.5 -137t21.5 -167v-350q0 -72 3.5 -136.5t13.5 -105.5h-281l-18 100 h-6q-49 -59 -123 -91t-164 -32q-76 0 -136.5 26t-101.5 69t-63.5 98t-22.5 115zM307 1303q0 86 60.5 145t177.5 59h2q111 0 170 -58t59 -144t-62.5 -143.5t-168.5 -57.5q-111 0 -174.5 56.5t-63.5 142.5zM367 315q0 -59 34.5 -88.5t87.5 -29.5q57 0 101.5 33.5t60.5 80.5 q6 25 6 54v108q-61 0 -114.5 -8t-92 -26.5t-61 -48.5t-22.5 -75zM451 1303q0 -35 24.5 -66t67.5 -31q45 0 69.5 29t24.5 70q0 39 -23.5 69.5t-70.5 30.5h-2q-45 0 -67.5 -31t-22.5 -71z" />
<glyph unicode="&#xe6;" horiz-adv-x="1644" d="M59 291q0 92 43 161.5t121 115.5t186.5 68.5t241.5 22.5v29q0 10 -7 30.5t-28.5 40t-59.5 35t-97 15.5q-78 0 -148.5 -23.5t-117.5 -52.5l-62 197q55 31 148.5 62.5t205.5 31.5q123 0 204 -42t126 -120h6q59 78 145.5 120t196.5 42q111 0 191 -44t131 -114.5t74.5 -159 t23.5 -178.5q0 -31 -3 -62.5t-5 -49.5h-633q4 -98 78 -153.5t192 -55.5q94 0 158 15.5t123 37.5l43 -207q-84 -43 -179 -59.5t-190 -16.5q-125 0 -227 46.5t-156 132.5h-6q-59 -80 -150 -129.5t-222 -49.5q-82 0 -146.5 25t-109 68t-68 100t-23.5 121zM365 313 q0 -59 36.5 -88.5t90.5 -29.5q59 0 100 31.5t59 74.5q8 23 8 61v107q-63 0 -116.5 -8t-93 -26.5t-62 -48.5t-22.5 -73zM940 627h356q0 25 -6 57.5t-24.5 62t-52 51t-87.5 21.5q-49 0 -83.5 -20.5t-57 -49t-34 -62.5t-11.5 -60z" />
<glyph unicode="&#xe7;" horiz-adv-x="923" d="M68 492q0 109 36.5 205t109.5 168.5t180.5 114.5t246.5 42q61 0 124.5 -10.5t113.5 -28.5l-50 -231q-29 12 -70.5 21t-103.5 9q-61 0 -111 -20.5t-85 -57t-53.5 -88t-18.5 -112.5q0 -70 21.5 -122t58.5 -88t87 -53.5t105 -17.5q57 0 101.5 8.5t79.5 24.5l37 -229 q-35 -16 -94.5 -29.5t-135.5 -17.5l-39 -70q59 -14 104.5 -54t45.5 -112q0 -53 -21.5 -90t-56.5 -59.5t-79 -31.5t-89 -9t-91 9t-81 29l39 127q23 -12 54.5 -20t60.5 -8q31 0 52 12t21 41t-37.5 47.5t-123.5 28.5l81 170q-197 29 -308 162t-111 340z" />
<glyph unicode="&#xe8;" horiz-adv-x="1081" d="M68 489q0 94 30.5 190.5t93 172.5t157.5 124t224 48q121 0 206 -43t138.5 -113.5t78 -161t24.5 -182.5q0 -41 -3 -73.5t-7 -49.5h-645q4 -49 27.5 -84.5t62.5 -59.5t88 -35t104 -11q80 0 146.5 10t130.5 33l41 -211q-78 -33 -169 -48t-194 -15q-256 0 -395 137t-139 372z M246 1438h286l177 -312h-213zM362 614h369q0 29 -7 64t-26.5 65.5t-53.5 52t-87 21.5q-49 0 -85 -20.5t-59.5 -50t-35.5 -65.5t-15 -67z" />
<glyph unicode="&#xe9;" horiz-adv-x="1081" d="M68 489q0 94 30.5 190.5t93 172.5t157.5 124t224 48q121 0 206 -43t138.5 -113.5t78 -161t24.5 -182.5q0 -41 -3 -73.5t-7 -49.5h-645q4 -49 27.5 -84.5t62.5 -59.5t88 -35t104 -11q80 0 146.5 10t130.5 33l41 -211q-78 -33 -169 -48t-194 -15q-256 0 -395 137t-139 372z M362 614h369q0 29 -7 64t-26.5 65.5t-53.5 52t-87 21.5q-49 0 -85 -20.5t-59.5 -50t-35.5 -65.5t-15 -67zM440 1126l176 312h287l-250 -312h-213z" />
<glyph unicode="&#xea;" horiz-adv-x="1081" d="M68 489q0 94 30.5 190.5t93 172.5t157.5 124t224 48q121 0 206 -43t138.5 -113.5t78 -161t24.5 -182.5q0 -41 -3 -73.5t-7 -49.5h-645q4 -49 27.5 -84.5t62.5 -59.5t88 -35t104 -11q80 0 146.5 10t130.5 33l41 -211q-78 -33 -169 -48t-194 -15q-256 0 -395 137t-139 372z M256 1126l205 312h209l202 -312h-202l-103 179h-4l-104 -179h-203zM362 614h369q0 29 -7 64t-26.5 65.5t-53.5 52t-87 21.5q-49 0 -85 -20.5t-59.5 -50t-35.5 -65.5t-15 -67z" />
<glyph unicode="&#xeb;" horiz-adv-x="1081" d="M68 489q0 94 30.5 190.5t93 172.5t157.5 124t224 48q121 0 206 -43t138.5 -113.5t78 -161t24.5 -182.5q0 -41 -3 -73.5t-7 -49.5h-645q4 -49 27.5 -84.5t62.5 -59.5t88 -35t104 -11q80 0 146.5 10t130.5 33l41 -211q-78 -33 -169 -48t-194 -15q-256 0 -395 137t-139 372z M215 1286q0 61 43 102.5t104 41.5q59 0 99.5 -41t40.5 -103q0 -59 -40 -102t-100 -43h-2q-61 0 -103 43t-42 102zM362 614h369q0 29 -7 64t-26.5 65.5t-53.5 52t-87 21.5q-49 0 -85 -20.5t-59.5 -50t-35.5 -65.5t-15 -67zM647 1286q0 61 41 102.5t105 41.5q59 0 100 -41 t41 -103q0 -59 -40 -102t-101 -43h-5q-59 0 -100 43t-41 102z" />
<glyph unicode="&#xec;" horiz-adv-x="561" d="M-61 1438h286l176 -312h-213zM125 0v1001h311v-1001h-311z" />
<glyph unicode="&#xed;" horiz-adv-x="561" d="M125 0v1001h311v-1001h-311zM150 1126l176 312h286l-250 -312h-212z" />
<glyph unicode="&#xee;" horiz-adv-x="561" d="M-27 1126l205 312h209l203 -312h-203l-102 179h-4l-105 -179h-203zM125 0v1001h311v-1001h-311z" />
<glyph unicode="&#xef;" horiz-adv-x="561" d="M-80 1286q0 61 43 102.5t105 41.5q59 0 99 -41t40 -103q0 -59 -40 -102t-99 -43h-2q-61 0 -103.5 43t-42.5 102zM125 0v1001h311v-1001h-311zM352 1286q0 61 41 102.5t105 41.5q59 0 100 -41t41 -103q0 -59 -40 -102t-101 -43h-4q-59 0 -100.5 43t-41.5 102z" />
<glyph unicode="&#xf0;" horiz-adv-x="1175" d="M68 485q0 111 37.5 199t102 150.5t151.5 97.5t184 37q39 2 73.5 -6.5t71.5 -34.5l4 6q-37 49 -81 93t-97 79l-295 -127l-55 123l215 96q-45 29 -93 52.5t-98 45.5l134 174q82 -29 164.5 -70.5t158.5 -90.5l283 121l61 -119l-215 -94q160 -129 250 -310q43 -84 63.5 -179 t20.5 -202q0 -141 -44 -244.5t-118 -171t-168 -100.5t-192 -33q-111 0 -205 36t-164 101.5t-109.5 160t-39.5 210.5zM389 487q0 -59 13.5 -110t38 -91t61.5 -62.5t86 -22.5h2q98 0 147 82t49 213q0 80 -11 131t-38 84q-25 31 -60.5 49t-84.5 18q-57 0 -96 -27.5t-62.5 -70.5 t-34 -94t-10.5 -99z" />
<glyph unicode="&#xf1;" horiz-adv-x="1200" d="M117 1001h270l14 -139h7q14 25 40.5 53.5t65.5 52t89 40t114 16.5q76 0 142.5 -25.5t113.5 -80t74.5 -135.5t27.5 -191v-592h-311v555q0 98 -36 157.5t-122 59.5q-66 0 -104.5 -37t-55.5 -80q-6 -16 -8 -35.5t-2 -41.5v-578h-311v682q0 94 -2 173t-6 146zM311 1143 q-4 129 43 198.5t125 69.5q39 0 71 -12.5t62 -28.5q25 -14 46.5 -26.5t39.5 -12.5q25 0 37.5 18.5t16.5 71.5h143q4 -141 -41 -201.5t-127 -60.5q-43 0 -76 13.5t-65 29.5q-29 16 -43.5 24.5t-34.5 8.5q-43 0 -49 -92h-148z" />
<glyph unicode="&#xf2;" horiz-adv-x="1181" d="M68 494q0 121 37.5 219t108.5 166.5t170 106.5t220 38q115 0 209 -38t160.5 -105.5t103.5 -162.5t37 -208q0 -137 -45 -237.5t-118.5 -166t-168 -97.5t-194.5 -32h-2q-111 0 -205 35t-164 101.5t-109.5 163t-39.5 217.5zM274 1438h287l176 -312h-213zM389 500 q0 -63 13.5 -118.5t39 -95.5t63.5 -62.5t87 -22.5h2q92 0 145.5 83t53.5 218q0 55 -11.5 108.5t-35 96.5t-61.5 68.5t-91 25.5q-55 0 -94 -25.5t-63.5 -68.5t-36 -97.5t-11.5 -109.5z" />
<glyph unicode="&#xf3;" horiz-adv-x="1181" d="M68 494q0 121 37.5 219t108.5 166.5t170 106.5t220 38q115 0 209 -38t160.5 -105.5t103.5 -162.5t37 -208q0 -137 -45 -237.5t-118.5 -166t-168 -97.5t-194.5 -32h-2q-111 0 -205 35t-164 101.5t-109.5 163t-39.5 217.5zM389 500q0 -63 13.5 -118.5t39 -95.5t63.5 -62.5 t87 -22.5h2q92 0 145.5 83t53.5 218q0 55 -11.5 108.5t-35 96.5t-61.5 68.5t-91 25.5q-55 0 -94 -25.5t-63.5 -68.5t-36 -97.5t-11.5 -109.5zM455 1126l176 312h287l-250 -312h-213z" />
<glyph unicode="&#xf4;" horiz-adv-x="1181" d="M68 494q0 121 37.5 219t108.5 166.5t170 106.5t220 38q115 0 209 -38t160.5 -105.5t103.5 -162.5t37 -208q0 -137 -45 -237.5t-118.5 -166t-168 -97.5t-194.5 -32h-2q-111 0 -205 35t-164 101.5t-109.5 163t-39.5 217.5zM285 1126l204 312h209l203 -312h-203l-102 179h-4 l-105 -179h-202zM389 500q0 -63 13.5 -118.5t39 -95.5t63.5 -62.5t87 -22.5h2q92 0 145.5 83t53.5 218q0 55 -11.5 108.5t-35 96.5t-61.5 68.5t-91 25.5q-55 0 -94 -25.5t-63.5 -68.5t-36 -97.5t-11.5 -109.5z" />
<glyph unicode="&#xf5;" horiz-adv-x="1181" d="M68 494q0 121 37.5 219t108.5 166.5t170 106.5t220 38q115 0 209 -38t160.5 -105.5t103.5 -162.5t37 -208q0 -137 -45 -237.5t-118.5 -166t-168 -97.5t-194.5 -32h-2q-111 0 -205 35t-164 101.5t-109.5 163t-39.5 217.5zM301 1143q-4 129 43 198.5t125 69.5 q39 0 70.5 -12.5t62.5 -28.5q25 -14 46.5 -26.5t39.5 -12.5q25 0 37 18.5t16 71.5h144q4 -141 -41 -201.5t-127 -60.5q-43 0 -76 13.5t-66 29.5q-29 16 -43 24.5t-34 8.5q-43 0 -49 -92h-148zM389 500q0 -63 13.5 -118.5t39 -95.5t63.5 -62.5t87 -22.5h2q92 0 145.5 83 t53.5 218q0 55 -11.5 108.5t-35 96.5t-61.5 68.5t-91 25.5q-55 0 -94 -25.5t-63.5 -68.5t-36 -97.5t-11.5 -109.5z" />
<glyph unicode="&#xf6;" horiz-adv-x="1181" d="M68 494q0 121 37.5 219t108.5 166.5t170 106.5t220 38q115 0 209 -38t160.5 -105.5t103.5 -162.5t37 -208q0 -137 -45 -237.5t-118.5 -166t-168 -97.5t-194.5 -32h-2q-111 0 -205 35t-164 101.5t-109.5 163t-39.5 217.5zM231 1286q0 61 43 102.5t105 41.5q59 0 99 -41 t40 -103q0 -59 -40 -102t-99 -43h-2q-61 0 -103.5 43t-42.5 102zM389 500q0 -63 13.5 -118.5t39 -95.5t63.5 -62.5t87 -22.5h2q92 0 145.5 83t53.5 218q0 55 -11.5 108.5t-35 96.5t-61.5 68.5t-91 25.5q-55 0 -94 -25.5t-63.5 -68.5t-36 -97.5t-11.5 -109.5zM664 1286 q0 61 40.5 102.5t104.5 41.5q59 0 100 -41t41 -103q0 -59 -40 -102t-101 -43h-4q-59 0 -100 43t-41 102z" />
<glyph unicode="&#xf7;" horiz-adv-x="1220" d="M82 451v190h1057v-190h-1057zM461 186q0 70 42 111t107 41q68 0 108 -41t42 -111q0 -68 -41 -109.5t-109 -41.5h-2q-66 0 -106.5 42t-40.5 109zM461 905q0 70 42 111t107 41q68 0 108 -41t42 -111q0 -68 -41 -109.5t-109 -41.5h-2q-66 0 -106.5 42t-40.5 109z" />
<glyph unicode="&#xf8;" horiz-adv-x="1181" d="M68 498q0 119 37.5 215t107.5 165.5t165 107.5t212 38h2q131 0 242 -53l96 139l108 -74l-94 -137q80 -70 124 -169t44 -226q0 -133 -45 -232.5t-117.5 -165t-166 -97.5t-191.5 -32q-66 0 -125 12.5t-113 41.5l-100 -146l-102 82l90 133q-82 66 -128 166.5t-46 231.5z M367 500q0 -41 8 -83t26 -77h7l292 424q-47 37 -112 37q-61 0 -103.5 -28t-68 -71t-37.5 -96t-12 -106zM485 238q23 -20 49.5 -28.5t55.5 -8.5q104 0 163.5 80.5t59.5 214.5q0 35 -7 76.5t-26 78.5l-4 2z" />
<glyph unicode="&#xf9;" horiz-adv-x="1193" d="M121 414v587h311v-538q0 -111 37 -172.5t121 -61.5q66 0 103.5 36t51.5 73q12 27 13 68v595h311v-679q0 -98 2 -178.5t6 -143.5h-270l-14 141h-7q-14 -23 -39.5 -51.5t-63.5 -53t-90 -42t-120 -17.5q-78 0 -142.5 25t-110.5 78t-72.5 135t-26.5 199zM270 1438h287 l176 -312h-213z" />
<glyph unicode="&#xfa;" horiz-adv-x="1193" d="M121 414v587h311v-538q0 -111 37 -172.5t121 -61.5q66 0 103.5 36t51.5 73q12 27 13 68v595h311v-679q0 -98 2 -178.5t6 -143.5h-270l-14 141h-7q-14 -23 -39.5 -51.5t-63.5 -53t-90 -42t-120 -17.5q-78 0 -142.5 25t-110.5 78t-72.5 135t-26.5 199zM471 1126l176 312 h287l-250 -312h-213z" />
<glyph unicode="&#xfb;" horiz-adv-x="1193" d="M121 414v587h311v-538q0 -111 37 -172.5t121 -61.5q66 0 103.5 36t51.5 73q12 27 13 68v595h311v-679q0 -98 2 -178.5t6 -143.5h-270l-14 141h-7q-14 -23 -39.5 -51.5t-63.5 -53t-90 -42t-120 -17.5q-78 0 -142.5 25t-110.5 78t-72.5 135t-26.5 199zM291 1126l205 312 h209l202 -312h-202l-103 179h-4l-104 -179h-203z" />
<glyph unicode="&#xfc;" horiz-adv-x="1193" d="M121 414v587h311v-538q0 -111 37 -172.5t121 -61.5q66 0 103.5 36t51.5 73q12 27 13 68v595h311v-679q0 -98 2 -178.5t6 -143.5h-270l-14 141h-7q-14 -23 -39.5 -51.5t-63.5 -53t-90 -42t-120 -17.5q-78 0 -142.5 25t-110.5 78t-72.5 135t-26.5 199zM244 1286 q0 61 43 102.5t104 41.5q59 0 99 -41t40 -103q0 -59 -39.5 -102t-99.5 -43h-2q-61 0 -103 43t-42 102zM676 1286q0 61 41 102.5t104 41.5q59 0 100.5 -41t41.5 -103q0 -59 -40 -102t-102 -43h-4q-59 0 -100 43t-41 102z" />
<glyph unicode="&#xfd;" horiz-adv-x="1071" d="M12 1001h346l150 -493q12 -43 25.5 -94.5t23.5 -91.5h6q10 41 22.5 92t22.5 96l123 491h334l-234 -659q-53 -150 -99 -257.5t-88 -184t-82 -128t-83 -87.5q-80 -72 -160.5 -101.5t-140.5 -36.5l-65 263q29 6 64.5 19t70.5 34q35 18 70.5 53t58.5 72q16 27 16 45 q0 10 -2 21.5t-10 29.5zM434 1126l176 312h287l-250 -312h-213z" />
<glyph unicode="&#xfe;" horiz-adv-x="1224" d="M125 -406v1790h311v-505h4q45 66 120 105.5t179 39.5q80 2 155 -32t133 -99.5t93 -161.5t35 -221q0 -139 -41 -239.5t-106.5 -166t-145.5 -96.5t-157 -31q-92 0 -159 33t-106 84h-4v-500h-311zM436 410q0 -23 7.5 -50.5t21.5 -46.5q23 -43 65.5 -69.5t96.5 -26.5 q98 0 155.5 77t57.5 212q0 57 -14.5 107.5t-40 87t-63.5 58t-87 21.5q-59 0 -106.5 -30.5t-71.5 -83.5q-8 -16 -14.5 -40t-6.5 -44v-172z" />
<glyph unicode="&#xff;" horiz-adv-x="1071" d="M12 1001h346l150 -493q12 -43 25.5 -94.5t23.5 -91.5h6q10 41 22.5 92t22.5 96l123 491h334l-234 -659q-53 -150 -99 -257.5t-88 -184t-82 -128t-83 -87.5q-80 -72 -160.5 -101.5t-140.5 -36.5l-65 263q29 6 64.5 19t70.5 34q35 18 70.5 53t58.5 72q16 27 16 45 q0 10 -2 21.5t-10 29.5zM201 1286q0 61 43 102.5t104 41.5q59 0 99 -41t40 -103q0 -59 -39.5 -102t-99.5 -43h-2q-61 0 -103 43t-42 102zM633 1286q0 61 41 102.5t104 41.5q59 0 100.5 -41t41.5 -103q0 -59 -40 -102t-102 -43h-4q-59 0 -100 43t-41 102z" />
<glyph unicode="&#x152;" horiz-adv-x="1916" d="M72 678q0 166 50 300t142 228t220 145.5t286 51.5q55 0 101.5 -4t82.5 -8q39 -4 71 -7.5t58 -3.5h725v-256h-538v-286h508v-254h-508v-328h567v-256h-778q-29 0 -59.5 -4t-65.5 -8t-77 -7.5t-93 -3.5q-176 0 -306 57.5t-216 154t-128 223.5t-42 266zM401 690 q0 -102 28 -187t81 -146.5t131 -96.5t178 -35q37 0 75 6.5t64 18.5v876q-61 29 -161 29q-80 0 -153 -29.5t-126 -89t-85 -146.5t-32 -200z" />
<glyph unicode="&#x153;" horiz-adv-x="1777" d="M68 500q0 117 37.5 214t105.5 165.5t162 106.5t205 38t206 -44t146 -134h4q59 88 150.5 133t197.5 45q119 0 202 -43t135 -113.5t75.5 -160t23.5 -181.5q0 -35 -3 -68.5t-5 -49.5h-633q2 -47 24.5 -83t59.5 -62.5t85 -40t104 -13.5q90 0 153.5 15.5t124.5 37.5l43 -209 q-41 -23 -90 -38t-98 -23t-94.5 -11.5t-81.5 -3.5q-111 0 -206 40t-163 139h-6q-63 -92 -162.5 -135.5t-212.5 -43.5q-102 0 -191.5 36t-155 102.5t-104 164t-38.5 220.5zM389 502q0 -63 13.5 -118.5t39 -95.5t62.5 -63.5t86 -23.5q96 0 147 83t51 220q0 57 -11 111.5 t-34.5 95.5t-60.5 65.5t-88 24.5h-2q-59 0 -98 -28t-61.5 -71t-33 -96t-10.5 -104zM1073 618h357q0 27 -6.5 61t-25 64.5t-52 51t-91.5 20.5q-47 0 -81.5 -19.5t-56 -49t-33 -64.5t-11.5 -64z" />
<glyph unicode="&#x178;" horiz-adv-x="1234" d="M18 1380h359l139 -331q33 -76 57.5 -136.5t49.5 -128.5h4q23 66 48 128.5t56 136.5l139 331h351l-455 -805v-575h-311v565zM285 1595q0 59 41 100.5t100 41.5q57 0 96 -40t39 -102q0 -57 -38 -98t-97 -41h-2q-59 0 -99 41t-40 98zM711 1595q0 59 40 100.5t99 41.5t98 -40 t39 -102q0 -57 -39 -98t-98 -41h-2q-59 0 -98 41t-39 98z" />
<glyph unicode="&#x2c6;" horiz-adv-x="614" d="M0 1126l205 312h209l202 -312h-202l-103 179h-4l-104 -179h-203z" />
<glyph unicode="&#x2dc;" horiz-adv-x="614" d="M16 1143q-4 129 43 198.5t125 69.5q39 0 71 -12.5t62 -28.5q25 -14 46.5 -26.5t39.5 -12.5q25 0 37.5 18.5t16.5 71.5h143q4 -141 -41 -201.5t-127 -60.5q-43 0 -75.5 13.5t-65.5 29.5q-29 16 -43.5 24.5t-34.5 8.5q-43 0 -49 -92h-148z" />
<glyph unicode="&#x2000;" horiz-adv-x="918" />
<glyph unicode="&#x2001;" horiz-adv-x="1837" />
<glyph unicode="&#x2002;" horiz-adv-x="918" />
<glyph unicode="&#x2003;" horiz-adv-x="1837" />
<glyph unicode="&#x2004;" horiz-adv-x="612" />
<glyph unicode="&#x2005;" horiz-adv-x="459" />
<glyph unicode="&#x2006;" horiz-adv-x="306" />
<glyph unicode="&#x2007;" horiz-adv-x="306" />
<glyph unicode="&#x2008;" horiz-adv-x="229" />
<glyph unicode="&#x2009;" horiz-adv-x="367" />
<glyph unicode="&#x200a;" horiz-adv-x="102" />
<glyph unicode="&#x2010;" horiz-adv-x="659" d="M61 434v207h537v-207h-537z" />
<glyph unicode="&#x2011;" horiz-adv-x="659" d="M61 434v207h537v-207h-537z" />
<glyph unicode="&#x2012;" horiz-adv-x="659" d="M61 434v207h537v-207h-537z" />
<glyph unicode="&#x2013;" horiz-adv-x="1024" d="M61 424v192h902v-192h-902z" />
<glyph unicode="&#x2014;" horiz-adv-x="2048" d="M61 424v192h1926v-192h-1926z" />
<glyph unicode="&#x2018;" horiz-adv-x="532" d="M55 846q47 152 110.5 295t135.5 260l188 16q-47 -131 -83.5 -274.5t-59.5 -278.5z" />
<glyph unicode="&#x2019;" horiz-adv-x="532" d="M53 846q47 133 84 275.5t60 277.5l290 18q-47 -150 -110.5 -293t-134.5 -260z" />
<glyph unicode="&#x201a;" horiz-adv-x="532" d="M33 -213q47 131 84 274.5t59 278.5l291 18q-47 -152 -110.5 -295t-135.5 -260z" />
<glyph unicode="&#x201c;" horiz-adv-x="929" d="M51 846q47 152 111.5 295t134.5 260l188 16q-47 -131 -83.5 -274.5t-59.5 -278.5zM453 846q47 152 110.5 295t134.5 260l189 16q-47 -131 -84 -274.5t-60 -278.5z" />
<glyph unicode="&#x201d;" horiz-adv-x="929" d="M49 846q47 133 84 275.5t60 277.5l290 18q-47 -150 -110.5 -293t-134.5 -260zM451 846q47 133 83.5 275.5t59.5 277.5l291 18q-47 -150 -111.5 -293t-134.5 -260z" />
<glyph unicode="&#x201e;" horiz-adv-x="940" d="M31 -213q47 131 84 274.5t59 278.5l291 18q-47 -152 -110.5 -295t-135.5 -260zM432 -213q47 131 84 274.5t59 278.5l291 18q-47 -152 -111.5 -295t-133.5 -260z" />
<glyph unicode="&#x2022;" horiz-adv-x="692" d="M80 532q0 57 20.5 106.5t56.5 85.5t85 56.5t104 20.5t103.5 -20.5t85 -56.5t57 -85t20.5 -107q0 -55 -20.5 -104t-56 -85t-85 -56.5t-104.5 -20.5h-2q-55 0 -103 20.5t-84 56.5t-56.5 84t-20.5 105z" />
<glyph unicode="&#x2026;" horiz-adv-x="2048" d="M158 166q0 86 51 138t133 52q80 0 130 -52t52 -138q0 -82 -50 -135.5t-134 -53.5h-2q-78 0 -129 53.5t-51 135.5zM842 166q0 86 51 138t133 52q80 0 130 -52t52 -138q0 -82 -50 -135.5t-134 -53.5h-2q-78 0 -129 53.5t-51 135.5zM1526 166q0 86 51 138t133 52 q80 0 130 -52t52 -138q0 -82 -50 -135.5t-134 -53.5h-2q-78 0 -129 53.5t-51 135.5z" />
<glyph unicode="&#x202f;" horiz-adv-x="367" />
<glyph unicode="&#x2039;" horiz-adv-x="552" d="M53 516l238 391h217l-246 -391l246 -389h-217z" />
<glyph unicode="&#x203a;" horiz-adv-x="552" d="M45 127l246 389l-246 391h215l240 -391l-240 -389h-215z" />
<glyph unicode="&#x205f;" horiz-adv-x="459" />
<glyph unicode="&#x20ac;" d="M10 719v145h137q20 84 56.5 153.5t85.5 125.5q88 100 207.5 155.5t265.5 55.5q94 0 173 -18.5t134 -43.5l-57 -233q-41 16 -100.5 32.5t-127.5 16.5q-74 0 -139 -26.5t-113 -84.5q-43 -49 -65 -133h510v-145h-541q-2 -16 -2 -31.5v-32.5v-32h543v-146h-514 q20 -90 67 -143q49 -55 118 -80t147 -25q72 0 136 18.5t97 35.5l49 -228q-53 -29 -137 -53.5t-182 -24.5q-152 0 -283 59.5t-217 174.5q-84 106 -115 266h-131v146h111v34q0 16 1 30.5t1 31.5h-115z" />
<glyph unicode="&#x2122;" horiz-adv-x="1331" d="M55 1243v137h488v-137h-160v-422h-170v422h-158zM584 821l34 559h263l37 -137q8 -33 15 -71.5t17 -108.5h2q10 51 20.5 94t20.5 86l41 137h244l31 -559h-164l-10 244q-2 47 -1 100.5t-1 118.5h-11q-12 -57 -24.5 -114.5t-22.5 -104.5l-57 -234h-162l-51 236 q-6 41 -15.5 101.5t-19.5 115.5h-10q0 -57 -1 -113.5t-3 -105.5l-13 -244h-159z" />
<glyph unicode="&#x25fc;" horiz-adv-x="1003" d="M0 0v1004h1004v-1004h-1004z" />
</font>
</defs>
</svg>
