<?xml version="1.0" standalone="no"?>
<!DOCTYPE svg PUBLIC "-//W3C//DTD SVG 1.1//EN" "http://www.w3.org/Graphics/SVG/1.1/DTD/svg11.dtd" >
<svg>
<metadata>
Created by FontForge 20090622 at Fri Jan 22 08:52:14 2016
 By deploy user
&#194;&#169; 1992, 1994, 1997, 2000, 2004 Adobe Systems Incorporated. All rights reserved.
</metadata>
<defs>
<font id="MyriadPro-BoldIt" horiz-adv-x="395" >
  <font-face 
    font-family="Myriad Pro"
    font-weight="700"
    font-style="italic"
    font-stretch="normal"
    units-per-em="1000"
    panose-1="2 11 7 3 3 4 3 9 2 4"
    ascent="750"
    descent="-250"
    x-height="489"
    cap-height="674"
    bbox="-201 -250 1225 987"
    underline-thickness="50"
    underline-position="-50"
    slope="-11"
    unicode-range="U+0020-U+FB04"
  />
<missing-glyph horiz-adv-x="500" 
d="M0 0v700h500v-700h-500zM250 395l170 255h-340zM280 350l170 -255v510zM80 50h340l-170 255zM50 605v-510l170 255z" />
    <glyph glyph-name="f_f_j" unicode="ffj" horiz-adv-x="859" 
d="M837 692l-38 -111q-53 22 -107 22q-105 0 -121 -94l-3 -19h283l-89 -473q-22 -122 -69 -174q-45 -52 -133 -52q-38 0 -69 8l16 108q22 -2 33 -2q28 0 46.5 22t30.5 83l70 370h-139l-72 -380h-144l72 380h-160l-71 -380h-144l71 380h-63l21 110h63l4 18q20 91 71 142
q55 57 149 57q47 0 85 -20l-47 -106q-18 10 -39 10q-28 0 -45 -17q-22 -22 -32 -70l-3 -14h161l4 19q20 101 92 156t181 55q87 0 135 -28z" />
    <glyph glyph-name="f_j" unicode="fj" horiz-adv-x="557" 
d="M535 692l-38 -111q-51 22 -107 22q-103 0 -121 -94l-3 -19h283l-89 -473q-22 -122 -69 -174q-45 -52 -133 -52q-39 0 -68 8l16 108q20 -2 32 -2q28 0 47 22t30 83l70 370h-139l-71 -380h-144l71 380h-63l21 110h63l4 19q20 101 92 156t181 55q87 0 135 -28z" />
    <glyph glyph-name="f_f" unicode="ff" horiz-adv-x="632" 
d="M727 709l-25 -115q-19 8 -46 8q-34 0 -55.5 -24.5t-28.5 -63.5l-5 -24h97l-21 -110h-96l-70 -380h-145l72 380h-159l-71 -380h-144l72 380h-63l20 110h64l3 15q22 98 71 147q55 55 145 55q40 0 73 -13l-39 -109q-20 6 -33 6q-56 0 -75 -85l-3 -16h160l5 25q19 106 82 160
q54 46 139 46q50 0 76 -12z" />
    <glyph glyph-name="f_f_i" unicode="ffi" horiz-adv-x="865" 
d="M837 692l-38 -111q-53 22 -107 22q-105 0 -121 -94l-3 -19h283l-93 -490h-144l71 380h-137l-71 -380h-145l72 380h-160l-71 -380h-144l71 380h-63l21 110h63l4 18q20 91 71 142q55 57 149 57q50 0 85 -20l-47 -106q-18 10 -39 10q-28 0 -45 -17q-22 -22 -32 -70l-3 -14
h161l4 19q20 101 92 156t181 55q87 0 135 -28z" />
    <glyph glyph-name="f_f_l" unicode="ffl" horiz-adv-x="865" 
d="M429 688l-44 -106q-23 9 -41 9q-28 0 -46 -18q-23 -23 -31 -69l-3 -14h161l3 21q18 101 98 159q68 51 183 51q45 0 95.5 -11t81.5 -30l-128 -680h-144l113 598q-20 10 -55 10q-41 0 -67.5 -28t-33.5 -72l-3 -18h84l-21 -110h-83l-72 -380h-144l72 380h-160l-71 -380h-144
l71 380h-63l21 110h63l3 14q18 94 71 147q56 56 148 56q48 0 86 -19z" />
    <glyph glyph-name="f_i" unicode="fi" horiz-adv-x="564" 
d="M174 0h-143l71 380h-63l21 110h63l4 19q19 101 91 156t182 55q87 0 135 -28l-38 -111q-53 22 -107 22q-105 0 -121 -94l-3 -19h283l-93 -490h-144l71 380h-137z" />
    <glyph glyph-name="f_l" unicode="fl" horiz-adv-x="564" 
d="M174 0h-144l72 380h-64l21 110h63l4 21q20 103 98 159q68 51 183 51q45 0 95.5 -11t81.5 -30l-128 -680h-144l113 598q-20 10 -55 10q-41 0 -67.5 -28t-33.5 -72l-3 -18h84l-21 -110h-83z" />
    <glyph glyph-name=".notdef" horiz-adv-x="500" 
d="M0 0v700h500v-700h-500zM250 395l170 255h-340zM280 350l170 -255v510zM80 50h340l-170 255zM50 605v-510l170 255z" />
    <glyph glyph-name=".null" horiz-adv-x="0" 
 />
    <glyph glyph-name="nonmarkingreturn" horiz-adv-x="333" 
 />
    <glyph glyph-name="space" unicode=" " horiz-adv-x="184" 
 />
    <glyph glyph-name="exclam" unicode="!" horiz-adv-x="269" 
d="M185 221h-112l65 453h155zM94 -11q-36 0 -58 23t-22 59q0 41 27.5 70.5t69.5 29.5q36 0 59 -23.5t23 -60.5q0 -43 -28 -70.5t-71 -27.5z" />
    <glyph glyph-name="quotedbl" unicode="&#x22;" horiz-adv-x="387" 
d="M115 692h134l-74 -278h-91zM307 692h134l-74 -278h-91z" />
    <glyph glyph-name="numbersign" unicode="#" horiz-adv-x="541" 
d="M222 269h87l36 115h-87zM137 0h-89l56 179h-82l15 90h96l38 115h-85l14 90h98l56 176h87l-56 -176h88l56 176h88l-56 -176h81l-15 -90h-94l-36 -115h83l-15 -90h-98l-55 -179h-89l56 179h-87z" />
    <glyph glyph-name="dollar" unicode="$" horiz-adv-x="541" 
d="M250 -87h-95l18 95q-43 2 -87 18t-69 35l46 109q68 -50 158 -50q46 0 74.5 19t28.5 51q0 26 -19.5 45.5t-65.5 41.5q-68 35 -106.5 75.5t-38.5 96.5q0 75 55.5 128t146.5 63l18 89h94l-17 -88q80 -4 130 -37l-46 -107q-60 36 -136 36q-41 0 -65 -18t-24 -45
q0 -23 22 -41.5t78 -46.5q131 -65 131 -171q0 -87 -60.5 -139.5t-152.5 -62.5z" />
    <glyph glyph-name="percent" unicode="%" horiz-adv-x="869" 
d="M276 661q66 0 104.5 -41.5t38.5 -107.5q0 -107 -60 -179.5t-149 -72.5q-66 0 -107 41.5t-41 112.5q0 101 60 174t154 73zM260 578q-39 0 -63.5 -56.5t-24.5 -110.5q0 -68 49 -68q40 0 64 58t24 113q0 64 -49 64zM248 -11h-86l483 671h85zM691 392q66 0 104.5 -41.5
t38.5 -107.5q0 -107 -60 -179.5t-149 -72.5q-66 0 -107 41.5t-41 112.5q0 101 60 174t154 73zM675 309q-39 0 -63.5 -56.5t-24.5 -110.5q0 -30 12.5 -49t36.5 -19q40 0 64 58t24 113q0 64 -49 64z" />
    <glyph glyph-name="ampersand" unicode="&#x26;" horiz-adv-x="666" 
d="M610 0h-170q-8 8 -36 46q-77 -57 -181 -57q-95 0 -152 48.5t-57 129.5q0 131 163 208l1 3q-37 62 -37 114q0 83 59 138t152 55q76 0 123.5 -41.5t47.5 -108.5q0 -109 -167 -186v-3q31 -48 90 -129q56 64 92 171h133q-58 -166 -159 -262q41 -60 98 -126zM264 97
q46 0 82 32q-63 82 -119 169q-66 -48 -66 -106q0 -41 27 -68t76 -27zM339 592q-29 0 -49 -24.5t-20 -60.5q0 -45 30 -84q95 44 95 111q0 25 -14 41.5t-42 16.5z" />
    <glyph glyph-name="quotesingle" unicode="'" horiz-adv-x="198" 
d="M117 692h134l-74 -277h-91z" />
    <glyph glyph-name="parenleft" unicode="(" horiz-adv-x="314" 
d="M261 690h107q-84 -105 -137.5 -243t-53.5 -290t41 -273h-102q-55 123 -55 268q0 165 55 303t145 235z" />
    <glyph glyph-name="parenright" unicode=")" horiz-adv-x="314" 
d="M71 -116h-108q84 105 137.5 244t53.5 290t-41 272h103q54 -120 54 -267q0 -165 -54.5 -303t-144.5 -236z" />
    <glyph glyph-name="asterisk" unicode="*" horiz-adv-x="452" 
d="M347 685l84 -51l-123 -127l1 -2l165 33l-20 -103l-152 28l-1 -2l95 -123l-95 -51l-40 154l-2 -1l-74 -154l-81 53l122 123l-1 2l-162 -29l20 103l147 -33v2l-91 128l95 50l39 -154h2z" />
    <glyph glyph-name="plus" unicode="+" horiz-adv-x="596" 
d="M250 533h97v-219h207v-93h-207v-221h-97v221h-207v93h207v219z" />
    <glyph glyph-name="comma" unicode="," horiz-adv-x="260" 
d="M46 -110l-104 -9q78 157 114 284l156 10q-73 -162 -166 -285z" />
    <glyph glyph-name="hyphen" unicode="-" horiz-adv-x="322" 
d="M44 313h259l-20 -101h-259z" />
    <glyph glyph-name="period" unicode="." horiz-adv-x="260" 
d="M98 -10q-36 0 -58 23.5t-22 59.5q0 42 27.5 72t69.5 30q37 0 60 -24t23 -62q0 -44 -28 -71.5t-72 -27.5z" />
    <glyph glyph-name="slash" unicode="/" horiz-adv-x="326" 
d="M62 -40h-102l348 725h102z" />
    <glyph glyph-name="zero" unicode="0" horiz-adv-x="541" 
d="M344 661q97 0 142 -63t45 -160q0 -79 -19 -156.5t-55 -144t-95.5 -107.5t-133.5 -41q-97 0 -143 64t-46 170q0 79 20 155.5t57 140t96.5 103t131.5 39.5zM327 547q-34 0 -63 -37.5t-46.5 -91.5t-27 -108t-9.5 -92q0 -115 64 -115q35 0 64 39.5t45.5 96t25.5 109.5t9 89
q0 110 -62 110z" />
    <glyph glyph-name="one" unicode="1" horiz-adv-x="541" 
d="M183 0l97 515h-2l-127 -56l-5 112l180 79h118l-123 -650h-138z" />
    <glyph glyph-name="two" unicode="2" horiz-adv-x="541" 
d="M442 0h-445l18 93l140 108q112 91 162.5 148.5t50.5 111.5q0 35 -23.5 57t-65.5 22q-76 0 -138 -38l-29 103q91 56 202 56q95 0 148.5 -49.5t53.5 -127.5q0 -48 -17 -91.5t-51.5 -83.5t-67.5 -69.5t-84 -68.5l-65 -46v-2h233z" />
    <glyph glyph-name="three" unicode="3" horiz-adv-x="541" 
d="M8 33l44 113q67 -36 142 -36q59 0 94 26t35 66q0 87 -133 87h-25l21 110h23q56 0 100 22.5t44 63.5q0 25 -20 40.5t-60 15.5q-78 0 -134 -32l-20 108q81 44 183 44q87 0 145 -39.5t58 -112.5q0 -59 -41 -102t-103 -59l-1 -2q51 -11 82 -49t31 -94q0 -97 -84 -155.5
t-197 -58.5q-60 0 -110.5 12.5t-73.5 31.5z" />
    <glyph glyph-name="four" unicode="4" horiz-adv-x="541" 
d="M392 0h-135l30 157h-277l18 97l310 396h177l-72 -382h76l-20 -111h-77zM172 268h136l30 141l9 39.5t12 47.5t10 40h-4q-78 -118 -85 -128l-107 -138z" />
    <glyph glyph-name="five" unicode="5" horiz-adv-x="541" 
d="M533 650l-25 -123h-229l-31 -101q22 2 28 2q79 0 134 -40q72 -49 72 -144q0 -118 -86.5 -186.5t-214.5 -68.5q-56 0 -102 11t-66 27l37 115q52 -32 133 -32q58 0 103.5 29.5t45.5 78.5q0 100 -161 100q-28 0 -80 -4l93 336h349z" />
    <glyph glyph-name="six" unicode="6" horiz-adv-x="541" 
d="M513 659l-22 -117q-19 1 -54 -2q-85 -8 -144.5 -50t-85.5 -103l2 -1q56 50 134 50q72 0 119 -50.5t47 -131.5q0 -107 -74 -186t-186 -79q-105 0 -161 63.5t-56 164.5q0 107 45 199t116 148q109 87 266 95q25 2 54 0zM254 100q48 0 77 44t29 95q0 42 -22 66t-58 24
q-60 0 -94 -60q-9 -15 -11 -33q-2 -13 -2 -35q0 -44 21.5 -72.5t59.5 -28.5z" />
    <glyph glyph-name="seven" unicode="7" horiz-adv-x="541" 
d="M121 650h441l-18 -96l-357 -554h-160l353 525v2h-283z" />
    <glyph glyph-name="eight" unicode="8" horiz-adv-x="541" 
d="M334 661q82 0 137 -42t55 -116q0 -100 -117 -155v-2q43 -24 66 -63t23 -81q0 -68 -40 -117.5t-98 -72.5t-124 -23q-101 1 -159.5 47t-58.5 120q0 65 39 112.5t100 71.5l1 3q-65 49 -65 122q0 88 71 142t170 54zM251 94h2q37 0 65.5 26t28.5 68q0 69 -84 99
q-40 -10 -67 -40t-27 -72q0 -35 22 -58t60 -23zM316 556q-35 0 -60 -25t-25 -58q0 -55 76 -82q33 11 56.5 37t23.5 59q0 30 -19 49.5t-52 19.5z" />
    <glyph glyph-name="nine" unicode="9" horiz-adv-x="541" 
d="M48 -9l17 118q15 -2 61 0q73 7 128 41q71 43 106 119l-2 2q-47 -47 -124 -47t-125 48.5t-48 127.5q0 106 77.5 183.5t186.5 77.5q104 0 157.5 -62.5t53.5 -164.5q-1 -109 -48.5 -204t-117.5 -152q-102 -80 -247 -87q-39 -2 -75 0zM312 550q-42 0 -73 -41t-31 -91
q0 -39 21 -63t55 -24q57 0 87 43q10 11 14 31q6 19 6 52q0 41 -20 67t-59 26z" />
    <glyph glyph-name="colon" unicode=":" horiz-adv-x="260" 
d="M159 312q-36 0 -58 23t-22 59q0 41 27.5 71t69.5 30q36 0 59 -24t23 -61q0 -43 -28 -70.5t-71 -27.5zM98 -11q-36 0 -58 23t-22 59q0 41 27.5 71t69.5 30q36 0 59 -24t23 -61q0 -43 -28 -70.5t-71 -27.5z" />
    <glyph glyph-name="semicolon" unicode=";" horiz-adv-x="260" 
d="M46 -110l-104 -9q76 149 114 284l155 10q-71 -160 -165 -285zM164 312q-36 0 -58 23t-22 59q0 41 27.5 71t69.5 30q36 0 59 -24t23 -61q0 -43 -28 -70.5t-71 -27.5z" />
    <glyph glyph-name="less" unicode="&#x3c;" horiz-adv-x="596" 
d="M52 223v86l476 223v-106l-359 -159v-2l359 -159v-106z" />
    <glyph glyph-name="equal" unicode="=" horiz-adv-x="596" 
d="M553 325h-511v93h511v-93zM553 117h-511v93h511v-93z" />
    <glyph glyph-name="greater" unicode="&#x3e;" horiz-adv-x="596" 
d="M552 312v-92l-476 -220v105l367 160v2l-367 160v105z" />
    <glyph glyph-name="question" unicode="?" horiz-adv-x="437" 
d="M269 219h-140q2 18 3 26q12 83 91 166q7 8 22.5 23.5t23 24t17 20.5t13.5 22.5t4 20.5q0 47 -58 48q-63 0 -109 -28l-19 101q72 43 169 43q73 0 119 -37.5t46 -98.5q0 -29 -7.5 -53.5t-28 -51.5t-31.5 -39.5t-42 -44.5q-56 -55 -68 -118q-1 -4 -2.5 -12.5t-2.5 -11.5z
M165 -11q-35 0 -57 23t-22 59q0 41 27.5 70.5t69.5 29.5q36 0 59 -23.5t23 -60.5q0 -43 -28 -70.5t-72 -27.5z" />
    <glyph glyph-name="at" unicode="@" horiz-adv-x="749" 
d="M431 250l15 95q-18 4 -31 4q-49 0 -83.5 -42t-34.5 -100q0 -62 49 -62q28 0 53 31t32 74zM516 -11l18 -57q-77 -36 -182 -36q-131 0 -222 86.5t-91 228.5q0 102 46 188.5t132.5 139.5t195.5 53q132 0 217 -81.5t85 -207.5q0 -108 -53.5 -173.5t-136.5 -65.5
q-36 0 -58.5 19.5t-26.5 57.5h-3q-48 -77 -129 -77q-49 0 -80.5 35.5t-31.5 95.5q0 96 65 164.5t169 68.5q73 0 119 -24l-30 -186q-7 -44 -1 -65t27 -22q36 -2 66 43t30 126q0 102 -63 166.5t-175 64.5q-120 0 -204 -85.5t-84 -225.5q0 -124 70.5 -193t186.5 -69
q82 0 144 31z" />
    <glyph glyph-name="A" unicode="A" horiz-adv-x="618" 
d="M399 175h-194l-79 -175h-154l328 674h185l79 -674h-152zM247 285h146l-14 145q-2 34 -9 132h-2l-23 -58.5t-31 -73.5z" />
    <glyph glyph-name="B" unicode="B" horiz-adv-x="582" 
d="M20 7l124 656q77 16 177 16q106 0 167 -35q35 -18 56.5 -50.5t21.5 -73.5q0 -60 -38 -101.5t-98 -58.5v-3q49 -15 77.5 -53.5t28.5 -93.5q0 -99 -92 -160q-80 -55 -254 -55q-113 0 -170 12zM268 563l-30 -157h48q60 0 96.5 24.5t36.5 67.5q0 69 -94 69q-35 0 -57 -4z
M216 301l-36 -191q17 -2 55 -2q64 0 106.5 26.5t42.5 79.5q0 87 -123 87h-45z" />
    <glyph glyph-name="C" unicode="C" horiz-adv-x="583" 
d="M512 135l12 -116q-65 -29 -177 -29q-135 0 -216.5 77t-81.5 209q0 110 45.5 197t124.5 140q104 71 247 71q97 0 148 -28l-40 -117q-46 22 -122 22q-91 0 -154 -52q-93 -78 -93 -217q0 -82 46 -130.5t133 -48.5q76 0 128 22z" />
    <glyph glyph-name="D" unicode="D" horiz-adv-x="681" 
d="M20 8l125 656q87 15 187 15q160 0 245 -73q89 -73 89 -211q0 -96 -37 -177.5t-101 -132.5q-111 -90 -323 -90q-111 0 -185 13zM271 559l-85 -444q26 -3 63 -3q124 0 191 78q70 79 70 204q0 81 -45 125.5t-133 44.5q-36 0 -61 -5z" />
    <glyph glyph-name="E" unicode="E" horiz-adv-x="517" 
d="M481 407l-24 -121h-239l-31 -163h269l-23 -123h-414l128 674h399l-24 -123h-254l-28 -144h241z" />
    <glyph glyph-name="F" unicode="F" horiz-adv-x="511" 
d="M19 0l128 674h395l-24 -123h-250l-31 -158h235l-24 -121h-234l-51 -272h-144z" />
    <glyph glyph-name="G" unicode="G" horiz-adv-x="673" 
d="M643 384l-68 -353q-114 -38 -218 -38q-143 0 -224 74q-85 74 -85 208q0 93 36 173t101 135q118 98 298 98q118 0 178 -30l-43 -121q-58 27 -143 27q-102 0 -171 -54q-45 -35 -71.5 -92.5t-26.5 -125.5q0 -83 46 -126.5t127 -43.5q45 0 74 12l27 142h-105l23 115h245z" />
    <glyph glyph-name="H" unicode="H" horiz-adv-x="666" 
d="M147 674h144l-50 -263h244l50 263h145l-128 -674h-144l53 283h-245l-53 -283h-144z" />
    <glyph glyph-name="I" unicode="I" horiz-adv-x="274" 
d="M144 674h144l-128 -674h-144z" />
    <glyph glyph-name="J" unicode="J" horiz-adv-x="399" 
d="M194 247l81 427h144l-85 -445q-25 -129 -85 -184.5t-174 -55.5q-72 0 -111 16l28 123q36 -12 80 -12q50 0 79 29.5t43 101.5z" />
    <glyph glyph-name="K" unicode="K" horiz-adv-x="590" 
d="M19 0l128 674h142l-57 -301h3q6 9 60 77l187 224h180l-273 -291l156 -383h-156l-113 293l-72 -68l-43 -225h-142z" />
    <glyph glyph-name="L" unicode="L" horiz-adv-x="487" 
d="M19 0l128 674h144l-104 -548h259l-24 -126h-403z" />
    <glyph glyph-name="M" unicode="M" horiz-adv-x="821" 
d="M722 0h-140l41 278q22 144 45 263h-3q-63 -147 -116 -254l-138 -276h-112l-24 273q-8 98 -15 257h-2q-7 -31 -18.5 -87l-20.5 -100t-17 -76l-67 -278h-132l169 674h193l21 -256q12 -182 12 -215h4q30 87 91 215l125 256h195z" />
    <glyph glyph-name="N" unicode="N" horiz-adv-x="666" 
d="M153 0h-134l128 674h169l89 -257q36 -115 61 -230h3q4 94 31 242l46 245h135l-128 -674h-149l-94 269q-43 131 -66 235h-3q-10 -92 -43 -268z" />
    <glyph glyph-name="O" unicode="O" horiz-adv-x="705" 
d="M418 685q130 0 201 -78t71 -203q0 -93 -31.5 -177.5t-88.5 -140.5q-100 -97 -249 -97q-127 0 -200 79.5t-73 201.5q0 92 32.5 177.5t91.5 141.5q101 96 246 96zM401 565q-67 0 -116 -51q-39 -38 -61.5 -106.5t-22.5 -132.5q0 -75 35.5 -120.5t105.5 -45.5q64 0 113 49
q38 38 60 108.5t22 133.5q0 72 -31.5 118.5t-104.5 46.5z" />
    <glyph glyph-name="P" unicode="P" horiz-adv-x="559" 
d="M19 0l125 662q68 17 176 17q116 0 179 -44q73 -49 73 -144q0 -119 -91 -189q-81 -63 -216 -63q-11 0 -21.5 0.5t-21.5 2t-16 1.5l-46 -243h-141zM266 560l-38 -199q25 -5 56 -5q63 0 103 35.5t40 87.5q0 85 -102 85q-35 0 -59 -4z" />
    <glyph glyph-name="Q" unicode="Q" horiz-adv-x="705" 
d="M632 -7l-50 -114q-141 41 -252 95q-39 17 -48 17q-102 7 -168 82t-66 199q0 87 30.5 170t86.5 140q103 103 254 103q130 0 200.5 -80.5t70.5 -200.5q0 -87 -30 -171t-83 -138q-46 -44 -99 -65v-3q75 -20 154 -34zM402 565q-66 0 -116 -50q-39 -39 -62 -109.5t-23 -133.5
q0 -75 35.5 -119.5t104.5 -44.5q62 0 113 49q37 38 60 110t23 136q0 31 -6.5 58t-21 51.5t-42 38.5t-65.5 14z" />
    <glyph glyph-name="R" unicode="R" horiz-adv-x="583" 
d="M20 0l126 662q70 17 180 17q116 0 177 -39q75 -44 75 -131q0 -72 -42 -120.5t-111 -70.5v-3q54 -24 64 -123l7.5 -72t9.5 -79.5t9 -40.5h-148q-10 29 -19 159q-5 60 -26.5 83.5t-65.5 23.5h-44l-50 -266h-142zM269 561l-35 -187h59q59 0 97 32t38 81q0 39 -28.5 59
t-74.5 20q-36 0 -56 -5z" />
    <glyph glyph-name="S" unicode="S" horiz-adv-x="510" 
d="M0 37l48 119q72 -43 159 -43q45 0 76 20.5t31 57.5q0 28 -21 49t-70 47q-139 74 -139 178q0 100 75.5 159.5t189.5 59.5q95 0 159 -33l-45 -120q-55 30 -125 29q-49 0 -76 -20.5t-27 -49.5q0 -27 23.5 -47t74.5 -49q134 -69 134 -178q0 -108 -78 -167.5t-196 -59.5
q-128 1 -193 48z" />
    <glyph glyph-name="T" unicode="T" horiz-adv-x="527" 
d="M141 0l104 548h-178l25 126h501l-24 -126h-180l-104 -548h-144z" />
    <glyph glyph-name="U" unicode="U" horiz-adv-x="655" 
d="M144 674h144l-73 -388q-8 -37 -8 -79q0 -43 25.5 -70t72.5 -27q58 0 94.5 41.5t54.5 133.5l74 389h144l-73 -383q-30 -156 -103 -229t-209 -73q-106 -1 -165 54t-59 161q0 41 10 94z" />
    <glyph glyph-name="V" unicode="V" horiz-adv-x="611" 
d="M331 0h-167l-84 674h149l30 -321q10 -104 16 -207h2q33 87 90 208l151 320h161z" />
    <glyph glyph-name="W" unicode="W" horiz-adv-x="864" 
d="M278 0h-160l-26 674h146v-300q0 -98 -4 -218h2l80 216l120 302h158l-2 -301q0 -82 -6 -214h2l74 215l117 300h151l-297 -674h-156l-5 277q-1 111 6 223h-2q-61 -176 -82 -227z" />
    <glyph glyph-name="X" unicode="X" horiz-adv-x="569" 
d="M517 0h-153l-46 136q-32 100 -36 115h-2l-68 -120l-80 -131h-173l252 344l-118 330h152l41 -129q24 -84 31 -112h3l64 114l78 127h172l-246 -331z" />
    <glyph glyph-name="Y" unicode="Y" horiz-adv-x="570" 
d="M295 0h-144l52 275l-132 399h154l43 -171q19 -80 26 -122h2l69 123l101 170h172l-291 -396z" />
    <glyph glyph-name="Z" unicode="Z" horiz-adv-x="553" 
d="M-25 0l15 83l391 464v3h-274l25 124h467l-17 -89l-384 -458v-3h302l-24 -124h-501z" />
    <glyph glyph-name="bracketleft" unicode="[" horiz-adv-x="314" 
d="M201 -112h-201l152 798h201l-16 -83h-93l-121 -632h93z" />
    <glyph glyph-name="backslash" unicode="\" horiz-adv-x="337" 
d="M313 -40h-100l-161 725h99z" />
    <glyph glyph-name="bracketright" unicode="]" horiz-adv-x="314" 
d="M126 686h201l-152 -798h-201l16 83h93l120 632h-93z" />
    <glyph glyph-name="asciicircum" unicode="^" horiz-adv-x="596" 
d="M544 177h-108l-145 356h-3l-146 -356h-106l208 473h92z" />
    <glyph glyph-name="underscore" unicode="_" horiz-adv-x="500" 
d="M-54 -75h500l-10 -50h-500z" />
    <glyph glyph-name="grave" unicode="`" 
d="M119 700h139l75 -152h-103z" />
    <glyph glyph-name="a" unicode="a" horiz-adv-x="554" 
d="M466 0h-132l3 51.5t3 45.5h-2q-60 -108 -165 -108q-66 0 -107 47t-41 123q0 64 21.5 123.5t63 108.5t110.5 79t155 30t162 -24l-51 -256q-23 -122 -20 -220zM353 274l22 113q-22 4 -39 4q-66 0 -113.5 -66t-47.5 -139q0 -37 15 -59t44 -22q36 0 69.5 42.5t49.5 126.5z
" />
    <glyph glyph-name="b" unicode="b" horiz-adv-x="560" 
d="M146 710h145l-58 -280h2q59 70 151 70q72 0 110 -50t38 -121q0 -61 -20.5 -120t-58.5 -109t-102 -80.5t-143 -30.5q-86 0 -130 35.5t-44 101.5q0 36 11 89zM199 246l-9 -40q-6 -32 -5 -54q2 -54 55 -54q59 0 101 65.5t42 135.5q0 38 -16 61t-48 23q-40 0 -74 -37.5
t-46 -99.5z" />
    <glyph glyph-name="c" unicode="c" horiz-adv-x="435" 
d="M373 125l1 -109q-54 -26 -139 -26q-92 0 -149 53.5t-57 146.5q0 132 90.5 221t228.5 89q56 0 100 -16l-36 -111q-29 12 -66 12q-74 0 -120 -53.5t-46 -125.5q0 -48 27 -74.5t69 -26.5q47 0 97 20z" />
    <glyph glyph-name="d" unicode="d" horiz-adv-x="560" 
d="M444 710h143l-99 -520q-20 -103 -23 -190h-132l7 79h-2q-60 -90 -161 -90q-65 0 -108 49.5t-43 135.5q0 132 86.5 229.5t221.5 97.5q36 0 67 -12zM355 243l26 131q-20 17 -57 17q-63 0 -105.5 -60t-42.5 -134q0 -44 18 -68t49 -24q34 0 66.5 36t45.5 102z" />
    <glyph glyph-name="e" unicode="e" horiz-adv-x="501" 
d="M412 132l10 -104q-77 -39 -183 -39q-103 0 -157 54.5t-54 152.5q0 76 33.5 144.5t100 114t151.5 45.5q75 0 122.5 -40t47.5 -107q0 -172 -318 -164q2 -31 16 -50q29 -38 94 -38q73 0 137 31zM348 354q0 18 -14.5 29.5t-38.5 11.5q-46 0 -76.5 -31t-39.5 -70
q87 -1 128 12.5t41 47.5z" />
    <glyph glyph-name="f" unicode="f" horiz-adv-x="329" 
d="M173 0h-143l72 380h-64l21 110h64l4 25q18 107 82 160q54 46 139 46q50 0 76 -12l-25 -114q-19 8 -46 8q-34 0 -55.5 -25t-28.5 -64l-5 -24h97l-21 -110h-96z" />
    <glyph glyph-name="g" unicode="g" horiz-adv-x="558" 
d="M11 -178l34 110q46 -27 128 -27q118 0 146 130l8 42h-2q-55 -73 -140 -73q-71 0 -113.5 50.5t-43.5 124.5q0 61 21.5 118t62 102.5t104 73t140.5 27.5q97 0 181 -34l-74 -403q-30 -158 -103 -217q-69 -55 -189 -55q-105 0 -160 31zM356 250l25 131q-20 9 -52 9
q-63 0 -106 -58.5t-43 -130.5q0 -39 17 -62.5t49 -23.5q36 0 67 37.5t43 97.5z" />
    <glyph glyph-name="h" unicode="h" horiz-adv-x="563" 
d="M157 0h-144l135 710h144l-55 -284h2q67 74 156 74q57 0 90 -34.5t33 -97.5q0 -38 -9 -88l-53 -280h-144l51 268q6 28 6 60q0 56 -49 56q-39 0 -73 -44t-47 -116z" />
    <glyph glyph-name="i" unicode="i" horiz-adv-x="265" 
d="M157 0h-144l93 489h144zM197 550h-2q-30 0 -49.5 19.5t-19.5 50.5q0 36 24.5 59t58.5 23q32 0 52.5 -19.5t20.5 -51.5q0 -37 -24.5 -59t-60.5 -22z" />
    <glyph glyph-name="j" unicode="j" horiz-adv-x="275" 
d="M121 489h143l-89 -473q-22 -121 -68 -173t-134 -52q-39 0 -68 8l16 108q20 -2 32 -2q28 0 47 22t30 83zM205 550q-30 0 -49.5 19.5t-19.5 50.5q0 36 24.5 59t58.5 23q32 0 52 -19.5t20 -51.5q0 -37 -24.5 -59t-61.5 -22z" />
    <glyph glyph-name="k" unicode="k" horiz-adv-x="530" 
d="M156 0h-143l135 710h143l-81 -425h2l44 55l125 149h178l-208 -202l136 -287h-161l-86 209l-54 -52z" />
    <glyph glyph-name="l" unicode="l" horiz-adv-x="265" 
d="M157 0h-144l136 710h144z" />
    <glyph glyph-name="m" unicode="m" horiz-adv-x="831" 
d="M152 0h-139l61 330q14 81 25 159h123l-9 -79h2q65 91 168 91q54 0 83.5 -28t32.5 -65q65 93 169 93q56 0 87.5 -35t31.5 -97q0 -34 -8 -84l-53 -285h-140l49 268q7 33 7 59q0 58 -48 58q-37 0 -69 -45t-46 -118l-41 -222h-139l51 269q6 40 6 56q0 60 -46 60
q-37 0 -71 -46.5t-47 -118.5z" />
    <glyph glyph-name="n" unicode="n" horiz-adv-x="563" 
d="M156 0h-144l62 330q7 34 27 159h127l-9 -81h2q67 92 171 92q60 0 93 -35t33 -99q0 -34 -8 -82l-54 -284h-145l52 271q5 28 5 54q0 59 -49 59q-37 0 -72.5 -45t-49.5 -122z" />
    <glyph glyph-name="o" unicode="o" horiz-adv-x="559" 
d="M322 501q95 0 151 -57.5t56 -144.5q0 -134 -82.5 -222t-209.5 -88q-93 0 -150 56t-57 147q0 129 82 219t210 90zM303 391q-39 0 -68.5 -34t-42.5 -78t-13 -85q0 -44 20.5 -69.5t58.5 -25.5q54 0 88 64.5t34 134.5q0 38 -19 65.5t-58 27.5z" />
    <glyph glyph-name="p" unicode="p" horiz-adv-x="562" 
d="M117 -198h-144l95 498q13 69 28 193h129l-9 -75h2q62 82 157 82q76 0 117 -53t41 -133q0 -132 -80 -228.5t-204 -96.5q-56 0 -90 20h-3zM197 227l-18 -106q26 -23 66 -23q56 0 96.5 65t40.5 140q0 33 -15.5 56.5t-47.5 23.5q-41 0 -75 -42.5t-47 -113.5z" />
    <glyph glyph-name="q" unicode="q" horiz-adv-x="560" 
d="M415 -198h-144l59 269h-2q-27 -40 -67 -61t-84 -21q-68 0 -109.5 51t-41.5 134q0 60 21 117t60.5 104.5t105 76t146.5 28.5q74 0 181 -29zM356 247l25 133q-22 10 -56 10q-63 0 -106 -62.5t-43 -135.5q0 -42 16.5 -64.5t44.5 -22.5q39 0 73 39t46 103z" />
    <glyph glyph-name="r" unicode="r" horiz-adv-x="370" 
d="M157 0h-144l55 291q4 20 25 198h125q0 -3 -3.5 -41.5t-5.5 -58.5h3q60 111 156 111q18 0 27 -1l-28 -140q-7 1 -23 1q-120 0 -153 -178z" />
    <glyph glyph-name="s" unicode="s" horiz-adv-x="416" 
d="M-4 28l35 101q68 -34 127 -34q30 0 46 12.5t16 31.5q0 18 -13.5 32.5t-47.5 30.5q-103 52 -103 130q0 76 60 122.5t155 46.5q80 0 126 -25l-35 -102q-47 21 -97 21q-29 0 -46.5 -11.5t-17.5 -31.5q0 -27 59 -56q110 -55 110 -134q0 -82 -62.5 -127.5t-162.5 -44.5
q-99 2 -149 38z" />
    <glyph glyph-name="t" unicode="t" horiz-adv-x="348" 
d="M141 582l148 40l-25 -132h105l-22 -110h-104l-33 -166q-8 -38 -8 -62q0 -41 42 -41q27 0 39 2l-16 -113q-30 -11 -85 -11q-63 0 -95.5 29t-32.5 77q0 39 11 91l37 194h-62l20 110h63z" />
    <glyph glyph-name="u" unicode="u" horiz-adv-x="560" 
d="M400 489h143l-62 -330q-15 -76 -26 -159h-127l9 79l-2 1q-71 -91 -168 -91q-60 0 -93 34.5t-33 102.5q0 41 10 90l52 273h144l-50 -262q-7 -40 -7 -65q0 -56 49 -56q38 0 71 42.5t47 113.5z" />
    <glyph glyph-name="v" unicode="v" horiz-adv-x="512" 
d="M46 489h148l23 -214q3 -33 7.5 -75.5t5.5 -57.5h3q21 56 55 132l98 215h161l-272 -489h-147z" />
    <glyph glyph-name="w" unicode="w" horiz-adv-x="733" 
d="M51 489h146l1 -207q0 -66 -5 -156h2q12 37 60 151l96 212h118l12 -205q4 -109 1 -158h3q17 58 53 160l84 203h145l-238 -489h-135l-14 170q-4 52 -4 157h-2q-48 -128 -58 -150l-83 -177h-136z" />
    <glyph glyph-name="x" unicode="x" horiz-adv-x="498" 
d="M49 489h158l29 -73l31 -82h3l52 78l54 77h165l-206 -238l114 -251h-158l-31 78q-15 38 -31 89h-3l-19.5 -33.5t-29.5 -48.5l-59 -85h-166l212 253z" />
    <glyph glyph-name="y" unicode="y" horiz-adv-x="497" 
d="M44 489h151l30 -213l16 -117h2l43 114l89 216h152l-175 -352q-97 -193 -188 -279q-38 -36 -82.5 -57.5t-74.5 -26.5l-32 124q49 15 83 38q52 36 80 85q5 10 2 24z" />
    <glyph glyph-name="z" unicode="z" horiz-adv-x="450" 
d="M-26 0l16 87l159 170q59 62 119 113l1 2h-209l23 117h382l-17 -91l-155 -166q-69 -72 -119 -113l-1 -2h230l-23 -117h-406z" />
    <glyph glyph-name="braceleft" unicode="{" horiz-adv-x="314" 
d="M31 249l14 77q46 2 64 20.5t24 47.5q5 25 10 78.5t9 78.5q26 135 172 135h37l-16 -84h-18q-58 0 -73 -71q-4 -19 -8 -61.5t-8 -64.5q-8 -55 -32.5 -81.5t-70.5 -35.5v-2q66 -15 66 -74q0 -32 -21 -101q-21 -73 -21 -93q0 -46 48 -46h18l-15 -84h-30q-131 0 -131 106
q0 28 23 111q23 77 23 95q0 48 -64 49z" />
    <glyph glyph-name="bar" unicode="|" horiz-adv-x="240" 
d="M87 750h98v-1000h-98v1000z" />
    <glyph glyph-name="braceright" unicode="}" horiz-adv-x="314" 
d="M296 325l-14 -77q-46 -2 -64 -20.5t-24 -47.5q-5 -25 -10 -78.5t-9 -78.5q-26 -135 -172 -135h-37l16 84h18q59 0 73 72q4 19 8 61t8 64q8 55 32.5 81.5t70.5 35.5v2q-66 15 -66 74q0 22 22 101q21 73 21 93q0 46 -48 46h-18l15 84h30q131 0 131 -106q0 -40 -23 -111
q-24 -72 -24 -95q0 -48 64 -49z" />
    <glyph glyph-name="asciitilde" unicode="~" horiz-adv-x="596" 
d="M143 193h-95q-1 95 36.5 140t102.5 45q56 0 138 -47q69 -40 94 -40q38 0 41 81h95q4 -99 -33 -143t-100 -44q-59 0 -146 53q-64 36 -87 36q-41 0 -46 -81z" />
    <glyph glyph-name="uni00A0" unicode="&#xa0;" horiz-adv-x="184" 
 />
    <glyph glyph-name="exclamdown" unicode="&#xa1;" horiz-adv-x="269" 
d="M128 -191h-155l109 452h111zM172 494q36 0 58 -23t22 -59q0 -41 -27.5 -70.5t-69.5 -29.5q-36 0 -59 23.5t-23 60.5q0 43 28 70.5t71 27.5z" />
    <glyph glyph-name="cent" unicode="&#xa2;" horiz-adv-x="541" 
d="M318 -12h-95l19 99q-75 13 -118 67q-40 51 -40 131q0 114 72 194t180 99l18 95h94l-17 -91q54 -2 86 -19l-42 -109q-36 17 -85 17q-64 0 -108 -47.5t-44 -119.5q0 -51 30.5 -79.5t78.5 -28.5q42 0 91 19l6 -107q-46 -22 -109 -24z" />
    <glyph glyph-name="sterling" unicode="&#xa3;" horiz-adv-x="541" 
d="M459 0h-445l14 81q39 16 74.5 51.5t50.5 74.5q11 25 9 62h-94l20 103h73q2 64 13 109q22 84 82.5 132t153.5 48q70 0 108 -25l-38 -110q-29 16 -75 16q-82 0 -101 -88q-7 -37 -5 -82h137l-20 -103h-121q-3 -30 -14 -59q-18 -55 -64 -86v-2h261z" />
    <glyph glyph-name="currency" unicode="&#xa4;" horiz-adv-x="541" 
d="M281 550q71 0 113 -36l78 84l66 -69l-87 -79q33 -50 33 -114q0 -70 -36 -120l86 -81l-65 -67l-75 87q-45 -39 -115 -39t-113 38l-73 -86l-66 67l85 80q-37 49 -37 118q0 68 35 117l-87 79l67 69l76 -84q45 36 115 36zM278 452q-40 0 -68 -33t-28 -85q0 -57 30 -88.5
t68 -31.5t67.5 31.5t29.5 89.5q0 50 -28 83.5t-71 33.5z" />
    <glyph glyph-name="yen" unicode="&#xa5;" horiz-adv-x="541" 
d="M284 0h-134l30 160h-150l14 71h149l12 64h-150l14 71h115l-106 284h150l37 -160q18 -81 23 -109h3q44 81 62 110l99 159h159l-220 -284h114l-14 -71h-152l-11 -64h152l-14 -71h-151z" />
    <glyph glyph-name="brokenbar" unicode="&#xa6;" horiz-adv-x="240" 
d="M87 174h98v-350h-98v350zM87 674h98v-350h-98v350z" />
    <glyph glyph-name="section" unicode="&#xa7;" horiz-adv-x="556" 
d="M181 335q0 -46 74 -75q77 -31 98 -44q43 26 43 64q0 44 -56 72q-9 4 -52 22t-58 26q-20 -8 -34.5 -25.5t-14.5 -39.5zM529 649l-35 -88q-58 31 -131 31q-40 0 -65 -15.5t-25 -40.5q0 -20 21 -34.5t73 -33.5q73 -28 113 -63t40 -92q0 -89 -97 -146q28 -28 28 -72
q0 -85 -68.5 -128.5t-161.5 -43.5q-118 0 -186 49l39 90q65 -45 146 -45q43 0 68.5 15.5t25.5 40.5q0 21 -21 38t-73 37q-73 28 -117.5 63.5t-44.5 88.5q0 47 30 86t81 62q-26 30 -26 68q0 80 69 124.5t162 44.5q96 0 155 -36z" />
    <glyph glyph-name="dieresis" unicode="&#xa8;" 
d="M162 554q-27 0 -46.5 18t-19.5 48q0 33 22 54t54 21q29 0 47 -19t18 -47q0 -34 -21.5 -54.5t-53.5 -20.5zM367 554q-28 0 -47 18t-19 48q0 33 22 54t54 21q29 0 47 -19t18 -47q0 -34 -21.5 -54.5t-53.5 -20.5z" />
    <glyph glyph-name="copyright" unicode="&#xa9;" horiz-adv-x="673" 
d="M359 648q127 0 215.5 -90t88.5 -218q0 -129 -89 -219.5t-216 -90.5t-216.5 90.5t-89.5 219.5q0 128 89.5 218t217.5 90zM357 592q-101 0 -170.5 -74t-69.5 -180t70 -179t171 -73q100 -1 170 73t70 180t-70 179.5t-171 73.5zM493 492l-15 -54q-37 23 -96 23
q-58 0 -90.5 -33t-32.5 -91q0 -55 33.5 -90t88.5 -35q64 0 102 25l15 -52q-49 -32 -125 -32q-86 0 -135.5 51t-49.5 130q0 83 57.5 134.5t136.5 51.5q36 0 68.5 -8.5t42.5 -19.5z" />
    <glyph glyph-name="ordfeminine" unicode="&#xaa;" horiz-adv-x="400" 
d="M369 268h-96q0 34 1 51h-1q-42 -58 -111 -58q-44 0 -72.5 31.5t-28.5 86.5q0 88 58 150t169 62q68 0 123 -22l-35 -201q-7 -44 -7 -100zM281 407l17 103q-16 6 -35 6q-41 0 -68 -36.5t-27 -80.5q0 -57 45 -57q22 0 41 19t27 46z" />
    <glyph glyph-name="guillemotleft" unicode="&#xab;" horiz-adv-x="461" 
d="M267 443l-144 -193l96 -188h-100l-97 190l135 191h110zM460 443l-144 -193l96 -188h-100l-97 190l135 191h110z" />
    <glyph glyph-name="logicalnot" unicode="&#xac;" horiz-adv-x="596" 
d="M34 422h511v-316h-97v223h-414v93z" />
    <glyph glyph-name="uni00AD" unicode="&#xad;" horiz-adv-x="322" 
d="M44 313h259l-20 -101h-259z" />
    <glyph glyph-name="registered" unicode="&#xae;" horiz-adv-x="409" 
d="M238 489v-57h-49v157q33 6 70 6q45 0 64 -13q17 -10 17 -34q0 -26 -36 -36v-2q25 -7 32 -40q7 -31 11 -38h-54q-4 5 -12 34q-4 23 -27 23h-16zM240 560v-38h14q30 0 30 19q0 20 -28 20q-3 0 -8.5 -0.5t-7.5 -0.5zM261 685q74 0 125 -50t51 -122t-51 -122.5t-126 -50.5
q-74 0 -126 50.5t-52 122.5q0 71 52.5 121.5t126.5 50.5zM259 642q-53 0 -88.5 -38t-35.5 -92t36 -91.5t89 -37.5q53 -1 89 37t36 93q0 54 -36 91.5t-90 37.5z" />
    <glyph glyph-name="macron" unicode="&#xaf;" 
d="M154 662h246l-16 -78h-246z" />
    <glyph glyph-name="degree" unicode="&#xb0;" horiz-adv-x="356" 
d="M237 685q65 0 106 -41t41 -101q0 -63 -46.5 -107t-109.5 -44q-65 0 -106 40.5t-41 101.5q-1 62 45.5 106.5t110.5 44.5zM234 615q-30 0 -51.5 -24.5t-21.5 -55.5q0 -32 20 -52.5t51 -20.5t51.5 23.5t20.5 56.5q0 31 -18 52t-52 21z" />
    <glyph glyph-name="plusminus" unicode="&#xb1;" horiz-adv-x="596" 
d="M242 579h97v-173h207v-93h-207v-176h-97v176h-207v93h207v173zM35 93h511v-93h-511v93z" />
    <glyph glyph-name="twosuperior" unicode="&#xb2;" horiz-adv-x="341" 
d="M349 406h-304l11 57l75 58q73 53 107 87t34 64q0 40 -50 40q-46 0 -89 -29l-17 73q62 45 145 45q58 0 96 -27.5t38 -79.5q0 -37 -24.5 -73t-47.5 -54.5t-71 -53.5l-27 -19v-2h140z" />
    <glyph glyph-name="threesuperior" unicode="&#xb3;" horiz-adv-x="335" 
d="M130 694l-10 71q55 36 138 36q55 0 94 -25t39 -65q0 -36 -27 -60t-71 -35v-2q33 -7 56.5 -29t23.5 -56q0 -60 -53.5 -94t-132.5 -34q-90 0 -138 33l35 75q41 -29 95 -29q32 0 52.5 14t20.5 36q0 23 -23 35.5t-61 12.5h-18l14 68h16q35 0 62 11.5t27 33.5q0 31 -47 31
q-50 0 -92 -28z" />
    <glyph glyph-name="acute" unicode="&#xb4;" 
d="M273 700h142l-130 -152h-106z" />
    <glyph glyph-name="mu" unicode="&#xb5;" horiz-adv-x="559" 
d="M245 489l-52 -275q-21 -108 54 -108q26 0 48.5 22.5t37.5 53.5q10 19 13 37l52 270h144l-62 -329q-6 -33 1.5 -45.5t28.5 -13.5l-27 -104q-19 -8 -48 -8q-79 0 -89 91h-3q-49 -87 -123 -87q-50 0 -72 30l-8 -44q-22 -128 -21 -177h-129q-11 41 16 180l95 507h144z" />
    <glyph glyph-name="paragraph" unicode="&#xb6;" horiz-adv-x="538" 
d="M241 -51l-93 -1l60 311q-3 1 -13 4q-54 16 -89 58.5t-35 105.5q0 117 89 182t240 65q104 0 144 -10l-137 -715h-94l122 636h-72z" />
    <glyph glyph-name="periodcentered" unicode="&#xb7;" horiz-adv-x="260" 
d="M120 166q-36 0 -58 23.5t-22 59.5q0 42 27.5 72t69.5 30q37 0 60 -24t23 -62q0 -44 -28 -71.5t-72 -27.5z" />
    <glyph glyph-name="cedilla" unicode="&#xb8;" 
d="M122 4h79l-34 -48q27 -7 44 -24.5t17 -40.5q0 -50 -38 -74t-88 -24t-78 21l25 57q26 -16 53 -16q37 0 37 28q0 31 -72 36z" />
    <glyph glyph-name="onesuperior" unicode="&#xb9;" horiz-adv-x="274" 
d="M252 406h-117l57 295h-2l-78 -32l-9 80l122 47h101z" />
    <glyph glyph-name="ordmasculine" unicode="&#xba;" horiz-adv-x="383" 
d="M247 591q67 0 108 -38t41 -101q0 -86 -55 -138.5t-141 -52.5q-64 0 -105 39t-41 98q0 86 54.5 139.5t138.5 53.5zM238 517q-34 0 -55 -38.5t-21 -82.5q0 -27 14 -44t36 -17q33 0 54.5 38t21.5 85q0 59 -50 59z" />
    <glyph glyph-name="guillemotright" unicode="&#xbb;" horiz-adv-x="460" 
d="M149 256l-96 187h100l97 -191l-135 -190h-110zM342 256l-96 187h100l97 -191l-135 -190h-110z" />
    <glyph glyph-name="onequarter" unicode="&#xbc;" horiz-adv-x="826" 
d="M691 0h-108l17 90h-194l13 64l212 240h135l-43 -230h52l-14 -74h-52zM615 164l14 74q1 5 18 74h-3q-35 -49 -49 -66l-69 -81l2 -1h87zM247 266h-116l56 295h-1l-78 -32l-9 79l122 48h101zM211 -11h-90l487 672h89z" />
    <glyph glyph-name="onehalf" unicode="&#xbd;" horiz-adv-x="826" 
d="M241 266h-117l56 295h-1l-78 -32l-9 79l122 48h101zM187 -11h-86l491 672h85zM738 0h-302l11 57l74 58q75 56 108 88.5t33 62.5q0 40 -50 40q-44 0 -88 -29l-17 73q62 45 146 45q57 0 94.5 -27.5t37.5 -79.5q0 -28 -11 -53.5t-35.5 -49t-43.5 -38.5t-53 -39l-27 -20v-2
h139z" />
    <glyph glyph-name="threequarters" unicode="&#xbe;" horiz-adv-x="826" 
d="M241 -11h-89l486 672h90zM111 554l-10 71q55 36 138 36q55 0 94 -25t39 -65q0 -36 -26.5 -60t-70.5 -35l-1 -2q33 -7 56.5 -29t23.5 -56q0 -60 -54 -94t-132 -34q-90 0 -138 33l35 76q40 -30 95 -30q32 0 52.5 14t20.5 36q0 23 -23 35.5t-61 12.5h-18l14 68h16
q35 0 62 11.5t27 33.5q0 31 -47 31q-50 0 -92 -28zM702 0h-108l17 90h-194l12 64l213 240h135l-43 -230h52l-15 -74h-52zM625 164l14 74q3 15 10.5 42.5t8.5 31.5h-3q-35 -49 -49 -66l-69 -81l2 -1h86z" />
    <glyph glyph-name="questiondown" unicode="&#xbf;" horiz-adv-x="437" 
d="M171 265h140q-2 -18 -3 -26q-12 -80 -90 -167l-23.5 -23.5t-23 -24.5l-16.5 -20.5t-14 -22.5t-4 -20q0 -47 59 -48q65 0 109 28l19 -101q-69 -43 -169 -43q-73 0 -119.5 38t-46.5 99q0 36 16 70.5t35.5 57.5t56.5 61q56 55 69 117zM276 494q35 0 57 -23t22 -59
q0 -41 -27.5 -70.5t-69.5 -29.5q-36 0 -59 23.5t-23 60.5q0 43 28 70.5t72 27.5z" />
    <glyph glyph-name="Agrave" unicode="&#xc0;" horiz-adv-x="618" 
d="M399 175h-194l-79 -175h-154l328 674h185l79 -674h-152zM247 285h146l-14 145q-2 34 -9 132h-2l-23 -58.5t-31 -73.5zM224 837h158l77 -125h-119z" />
    <glyph glyph-name="Aacute" unicode="&#xc1;" horiz-adv-x="618" 
d="M399 175h-194l-79 -175h-154l328 674h185l79 -674h-152zM247 285h146l-14 145q-2 34 -9 132h-2l-23 -58.5t-31 -73.5zM417 836h160l-132 -126h-122z" />
    <glyph glyph-name="Acircumflex" unicode="&#xc2;" horiz-adv-x="618" 
d="M398 175h-194l-79 -175h-154l329 674h185l78 -674h-151zM247 285h145l-13 145q-2 20 -5 67.5t-4 64.5h-2q-8 -18 -26 -64.5t-28 -67.5zM363 836h109l80 -126h-101l-40 61h-2l-59 -61h-111z" />
    <glyph glyph-name="Atilde" unicode="&#xc3;" horiz-adv-x="618" 
d="M399 175h-194l-79 -175h-154l328 674h185l78 -674h-150zM247 285h146l-14 145q-2 34 -9 132h-2l-23 -58.5t-31 -73.5zM321 713h-71q9 62 35.5 94t63.5 32q32 0 63 -20q29 -19 41 -19q22 0 34 43h69q-20 -123 -100 -123q-34 0 -64 19q-29 18 -40 18q-21 0 -31 -44z" />
    <glyph glyph-name="Adieresis" unicode="&#xc4;" horiz-adv-x="618" 
d="M399 175h-194l-79 -175h-154l328 674h186l78 -674h-151zM247 285h146l-13 145q-1 10 -4.5 59t-5.5 73h-2l-23 -58.5t-31 -73.5zM292 711q-26 0 -45 18t-19 46q0 32 21 52.5t52 20.5q28 0 46 -18.5t18 -45.5q0 -32 -21.5 -52.5t-51.5 -20.5zM499 711q-26 0 -45 18t-19 46
q0 32 21 52.5t52 20.5q28 0 46 -18.5t18 -45.5q0 -32 -21.5 -52.5t-51.5 -20.5z" />
    <glyph glyph-name="Aring" unicode="&#xc5;" horiz-adv-x="618" 
d="M399 175h-194l-79 -175h-154l328 674h185l78 -674h-151zM247 285h146l-14 145q-2 34 -9 132h-2l-23 -58.5t-31 -73.5zM416 889q47 0 77.5 -24t30.5 -67q-1 -47 -36 -74t-88 -27q-44 0 -75 24t-32 63q-1 47 33.5 76t89.5 29zM410 840q-21 0 -33.5 -14.5t-12.5 -36.5
q0 -19 11 -31t30 -12q21 0 34.5 14t13.5 34t-11.5 33t-31.5 13z" />
    <glyph glyph-name="AE" unicode="&#xc6;" horiz-adv-x="845" 
d="M106 0h-154l413 674h484l-23 -123h-256l-12 -147h243l-23 -121h-225l-12 -160h254l-23 -123h-378l14 185h-194zM282 304h132l14 165q2 34 8 98h-4q-37 -71 -53 -99z" />
    <glyph glyph-name="Ccedilla" unicode="&#xc7;" horiz-adv-x="584" 
d="M513 138l12 -116q-69 -31 -154 -32l-24 -34q27 -6 43.5 -24t16.5 -43q0 -47 -38.5 -69.5t-87.5 -22.5q-51 0 -78 21l24 53q24 -15 54 -15q37 0 37 27q0 31 -72 36l50 74q-117 13 -182 89.5t-65 193.5q0 110 45.5 197t124.5 140q105 71 248 71q99 0 147 -28l-39 -117
q-49 22 -122 22q-91 0 -154 -52q-94 -76 -94 -217q0 -82 46.5 -130.5t133.5 -48.5q71 0 128 25z" />
    <glyph glyph-name="Egrave" unicode="&#xc8;" horiz-adv-x="517" 
d="M481 407l-24 -121h-239l-31 -163h269l-23 -123h-414l128 674h399l-24 -123h-254l-28 -144h241zM195 837h157l78 -125h-120z" />
    <glyph glyph-name="Eacute" unicode="&#xc9;" horiz-adv-x="517" 
d="M481 407l-24 -121h-239l-31 -163h269l-24 -123h-413l128 674h399l-24 -123h-254l-28 -144h241zM371 836h160l-132 -126h-122z" />
    <glyph glyph-name="Ecircumflex" unicode="&#xca;" horiz-adv-x="517" 
d="M481 407l-24 -121h-239l-31 -163h269l-23 -123h-414l128 674h399l-24 -123h-254l-28 -144h241zM319 836h109l80 -126h-101l-40 61h-2l-59 -61h-111z" />
    <glyph glyph-name="Edieresis" unicode="&#xcb;" horiz-adv-x="517" 
d="M480 407l-23 -121h-239l-32 -163h269l-23 -123h-413l128 674h398l-24 -123h-253l-28 -144h240zM255 711q-26 0 -45 18t-19 46q0 32 21 52.5t52 20.5q28 0 46 -18.5t18 -45.5q0 -32 -21.5 -52.5t-51.5 -20.5zM462 711q-26 0 -45 18t-19 46q0 32 21 52.5t52 20.5
q28 0 46 -18.5t18 -45.5q0 -32 -21.5 -52.5t-51.5 -20.5z" />
    <glyph glyph-name="Igrave" unicode="&#xcc;" horiz-adv-x="274" 
d="M144 674h144l-128 -674h-144zM61 837h158l77 -125h-120z" />
    <glyph glyph-name="Iacute" unicode="&#xcd;" horiz-adv-x="274" 
d="M144 674h143l-127 -674h-144zM244 836h160l-132 -126h-122z" />
    <glyph glyph-name="Icircumflex" unicode="&#xce;" horiz-adv-x="274" 
d="M144 674h144l-128 -674h-144zM185 836h109l80 -126h-101l-41 61h-2l-58 -61h-111z" />
    <glyph glyph-name="Idieresis" unicode="&#xcf;" horiz-adv-x="274" 
d="M143 674h145l-128 -674h-144zM121 711q-26 0 -45 18t-19 46q0 32 21 52.5t52 20.5q28 0 46 -18.5t18 -45.5q0 -32 -21.5 -52.5t-51.5 -20.5zM328 711q-26 0 -45 18t-19 46q0 32 21 52.5t52 20.5q28 0 46 -18.5t18 -45.5q0 -32 -21.5 -52.5t-51.5 -20.5z" />
    <glyph glyph-name="Eth" unicode="&#xd0;" horiz-adv-x="693" 
d="M10 287l24 119h76l48 258q88 15 184 15q166 0 247 -69q90 -72 90 -214q0 -97 -37.5 -178t-101.5 -132q-113 -90 -322 -90q-111 0 -185 13l54 278h-77zM384 406l-23 -119h-129l-33 -170q23 -4 64 -4q120 0 189 78q71 80 71 200q0 83 -44.5 128t-130.5 45q-37 0 -64 -5
l-30 -153h130z" />
    <glyph glyph-name="Ntilde" unicode="&#xd1;" horiz-adv-x="666" 
d="M153 0h-134l128 674h169l89 -257q37 -112 62 -230h2q4 94 31 242l46 245h135l-128 -674h-149l-94 269q-43 131 -66 235h-3q-10 -92 -43 -268zM354 715h-71q9 62 35.5 94t63.5 32q32 0 63 -20q29 -19 41 -19q22 0 34 43h69q-20 -123 -100 -123q-34 0 -64 19q-29 18 -40 18
q-21 0 -31 -44z" />
    <glyph glyph-name="Ograve" unicode="&#xd2;" horiz-adv-x="705" 
d="M321 -11q-127 0 -200 79.5t-73 201.5q0 92 32.5 177.5t91.5 141.5q101 96 246 96q130 0 201 -78t71 -203q0 -93 -31.5 -177.5t-88.5 -140.5q-100 -97 -249 -97zM342 109q64 0 113 49q38 38 60 108.5t22 133.5q0 72 -31.5 118.5t-104.5 46.5q-67 0 -116 -51
q-39 -38 -61.5 -106.5t-22.5 -132.5q0 -75 35.5 -120.5t105.5 -45.5zM265 837h157l78 -125h-120z" />
    <glyph glyph-name="Oacute" unicode="&#xd3;" horiz-adv-x="705" 
d="M321 -11q-127 0 -200 79.5t-73 201.5q0 92 32.5 177.5t91.5 141.5q101 96 246 96q130 0 201 -78t71 -203q0 -93 -31.5 -177.5t-88.5 -140.5q-100 -97 -249 -97zM342 109q64 0 113 49q38 38 60 108.5t22 133.5q0 72 -31.5 118.5t-104.5 46.5q-67 0 -116 -51
q-39 -38 -61.5 -106.5t-22.5 -132.5q0 -75 35.5 -120.5t105.5 -45.5zM453 839h160l-132 -126h-122z" />
    <glyph glyph-name="Ocircumflex" unicode="&#xd4;" horiz-adv-x="705" 
d="M321 -11q-127 0 -200 79.5t-73 201.5q0 92 32.5 177.5t91.5 141.5q101 96 246 96q130 0 201 -78t71 -203q0 -93 -31.5 -177.5t-88.5 -140.5q-100 -97 -249 -97zM342 109q64 0 113 49q38 38 60 108.5t22 133.5q0 72 -31.5 118.5t-104.5 46.5q-67 0 -116 -51
q-39 -38 -61.5 -106.5t-22.5 -132.5q0 -75 35.5 -120.5t105.5 -45.5zM394 836h109l80 -126h-101l-40 61h-2l-58 -61h-111z" />
    <glyph glyph-name="Otilde" unicode="&#xd5;" horiz-adv-x="705" 
d="M321 -11q-127 0 -200 79.5t-73 201.5q0 92 32.5 177.5t91.5 141.5q101 96 246 96q130 0 201 -78t71 -203q0 -93 -31.5 -177.5t-88.5 -140.5q-100 -97 -249 -97zM343 109q63 0 112 49q38 38 60 108.5t22 133.5q0 72 -31.5 118.5t-104.5 46.5q-65 0 -116 -51
q-38 -38 -61 -106.5t-23 -132.5q0 -75 35.5 -120.5t106.5 -45.5zM360 715h-71q9 62 35.5 94t63.5 32q32 0 63 -20q29 -19 41 -19q22 0 34 43h69q-20 -123 -100 -123q-34 0 -64 19q-29 18 -40 18q-22 0 -31 -44z" />
    <glyph glyph-name="Odieresis" unicode="&#xd6;" horiz-adv-x="705" 
d="M321 -11q-127 0 -200 79.5t-73 201.5q0 92 32.5 177.5t91.5 141.5q101 96 246 96q130 0 201 -78t71 -203q0 -93 -31.5 -177.5t-88.5 -140.5q-100 -97 -249 -97zM342 109q64 0 113 49q38 38 60 108.5t22 133.5q0 72 -31.5 118.5t-104.5 46.5q-65 0 -116 -51
q-38 -38 -61 -106.5t-23 -132.5q0 -75 35.5 -120.5t105.5 -45.5zM335 711q-26 0 -45 18t-19 46q0 32 21 52.5t52 20.5q28 0 46 -18.5t18 -45.5q0 -32 -21.5 -52.5t-51.5 -20.5zM542 711q-26 0 -45 18t-19 46q0 32 21 52.5t52 20.5q28 0 46 -18.5t18 -45.5q0 -32 -21.5 -52.5
t-51.5 -20.5z" />
    <glyph glyph-name="multiply" unicode="&#xd7;" horiz-adv-x="596" 
d="M35 460l65 66l192 -199l191 199l66 -66l-194 -197l194 -196l-66 -67l-192 199l-191 -199l-64 67l192 196z" />
    <glyph glyph-name="Oslash" unicode="&#xd8;" horiz-adv-x="702" 
d="M101 -66l-68 64l72 86q-59 75 -59 193q0 90 32 171t90 138q101 99 242 99q97 0 158 -42l73 88l73 -58l-77 -93q51 -69 51 -182q1 -89 -31 -171t-87 -139q-101 -99 -243 -99q-88 0 -147 38zM207 207l275 333q-29 26 -80 26q-65 0 -116.5 -48t-75.5 -121q-33 -98 -6 -190h3
zM531 453l-267 -323q28 -22 75 -22q62 0 110.5 44.5t72.5 115.5q31 90 12 185h-3z" />
    <glyph glyph-name="Ugrave" unicode="&#xd9;" horiz-adv-x="655" 
d="M144 674h144l-73 -388q-8 -37 -8 -79q0 -43 25.5 -70t72.5 -27q58 0 94.5 41.5t54.5 133.5l74 389h144l-73 -383q-30 -156 -103 -229t-209 -73q-106 -1 -165 54t-59 161q0 41 10 94zM254 837h158l77 -125h-120z" />
    <glyph glyph-name="Uacute" unicode="&#xda;" horiz-adv-x="655" 
d="M144 674h144l-73 -388q-8 -37 -8 -79q0 -43 25.5 -70t72.5 -27q58 0 94.5 41.5t54.5 133.5l74 389h144l-73 -383q-30 -156 -103 -229t-209 -73q-106 -1 -165 54t-59 161q0 41 10 94zM433 836h160l-132 -126h-122z" />
    <glyph glyph-name="Ucircumflex" unicode="&#xdb;" horiz-adv-x="655" 
d="M144 674h144l-73 -388q-8 -37 -8 -79q0 -43 25.5 -70t72.5 -27q58 0 94.5 41.5t54.5 133.5l74 389h144l-73 -383q-30 -156 -103 -229t-209 -73q-106 -1 -165 54t-59 161q0 41 10 94zM383 836h109l80 -126h-101l-40 61h-2l-59 -61h-111z" />
    <glyph glyph-name="Udieresis" unicode="&#xdc;" horiz-adv-x="655" 
d="M144 674h144l-73 -388q-8 -37 -8 -79q0 -43 25.5 -70t72.5 -27q58 0 94.5 41.5t54.5 133.5l74 389h143l-72 -383q-30 -156 -103.5 -229t-208.5 -73q-106 -1 -165 54t-59 161q0 41 10 94zM316 711q-26 0 -45 18t-19 46q0 32 21 52.5t52 20.5q29 0 46.5 -18.5t17.5 -45.5
q0 -32 -21 -52.5t-52 -20.5zM523 711q-26 0 -45 18t-19 46q0 32 21 52.5t52 20.5q28 0 46 -18.5t18 -45.5q0 -32 -21.5 -52.5t-51.5 -20.5z" />
    <glyph glyph-name="Yacute" unicode="&#xdd;" horiz-adv-x="570" 
d="M295 0h-144l52 275l-132 399h154l43 -171q19 -80 26 -122h2l69 123l101 170h172l-291 -396zM378 836h160l-132 -126h-122z" />
    <glyph glyph-name="Thorn" unicode="&#xde;" horiz-adv-x="558" 
d="M19 0l128 674h140l-22 -121q30 4 67 4q102 0 159 -47q59 -50 59 -130q0 -124 -85.5 -188t-211.5 -64q-38 0 -68 4l-25 -132h-141zM243 438l-36 -189q23 -5 57 -5q60 0 100.5 32.5t40.5 83.5q0 83 -106 83q-36 0 -56 -5z" />
    <glyph glyph-name="germandbls" unicode="&#xdf;" horiz-adv-x="580" 
d="M157 0h-144l85 449q51 272 284 272q81 0 134 -44.5t53 -116.5q0 -63 -41 -101q-69 -35 -69 -82q0 -30 28 -73q44 -68 44 -127q0 -94 -59.5 -141t-153.5 -47q-70 0 -110 23l34 105q31 -17 72 -17q33 0 52 15.5t19 43.5q0 30 -28 73q-46 72 -46 117q0 46 28.5 82.5
t71.5 59.5q17 23 17 52q0 27 -17 45t-48 18q-42 0 -74 -37t-46 -114z" />
    <glyph glyph-name="agrave" unicode="&#xe0;" horiz-adv-x="554" 
d="M466 0h-132l3 51.5t3 45.5h-2q-60 -108 -165 -108q-66 0 -107 47t-41 123q0 64 21.5 123.5t63 108.5t110.5 79t155 30t162 -24l-51 -256q-23 -122 -20 -220zM353 274l22 113q-22 4 -39 4q-66 0 -113.5 -66t-47.5 -139q0 -37 15 -59t44 -22q36 0 69.5 42.5t49.5 126.5z
M201 700h140l74 -152h-103z" />
    <glyph glyph-name="aacute" unicode="&#xe1;" horiz-adv-x="554" 
d="M466 0h-132l3 51.5t3 45.5h-2q-60 -108 -165 -108q-66 0 -107 47t-41 123q0 64 21.5 123.5t63 108.5t110.5 79t155 30t162 -24l-51 -256q-23 -122 -20 -220zM353 274l22 113q-22 4 -39 4q-66 0 -113.5 -66t-47.5 -139q0 -37 15 -59t44 -22q36 0 69.5 42.5t49.5 126.5z
M391 700h142l-130 -152h-106z" />
    <glyph glyph-name="acircumflex" unicode="&#xe2;" horiz-adv-x="554" 
d="M466 0h-132l3 51.5t3 45.5h-2q-60 -108 -165 -108q-66 0 -107 47t-41 123q0 64 21.5 123.5t63 108.5t110.5 79t155 30t162 -24l-51 -256q-23 -122 -20 -220zM353 274l22 113q-22 4 -39 4q-66 0 -113.5 -66t-47.5 -139q0 -37 15 -59t44 -22q36 0 69.5 42.5t49.5 126.5z
M330 700h99l75 -152h-93l-40 79h-2l-59 -79h-101z" />
    <glyph glyph-name="atilde" unicode="&#xe3;" horiz-adv-x="554" 
d="M466 0h-132l3 51.5t3 45.5h-2q-60 -108 -165 -108q-66 0 -107 47t-41 123q0 64 21.5 123.5t63 108.5t110.5 79t155 30t162 -24l-51 -256q-23 -122 -20 -220zM353 274l22 113q-22 4 -39 4q-66 0 -113.5 -66t-47.5 -139q0 -37 15 -59t44 -22q36 0 69.5 42.5t49.5 126.5z
M275 558h-70q8 60 33 93t63 33q28 0 62 -20q29 -19 39 -19q12 0 18.5 9t13.5 35h69q-18 -123 -98 -123q-34 0 -64 19q-21 18 -38 18q-19 0 -28 -45z" />
    <glyph glyph-name="adieresis" unicode="&#xe4;" horiz-adv-x="554" 
d="M466 0h-132l3 51.5t3 45.5h-2q-60 -108 -165 -108q-66 0 -107 47t-41 123q0 64 21.5 123.5t63 108.5t110.5 79t155 30t162 -24l-51 -256q-23 -122 -20 -220zM353 274l22 113q-22 4 -39 4q-66 0 -113.5 -66t-47.5 -139q0 -37 15 -59t44 -22q36 0 69.5 42.5t49.5 126.5z
M243 554q-27 0 -46.5 18t-19.5 48q0 33 22 54t54 21q29 0 47 -19t18 -47q0 -34 -21.5 -54.5t-53.5 -20.5zM448 554q-28 0 -47 18t-19 48q0 33 22 54t54 21q29 0 47 -19t18 -47q0 -34 -21.5 -54.5t-53.5 -20.5z" />
    <glyph glyph-name="aring" unicode="&#xe5;" horiz-adv-x="554" 
d="M466 0h-132l3 51.5t3 45.5h-2q-60 -108 -165 -108q-66 0 -107 47t-41 123q0 64 21.5 123.5t63 108.5t110.5 79t155 30t162 -24l-51 -256q-23 -122 -20 -220zM353 274l22 113q-22 4 -39 4q-66 0 -113.5 -66t-47.5 -139q0 -37 15 -59t44 -22q36 0 69.5 42.5t49.5 126.5z
M361 735q46 0 76.5 -24.5t30.5 -69.5q-1 -48 -36.5 -75.5t-87.5 -27.5q-44 0 -74.5 24.5t-31.5 65.5q-1 48 33.5 77.5t89.5 29.5zM354 685q-21 0 -34 -15t-13 -38q0 -18 11.5 -31t31.5 -13q22 0 35.5 14.5t13.5 36.5q0 20 -11.5 33t-33.5 13z" />
    <glyph glyph-name="ae" unicode="&#xe6;" horiz-adv-x="763" 
d="M676 132l5 -102q-73 -41 -179 -41q-55 0 -98.5 23t-63.5 64h-4q-69 -87 -182 -87q-67 0 -108.5 38.5t-41.5 96.5q0 69 49 116.5t117.5 66t147.5 17.5l2 11q4 22 -15.5 43t-63.5 21q-73 0 -136 -43l-23 92q80 53 177 53q112 0 144 -79h3q63 79 173 79q80 0 123.5 -40.5
t43.5 -94.5q0 -51 -24.5 -85.5t-70 -51.5t-100 -22.5t-124.5 -2.5q-4 -37 8 -59q28 -43 101 -43q70 0 140 30zM296 186l8 44q-23 1 -48 -2.5t-50.5 -12t-41.5 -26t-16 -42.5q0 -22 14.5 -35t39.5 -13q33 0 59.5 23t34.5 64zM607 353q0 17 -14.5 30t-41.5 13q-43 0 -72.5 -30
t-35.5 -63q164 -10 164 50z" />
    <glyph glyph-name="ccedilla" unicode="&#xe7;" horiz-adv-x="434" 
d="M371 125l1 -109q-45 -22 -96 -25l-25 -35q27 -6 44 -24.5t17 -44.5q0 -47 -37.5 -70.5t-83.5 -23.5q-55 0 -83 21l25 57q27 -16 55 -16q35 0 35 28q0 31 -72 36l49 73q-83 9 -128 63t-45 135q0 132 90.5 221t228.5 89q56 0 100 -16l-36 -111q-29 12 -66 12
q-74 0 -120 -53.5t-46 -125.5q0 -48 27 -74.5t69 -26.5q47 0 97 20z" />
    <glyph glyph-name="egrave" unicode="&#xe8;" horiz-adv-x="501" 
d="M412 132l10 -104q-77 -39 -183 -39q-103 0 -157 54.5t-54 152.5q0 76 33.5 144.5t100 114t151.5 45.5q75 0 122.5 -40t47.5 -107q0 -172 -318 -164q2 -31 16 -50q29 -38 94 -38q73 0 137 31zM348 354q0 18 -14.5 29.5t-38.5 11.5q-46 0 -76.5 -31t-39.5 -70
q87 -1 128 12.5t41 47.5zM167 700h140l75 -152h-103z" />
    <glyph glyph-name="eacute" unicode="&#xe9;" horiz-adv-x="501" 
d="M412 132l10 -104q-77 -39 -183 -39q-103 0 -157 54.5t-54 152.5q0 76 33.5 144.5t100 114t151.5 45.5q75 0 122.5 -40t47.5 -107q0 -172 -318 -164q2 -31 16 -50q29 -38 94 -38q73 0 137 31zM348 354q0 18 -14.5 29.5t-38.5 11.5q-46 0 -76.5 -31t-39.5 -70
q87 -1 128 12.5t41 47.5zM352 700h142l-130 -152h-107z" />
    <glyph glyph-name="ecircumflex" unicode="&#xea;" horiz-adv-x="501" 
d="M412 132l10 -104q-77 -39 -183 -39q-103 0 -157 54.5t-54 152.5q0 76 33.5 144.5t100 114t151.5 45.5q75 0 122.5 -40t47.5 -107q0 -172 -318 -164q2 -31 16 -50q29 -38 94 -38q73 0 137 31zM348 354q0 18 -14.5 29.5t-38.5 11.5q-46 0 -76.5 -31t-39.5 -70
q87 -1 128 12.5t41 47.5zM289 700h99l75 -152h-93l-40 79h-2l-58 -79h-102z" />
    <glyph glyph-name="edieresis" unicode="&#xeb;" horiz-adv-x="501" 
d="M412 132l10 -104q-77 -39 -183 -39q-103 0 -157 54.5t-54 152.5q0 76 33.5 144.5t100 114t151.5 45.5q75 0 122.5 -40t47.5 -107q0 -172 -318 -164q2 -31 16 -50q29 -38 94 -38q73 0 137 31zM348 354q0 18 -14.5 29.5t-38.5 11.5q-46 0 -76.5 -31t-39.5 -70
q87 -1 128 12.5t41 47.5zM223 554q-27 0 -46.5 18t-19.5 48q0 33 22 54t54 21q29 0 47 -19t18 -47q0 -34 -21.5 -54.5t-53.5 -20.5zM429 554q-28 0 -47 18t-19 48q0 33 22 54t54 21q29 0 47 -19t18 -47q0 -34 -21.5 -54.5t-53.5 -20.5z" />
    <glyph glyph-name="igrave" unicode="&#xec;" horiz-adv-x="265" 
d="M157 0h-144l93 489h144zM33 700h139l75 -152h-103z" />
    <glyph glyph-name="iacute" unicode="&#xed;" horiz-adv-x="265" 
d="M157 0h-144l93 489h144zM221 700h142l-130 -152h-106z" />
    <glyph glyph-name="icircumflex" unicode="&#xee;" horiz-adv-x="265" 
d="M157 0h-144l93 489h144zM162 700h99l75 -152h-93l-40 79h-2l-58 -79h-102z" />
    <glyph glyph-name="idieresis" unicode="&#xef;" horiz-adv-x="265" 
d="M156 0h-143l92 489h145zM95 554q-27 0 -46.5 18t-19.5 48q0 33 22 54t54 21q29 0 47 -19t18 -47q0 -34 -21.5 -54.5t-53.5 -20.5zM301 554q-28 0 -47 18t-19 48q0 33 22 54t54 21q29 0 47 -19t18 -47q0 -34 -21.5 -54.5t-53.5 -20.5z" />
    <glyph glyph-name="eth" unicode="&#xf0;" horiz-adv-x="558" 
d="M252 98q54 0 86.5 51.5t34.5 119.5q3 44 -7 66q-19 34 -67 34q-53 0 -88.5 -56t-35.5 -122q0 -40 20 -66.5t57 -26.5zM150 478l-20 59l122 52q-38 28 -84 49l66 79q75 -27 143 -79l141 58l21 -59l-111 -45q46 -46 72.5 -114.5t26.5 -148.5q0 -149 -80 -244.5t-208 -95.5
q-99 0 -156 57.5t-57 147.5q0 113 75 194t184 85q49 2 80 -23l1 2q-20 56 -60 92z" />
    <glyph glyph-name="ntilde" unicode="&#xf1;" horiz-adv-x="563" 
d="M156 0h-144l62 330q7 34 27 159h127l-9 -81h2q67 92 171 92q60 0 93 -35t33 -99q0 -34 -8 -82l-54 -284h-145l52 271q5 28 5 54q0 59 -49 59q-37 0 -72.5 -45t-49.5 -122zM269 558h-70q8 60 33 93t63 33q28 0 62 -20q29 -19 39 -19q12 0 18.5 9t13.5 35h69
q-18 -123 -98 -123q-35 0 -64 19q-23 18 -38 18q-19 0 -28 -45z" />
    <glyph glyph-name="ograve" unicode="&#xf2;" horiz-adv-x="559" 
d="M237 -11q-93 0 -150 56t-57 147q0 129 82 219t210 90q95 0 151 -57.5t56 -144.5q0 -134 -82.5 -222t-209.5 -88zM258 99q54 0 88 64.5t34 134.5q0 38 -19 65.5t-58 27.5t-68.5 -34t-42.5 -78t-13 -85q0 -44 20.5 -69.5t58.5 -25.5zM177 700h139l75 -152h-103z" />
    <glyph glyph-name="oacute" unicode="&#xf3;" horiz-adv-x="559" 
d="M237 -11q-93 0 -150 56t-57 147q0 129 82 219t210 90q95 0 151 -57.5t56 -144.5q0 -134 -82.5 -222t-209.5 -88zM258 99q54 0 88 64.5t34 134.5q0 38 -19 65.5t-58 27.5t-68.5 -34t-42.5 -78t-13 -85q0 -44 20.5 -69.5t58.5 -25.5zM359 700h142l-130 -152h-105z" />
    <glyph glyph-name="ocircumflex" unicode="&#xf4;" horiz-adv-x="559" 
d="M237 -11q-93 0 -150 56t-57 147q0 129 82 219t210 90q95 0 151 -57.5t56 -144.5q0 -134 -82.5 -222t-209.5 -88zM258 99q54 0 88 64.5t34 134.5q0 38 -19 65.5t-58 27.5t-68.5 -34t-42.5 -78t-13 -85q0 -44 20.5 -69.5t58.5 -25.5zM306 700h98l75 -152h-93l-40 79h-1
l-59 -79h-101z" />
    <glyph glyph-name="otilde" unicode="&#xf5;" horiz-adv-x="559" 
d="M237 -11q-93 0 -150 56t-57 147q0 129 82 219t210 90q95 0 151 -57.5t56 -144.5q0 -134 -82.5 -222t-209.5 -88zM258 99q54 0 88 64.5t34 134.5q0 38 -19 65.5t-58 27.5t-68.5 -34t-42.5 -78t-13 -85q0 -44 20.5 -69.5t58.5 -25.5zM257 558h-70q8 60 33 93t63 33
q27 0 61 -20q29 -19 39 -19q12 0 18.5 9t13.5 35h69q-18 -123 -98 -123q-36 0 -63 20q-24 17 -38 17q-19 0 -28 -45z" />
    <glyph glyph-name="odieresis" unicode="&#xf6;" horiz-adv-x="559" 
d="M237 -11q-93 0 -150 56t-57 147q0 129 82 219t210 90q95 0 151 -57.5t56 -144.5q0 -134 -82.5 -222t-209.5 -88zM258 99q54 0 88 64.5t34 134.5q0 38 -19 65.5t-58 27.5t-68.5 -34t-42.5 -78t-13 -85q0 -44 20.5 -69.5t58.5 -25.5zM236 554q-27 0 -46.5 18t-19.5 48
q0 33 22 54t54 21q29 0 47 -19t18 -47q0 -34 -21.5 -54.5t-53.5 -20.5zM441 554q-28 0 -47 18t-19 48q0 33 22 54t54 21q29 0 47 -19t18 -47q0 -34 -21.5 -54.5t-53.5 -20.5z" />
    <glyph glyph-name="divide" unicode="&#xf7;" horiz-adv-x="596" 
d="M298 368q-32 0 -52 20.5t-20 53.5q0 34 20 54t53 20t52.5 -20t20.5 -54q0 -33 -20 -53.5t-54 -20.5zM554 220h-511v93h511v-93zM298 17q-32 0 -52 20.5t-20 53.5t20 53.5t53 20.5t52.5 -20t20.5 -54q0 -33 -20 -53.5t-54 -20.5z" />
    <glyph glyph-name="oslash" unicode="&#xf8;" horiz-adv-x="560" 
d="M57 -56l-40 41l61 71q-49 54 -49 139q0 128 82 217t209 89q65 0 112 -28l62 70l44 -39l-59 -69q50 -56 50 -136q0 -138 -82.5 -224t-200.5 -86q-75 0 -123 31zM183 173l168 205q-18 18 -50 18q-56 0 -90 -60t-35 -118q-2 -26 4 -44zM375 316l-170 -202q19 -20 53 -20
q53 0 87.5 56.5t36.5 119.5q0 25 -4 46h-3z" />
    <glyph glyph-name="ugrave" unicode="&#xf9;" horiz-adv-x="560" 
d="M400 489h143l-62 -330q-15 -76 -26 -159h-127l9 79l-2 1q-71 -91 -168 -91q-60 0 -93 34.5t-33 102.5q0 41 10 90l52 273h144l-50 -262q-7 -40 -7 -65q0 -56 49 -56q38 0 71 42.5t47 113.5zM179 700h140l74 -152h-103z" />
    <glyph glyph-name="uacute" unicode="&#xfa;" horiz-adv-x="560" 
d="M400 489h143l-62 -330q-15 -76 -26 -159h-127l9 79l-2 1q-71 -91 -168 -91q-60 0 -93 34.5t-33 102.5q0 41 10 90l52 273h144l-50 -262q-7 -40 -7 -65q0 -56 49 -56q38 0 71 42.5t47 113.5zM361 700h142l-130 -152h-106z" />
    <glyph glyph-name="ucircumflex" unicode="&#xfb;" horiz-adv-x="560" 
d="M400 489h143l-62 -330q-15 -76 -26 -159h-127l9 79l-2 1q-71 -91 -168 -91q-60 0 -93 34.5t-33 102.5q0 41 10 90l52 273h144l-50 -262q-7 -40 -7 -65q0 -56 49 -56q38 0 71 42.5t47 113.5zM312 700h98l75 -152h-93l-39 79h-2l-59 -79h-101z" />
    <glyph glyph-name="udieresis" unicode="&#xfc;" horiz-adv-x="560" 
d="M400 489h143l-62 -330q-15 -76 -26 -159h-127l9 79l-2 1q-71 -91 -168 -91q-60 0 -93 34.5t-33 102.5q0 41 10 90l52 273h144l-50 -262q-7 -40 -7 -65q0 -56 49 -56q38 0 71 42.5t47 113.5zM237 554q-27 0 -46.5 18t-19.5 48q0 33 22 54t54 21q29 0 47 -19t18 -47
q0 -34 -21.5 -54.5t-53.5 -20.5zM442 554q-28 0 -47 18t-19 48q0 33 22 54t54 21q29 0 47 -19t18 -47q0 -34 -21.5 -54.5t-53.5 -20.5z" />
    <glyph glyph-name="yacute" unicode="&#xfd;" horiz-adv-x="497" 
d="M44 489h151l30 -213l16 -117h2l43 114l89 216h152l-175 -352q-97 -193 -188 -279q-38 -36 -82.5 -57.5t-74.5 -26.5l-32 124q49 15 83 38q52 36 80 85q5 10 2 24zM330 700h142l-130 -152h-106z" />
    <glyph glyph-name="thorn" unicode="&#xfe;" horiz-adv-x="564" 
d="M-27 -198l165 875h144l-47 -248h2q21 31 57.5 51t81.5 20q75 0 116.5 -52t41.5 -133q-1 -137 -81.5 -231.5t-201.5 -94.5q-57 0 -92 20h-3l-39 -207h-144zM196 220l-19 -100q29 -22 67 -22q57 0 97.5 63.5t40.5 140.5q0 34 -15.5 57.5t-47.5 23.5q-41 0 -74.5 -43
t-48.5 -120z" />
    <glyph glyph-name="ydieresis" unicode="&#xff;" horiz-adv-x="497" 
d="M44 489h151l30 -213l16 -117h2l43 114l89 216h151l-174 -352q-97 -193 -188 -279q-38 -36 -82.5 -57.5t-74.5 -26.5l-32 124q49 15 83 38q52 36 80 85q5 10 2 24zM198 554q-27 0 -46.5 18t-19.5 48q0 33 22 54t54 21q29 0 47 -19t18 -47q0 -34 -21.5 -54.5t-53.5 -20.5z
M403 554q-28 0 -47 18t-19 48q0 33 22 54t54 21q29 0 47 -19t18 -47q0 -34 -21.5 -54.5t-53.5 -20.5z" />
    <glyph glyph-name="Amacron" unicode="&#x100;" horiz-adv-x="618" 
d="M399 175h-194l-79 -175h-154l328 674h185l79 -674h-152zM247 285h146l-14 145q-2 34 -9 132h-2l-23 -58.5t-31 -73.5zM289 813h254l-15 -79h-254z" />
    <glyph glyph-name="amacron" unicode="&#x101;" horiz-adv-x="554" 
d="M466 0h-132l3 51.5t3 45.5h-2q-60 -108 -165 -108q-66 0 -107 47t-41 123q0 64 21.5 123.5t63 108.5t110.5 79t155 30t162 -24l-51 -256q-23 -122 -20 -220zM353 274l22 113q-22 4 -39 4q-66 0 -113.5 -66t-47.5 -139q0 -37 15 -59t44 -22q36 0 69.5 42.5t49.5 126.5z
M243 662h246l-15 -78h-247z" />
    <glyph glyph-name="Abreve" unicode="&#x102;" horiz-adv-x="618" 
d="M399 175h-194l-79 -175h-154l328 674h185l79 -674h-152zM247 285h146l-14 145q-2 34 -9 132h-2l-23 -58.5t-31 -73.5zM277 845h80q0 -21 13 -35t40 -14q55 0 66 49h82q-10 -55 -48 -88.5t-108 -33.5t-100.5 34t-24.5 88z" />
    <glyph glyph-name="abreve" unicode="&#x103;" horiz-adv-x="554" 
d="M466 0h-132l3 51.5t3 45.5h-2q-60 -108 -165 -108q-66 0 -107 47t-41 123q0 64 21.5 123.5t63 108.5t110.5 79t155 30t162 -24l-51 -256q-23 -122 -20 -220zM353 274l22 113q-22 4 -39 4q-66 0 -113.5 -66t-47.5 -139q0 -37 15 -59t44 -22q36 0 69.5 42.5t49.5 126.5z
M232 690h73q2 -56 47 -56q51 0 65 56h75q-10 -61 -47 -95.5t-100 -34.5q-66 0 -93 35.5t-20 94.5z" />
    <glyph glyph-name="Aogonek" unicode="&#x104;" horiz-adv-x="618" 
d="M485 674l78 -674h-71q-36 -49 -36 -85q0 -18 11 -29t31 -11q22 0 47 9l9 -70q-40 -33 -105 -33q-47 0 -72.5 23t-25.5 66q0 57 61 132l-13 173h-194l-79 -175h-154l328 674h185zM247 285h146l-14 145q-2 34 -9 132h-2l-23 -58.5t-31 -73.5z" />
    <glyph glyph-name="aogonek" unicode="&#x105;" horiz-adv-x="554" 
d="M538 476l-49 -256q-23 -122 -20 -220h-41q-48 -48 -48 -91q0 -15 10 -24.5t28 -9.5q26 0 51 9l9 -70q-40 -33 -105 -33q-47 0 -72.5 23t-25.5 66q0 59 62 132l3 50t3 45h-2q-63 -108 -167 -108q-66 0 -107 47t-41 123q0 64 21.5 123.5t63 108.5t110.5 79t156 30t161 -24z
M355 274l20 113q-22 4 -38 4q-66 0 -113.5 -66t-47.5 -139q0 -37 15 -59t44 -22q36 0 70.5 42.5t49.5 126.5z" />
    <glyph glyph-name="Cacute" unicode="&#x106;" horiz-adv-x="583" 
d="M512 135l12 -116q-65 -29 -177 -29q-135 0 -216.5 77t-81.5 209q0 110 45.5 197t124.5 140q104 71 247 71q97 0 148 -28l-40 -117q-46 22 -122 22q-91 0 -154 -52q-93 -78 -93 -217q0 -82 46 -130.5t133 -48.5q76 0 128 22zM444 840h160l-132 -126h-122z" />
    <glyph glyph-name="cacute" unicode="&#x107;" horiz-adv-x="435" 
d="M373 125l1 -109q-54 -26 -139 -26q-92 0 -149 53.5t-57 146.5q0 132 90.5 221t228.5 89q56 0 100 -16l-36 -111q-29 12 -66 12q-74 0 -120 -53.5t-46 -125.5q0 -48 27 -74.5t69 -26.5q47 0 97 20zM335 700h142l-130 -152h-106z" />
    <glyph glyph-name="Ccircumflex" unicode="&#x108;" horiz-adv-x="583" 
d="M512 135l12 -116q-65 -29 -177 -29q-135 0 -216.5 77t-81.5 209q0 110 45.5 197t124.5 140q104 71 247 71q97 0 148 -28l-40 -117q-46 22 -122 22q-91 0 -154 -52q-93 -78 -93 -217q0 -82 46 -130.5t133 -48.5q76 0 128 22zM388 839h109l80 -126h-101l-40 61h-2l-58 -61
h-111z" />
    <glyph glyph-name="ccircumflex" unicode="&#x109;" horiz-adv-x="435" 
d="M373 125l1 -109q-54 -26 -139 -26q-92 0 -149 53.5t-57 146.5q0 132 90.5 221t228.5 89q56 0 100 -16l-36 -111q-29 12 -66 12q-74 0 -120 -53.5t-46 -125.5q0 -48 27 -74.5t69 -26.5q47 0 97 20zM270 700h98l75 -152h-93l-40 79h-2l-58 -79h-102z" />
    <glyph glyph-name="Cdotaccent" unicode="&#x10a;" horiz-adv-x="583" 
d="M513 135l12 -116q-65 -29 -178 -29q-135 0 -216.5 77t-81.5 209q0 110 45.5 197t124.5 140q104 71 248 71q97 0 148 -28l-40 -117q-49 22 -122 22q-92 0 -155 -52q-93 -78 -93 -217q0 -82 46.5 -130.5t133.5 -48.5q75 0 128 22zM439 715q-27 0 -46.5 18t-19.5 46
q0 32 22 53t53 21q29 0 47 -18.5t18 -46.5q0 -32 -21.5 -52.5t-52.5 -20.5z" />
    <glyph glyph-name="cdotaccent" unicode="&#x10b;" horiz-adv-x="435" 
d="M372 125l1 -109q-54 -26 -138 -26q-92 0 -149 53.5t-57 146.5q0 132 90.5 221t228.5 89q55 0 99 -16l-35 -111q-31 12 -67 12q-74 0 -119.5 -53.5t-45.5 -125.5q0 -48 26.5 -74.5t68.5 -26.5q47 0 97 20zM317 553q-28 0 -47.5 18.5t-19.5 47.5q0 34 22 55.5t54 21.5
q30 0 48.5 -18.5t18.5 -48.5q0 -34 -22 -55t-54 -21z" />
    <glyph glyph-name="Ccaron" unicode="&#x10c;" horiz-adv-x="583" 
d="M512 135l12 -116q-65 -29 -177 -29q-135 0 -216.5 77t-81.5 209q0 110 45.5 197t124.5 140q104 71 247 71q97 0 148 -28l-40 -117q-46 22 -122 22q-91 0 -154 -52q-93 -78 -93 -217q0 -82 46 -130.5t133 -48.5q76 0 128 22zM474 714h-109l-80 126h102l39 -64h2l59 64h111
z" />
    <glyph glyph-name="ccaron" unicode="&#x10d;" horiz-adv-x="435" 
d="M373 125l1 -109q-54 -26 -139 -26q-92 0 -149 53.5t-57 146.5q0 132 90.5 221t228.5 89q56 0 100 -16l-36 -111q-29 12 -66 12q-74 0 -120 -53.5t-46 -125.5q0 -48 27 -74.5t69 -26.5q47 0 97 20zM354 548h-99l-75 152h93l40 -79h2l59 79h101z" />
    <glyph glyph-name="Dcaron" unicode="&#x10e;" horiz-adv-x="681" 
d="M20 8l125 656q87 15 187 15q160 0 245 -73q89 -73 89 -211q0 -96 -37 -177.5t-101 -132.5q-111 -90 -323 -90q-111 0 -185 13zM271 559l-85 -444q26 -3 63 -3q124 0 191 78q70 79 70 204q0 81 -45 125.5t-133 44.5q-36 0 -61 -5zM432 710h-109l-80 126h102l39 -64h2
l59 64h111z" />
    <glyph glyph-name="dcaron" unicode="&#x10f;" horiz-adv-x="568" 
d="M444 710h143l-99 -520q-20 -103 -23 -190h-132l7 79h-2q-60 -90 -161 -90q-65 0 -108 49.5t-43 135.5q0 132 86.5 229.5t221.5 97.5q36 0 67 -12zM355 243l26 131q-20 17 -57 17q-63 0 -105.5 -60t-42.5 -134q0 -44 18 -68t49 -24q34 0 66.5 36t45.5 102zM636 503l-53 54
q53 41 53 106q0 25 -10 42l97 17q22 -22 22 -62q0 -48 -32.5 -91t-76.5 -66z" />
    <glyph glyph-name="Dcroat" unicode="&#x110;" horiz-adv-x="693" 
d="M10 287l24 119h76l48 258q88 15 184 15q166 0 247 -69q90 -72 90 -214q0 -97 -37.5 -178t-101.5 -132q-113 -90 -322 -90q-111 0 -185 13l54 278h-77zM384 406l-23 -119h-129l-33 -170q23 -4 64 -4q120 0 189 78q71 80 71 200q0 83 -44.5 128t-130.5 45q-37 0 -64 -5
l-30 -153h130z" />
    <glyph glyph-name="dcroat" unicode="&#x111;" horiz-adv-x="560" 
d="M355 243l26 131q-20 17 -57 17q-63 0 -105.5 -60t-42.5 -134q0 -44 18 -68t49 -24q34 0 66 35.5t46 102.5zM241 624h186l17 86h143l-16 -86h77l-16 -79h-77l-67 -355q-20 -103 -23 -190h-132l7 79h-2q-60 -90 -161 -90q-65 0 -108 49.5t-43 135.5q0 132 86.5 229.5
t221.5 97.5q36 0 67 -12l11 56h-187z" />
    <glyph glyph-name="Emacron" unicode="&#x112;" horiz-adv-x="517" 
d="M481 407l-24 -121h-239l-31 -163h269l-23 -123h-414l128 674h399l-24 -123h-254l-28 -144h241zM242 813h254l-16 -79h-254z" />
    <glyph glyph-name="emacron" unicode="&#x113;" horiz-adv-x="501" 
d="M412 132l10 -104q-77 -39 -183 -39q-103 0 -157 54.5t-54 152.5q0 76 33.5 144.5t100 114t151.5 45.5q75 0 122.5 -40t47.5 -107q0 -172 -318 -164q2 -31 16 -50q29 -38 94 -38q73 0 137 31zM348 354q0 18 -14.5 29.5t-38.5 11.5q-46 0 -76.5 -31t-39.5 -70
q87 -1 128 12.5t41 47.5zM206 662h247l-15 -78h-247z" />
    <glyph glyph-name="Ebreve" unicode="&#x114;" horiz-adv-x="517" 
d="M480 407l-23 -121h-240l-31 -163h269l-23 -123h-413l128 674h398l-24 -123h-253l-28 -144h240zM227 839h80q-1 -22 12 -36t41 -13q54 0 65 49h82q-10 -56 -48 -89.5t-107 -32.5q-70 0 -100.5 34t-24.5 88z" />
    <glyph glyph-name="ebreve" unicode="&#x115;" horiz-adv-x="501" 
d="M412 132l10 -104q-77 -39 -183 -39q-103 0 -157 54.5t-54 152.5q0 76 33.5 144.5t100 114t151.5 45.5q75 0 122.5 -40t47.5 -107q0 -172 -318 -164q2 -31 16 -50q29 -38 94 -38q73 0 137 31zM348 354q0 18 -14.5 29.5t-38.5 11.5q-46 0 -76.5 -31t-39.5 -70
q87 -1 128 12.5t41 47.5zM204 690h73q4 -56 47 -56q52 0 66 56h74q-9 -60 -46.5 -95t-99.5 -35q-66 0 -93.5 35.5t-20.5 94.5z" />
    <glyph glyph-name="Edotaccent" unicode="&#x116;" horiz-adv-x="517" 
d="M480 407l-23 -121h-240l-31 -163h270l-24 -123h-413l127 674h400l-24 -123h-254l-28 -144h240zM357 712q-27 0 -46.5 18t-19.5 46q0 32 22 53t53 21q29 0 47 -18.5t18 -46.5q0 -32 -21.5 -52.5t-52.5 -20.5z" />
    <glyph glyph-name="edotaccent" unicode="&#x117;" horiz-adv-x="501" 
d="M412 132l10 -104q-77 -39 -183 -39q-103 0 -157 54.5t-54 152.5q0 76 33.5 144.5t100 114t151.5 45.5q75 0 122.5 -40t47.5 -107q0 -172 -318 -164q2 -31 16 -50q29 -38 94 -38q73 0 137 31zM348 354q0 18 -14.5 29.5t-38.5 11.5q-46 0 -76.5 -31t-39.5 -70
q87 -1 128 12.5t41 47.5zM320 553q-28 0 -47.5 18.5t-19.5 47.5q0 34 22 55.5t54 21.5q30 0 48.5 -18.5t18.5 -48.5q0 -34 -22 -55t-54 -21z" />
    <glyph glyph-name="Eogonek" unicode="&#x118;" horiz-adv-x="517" 
d="M19 0l128 674h399l-24 -123h-254l-28 -144h241l-24 -121h-239l-31 -163h269l-24 -123h-19q-75 -52 -75 -97q0 -29 28 -29q21 0 46 10l18 -71q-44 -32 -107 -32q-44 0 -68.5 22.5t-24.5 59.5t25 73.5t62 63.5h-298z" />
    <glyph glyph-name="eogonek" unicode="&#x119;" horiz-adv-x="501" 
d="M348 354q0 18 -14.5 29.5t-38.5 11.5q-46 0 -76.5 -31t-38.5 -70q86 -1 127 12.5t41 47.5zM348 -114l17 -71q-47 -32 -110 -32q-42 0 -65.5 22t-23.5 60q0 69 77 124v1h-23q-94 5 -143 59t-49 147q0 76 33.5 144.5t100 114t151.5 45.5q75 0 122.5 -40t47.5 -107
q0 -172 -317 -164q0 -29 15 -50q29 -38 94 -38q73 0 137 31l10 -104q-5 -3 -58 -25q-90 -53 -90 -99q0 -13 8 -20.5t20 -7.5q21 0 46 10z" />
    <glyph glyph-name="Ecaron" unicode="&#x11a;" horiz-adv-x="517" 
d="M481 407l-24 -121h-239l-31 -163h269l-24 -123h-413l128 674h399l-24 -123h-254l-28 -144h241zM406 710h-109l-80 126h102l39 -64h2l59 64h111z" />
    <glyph glyph-name="ecaron" unicode="&#x11b;" horiz-adv-x="501" 
d="M412 132l10 -104q-77 -39 -183 -39q-103 0 -157 54.5t-54 152.5q0 76 33.5 144.5t100 114t151.5 45.5q75 0 122.5 -40t47.5 -107q0 -172 -318 -164q2 -31 16 -50q29 -38 94 -38q73 0 137 31zM348 354q0 18 -14.5 29.5t-38.5 11.5q-46 0 -76.5 -31t-39.5 -70
q87 -1 128 12.5t41 47.5zM363 548h-99l-75 152h93l40 -79h2l59 79h101z" />
    <glyph glyph-name="Gcircumflex" unicode="&#x11c;" horiz-adv-x="673" 
d="M643 384l-68 -353q-114 -38 -218 -38q-143 0 -224 74q-85 74 -85 208q0 93 36 173t101 135q118 98 298 98q118 0 178 -30l-43 -121q-58 27 -143 27q-102 0 -171 -54q-45 -35 -71.5 -92.5t-26.5 -125.5q0 -83 46 -126.5t127 -43.5q45 0 74 12l27 142h-105l23 115h245z
M421 836h109l80 -126h-101l-40 61h-2l-59 -61h-111z" />
    <glyph glyph-name="gcircumflex" unicode="&#x11d;" horiz-adv-x="558" 
d="M11 -178l34 110q46 -27 128 -27q118 0 146 130l8 42h-2q-55 -73 -140 -73q-71 0 -113.5 50.5t-43.5 124.5q0 61 21.5 118t62 102.5t104 73t140.5 27.5q97 0 181 -34l-74 -403q-30 -158 -103 -217q-69 -55 -189 -55q-105 0 -160 31zM356 250l25 131q-20 9 -52 9
q-63 0 -106 -58.5t-43 -130.5q0 -39 17 -62.5t49 -23.5q36 0 67 37.5t43 97.5zM311 700h99l75 -152h-93l-40 79h-2l-59 -79h-101z" />
    <glyph glyph-name="Gbreve" unicode="&#x11e;" horiz-adv-x="673" 
d="M643 384l-68 -353q-114 -38 -218 -38q-143 0 -224 74q-85 74 -85 208q0 93 36 173t101 135q118 98 298 98q118 0 178 -30l-43 -121q-58 27 -143 27q-102 0 -171 -54q-45 -35 -71.5 -92.5t-26.5 -125.5q0 -83 46 -126.5t127 -43.5q45 0 74 12l27 142h-105l23 115h245z
M320 841h80q-1 -21 12 -35t41 -14q55 0 66 49h81q-9 -55 -47 -88.5t-108 -33.5t-100.5 34t-24.5 88z" />
    <glyph glyph-name="gbreve" unicode="&#x11f;" horiz-adv-x="558" 
d="M11 -178l34 110q46 -27 128 -27q118 0 146 130l8 42h-2q-55 -73 -140 -73q-71 0 -113.5 50.5t-43.5 124.5q0 61 21.5 118t62 102.5t104 73t140.5 27.5q97 0 181 -34l-74 -403q-30 -158 -103 -217q-69 -55 -189 -55q-105 0 -160 31zM356 250l25 131q-20 9 -52 9
q-63 0 -106 -58.5t-43 -130.5q0 -39 17 -62.5t49 -23.5q36 0 67 37.5t43 97.5zM233 690h73q4 -56 47 -56q53 0 65 56h75q-9 -60 -46.5 -95t-99.5 -35q-66 0 -93.5 35.5t-20.5 94.5z" />
    <glyph glyph-name="Gdotaccent" unicode="&#x120;" horiz-adv-x="673" 
d="M643 384l-67 -353q-116 -38 -219 -38q-143 0 -224 74q-85 74 -85 208q0 93 36 173t101 135q120 98 298 98q119 0 179 -30l-43 -121q-58 27 -143 27q-103 0 -172 -54q-45 -35 -71.5 -92.5t-26.5 -125.5q0 -83 46 -126.5t128 -43.5q46 0 73 12l27 142h-105l23 115h245z
M464 712q-27 0 -46.5 18t-19.5 46q0 32 22 53t53 21q29 0 47 -18.5t18 -46.5q0 -32 -21.5 -52.5t-52.5 -20.5z" />
    <glyph glyph-name="gdotaccent" unicode="&#x121;" horiz-adv-x="558" 
d="M11 -178l34 110q46 -27 128 -27q119 0 146 130l9 42h-3q-55 -73 -140 -73q-71 0 -113.5 50.5t-43.5 124.5q0 61 21.5 118t62 102.5t104 73t140.5 27.5q98 0 181 -34l-74 -403q-30 -159 -103 -217q-69 -55 -189 -55q-105 0 -160 31zM356 250l25 131q-20 9 -52 9
q-63 0 -106 -58.5t-43 -130.5q0 -39 17 -62.5t49 -23.5q36 0 67.5 37.5t42.5 97.5zM354 553q-28 0 -47.5 18.5t-19.5 47.5q0 34 22 55.5t54 21.5q30 0 48.5 -18.5t18.5 -48.5q0 -34 -22 -55t-54 -21z" />
    <glyph glyph-name="Gcommaaccent" unicode="&#x122;" horiz-adv-x="673" 
d="M643 384l-68 -353q-114 -38 -218 -38q-143 0 -224 74q-85 74 -85 208q0 93 36 173t101 135q118 98 298 98q118 0 178 -30l-43 -121q-58 27 -143 27q-102 0 -171 -54q-45 -35 -71.5 -92.5t-26.5 -125.5q0 -83 46 -126.5t127 -43.5q45 0 74 12l27 142h-105l23 115h245z
M229 -240l-14 66q31 5 54 22.5t23 45.5q0 29 -20 47l107 18q26 -22 26 -63q0 -64 -53 -98.5t-123 -37.5z" />
    <glyph glyph-name="gcommaaccent" unicode="&#x123;" horiz-adv-x="558" 
d="M11 -178l34 110q46 -27 128 -27q119 0 146 130l9 42h-3q-55 -73 -140 -73q-71 0 -113.5 50.5t-43.5 124.5q0 61 21.5 118t62 102.5t104 73t140.5 27.5q98 0 181 -34l-74 -403q-28 -157 -103 -217q-69 -55 -189 -55q-105 0 -160 31zM356 250l25 131q-20 9 -52 9
q-63 0 -106 -58.5t-43 -130.5q0 -39 17 -62.5t49 -23.5q36 0 67 37.5t43 97.5zM460 731l14 -66q-32 -5 -55.5 -22.5t-23.5 -45.5t20 -48l-101 -18q-26 24 -26 64q0 64 52.5 98.5t119.5 37.5z" />
    <glyph glyph-name="Hcircumflex" unicode="&#x124;" horiz-adv-x="666" 
d="M147 674h144l-50 -263h244l50 263h145l-128 -674h-144l53 283h-245l-53 -283h-144zM388 836h109l80 -126h-101l-40 61h-2l-59 -61h-111z" />
    <glyph glyph-name="hcircumflex" unicode="&#x125;" horiz-adv-x="563" 
d="M157 0h-144l135 710h144l-55 -284h2q67 74 156 74q57 0 90 -34.5t33 -97.5q0 -38 -9 -88l-53 -280h-144l51 268q6 28 6 60q0 56 -49 56q-39 0 -73 -44t-47 -116zM195 867h109l80 -126h-101l-40 61h-2l-58 -61h-111z" />
    <glyph glyph-name="Hbar" unicode="&#x126;" horiz-adv-x="666" 
d="M497 472h-244l-16 -85h244zM47 561h79l22 113h144l-22 -113h244l22 113h144l-21 -113h72l-18 -89h-71l-89 -472h-145l49 259h-244l-49 -259h-144l89 472h-80z" />
    <glyph glyph-name="hbar" unicode="&#x127;" horiz-adv-x="563" 
d="M42 622h89l17 88h144l-17 -88h165l-15 -79h-165l-23 -117h2q67 74 156 74q57 0 90 -34.5t33 -97.5q0 -38 -9 -88l-53 -280h-144l51 268q6 28 6 60q0 56 -49 56q-39 0 -73 -44t-47 -116l-43 -224h-144l103 543h-89z" />
    <glyph glyph-name="Itilde" unicode="&#x128;" horiz-adv-x="274" 
d="M143 674h144l-128 -674h-144zM152 713h-71q9 62 35.5 94t63.5 32q32 0 63 -20q29 -19 41 -19q22 0 34 43h69q-20 -123 -100 -123q-34 0 -64 19q-29 18 -40 18q-21 0 -31 -44z" />
    <glyph glyph-name="itilde" unicode="&#x129;" horiz-adv-x="265" 
d="M156 0h-143l92 489h144zM129 558h-70q8 60 33 93t63 33q28 0 62 -20q29 -19 39 -19q12 0 18.5 9t13.5 35h69q-18 -123 -98 -123q-35 0 -64 19q-23 18 -38 18q-19 0 -28 -45z" />
    <glyph glyph-name="Imacron" unicode="&#x12a;" horiz-adv-x="274" 
d="M144 674h143l-127 -674h-144zM117 813h254l-16 -79h-253z" />
    <glyph glyph-name="imacron" unicode="&#x12b;" horiz-adv-x="265" 
d="M157 0h-144l93 489h144zM89 662h246l-16 -78h-246z" />
    <glyph glyph-name="Ibreve" unicode="&#x12c;" horiz-adv-x="274" 
d="M144 674h144l-128 -674h-144zM105 842h80q0 -21 13 -35t40 -14q55 0 66 49h82q-10 -55 -48 -88.5t-108 -33.5t-100.5 34t-24.5 88z" />
    <glyph glyph-name="ibreve" unicode="&#x12d;" horiz-adv-x="265" 
d="M157 0h-144l93 489h144zM87 690h73q2 -56 47 -56q51 0 65 56h75q-10 -60 -47.5 -95t-99.5 -35q-66 0 -93 35.5t-20 94.5z" />
    <glyph glyph-name="Iogonek" unicode="&#x12e;" horiz-adv-x="274" 
d="M288 674l-128 -674h-63q-36 -47 -36 -85q0 -18 11 -29t31 -11q22 0 47 9l9 -70q-40 -33 -105 -33q-47 0 -72.5 23t-25.5 66q0 57 61 132l127 672h144z" />
    <glyph glyph-name="iogonek" unicode="&#x12f;" horiz-adv-x="265" 
d="M195 553q-32 0 -52.5 21t-20.5 54q0 38 26 62.5t62 24.5q34 0 55.5 -20.5t21.5 -54.5q0 -40 -26.5 -63.5t-65.5 -23.5zM250 489l-93 -489h-63q-36 -47 -36 -85q0 -18 11 -29t31 -11q21 0 46 9l9 -70q-40 -33 -104 -33q-47 0 -72.5 23t-25.5 66q0 57 61 132l92 487h144z
" />
    <glyph glyph-name="Idotaccent" unicode="&#x130;" horiz-adv-x="274" 
d="M143 674h144l-128 -674h-144zM235 712q-27 0 -46.5 18t-19.5 46q0 32 22 53t53 21q29 0 47 -18.5t18 -46.5q0 -32 -21.5 -52.5t-52.5 -20.5z" />
    <glyph glyph-name="dotlessi" unicode="&#x131;" horiz-adv-x="265" 
d="M157 0h-144l93 489h144z" />
    <glyph glyph-name="IJ" unicode="&#x132;" horiz-adv-x="673" 
d="M144 674h144l-128 -674h-144zM468 247l81 427h144l-85 -445q-24 -128 -84 -184t-175 -56q-73 0 -110 16l27 123q38 -12 81 -12q49 0 78 29.5t43 101.5z" />
    <glyph glyph-name="ij" unicode="&#x133;" horiz-adv-x="540" 
d="M157 0h-144l93 489h144zM197 550h-2q-30 0 -49.5 19.5t-19.5 50.5q0 36 24.5 59t58.5 23q32 0 52 -19.5t20 -51.5q0 -37 -24.5 -59t-59.5 -22zM385 489h144l-89 -472q-22 -122 -69 -174q-45 -52 -133 -52q-40 0 -68 8l15 108q20 -2 32 -2q28 0 47 22t30 83zM470 550
q-30 0 -49.5 19.5t-19.5 50.5q0 36 24.5 59t58.5 23q32 0 52 -19.5t20 -51.5q0 -37 -24.5 -59t-61.5 -22z" />
    <glyph glyph-name="Jcircumflex" unicode="&#x134;" horiz-adv-x="399" 
d="M194 247l81 427h144l-85 -445q-25 -129 -85 -184.5t-174 -55.5q-72 0 -111 16l28 123q36 -12 80 -12q50 0 79 29.5t43 101.5zM319 836h109l80 -126h-101l-41 61h-2l-58 -61h-111z" />
    <glyph glyph-name="jcircumflex" unicode="&#x135;" horiz-adv-x="275" 
d="M120 489h143l-88 -473q-23 -123 -69 -173q-45 -52 -133 -52q-40 0 -69 8l16 108q20 -2 32 -2q29 0 47.5 22t30.5 83zM166 700h95l75 -152h-92l-39 86h-2l-59 -86h-100z" />
    <glyph glyph-name="Kcommaaccent" unicode="&#x136;" horiz-adv-x="590" 
d="M19 0l127 674h142l-57 -301h3q21 29 61 77l187 224h180l-273 -291l156 -383h-157l-113 293l-71 -68l-43 -225h-142zM150 -240l-15 66q31 5 54 22.5t23 45.5t-20 48l107 17q26 -22 26 -63q0 -64 -53 -98.5t-122 -37.5z" />
    <glyph glyph-name="kcommaaccent" unicode="&#x137;" horiz-adv-x="530" 
d="M156 0h-143l134 710h143l-80 -425h2l44 55l125 149h178l-209 -202l136 -287h-160l-86 209l-54 -52zM120 -240l-15 66q31 5 54 22.5t23 45.5t-20 48l107 17q26 -22 26 -63q0 -64 -53 -98.5t-122 -37.5z" />
    <glyph glyph-name="kgreenlandic" unicode="&#x138;" horiz-adv-x="530" 
d="M156 0h-143l93 489h143l-39 -204h2l44 55l125 149h178l-208 -202l136 -287h-161l-86 209l-54 -52z" />
    <glyph glyph-name="Lacute" unicode="&#x139;" horiz-adv-x="487" 
d="M19 0l128 674h144l-104 -548h259l-23 -126h-404zM271 836h160l-132 -126h-123z" />
    <glyph glyph-name="lacute" unicode="&#x13a;" horiz-adv-x="265" 
d="M157 0h-144l136 710h144zM248 874h160l-132 -126h-122z" />
    <glyph glyph-name="Lcommaaccent" unicode="&#x13b;" horiz-adv-x="487" 
d="M18 0l128 674h144l-104 -548h259l-23 -126h-404zM105 -240l-15 66q31 5 54 22.5t23 45.5t-20 48l107 17q26 -22 26 -63q0 -64 -53 -98.5t-122 -37.5z" />
    <glyph glyph-name="lcommaaccent" unicode="&#x13c;" horiz-adv-x="265" 
d="M158 0h-144l135 710h144zM-18 -240l-15 66q31 5 54 22.5t23 45.5t-20 48l107 17q26 -22 26 -63q0 -64 -53 -98.5t-122 -37.5z" />
    <glyph glyph-name="Lcaron" unicode="&#x13d;" horiz-adv-x="487" 
d="M19 0l128 674h144l-104 -548h259l-23 -126h-404zM331 480l-15 66q31 5 54 22.5t23 45.5q0 27 -20 47l107 18q26 -24 26 -63q0 -64 -53 -98.5t-122 -37.5z" />
    <glyph glyph-name="lcaron" unicode="&#x13e;" horiz-adv-x="273" 
d="M157 0h-144l136 710h144zM349 502l-56 51q22 18 37.5 48t15.5 62q0 25 -10 42l97 17q22 -22 22 -62q0 -55 -33 -97.5t-73 -60.5z" />
    <glyph glyph-name="Ldot" unicode="&#x13f;" horiz-adv-x="490" 
d="M19 0l128 674h144l-104 -548h259l-24 -126h-403zM387 308q-27 0 -46.5 18t-19.5 46q0 32 22 53t53 21q29 0 47 -19t18 -46q0 -32 -21.5 -52.5t-52.5 -20.5z" />
    <glyph glyph-name="ldot" unicode="&#x140;" horiz-adv-x="356" 
d="M157 0h-144l136 710h144zM326 289q-26 0 -44 18t-18 46q0 32 20.5 53t50.5 21q28 0 45 -18t17 -47q0 -33 -20.5 -53t-50.5 -20z" />
    <glyph glyph-name="Lslash" unicode="&#x141;" horiz-adv-x="499" 
d="M433 0h-403l45 235l-85 -51l21 105l84 52l63 333h144l-45 -233l138 85l-19 -107l-139 -84l-39 -209h259z" />
    <glyph glyph-name="lslash" unicode="&#x142;" horiz-adv-x="278" 
d="M164 0h-144l44 228l-74 -50l21 108l73 50l72 374h143l-50 -261l81 55l-21 -109l-81 -55z" />
    <glyph glyph-name="Nacute" unicode="&#x143;" horiz-adv-x="666" 
d="M153 0h-134l128 674h169l89 -257q36 -115 61 -230h3q4 94 31 242l46 245h135l-128 -674h-149l-94 269q-43 131 -66 235h-3q-10 -92 -43 -268zM435 836h160l-132 -126h-122z" />
    <glyph glyph-name="nacute" unicode="&#x144;" horiz-adv-x="563" 
d="M156 0h-144l62 330q7 34 27 159h127l-9 -81h2q67 92 171 92q60 0 93 -35t33 -99q0 -34 -8 -82l-54 -284h-145l52 271q5 28 5 54q0 59 -49 59q-37 0 -72.5 -45t-49.5 -122zM368 700h142l-130 -152h-106z" />
    <glyph glyph-name="Ncommaaccent" unicode="&#x145;" horiz-adv-x="666" 
d="M153 0h-134l127 674h169l89 -257q37 -112 62 -230h2q4 94 31 242l47 245h134l-127 -674h-149l-94 269q-47 141 -66 235h-4q-10 -92 -43 -268zM191 -240l-15 66q31 5 54 22.5t23 45.5t-20 48l107 17q26 -22 26 -63q0 -64 -53 -98.5t-122 -37.5z" />
    <glyph glyph-name="ncommaaccent" unicode="&#x146;" horiz-adv-x="563" 
d="M156 0h-144l62 330q7 34 27 159h127l-9 -81h2q67 92 171 92q60 0 93 -35t33 -99q0 -34 -8 -82l-54 -284h-145l52 271q5 28 5 54q0 59 -49 59q-37 0 -72.5 -45t-49.5 -122zM137 -240l-15 66q31 5 54 22.5t23 45.5t-20 48l107 17q26 -22 26 -63q0 -64 -53 -98.5t-122 -37.5
z" />
    <glyph glyph-name="Ncaron" unicode="&#x147;" horiz-adv-x="666" 
d="M153 0h-134l128 674h169l89 -257q36 -115 61 -230h3q4 94 31 242l46 245h135l-128 -674h-149l-94 269q-43 131 -66 235h-3q-10 -92 -43 -268zM478 710h-109l-80 126h101l40 -64h2l59 64h111z" />
    <glyph glyph-name="ncaron" unicode="&#x148;" horiz-adv-x="563" 
d="M156 0h-144l62 330q7 34 27 159h127l-9 -81h2q67 92 171 92q60 0 93 -35t33 -99q0 -34 -8 -82l-54 -284h-145l52 271q5 28 5 54q0 59 -49 59q-37 0 -72.5 -45t-49.5 -122zM374 548h-99l-75 152h93l40 -79h2l59 79h102z" />
    <glyph glyph-name="napostrophe" unicode="&#x149;" horiz-adv-x="563" 
d="M156 0h-144l62 330q7 34 27 159h127l-9 -81h2q67 92 171 92q60 0 93 -35t33 -99q0 -34 -8 -82l-54 -284h-145l52 271q5 28 5 54q0 59 -49 59q-37 0 -72.5 -45t-49.5 -122zM73 542l-16 66q19 6 33.5 25t14.5 42q0 30 -19 49l100 17q26 -22 26 -64q0 -62 -44.5 -97
t-94.5 -38z" />
    <glyph glyph-name="Eng" unicode="&#x14a;" horiz-adv-x="666" 
d="M289 -212l-14 115q108 12 130 89l-95 277q-44 135 -66 235h-3q-9 -88 -43 -268l-45 -236h-134l128 674h169l89 -257q36 -115 61 -230h3q5 104 31 242l46 245h135l-119 -629q-26 -136 -96 -194.5t-177 -62.5z" />
    <glyph glyph-name="eng" unicode="&#x14b;" horiz-adv-x="563" 
d="M221 -190l-13 118q47 5 73.5 30.5t38.5 84.5l43 228q5 28 5 54q0 59 -49 59q-37 0 -72.5 -45t-49.5 -122l-41 -217h-144l62 330q10 49 27 159h127l-9 -81h2q67 92 170 92q60 0 93.5 -35.5t33.5 -99.5q0 -33 -8 -81l-44 -231q-25 -132 -86.5 -186t-158.5 -57z" />
    <glyph glyph-name="Omacron" unicode="&#x14c;" horiz-adv-x="705" 
d="M321 -11q-127 0 -200 79.5t-73 201.5q0 92 32.5 177.5t91.5 141.5q101 96 246 96q130 0 201 -78t71 -203q0 -93 -31.5 -177.5t-88.5 -140.5q-100 -97 -249 -97zM342 109q64 0 113 49q38 38 60 108.5t22 133.5q0 72 -31.5 118.5t-104.5 46.5q-67 0 -116 -51
q-39 -38 -61.5 -106.5t-22.5 -132.5q0 -75 35.5 -120.5t105.5 -45.5zM324 813h254l-16 -79h-253z" />
    <glyph glyph-name="omacron" unicode="&#x14d;" horiz-adv-x="559" 
d="M237 -11q-93 0 -150 56t-57 147q0 129 82 219t210 90q95 0 151 -57.5t56 -144.5q0 -134 -82.5 -222t-209.5 -88zM258 99q54 0 88 64.5t34 134.5q0 38 -19 65.5t-58 27.5t-68.5 -34t-42.5 -78t-13 -85q0 -44 20.5 -69.5t58.5 -25.5zM236 662h246l-15 -78h-246z" />
    <glyph glyph-name="Obreve" unicode="&#x14e;" horiz-adv-x="705" 
d="M321 -11q-127 0 -200 79.5t-73 201.5q0 92 32.5 177.5t91.5 141.5q101 96 246 96q130 0 201 -78t71 -203q0 -93 -31.5 -177.5t-88.5 -140.5q-100 -97 -249 -97zM342 109q64 0 113 49q38 38 60 108.5t22 133.5q0 72 -31.5 118.5t-104.5 46.5q-67 0 -116 -51
q-39 -38 -61.5 -106.5t-22.5 -132.5q0 -75 35.5 -120.5t105.5 -45.5zM312 843h80q0 -21 13 -35t40 -14q55 0 66 49h82q-10 -55 -48 -88.5t-108 -33.5t-100.5 34t-24.5 88z" />
    <glyph glyph-name="obreve" unicode="&#x14f;" horiz-adv-x="559" 
d="M237 -11q-93 0 -150 56t-57 147q0 129 82 219t210 90q95 0 151 -57.5t56 -144.5q0 -134 -82.5 -222t-209.5 -88zM258 99q54 0 88 64.5t34 134.5q0 38 -19 65.5t-58 27.5t-68.5 -34t-42.5 -78t-13 -85q0 -44 20.5 -69.5t58.5 -25.5zM233 690h73q2 -56 46 -56q53 0 65 56
h75q-9 -60 -46.5 -95t-99.5 -35q-66 0 -93 35.5t-20 94.5z" />
    <glyph glyph-name="Ohungarumlaut" unicode="&#x150;" horiz-adv-x="705" 
d="M321 -11q-127 0 -200 79.5t-73 201.5q0 92 32.5 177.5t91.5 141.5q101 96 246 96q130 0 201 -78t71 -203q0 -93 -31.5 -177.5t-88.5 -140.5q-100 -97 -249 -97zM342 109q64 0 113 49q38 38 60 108.5t22 133.5q0 72 -31.5 118.5t-104.5 46.5q-67 0 -116 -51
q-39 -38 -61.5 -106.5t-22.5 -132.5q0 -75 35.5 -120.5t105.5 -45.5zM365 837h141l-121 -119h-106zM548 837h140l-121 -119h-105z" />
    <glyph glyph-name="ohungarumlaut" unicode="&#x151;" horiz-adv-x="559" 
d="M237 -11q-93 0 -150 56t-57 147q0 129 82 219t210 90q95 0 151 -57.5t56 -144.5q0 -134 -82.5 -222t-209.5 -88zM258 99q54 0 88 64.5t34 134.5q0 38 -19 65.5t-58 27.5t-68.5 -34t-42.5 -78t-13 -85q0 -44 20.5 -69.5t58.5 -25.5zM267 700h122l-120 -152h-86zM442 700
h122l-120 -152h-86z" />
    <glyph glyph-name="OE" unicode="&#x152;" horiz-adv-x="909" 
d="M846 123l-22 -123h-356q-19 0 -54 -5q-30 -5 -81 -5q-136 0 -213.5 79.5t-77.5 205.5q0 173 112 291t299 118q33 0 88 -5q47 -5 68 -5h327l-23 -123h-258l-26 -144h242l-23 -121h-243l-30 -163h271zM430 118l82 436q-27 10 -69 10q-109 0 -178 -82t-69 -197
q0 -79 45 -127t125 -48q32 0 64 8z" />
    <glyph glyph-name="oe" unicode="&#x153;" horiz-adv-x="826" 
d="M738 132l9 -101q-72 -42 -175 -42q-117 0 -166 86h-3q-60 -86 -176 -86q-88 0 -143.5 57t-55.5 152q0 130 78.5 216.5t191.5 86.5q117 0 160 -88h2q67 88 182 88q79 0 122 -41.5t43 -98.5q0 -176 -312 -170q-3 -27 14 -51q30 -38 96 -38t133 30zM254 100q38 0 67 33.5
t42 77t13 84.5q0 98 -75 98q-57 0 -90.5 -61t-33.5 -132q0 -45 20.5 -72.5t56.5 -27.5zM673 351q0 19 -14.5 32t-44.5 13q-40 0 -67.5 -30.5t-37.5 -69.5q164 -4 164 55z" />
    <glyph glyph-name="Racute" unicode="&#x154;" horiz-adv-x="583" 
d="M20 0l126 662q70 17 180 17q116 0 177 -39q75 -44 75 -131q0 -72 -42 -120.5t-111 -70.5v-3q54 -24 64 -123l7.5 -72t9.5 -79.5t9 -40.5h-148q-10 29 -19 159q-5 60 -26.5 83.5t-65.5 23.5h-44l-50 -266h-142zM269 561l-35 -187h59q59 0 97 32t38 81q0 39 -28.5 59
t-74.5 20q-36 0 -56 -5zM370 836h160l-132 -126h-122z" />
    <glyph glyph-name="racute" unicode="&#x155;" horiz-adv-x="370" 
d="M157 0h-144l55 291q4 20 25 198h125q0 -3 -3.5 -41.5t-5.5 -58.5h3q60 111 156 111q18 0 27 -1l-28 -140q-7 1 -23 1q-120 0 -153 -178zM264 700h142l-130 -152h-106z" />
    <glyph glyph-name="Rcommaaccent" unicode="&#x156;" horiz-adv-x="583" 
d="M19 0l126 662q70 17 181 17q116 0 177 -39q75 -44 75 -131q0 -72 -42 -120.5t-111 -70.5v-3q54 -24 64 -123l7.5 -72t9.5 -79.5t9 -40.5h-149q-8 29 -19 159q-4 60 -25.5 83.5t-65.5 23.5h-44l-50 -266h-143zM268 561l-35 -187h59q59 0 97.5 32t38.5 81q0 39 -28.5 59
t-74.5 20q-35 0 -57 -5zM147 -240l-15 66q31 5 54 22.5t23 45.5t-20 48l107 17q26 -22 26 -63q0 -64 -53 -98.5t-122 -37.5z" />
    <glyph glyph-name="rcommaaccent" unicode="&#x157;" horiz-adv-x="370" 
d="M157 0h-144l55 291q4 20 25 198h125q0 -3 -3.5 -41.5t-5.5 -58.5h3q60 111 156 111q18 0 27 -1l-28 -140q-7 1 -23 1q-120 0 -153 -178zM-1 -240l-15 66q31 5 54 22.5t23 45.5t-20 48l107 17q26 -22 26 -63q0 -64 -53 -98.5t-122 -37.5z" />
    <glyph glyph-name="Rcaron" unicode="&#x158;" horiz-adv-x="583" 
d="M20 0l126 662q70 17 180 17q116 0 177 -39q75 -44 75 -131q0 -72 -42 -120.5t-111 -70.5v-3q54 -24 64 -123l7.5 -72t9.5 -79.5t9 -40.5h-148q-10 29 -19 159q-5 60 -26.5 83.5t-65.5 23.5h-44l-50 -266h-142zM269 561l-35 -187h59q59 0 97 32t38 81q0 39 -28.5 59
t-74.5 20q-36 0 -56 -5zM404 710h-109l-80 126h102l39 -64h2l59 64h111z" />
    <glyph glyph-name="rcaron" unicode="&#x159;" horiz-adv-x="370" 
d="M157 0h-144l55 291q4 20 25 198h125q0 -3 -3.5 -41.5t-5.5 -58.5h3q60 111 156 111q18 0 27 -1l-28 -140q-7 1 -23 1q-120 0 -153 -178zM294 548h-99l-75 152h93l40 -79h2l59 79h102z" />
    <glyph glyph-name="Sacute" unicode="&#x15a;" horiz-adv-x="510" 
d="M0 37l48 119q72 -43 159 -43q45 0 76 20.5t31 57.5q0 28 -21 49t-70 47q-139 74 -139 178q0 100 75.5 159.5t189.5 59.5q95 0 159 -33l-45 -120q-55 30 -125 29q-49 0 -76 -20.5t-27 -49.5q0 -27 23.5 -47t74.5 -49q134 -69 134 -178q0 -108 -78 -167.5t-196 -59.5
q-128 1 -193 48zM354 836h160l-132 -126h-122z" />
    <glyph glyph-name="sacute" unicode="&#x15b;" horiz-adv-x="416" 
d="M-4 28l35 101q68 -34 127 -34q30 0 46 12.5t16 31.5q0 18 -13.5 32.5t-47.5 30.5q-103 52 -103 130q0 76 60 122.5t155 46.5q80 0 126 -25l-35 -102q-47 21 -97 21q-29 0 -46.5 -11.5t-17.5 -31.5q0 -27 59 -56q110 -55 110 -134q0 -82 -62.5 -127.5t-162.5 -44.5
q-99 2 -149 38zM280 700h142l-130 -152h-106z" />
    <glyph glyph-name="Scircumflex" unicode="&#x15c;" horiz-adv-x="510" 
d="M0 37l48 119q72 -43 159 -43q45 0 76 20.5t31 57.5q0 28 -21 49t-70 47q-139 74 -139 178q0 100 75.5 159.5t189.5 59.5q95 0 159 -33l-45 -120q-55 30 -125 29q-49 0 -76 -20.5t-27 -49.5q0 -27 23.5 -47t74.5 -49q134 -69 134 -178q0 -108 -78 -167.5t-196 -59.5
q-128 1 -193 48zM310 836h109l80 -126h-101l-40 61h-2l-59 -61h-111z" />
    <glyph glyph-name="scircumflex" unicode="&#x15d;" horiz-adv-x="416" 
d="M-4 28l35 101q68 -34 127 -34q30 0 46 12.5t16 31.5q0 18 -13.5 32.5t-47.5 30.5q-103 52 -103 130q0 76 60 122.5t155 46.5q80 0 126 -25l-35 -102q-47 21 -97 21q-29 0 -46.5 -11.5t-17.5 -31.5q0 -27 59 -56q110 -55 110 -134q0 -82 -62.5 -127.5t-162.5 -44.5
q-99 2 -149 38zM237 700h99l75 -152h-93l-40 79h-2l-59 -79h-101z" />
    <glyph glyph-name="Scedilla" unicode="&#x15e;" horiz-adv-x="510" 
d="M508 651l-45 -120q-55 30 -125 29q-49 0 -76 -20.5t-27 -49.5q0 -14 6.5 -26t22 -24.5t29.5 -21l40 -23.5q134 -70 134 -178q0 -90 -55.5 -147.5t-146.5 -73.5l-27 -39q27 -6 44 -24t17 -44q0 -48 -38.5 -71.5t-87.5 -23.5q-50 0 -78 21l25 57q26 -16 53 -16q37 0 37 28
q0 31 -72 36l46 70h-7q-41 0 -94 13t-83 35l48 118q73 -42 159 -42q45 0 76 20.5t31 57.5q0 28 -21 49t-70 47q-139 74 -139 177q0 100 75.5 159.5t189.5 59.5q95 0 159 -33z" />
    <glyph glyph-name="scedilla" unicode="&#x15f;" horiz-adv-x="416" 
d="M397 476l-35 -102q-47 21 -97 21q-29 0 -46.5 -11.5t-17.5 -31.5q0 -28 59 -55q110 -55 110 -135q0 -66 -41 -109t-110 -57l-28 -39q27 -6 44 -23.5t17 -41.5q0 -48 -38.5 -71.5t-87.5 -23.5q-50 0 -78 21l25 54q26 -16 53 -16q37 0 37 28q0 31 -73 36l46 70h-4
q-33 0 -74 11.5t-62 26.5l35 101q68 -34 127 -34q30 0 46 12.5t16 31.5q0 18 -13.5 32.5t-47.5 30.5q-103 52 -103 130q0 76 60 122.5t155 46.5q80 0 126 -25z" />
    <glyph glyph-name="Scaron" unicode="&#x160;" horiz-adv-x="510" 
d="M0 37l48 119q72 -43 159 -43q45 0 76 20.5t31 57.5q0 28 -21 49t-70 47q-139 74 -139 178q0 100 75.5 159.5t189.5 59.5q95 0 159 -33l-45 -120q-55 30 -125 29q-49 0 -76 -20.5t-27 -49.5q0 -27 23.5 -47t74.5 -49q134 -69 134 -178q0 -108 -78 -167.5t-196 -59.5
q-128 1 -193 48zM393 710h-110l-79 126h101l39 -64h3l58 64h111z" />
    <glyph glyph-name="scaron" unicode="&#x161;" horiz-adv-x="416" 
d="M-4 28l35 101q68 -34 127 -34q30 0 46 12.5t16 31.5q0 18 -13.5 32.5t-47.5 30.5q-103 52 -103 130q0 76 60 122.5t155 46.5q80 0 126 -25l-35 -102q-47 21 -97 21q-29 0 -46.5 -11.5t-17.5 -31.5q0 -27 59 -56q110 -55 110 -134q0 -82 -62.5 -127.5t-162.5 -44.5
q-99 2 -149 38zM313 548h-99l-75 152h93l40 -79h2l59 79h102z" />
    <glyph glyph-name="Tcommaaccent" unicode="&#x162;" horiz-adv-x="527" 
d="M142 0l103 548h-178l25 126h502l-25 -126h-180l-103 -548h-144zM110 -240l-15 66q31 5 54 22.5t23 45.5t-20 48l107 17q26 -22 26 -63q0 -64 -53 -98.5t-122 -37.5z" />
    <glyph glyph-name="tcommaaccent" unicode="&#x163;" horiz-adv-x="348" 
d="M141 582l148 40l-25 -132h105l-22 -110h-104l-33 -166q-8 -38 -8 -62q0 -41 42 -41q27 0 39 2l-16 -113q-30 -11 -85 -11q-63 0 -95.5 29t-32.5 77q0 39 11 91l37 194h-62l20 110h63zM32 -240l-16 66q31 5 54 22.5t23 45.5q0 27 -20 47l107 18q26 -24 26 -63
q0 -64 -53 -98.5t-121 -37.5z" />
    <glyph glyph-name="Tcaron" unicode="&#x164;" horiz-adv-x="527" 
d="M141 0l104 548h-178l25 126h501l-24 -126h-180l-104 -548h-144zM403 710h-109l-80 126h101l40 -64h2l59 64h111z" />
    <glyph glyph-name="tcaron" unicode="&#x165;" horiz-adv-x="348" 
d="M141 581l148 41l-25 -132h105l-22 -110h-104l-33 -166q-8 -38 -8 -62q0 -41 42 -41q27 0 39 2l-16 -113q-30 -11 -85 -11q-63 0 -95.5 29t-32.5 77q0 39 11 91l37 194h-62l20 110h63zM371 536l-33 60q17 8 28 25.5t11 37.5q0 26 -15 50l96 17q28 -24 28 -65
q0 -53 -37 -85.5t-78 -39.5z" />
    <glyph glyph-name="Tbar" unicode="&#x166;" horiz-adv-x="527" 
d="M463 290h-123l-55 -290h-143l54 290h-117l17 89h117l32 169h-178l25 126h501l-24 -126h-180l-32 -169h123z" />
    <glyph glyph-name="tbar" unicode="&#x167;" horiz-adv-x="348" 
d="M38 310h51l13 70h-62l20 110h63l18 92l148 40l-25 -132h105l-22 -110h-104l-14 -70h91l-15 -78h-92l-7 -38q-4 -20 -4 -42q0 -41 42 -41q27 0 39 2l-16 -113q-30 -11 -85 -11q-63 0 -95.5 29t-32.5 77q0 31 11 91l8 46h-51z" />
    <glyph glyph-name="Utilde" unicode="&#x168;" horiz-adv-x="655" 
d="M144 674h144l-73 -388q-8 -37 -8 -79q0 -43 25.5 -70t72.5 -27q58 0 94.5 41.5t54.5 133.5l74 389h144l-73 -383q-30 -156 -103 -229t-209 -73q-106 -1 -165 54t-59 161q0 41 10 94zM352 715h-71q9 62 35.5 94t63.5 32q32 0 63 -20q29 -19 41 -19q22 0 34 43h69
q-20 -123 -100 -123q-34 0 -64 19q-29 18 -40 18q-21 0 -31 -44z" />
    <glyph glyph-name="utilde" unicode="&#x169;" horiz-adv-x="560" 
d="M400 489h143l-62 -330q-15 -76 -26 -159h-127l9 79l-2 1q-71 -91 -168 -91q-60 0 -93 34.5t-33 102.5q0 41 10 90l52 273h144l-50 -262q-7 -40 -7 -65q0 -56 49 -56q38 0 71 42.5t47 113.5zM277 558h-70q8 60 33 93t63 33q28 0 62 -20q29 -19 39 -19q12 0 18.5 9t13.5 35
h69q-18 -123 -98 -123q-35 0 -63 19q-23 18 -38 18q-20 0 -29 -45z" />
    <glyph glyph-name="Umacron" unicode="&#x16a;" horiz-adv-x="655" 
d="M144 674h144l-73 -388q-8 -37 -8 -79q0 -43 25.5 -70t72.5 -27q58 0 94.5 41.5t54.5 133.5l74 389h144l-73 -383q-30 -156 -103 -229t-209 -73q-106 -1 -165 54t-59 161q0 41 10 94zM308 813h254l-16 -79h-254z" />
    <glyph glyph-name="umacron" unicode="&#x16b;" horiz-adv-x="560" 
d="M400 489h143l-62 -330q-15 -76 -26 -159h-127l9 79l-2 1q-71 -91 -168 -91q-60 0 -93 34.5t-33 102.5q0 41 10 90l52 273h144l-50 -262q-7 -40 -7 -65q0 -56 49 -56q38 0 71 42.5t47 113.5zM235 662h246l-16 -78h-246z" />
    <glyph glyph-name="Ubreve" unicode="&#x16c;" horiz-adv-x="655" 
d="M144 674h144l-73 -388q-8 -37 -8 -79q0 -43 25.5 -70t72.5 -27q58 0 94.5 41.5t54.5 133.5l74 389h144l-73 -383q-30 -156 -103 -229t-209 -73q-106 -1 -165 54t-59 161q0 41 10 94zM295 836h80q0 -21 13 -35t40 -14q55 0 66 49h82q-10 -55 -48 -88.5t-108 -33.5
t-100.5 34t-24.5 88z" />
    <glyph glyph-name="ubreve" unicode="&#x16d;" horiz-adv-x="560" 
d="M400 489h143l-62 -330q-15 -76 -26 -159h-127l9 79l-2 1q-71 -91 -168 -91q-60 0 -93 34.5t-33 102.5q0 41 10 90l52 273h144l-50 -262q-7 -40 -7 -65q0 -56 49 -56q38 0 71 42.5t47 113.5zM226 690h73q2 -56 47 -56q51 0 65 56h74q-9 -60 -46.5 -95t-99.5 -35
q-66 0 -93 35.5t-20 94.5z" />
    <glyph glyph-name="Uring" unicode="&#x16e;" horiz-adv-x="655" 
d="M144 674h144l-73 -388q-8 -37 -8 -79q0 -43 25.5 -70t72.5 -27q58 0 94.5 41.5t54.5 133.5l74 389h144l-73 -383q-30 -156 -103 -229t-209 -73q-106 -1 -165 54t-59 161q0 41 10 94zM428 887q47 0 77.5 -24t30.5 -67q-1 -47 -36 -74t-88 -27q-44 0 -75 24t-32 63
q-1 47 33.5 76t89.5 29zM422 838q-21 0 -33.5 -14.5t-12.5 -36.5q0 -19 11 -31t30 -12q21 0 34.5 14t13.5 34t-11.5 33t-31.5 13z" />
    <glyph glyph-name="uring" unicode="&#x16f;" horiz-adv-x="560" 
d="M400 489h143l-62 -330q-15 -76 -26 -159h-127l9 79l-2 1q-71 -91 -168 -91q-60 0 -93 34.5t-33 102.5q0 41 10 90l52 273h144l-50 -262q-7 -40 -7 -65q0 -56 49 -56q38 0 71 42.5t47 113.5zM362 735q46 0 76.5 -24.5t30.5 -69.5q-1 -48 -36.5 -75.5t-87.5 -27.5
q-44 0 -74.5 24.5t-31.5 65.5q-1 48 33.5 77.5t89.5 29.5zM355 685q-21 0 -34 -15t-13 -38q0 -18 11.5 -31t31.5 -13q22 0 35.5 14.5t13.5 36.5q0 20 -11.5 33t-33.5 13z" />
    <glyph glyph-name="Uhungarumlaut" unicode="&#x170;" horiz-adv-x="655" 
d="M144 674h144l-73 -388q-8 -37 -8 -79q0 -43 25.5 -70t72.5 -27q58 0 94.5 41.5t54.5 133.5l74 389h144l-73 -383q-30 -156 -103 -229t-209 -73q-106 -1 -165 54t-59 161q0 41 10 94zM341 837h141l-121 -119h-106zM524 837h140l-121 -119h-105z" />
    <glyph glyph-name="uhungarumlaut" unicode="&#x171;" horiz-adv-x="560" 
d="M400 489h143l-62 -330q-15 -76 -26 -159h-127l9 79l-2 1q-71 -91 -168 -91q-60 0 -93 34.5t-33 102.5q0 41 10 90l52 273h144l-50 -262q-7 -40 -7 -65q0 -56 49 -56q38 0 71 42.5t47 113.5zM274 700h122l-120 -152h-86zM449 700h122l-120 -152h-86z" />
    <glyph glyph-name="Uogonek" unicode="&#x172;" horiz-adv-x="655" 
d="M384 -114l17 -72q-41 -28 -106 -28q-44 0 -68.5 22t-24.5 62q0 61 70 121h-18q-90 7 -140.5 61.5t-50.5 151.5q0 40 10 95l71 375h144l-73 -387q-8 -38 -8 -80q0 -43 25.5 -70t71.5 -27q58 0 94.5 41.5t54.5 133.5l74 389h144l-72 -383q-22 -115 -66.5 -183.5
t-119.5 -96.5q-23 -9 -48 -26t-40 -39.5t-15 -39.5q0 -12 8 -19.5t20 -7.5q11 0 46 7z" />
    <glyph glyph-name="uogonek" unicode="&#x173;" horiz-adv-x="560" 
d="M543 489l-62 -330q-19 -105 -26 -159l-46 1q-36 -47 -36 -85q0 -18 11 -29t31 -11q22 0 47 9l9 -70q-40 -33 -105 -33q-47 0 -72.5 23t-25.5 66q0 57 61 132l8 76l-2 1q-71 -91 -168 -91q-60 0 -93 34.5t-33 102.5q0 41 10 90l52 273h144l-50 -262q-7 -40 -7 -65
q0 -56 49 -56q38 0 71 42.5t47 113.5l43 227h143z" />
    <glyph glyph-name="Wcircumflex" unicode="&#x174;" horiz-adv-x="864" 
d="M278 0h-160l-26 674h146v-300q0 -98 -4 -218h2l80 216l120 302h158l-2 -301q0 -82 -6 -214h2l74 215l117 300h151l-297 -674h-156l-5 277q-1 111 6 223h-2q-61 -176 -82 -227zM487 836h109l80 -126h-101l-40 61h-2l-58 -61h-112z" />
    <glyph glyph-name="wcircumflex" unicode="&#x175;" horiz-adv-x="733" 
d="M51 490h146l1 -208q0 -66 -5 -156h2q12 37 60 151l96 213h118l12 -206q5 -89 2 -158h2q20 69 54 160l83 204h145l-237 -490h-136l-14 170q-4 69 -4 157h-2q-48 -128 -58 -150l-83 -177h-136zM398 700h99l75 -152h-93l-40 79h-2l-59 -79h-102z" />
    <glyph glyph-name="Ycircumflex" unicode="&#x176;" horiz-adv-x="570" 
d="M295 0h-144l52 275l-132 399h154l43 -171q19 -80 26 -122h2l69 123l101 170h172l-291 -396zM323 836h109l80 -126h-101l-40 61h-2l-59 -61h-111z" />
    <glyph glyph-name="ycircumflex" unicode="&#x177;" horiz-adv-x="497" 
d="M44 489h151l30 -213l16 -117h2l43 114l89 216h152l-175 -352q-97 -193 -188 -279q-38 -36 -82.5 -57.5t-74.5 -26.5l-32 124q49 15 83 38q52 36 80 85q5 10 2 24zM271 700h99l75 -152h-93l-40 79h-2l-58 -79h-102z" />
    <glyph glyph-name="Ydieresis" unicode="&#x178;" horiz-adv-x="570" 
d="M294 0h-144l52 275l-131 399h154l43 -171l26 -122h2q31 59 69 123l101 170h172l-291 -396zM256 711q-26 0 -45 18t-19 46q0 32 21 52.5t52 20.5q28 0 46 -18.5t18 -45.5q0 -32 -21.5 -52.5t-51.5 -20.5zM463 711q-26 0 -45 18t-19 46q0 32 21 52.5t52 20.5q28 0 46 -18.5
t18 -45.5q0 -32 -21.5 -52.5t-51.5 -20.5z" />
    <glyph glyph-name="Zacute" unicode="&#x179;" horiz-adv-x="553" 
d="M-25 0l15 83l391 464v3h-274l25 124h467l-17 -89l-384 -458v-3h302l-24 -124h-501zM382 836h160l-132 -126h-122z" />
    <glyph glyph-name="zacute" unicode="&#x17a;" horiz-adv-x="450" 
d="M-26 0l16 87l159 170q59 62 119 113l1 2h-209l23 117h382l-17 -91l-155 -166q-69 -72 -119 -113l-1 -2h230l-23 -117h-406zM306 700h142l-130 -152h-106z" />
    <glyph glyph-name="Zdotaccent" unicode="&#x17b;" horiz-adv-x="553" 
d="M-25 0l15 83l391 464v3h-274l24 124h468l-17 -89l-384 -458v-3h302l-24 -124h-501zM368 712q-27 0 -46.5 18t-19.5 46q0 32 22 53t53 21q29 0 47 -18.5t18 -46.5q0 -32 -21.5 -52.5t-52.5 -20.5z" />
    <glyph glyph-name="zdotaccent" unicode="&#x17c;" horiz-adv-x="450" 
d="M-25 0l15 87l159 170q55 58 120 113l1 2h-209l23 117h381l-16 -91l-156 -166q-61 -65 -118 -113l-1 -2h229l-23 -117h-405zM289 553q-28 0 -47.5 18.5t-19.5 47.5q0 34 22 55.5t54 21.5q30 0 48.5 -18.5t18.5 -48.5q0 -34 -22 -55t-54 -21z" />
    <glyph glyph-name="Zcaron" unicode="&#x17d;" horiz-adv-x="553" 
d="M-25 0l15 83l391 464v3h-274l25 124h467l-17 -89l-384 -458v-3h302l-24 -124h-501zM418 710h-109l-80 126h102l39 -64h2l59 64h111z" />
    <glyph glyph-name="zcaron" unicode="&#x17e;" horiz-adv-x="450" 
d="M-26 0l16 87l159 170q59 62 119 113l1 2h-209l23 117h382l-17 -91l-155 -166q-69 -72 -119 -113l-1 -2h230l-23 -117h-406zM329 548h-99l-75 152h93l40 -79h2l60 79h101z" />
    <glyph glyph-name="florin" unicode="&#x192;" horiz-adv-x="541" 
d="M117 307l15 103h89l8 34q53 217 233 217q51 0 79 -18l-36 -103q-20 10 -49 10q-63 0 -86 -97l-10 -43h102l-15 -103h-112l-44 -186q-11 -47 -26.5 -82.5t-40 -66.5t-62 -47t-85.5 -16q-55 0 -87 19l30 102q22 -10 50 -10q31 0 52.5 31.5t40.5 114.5l33 141h-79z" />
    <glyph glyph-name="Ohorn" unicode="&#x1a0;" horiz-adv-x="705" 
d="M653 743l109 18q16 -32 16 -82q0 -57 -32.5 -92.5t-87.5 -37.5q32 -57 32 -146q0 -93 -31 -177.5t-89 -140.5q-101 -96 -249 -96q-127 0 -200 79.5t-73 201.5q0 92 32.5 177.5t91.5 141.5q101 96 246 96q71 0 124 -25q7 -3 25 -12t31.5 -13.5t25.5 -4.5q43 0 43 51
q0 32 -14 62zM401 565q-63 0 -116 -51q-39 -39 -61.5 -107t-22.5 -132q0 -75 35.5 -120.5t105.5 -45.5q64 0 113 49q38 38 60 108t22 133q0 73 -31.5 119.5t-104.5 46.5z" />
    <glyph glyph-name="ohorn" unicode="&#x1a1;" horiz-adv-x="563" 
d="M304 391q-57 0 -91 -64.5t-34 -131.5q0 -44 20.5 -70t57.5 -26q55 0 89.5 64.5t34.5 134.5q0 38 -19 65.5t-58 27.5zM508 566l106 18q11 -31 11 -71q0 -57 -30 -90.5t-83 -38.5q18 -37 18 -85q0 -134 -83 -222t-210 -88q-93 0 -150 56t-57 147q0 129 82 219t210 90
q46 0 88 -16q7 -3 22 -10.5t25.5 -11t20.5 -3.5q42 0 42 48q0 25 -12 58z" />
    <glyph glyph-name="Uhorn" unicode="&#x1af;" horiz-adv-x="672" 
d="M657 598l-58 -307q-30 -156 -103.5 -229t-208.5 -73q-106 -1 -165 54t-59 161q0 40 10 95l71 375h144l-73 -387q-8 -38 -8 -80q1 -43 26.5 -70t71.5 -27q58 0 94.5 41.5t54.5 133.5l74 389h105q64 0 64 56q0 26 -10 52l105 18q9 -31 9 -58q0 -65 -37.5 -103t-106.5 -41z
" />
    <glyph glyph-name="uhorn" unicode="&#x1b0;" horiz-adv-x="583" 
d="M557 597l105 18q9 -29 9 -60q0 -61 -36.5 -100t-105.5 -41l-48 -255q-19 -105 -26 -159h-127l9 80h-2q-71 -91 -169 -91q-60 0 -92.5 34.5t-32.5 102.5q0 41 10 90l52 273h144l-50 -262q-7 -40 -7 -65q0 -56 48 -56q38 0 72 42.5t47 113.5l43 227h105q63 0 63 56
q0 26 -11 52z" />
    <glyph glyph-name="Aringacute" unicode="&#x1fa;" horiz-adv-x="618" 
d="M405 693q-47 0 -74 23.5t-27 61.5q0 40 32.5 67t82.5 27q46 0 72.5 -23t26.5 -62q0 -40 -31 -67t-82 -27zM409 744q21 0 33 11.5t12 28.5q0 16 -11.5 27.5t-30.5 11.5q-20 0 -31.5 -12.5t-11.5 -29.5t11 -27t29 -10zM468 979h160l-145 -90h-123zM399 175h-194l-79 -175
h-154l328 674h185l78 -674h-151zM247 285h146l-14 145q-2 34 -9 132h-2l-23 -58.5t-31 -73.5z" />
    <glyph glyph-name="aringacute" unicode="&#x1fb;" horiz-adv-x="554" 
d="M466 0h-132l3 51.5t3 45.5h-3q-60 -108 -164 -108q-66 0 -107 47t-41 123q0 64 21.5 123.5t63 108.5t110.5 79t155 30t162 -24l-51 -256q-23 -122 -20 -220zM353 274l22 113q-22 4 -39 4q-66 0 -113.5 -66t-47.5 -139q0 -37 15 -59t44 -22q36 0 69.5 42.5t49.5 126.5z
M447 861h143l-156 -115h-107zM383 722q46 0 76.5 -24.5t30.5 -69.5q-1 -48 -36.5 -75.5t-87.5 -27.5q-44 0 -74.5 24.5t-31.5 65.5q-1 48 33.5 77.5t89.5 29.5zM376 672q-21 0 -34 -15t-13 -37q0 -19 11.5 -32t31.5 -13q22 0 35.5 15t13.5 36q0 20 -11.5 33t-33.5 13z" />
    <glyph glyph-name="AEacute" unicode="&#x1fc;" horiz-adv-x="845" 
d="M106 0h-154l413 674h484l-23 -123h-256l-12 -147h243l-23 -121h-225l-12 -160h254l-23 -123h-378l14 185h-194zM282 304h132l14 165q2 34 8 98h-4q-37 -71 -53 -99zM564 836h160l-132 -126h-122z" />
    <glyph glyph-name="aeacute" unicode="&#x1fd;" horiz-adv-x="763" 
d="M676 132l5 -102q-73 -41 -179 -41q-55 0 -98.5 23t-63.5 64h-4q-69 -87 -182 -87q-67 0 -108.5 38.5t-41.5 96.5q0 69 49 116.5t117.5 66t147.5 17.5l2 11q4 22 -15.5 43t-63.5 21q-73 0 -136 -43l-23 92q80 53 177 53q112 0 144 -79h3q63 79 173 79q80 0 123.5 -40.5
t43.5 -94.5q0 -51 -24.5 -85.5t-70 -51.5t-100 -22.5t-124.5 -2.5q-4 -37 8 -59q28 -43 101 -43q70 0 140 30zM296 186l8 44q-23 1 -48 -2.5t-50.5 -12t-41.5 -26t-16 -42.5q0 -22 14.5 -35t39.5 -13q33 0 59.5 23t34.5 64zM607 353q0 17 -14.5 30t-41.5 13q-43 0 -72.5 -30
t-35.5 -63q164 -10 164 50zM457 700h142l-130 -152h-106z" />
    <glyph glyph-name="Oslashacute" unicode="&#x1fe;" horiz-adv-x="702" 
d="M101 -66l-68 64l72 86q-59 75 -59 193q0 90 32 171t90 138q101 99 242 99q97 0 158 -42l73 88l73 -58l-77 -93q51 -69 51 -182q1 -89 -31 -171t-87 -139q-101 -99 -243 -99q-88 0 -147 38zM207 207l275 333q-29 26 -80 26q-65 0 -116.5 -48t-75.5 -121q-33 -98 -6 -190h3
zM531 453l-267 -323q28 -22 75 -22q62 0 110.5 44.5t72.5 115.5q31 90 12 185h-3zM451 840h160l-132 -126h-122z" />
    <glyph glyph-name="oslashacute" unicode="&#x1ff;" horiz-adv-x="560" 
d="M57 -56l-40 41l61 71q-49 54 -49 139q0 128 82 217t209 89q65 0 112 -28l62 70l44 -39l-59 -69q50 -56 50 -136q0 -138 -82.5 -224t-200.5 -86q-75 0 -123 31zM183 173l168 205q-18 18 -50 18q-56 0 -90 -60t-35 -118q-2 -26 4 -44zM375 316l-170 -202q19 -20 53 -20
q53 0 87.5 56.5t36.5 119.5q0 25 -4 46h-3zM362 700h142l-130 -152h-106z" />
    <glyph glyph-name="Scommaaccent" unicode="&#x218;" horiz-adv-x="510" 
d="M0 37l48 119q72 -43 159 -43q45 0 76 20.5t31 57.5q0 28 -21 49t-70 47q-139 74 -139 178q0 100 75.5 159.5t189.5 59.5q95 0 159 -33l-45 -120q-55 30 -125 29q-49 0 -76 -20.5t-27 -49.5q0 -27 23.5 -47t74.5 -49q134 -69 134 -178q0 -108 -78 -167.5t-196 -59.5
q-128 1 -193 48zM110 -240l-15 66q31 5 54 22.5t23 45.5q0 27 -20 47l107 18q26 -24 26 -63q0 -64 -53 -98.5t-122 -37.5z" />
    <glyph glyph-name="scommaaccent" unicode="&#x219;" horiz-adv-x="416" 
d="M-4 28l35 101q68 -34 127 -34q30 0 46 12.5t16 31.5q0 18 -13.5 32.5t-47.5 30.5q-103 52 -103 130q0 76 60 122.5t155 46.5q80 0 126 -25l-35 -102q-47 21 -97 21q-29 0 -46.5 -11.5t-17.5 -31.5q0 -27 59 -56q110 -55 110 -134q0 -82 -62.5 -127.5t-162.5 -44.5
q-99 2 -149 38zM61 -239l-15 66q31 5 54 22.5t23 45.5q0 27 -20 47l107 18q26 -24 26 -63q0 -64 -53 -98.5t-122 -37.5z" />
    <glyph glyph-name="uni021A" unicode="&#x21a;" horiz-adv-x="527" 
d="M142 0l103 548h-178l25 126h502l-25 -126h-180l-103 -548h-144zM110 -240l-15 66q31 5 54 22.5t23 45.5t-20 48l107 17q26 -22 26 -63q0 -64 -53 -98.5t-122 -37.5z" />
    <glyph glyph-name="uni021B" unicode="&#x21b;" horiz-adv-x="348" 
d="M141 582l148 40l-25 -132h105l-22 -110h-104l-33 -166q-8 -38 -8 -62q0 -41 42 -41q27 0 39 2l-16 -113q-30 -11 -85 -11q-63 0 -95.5 29t-32.5 77q0 39 11 91l37 194h-62l20 110h63zM32 -240l-16 66q31 5 54 22.5t23 45.5q0 27 -20 47l107 18q26 -24 26 -63
q0 -64 -53 -98.5t-121 -37.5z" />
    <glyph glyph-name="uni021C" unicode="&#x21c;" horiz-adv-x="514" 
d="M4 -125l-10 114q138 11 227.5 63t89.5 130q0 37 -24 63t-81 26q-35 0 -89 -15l-15 97q87 19 150.5 58t63.5 94q0 30 -24.5 47t-59.5 17q-42 0 -110 -30l-23 95q87 52 193 51q85 0 132.5 -41t47.5 -101q0 -109 -141 -178v-2q61 -12 99.5 -57.5t38.5 -105.5q0 -94 -64 -166
t-167.5 -111t-233.5 -48z" />
    <glyph glyph-name="uni021D" unicode="&#x21d;" horiz-adv-x="439" 
d="M-47 -208l-8 114q25 1 55 5t75 15t80 27t60.5 45t25.5 66q0 29 -24 48t-72 19q-33 0 -84 -14l-13 98q195 42 195 123q-2 46 -70 46q-43 0 -106 -28l-25 91q91 53 189 53q73 0 117.5 -36.5t44.5 -84.5q0 -55 -29 -90.5t-93 -62.5v-2q56 -12 90.5 -51.5t34.5 -88.5
q0 -68 -40.5 -124.5t-106 -91.5t-142 -54.5t-154.5 -21.5z" />
    <glyph glyph-name="uni0232" unicode="&#x232;" horiz-adv-x="570" 
d="M295 0h-144l52 275l-132 399h154l43 -171q19 -80 26 -122h2l69 123l101 170h172l-291 -396zM266 813h253l-16 -79h-253z" />
    <glyph glyph-name="uni0233" unicode="&#x233;" horiz-adv-x="497" 
d="M44 489h151l30 -213l16 -117h2l43 114l89 216h152l-175 -352q-97 -193 -188 -279q-38 -36 -82.5 -57.5t-74.5 -26.5l-32 124q49 15 83 38q52 36 80 85q5 10 2 24zM205 662h246l-16 -78h-246z" />
    <glyph glyph-name="circumflex" unicode="&#x2c6;" 
d="M229 700h99l75 -152h-93l-40 79h-2l-58 -79h-102z" />
    <glyph glyph-name="caron" unicode="&#x2c7;" 
d="M309 548h-99l-75 152h93l40 -79h2l60 79h101z" />
    <glyph glyph-name="uni02C9" unicode="&#x2c9;" 
d="M154 662h246l-16 -78h-246z" />
    <glyph glyph-name="breve" unicode="&#x2d8;" 
d="M151 690h73q4 -56 47 -56q51 0 65 56h75q-10 -61 -47 -95.5t-99 -34.5q-66 0 -93.5 35.5t-20.5 94.5z" />
    <glyph glyph-name="dotaccent" unicode="&#x2d9;" 
d="M263 553q-28 0 -47.5 18.5t-19.5 47.5q0 34 22 55.5t54 21.5q30 0 48.5 -18.5t18.5 -48.5q0 -34 -22 -55t-54 -21z" />
    <glyph glyph-name="ring" unicode="&#x2da;" 
d="M279 735q46 0 76.5 -24.5t30.5 -69.5q-1 -48 -36.5 -75.5t-87.5 -27.5q-44 0 -74.5 24.5t-31.5 65.5q-1 48 33.5 77.5t89.5 29.5zM272 685q-21 0 -34 -15t-13 -38q0 -18 11.5 -31t31.5 -13q22 0 35.5 14.5t13.5 36.5q0 20 -11.5 33t-33.5 13z" />
    <glyph glyph-name="ogonek" unicode="&#x2db;" 
d="M126 1h83q-45 -49 -45 -87q0 -39 41 -39q25 0 47 9l9 -71q-42 -32 -105 -32q-46 0 -71.5 22.5t-25.5 63.5q0 62 67 134z" />
    <glyph glyph-name="tilde" unicode="&#x2dc;" 
d="M194 558h-70q8 60 33 93t63 33q28 0 62 -20q28 -19 39 -19q12 0 18.5 9t13.5 35h69q-18 -123 -98 -123q-36 0 -64 19q-23 18 -38 18q-19 0 -28 -45z" />
    <glyph glyph-name="hungarumlaut" unicode="&#x2dd;" 
d="M188 700h123l-121 -152h-86zM363 700h123l-120 -152h-87z" />
    <glyph glyph-name="uni037E" unicode="&#x37e;" horiz-adv-x="267" 
d="M62 -110l-104 -9q74 165 98 278l155 4q-60 -142 -149 -273zM160 287q-36 0 -59.5 24.5t-23.5 61.5q0 43 28.5 74t72.5 31q37 0 61 -25t24 -63q0 -45 -29 -74t-74 -29z" />
    <glyph glyph-name="tonos" unicode="&#x384;" horiz-adv-x="336" 
d="M274 700h140l-130 -152h-104z" />
    <glyph glyph-name="dieresistonos" unicode="&#x385;" horiz-adv-x="435" 
d="M250 715h114l-97 -168h-78zM112 558q-24 0 -41.5 16t-17.5 42q0 30 19.5 48.5t48.5 18.5q26 0 42 -17t16 -42q0 -29 -19.5 -47.5t-47.5 -18.5zM414 558q-24 0 -41.5 16t-17.5 42q0 30 19.5 48.5t48.5 18.5q26 0 42 -17t16 -42q0 -29 -19.5 -47.5t-47.5 -18.5z" />
    <glyph glyph-name="Alphatonos" unicode="&#x386;" horiz-adv-x="618" 
d="M399 175h-194l-79 -175h-154l328 674h185l79 -674h-152zM247 285h146l-14 145q-2 34 -9 132h-2l-23 -58.5t-31 -73.5zM78 674h119l-61 -174h-83z" />
    <glyph glyph-name="anoteleia" unicode="&#x387;" horiz-adv-x="267" 
d="M130 218q-37 0 -60.5 24.5t-23.5 62.5q0 44 29 75t72 31q39 0 63 -24.5t24 -64.5q0 -46 -29 -75t-75 -29z" />
    <glyph glyph-name="Epsilontonos" unicode="&#x388;" horiz-adv-x="571" 
d="M534 407l-24 -121h-239l-31 -163h269l-23 -123h-414l128 674h399l-24 -123h-254l-28 -144h241zM29 674h119l-62 -174h-82z" />
    <glyph glyph-name="Etatonos" unicode="&#x389;" horiz-adv-x="718" 
d="M199 674h144l-50 -263h244l50 263h145l-128 -674h-144l53 283h-245l-53 -283h-144zM28 674h119l-61 -174h-83z" />
    <glyph glyph-name="Iotatonos" unicode="&#x38a;" horiz-adv-x="328" 
d="M198 674h144l-128 -674h-144zM30 674h119l-62 -174h-82z" />
    <glyph glyph-name="Omicrontonos" unicode="&#x38c;" horiz-adv-x="744" 
d="M360 -11q-127 0 -200 79.5t-73 201.5q0 91 32 175t90 142q101 98 248 98q130 0 201 -78t71 -203q0 -93 -31.5 -177t-87.5 -140q-98 -98 -250 -98zM381 109q82 0 138.5 94t56.5 197q0 72 -31.5 118.5t-104.5 46.5q-57 0 -104.5 -46.5t-71.5 -112t-24 -131.5
q0 -75 35.5 -120.5t105.5 -45.5zM28 674h119l-61 -174h-83z" />
    <glyph glyph-name="Upsilontonos" unicode="&#x38e;" horiz-adv-x="677" 
d="M160 560l35 120q45 -1 92 -23.5t76 -63.5q64 -88 54 -220h7q40 132 133 218q44 41 93 64t85 25l11 -129q-72 -21 -145.5 -95.5t-114.5 -171.5q-31 -71 -42 -137l-27 -147h-144l27 147q14 70 14 132q1 113 -37.5 188.5t-116.5 92.5zM24 674h119l-62 -174h-82z" />
    <glyph glyph-name="Omegatonos" unicode="&#x38f;" horiz-adv-x="760" 
d="M176 110l1 5q-35 35 -60 90t-25 118q0 154 107 258t261 104q132 0 208.5 -77.5t76.5 -186.5q0 -101 -49.5 -180.5t-114.5 -125.5v-5h120l-19 -110h-288l15 88q75 49 128.5 129.5t53.5 188.5q0 72 -38 117t-106 45q-85 0 -144.5 -78.5t-59.5 -198.5q0 -65 23 -118.5
t62 -84.5l-15 -88h-288l20 110h131zM28 674h119l-61 -174h-83z" />
    <glyph glyph-name="iotadieresistonos" unicode="&#x390;" horiz-adv-x="265" 
d="M243 489l-64 -339q-5 -28 3 -39t32 -9l-27 -105q-26 -8 -57 -8q-102 0 -102 98q0 29 10 77l61 325h144zM182 711h114l-96 -168h-78zM45 554q-24 0 -40.5 15.5t-16.5 40.5q0 28 19 46t46 18q25 0 40.5 -16t15.5 -40q0 -29 -18.5 -46.5t-45.5 -17.5zM347 554
q-24 0 -40.5 15.5t-16.5 40.5q0 28 19 46t46 18q25 0 40.5 -16t15.5 -40q0 -29 -18.5 -46.5t-45.5 -17.5z" />
    <glyph glyph-name="Alpha" unicode="&#x391;" horiz-adv-x="618" 
d="M399 175h-194l-79 -175h-154l328 674h185l79 -674h-152zM247 285h146l-14 145q-2 34 -9 132h-2l-23 -58.5t-31 -73.5z" />
    <glyph glyph-name="Beta" unicode="&#x392;" horiz-adv-x="582" 
d="M20 7l124 656q77 16 177 16q106 0 167 -35q35 -18 56.5 -50.5t21.5 -73.5q0 -60 -38 -101.5t-98 -58.5v-3q49 -15 77.5 -53.5t28.5 -93.5q0 -99 -92 -160q-80 -55 -254 -55q-113 0 -170 12zM268 563l-30 -157h48q60 0 96.5 24.5t36.5 67.5q0 69 -94 69q-35 0 -57 -4z
M216 301l-36 -191q17 -2 55 -2q64 0 106.5 26.5t42.5 79.5q0 87 -123 87h-45z" />
    <glyph glyph-name="Gamma" unicode="&#x393;" horiz-adv-x="476" 
d="M147 674h399l-24 -123h-252l-105 -551h-146z" />
    <glyph glyph-name="uni0394" unicode="&#x394;" horiz-adv-x="636" 
d="M-27 0l12 77l324 597h178l102 -597l-13 -77h-603zM155 117h277l-44 288q-10 73 -17 147h-4q-18 -42 -62 -137z" />
    <glyph glyph-name="Epsilon" unicode="&#x395;" horiz-adv-x="517" 
d="M481 407l-24 -121h-239l-31 -163h269l-23 -123h-414l128 674h399l-24 -123h-254l-28 -144h241z" />
    <glyph glyph-name="Zeta" unicode="&#x396;" horiz-adv-x="553" 
d="M-25 0l15 83l391 464v3h-274l25 124h467l-17 -89l-384 -458v-3h302l-24 -124h-501z" />
    <glyph glyph-name="Eta" unicode="&#x397;" horiz-adv-x="666" 
d="M147 674h144l-50 -263h244l50 263h145l-128 -674h-144l53 283h-245l-53 -283h-144z" />
    <glyph glyph-name="Theta" unicode="&#x398;" horiz-adv-x="705" 
d="M321 -11q-127 0 -200.5 79.5t-73.5 201.5q0 91 32.5 175.5t90.5 141.5q101 98 247 98q130 0 201.5 -78t71.5 -203q0 -93 -31.5 -177t-87.5 -140q-100 -98 -250 -98zM342 108q81 0 138 94t57 197q0 73 -32 120t-105 47q-57 0 -104.5 -46.5t-71.5 -112.5t-24 -132
q0 -75 35.5 -121t106.5 -46zM278 401h205l-20 -114h-204z" />
    <glyph glyph-name="Iota" unicode="&#x399;" horiz-adv-x="274" 
d="M144 674h144l-128 -674h-144z" />
    <glyph glyph-name="Kappa" unicode="&#x39a;" horiz-adv-x="590" 
d="M19 0l128 674h142l-57 -301h3q6 9 60 77l187 224h180l-273 -291l156 -383h-156l-113 293l-72 -68l-43 -225h-142z" />
    <glyph glyph-name="Lambda" unicode="&#x39b;" horiz-adv-x="618" 
d="M564 0h-155l-35 403l-3.5 71t-3.5 77h-3q-26 -74 -58 -149l-178 -402h-158l327 674h187z" />
    <glyph glyph-name="Mu" unicode="&#x39c;" horiz-adv-x="821" 
d="M722 0h-140l41 278q22 144 45 263h-3q-63 -147 -116 -254l-138 -276h-112l-24 273q-8 98 -15 257h-2q-7 -31 -18.5 -87l-20.5 -100t-17 -76l-67 -278h-132l169 674h193l21 -256q12 -182 12 -215h4q30 87 91 215l125 256h195z" />
    <glyph glyph-name="Nu" unicode="&#x39d;" horiz-adv-x="666" 
d="M153 0h-134l128 674h169l89 -257q36 -115 61 -230h3q4 94 31 242l46 245h135l-128 -674h-149l-94 269q-43 131 -66 235h-3q-10 -92 -43 -268z" />
    <glyph glyph-name="Xi" unicode="&#x39e;" horiz-adv-x="561" 
d="M128 674h460l-20 -120h-460zM112 405h396l-20 -120h-396zM15 122h488l-20 -122h-488z" />
    <glyph glyph-name="Omicron" unicode="&#x39f;" horiz-adv-x="705" 
d="M321 -11q-127 0 -200 79.5t-73 201.5q0 91 32 175t90 142q101 98 248 98q130 0 201 -78t71 -203q0 -93 -31.5 -177t-87.5 -140q-98 -98 -250 -98zM342 109q82 0 138.5 94t56.5 197q0 72 -31.5 118.5t-104.5 46.5q-57 0 -104.5 -46.5t-71.5 -112t-24 -131.5
q0 -75 35.5 -120.5t105.5 -45.5z" />
    <glyph glyph-name="Pi" unicode="&#x3a0;" horiz-adv-x="653" 
d="M668 674l-127 -674h-143l103 553h-234l-104 -553h-144l127 674h522z" />
    <glyph glyph-name="Rho" unicode="&#x3a1;" horiz-adv-x="559" 
d="M19 0l125 662q68 17 176 17q116 0 179 -44q73 -49 73 -144q0 -119 -91 -189q-81 -63 -216 -63q-11 0 -21.5 0.5t-21.5 2t-16 1.5l-46 -243h-141zM266 560l-38 -199q25 -5 56 -5q63 0 103 35.5t40 87.5q0 85 -102 85q-35 0 -59 -4z" />
    <glyph glyph-name="Sigma" unicode="&#x3a3;" horiz-adv-x="558" 
d="M200 126l1 -4h310l-21 -122h-507l13 87l242 250l-149 236l17 101h470l-20 -121h-288l-1 -4l138 -217z" />
    <glyph glyph-name="Tau" unicode="&#x3a4;" horiz-adv-x="527" 
d="M141 0l104 548h-178l25 126h501l-24 -126h-180l-104 -548h-144z" />
    <glyph glyph-name="Upsilon" unicode="&#x3a5;" horiz-adv-x="557" 
d="M43 560l35 120q45 -1 92 -23.5t76 -63.5q64 -88 54 -220h7q40 132 133 218q44 41 93 64t85 25l11 -129q-72 -21 -145.5 -95.5t-114.5 -171.5q-31 -71 -42 -138l-27 -146h-144l27 147q14 70 14 132q1 113 -37.5 188.5t-116.5 92.5z" />
    <glyph glyph-name="Phi" unicode="&#x3a6;" horiz-adv-x="766" 
d="M263 -29l11 57q-97 14 -161.5 82.5t-64.5 177.5q0 85 33.5 155.5t85.5 114t110.5 67.5t113.5 25l10 52h135l-10 -52q95 -13 160 -82t65 -177q0 -83 -31 -152.5t-81 -113.5t-109.5 -69t-120.5 -28l-11 -57h-135zM294 132l77 415q-62 -3 -119.5 -77t-57.5 -179
q0 -64 27.5 -106.5t72.5 -52.5zM506 547l-78 -416q68 6 122.5 77t54.5 182q0 64 -27.5 106t-71.5 51z" />
    <glyph glyph-name="Chi" unicode="&#x3a7;" horiz-adv-x="569" 
d="M517 0h-153l-46 136l-36 115h-2l-68 -120l-80 -131h-173l252 344l-118 330h152l41 -129q24 -84 31 -112h3l64 114l78 127h172l-246 -331z" />
    <glyph glyph-name="Psi" unicode="&#x3a8;" horiz-adv-x="691" 
d="M737 674l-39 -211q-26 -134 -104 -203.5t-196 -75.5l-34 -184h-135l35 184q-40 4 -75 17t-65 36t-47.5 60.5t-17.5 85.5q0 28 8 76l41 215h139l-37 -200q-9 -44 -9 -73q0 -51 20.5 -75t62.5 -30l72 378h133l-71 -380q56 6 91.5 50t54.5 148l34 182h139z" />
    <glyph glyph-name="uni03A9" unicode="&#x3a9;" horiz-adv-x="721" 
d="M137 110l1 5q-35 35 -60 90t-25 118q0 154 107 258t260 104q132 0 208.5 -77.5t76.5 -186.5q0 -101 -49.5 -180.5t-115.5 -125.5v-5h121l-19 -110h-288l15 88q75 48 128.5 129t53.5 189q0 72 -38 117t-106 45q-85 0 -144 -78.5t-59 -198.5q0 -65 23 -118.5t62 -84.5
l-15 -88h-288l20 110h131z" />
    <glyph glyph-name="Iotadieresis" unicode="&#x3aa;" horiz-adv-x="274" 
d="M121 714q-27 0 -45.5 17.5t-18.5 45.5q0 32 21 52.5t52 20.5q29 0 46.5 -18t17.5 -46q0 -32 -21 -52t-52 -20zM329 714q-27 0 -45.5 17.5t-18.5 45.5q0 32 21 52.5t52 20.5q29 0 46.5 -18t17.5 -46q0 -32 -21 -52t-52 -20zM143 674h145l-128 -674h-144z" />
    <glyph glyph-name="Upsilondieresis" unicode="&#x3ab;" horiz-adv-x="557" 
d="M252 699q-26 0 -45 18t-19 46q0 32 21 52.5t52 20.5q29 0 46.5 -18t17.5 -46q0 -33 -21 -53t-52 -20zM459 699q-26 0 -45 18t-19 46q0 32 21 52.5t52 20.5q29 0 46.5 -18t17.5 -46q0 -33 -21 -53t-52 -20zM43 560l35 120q45 -1 92 -23.5t76 -63.5q64 -88 54 -220h7
q40 131 132 218q44 41 93.5 64t85.5 25l10 -129q-71 -21 -144.5 -95.5t-114.5 -171.5q-31 -71 -42 -138l-27 -146h-144l27 147q14 70 14 132q1 113 -37.5 188.5t-116.5 92.5z" />
    <glyph glyph-name="alphatonos" unicode="&#x3ac;" horiz-adv-x="576" 
d="M375 700h140l-130 -152h-104zM362 77h-2q-65 -88 -169 -88q-71 0 -117 49.5t-46 134.5q0 140 82.5 234t174.5 94q98 0 128 -73l3 -1q8 27 23 62h122q-20 -77 -27 -109q-28 -124 -45 -208q-8 -41 1 -57t31 -14l-26 -105q-19 -7 -45 -7q-80 0 -88 88zM177 190
q0 -39 18.5 -63t51.5 -24q32 0 61 28.5t43 66.5q9 30 13 53q6 32 6 50q0 40 -18.5 65t-52.5 25q-47 0 -84.5 -62.5t-37.5 -138.5z" />
    <glyph glyph-name="epsilontonos" unicode="&#x3ad;" horiz-adv-x="437" 
d="M302 700h139l-130 -152h-103zM346 207h-46q-129 0 -129 -62q0 -22 25 -34.5t63 -12.5q67 0 132 28l5 -98q-69 -39 -185 -39q-86 0 -142 31t-56 95q0 57 37.5 95t87.5 47l1 4q-75 24 -75 90q0 61 62 105t166 44q98 0 148 -37l-34 -90q-40 25 -104 25q-42 0 -67 -15
t-25 -37q0 -45 110 -45h42z" />
    <glyph glyph-name="etatonos" unicode="&#x3ae;" horiz-adv-x="563" 
d="M362 700h140l-130 -152h-104zM219 408h2q67 92 171 92q59 0 92.5 -35t33.5 -99q0 -40 -8 -82l-58 -302q-25 -138 -22 -180h-136q-13 32 15 181l54 288q5 35 5 54q0 59 -48 59q-37 0 -72.5 -45t-49.5 -122l-41 -217h-144l62 330q20 115 15 159h126q9 -30 3 -81z" />
    <glyph glyph-name="iotatonos" unicode="&#x3af;" horiz-adv-x="265" 
d="M224 700h140l-131 -152h-103zM243 489l-64 -338q-5 -28 3.5 -39.5t31.5 -9.5l-27 -105q-26 -8 -58 -8q-101 0 -101 97q0 24 10 78l62 325h143z" />
    <glyph glyph-name="upsilondieresistonos" unicode="&#x3b0;" horiz-adv-x="536" 
d="M368 489h133q14 -33 14 -91q0 -70 -18 -140t-52.5 -131.5t-92 -99.5t-129.5 -38q-86 0 -136.5 43.5t-50.5 120.5q0 23 12 83l16 85q25 129 19 168h139q12 -23 -1 -93l-26 -142q-12 -56 -12 -76q0 -32 17.5 -52t44.5 -20q56 0 92.5 96t36.5 208q0 51 -6 79zM293 711h114
l-97 -168h-79zM155 554q-24 0 -40.5 15.5t-16.5 40.5q0 28 19 46t46 18q25 0 40.5 -16t15.5 -40q0 -29 -18.5 -46.5t-45.5 -17.5zM457 554q-24 0 -40.5 15.5t-16.5 40.5q0 28 19 46t46 18q25 0 40.5 -16t15.5 -40q0 -29 -18.5 -46.5t-45.5 -17.5z" />
    <glyph glyph-name="alpha" unicode="&#x3b1;" horiz-adv-x="576" 
d="M362 77h-2q-65 -88 -169 -88q-71 0 -117 49.5t-46 134.5q0 140 82.5 234t174.5 94q98 0 128 -73l3 -1q8 27 23 62h122q-20 -77 -27 -109q-28 -124 -45 -208q-8 -41 1 -57t31 -14l-26 -105q-19 -7 -45 -7q-80 0 -88 88zM177 190q0 -39 19 -63t51 -24t61 28.5t43 66.5
q9 30 13 53q6 32 6 50q0 40 -18.5 65t-52.5 25q-47 0 -84.5 -62.5t-37.5 -138.5z" />
    <glyph glyph-name="beta" unicode="&#x3b2;" horiz-adv-x="562" 
d="M126 -198h-133q-14 43 13 179l80 430q34 180 117 251q70 59 161 59q80 0 126.5 -46t46.5 -113q0 -60 -29.5 -106t-79.5 -69l-1 -6q44 -12 73.5 -55.5t29.5 -103.5q0 -99 -70 -166t-162 -67q-91 0 -138 47h-3l-11 -60q-22 -122 -20 -174zM273 319l17 90q11 0 17 2
q41 7 68 40.5t27 82.5q0 32 -15.5 53t-43.5 21q-79 0 -111 -166l-54 -290q34 -54 95 -54q47 0 78.5 35.5t31.5 86.5q0 41 -24.5 67.5t-63.5 31.5h-22z" />
    <glyph glyph-name="gamma" unicode="&#x3b3;" horiz-adv-x="483" 
d="M211 -198h-141q36 175 36 263q0 97 -29 217t-65 207h159q22 -51 39 -145.5t18 -188.5h4q97 156 122 289q4 32 4 45h142q0 -22 -4 -50q-16 -86 -80.5 -198.5t-159.5 -218.5q-11 -13 -13 -29q-30 -180 -32 -191z" />
    <glyph glyph-name="delta" unicode="&#x3b4;" horiz-adv-x="551" 
d="M522 653l-51 -84q-19 18 -50.5 33.5t-59.5 15.5q-43 0 -43 -30q0 -20 51 -66l57 -55q94 -89 94 -195q0 -114 -77.5 -198.5t-201.5 -84.5q-95 0 -156 59t-61 151q0 99 59.5 168.5t142.5 104.5v4l-19 22q-40 45 -40 90q0 55 49.5 94t124.5 39q113 0 181 -68zM326 367
l-34 35q-52 -28 -85.5 -79.5t-33.5 -119.5q0 -49 24.5 -79.5t62.5 -30.5q46 0 79.5 44.5t33.5 110.5q0 72 -47 119z" />
    <glyph glyph-name="epsilon" unicode="&#x3b5;" horiz-adv-x="437" 
d="M346 207h-46q-129 0 -129 -62q0 -22 25 -34.5t63 -12.5q67 0 132 28l5 -99q-70 -38 -185 -38q-86 0 -142 31t-56 95q0 57 37.5 95t87.5 47l1 4q-75 24 -75 90q0 61 62 105t166 44q99 0 148 -38l-34 -89q-44 25 -104 25q-42 0 -67 -15t-25 -37q0 -45 110 -45h42z" />
    <glyph glyph-name="zeta" unicode="&#x3b6;" horiz-adv-x="427" 
d="M476 706l3 -95q-102 -51 -200.5 -166t-98.5 -219q0 -82 68 -116q39 -24 137 -38q8 -1 8 -12q0 -36 -34.5 -105.5t-72.5 -106.5l-87 29q11 17 25.5 49t18.5 51q-51 10 -92 29q-123 54 -123 190q0 107 78.5 221t181.5 180v4q-8 0 -26 0.5t-27 0.5q-66 0 -95 16l27 93
q25 -5 129 -5h180z" />
    <glyph glyph-name="eta" unicode="&#x3b7;" horiz-adv-x="563" 
d="M219 408h3q67 92 170 92q59 0 92.5 -35t33.5 -99q0 -40 -8 -82l-57 -302q-26 -143 -22 -180h-136q-14 30 14 181l54 288q5 35 5 54q0 59 -48 59q-37 0 -72.5 -45t-49.5 -122l-41 -217h-144l62 330q22 113 15 159h126q9 -30 3 -81z" />
    <glyph glyph-name="theta" unicode="&#x3b8;" horiz-adv-x="555" 
d="M237 -11q-97 0 -149.5 62t-52.5 179q0 84 21 174q34 139 111.5 228t188.5 89q94 0 144 -64t50 -167q0 -69 -14 -144q-19 -100 -56.5 -178t-100.5 -128.5t-142 -50.5zM203 413h200q8 54 8 90q0 54 -18 85t-53 31q-50 0 -85 -57t-52 -149zM384 310h-200q-10 -63 -10 -101
q0 -56 20 -87t56 -31q94 0 134 219z" />
    <glyph glyph-name="iota" unicode="&#x3b9;" horiz-adv-x="265" 
d="M243 489l-64 -338q-5 -28 3 -39.5t32 -9.5l-27 -105q-24 -8 -57 -8q-103 0 -103 100q0 15 12 77l60 323h144z" />
    <glyph glyph-name="kappa" unicode="&#x3ba;" horiz-adv-x="522" 
d="M333 265v-3q28 -11 46 -40.5t39 -85.5l52 -136h-156l-34 96q-19 54 -35 79t-42 25h-8l-37 -200h-144l67 358q19 104 12 131h136q16 -22 3 -91l-21 -112h5l175 203h164v-5z" />
    <glyph glyph-name="lambda" unicode="&#x3bb;" horiz-adv-x="475" 
d="M290 0l-29 236l-10 88l-6 1q-20 -55 -35 -92l-102 -233h-151l237 458q10 20 10 29q0 4 -2 18q-17 98 -84 99h-18l29 109q17 5 47 3q76 -3 112 -59t59 -172l90 -485h-147z" />
    <glyph glyph-name="uni03BC" unicode="&#x3bc;" horiz-adv-x="559" 
d="M245 489l-52 -275q-21 -108 54 -108q26 0 48.5 22.5t37.5 53.5q10 19 13 37l52 270h144l-62 -329q-6 -33 1.5 -45.5t28.5 -13.5l-27 -104q-19 -8 -48 -8q-79 0 -89 91h-3q-49 -87 -123 -87q-50 0 -72 30l-8 -44q-22 -128 -21 -177h-129q-11 41 16 180l95 507h144z" />
    <glyph glyph-name="nu" unicode="&#x3bd;" horiz-adv-x="483" 
d="M28 489h153q14 -120 22 -226q5 -54 10 -122h4q109 182 131 299q3 20 5 49h140q0 -28 -3 -44q-31 -173 -245 -445h-138q-44 286 -79 489z" />
    <glyph glyph-name="xi" unicode="&#x3be;" horiz-adv-x="452" 
d="M390 333h-33q-82 0 -131 -35t-49 -92q0 -83 111 -111q46 -13 123 -24q8 -1 8 -12q0 -33 -38 -106.5t-70 -104.5l-87 30q30 52 43 99q-43 6 -78 18q-29 8 -55 21.5t-53 35t-43 55t-16 74.5q0 81 52.5 140t123.5 76v6q-38 17 -61 50t-23 74q0 82 68 138t181 56
q87 0 135 -32l-36 -93q-36 22 -88 22q-51 0 -82.5 -28t-31.5 -70q0 -77 117 -87q11 -1 31 -1z" />
    <glyph glyph-name="omicron" unicode="&#x3bf;" horiz-adv-x="559" 
d="M236 -11q-94 0 -151 56t-57 147q0 129 82 219t210 90q96 0 152 -57.5t56 -144.5q0 -134 -82.5 -222t-209.5 -88zM256 99q54 0 88.5 64.5t34.5 134.5q0 38 -19 65.5t-58 27.5t-68.5 -34t-43 -78t-13.5 -85q0 -43 21 -69t58 -26z" />
    <glyph glyph-name="pi" unicode="&#x3c0;" horiz-adv-x="573" 
d="M570 378h-61l-41 -220q-21 -114 -18 -158h-138q-12 28 11 149l42 229h-101l-6.5 -27l-7.5 -33t-6 -29q-55 -218 -108 -289h-138q58 97 106 286q9 34 20 92q-61 0 -91 -8l-2 83q37 37 176 37h388z" />
    <glyph glyph-name="rho" unicode="&#x3c1;" horiz-adv-x="566" 
d="M123 -198h-137q-6 48 18 175l40 218q33 178 128 250q70 55 168 55q89 0 143.5 -56t54.5 -143q0 -130 -79 -221t-180 -91q-40 0 -72.5 13t-46.5 35h-2l-11 -62q-24 -122 -24 -173zM196 234l-6 -27q-3 -18 -3 -38q0 -24 22 -47t58 -23q48 0 85.5 57.5t37.5 133.5
q0 41 -19.5 67.5t-56.5 26.5q-42 0 -72.5 -38.5t-45.5 -111.5z" />
    <glyph glyph-name="uni03C2" unicode="&#x3c2;" horiz-adv-x="443" 
d="M293 -153l-87 31q31 46 44 99q-35 5 -84 23q-55 21 -99 70t-44 131q0 120 87.5 210t220.5 90q73 0 120 -26l-38 -103q-31 17 -81 17q-64 0 -111.5 -48t-47.5 -118q0 -88 91 -123q39 -15 128 -30q7 -1 7 -12q0 -37 -34.5 -105.5t-71.5 -105.5z" />
    <glyph glyph-name="sigma" unicode="&#x3c3;" horiz-adv-x="585" 
d="M475 406l-1 -6q25 -18 37.5 -54.5t12.5 -68.5q0 -117 -81.5 -202.5t-203.5 -85.5q-96 0 -153.5 55.5t-57.5 146.5q0 130 82 220t208 90h125h76h98l-18 -107q-41 0 -124 12zM256 99q54 0 88.5 64.5t34.5 134.5q0 39 -18.5 66t-57.5 27q-58 0 -92 -64.5t-34 -132.5
q0 -43 21 -69t58 -26z" />
    <glyph glyph-name="tau" unicode="&#x3c4;" horiz-adv-x="430" 
d="M316 103l-23 -103q-20 -11 -61 -11q-123 0 -123 119q0 34 10 84l34 185h-40q-60 0 -94 -7v85q50 34 175 34h262l-26 -112h-133l-37 -197q-4 -23 -4 -40q0 -37 38 -37h22z" />
    <glyph glyph-name="upsilon" unicode="&#x3c5;" horiz-adv-x="536" 
d="M368 489h133q14 -33 14 -94q0 -55 -11 -110.5t-34.5 -109t-57 -94.5t-82.5 -66.5t-106 -25.5q-87 0 -137.5 43.5t-50.5 119.5q0 23 11 82l16 87q25 127 20 168h139q12 -23 -1 -93l-27 -142q-11 -72 -11 -77q0 -31 17.5 -51t44.5 -20q57 0 93 94.5t36 209.5q0 51 -6 79z
" />
    <glyph glyph-name="phi" unicode="&#x3c6;" horiz-adv-x="685" 
d="M248 88l42 230q16 92 64 137t114 45q79 0 132.5 -57t53.5 -143q0 -138 -91 -224t-207 -87l-35 -187h-127l35 187q-80 10 -140 65.5t-60 148.5q0 62 21 116.5t54.5 90t68 58.5t67.5 32l49 -70q-45 -26 -83 -82.5t-38 -134.5q0 -48 21 -81.5t59 -43.5zM425 358l-51 -270
q62 6 101.5 66t39.5 141q0 44 -16 74t-41 30t-33 -41z" />
    <glyph glyph-name="chi" unicode="&#x3c7;" horiz-adv-x="471" 
d="M39 489h149l34 -135q11 -44 22 -99h5q29 58 48 91l81 143h144l-226 -344l101 -340l-139 -30l-36 140q-19 68 -30 122h-6l-53 -97l-98 -165l-119 42l228 341z" />
    <glyph glyph-name="psi" unicode="&#x3c8;" horiz-adv-x="691" 
d="M525 489h130q14 -40 14 -99q0 -172 -83.5 -283t-226.5 -118l-34 -187h-130l35 187q-81 7 -135.5 54.5t-54.5 135.5q0 38 8 84l18 97q17 90 16 129h129q13 -20 0 -93l-24 -128q-8 -48 -8 -85q0 -43 19.5 -66.5t51.5 -25.5l98 526h128l-98 -527q63 2 108.5 85t45.5 230
q0 51 -7 84z" />
    <glyph glyph-name="omega" unicode="&#x3c9;" horiz-adv-x="717" 
d="M508 491h128q19 -23 33.5 -69.5t14.5 -100.5q0 -136 -69 -234t-172 -98q-43 0 -73.5 20.5t-43.5 57.5h-4q-51 -78 -138 -78q-67 0 -111.5 50t-44.5 143q0 95 41 181.5t86 127.5h137v-3q-46 -47 -82 -127t-36 -164q0 -41 12.5 -63.5t33.5 -22.5q23 0 39.5 25.5t22.5 66.5
l30 167h132l-30 -146q-9 -52 -9 -61q0 -22 9.5 -37t29.5 -15q40 0 69.5 71.5t29.5 161.5q0 91 -35 144v3z" />
    <glyph glyph-name="iotadieresis" unicode="&#x3ca;" horiz-adv-x="265" 
d="M81 546q-26 0 -45 18t-19 46q0 32 21 52.5t52 20.5q29 0 46 -18t17 -46q0 -32 -20.5 -52.5t-51.5 -20.5zM285 546q-26 0 -45 18t-19 46q0 32 21 52.5t52 20.5q29 0 46.5 -18t17.5 -46q0 -32 -21 -52.5t-52 -20.5zM243 489l-65 -338q-5 -27 3 -38.5t33 -10.5l-28 -105
q-26 -8 -57 -8q-101 0 -101 96q0 32 10 79l61 325h144z" />
    <glyph glyph-name="upsilondieresis" unicode="&#x3cb;" horiz-adv-x="536" 
d="M200 546q-26 0 -45 18t-19 46q0 32 21 52.5t52 20.5q29 0 46.5 -18t17.5 -46q0 -32 -21 -52.5t-52 -20.5zM404 546q-26 0 -45 18t-19 46q0 32 21 52.5t52 20.5q29 0 46.5 -18t17.5 -46q0 -32 -21 -52.5t-52 -20.5zM367 489h134q14 -33 14 -91q0 -70 -18 -140
t-52.5 -131.5t-92 -99.5t-129.5 -38q-87 0 -137 43t-50 122q0 27 12 82l16 85q25 129 19 168h139q12 -23 -1 -93l-26 -142q-12 -60 -12 -76q0 -33 17.5 -52.5t44.5 -19.5q56 0 92.5 96t36.5 208q0 54 -7 79z" />
    <glyph glyph-name="omicrontonos" unicode="&#x3cc;" horiz-adv-x="559" 
d="M354 700h140l-131 -152h-103zM236 -11q-94 0 -151 56t-57 147q0 129 82 219t210 90q96 0 152 -57.5t56 -144.5q0 -134 -82.5 -222t-209.5 -88zM256 99q54 0 88.5 64.5t34.5 134.5q0 38 -19 65.5t-58 27.5t-68.5 -34t-43 -78t-13.5 -85q0 -43 21 -69t58 -26z" />
    <glyph glyph-name="upsilontonos" unicode="&#x3cd;" horiz-adv-x="536" 
d="M322 700h140l-130 -152h-104zM368 489h133q14 -33 14 -91q0 -70 -18 -140t-52.5 -131.5t-92 -99.5t-129.5 -38q-86 0 -136.5 43.5t-50.5 120.5q0 25 12 83l16 85q25 129 19 168h139q12 -23 -1 -93l-26 -142q-12 -66 -12 -76q0 -33 17.5 -52.5t44.5 -19.5q56 0 92.5 96
t36.5 208q0 51 -6 79z" />
    <glyph glyph-name="omegatonos" unicode="&#x3ce;" horiz-adv-x="716" 
d="M436 700h139l-130 -152h-103zM508 491h128q19 -23 33.5 -69.5t14.5 -100.5q0 -136 -69 -234t-172 -98q-43 0 -73.5 20.5t-43.5 57.5h-4q-51 -78 -138 -78q-67 0 -111.5 50t-44.5 143q0 95 41 181.5t86 127.5h137v-3q-46 -47 -82 -127t-36 -164q0 -41 12.5 -63.5
t33.5 -22.5q23 0 39.5 25.5t22.5 66.5l30 167h132l-30 -146q-9 -52 -9 -61q0 -22 9.5 -37t29.5 -15q40 0 69.5 71.5t29.5 161.5q0 91 -35 144v3z" />
    <glyph glyph-name="uni0401" unicode="&#x401;" horiz-adv-x="517" 
d="M480 407l-23 -121h-239l-32 -163h269l-23 -123h-413l128 674h398l-24 -123h-253l-28 -144h240zM255 711q-26 0 -45 18t-19 46q0 32 21 52.5t52 20.5q28 0 46 -18.5t18 -45.5q0 -32 -21.5 -52.5t-51.5 -20.5zM462 711q-26 0 -45 18t-19 46q0 32 21 52.5t52 20.5
q28 0 46 -18.5t18 -45.5q0 -32 -21.5 -52.5t-51.5 -20.5z" />
    <glyph glyph-name="uni0402" unicode="&#x402;" horiz-adv-x="692" 
d="M93 674h533l-25 -125h-220l-23 -122h2q46 24 103 24q89 0 137.5 -60t48.5 -159q0 -169 -101 -275q-42 -44 -97.5 -72t-108.5 -34l-22 123q66 12 111 59q64 66 64 179q0 53 -22.5 86.5t-68.5 33.5q-34 0 -67 -20l-58 -312h-142l102 549h-172z" />
    <glyph glyph-name="uni0403" unicode="&#x403;" horiz-adv-x="457" 
d="M147 674h376l-24 -126h-232l-104 -548h-144zM358 836h160l-132 -126h-123z" />
    <glyph glyph-name="uni0404" unicode="&#x404;" horiz-adv-x="565" 
d="M612 655l-41 -116q-51 25 -127 24q-85 -1 -146.5 -46.5t-81.5 -123.5h278l-18 -114h-271q-1 -5 -1 -19q1 -58 45.5 -104t126.5 -46q74 0 137 26l11 -115q-66 -32 -180 -32q-141 0 -218 81t-77 211q0 198 139 312q111 91 268 91q96 0 156 -29z" />
    <glyph glyph-name="uni0405" unicode="&#x405;" horiz-adv-x="510" 
d="M0 37l48 119q72 -43 159 -43q45 0 76 20.5t31 57.5q0 28 -21 49t-70 47q-139 74 -139 178q0 100 75.5 159.5t189.5 59.5q95 0 159 -33l-45 -120q-55 30 -125 29q-49 0 -76 -20.5t-27 -49.5q0 -27 23.5 -47t74.5 -49q134 -69 134 -178q0 -108 -78 -168t-196 -59
q-128 1 -193 48z" />
    <glyph glyph-name="uni0406" unicode="&#x406;" horiz-adv-x="274" 
d="M144 674h144l-128 -674h-144z" />
    <glyph glyph-name="uni0407" unicode="&#x407;" horiz-adv-x="274" 
d="M143 674h145l-128 -674h-144zM121 711q-26 0 -45 18t-19 46q0 32 21 52.5t52 20.5q28 0 46 -18.5t18 -45.5q0 -32 -21.5 -52.5t-51.5 -20.5zM328 711q-26 0 -45 18t-19 46q0 32 21 52.5t52 20.5q28 0 46 -18.5t18 -45.5q0 -32 -21.5 -52.5t-51.5 -20.5z" />
    <glyph glyph-name="uni0408" unicode="&#x408;" horiz-adv-x="399" 
d="M194 247l81 427h144l-85 -445q-25 -129 -85 -184.5t-174 -55.5q-72 0 -111 16l28 123q36 -12 80 -12q50 0 79 29.5t43 101.5z" />
    <glyph glyph-name="uni0409" unicode="&#x409;" horiz-adv-x="919" 
d="M213 674h424l-46 -235q30 6 74 6q98 0 158.5 -50.5t60.5 -145.5q0 -100 -68 -166q-93 -90 -285 -90q-102 0 -164 10l103 548h-143l-32 -161q-23 -119 -55 -205t-88 -136q-68 -60 -172 -60l-13 121q59 2 98 42q31 31 56 97.5t37 130.5zM569 326l-41 -217q16 -2 50 -2
q59 0 106 33t47 91q0 49 -30.5 74.5t-78.5 25.5q-28 0 -53 -5z" />
    <glyph glyph-name="uni040A" unicode="&#x40a;" horiz-adv-x="928" 
d="M148 674h144l-49 -256h212l48 256h144l-48 -244q29 7 74 7q96 0 158.5 -50t62.5 -145t-68 -160q-90 -89 -285 -89q-102 0 -164 10l56 297h-213l-56 -300h-144zM577 318l-39 -209q16 -2 51 -2q60 0 106 32t46 87q0 48 -32 72.5t-80 24.5q-27 0 -52 -5z" />
    <glyph glyph-name="uni040B" unicode="&#x40b;" horiz-adv-x="695" 
d="M92 674h526l-25 -124h-216l-28 -143h3q65 41 139 40q74 0 110.5 -40.5t35.5 -111.5q-1 -43 -12 -104l-33 -191h-144l34 184q8 44 8 75q0 30 -17.5 49.5t-55.5 19.5q-50 0 -90 -36l-54 -292h-142l103 550h-167z" />
    <glyph glyph-name="uni040C" unicode="&#x40c;" horiz-adv-x="585" 
d="M147 674h142l-55 -284h16l230 284h177l-282 -305q46 -21 71.5 -73t41.5 -135q27 -131 40 -161h-149q-11 30 -35 154q-13 68 -36 99.5t-75 31.5h-18l-54 -285h-142zM396 836h160l-132 -126h-122z" />
    <glyph glyph-name="uni040E" unicode="&#x40e;" horiz-adv-x="556" 
d="M75 674h159l58 -242q9 -34 30 -132h4q39 101 56 140l99 234h167l-182 -351l-58.5 -110t-57 -89t-70.5 -80q-62 -55 -150 -55q-58 0 -92 17l25 117q22 -8 56 -8q57 0 93 62q13 21 4 47zM236 836h101q-7 -60 39 -60q43 0 58 60h102q-13 -59 -56.5 -90.5t-111.5 -31.5
q-69 0 -101.5 31t-30.5 91z" />
    <glyph glyph-name="uni040F" unicode="&#x40f;" horiz-adv-x="648" 
d="M146 674h145l-105 -551h227l105 551h144l-127 -674h-190l-45 -185h-114l29 185h-196z" />
    <glyph glyph-name="uni0410" unicode="&#x410;" horiz-adv-x="618" 
d="M399 175h-194l-79 -175h-154l328 674h185l79 -674h-152zM247 285h146l-14 145q-2 34 -9 132h-2l-24.5 -61t-29.5 -71z" />
    <glyph glyph-name="uni0411" unicode="&#x411;" horiz-adv-x="573" 
d="M146 674h410l-22 -124h-267l-23 -121q35 7 75 7q94 0 155 -50t61 -143q0 -112 -86 -178q-92 -72 -259 -72q-108 0 -170 10zM223 322l-40 -215q16 -3 51 -3q58 0 103.5 33t45.5 90q0 48 -29.5 74t-77.5 26q-28 0 -53 -5z" />
    <glyph glyph-name="uni0412" unicode="&#x412;" horiz-adv-x="586" 
d="M20 7l124 656q77 16 177 16q106 0 167 -35q35 -18 56.5 -50.5t21.5 -73.5q0 -60 -38 -101.5t-98 -58.5v-3q49 -15 77.5 -53.5t28.5 -93.5q0 -99 -92 -160q-80 -55 -254 -55q-113 0 -170 12zM268 563l-30 -157h48q60 0 96.5 24.5t36.5 67.5q0 69 -94 69q-35 0 -57 -4z
M216 301l-36 -191q17 -2 55 -2q64 0 106.5 26.5t42.5 79.5q0 87 -123 87h-45z" />
    <glyph glyph-name="uni0413" unicode="&#x413;" horiz-adv-x="457" 
d="M147 674h376l-24 -126h-232l-104 -548h-144z" />
    <glyph glyph-name="uni0414" unicode="&#x414;" horiz-adv-x="660" 
d="M231 674h420l-105 -557l64 -4l-66 -284h-116l25 171h-358l-45 -171h-114l49 284l53 5q61 88 98 175q40 95 61 204zM339 551l-18 -94q-21 -105 -57 -193q-33 -80 -77 -144h217l80 431h-145z" />
    <glyph glyph-name="uni0415" unicode="&#x415;" horiz-adv-x="517" 
d="M481 407l-24 -121h-239l-31 -163h269l-23 -123h-414l128 674h399l-24 -123h-254l-28 -144h241z" />
    <glyph glyph-name="uni0416" unicode="&#x416;" horiz-adv-x="845" 
d="M85 674h154l116 -287h15l52 287h138l-54 -288h16l218 288h163l-272 -305q29 -10 50 -30.5t34.5 -52t21 -58.5t14.5 -65q16 -111 36 -163h-145q-17 51 -34 162q-10 63 -33 94.5t-69 31.5h-16l-54 -288h-139l55 289h-16q-83 0 -140 -124q-6 -12 -34 -74t-46 -91h-152
q15 23 29 50.5t33 70t27 58.5q44 92 85.5 133.5t110.5 57.5z" />
    <glyph glyph-name="uni0417" unicode="&#x417;" horiz-adv-x="507" 
d="M135 294l19 109h46q59 0 99.5 23t39.5 71q0 33 -23 51t-59 18q-64 0 -136 -37l-29 102q84 53 197 53q84 0 142 -40t58 -122q0 -64 -43 -109t-106 -59l-1 -2q53 -12 87 -51.5t34 -97.5q0 -70 -41 -120t-101.5 -72t-132.5 -22q-117 0 -196 54l44 109q70 -41 150 -41
q53 0 90.5 25t37.5 72q0 44 -38.5 65.5t-84.5 20.5h-53z" />
    <glyph glyph-name="uni0418" unicode="&#x418;" horiz-adv-x="659" 
d="M147 674h136l-39 -206q-28 -146 -66 -294l3 -1q47 79 153 234l183 267h156l-128 -674h-136l40 206q33 172 58 269h-3q-55 -100 -146 -233l-171 -242h-168z" />
    <glyph glyph-name="uni0419" unicode="&#x419;" horiz-adv-x="659" 
d="M147 674h137l-40 -206q-26 -136 -65 -294l3 -1q33 56 152 234l183 267h156l-128 -674h-136l40 206q40 200 58 269h-3q-49 -91 -146 -233l-170 -242h-168zM285 833h101q-7 -60 39 -60q43 0 58 60h102q-13 -59 -56.5 -90.5t-111.5 -31.5q-69 0 -101.5 31t-30.5 91z" />
    <glyph glyph-name="uni041A" unicode="&#x41a;" horiz-adv-x="585" 
d="M147 674h142l-55 -284h16l230 284h177l-282 -305q46 -21 71.5 -73t41.5 -135q27 -131 40 -161h-149q-11 30 -35 154q-13 68 -36 99.5t-75 31.5h-18l-54 -285h-142z" />
    <glyph glyph-name="uni041B" unicode="&#x41b;" horiz-adv-x="637" 
d="M212 674h439l-128 -674h-144l105 551h-158l-32 -163q-26 -132 -57.5 -210t-81.5 -124q-65 -64 -174 -65l-14 121q61 6 100 46q60 65 89 223z" />
    <glyph glyph-name="uni041C" unicode="&#x41c;" horiz-adv-x="821" 
d="M722 0h-140l41 278q22 144 45 263h-3q-63 -147 -116 -254l-138 -276h-112l-24 273q-8 98 -15 257h-2q-7 -31 -18.5 -87l-20.5 -100t-17 -76l-67 -278h-132l169 674h193l21 -256q12 -182 12 -215h4q30 87 91 215l125 256h195z" />
    <glyph glyph-name="uni041D" unicode="&#x41d;" horiz-adv-x="666" 
d="M147 674h144l-50 -263h244l50 263h145l-128 -674h-144l53 283h-245l-53 -283h-144z" />
    <glyph glyph-name="uni041E" unicode="&#x41e;" horiz-adv-x="705" 
d="M321 -11q-127 0 -200 79.5t-73 201.5q0 91 32 175t90 142q101 98 248 98q130 0 201 -78t71 -203q0 -93 -31.5 -177t-87.5 -140q-98 -98 -250 -98zM342 109q82 0 138.5 94t56.5 197q0 72 -31.5 118.5t-104.5 46.5q-57 0 -104.5 -46.5t-71.5 -112t-24 -131.5
q0 -75 35.5 -120.5t105.5 -45.5z" />
    <glyph glyph-name="uni041F" unicode="&#x41f;" horiz-adv-x="652" 
d="M147 674h519l-128 -674h-144l105 551h-230l-106 -551h-144z" />
    <glyph glyph-name="uni0420" unicode="&#x420;" horiz-adv-x="559" 
d="M19 0l125 662q68 17 176 17q116 0 179 -44q73 -49 73 -144q0 -119 -91 -189q-81 -63 -216 -63q-11 0 -21.5 0.5t-21.5 2t-16 1.5l-46 -243h-141zM266 560l-38 -199q25 -5 56 -5q63 0 103 35.5t40 87.5q0 85 -102 85q-35 0 -59 -4z" />
    <glyph glyph-name="uni0421" unicode="&#x421;" horiz-adv-x="582" 
d="M512 135l12 -116q-65 -29 -177 -29q-135 0 -216.5 77t-81.5 209q0 110 45.5 197t124.5 140q104 71 247 71q97 0 148 -28l-40 -117q-46 22 -122 22q-91 0 -154 -52q-93 -78 -93 -217q0 -82 46 -130.5t133 -48.5q76 0 128 22z" />
    <glyph glyph-name="uni0422" unicode="&#x422;" horiz-adv-x="527" 
d="M141 0l104 548h-178l25 126h501l-24 -126h-180l-104 -548h-144z" />
    <glyph glyph-name="uni0423" unicode="&#x423;" horiz-adv-x="556" 
d="M75 674h159l58 -242q9 -34 30 -132h3l56 140l100 234h167l-182 -351l-58.5 -110t-57 -89t-70.5 -80q-62 -55 -151 -55q-57 0 -91 17l25 117q22 -8 56 -8q57 0 93 62q13 21 4 47z" />
    <glyph glyph-name="uni0424" unicode="&#x424;" horiz-adv-x="774" 
d="M268 -29l11 64q-95 18 -160.5 85.5t-65.5 179.5q0 88 33 157t85.5 108.5t110 59.5t113.5 21l11 56h135l-11 -59q96 -17 161 -85t65 -185q0 -85 -30.5 -152t-81 -107t-109.5 -60.5t-121 -21.5l-11 -61h-135zM299 139l76 404q-68 -4 -122 -72t-54 -171q0 -65 28 -107
t72 -54zM510 540l-76 -405q73 5 124.5 71.5t51.5 177.5q0 65 -27 106t-73 50z" />
    <glyph glyph-name="uni0425" unicode="&#x425;" horiz-adv-x="569" 
d="M517 0h-153l-46 136q-32 100 -36 115h-2l-68 -120l-80 -131h-173l252 344l-118 330h152l41 -129q24 -84 31 -112h3q46 84 64 114l78 127h172l-246 -331z" />
    <glyph glyph-name="uni0426" unicode="&#x426;" horiz-adv-x="668" 
d="M147 674h144l-105 -551h227l105 551h144l-105 -557l63 -4l-66 -284h-115l25 171h-445z" />
    <glyph glyph-name="uni0427" unicode="&#x427;" horiz-adv-x="602" 
d="M131 674h144l-37 -191q-7 -35 -7 -56q0 -73 90 -73q56 0 96 24l56 296h143l-128 -675h-144l51 264l-3 1q-52 -27 -132 -27q-83 0 -130.5 41t-47.5 113q0 23 10 81z" />
    <glyph glyph-name="uni0428" unicode="&#x428;" horiz-adv-x="875" 
d="M147 674h141l-105 -551h160l105 551h140l-104 -551h159l105 551h141l-128 -674h-742z" />
    <glyph glyph-name="uni0429" unicode="&#x429;" horiz-adv-x="895" 
d="M148 674h141l-105 -551h160l105 551h140l-104 -551h159l105 551h141l-106 -557l64 -4l-66 -284h-116l25 171h-671z" />
    <glyph glyph-name="uni042A" unicode="&#x42a;" horiz-adv-x="685" 
d="M91 674h312l-47 -235q40 6 72 6q100 0 161 -51.5t61 -146.5q0 -97 -66 -163q-92 -91 -289 -91q-102 0 -162 10l103 546h-169zM334 325l-41 -215q17 -3 51 -3q59 0 105.5 32.5t46.5 89.5q0 48 -30 75t-79 27q-27 0 -53 -6z" />
    <glyph glyph-name="uni042B" unicode="&#x42b;" horiz-adv-x="816" 
d="M145 674h144l-47 -236q35 7 76 7q90 0 149.5 -51t59.5 -146q0 -98 -67 -165q-90 -90 -278 -90q-101 0 -163 10zM220 325l-40 -215q11 -3 50 -3q55 0 99 32.5t44 89.5q0 48 -27.5 75t-72.5 27q-23 0 -53 -6zM679 674h150l-129 -674h-150z" />
    <glyph glyph-name="uni042C" unicode="&#x42c;" horiz-adv-x="572" 
d="M146 674h143l-46 -236q33 7 75 7q97 0 158 -51t61 -147t-65 -161q-94 -93 -290 -93q-102 0 -162 10zM221 325l-41 -215q16 -3 51 -3q59 0 105.5 32.5t46.5 89.5q0 49 -30 75.5t-80 26.5q-24 0 -52 -6z" />
    <glyph glyph-name="uni042D" unicode="&#x42d;" horiz-adv-x="575" 
d="M109 278l21 115h276q1 5 1 16q-2 65 -44.5 109.5t-117.5 44.5q-66 0 -130 -25l-28 109q80 38 178 38q135 0 213.5 -82.5t78.5 -220.5q0 -183 -112 -294q-102 -99 -277 -99q-54 0 -103 12t-75 27l36 114q59 -30 140 -30q87 0 146 46.5t76 119.5h-279z" />
    <glyph glyph-name="uni042E" unicode="&#x42e;" horiz-adv-x="939" 
d="M147 674h144l-50 -264h88q30 108 98 177q96 98 236 98q124 0 193 -78t69 -203q0 -92 -30.5 -176t-84.5 -141q-93 -98 -237 -98q-118 0 -189 77t-71 182q0 18 3 37h-99l-53 -285h-144zM591 108q53 0 96 47t65 113t22 131q0 167 -127 167q-55 0 -99.5 -46.5t-67.5 -112.5
t-23 -132q0 -76 33.5 -121.5t100.5 -45.5z" />
    <glyph glyph-name="uni042F" unicode="&#x42f;" horiz-adv-x="572" 
d="M586 662l-123 -662h-144l51 269h-27q-29 0 -53 -12.5t-44 -39.5t-30 -44t-27 -51q-37 -81 -64 -122h-158q17 26 81 151q33 65 68.5 108t82.5 57v4q-44 12 -77.5 49.5t-33.5 98.5q0 104 90 162q78 49 216 49q119 0 192 -17zM390 375l34 188q-24 4 -53 4q-58 0 -96 -27
t-38 -79q0 -42 31.5 -65t76.5 -23q21 0 45 2z" />
    <glyph glyph-name="uni0430" unicode="&#x430;" horiz-adv-x="554" 
d="M469 0h-132q2 45 6 97h-2q-63 -108 -167 -108q-66 0 -107 47t-41 123q0 64 21.5 123.5t63 108.5t110.5 79t156 30t161 -24l-49 -256q-23 -122 -20 -220zM355 274l21 113q-22 4 -38 4q-67 0 -114.5 -66t-47.5 -139q0 -37 15 -59t44 -22q37 0 71 42.5t49 126.5z" />
    <glyph glyph-name="uni0431" unicode="&#x431;" horiz-adv-x="557" 
d="M572 719l-21 -120q-26 -8 -86 -14q-55 -6 -78 -9.5t-64 -19.5t-70 -44q-51 -48 -67 -115h4q66 92 166 92q80 0 126 -54t46 -138q-1 -126 -80 -217t-204 -91q-93 0 -146 62.5t-53 176.5q0 225 125 355q61 64 130 87.5t175 32.5q67 6 97 16zM261 95q56 0 87 62.5t31 129.5
q0 40 -17.5 69.5t-53.5 29.5q-44 0 -78 -46q-43 -56 -43 -139q0 -45 18.5 -75.5t55.5 -30.5z" />
    <glyph glyph-name="uni0432" unicode="&#x432;" horiz-adv-x="533" 
d="M319 501q83 0 129.5 -30.5t46.5 -90.5q0 -44 -34.5 -74.5t-79.5 -41.5v-2q42 -5 72 -31.5t30 -70.5q0 -46 -24.5 -80.5t-64.5 -53t-83 -27.5t-86 -9q-192 0 -192 151q0 80 33.5 175t93.5 139q66 46 159 46zM306 403q-74 0 -106 -117q81 12 115 28q42 20 42 50
q0 18 -14 28.5t-37 10.5zM263 209q-39 0 -80 -15q-6 -26 -6 -46q0 -59 65 -59q42 0 68.5 19t26.5 48q0 53 -74 53z" />
    <glyph glyph-name="uni0433" unicode="&#x433;" horiz-adv-x="421" 
d="M104 369l-14 96q66 35 157 35q79 -1 121 -36.5t42 -98.5q0 -58 -42.5 -95t-123.5 -71q-46 -20 -68 -35.5t-22 -34.5q0 -34 50 -34q59 0 135 37l15 -101q-77 -41 -172 -41q-83 1 -129.5 35t-46.5 99q0 36 13.5 64t43 49t52 32.5t64.5 28.5q31 13 47 20.5t30 19.5t14 24
q0 32 -53 32q-51 0 -113 -25z" />
    <glyph glyph-name="uni0434" unicode="&#x434;" horiz-adv-x="553" 
d="M140 601l-2 118q19 -5 44.5 -7.5t57 -4t44.5 -2.5q115 -12 172 -65q79 -67 79 -226q0 -59 -10 -116.5t-33.5 -114t-58 -99t-87.5 -69t-118 -26.5q-93 0 -146 54t-53 149q0 73 31 140.5t91 112.5t135 45q94 0 129 -81h3q1 10 1 30q2 68 -43 106q-40 38 -140 45
q-81 8 -96 11zM250 95q52 0 85 63.5t34 123.5q0 41 -17.5 70.5t-54.5 29.5q-38 0 -66.5 -33t-41 -76t-11.5 -84q0 -40 17.5 -67t54.5 -27z" />
    <glyph glyph-name="uni0435" unicode="&#x435;" horiz-adv-x="501" 
d="M412 132l10 -104q-77 -39 -183 -39q-103 0 -157 54.5t-54 152.5q0 76 33.5 144.5t100 114t151.5 45.5q75 0 122.5 -40t47.5 -107q0 -172 -318 -164q2 -31 16 -50q29 -38 94 -38q73 0 137 31zM348 354q0 18 -14.5 29.5t-38.5 11.5q-46 0 -76.5 -31t-39.5 -70
q87 -1 128 12.5t41 47.5z" />
    <glyph glyph-name="uni0436" unicode="&#x436;" horiz-adv-x="726" 
d="M54 489h155l76 -202h14l38 202h136l-41 -202h15l157 202h160l-201 -215q60 -20 81 -144q21 -110 28 -130h-139q-6 16 -22 106q-8 47 -24 73t-52 26h-17l-38 -205h-137l41 205h-13q-71 0 -112 -89q-7 -14 -18.5 -39l-20.5 -43.5t-18 -33.5h-142q10 18 20 39l22 48l20 44
q62 133 151 142z" />
    <glyph glyph-name="uni0437" unicode="&#x437;" horiz-adv-x="461" 
d="M98 206l14 93h57q41 0 71.5 12.5t30.5 38.5q0 23 -19.5 35t-50.5 12q-61 0 -121 -31l-24 87q82 45 178 45q46 0 85.5 -9.5t71.5 -39t32 -77.5q0 -47 -36 -76.5t-89 -39.5l-1 -1q46 -8 78.5 -37t32.5 -76q0 -55 -39.5 -91t-89 -48t-104.5 -12q-118 0 -194 49l37 96
q68 -40 141 -40q39 0 68 14.5t29 41.5q0 54 -100 54h-58z" />
    <glyph glyph-name="uni0438" unicode="&#x438;" horiz-adv-x="560" 
d="M103 489h144l-50 -262q-7 -40 -7 -65q0 -56 49 -56q38 0 71 42.5t47 113.5l43 227h143l-62 -330q-19 -105 -26 -159h-127l9 80h-2q-71 -91 -168 -91q-60 0 -93 34.5t-33 102.5q0 41 10 90z" />
    <glyph glyph-name="uni0439" unicode="&#x439;" horiz-adv-x="560" 
d="M103 489h144l-50 -262q-7 -40 -7 -65q0 -56 49 -56q38 0 71 42.5t47 113.5l43 227h143l-62 -330q-19 -105 -26 -159h-127l9 80h-2q-71 -91 -168 -91q-60 0 -93 34.5t-33 102.5q0 41 10 90zM226 692h91q-4 -30 6 -48t30 -18q39 0 55 66h92q-13 -65 -54 -98.5t-102 -33.5
q-64 0 -93.5 35.5t-24.5 96.5z" />
    <glyph glyph-name="uni043A" unicode="&#x43a;" horiz-adv-x="507" 
d="M106 489h140l-38 -201h14l164 201h169l-214 -218q60 -25 82 -145q19 -95 32 -126h-142q-4 11 -8.5 29t-10.5 46l-9 41q-12 47 -29.5 67.5t-50.5 20.5h-13l-39 -204h-140z" />
    <glyph glyph-name="uni043B" unicode="&#x43b;" horiz-adv-x="545" 
d="M146 490h385l-93 -490h-143l71 379h-108l-19 -93q-34 -175 -107 -238q-57 -55 -152 -55l-9 113q46 5 71 30q44 40 66 153z" />
    <glyph glyph-name="uni043C" unicode="&#x43c;" horiz-adv-x="712" 
d="M130 490h181l19 -191q3 -33 9 -115h2q18 41 64 132l91 174h183l-65 -490h-133l30 196q10 72 27 163h-4q-15 -35 -73 -151l-103 -200h-110l-19 194q-8 93 -13 158h-4q-27 -130 -36 -167l-48 -193h-127z" />
    <glyph glyph-name="uni043D" unicode="&#x43d;" horiz-adv-x="557" 
d="M105 489h144l-34 -180h149l34 180h144l-93 -489h-144l38 198h-149l-37 -198h-144z" />
    <glyph glyph-name="uni043E" unicode="&#x43e;" horiz-adv-x="559" 
d="M236 -11q-94 0 -151 56t-57 147q0 129 82 219t210 90q96 0 152 -57.5t56 -144.5q0 -134 -82.5 -222t-209.5 -88zM256 99q54 0 88.5 64.5t34.5 134.5q0 38 -19 65.5t-58 27.5t-68.5 -34t-43 -78t-13.5 -85q0 -43 21 -69t58 -26z" />
    <glyph glyph-name="uni043F" unicode="&#x43f;" horiz-adv-x="563" 
d="M156 0h-144l62 330q10 49 27 159h127l-9 -81h2q67 92 171 92q60 0 93 -35t33 -99q0 -34 -8 -82l-54 -284h-145l52 271q5 28 5 54q0 59 -49 59q-37 0 -72.5 -45t-49.5 -122z" />
    <glyph glyph-name="uni0440" unicode="&#x440;" horiz-adv-x="565" 
d="M117 -198h-144l95 498q13 69 28 193h129l-9 -75h2q62 82 157 82q76 0 117 -53t41 -133q0 -132 -80 -228.5t-204 -96.5q-56 0 -90 20h-3zM197 227l-18 -106q26 -23 66 -23q56 0 96.5 65t40.5 140q0 33 -15.5 56.5t-47.5 23.5q-42 0 -76 -42.5t-46 -113.5z" />
    <glyph glyph-name="uni0441" unicode="&#x441;" horiz-adv-x="433" 
d="M371 125l1 -109q-54 -26 -139 -26q-92 0 -149 53.5t-57 146.5q0 132 90.5 221t228.5 89q56 0 100 -16l-36 -111q-29 12 -66 12q-74 0 -120 -53.5t-46 -125.5q0 -48 27 -74.5t69 -26.5q47 0 97 20z" />
    <glyph glyph-name="uni0442" unicode="&#x442;" horiz-adv-x="831" 
d="M152 0h-139l61 330q14 81 25 159h123l-9 -79h2q65 91 168 91q54 0 83.5 -28t32.5 -65q65 93 169 93q56 0 87.5 -35t31.5 -97q0 -34 -8 -84l-53 -285h-140l49 268q7 33 7 59q0 58 -48 58q-37 0 -69 -45t-46 -118l-41 -222h-139l51 269q6 40 6 56q0 60 -46 60
q-37 0 -71 -46.5t-47 -118.5z" />
    <glyph glyph-name="uni0443" unicode="&#x443;" horiz-adv-x="497" 
d="M43 489h152l30 -214l9.5 -64t7.5 -53h2l43 115l87 216h152q-1 -3 -71.5 -150.5l-101.5 -208.5q-96 -184 -189 -272q-38 -36 -82.5 -57.5t-74.5 -26.5l-32 124q49 15 83 38q51 35 80 86q5 9 2 23z" />
    <glyph glyph-name="uni0444" unicode="&#x444;" horiz-adv-x="735" 
d="M215 -198l45 234h-2q-39 -47 -106 -47q-56 0 -91 47t-35 133q0 81 29 156.5t84.5 125t123.5 49.5q55 0 76 -47h2l49 257h129l-52 -260h3q44 50 106 50q65 0 98 -51.5t33 -129.5q0 -84 -28.5 -159t-82.5 -123t-121 -48q-27 0 -50.5 12.5t-33.5 32.5h-2l-41 -232h-133z
M281 390q-46 0 -78.5 -68.5t-32.5 -136.5q0 -37 13.5 -58.5t36.5 -21.5q25 0 42.5 20t24.5 49l27 133q3 16 5 44q-1 15 -11 27t-27 12zM516 384q-32 0 -55 -36q-12 -26 -22 -71l-10 -51.5t-10 -56.5q-5 -28 4 -39q4 -11 15.5 -19.5t29.5 -6.5q39 5 67.5 69t28.5 130
q0 35 -11.5 58t-36.5 23z" />
    <glyph glyph-name="uni0445" unicode="&#x445;" horiz-adv-x="498" 
d="M49 489h158l29 -73l31 -82h3l52 78l54 77h165l-206 -238l114 -251h-158l-31 78q-15 38 -31 89h-3l-19.5 -33.5t-29.5 -48.5l-59 -85h-166l212 253z" />
    <glyph glyph-name="uni0446" unicode="&#x446;" horiz-adv-x="576" 
d="M103 489h144l-50 -262q-7 -40 -7 -65q0 -56 49 -56q38 0 71 42.5t47 113.5l42 227h144l-53 -282q-10 -48 -10 -70q0 -59 69 -60l-75 -233h-103l42 156q-27 8 -43 32q-12 17 -16 52h-2q-72 -97 -177 -95q-62 0 -98 34.5t-36 102.5q0 41 10 90z" />
    <glyph glyph-name="uni0447" unicode="&#x447;" horiz-adv-x="538" 
d="M89 489h144l-23 -113q-8 -45 -8 -58q0 -54 63 -54q46 0 77 26l38 199h143l-94 -489h-143l38 186h-2q-49 -27 -116 -27q-76 0 -114 34t-38 92q0 31 10 78z" />
    <glyph glyph-name="uni0448" unicode="&#x448;" horiz-adv-x="826" 
d="M102 489h140l-49 -267q-7 -33 -7 -59q0 -58 47 -58q36 0 67.5 44.5t45.5 118.5l41 221h139l-51 -269q-6 -38 -6 -55q0 -60 45 -60q36 0 69.5 46.5t46.5 117.5l40 220h140l-61 -328q-10 -55 -15 -161h-129q1 33 5 81h-2q-64 -92 -167 -92q-53 0 -82.5 28t-32.5 65
q-65 -93 -168 -93q-55 0 -86 35t-31 97q0 34 8 84z" />
    <glyph glyph-name="uni0449" unicode="&#x449;" horiz-adv-x="844" 
d="M102 489h140l-49 -267q-7 -33 -7 -59q0 -58 47 -58q36 0 67 44.5t45 118.5l42 221h139l-51 -269q-6 -38 -6 -55q0 -60 45 -60q36 0 70 46.5t47 117.5l40 220h139l-50 -274q-11 -70 -11 -80q0 -57 69 -58l-75 -233h-103l41 156q-23 5 -41 31t-20 53h-3q-67 -95 -176 -95
q-53 0 -82.5 28t-32.5 65q-65 -93 -167 -93q-56 0 -87 35t-31 97q0 34 8 84z" />
    <glyph glyph-name="uni044A" unicode="&#x44a;" horiz-adv-x="579" 
d="M55 489h323q-79 -116 -109 -189h1q50 45 130 45q61 0 100 -36t39 -99q0 -85 -72 -152t-192 -67q-178 0 -178 141q0 54 28 121.5t69 124.5h-160zM294 93q42 0 73 26t31 66q0 27 -16 42t-43 15q-30 0 -55 -18t-35 -41q-9 -18 -9 -38q0 -22 14 -37t40 -15z" />
    <glyph glyph-name="uni044B" unicode="&#x44b;" horiz-adv-x="743" 
d="M111 489h142l-48 -189h2q51 45 128 45q60 0 97 -35.5t37 -98.5q0 -87 -71 -153.5t-197 -66.5q-166 0 -166 118q0 34 14 99zM231 93q37 0 67 26t30 66q0 27 -15 42t-41 15q-30 0 -55.5 -21.5t-32.5 -46.5q-6 -18 -6 -37q0 -44 53 -44zM578 489h151l-94 -489h-151z" />
    <glyph glyph-name="uni044C" unicode="&#x44c;" horiz-adv-x="517" 
d="M112 489h141l-48 -188l1 -1q51 45 130 45q61 0 101 -36t40 -99q0 -90 -72 -154.5t-201 -64.5q-169 0 -169 123q0 34 15 94zM231 93q40 0 72.5 25.5t32.5 65.5q0 27 -15.5 42.5t-42.5 15.5q-33 0 -58.5 -20.5t-34.5 -44.5q-7 -18 -7 -38q0 -46 53 -46z" />
    <glyph glyph-name="uni044D" unicode="&#x44d;" horiz-adv-x="471" 
d="M89 198l16 92h188v9q0 40 -29 66t-82 26q-57 0 -102 -19l-23 100q70 28 145 28q112 0 172.5 -62.5t60.5 -168.5q0 -126 -79.5 -202.5t-221.5 -76.5q-92 3 -148 34l34 100q50 -24 116 -24q54 0 92.5 25.5t51.5 72.5h-191z" />
    <glyph glyph-name="uni044E" unicode="&#x44e;" horiz-adv-x="763" 
d="M105 489h145l-35 -184h65q29 88 97 142t158 54t144 -59t54 -149q0 -130 -78.5 -217t-198.5 -87q-88 0 -140 52.5t-52 135.5q0 4 0.5 12t0.5 13h-70l-38 -202h-144zM474 99q48 0 80.5 64.5t32.5 133.5q0 39 -16.5 66.5t-51.5 27.5t-62.5 -34.5t-40.5 -78.5t-13 -84
q0 -43 18.5 -69t52.5 -26z" />
    <glyph glyph-name="uni044F" unicode="&#x44f;" horiz-adv-x="531" 
d="M517 488l-93 -488h-141l35 185h-29q-66 0 -108 -82q-39 -77 -55 -103h-154q13 19 25 39.5t25 47.5t21 41q47 85 118 99v3q-37 7 -68 36t-31 72q0 161 278 161q91 0 177 -11zM336 277l23 121q-30 4 -52 4q-98 0 -98 -66q0 -29 26 -44t62 -15h39z" />
    <glyph glyph-name="uni0451" unicode="&#x451;" horiz-adv-x="501" 
d="M412 132l10 -104q-77 -39 -183 -39q-103 0 -157 54.5t-54 152.5q0 76 33.5 144.5t100 114t151.5 45.5q75 0 122.5 -40t47.5 -107q0 -172 -318 -164q2 -31 16 -50q29 -38 94 -38q73 0 137 31zM348 354q0 18 -14.5 29.5t-38.5 11.5q-46 0 -76.5 -31t-39.5 -70
q87 -1 128 12.5t41 47.5zM223 554q-27 0 -46.5 18t-19.5 48q0 33 22 54t54 21q29 0 47 -19t18 -47q0 -34 -21.5 -54.5t-53.5 -20.5zM429 554q-28 0 -47 18t-19 48q0 33 22 54t54 21q29 0 47 -19t18 -47q0 -34 -21.5 -54.5t-53.5 -20.5z" />
    <glyph glyph-name="uni0452" unicode="&#x452;" horiz-adv-x="563" 
d="M148 710h143l-12 -65h225l-18 -95h-225l-22 -117h2q57 60 133 60q77 0 115 -57.5t38 -145.5q0 -99 -30.5 -187.5t-89.5 -149.5q-34 -40 -86.5 -66.5t-101.5 -31.5l-22 118q52 9 96 55q36 35 60 99.5t24 136.5q0 110 -67 110q-36 0 -65 -35t-40 -95l-47 -244h-144l104 550
h-56l20 95h54z" />
    <glyph glyph-name="uni0453" unicode="&#x453;" horiz-adv-x="421" 
d="M104 369l-14 96q66 35 157 35q79 -1 121 -36.5t42 -98.5q0 -58 -42.5 -95t-123.5 -71q-46 -20 -68 -35.5t-22 -34.5q0 -34 50 -34q59 0 135 37l15 -101q-77 -41 -172 -41q-83 1 -129.5 35t-46.5 99q0 36 13.5 64t43 49t52 32.5t64.5 28.5q31 13 47 20.5t30 19.5t14 24
q0 32 -53 32q-51 0 -113 -25zM303 700h142l-130 -152h-106z" />
    <glyph glyph-name="uni0454" unicode="&#x454;" horiz-adv-x="443" 
d="M456 476l-34 -102q-34 18 -86 18q-53 0 -91.5 -27t-53.5 -74h190l-16 -92h-188v-11q5 -40 35 -63.5t78 -23.5q52 0 97 19l7 -104q-55 -27 -144 -27q-98 0 -159 59t-61 160q0 125 79 207q88 86 225 86q76 0 122 -25z" />
    <glyph glyph-name="uni0455" unicode="&#x455;" horiz-adv-x="416" 
d="M-4 28l35 101q68 -34 127 -34q30 0 46 12.5t16 31.5q0 18 -13.5 32.5t-47.5 30.5q-103 52 -103 130q0 76 60 122.5t155 46.5q80 0 126 -25l-35 -102q-47 21 -97 21q-29 0 -46.5 -11.5t-17.5 -31.5q0 -28 59 -55q110 -55 110 -135q0 -82 -62.5 -128t-162.5 -44
q-99 2 -149 38z" />
    <glyph glyph-name="uni0456" unicode="&#x456;" horiz-adv-x="267" 
d="M157 0h-144l93 489h144zM197 553h-2q-32 0 -52.5 21t-20.5 54q0 38 26 62.5t62 24.5q34 0 55.5 -20.5t21.5 -54.5q0 -40 -26 -63.5t-64 -23.5z" />
    <glyph glyph-name="uni0457" unicode="&#x457;" horiz-adv-x="265" 
d="M156 0h-143l92 489h145zM95 554q-27 0 -46.5 18t-19.5 48q0 33 22 54t54 21q29 0 47 -19t18 -47q0 -34 -21.5 -54.5t-53.5 -20.5zM301 554q-28 0 -47 18t-19 48q0 33 22 54t54 21q29 0 47 -19t18 -47q0 -34 -21.5 -54.5t-53.5 -20.5z" />
    <glyph glyph-name="uni0458" unicode="&#x458;" horiz-adv-x="275" 
d="M121 489h143l-88 -473q-23 -121 -69 -173t-133 -52q-40 0 -69 8l16 108q20 -2 32 -2q28 0 47 22t30 83zM205 553q-32 0 -52.5 21t-20.5 54q0 37 26 62t62 25q34 0 55.5 -20.5t21.5 -54.5q0 -40 -26.5 -63.5t-65.5 -23.5z" />
    <glyph glyph-name="uni0459" unicode="&#x459;" horiz-adv-x="785" 
d="M135 490h377l-39 -188h2q51 43 129 43q61 0 101 -35.5t40 -98.5q0 -88 -72 -154t-204 -66q-166 0 -166 122q0 32 13 95l36 171h-106l-18 -94q-19 -95 -43.5 -150t-63.5 -88q-56 -54 -141 -54l-9 114q36 3 60 29q43 39 66 152zM500 93q39 0 71.5 25.5t32.5 65.5
q0 27 -15.5 42.5t-42.5 15.5q-33 0 -58.5 -20.5t-34.5 -46.5q-7 -17 -7 -34q0 -48 54 -48z" />
    <glyph glyph-name="uni045A" unicode="&#x45a;" horiz-adv-x="793" 
d="M105 489h144l-33 -175h131l35 175h140l-39 -188h1q50 44 127 44q61 0 101.5 -36t40.5 -99q0 -88 -72.5 -153.5t-203.5 -65.5q-165 0 -165 115q0 22 6 60l8 39h-131l-38 -205h-144zM508 93q42 0 73 25t31 66q0 27 -15.5 42.5t-42.5 15.5q-33 0 -58.5 -21t-33.5 -46
q-7 -21 -7 -37q0 -20 15 -32.5t38 -12.5z" />
    <glyph glyph-name="uni045B" unicode="&#x45b;" horiz-adv-x="564" 
d="M149 710h144l-13 -67h209l-19 -92h-208l-24 -125h2q67 74 156 74q57 0 90 -34.5t33 -97.5q0 -39 -9 -88l-53 -280h-144l51 268q6 28 6 60q0 56 -49 56q-39 0 -73 -44t-47 -116l-43 -224h-144l104 551h-68l19 92h67z" />
    <glyph glyph-name="uni045C" unicode="&#x45c;" horiz-adv-x="507" 
d="M106 489h140l-38 -201h14l164 201h169l-214 -218q60 -25 82 -145q19 -95 32 -126h-142q-4 11 -8.5 29t-10.5 46l-9 41q-12 47 -29.5 67.5t-50.5 20.5h-13l-39 -204h-140zM337 700h142l-130 -152h-105z" />
    <glyph glyph-name="uni045E" unicode="&#x45e;" horiz-adv-x="497" 
d="M43 489h152l30 -214l9.5 -64t7.5 -53h2l43 115l87 216h152q-1 -3 -71.5 -150.5l-101.5 -208.5q-96 -184 -189 -272q-38 -36 -82.5 -57.5t-74.5 -26.5l-32 124q49 15 83 38q51 35 80 86q5 9 2 23zM181 692h91q-4 -30 6 -48t30 -18q40 0 55 66h92q-13 -65 -54 -98.5
t-102 -33.5q-64 0 -93.5 35.5t-24.5 96.5z" />
    <glyph glyph-name="uni045F" unicode="&#x45f;" horiz-adv-x="560" 
d="M103 489h144l-50 -262q-7 -40 -7 -65q0 -56 49 -56q38 0 71 42.5t47 113.5l43 227h143l-62 -330q-19 -105 -26 -159h-127l9 79l-2 1q-36 -46 -80.5 -68.5t-87.5 -22.5q-60 0 -93 34.5t-33 102.5q0 41 10 90zM249 -193l-116 -16l36 162l127 9z" />
    <glyph glyph-name="uni0490" unicode="&#x490;" horiz-adv-x="447" 
d="M146 674h251l45 132h110l-64 -258h-221l-104 -548h-144z" />
    <glyph glyph-name="uni0491" unicode="&#x491;" horiz-adv-x="404" 
d="M106 489h204l41 114h106l-53 -227h-176l-71 -376h-144z" />
    <glyph glyph-name="uni04D9" unicode="&#x4d9;" horiz-adv-x="497" 
d="M87 357l-16 102q81 42 184 42t157.5 -55.5t54.5 -153.5q0 -76 -33 -144t-99 -113t-151 -45q-77 0 -124.5 39.5t-47.5 107.5q0 172 317 164q0 29 -14 49q-29 39 -94 39q-70 0 -134 -32zM201 95q46 0 76 31t38 70q-87 1 -127.5 -12.5t-40.5 -46.5q0 -19 14.5 -30.5
t39.5 -11.5z" />
    <glyph glyph-name="Wgrave" unicode="&#x1e80;" horiz-adv-x="864" 
d="M278 0h-160l-26 674h146v-300q0 -98 -4 -218h2l80 216l120 302h158l-2 -301q0 -82 -6 -214h2l74 215l117 300h151l-297 -674h-156l-5 277q-1 111 6 223h-2q-61 -176 -82 -227zM346 837h157l77 -125h-119z" />
    <glyph glyph-name="wgrave" unicode="&#x1e81;" horiz-adv-x="733" 
d="M51 489h146l1 -207q0 -66 -5 -156h2q12 37 60 151l96 212h118l12 -205q4 -109 1 -158h3q17 58 53 160l84 203h145l-238 -489h-135l-14 170q-4 52 -4 157h-2q-48 -128 -58 -150l-83 -177h-136zM274 700h139l75 -152h-103z" />
    <glyph glyph-name="Wacute" unicode="&#x1e82;" horiz-adv-x="864" 
d="M278 0h-160l-26 674h146v-300q0 -98 -4 -218h2l80 216l120 302h158l-2 -301q0 -82 -6 -214h2l74 215l117 300h151l-297 -674h-156l-5 277q-1 111 6 223h-2q-61 -176 -82 -227zM540 836h160l-132 -126h-122z" />
    <glyph glyph-name="wacute" unicode="&#x1e83;" horiz-adv-x="733" 
d="M51 489h146l1 -207q0 -66 -5 -156h2q12 37 60 151l96 212h118l12 -205q4 -109 1 -158h3q17 58 53 160l84 203h145l-238 -489h-135l-14 170q-4 52 -4 157h-2q-48 -128 -58 -150l-83 -177h-136zM441 700h142l-130 -152h-106z" />
    <glyph glyph-name="Wdieresis" unicode="&#x1e84;" horiz-adv-x="864" 
d="M278 0h-160l-26 674h146v-300q0 -98 -4 -218h2l80 216l120 302h158l-2 -301q0 -82 -6 -214h2l74 215l117 300h151l-297 -674h-156l-5 277q-1 111 6 223h-2q-61 -176 -82 -227zM426 711h-2q-26 0 -45 18t-19 46q0 32 21 52.5t52 20.5q28 0 46 -18.5t18 -45.5
q0 -32 -21 -52.5t-50 -20.5zM632 711q-26 0 -45 18t-19 46q0 32 21 52.5t52 20.5q28 0 46 -18.5t18 -45.5q0 -32 -21.5 -52.5t-51.5 -20.5z" />
    <glyph glyph-name="wdieresis" unicode="&#x1e85;" horiz-adv-x="733" 
d="M51 490h146l1 -208q0 -88 -5 -156h3q12 39 59 151l96 213h118l12 -206q4 -109 1 -158h3q17 58 53 160l84 204h145l-238 -490h-135l-14 170q-4 69 -4 157h-2q-48 -128 -58 -150l-83 -177h-136zM326 554q-27 0 -46.5 18t-19.5 48q0 33 22 54t54 21q29 0 47 -19t18 -47
q0 -34 -21.5 -54.5t-53.5 -20.5zM531 554q-28 0 -47 18t-19 48q0 33 22 54t54 21q29 0 47 -19t18 -47q0 -34 -21.5 -54.5t-53.5 -20.5z" />
    <glyph glyph-name="uni1EA0" unicode="&#x1ea0;" horiz-adv-x="618" 
d="M399 175h-194l-79 -175h-154l328 674h185l79 -674h-152zM247 285h146l-14 145q-2 34 -9 132h-2l-23 -58.5t-31 -73.5zM242 -217q-29 0 -49 20.5t-20 47.5q0 29 20.5 49t49.5 20q28 0 47.5 -20t19.5 -49q0 -28 -19.5 -48t-48.5 -20z" />
    <glyph glyph-name="uni1EA1" unicode="&#x1ea1;" horiz-adv-x="554" 
d="M466 0h-132l3 51.5t3 45.5h-2q-60 -108 -165 -108q-66 0 -107 47t-41 123q0 64 21.5 123.5t63 108.5t110.5 79t155 30t162 -24l-51 -256q-23 -122 -20 -220zM353 274l22 113q-22 4 -39 4q-66 0 -113.5 -66t-47.5 -139q0 -37 15 -59t44 -22q36 0 69.5 42.5t49.5 126.5z
M217 -221h-2q-30 0 -50 20.5t-20 49.5q0 31 20.5 51t50.5 20q29 0 48.5 -20t19.5 -51q0 -29 -19.5 -49.5t-47.5 -20.5z" />
    <glyph glyph-name="uni1EA2" unicode="&#x1ea2;" horiz-adv-x="618" 
d="M399 175h-194l-79 -175h-154l328 674h185l79 -674h-152zM247 285h146l-14 145q-2 34 -9 132h-2l-23 -58.5t-31 -73.5zM427 703l-65 24q8 15 33.5 40t25.5 43q0 12 -7.5 19.5t-20.5 7.5q-19 0 -46 -29l-42 31q51 72 122 72q41 0 66.5 -22.5t25.5 -56.5q0 -27 -15 -47
t-40 -42t-37 -40z" />
    <glyph glyph-name="uni1EA3" unicode="&#x1ea3;" horiz-adv-x="554" 
d="M466 0h-132l3 51.5t3 45.5h-2q-60 -108 -165 -108q-66 0 -107 47t-41 123q0 64 21.5 123.5t63 108.5t110.5 79t155 30t162 -24l-51 -256q-23 -122 -20 -220zM353 274l22 113q-22 4 -39 4q-66 0 -113.5 -66t-47.5 -139q0 -37 15 -59t44 -22q36 0 69.5 42.5t49.5 126.5z
M368 528l-72 20q8 20 37.5 49t29.5 50q0 13 -7.5 21t-18.5 8q-25 0 -50 -36l-46 32q50 78 127 78q41 0 66 -23.5t25 -58.5q0 -31 -16.5 -54.5t-41 -46t-33.5 -39.5z" />
    <glyph glyph-name="uni1EA4" unicode="&#x1ea4;" horiz-adv-x="618" 
d="M399 175h-194l-79 -175h-154l328 674h185l79 -674h-152zM247 285h146l-14 145q-2 34 -9 132h-2l-23 -58.5t-31 -73.5zM374 833h103l65 -123h-97l-28 63h-2l-59 -63h-109zM605 913h118l-135 -112h-72z" />
    <glyph glyph-name="uni1EA5" unicode="&#x1ea5;" horiz-adv-x="554" 
d="M466 0h-132l3 51.5t3 45.5h-2q-60 -108 -165 -108q-66 0 -107 47t-41 123q0 64 21.5 123.5t63 108.5t110.5 79t155 30t162 -24l-51 -256q-23 -122 -20 -220zM353 274l22 113q-22 4 -39 4q-66 0 -113.5 -66t-47.5 -139q0 -37 15 -59t44 -22q36 0 69.5 42.5t49.5 126.5z
M321 702h105l63 -152h-93l-30 87h-2l-58 -87h-100zM561 795h115l-131 -147h-75z" />
    <glyph glyph-name="uni1EA6" unicode="&#x1ea6;" horiz-adv-x="618" 
d="M399 175h-194l-79 -175h-154l328 674h185l79 -674h-152zM247 285h146l-14 145q-2 34 -9 132h-2l-23 -58.5t-31 -73.5zM462 901h119l56 -113h-73zM373 833h103l66 -123h-98l-27 63h-2l-60 -63h-108z" />
    <glyph glyph-name="uni1EA7" unicode="&#x1ea7;" horiz-adv-x="554" 
d="M466 0h-132l3 51.5t3 45.5h-3q-60 -108 -164 -108q-66 0 -107 47t-41 123q0 64 21.5 123.5t63 108.5t110.5 79t155 30t162 -24l-51 -256q-23 -122 -20 -220zM353 274l22 113q-22 4 -39 4q-66 0 -113.5 -66t-47.5 -139q0 -37 15 -59t44 -22q36 0 69.5 42.5t49.5 126.5z
M403 797h106l71 -148h-68zM311 702h106l62 -152h-93l-30 87h-2l-58 -87h-100z" />
    <glyph glyph-name="uni1EA8" unicode="&#x1ea8;" horiz-adv-x="618" 
d="M399 175h-194l-79 -175h-154l328 674h185l79 -674h-152zM247 285h146l-14 145q-2 34 -9 132h-2l-23 -58.5t-31 -73.5zM597 755l-60 23q9 17 33.5 38t24.5 37q0 11 -8 18.5t-21 7.5q-22 0 -46 -26l-37 36q48 58 113 58q38 0 62 -21t24 -53q0 -20 -9.5 -37t-22 -27
t-28.5 -25t-25 -29zM374 833h103l65 -123h-97l-28 63h-2l-59 -63h-108z" />
    <glyph glyph-name="uni1EA9" unicode="&#x1ea9;" horiz-adv-x="554" 
d="M466 0h-132l3 51.5t3 45.5h-3q-60 -108 -164 -108q-66 0 -107.5 47t-40.5 123q0 64 21.5 123.5t63 108.5t110.5 79t155 30t162 -24l-51 -256q-23 -122 -20 -220zM353 274l22 113q-22 4 -39 4q-66 0 -113.5 -66t-47.5 -139q0 -37 15 -59t44 -22q36 0 69.5 42.5t49.5 126.5
zM311 702h106l62 -152h-93l-30 87h-2l-58 -87h-100zM532 632l-60 23q9 17 34 37.5t25 37.5q0 11 -8.5 18.5t-20.5 7.5q-22 0 -46 -26l-37 36q46 58 112 58q39 0 63 -21t24 -54q0 -26 -14.5 -44.5t-38 -37.5t-33.5 -35z" />
    <glyph glyph-name="uni1EAA" unicode="&#x1eaa;" horiz-adv-x="618" 
d="M399 175h-194l-79 -175h-154l328 674h185l79 -674h-152zM247 285h146l-14 145q-2 34 -9 132h-2l-23 -58.5t-31 -73.5zM359 849h-70q4 52 29.5 81.5t64.5 29.5q28 0 61 -20q30 -17 41 -17q13 0 19.5 8.5t11.5 31.5h69q-10 -112 -95 -112q-23 0 -65 22q-26 14 -37 14
q-23 0 -29 -38zM374 833h103l65 -123h-97l-28 63h-2l-59 -63h-108z" />
    <glyph glyph-name="uni1EAB" unicode="&#x1eab;" horiz-adv-x="554" 
d="M466 0h-132l3 51.5t3 45.5h-3q-60 -108 -164 -108q-66 0 -107 47t-41 123q0 64 21.5 123.5t63 108.5t110.5 79t155 30t162 -24l-51 -256q-23 -122 -20 -220zM353 274l22 113q-22 4 -39 4q-66 0 -113.5 -66t-47.5 -139q0 -37 15 -59t44 -22q36 0 69.5 42.5t49.5 126.5z
M296 707h-70q5 52 30.5 81t63.5 29q26 0 62 -19q28 -17 41 -17q12 0 19 8.5t11 31.5h69q-8 -112 -94 -112q-23 0 -65 21q-25 15 -38 15q-21 0 -29 -38zM313 681h98l70 -131h-91l-32 68h-2l-49 -68h-101z" />
    <glyph glyph-name="uni1EAC" unicode="&#x1eac;" horiz-adv-x="618" 
d="M399 175h-194l-79 -175h-154l328 674h185l79 -674h-152zM247 285h146l-14 145q-2 34 -9 132h-2l-23 -58.5t-31 -73.5zM363 836h109l80 -126h-101l-41 61h-2l-58 -61h-111zM244 -217q-29 0 -49 20.5t-20 47.5q0 29 20.5 49t49.5 20q28 0 47.5 -20t19.5 -49
q0 -28 -19.5 -48t-48.5 -20z" />
    <glyph glyph-name="uni1EAD" unicode="&#x1ead;" horiz-adv-x="554" 
d="M466 0h-132l3 51.5t3 45.5h-2q-60 -108 -165 -108q-66 0 -107 47t-41 123q0 64 21.5 123.5t63 108.5t110.5 79t155 30t162 -24l-51 -256q-23 -122 -20 -220zM353 274l22 113q-22 4 -39 4q-66 0 -113.5 -66t-47.5 -139q0 -37 15 -59t44 -22q36 0 69.5 42.5t49.5 126.5z
M318 700h98l75 -152h-93l-40 79h-2l-58 -79h-102zM225 -221q-30 0 -50 20.5t-20 49.5q0 31 20.5 51t50.5 20q29 0 48.5 -20t19.5 -51q0 -29 -19.5 -49.5t-49.5 -20.5z" />
    <glyph glyph-name="uni1EAE" unicode="&#x1eae;" horiz-adv-x="618" 
d="M399 175h-194l-79 -175h-154l328 674h185l79 -674h-152zM247 285h146l-14 145q-2 34 -9 132h-2l-23 -58.5t-31 -73.5zM439 924h127l-134 -114h-67zM273 820h75q0 -20 14.5 -34t42.5 -14q59 0 70 48h76q-10 -55 -47.5 -88t-106.5 -33t-99.5 33.5t-24.5 87.5z" />
    <glyph glyph-name="uni1EAF" unicode="&#x1eaf;" horiz-adv-x="554" 
d="M466 0h-132q2 45 6 97h-3q-60 -108 -164 -108q-66 0 -107 47t-41 123q0 64 21.5 123.5t63 108.5t110.5 79t155 30t162 -24l-51 -256q-23 -122 -20 -220zM353 274l22 113q-22 4 -40 4q-66 0 -113 -66t-47 -139q0 -37 15 -59t43 -22q36 0 70 42.5t50 126.5zM396 810h118
l-125 -148h-79zM220 662h71q1 -26 16 -41.5t43 -15.5q31 0 50 17t24 40h75q-9 -59 -50.5 -95t-105.5 -36q-67 0 -98 37t-25 94z" />
    <glyph glyph-name="uni1EB0" unicode="&#x1eb0;" horiz-adv-x="618" 
d="M399 175h-194l-79 -175h-154l328 674h185l79 -674h-152zM247 285h146l-14 145q-2 34 -9 132h-2l-23 -58.5t-31 -73.5zM275 924h126l56 -113h-66zM276 820h75q-1 -20 14 -34t43 -14q59 0 70 48h75q-9 -54 -46.5 -87.5t-106.5 -33.5t-99.5 33.5t-24.5 87.5z" />
    <glyph glyph-name="uni1EB1" unicode="&#x1eb1;" horiz-adv-x="554" 
d="M466 0h-132q2 45 6 97h-3q-60 -108 -164 -108q-66 0 -107 47t-41 123q0 64 21.5 123.5t63 108.5t110.5 79t155 30t162 -24l-51 -256q-23 -122 -20 -220zM353 274l22 113q-22 4 -39 4q-66 0 -113.5 -66t-47.5 -139q0 -37 15 -59t43 -22q36 0 70 42.5t50 126.5zM213 810
h115l73 -149h-76zM220 661h71q1 -25 16 -40.5t43 -15.5q30 0 49 16.5t25 39.5h75q-10 -59 -51 -94.5t-105 -35.5q-67 0 -98 37t-25 93z" />
    <glyph glyph-name="uni1EB2" unicode="&#x1eb2;" horiz-adv-x="618" 
d="M399 175h-195l-79 -175h-154l329 674h185l79 -674h-152zM247 285h146l-14 145q-2 34 -9 132h-2l-23 -58.5t-31 -73.5zM428 795l-60 23q8 17 33 38t25 37q0 11 -8 18.5t-21 7.5q-22 0 -46 -26l-37 36q48 58 113 58q39 0 62.5 -21t23.5 -54q0 -26 -14 -44.5t-37.5 -37.5
t-33.5 -35zM276 819l74 1q0 -20 14.5 -34t42.5 -14q59 0 70 48h76q-9 -54 -47 -87t-107 -33t-99 33t-24 86z" />
    <glyph glyph-name="uni1EB3" unicode="&#x1eb3;" horiz-adv-x="554" 
d="M466 0h-132l3 51.5t3 45.5h-3q-59 -108 -164 -108q-66 0 -107 47t-41 123q0 64 21.5 123.5t63 108.5t110.5 79t155 30t162 -24l-51 -256q-23 -122 -20 -220zM353 274l22 113q-22 4 -39 4q-66 0 -113.5 -66t-47.5 -139q0 -37 15 -59t44 -22q36 0 69.5 42.5t49.5 126.5z
M220 665h71q1 -26 16 -41.5t43 -15.5q30 0 49 16.5t25 40.5h75q-10 -60 -51 -95t-105 -35q-67 0 -98 37t-25 93zM372 649l-60 23q9 17 33.5 37.5t24.5 36.5q0 12 -8 19.5t-21 7.5q-23 0 -45 -27l-38 37q47 57 113 57q39 0 62.5 -20.5t23.5 -53.5q0 -26 -14 -44.5
t-37.5 -37.5t-33.5 -35z" />
    <glyph glyph-name="uni1EB4" unicode="&#x1eb4;" horiz-adv-x="618" 
d="M399 175h-194l-79 -175h-154l328 674h185l79 -674h-152zM247 285h146l-14 145q-2 34 -9 132h-2l-23 -58.5t-31 -73.5zM275 820h79q0 -21 13 -34.5t40 -13.5q54 0 65 48h80q-9 -54 -46.5 -87.5t-106.5 -33.5t-99.5 33.5t-24.5 87.5zM347 849h-71q10 55 35.5 85.5
t61.5 30.5q30 0 62 -20q29 -20 41 -20q13 0 20 9.5t15 34.5h69q-20 -123 -101 -123q-31 0 -63 18q-30 19 -40 18q-20 0 -29 -33z" />
    <glyph glyph-name="uni1EB5" unicode="&#x1eb5;" horiz-adv-x="554" 
d="M466 0h-132q2 45 6 97h-2q-60 -108 -165 -108q-66 0 -107 47t-41 123q0 64 21.5 123.5t63 108.5t110.5 79t155 30t162 -24l-51 -256q-23 -122 -20 -220zM353 274l22 113q-22 4 -39 4q-66 0 -113.5 -66t-47.5 -139q0 -37 15 -59t44 -22q36 0 69.5 42.5t49.5 126.5z
M230 664h73q2 -56 47 -56q51 0 65 56h75q-10 -60 -47.5 -95t-99.5 -35q-66 0 -93 35.5t-20 94.5zM297 700h-70q9 55 34.5 85.5t61.5 30.5q29 0 63 -20q27 -20 41 -20q22 0 34 44h69q-18 -123 -100 -123q-32 0 -64 18q-30 19 -40 18q-18 0 -29 -33z" />
    <glyph glyph-name="uni1EB6" unicode="&#x1eb6;" horiz-adv-x="618" 
d="M399 175h-194l-79 -175h-154l328 674h185l79 -674h-152zM247 285h146l-14 145q-2 34 -9 132h-2l-23 -58.5t-31 -73.5zM278 845h80q0 -21 13 -35t40 -14q55 0 66 49h82q-10 -55 -48 -88.5t-108 -33.5t-100.5 34t-24.5 88zM240 -217q-29 0 -49 20.5t-20 47.5q0 29 20.5 49
t49.5 20q28 0 47.5 -20t19.5 -49q0 -28 -19.5 -48t-48.5 -20z" />
    <glyph glyph-name="uni1EB7" unicode="&#x1eb7;" horiz-adv-x="554" 
d="M466 0h-132l3 51.5t3 45.5h-2q-60 -108 -165 -108q-66 0 -107 47t-41 123q0 64 21.5 123.5t63 108.5t110.5 79t155 30t162 -24l-51 -256q-23 -122 -20 -220zM353 274l22 113q-22 4 -39 4q-66 0 -113.5 -66t-47.5 -139q0 -37 15 -59t44 -22q36 0 70 42.5t49 126.5z
M238 690h73q4 -56 47 -56q51 0 65 56h75q-10 -61 -47 -95.5t-99 -34.5q-66 0 -93.5 35.5t-20.5 94.5zM219 -221h-2q-30 0 -50 20.5t-20 49.5q0 31 20.5 51t50.5 20q29 0 48.5 -20t19.5 -51q0 -29 -19.5 -49.5t-47.5 -20.5z" />
    <glyph glyph-name="uni1EB8" unicode="&#x1eb8;" horiz-adv-x="517" 
d="M481 407l-24 -121h-239l-31 -163h269l-23 -123h-414l128 674h399l-24 -123h-254l-28 -144h241zM210 -217q-29 0 -49 20.5t-20 47.5q0 29 20.5 49t49.5 20q28 0 47.5 -20t19.5 -49q0 -28 -19.5 -48t-48.5 -20z" />
    <glyph glyph-name="uni1EB9" unicode="&#x1eb9;" horiz-adv-x="501" 
d="M412 132l10 -104q-77 -39 -183 -39q-103 0 -157 54.5t-54 152.5q0 76 33.5 144.5t100 114t151.5 45.5q75 0 122.5 -40t47.5 -107q0 -172 -318 -164q2 -31 16 -50q29 -38 94 -38q73 0 137 31zM348 354q0 18 -14.5 29.5t-38.5 11.5q-46 0 -76.5 -31t-39.5 -70
q87 -1 128 12.5t41 47.5zM207 -221q-30 0 -50 20.5t-20 49.5q0 31 20.5 51t50.5 20q29 0 48.5 -20t19.5 -51q0 -29 -19.5 -49.5t-49.5 -20.5z" />
    <glyph glyph-name="uni1EBA" unicode="&#x1eba;" horiz-adv-x="517" 
d="M481 407l-24 -121h-239l-31 -163h269l-23 -123h-414l128 674h399l-24 -123h-254l-28 -144h241zM378 703l-66 24q8 14 33.5 39t25.5 44q0 27 -27 27q-21 0 -46 -29l-42 31q51 72 122 72q41 0 66.5 -22.5t25.5 -56.5q0 -27 -15 -47t-40 -42t-37 -40z" />
    <glyph glyph-name="uni1EBB" unicode="&#x1ebb;" horiz-adv-x="501" 
d="M412 132l10 -104q-77 -39 -183 -39q-103 0 -157 54.5t-54 152.5q0 76 33.5 144.5t100 114t151.5 45.5q75 0 122.5 -40t47.5 -107q0 -172 -318 -164q2 -31 16 -50q29 -38 94 -38q73 0 137 31zM348 354q0 18 -14.5 29.5t-38.5 11.5q-46 0 -76.5 -31t-39.5 -70
q87 -1 128 12.5t41 47.5zM341 528l-72 20q8 20 38 49t30 50q0 13 -7.5 21t-19.5 8q-25 0 -50 -36l-46 32q50 78 127 78q41 0 66 -23.5t25 -58.5q0 -31 -16 -54.5t-40.5 -46t-34.5 -39.5z" />
    <glyph glyph-name="uni1EBC" unicode="&#x1ebc;" horiz-adv-x="517" 
d="M481 407l-24 -121h-239l-31 -163h269l-23 -123h-414l128 674h399l-24 -123h-254l-28 -144h241zM286 715h-71q9 62 35.5 94t63.5 32q32 0 63 -20q29 -19 41 -19q22 0 34 43h69q-20 -123 -100 -123q-34 0 -64 19q-29 18 -40 18q-21 0 -31 -44z" />
    <glyph glyph-name="uni1EBD" unicode="&#x1ebd;" horiz-adv-x="501" 
d="M412 132l10 -104q-77 -39 -183 -39q-103 0 -157 54.5t-54 152.5q0 76 33.5 144.5t100 114t151.5 45.5q75 0 122.5 -40t47.5 -107q0 -172 -318 -164q2 -31 16 -50q29 -38 94 -38q73 0 137 31zM348 354q0 18 -14.5 29.5t-38.5 11.5q-46 0 -76.5 -31t-39.5 -70
q87 -1 128 12.5t41 47.5zM249 558h-70q8 60 33 93t63 33q28 0 62 -20q29 -19 39 -19q12 0 18.5 9t13.5 35h69q-18 -123 -98 -123q-35 0 -64 19q-21 18 -38 18q-19 0 -28 -45z" />
    <glyph glyph-name="uni1EBE" unicode="&#x1ebe;" horiz-adv-x="517" 
d="M480 407l-23 -121h-239l-31 -163h269l-23 -123h-414l128 674h399l-24 -123h-254l-28 -144h240zM331 833h103l66 -123h-98l-27 63h-2l-60 -63h-108zM562 913h119l-135 -112h-72z" />
    <glyph glyph-name="uni1EBF" unicode="&#x1ebf;" horiz-adv-x="501" 
d="M412 132l10 -104q-77 -39 -183 -39q-103 0 -157 54.5t-54 152.5q0 76 33.5 144.5t100 114t151.5 45.5q75 0 122.5 -40t47.5 -107q0 -172 -318 -164q2 -31 16 -50q29 -38 94 -38q73 0 137 31zM348 354q0 18 -14.5 29.5t-38.5 11.5q-46 0 -76.5 -31t-39.5 -70
q87 -1 128 12.5t41 47.5zM278 702h106l63 -152h-93l-31 87h-2l-57 -87h-100zM519 795h115l-131 -147h-75z" />
    <glyph glyph-name="uni1EC0" unicode="&#x1ec0;" horiz-adv-x="517" 
d="M481 407l-24 -121h-239l-31 -163h269l-23 -123h-414l128 674h399l-24 -123h-254l-28 -144h241zM417 901h118l57 -113h-73zM328 833h103l66 -123h-98l-27 63h-2l-60 -63h-108z" />
    <glyph glyph-name="uni1EC1" unicode="&#x1ec1;" horiz-adv-x="501" 
d="M412 132l10 -104q-77 -39 -183 -39q-103 0 -157 54.5t-54 152.5q0 76 33.5 144.5t100 114t151.5 45.5q75 0 122.5 -40t47.5 -107q0 -172 -318 -164q2 -31 16 -50q29 -38 94 -38q73 0 137 31zM348 354q0 18 -14.5 29.5t-38.5 11.5q-46 0 -76.5 -31t-39.5 -70
q87 -1 128 12.5t41 47.5zM371 797h105l71 -148h-68zM278 702h106l63 -152h-93l-31 87h-2l-58 -87h-100z" />
    <glyph glyph-name="uni1EC2" unicode="&#x1ec2;" horiz-adv-x="517" 
d="M480 407l-23 -121h-239l-32 -163h269l-23 -123h-413l128 674h398l-24 -123h-253l-28 -144h240zM557 755l-60 23q8 18 33 38.5t25 36.5q0 11 -8.5 19t-20.5 8q-21 0 -46 -27l-37 36q46 58 113 58q38 0 62 -21t24 -53q0 -26 -14.5 -44.5t-37.5 -38t-33 -35.5zM334 833h103
l65 -123h-97l-28 63h-2l-59 -63h-109z" />
    <glyph glyph-name="uni1EC3" unicode="&#x1ec3;" horiz-adv-x="501" 
d="M412 132l10 -104q-77 -39 -183 -39q-103 0 -157 54.5t-54 152.5q0 76 33.5 144.5t100 114t151.5 45.5q75 0 122.5 -40t47.5 -107q0 -172 -318 -164q2 -31 16 -50q29 -38 94 -38q73 0 137 31zM348 354q0 18 -14.5 29.5t-38.5 11.5q-46 0 -76.5 -31t-39.5 -70
q87 -1 128 12.5t41 47.5zM278 702h106l63 -152h-93l-31 87h-2l-58 -87h-100zM500 632l-60 23q8 17 33 38t25 37q0 11 -8.5 18.5t-20.5 7.5q-22 0 -46 -26l-37 36q48 58 113 58q39 0 62.5 -21t23.5 -54q0 -26 -14.5 -44.5t-37.5 -37.5t-33 -35z" />
    <glyph glyph-name="uni1EC4" unicode="&#x1ec4;" horiz-adv-x="517" 
d="M481 407l-24 -121h-239l-31 -163h269l-24 -123h-412l127 674h399l-24 -123h-254l-27 -144h240zM314 849h-70q4 52 29.5 81.5t64.5 29.5q28 0 61 -20q30 -17 42 -17t19 8.5t11 31.5h69q-10 -112 -95 -112q-23 0 -65 22q-26 14 -37 14q-23 0 -29 -38zM329 833h103l65 -123
h-97l-28 63h-2l-59 -63h-108z" />
    <glyph glyph-name="uni1EC5" unicode="&#x1ec5;" horiz-adv-x="501" 
d="M412 132l10 -104q-77 -39 -183 -39q-103 0 -157 54.5t-54 152.5q0 76 33.5 144.5t100 114t151.5 45.5q75 0 122.5 -40t47.5 -107q0 -172 -318 -164q2 -31 16 -50q29 -38 94 -38q73 0 137 31zM348 354q0 18 -14.5 29.5t-38.5 11.5q-46 0 -76.5 -31t-39.5 -70
q87 -1 128 12.5t41 47.5zM264 707h-71q5 52 30.5 81t64.5 29q27 0 61 -19q30 -17 42 -17t18.5 8t11.5 32h69q-10 -112 -95 -112q-21 0 -65 21q-25 15 -37 15q-22 0 -29 -38zM280 681h98l70 -131h-90l-33 68h-2l-48 -68h-102z" />
    <glyph glyph-name="uni1EC6" unicode="&#x1ec6;" horiz-adv-x="517" 
d="M481 407l-24 -121h-239l-31 -163h269l-23 -123h-414l128 674h399l-24 -123h-254l-28 -144h241zM316 836h109l80 -126h-101l-41 61h-2l-58 -61h-111zM210 -217q-29 0 -49 20.5t-20 47.5q0 29 20.5 49t49.5 20q28 0 47.5 -20t19.5 -49q0 -28 -19.5 -48t-48.5 -20z" />
    <glyph glyph-name="uni1EC7" unicode="&#x1ec7;" horiz-adv-x="501" 
d="M412 132l10 -104q-77 -39 -183 -39q-103 0 -157 54.5t-54 152.5q0 76 33.5 144.5t100 114t151.5 45.5q75 0 122.5 -40t47.5 -107q0 -172 -318 -164q2 -31 16 -50q29 -38 94 -38q73 0 137 31zM348 354q0 18 -14.5 29.5t-38.5 11.5q-46 0 -76.5 -31t-39.5 -70
q87 -1 128 12.5t41 47.5zM284 700h99l75 -152h-93l-40 79h-2l-58 -79h-102zM207 -221q-30 0 -50 20.5t-20 49.5q0 31 20.5 51t50.5 20q29 0 48.5 -20t19.5 -51q0 -29 -19.5 -49.5t-49.5 -20.5z" />
    <glyph glyph-name="uni1EC8" unicode="&#x1ec8;" horiz-adv-x="274" 
d="M144 674h144l-128 -674h-144zM251 703l-65 24q8 15 33.5 40t25.5 43q0 12 -7.5 19.5t-19.5 7.5q-20 0 -47 -29l-42 31q51 72 122 72q41 0 67 -22.5t26 -56.5q0 -27 -15 -47t-40.5 -42t-37.5 -40z" />
    <glyph glyph-name="uni1EC9" unicode="&#x1ec9;" horiz-adv-x="265" 
d="M157 0h-144l93 489h144zM221 528l-72 20q8 20 37.5 49t29.5 50q0 13 -7.5 21t-18.5 8q-25 0 -50 -36l-46 32q50 78 127 78q41 0 66 -23.5t25 -58.5q0 -31 -16.5 -54.5t-41 -46t-33.5 -39.5z" />
    <glyph glyph-name="uni1ECA" unicode="&#x1eca;" horiz-adv-x="274" 
d="M144 674h144l-128 -674h-144zM65 -217q-29 0 -49 20.5t-20 47.5q0 29 20.5 49t49.5 20q28 0 47.5 -20t19.5 -49q0 -28 -19.5 -48t-48.5 -20z" />
    <glyph glyph-name="uni1ECB" unicode="&#x1ecb;" horiz-adv-x="265" 
d="M157 0h-144l93 489h144zM197 550h-2q-30 0 -49.5 19.5t-19.5 50.5q0 36 24.5 59t58.5 23q32 0 52.5 -19.5t20.5 -51.5q0 -37 -24.5 -59t-60.5 -22zM75 -221q-30 0 -50 20.5t-20 49.5q0 31 20.5 51t50.5 20q29 0 48.5 -20t19.5 -51q0 -29 -19.5 -49.5t-49.5 -20.5z" />
    <glyph glyph-name="uni1ECC" unicode="&#x1ecc;" horiz-adv-x="705" 
d="M418 685q130 0 201 -78t71 -203q0 -93 -31.5 -177.5t-88.5 -140.5q-100 -97 -249 -97q-127 0 -200 79.5t-73 201.5q0 92 32.5 177.5t91.5 141.5q101 96 246 96zM401 565q-67 0 -116 -51q-39 -38 -61.5 -106.5t-22.5 -132.5q0 -75 35.5 -120.5t105.5 -45.5q64 0 113 49
q38 38 60 108.5t22 133.5q0 72 -31.5 118.5t-104.5 46.5zM269 -217q-29 0 -49 20.5t-20 47.5q0 29 20.5 49t49.5 20q28 0 47.5 -20t19.5 -49q0 -28 -19.5 -48t-48.5 -20z" />
    <glyph glyph-name="uni1ECD" unicode="&#x1ecd;" horiz-adv-x="559" 
d="M322 501q95 0 151 -57.5t56 -144.5q0 -134 -82.5 -222t-209.5 -88q-93 0 -150 56t-57 147q0 129 82 219t210 90zM303 391q-39 0 -68.5 -34t-42.5 -78t-13 -85q0 -44 20.5 -69.5t58.5 -25.5q54 0 88 64.5t34 134.5q0 38 -19 65.5t-58 27.5zM217 -221q-30 0 -50 20.5
t-20 49.5q0 31 20.5 51t50.5 20q29 0 48.5 -20t19.5 -51q0 -29 -19.5 -49.5t-49.5 -20.5z" />
    <glyph glyph-name="uni1ECE" unicode="&#x1ece;" horiz-adv-x="705" 
d="M418 685q130 0 201 -78t71 -203q0 -93 -31.5 -177.5t-88.5 -140.5q-100 -97 -249 -97q-127 0 -200 79.5t-73 201.5q0 92 32.5 177.5t91.5 141.5q101 96 246 96zM401 565q-67 0 -116 -51q-39 -38 -61.5 -106.5t-22.5 -132.5q0 -75 35.5 -120.5t105.5 -45.5q64 0 113 49
q38 38 60 108.5t22 133.5q0 72 -31.5 118.5t-104.5 46.5zM462 703l-65 23q8 16 33.5 41t25.5 43q0 12 -8 19.5t-20 7.5q-20 0 -46 -30l-42 32q51 72 122 72q41 0 66.5 -22.5t25.5 -56.5q0 -27 -15 -47t-40 -42t-37 -40z" />
    <glyph glyph-name="uni1ECF" unicode="&#x1ecf;" horiz-adv-x="559" 
d="M322 501q95 0 151 -57.5t56 -144.5q0 -134 -82.5 -222t-209.5 -88q-93 0 -150 56t-57 147q0 129 82 219t210 90zM303 391q-39 0 -68.5 -34t-42.5 -78t-13 -85q0 -44 20.5 -69.5t58.5 -25.5q54 0 88 64.5t34 134.5q0 38 -19 65.5t-58 27.5zM369 529l-72 20q8 20 37.5 49
t29.5 50q0 13 -7.5 21t-18.5 8q-26 0 -49 -36l-46 32q49 78 126 78q41 0 66 -23.5t25 -58.5q0 -31 -16.5 -54.5t-41 -46t-33.5 -39.5z" />
    <glyph glyph-name="uni1ED0" unicode="&#x1ed0;" horiz-adv-x="705" 
d="M418 685q130 0 201 -78t71 -203q0 -94 -31.5 -178t-89.5 -140q-99 -97 -248 -97q-127 0 -200 79.5t-73 201.5q0 92 32.5 177.5t91.5 141.5q101 96 246 96zM400 565q-66 0 -115 -51q-39 -38 -61.5 -106.5t-22.5 -132.5q0 -75 35.5 -120.5t105.5 -45.5q64 0 113 49
q38 38 60 108.5t22 133.5q0 72 -31.5 118.5t-105.5 46.5zM403 832h103l66 -122h-98l-27 63h-2l-60 -63h-108zM634 913h118l-135 -113h-72z" />
    <glyph glyph-name="uni1ED1" unicode="&#x1ed1;" horiz-adv-x="559" 
d="M322 501q95 0 151 -57.5t56 -144.5q0 -134 -82.5 -222t-209.5 -88q-93 0 -150 56t-57 147q0 129 82 219t210 90zM303 391q-39 0 -68.5 -34t-42.5 -78t-13 -85q0 -44 20.5 -69.5t58.5 -25.5q54 0 88 64.5t34 134.5q0 38 -19 65.5t-58 27.5zM304 702h105l63 -152h-93
l-30 87h-3l-57 -87h-100zM544 795h115l-131 -147h-75z" />
    <glyph glyph-name="uni1ED2" unicode="&#x1ed2;" horiz-adv-x="705" 
d="M418 685q130 0 201.5 -78t70.5 -203q0 -93 -31.5 -177.5t-88.5 -140.5q-100 -97 -249 -97q-127 0 -200 79.5t-73 201.5q0 93 33 178t92 141q99 96 245 96zM401 565q-65 0 -116 -51q-39 -38 -61.5 -106.5t-22.5 -132.5q0 -75 35.5 -120.5t105.5 -45.5q64 0 113 49
q38 38 60 108.5t22 133.5q0 72 -31.5 118.5t-104.5 46.5zM491 901h118l57 -113h-73zM402 832h103l66 -122h-98l-27 63h-2l-60 -63h-108z" />
    <glyph glyph-name="uni1ED3" unicode="&#x1ed3;" horiz-adv-x="559" 
d="M322 501q95 0 151 -57.5t56 -144.5q0 -134 -82.5 -222t-209.5 -88q-93 0 -150 56t-57 147q0 129 82 219t210 90zM303 391q-39 0 -68.5 -34t-42.5 -78t-13 -85q0 -44 20.5 -69.5t58.5 -25.5q54 0 88 64.5t34 134.5q0 38 -19 65.5t-58 27.5zM396 797h105l71 -148h-67z
M304 702h105l63 -152h-93l-30 87h-3l-57 -87h-100z" />
    <glyph glyph-name="uni1ED4" unicode="&#x1ed4;" horiz-adv-x="705" 
d="M418 685q130 0 201 -78t71 -203q0 -93 -31.5 -177.5t-88.5 -140.5q-100 -97 -249 -97q-127 0 -200 79.5t-73 201.5q0 92 32.5 177.5t91.5 141.5q101 96 246 96zM401 565q-67 0 -116 -51q-39 -38 -61.5 -106.5t-22.5 -132.5q0 -75 35.5 -120.5t105.5 -45.5q64 0 113 49
q38 38 60 108.5t22 133.5q0 72 -31.5 118.5t-104.5 46.5zM625 755l-60 24q9 17 33.5 37.5t24.5 36.5q0 12 -8 19.5t-20 7.5q-21 0 -46 -27l-37 37q45 57 112 57q39 0 62.5 -20.5t23.5 -53.5q0 -20 -9.5 -37t-22 -27t-28.5 -25t-25 -29zM402 833h103l66 -123h-98l-27 63h-2
l-60 -63h-108z" />
    <glyph glyph-name="uni1ED5" unicode="&#x1ed5;" horiz-adv-x="559" 
d="M322 501q95 0 151 -57.5t56 -144.5q0 -134 -82.5 -222t-209.5 -88q-93 0 -150 56t-57 147q0 129 82 219t210 90zM303 391q-39 0 -68.5 -34t-42.5 -78t-13 -85q0 -44 20.5 -69.5t58.5 -25.5q54 0 88 64.5t34 134.5q0 38 -19 65.5t-58 27.5zM302 702h106l62 -152h-93
l-30 87h-2l-58 -87h-99zM523 632l-59 23q8 17 33 38t25 37q0 11 -8.5 18.5t-20.5 7.5q-22 0 -46 -26l-37 36q48 58 112 58q39 0 63 -21t24 -54q0 -26 -14.5 -44.5t-38 -37.5t-33.5 -35z" />
    <glyph glyph-name="uni1ED6" unicode="&#x1ed6;" horiz-adv-x="705" 
d="M418 685q130 0 201 -78t71 -203q0 -93 -31.5 -177.5t-88.5 -140.5q-100 -97 -249 -97q-127 0 -200 79.5t-73 201.5q0 92 32.5 177.5t91.5 141.5q101 96 246 96zM401 565q-67 0 -116 -51q-39 -38 -61.5 -106.5t-22.5 -132.5q0 -75 35.5 -120.5t105.5 -45.5q64 0 113 49
q38 38 60 108.5t22 133.5q0 72 -31.5 118.5t-104.5 46.5zM387 850h-70q5 52 30.5 81t63.5 29q26 0 62 -19q28 -17 41 -17q12 0 19 8t11 31h69q-10 -112 -94 -112q-25 0 -65 22q-26 14 -38 14q-21 0 -29 -37zM402 833h103l66 -123h-98l-27 63h-2l-60 -63h-108z" />
    <glyph glyph-name="uni1ED7" unicode="&#x1ed7;" horiz-adv-x="559" 
d="M322 501q95 0 151 -57.5t56 -144.5q0 -134 -82.5 -222t-209.5 -88q-93 0 -150 56t-57 147q0 129 82 219t210 90zM303 391q-39 0 -68.5 -34t-42.5 -78t-13 -85q0 -44 20.5 -69.5t58.5 -25.5q54 0 88 64.5t34 134.5q0 38 -19 65.5t-58 27.5zM289 707h-70q5 52 30.5 81
t63.5 29q26 0 62 -19q28 -17 41 -17q12 0 19 8.5t11 31.5h69q-10 -112 -94 -112q-23 0 -65 21q-26 15 -38 15q-21 0 -29 -38zM306 681h97l71 -131h-91l-33 68h-2l-48 -68h-100z" />
    <glyph glyph-name="uni1ED8" unicode="&#x1ed8;" horiz-adv-x="705" 
d="M418 685q130 0 201 -78t71 -203q0 -93 -31.5 -177.5t-88.5 -140.5q-100 -97 -249 -97q-127 0 -200 79.5t-73 201.5q0 92 32.5 177.5t91.5 141.5q101 96 246 96zM401 565q-67 0 -116 -51q-39 -38 -61.5 -106.5t-22.5 -132.5q0 -75 35.5 -120.5t105.5 -45.5q64 0 113 49
q38 38 60 108.5t22 133.5q0 72 -31.5 118.5t-104.5 46.5zM395 836h109l80 -126h-101l-41 61h-2l-58 -61h-111zM267 -217q-29 0 -49 20.5t-20 47.5q0 29 20.5 49t49.5 20q28 0 47.5 -20t19.5 -49q0 -28 -19.5 -48t-48.5 -20z" />
    <glyph glyph-name="uni1ED9" unicode="&#x1ed9;" horiz-adv-x="559" 
d="M322 501q95 0 151 -57.5t56 -144.5q0 -134 -82.5 -222t-209.5 -88q-93 0 -150 56t-57 147q0 129 82 219t210 90zM303 391q-39 0 -68.5 -34t-42.5 -78t-13 -85q0 -44 20.5 -69.5t58.5 -25.5q54 0 88 64.5t34 134.5q0 38 -19 65.5t-58 27.5zM311 700h99l75 -152h-93l-40 79
h-2l-58 -79h-102zM216 -221q-30 0 -50 20.5t-20 49.5q0 31 20.5 51t50.5 20q29 0 48.5 -20t19.5 -51q0 -29 -19.5 -49.5t-49.5 -20.5z" />
    <glyph glyph-name="uni1EDA" unicode="&#x1eda;" horiz-adv-x="705" 
d="M653 743l109 18q16 -32 16 -81q0 -57 -32.5 -92.5t-87.5 -37.5q32 -58 32 -146q0 -94 -31 -178.5t-89 -140.5q-101 -96 -249 -96q-127 0 -200 79.5t-73 201.5q0 92 32.5 177.5t91.5 141.5q101 96 246 96q70 0 124 -24q5 -2 24.5 -12t32.5 -14.5t25 -4.5q43 0 43 52
q0 31 -14 61zM401 565q-65 0 -116 -51q-39 -38 -61.5 -106.5t-22.5 -132.5q0 -75 35.5 -120.5t105.5 -45.5q64 0 113 49q38 38 60 108.5t22 133.5q0 72 -31.5 118.5t-104.5 46.5zM430 842h160l-132 -126h-122z" />
    <glyph glyph-name="uni1EDB" unicode="&#x1edb;" horiz-adv-x="559" 
d="M304 391q-57 0 -91 -64.5t-34 -131.5q0 -44 20.5 -70t57.5 -26q55 0 89.5 64.5t34.5 134.5q0 38 -19 65.5t-58 27.5zM508 566l106 18q11 -31 11 -71q0 -57 -30 -90.5t-83 -38.5q18 -37 18 -85q0 -134 -83 -222t-210 -88q-93 0 -150 56t-57 147q0 129 82 219t210 90
q46 0 88 -16q7 -3 22 -10.5t25.5 -11t20.5 -3.5q42 0 42 48q0 25 -12 58zM335 700h141l-130 -152h-106z" />
    <glyph glyph-name="uni1EDC" unicode="&#x1edc;" horiz-adv-x="705" 
d="M653 743l109 18q16 -34 16 -82q0 -57 -32.5 -92.5t-87.5 -37.5q32 -57 32 -146q0 -93 -31 -177.5t-89 -140.5q-101 -96 -249 -96q-127 0 -200 79.5t-73 201.5q0 92 32.5 177t91.5 142q101 96 246 96q71 0 124 -25l19.5 -9.5t22 -10t20 -7t20.5 -3.5q43 0 43 51
q0 31 -14 62zM401 564q-64 0 -116 -50q-39 -39 -61.5 -107t-22.5 -132q0 -75 35.5 -120.5t105.5 -45.5q64 0 113 49q38 38 60 108t22 133q0 72 -31.5 118.5t-104.5 46.5zM272 842h158l77 -125h-120z" />
    <glyph glyph-name="uni1EDD" unicode="&#x1edd;" horiz-adv-x="559" 
d="M304 391q-57 0 -91 -64.5t-34 -131.5q0 -44 20.5 -70t57.5 -26q55 0 89.5 64.5t34.5 134.5q0 38 -19 65.5t-58 27.5zM508 566l106 18q11 -31 11 -71q0 -57 -30 -90.5t-83 -38.5q18 -37 18 -85q0 -134 -83 -222t-210 -88q-93 0 -150 56t-57 147q0 129 82 219t210 90
q46 0 88 -16q7 -3 22 -10.5t25.5 -11t20.5 -3.5q42 0 42 48q0 25 -12 58zM192 700h139l75 -152h-103z" />
    <glyph glyph-name="uni1EDE" unicode="&#x1ede;" horiz-adv-x="705" 
d="M653 743l109 18q16 -32 16 -82q0 -57 -32.5 -92.5t-87.5 -37.5q32 -57 32 -146q0 -93 -31 -177.5t-89 -140.5q-101 -96 -249 -96q-127 0 -200 79.5t-73 201.5q0 92 32.5 177.5t91.5 141.5q101 96 246 96q71 0 124 -25q7 -3 25 -12t31.5 -13.5t25.5 -4.5q43 0 43 51
q0 32 -14 62zM401 565q-63 0 -116 -51q-39 -39 -61.5 -107t-22.5 -132q0 -75 35.5 -120.5t105.5 -45.5q64 0 113 49q38 38 60 108t22 133q0 73 -31.5 119.5t-104.5 46.5zM462 709l-66 23q9 15 34.5 40.5t25.5 43.5q0 12 -8 19.5t-20 7.5q-22 0 -46 -30l-42 32q51 72 122 72
q41 0 66.5 -22.5t25.5 -56.5q0 -21 -10 -39t-23 -29.5l-31 -28.5t-28 -32z" />
    <glyph glyph-name="uni1EDF" unicode="&#x1edf;" horiz-adv-x="559" 
d="M304 391q-57 0 -91 -64.5t-34 -131.5q0 -44 20.5 -70t57.5 -26q55 0 89.5 64.5t34.5 134.5q0 38 -19 65.5t-58 27.5zM508 566l106 18q11 -31 11 -71q0 -57 -30 -90.5t-83 -38.5q18 -37 18 -85q0 -134 -83 -222t-210 -88q-93 0 -150 56t-57 147q0 129 82 219t210 90
q46 0 88 -16q7 -3 22 -10.5t25.5 -11t20.5 -3.5q42 0 42 48q0 25 -12 58zM348 529l-72 20q8 20 38 48.5t30 50.5q0 13 -7.5 21t-19.5 8q-25 0 -50 -36l-46 32q50 78 127 78q42 0 66.5 -23.5t24.5 -58.5q0 -31 -16 -54.5t-40.5 -46t-34.5 -39.5z" />
    <glyph glyph-name="uni1EE0" unicode="&#x1ee0;" horiz-adv-x="705" 
d="M653 744l109 18q16 -34 16 -82q0 -57 -32.5 -92.5t-87.5 -37.5q32 -58 32 -146q0 -94 -31 -178.5t-89 -140.5q-101 -96 -249 -96q-127 0 -200 79.5t-73 201.5q0 92 32.5 177.5t91.5 141.5q101 96 246 96q70 0 124 -24l19.5 -9.5t22 -10t20 -7t20.5 -3.5q43 0 43 51
q0 30 -14 62zM401 565q-65 0 -116 -51q-39 -38 -61.5 -106.5t-22.5 -132.5q0 -75 35.5 -120.5t105.5 -45.5q64 0 113 49q38 38 60 108.5t22 133.5q0 72 -31.5 118.5t-104.5 46.5zM367 722h-71q9 61 36 93t63 32q32 0 63 -20q29 -19 41 -19q22 0 34 43h69q-20 -123 -100 -123
q-34 0 -64 19q-29 18 -40 18q-21 0 -31 -43z" />
    <glyph glyph-name="uni1EE1" unicode="&#x1ee1;" horiz-adv-x="559" 
d="M304 391q-57 0 -91 -64.5t-34 -131.5q0 -44 20.5 -70t57.5 -26q55 0 89.5 64.5t34.5 134.5q0 38 -19 65.5t-58 27.5zM508 566l105 18q12 -33 12 -72q0 -57 -30 -90t-83 -38q17 -35 17 -85q0 -135 -82.5 -222.5t-209.5 -87.5q-93 0 -150 56t-57 147q0 129 82 219t210 90
q48 0 88 -16q7 -3 22 -10.5t25.5 -11t20.5 -3.5q42 0 42 48q0 25 -12 58zM255 558l-70 1q8 60 33 93t64 32q27 0 61 -20q29 -19 39 -19q12 0 18.5 9t13.5 35h69q-18 -123 -97 -123q-37 0 -64 20q-24 17 -38 17q-20 0 -29 -45z" />
    <glyph glyph-name="uni1EE2" unicode="&#x1ee2;" horiz-adv-x="705" 
d="M653 743l109 18q16 -32 16 -82q0 -57 -32.5 -92.5t-87.5 -37.5q32 -57 32 -146q0 -93 -31 -177.5t-89 -140.5q-101 -96 -249 -96q-127 0 -200 79.5t-73 201.5q0 92 32.5 177.5t91.5 141.5q101 96 246 96q71 0 124 -25q7 -3 25 -12t31.5 -13.5t25.5 -4.5q43 0 43 51
q0 32 -14 62zM401 565q-63 0 -116 -51q-39 -39 -61.5 -107t-22.5 -132q0 -75 35.5 -120.5t105.5 -45.5q64 0 113 49q38 38 60 108t22 133q0 73 -31.5 119.5t-104.5 46.5zM270 -217h-2q-29 0 -49 20.5t-20 47.5q0 29 20.5 49t49.5 20q28 0 47.5 -20t19.5 -49
q0 -27 -19.5 -47.5t-46.5 -20.5z" />
    <glyph glyph-name="uni1EE3" unicode="&#x1ee3;" horiz-adv-x="559" 
d="M304 391q-57 0 -91 -64.5t-34 -131.5q0 -44 20.5 -70t57.5 -26q55 0 89.5 64.5t34.5 134.5q0 38 -19 65.5t-58 27.5zM508 566l106 18q11 -31 11 -71q0 -57 -30 -90.5t-83 -38.5q18 -37 18 -85q0 -134 -83 -222t-210 -88q-93 0 -150 56t-57 147q0 129 82 219t210 90
q46 0 88 -16q7 -3 22 -10.5t25.5 -11t20.5 -3.5q42 0 42 48q0 25 -12 58zM216 -221q-30 0 -50 20.5t-20 49.5q0 31 20.5 51t50.5 20q29 0 48.5 -20t19.5 -51q0 -29 -19.5 -49.5t-49.5 -20.5z" />
    <glyph glyph-name="uni1EE4" unicode="&#x1ee4;" horiz-adv-x="655" 
d="M144 674h144l-73 -388q-8 -37 -8 -79q0 -43 25.5 -70t72.5 -27q58 0 94.5 41.5t54.5 133.5l74 389h144l-73 -383q-30 -156 -103 -229t-209 -73q-106 -1 -165 54t-59 161q0 41 10 94zM249 -217q-29 0 -49 20.5t-20 47.5q0 29 20.5 49t49.5 20q28 0 47.5 -20t19.5 -49
q0 -28 -19.5 -48t-48.5 -20z" />
    <glyph glyph-name="uni1EE5" unicode="&#x1ee5;" horiz-adv-x="560" 
d="M400 489h143l-62 -330q-15 -76 -26 -159h-127l9 79l-2 1q-71 -91 -168 -91q-60 0 -93 34.5t-33 102.5q0 41 10 90l52 273h144l-50 -262q-7 -40 -7 -65q0 -56 49 -56q38 0 71 42.5t47 113.5zM216 -221q-30 0 -50 20.5t-20 49.5q0 31 20.5 51t50.5 20q29 0 48.5 -20
t19.5 -51q0 -29 -19.5 -49.5t-49.5 -20.5z" />
    <glyph glyph-name="uni1EE6" unicode="&#x1ee6;" horiz-adv-x="655" 
d="M144 674h144l-73 -388q-8 -37 -8 -79q0 -43 25.5 -70t72.5 -27q58 0 94.5 41.5t54.5 133.5l74 389h144l-73 -383q-30 -156 -103 -229t-209 -73q-106 -1 -165 54t-59 161q0 41 10 94zM429 703l-65 24q8 15 33.5 40t25.5 43q0 12 -7.5 19.5t-19.5 7.5q-20 0 -47 -29l-42 31
q51 72 122 72q41 0 67 -22.5t26 -56.5q0 -27 -15 -47t-40.5 -42t-37.5 -40z" />
    <glyph glyph-name="uni1EE7" unicode="&#x1ee7;" horiz-adv-x="560" 
d="M400 489h143l-62 -330q-15 -76 -26 -159h-127l9 79l-2 1q-71 -91 -168 -91q-60 0 -93 34.5t-33 102.5q0 41 10 90l52 273h144l-50 -262q-7 -40 -7 -65q0 -56 49 -56q38 0 71 42.5t47 113.5zM368 528l-72 20q8 20 37.5 49t29.5 50q0 13 -7.5 21t-18.5 8q-25 0 -50 -36
l-46 32q50 78 126 78q42 0 66.5 -23.5t24.5 -58.5q0 -31 -16 -54.5t-40.5 -46t-33.5 -39.5z" />
    <glyph glyph-name="uni1EE8" unicode="&#x1ee8;" horiz-adv-x="672" 
d="M657 598l-58 -307q-30 -156 -103.5 -229t-208.5 -73q-106 -1 -165 54t-59 161q0 40 10 95l71 375h144l-73 -387q-8 -38 -8 -80q1 -43 26.5 -70t71.5 -27q58 0 94.5 41.5t54.5 133.5l74 389h105q64 0 64 56q0 26 -10 52l105 18q9 -31 9 -58q0 -65 -37.5 -103t-106.5 -41z
M425 836h160l-132 -126h-122z" />
    <glyph glyph-name="uni1EE9" unicode="&#x1ee9;" horiz-adv-x="583" 
d="M557 598l105 18q9 -28 9 -60q0 -62 -36.5 -101t-105.5 -41l-48 -255q-19 -105 -26 -159h-127l9 80h-2q-71 -91 -169 -91q-60 0 -92.5 34.5t-32.5 102.5q0 41 10 90l52 273h144l-50 -262q-7 -40 -7 -65q0 -56 48 -56q38 0 72 42.5t47 113.5l43 227h105q63 0 63 57
q0 26 -11 52zM360 700h142l-130 -152h-106z" />
    <glyph glyph-name="uni1EEA" unicode="&#x1eea;" horiz-adv-x="672" 
d="M657 598l-58 -307q-30 -156 -103.5 -229t-208.5 -73q-106 -1 -165 54t-59 161q0 40 10 95l71 375h144l-73 -387q-8 -38 -8 -80q1 -43 26.5 -70t71.5 -27q58 0 94.5 41.5t54.5 133.5l74 389h105q64 0 64 57q0 26 -10 52l105 18q9 -32 9 -59q0 -65 -37.5 -103t-106.5 -41z
M270 837h158l77 -125h-120z" />
    <glyph glyph-name="uni1EEB" unicode="&#x1eeb;" horiz-adv-x="583" 
d="M557 598l105 18q9 -28 9 -60q0 -62 -36.5 -101t-105.5 -41l-48 -255q-19 -105 -26 -159h-127l9 80h-2q-71 -91 -169 -91q-60 0 -92.5 34.5t-32.5 102.5q0 41 10 90l52 273h144l-50 -262q-7 -40 -7 -65q0 -56 48 -56q38 0 72 42.5t47 113.5l43 227h105q63 0 63 57
q0 26 -11 52zM210 700h139l75 -152h-103z" />
    <glyph glyph-name="uni1EEC" unicode="&#x1eec;" horiz-adv-x="672" 
d="M657 598l-58 -307q-30 -156 -103.5 -229t-208.5 -73q-106 -1 -165 54t-59 161q0 40 10 95l71 375h144l-73 -387q-8 -38 -8 -80q1 -43 26.5 -70t71.5 -27q58 0 94.5 41.5t54.5 133.5l74 389h105q64 0 64 56q0 26 -10 52l105 18q9 -31 9 -58q0 -65 -37.5 -103t-106.5 -41z
M438 703l-65 24q8 14 33.5 39t25.5 44q0 12 -7.5 19.5t-19.5 7.5q-21 0 -46 -29l-42 31q49 72 121 72q41 0 67 -22.5t26 -56.5q0 -27 -15 -47t-40.5 -42t-37.5 -40z" />
    <glyph glyph-name="uni1EED" unicode="&#x1eed;" horiz-adv-x="583" 
d="M557 597l105 18q9 -29 9 -60q0 -61 -36.5 -100t-105.5 -41l-48 -255q-19 -105 -26 -159h-127l9 80h-2q-71 -91 -169 -91q-60 0 -92.5 34.5t-32.5 102.5q0 41 10 90l52 273h144l-50 -262q-7 -40 -7 -65q0 -56 48 -56q38 0 72 42.5t47 113.5l43 227h105q63 0 63 56
q0 26 -11 52zM367 528l-72 20q8 20 37.5 49t29.5 50q0 13 -7.5 21t-18.5 8q-25 0 -50 -36l-47 32q50 78 128 78q41 0 66 -23.5t25 -58.5q0 -31 -16.5 -54.5t-41 -46t-33.5 -39.5z" />
    <glyph glyph-name="uni1EEE" unicode="&#x1eee;" horiz-adv-x="672" 
d="M657 598l-58 -307q-30 -156 -103.5 -229t-208.5 -73q-106 -1 -165 54t-59 161q0 40 10 95l71 375h144l-73 -387q-8 -38 -8 -80q1 -43 26.5 -70t71.5 -27q58 0 94.5 41.5t54.5 133.5l74 389h105q64 0 64 57q0 26 -10 52l105 18q9 -32 9 -59q0 -65 -37.5 -103t-106.5 -41z
M348 715h-71q9 62 35.5 94t63.5 32q32 0 63 -20q29 -19 41 -19q22 0 34 43h69q-20 -123 -100 -123q-34 0 -64 19q-29 18 -40 18q-21 0 -31 -44z" />
    <glyph glyph-name="uni1EEF" unicode="&#x1eef;" horiz-adv-x="583" 
d="M557 598l105 18q9 -28 9 -60q0 -62 -36.5 -101t-105.5 -41l-48 -255q-19 -105 -26 -159h-127l9 80h-2q-71 -91 -169 -91q-60 0 -92.5 34.5t-32.5 102.5q0 41 10 90l52 273h144l-50 -262q-7 -40 -7 -65q0 -56 48 -56q38 0 72 42.5t47 113.5l43 227h105q63 0 63 57
q0 26 -11 52zM263 558l-70 1q8 60 33 93t63 32q28 0 62 -20q29 -19 39 -19q12 0 18.5 9t13.5 35h69q-18 -123 -97 -123q-36 0 -64 19q-23 18 -39 18q-19 0 -28 -45z" />
    <glyph glyph-name="uni1EF0" unicode="&#x1ef0;" horiz-adv-x="672" 
d="M657 598l-58 -307q-30 -156 -103.5 -229t-208.5 -73q-106 -1 -165 54t-59 161q0 40 10 95l71 375h144l-73 -387q-8 -38 -8 -80q1 -43 26.5 -70t71.5 -27q58 0 94.5 41.5t54.5 133.5l74 389h105q64 0 64 56q0 26 -10 52l105 18q9 -31 9 -58q0 -65 -37.5 -103t-106.5 -41z
M254 -217q-29 0 -49 20.5t-20 47.5q0 29 20.5 49t49.5 20q28 0 47.5 -20t19.5 -49q0 -28 -19.5 -48t-48.5 -20z" />
    <glyph glyph-name="uni1EF1" unicode="&#x1ef1;" horiz-adv-x="583" 
d="M557 597l105 18q9 -29 9 -60q0 -61 -36.5 -100t-105.5 -41l-48 -255q-19 -105 -26 -159h-127l9 80h-2q-71 -91 -169 -91q-60 0 -92.5 34.5t-32.5 102.5q0 41 10 90l52 273h144l-50 -262q-7 -40 -7 -65q0 -56 48 -56q38 0 72 42.5t47 113.5l43 227h105q63 0 63 56
q0 26 -11 52zM220 -221q-30 0 -50 20.5t-20 49.5q0 31 20.5 51t50.5 20q29 0 48.5 -20t19.5 -51q0 -29 -19.5 -49.5t-49.5 -20.5z" />
    <glyph glyph-name="Ygrave" unicode="&#x1ef2;" horiz-adv-x="570" 
d="M295 0h-144l52 275l-132 399h154l43 -171q19 -80 26 -122h2l69 123l101 170h172l-291 -396zM197 837h158l77 -125h-120z" />
    <glyph glyph-name="ygrave" unicode="&#x1ef3;" horiz-adv-x="497" 
d="M44 489h151l30 -213l16 -117h2l43 114l89 216h152l-175 -352q-97 -193 -188 -279q-38 -36 -82.5 -57.5t-74.5 -26.5l-32 124q49 15 83 38q52 36 80 85q5 10 2 24zM146 700h139l75 -152h-103z" />
    <glyph glyph-name="uni1EF4" unicode="&#x1ef4;" horiz-adv-x="570" 
d="M295 0h-144l52 275l-132 399h154l43 -171q19 -80 26 -122h2l69 123l101 170h172l-291 -396zM204 -217q-29 0 -49 20.5t-20 47.5q0 29 20.5 49t49.5 20q28 0 47.5 -20t19.5 -49q0 -28 -19.5 -48t-48.5 -20z" />
    <glyph glyph-name="uni1EF5" unicode="&#x1ef5;" horiz-adv-x="497" 
d="M44 489h151l30 -213l16 -117h2l43 114l89 216h152l-175 -352q-97 -193 -188 -279q-38 -36 -82.5 -57.5t-74.5 -26.5l-32 124q49 15 83 38q52 36 80 85q5 10 2 24zM339 -221q-30 0 -50 20.5t-20 49.5q0 31 20.5 51t50.5 20q29 0 48.5 -20t19.5 -51q0 -29 -19.5 -49.5
t-49.5 -20.5z" />
    <glyph glyph-name="uni1EF6" unicode="&#x1ef6;" horiz-adv-x="570" 
d="M295 0h-144l52 275l-132 399h154l43 -171q19 -80 26 -122h2l69 123l101 170h172l-291 -396zM387 703l-66 24q8 14 34 39t26 44q0 12 -7.5 19.5t-20.5 7.5q-21 0 -46 -29l-42 31q51 72 122 72q41 0 66.5 -22.5t25.5 -56.5q0 -27 -15 -47t-40 -42t-37 -40z" />
    <glyph glyph-name="uni1EF7" unicode="&#x1ef7;" horiz-adv-x="497" 
d="M44 489h151l30 -213l16 -117h2l43 114l89 216h152l-175 -352q-97 -193 -188 -279q-38 -36 -82.5 -57.5t-74.5 -26.5l-32 124q49 15 83 38q52 36 80 85q5 10 2 24zM336 528l-72 20q8 20 37.5 49t29.5 50q0 13 -7.5 21t-18.5 8q-25 0 -50 -36l-46 32q50 78 127 78
q41 0 66 -23.5t25 -58.5q0 -31 -16.5 -54.5t-41 -46t-33.5 -39.5z" />
    <glyph glyph-name="uni1EF8" unicode="&#x1ef8;" horiz-adv-x="570" 
d="M295 0h-144l52 275l-132 399h154l43 -171q19 -80 26 -122h2l69 123l101 170h172l-291 -396zM291 715h-71q9 62 35.5 94t63.5 32q32 0 63 -20q28 -19 41 -19q22 0 34 43h69q-20 -123 -100 -123q-34 0 -64 19q-29 18 -40 18q-21 0 -31 -44z" />
    <glyph glyph-name="uni1EF9" unicode="&#x1ef9;" horiz-adv-x="497" 
d="M44 489h151l30 -213l16 -117h2l43 114l89 216h152l-175 -352q-97 -193 -188 -279q-38 -36 -82.5 -57.5t-74.5 -26.5l-32 124q49 15 83 38q52 36 80 85q5 10 2 24zM237 558h-70q8 60 33 93t63 33q28 0 62 -20q29 -19 39 -19q12 0 18.5 9t13.5 35h69q-18 -123 -98 -123
q-35 0 -64 19q-23 18 -38 18q-19 0 -28 -45z" />
    <glyph glyph-name="uni2010" unicode="&#x2010;" horiz-adv-x="322" 
d="M44 313h259l-20 -101h-259z" />
    <glyph glyph-name="endash" unicode="&#x2013;" horiz-adv-x="500" 
d="M40 301h440l-18 -94h-440z" />
    <glyph glyph-name="emdash" unicode="&#x2014;" horiz-adv-x="1000" 
d="M40 301h940l-18 -94h-940z" />
    <glyph glyph-name="quoteleft" unicode="&#x2018;" horiz-adv-x="255" 
d="M206 422l-143 -9q71 154 157 271l95 8q-70 -139 -109 -270z" />
    <glyph glyph-name="quoteright" unicode="&#x2019;" horiz-adv-x="255" 
d="M168 683l143 9q-72 -158 -157 -271l-95 -8q66 131 109 270z" />
    <glyph glyph-name="quotesinglbase" unicode="&#x201a;" horiz-adv-x="255" 
d="M46 -106l-100 -9q78 158 113 280l150 10q-71 -157 -163 -281z" />
    <glyph glyph-name="quotedblleft" unicode="&#x201c;" horiz-adv-x="448" 
d="M205 422l-143 -9q71 154 157 271l95 8q-70 -139 -109 -270zM401 422l-143 -9q69 154 157 271l95 8q-70 -139 -109 -270z" />
    <glyph glyph-name="quotedblright" unicode="&#x201d;" horiz-adv-x="448" 
d="M167 683l143 9q-75 -163 -157 -271l-95 -8q70 139 109 270zM363 683l143 9q-72 -158 -157 -271l-95 -8q70 139 109 270z" />
    <glyph glyph-name="quotedblbase" unicode="&#x201e;" horiz-adv-x="448" 
d="M38 -106l-100 -9q76 150 113 280l150 10q-73 -162 -163 -281zM250 -106l-100 -9q78 158 113 280l150 10q-71 -157 -163 -281z" />
    <glyph glyph-name="dagger" unicode="&#x2020;" horiz-adv-x="519" 
d="M273 674h135l-52 -201l172 12l-22 -116l-167 12l-70 -431h-135l96 431l-172 -12l22 116l167 -12z" />
    <glyph glyph-name="daggerdbl" unicode="&#x2021;" horiz-adv-x="519" 
d="M275 674h132l-47 -185l170 12l-22 -116l-166 12l-30 -162l170 12l-22 -116l-166 12l-26 -193h-132l48 193l-170 -12l22 116l165 -12l31 162l-170 -12l22 116l166 -12z" />
    <glyph glyph-name="bullet" unicode="&#x2022;" horiz-adv-x="336" 
d="M169 133q-54 0 -91.5 37.5t-37.5 92.5q-1 55 37.5 93t92.5 38t92 -38t38 -93t-38 -92.5t-93 -37.5z" />
    <glyph glyph-name="ellipsis" unicode="&#x2026;" horiz-adv-x="1000" 
d="M124 -10q-36 0 -58 23.5t-22 59.5q0 42 27.5 72t69.5 30q37 0 60 -24t23 -62q0 -44 -28 -71.5t-72 -27.5zM458 -10q-36 0 -58 23.5t-22 59.5q0 42 27.5 72t69.5 30q37 0 60 -24t23 -62q0 -44 -28 -71.5t-72 -27.5zM792 -10q-36 0 -58 23.5t-22 59.5q0 42 27.5 72t69.5 30
q37 0 60 -24t23 -62q0 -44 -28 -71.5t-72 -27.5z" />
    <glyph glyph-name="perthousand" unicode="&#x2030;" horiz-adv-x="1260" 
d="M276 661q66 0 104.5 -41.5t38.5 -107.5q0 -107 -60 -179.5t-149 -72.5q-65 0 -106 41.5t-41 112.5q0 101 60 174t153 73zM261 578q-39 0 -63.5 -56.5t-24.5 -110.5q0 -68 48 -68q40 0 64 58t24 113q0 64 -48 64zM248 -11h-85l482 671h85zM691 392q66 0 104.5 -41.5
t38.5 -107.5q0 -107 -60 -179.5t-149 -72.5q-66 0 -107 41.5t-41 112.5q0 101 60 174t154 73zM675 309q-39 0 -63.5 -56.5t-24.5 -110.5q0 -30 12.5 -49t36.5 -19q40 0 64 58t24 113q0 64 -49 64zM1082 392q66 0 104.5 -41.5t38.5 -107.5q0 -107 -60 -179.5t-149 -72.5
q-65 0 -106 41.5t-41 112.5q0 101 60 174t153 73zM1067 309q-39 0 -63.5 -56.5t-24.5 -110.5q0 -30 12 -49t36 -19q40 0 64 58t24 113q0 64 -48 64z" />
    <glyph glyph-name="guilsinglleft" unicode="&#x2039;" horiz-adv-x="268" 
d="M267 443l-144 -193l96 -188h-100l-97 190l135 191h110z" />
    <glyph glyph-name="guilsinglright" unicode="&#x203a;" horiz-adv-x="267" 
d="M149 256l-96 187h100l97 -191l-135 -190h-110z" />
    <glyph glyph-name="fraction" unicode="&#x2044;" horiz-adv-x="143" 
d="M-115 -11h-86l490 672h86z" />
    <glyph glyph-name="zero.superior" unicode="&#x2070;" horiz-adv-x="366" 
d="M219 401q-64 0 -100 40t-36 107q0 103 57 178t149 75q64 0 99 -39t35 -99q0 -110 -56.5 -186t-147.5 -76zM231 484q36 0 58 58.5t22 111.5q0 64 -35 64q-36 0 -58.5 -61t-22.5 -109q0 -64 36 -64z" />
    <glyph glyph-name="four.superior" unicode="&#x2074;" horiz-adv-x="365" 
d="M336 406h-107l17 91h-187l13 64l204 238h134l-43 -227h51l-15 -75h-50zM260 572l14 70q8 40 19 76h-3q-38 -55 -49 -69l-61 -75v-2h80z" />
    <glyph glyph-name="five.superior" unicode="&#x2075;" horiz-adv-x="337" 
d="M396 796l-17 -87h-151l-13 -46q10 1 25 1q40 0 72 -16q64 -25 64 -91q0 -73 -59 -114.5t-149 -41.5q-74 0 -112 21l25 80q39 -17 88 -17q38 0 62 15.5t24 42.5q0 48 -97 48q-31 0 -55 -3l58 208h235z" />
    <glyph glyph-name="six.superior" unicode="&#x2076;" horiz-adv-x="358" 
d="M402 799l-15 -82q-22 4 -44 1q-96 -8 -126 -75l1 -1q33 28 77 28q53 0 82.5 -31.5t29.5 -80.5q0 -66 -50 -111.5t-123 -45.5q-68 0 -110 40.5t-42 101.5q0 65 31.5 120t80.5 87q69 44 156 48q27 3 52 1zM239 478q24 0 40.5 21t16.5 53q0 21 -12.5 33.5t-33.5 12.5
q-28 0 -46 -25l-9 -14q-4 -13 -4 -30q0 -22 13 -36.5t35 -14.5z" />
    <glyph glyph-name="seven.superior" unicode="&#x2077;" horiz-adv-x="316" 
d="M117 796h291l-13 -67l-218 -323h-120l216 302v1h-173z" />
    <glyph glyph-name="eight.superior" unicode="&#x2078;" horiz-adv-x="363" 
d="M286 801q54 0 92.5 -24.5t38.5 -71.5q0 -29 -22.5 -52.5t-55.5 -36.5l-1 -1q65 -31 65 -86q0 -43 -28 -73t-67.5 -42.5t-83.5 -12.5q-66 0 -106 28t-40 72q0 37 26.5 65t66.5 43v1q-50 27 -50 71q0 55 48.5 87.5t116.5 32.5zM238 475q21 0 35.5 13t14.5 34q0 36 -47 52
q-50 -13 -50 -57q0 -18 13 -30t34 -12zM270 729q-18 0 -29.5 -11.5t-11.5 -27.5q0 -29 45 -46q40 11 40 47q0 17 -11 27.5t-33 10.5z" />
    <glyph glyph-name="nine.superior" unicode="&#x2079;" horiz-adv-x="357" 
d="M88 401l12 84q33 -3 53 -2q35 1 70 18q46 22 63 60l-1 1q-27 -24 -76 -24q-50 0 -83.5 29.5t-33.5 81.5q0 65 52.5 109.5t124.5 44.5q68 0 107 -40t39 -104q0 -63 -29 -116.5t-74 -88.5q-66 -51 -170 -55q-22 0 -54 2zM259 724q-23 0 -39.5 -20.5t-16.5 -48.5
q0 -21 13 -33.5t33 -12.5q29 0 46 20q5 5 10 20q2 12 2 24q0 22 -12.5 36.5t-35.5 14.5z" />
    <glyph glyph-name="parenleft.superior" unicode="&#x207d;" horiz-adv-x="204" 
d="M221 833h74q-50 -66 -80.5 -149.5t-30.5 -169.5q0 -94 23 -163h-72q-33 76 -33 157q0 196 119 325z" />
    <glyph glyph-name="parenright.superior" unicode="&#x207e;" horiz-adv-x="204" 
d="M117 351h-74q111 150 111 319q0 93 -23 163h72q33 -75 33 -157q0 -195 -119 -325z" />
    <glyph glyph-name="zero.inferior" unicode="&#x2080;" horiz-adv-x="366" 
d="M113 -149q-64 0 -100 40.5t-36 106.5q0 103 57 178t149 75q64 0 99 -39t35 -99q0 -110 -56.5 -186t-147.5 -76zM125 -66q36 0 58 58.5t22 111.5q0 64 -35 64q-36 0 -58.5 -61t-22.5 -109q0 -64 36 -64z" />
    <glyph glyph-name="one.inferior" unicode="&#x2081;" horiz-adv-x="274" 
d="M146 -144h-117l57 295h-2l-78 -32l-9 79l122 48h101z" />
    <glyph glyph-name="two.inferior" unicode="&#x2082;" horiz-adv-x="341" 
d="M243 -144h-304l11 57l75 58q73 53 107 87t34 64q0 40 -50 40q-46 0 -89 -29l-17 73q62 45 145 45q58 0 96 -27.5t38 -79.5q0 -37 -24.5 -73t-47.5 -54.5t-71 -53.5l-27 -19v-2h140z" />
    <glyph glyph-name="three.inferior" unicode="&#x2083;" horiz-adv-x="335" 
d="M24 144l-10 71q55 36 138 36q55 0 94 -25t39 -65q0 -36 -27 -60t-71 -35v-2q33 -7 56.5 -29t23.5 -56q0 -60 -54 -94t-132 -34q-90 0 -138 33l35 76q40 -30 95 -30q32 0 52.5 14t20.5 36q0 23 -23 35.5t-61 12.5h-18l14 68h16q35 0 62 11.5t27 33.5q0 31 -47 31
q-50 0 -92 -28z" />
    <glyph glyph-name="four.inferior" unicode="&#x2084;" horiz-adv-x="365" 
d="M230 -144h-107l17 91h-187l13 64l204 238h134l-43 -227h51l-15 -75h-50zM154 22l14 70q8 40 19 76h-3q-38 -55 -49 -69l-61 -75v-2h80z" />
    <glyph glyph-name="five.inferior" unicode="&#x2085;" horiz-adv-x="337" 
d="M290 246l-17 -87h-151l-13 -46q10 1 25 1q40 0 72 -16q64 -25 64 -91q0 -73 -59 -114.5t-149 -41.5q-74 0 -112 21l25 80q39 -17 88 -17q38 0 62 15.5t24 42.5q0 48 -97 48q-31 0 -55 -3l58 208h235z" />
    <glyph glyph-name="six.inferior" unicode="&#x2086;" horiz-adv-x="358" 
d="M296 249l-15 -82q-22 4 -44 1q-96 -8 -126 -75l1 -1q33 28 77 28q53 0 82.5 -31.5t29.5 -80.5q0 -66 -50 -111.5t-123 -45.5q-68 0 -110 40.5t-42 101.5q0 65 31.5 120t80.5 87q69 44 156 48q27 3 52 1zM133 -72q24 0 40.5 21t16.5 53q0 21 -12.5 33.5t-33.5 12.5
q-28 0 -46 -25l-9 -14q-4 -13 -4 -30q0 -22 13 -36.5t35 -14.5z" />
    <glyph glyph-name="seven.inferior" unicode="&#x2087;" horiz-adv-x="316" 
d="M11 246h291l-13 -67l-218 -323h-120l216 302v1h-173z" />
    <glyph glyph-name="eight.inferior" unicode="&#x2088;" horiz-adv-x="363" 
d="M180 251q54 0 92.5 -24.5t38.5 -71.5q0 -29 -22.5 -52.5t-55.5 -36.5l-1 -1q65 -31 65 -86q0 -43 -28 -73t-67.5 -42.5t-83.5 -12.5q-66 0 -106 28t-40 72q0 37 26.5 65t66.5 43v1q-50 27 -50 71q0 55 48.5 87.5t116.5 32.5zM132 -75q21 0 35.5 13t14.5 34q0 36 -47 52
q-50 -13 -50 -57q0 -18 13 -30t34 -12zM164 179q-18 0 -29.5 -11.5t-11.5 -27.5q0 -29 45 -46q40 11 40 47q0 17 -11 27.5t-33 10.5z" />
    <glyph glyph-name="nine.inferior" unicode="&#x2089;" horiz-adv-x="357" 
d="M-18 -149l12 84q16 -3 53 -3q40 3 70 19q45 20 63 60l-1 1q-27 -24 -76 -24q-50 0 -83.5 29.5t-33.5 81.5q0 65 52.5 109.5t124.5 44.5q68 0 107 -40t39 -104q0 -63 -29 -116.5t-74 -89.5q-64 -50 -170 -54q-11 -1 -54 2zM153 174q-23 0 -39.5 -20.5t-16.5 -48.5
q0 -21 13 -33.5t33 -12.5q29 0 46 20q5 5 10 20q2 12 2 24q0 22 -12.5 36.5t-35.5 14.5z" />
    <glyph glyph-name="parenleft.inferior" unicode="&#x208d;" horiz-adv-x="204" 
d="M115 283h74q-50 -66 -80.5 -149.5t-30.5 -169.5q0 -94 23 -163h-72q-33 75 -33 157q0 196 119 325z" />
    </font>
</defs>
</svg>
