<?xml version="1.0" standalone="no"?>
<!DOCTYPE svg PUBLIC "-//W3C//DTD SVG 1.1//EN" "http://www.w3.org/Graphics/SVG/1.1/DTD/svg11.dtd" >
<svg>
<metadata>
Created by FontForge 20090622 at Fri Dec  1 12:09:02 2017
 By deploy user
Copyright (c) 2015 Dan Reynolds. Copyright (c) 2010-2015, Sorkin Type Co (www.sorkintype.com) with Reserved Font Name 'Merriweather'
</metadata>
<defs>
<font id="Martel-ExtraBold" horiz-adv-x="0" >
  <font-face 
    font-family="Martel ExtraBold"
    font-weight="800"
    font-stretch="normal"
    units-per-em="1000"
    panose-1="0 0 9 0 0 0 0 0 0 0"
    ascent="800"
    descent="-200"
    x-height="546"
    cap-height="758"
    bbox="-1017 -557.004 1494 1101"
    underline-thickness="50"
    underline-position="-50"
    unicode-range="U+000D-U+FB02"
  />
<missing-glyph horiz-adv-x="590" 
 />
    <glyph glyph-name="fi" unicode="fi" horiz-adv-x="801" 
d="M355 840q68 0 94 -14v-113q-16 9 -47 16t-56 7q-42 0 -56.5 -20.5t-14.5 -80.5v-89h147v-90h-147v-384l115 -13v-59h-349v59l85 13v384h-95v47l95 36v48q0 100 70.5 176.5t158.5 76.5zM634 834q43 0 65.5 -22t22.5 -60q0 -43 -31.5 -70.5t-73.5 -27.5q-36 0 -62 23
t-26 60q0 41 32.5 69t72.5 28zM672 560l36 -11v-478l72 -12v-59h-291v59l71 12v334l-64 59v41z" />
    <glyph glyph-name="fl" unicode="fl" horiz-adv-x="799" 
d="M41 59l85 13v384h-95v47l95 36v48q0 100 70.5 176.5t158.5 76.5q68 0 94 -14v-113q-16 9 -47 16t-56 7q-42 0 -56.5 -20.5t-14.5 -80.5v-89h147v-90h-147v-384l115 -13v-59h-349v59zM485 59l66 12v616l-70 25v60l193 23l26 -10v-713l86 -13v-59h-301v59z" />
    <glyph glyph-name="f_f" unicode="ff" horiz-adv-x="891" 
d="M41 59l85 13v384h-95v47l95 36v48q0 100 70.5 176.5t158.5 76.5q68 0 94 -14v-113q-16 9 -47 16t-56 7q-42 0 -56.5 -20.5t-14.5 -80.5v-89h147v-90h-147v-384l115 -13v-59h-349v59zM486 59l85 13v384h-94v47l94 36v48q0 100 70.5 176.5t159.5 76.5q66 0 94 -14v-113
q-16 9 -47 16t-56 7q-42 0 -57 -21t-15 -80v-89h147v-90h-147v-384l116 -13v-59h-350v59z" />
    <glyph glyph-name="f_f_i" unicode="ffi" horiz-adv-x="1247" 
d="M355 840q68 0 94 -14v-113q-16 9 -47 16t-56 7q-42 0 -56.5 -20.5t-14.5 -80.5v-89h147v-90h-147v-384l115 -13v-59h-349v59l85 13v384h-95v47l95 36v48q0 100 70.5 176.5t158.5 76.5zM801 840q66 0 94 -14v-113q-16 9 -47 16t-56 7q-42 0 -57 -21t-15 -80v-89h147v-90
h-147v-384l116 -13v-59h-350v59l85 13v384h-94v47l94 36v48q0 100 70.5 176.5t159.5 76.5zM1079 834q43 0 66 -22t23 -60q0 -43 -31.5 -70.5t-73.5 -27.5q-37 0 -63 23t-26 60q0 40 33 68.5t72 28.5zM1118 560l36 -11v-478l72 -12v-59h-291v59l71 12v334l-64 59v41z" />
    <glyph glyph-name="f_f_l" unicode="ffl" horiz-adv-x="1245" 
d="M41 59l85 13v384h-95v47l95 36v48q0 100 70.5 176.5t158.5 76.5q68 0 94 -14v-113q-16 9 -47 16t-56 7q-42 0 -56.5 -20.5t-14.5 -80.5v-89h147v-90h-147v-384l115 -13v-59h-349v59zM486 59l85 13v384h-94v47l94 36v48q0 100 70.5 176.5t159.5 76.5q66 0 94 -14v-113
q-16 9 -47 16t-56 7q-42 0 -57 -21t-15 -80v-89h147v-90h-147v-384l116 -13v-59h-350v59zM931 59l66 12v616l-70 25v60l193 23l26 -10v-713l85 -13v-59h-300v59z" />
    <glyph glyph-name=".notdef" horiz-adv-x="590" 
 />
    <glyph glyph-name=".null" 
 />
    <glyph glyph-name="nonmarkingreturn" horiz-adv-x="333" 
 />
    <glyph glyph-name="CR" unicode="&#xd;" 
 />
    <glyph glyph-name="space" unicode=" " horiz-adv-x="224" 
 />
    <glyph glyph-name="exclam" unicode="!" horiz-adv-x="381" 
d="M289 869l-62 -604h-80l-58 604h200zM196 166q42 0 65.5 -23t23.5 -61q0 -42 -31.5 -69t-72.5 -27q-36 0 -62.5 22.5t-26.5 58.5q0 38 32.5 68.5t71.5 30.5z" />
    <glyph glyph-name="quotedbl" unicode="&#x22;" horiz-adv-x="616" 
d="M103 870h158l-36 -401h-86zM355 870h157l-36 -401h-85z" />
    <glyph glyph-name="numbersign" unicode="#" horiz-adv-x="718" 
d="M167 171h-107v94h114l14 150h-115v92h120l17 155h109l-13 -155h129l13 155h114l-13 -155h109v-92h-118l-13 -150h112l1 -94h-121l-15 -171h-110l12 171h-126l-16 -171h-112zM414 265l13 150h-127l-13 -150h127z" />
    <glyph glyph-name="dollar" unicode="$" horiz-adv-x="653" 
d="M69 216h64l41 -111q40 -50 145 -50q56 0 91 29t35 85q0 40 -35 72.5t-97 67.5q-52 27 -80 43t-65 42t-55 48.5t-31.5 53.5t-13.5 67q0 85 63.5 137.5t157.5 62.5l2 96h96l-2 -96q115 -10 160 -34v-154h-69l-43 101q-12 11 -45 18t-56 7q-49 0 -85 -23t-37 -70
q0 -50 38 -86t111 -77l66 -37t54 -33t49.5 -36.5t33 -37t25 -46.5t6.5 -53q0 -95 -70 -151t-177 -62l-5 -105h-99l4 106q-129 14 -177 41v185z" />
    <glyph glyph-name="percent" unicode="%" horiz-adv-x="989" 
d="M701 839l-327 -899h-105l327 899h105zM238 697q83 1 127.5 -47.5t44.5 -130.5q0 -83 -53.5 -131.5t-133.5 -49.5q-76 -1 -124 50t-48 126q0 83 54 132.5t133 50.5zM232 633q-35 0 -53.5 -33.5t-18.5 -81.5q0 -43 21.5 -79.5t52.5 -36.5t49 30t18 83q0 48 -19 83t-50 35z
M758 439q83 1 127.5 -47.5t44.5 -130.5q0 -83 -54 -131.5t-133 -49.5q-76 -1 -124.5 50t-48.5 126q0 83 54.5 132.5t133.5 50.5zM753 375q-34 0 -52.5 -33t-18.5 -82q0 -45 22 -80.5t52 -35.5q31 0 48.5 30t17.5 83q0 49 -19 83.5t-50 34.5z" />
    <glyph glyph-name="ampersand" unicode="&#x26;" horiz-adv-x="774" 
d="M349 760q90 0 147 -46t57 -119q0 -69 -48.5 -126.5t-120.5 -92.5q30 -40 89 -108.5t89 -97.5q6 22 6 77q0 72 -18 113h134q17 -25 17 -89q0 -94 -61 -167q50 -34 96 -37v-60q-27 -14 -79 -12q-75 4 -121 33q-72 -43 -175 -43q-61 0 -113.5 10.5t-96.5 33t-69.5 63
t-25.5 94.5q0 66 41.5 109.5t120.5 78.5q-43 56 -65.5 101.5t-21.5 92.5q2 88 65.5 140t152.5 52zM344 698q-33 0 -54.5 -22.5t-24.5 -61.5q-5 -52 16 -95t62 -90q44 28 62.5 68t18.5 99q0 42 -20 72t-60 30zM262 312q-63 -48 -63 -105q0 -72 47 -110t124 -38q66 0 99 15
q-42 37 -104.5 110t-102.5 128z" />
    <glyph glyph-name="quotesingle" unicode="'" horiz-adv-x="364" 
d="M103 870h158l-36 -401h-86z" />
    <glyph glyph-name="parenleft" unicode="(" horiz-adv-x="464" 
d="M332 -167q-115 64 -188 198.5t-73 318.5q0 165 77 307t177 204l61 -46q-71 -52 -120.5 -172.5t-53.5 -266.5q-5 -156 51 -293.5t135 -201.5z" />
    <glyph glyph-name="parenright" unicode=")" horiz-adv-x="464" 
d="M78 -123q71 52 120.5 172.5t53.5 266.5q5 156 -51.5 293.5t-134.5 201.5l66 48q115 -64 187.5 -199t72.5 -318q0 -165 -76.5 -307.5t-176.5 -203.5z" />
    <glyph glyph-name="asterisk" unicode="*" horiz-adv-x="613" 
d="M254 530l25 58l-41 -48l-125 -103l-65 90l155 83l58 13l-57 10l-158 74l65 99l127 -102l41 -46l-25 63l-12 155h122l-12 -155l-29 -63l45 52l123 94l76 -98l-168 -72l-59 -11l59 -14l167 -83l-76 -87l-124 101l-41 48l24 -58l15 -159h-122z" />
    <glyph glyph-name="plus" unicode="+" horiz-adv-x="637" 
d="M262 265l5 89l-77 -5h-105v110h105l77 -5l-5 89v105h112v-105l-5 -89l74 5h109v-110h-109l-74 5l5 -89v-101h-112v101z" />
    <glyph glyph-name="comma" unicode="," horiz-adv-x="372" 
d="M90 42l86 109q59 -19 90.5 -70t31.5 -114q-1 -86 -52 -151t-128 -92l-33 32v23q38 14 61.5 51t23.5 83q0 35 -24 64t-56 31v34z" />
    <glyph glyph-name="hyphen" unicode="-" horiz-adv-x="633" 
d="M88 456h456v-102h-456v102z" />
    <glyph glyph-name="period" unicode="." horiz-adv-x="378" 
d="M196 168q42 0 65.5 -23t23.5 -62q0 -42 -31 -69t-73 -27q-36 0 -62.5 23t-26.5 58q0 40 33 70t71 30z" />
    <glyph glyph-name="slash" unicode="/" horiz-adv-x="402" 
d="M275 781h112l-259 -958h-113z" />
    <glyph glyph-name="zero" unicode="0" horiz-adv-x="674" 
d="M347 611q137 1 205.5 -80.5t67.5 -226.5q-1 -135 -84 -226t-202 -91q-134 0 -207 91t-71 231q2 132 86 217t205 85zM333 544q-65 1 -90 -59t-25 -169q0 -96 33.5 -178t91.5 -83q66 -3 90.5 61t24.5 183q0 103 -31 173.5t-94 71.5z" />
    <glyph glyph-name="one" unicode="1" horiz-adv-x="477" 
d="M56 62l132 18v382q-96 -13 -135 -19l-15 70q42 12 130 50.5t109 54.5l57 -8l-2 -530l121 -18v-62h-397v62z" />
    <glyph glyph-name="two" unicode="2" horiz-adv-x="610" 
d="M49 56q127 76 221 174t94 178q0 49 -29.5 82.5t-81.5 33.5q-82 0 -170 -70l-36 55q30 44 106 76t147 32q95 0 157 -48.5t62 -123.5q0 -53 -23.5 -102.5t-70.5 -96t-97 -84t-122 -83.5l264 31l45 60l62 -19l-33 -151h-473z" />
    <glyph glyph-name="three" unicode="3" horiz-adv-x="538" 
d="M251 620q86 0 142 -42t56 -121q0 -56 -47.5 -111t-106.5 -73q91 0 145.5 -48t54.5 -125q0 -113 -99.5 -187.5t-239.5 -74.5q-47 0 -98 9l-1 77q37 -9 74 -9q92 0 154.5 49t62.5 127q0 128 -133 137q-6 -1 -19 -3.5t-19 -4.5l-58 -12v82q73 8 129.5 51t56.5 101
q1 44 -25.5 67t-66.5 23q-32 0 -60 -7.5t-43.5 -15.5t-48.5 -27l-37 56q40 37 100.5 59.5t126.5 22.5z" />
    <glyph glyph-name="four" unicode="4" horiz-adv-x="631" 
d="M37 58l52 88.5l57.5 99l48.5 86l55.5 100.5l45.5 88.5t49 101.5h43l95 -65l-291 -440l-35 -44l230 20l5 199l120 18v-204l93 8v-114h-93v-184h-134l6 184h-326z" />
    <glyph glyph-name="five" unicode="5" horiz-adv-x="547" 
d="M57 -98q119 -11 204 46t85 164q0 100 -64 133.5t-169 4.5l-50 18l32 336h305l14 15h61l-36 -129h-243l-34 -165q63 24 123.5 19t108 -28t77 -72.5t29.5 -114.5q0 -128 -114.5 -214t-271.5 -86q-37 0 -57 6v67z" />
    <glyph glyph-name="six" unicode="6" horiz-adv-x="644" 
d="M496 755l33 -63q-134 -37 -227.5 -148t-94.5 -233q-4 -257 129 -257q58 0 87 50.5t29 122.5q0 65 -31.5 109.5t-80.5 44.5q-43 0 -72 -18l-23 43q16 27 61.5 47t90.5 20q93 0 144.5 -60.5t51.5 -153.5q0 -116 -76 -193t-198 -77q-116 0 -188.5 80.5t-72.5 201.5
q0 177 131.5 315t306.5 169z" />
    <glyph glyph-name="seven" unicode="7" horiz-adv-x="603" 
d="M143 -110q142 266 305 645l-261 -13l-39 -104l-86 3l19 191h460l25 -27l-276 -746z" />
    <glyph glyph-name="eight" unicode="8" horiz-adv-x="625" 
d="M321 763q96 0 159.5 -47t63.5 -128q0 -52 -39.5 -107t-90.5 -77q80 -52 122 -98.5t42 -104.5q1 -103 -74 -158.5t-184 -55.5q-112 0 -189.5 50t-77.5 145q0 63 43 117.5t114 82.5q-122 88 -122 190q0 89 68.5 140t164.5 51zM314 701q-41 0 -72 -27.5t-31 -69.5
q0 -43 37 -79.5t106 -81.5q32 17 51 52t19 76q1 56 -30.5 93t-79.5 37zM268 343q-82 -52 -82 -125q0 -70 40 -117.5t104 -47.5q49 0 81 31t32 81q0 25 -11 46.5t-39 45t-45 35.5t-61 39q-13 8 -19 12z" />
    <glyph glyph-name="nine" unicode="9" horiz-adv-x="639" 
d="M131 -136q125 35 212.5 165t89.5 262q1 55 -4 97.5t-18 80t-39 58t-65 20.5q-58 0 -87.5 -50.5t-29.5 -123.5q0 -64 32 -108.5t80 -44.5q46 0 73 19l22 -45q-19 -31 -60.5 -48.5t-91.5 -17.5q-92 0 -144 61t-52 153q0 117 76 193.5t199 76.5q117 0 187.5 -80.5
t70.5 -201.5q0 -185 -126.5 -342t-292.5 -187z" />
    <glyph glyph-name="colon" unicode=":" horiz-adv-x="378" 
d="M196 535q43 0 66 -22.5t23 -60.5q0 -42 -31 -69t-73 -27q-36 0 -62.5 22.5t-26.5 58.5q0 39 32.5 68.5t71.5 29.5zM196 165q42 0 65.5 -23.5t23.5 -61.5q0 -42 -31.5 -69t-72.5 -27q-36 0 -62.5 23t-26.5 59q0 38 32.5 68.5t71.5 30.5z" />
    <glyph glyph-name="semicolon" unicode=";" horiz-adv-x="386" 
d="M196 535q43 0 66 -22.5t23 -60.5q0 -42 -31 -69t-73 -27q-36 0 -62 22.5t-26 58.5q0 40 32.5 69t70.5 29zM193 151q58 -19 90 -71t31 -113q-1 -86 -52 -151.5t-127 -91.5l-34 32v23q38 15 61.5 52t23.5 82q0 35 -24 64t-55 31v34z" />
    <glyph glyph-name="less" unicode="&#x3c;" horiz-adv-x="650" 
d="M81 406l474 244v-127l-321 -150l321 -141v-130l-474 238v66z" />
    <glyph glyph-name="equal" unicode="=" horiz-adv-x="633" 
d="M88 569h456v-101h-456v101zM88 325h456v-101h-456v101z" />
    <glyph glyph-name="greater" unicode="&#x3e;" horiz-adv-x="650" 
d="M96 223l321 151l-321 140v130l473 -238v-66l-473 -244v127z" />
    <glyph glyph-name="question" unicode="?" horiz-adv-x="511" 
d="M155 905q143 -4 225 -83t82 -198q0 -51 -12.5 -75t-51.5 -43l-47.5 -22t-44 -21t-30.5 -18t-23.5 -20.5t-6.5 -21.5q0 -43 48 -146h-101q-32 28 -57.5 75.5t-25.5 82.5q0 25 26.5 47.5t56.5 34t77.5 27.5t63.5 23q37 16 37 30q1 78 -65 140.5t-178 63.5q-58 0 -80 -15
l-6 115q9 11 44.5 17.5t68.5 6.5zM277 166q42 0 65.5 -23t23.5 -61q0 -42 -31.5 -69t-72.5 -27q-36 0 -62 22.5t-26 58.5q0 40 32.5 69.5t70.5 29.5z" />
    <glyph glyph-name="at" unicode="@" horiz-adv-x="1092" 
d="M620 710q174 0 284.5 -81t110.5 -231q0 -158 -87.5 -266.5t-206.5 -113.5q-41 -1 -59 21.5t-19 72.5q-2 31 8 92q-36 -80 -85.5 -135t-104.5 -57q-60 -2 -106.5 52t-46.5 131q0 126 72 224t175 98q60 0 117 -25q12 30 27 25q30 -9 99 -32q-38 -211 -41 -304
q-2 -29 1.5 -57t10.5 -28q41 0 89.5 83.5t48.5 177.5q0 145 -89 212.5t-241 67.5q-150 0 -261.5 -117t-111.5 -282q0 -174 92.5 -260.5t257.5 -86.5q42 0 105.5 12.5t84.5 25.5l28 -57q-77 -57 -243 -57q-197 0 -322 99.5t-125 276.5q0 109 45 206.5t119 165.5t172 107.5
t202 39.5zM554 428q-62 0 -93 -51.5t-31 -130.5q0 -51 12.5 -92t41.5 -41q34 0 92 105.5t67 186.5q-12 9 -42 16t-47 7z" />
    <glyph glyph-name="A" unicode="A" horiz-adv-x="765" 
d="M2 60l66 18l245 680h139l236 -680l75 -19v-59h-310v59l69 20l-30 100h-273l-31 -99l75 -20v-60h-261v60zM468 259l-69 228l-39 138l-116 -366h224z" />
    <glyph glyph-name="B" unicode="B" horiz-adv-x="706" 
d="M43 60l78 19v599l-76 10v70h143q18 0 81.5 3.5t92.5 3.5q124 0 193.5 -43.5t69.5 -134.5q0 -67 -35 -114.5t-97 -63.5q76 -1 129.5 -54.5t53.5 -128.5q0 -232 -337 -232q-33 0 -92 3t-90 3h-114v60zM270 430q18 -3 80 -3q70 0 101 36.5t31 109.5q0 124 -143 124
q-47 0 -68 -7zM269 76q28 -15 108 -15q67 0 104.5 41.5t37.5 111.5q0 68 -39 106t-105 38q-73 0 -106 -5v-277z" />
    <glyph glyph-name="C" unicode="C" horiz-adv-x="710" 
d="M455 765q34 0 70 -4.5t58 -9t48 -11l30 -7.5l-10 -175h-86l-33 94q-37 33 -119 33q-96 0 -154.5 -81.5t-58.5 -209.5q0 -88 24.5 -162.5t77 -123t122.5 -48.5q104 0 129 45l36 91h72v-164q-3 0 -88 -23t-165 -23q-167 0 -269.5 101t-102.5 267q0 177 121.5 294t297.5 117
z" />
    <glyph glyph-name="D" unicode="D" horiz-adv-x="786" 
d="M46 60l75 18v600l-73 10v70h151q30 0 87 3.5t88 3.5q185 1 280.5 -93t95.5 -272q0 -186 -108 -296.5t-283 -108.5q-19 0 -72 2.5t-86 2.5h-155v60zM271 80q44 -21 122 -14q90 5 144.5 91t54.5 211q0 163 -60 245.5t-175 80.5q-55 0 -86 -12v-602z" />
    <glyph glyph-name="E" unicode="E" horiz-adv-x="680" 
d="M49 60l75 18v600l-72 10v70h540l14 -158h-86l-38 79l-208 9v-263l142 4l23 74h76v-229h-76l-23 76l-142 3v-283l237 13l58 97l85 -16l-25 -164h-580v60z" />
    <glyph glyph-name="F" unicode="F" horiz-adv-x="633" 
d="M45 60l76 15v603l-77 10v70h549l13 -161l-75 -1l-31 77l-230 10v-267l164 5l28 74h65v-235h-73l-19 78l-164 2v-260l151 -12v-68h-377v60z" />
    <glyph glyph-name="G" unicode="G" horiz-adv-x="767" 
d="M435 765q142 0 242 -28l-10 -160h-77l-39 87q-11 11 -45 21t-87 9q-102 -1 -162.5 -85t-60.5 -211q0 -92 20.5 -166.5t70 -125t123.5 -50.5q43 0 84 16t52 43v148l-107 12v71h293v-71l-50 -11v-234q-31 4 -137 -20t-164 -24q-154 0 -250 106.5t-96 269.5q0 183 111.5 293
t288.5 110z" />
    <glyph glyph-name="H" unicode="H" horiz-adv-x="858" 
d="M38 60l83 19v599l-84 10v70h317v-70l-83 -10v-257h316v258l-81 9v70h315v-70l-84 -10v-600l89 -19v-59h-326v59l87 19v260h-316v-259l88 -19v-60h-321v60z" />
    <glyph glyph-name="I" unicode="I" horiz-adv-x="402" 
d="M34 60l91 18v600l-90 10v70h328v-70l-87 -11v-598l92 -19v-60h-334v60z" />
    <glyph glyph-name="J" unicode="J" horiz-adv-x="374" 
d="M345 758v-70l-72 -10v-415q0 -195 -24 -270q-27 -80 -108 -131t-161 -54l-31 44q113 41 148 123q24 69 24 222v481l-75 10v70h299z" />
    <glyph glyph-name="K" unicode="K" horiz-adv-x="733" 
d="M31 60l90 19v598l-90 11v70h324v-70l-85 -11v-295l240 296l-76 10l-2 70h285v-70l-88 -11l-216 -242q40 -38 137.5 -193.5t120.5 -163.5l68 -18v-60h-189q-22 0 -58 69l-81 157.5t-78 119.5l-63 -72v-195l96 -19v-60h-335v60z" />
    <glyph glyph-name="L" unicode="L" horiz-adv-x="624" 
d="M47 60l74 18v592l-71 9v79h310v-79l-88 -10l-1 -597l202 17l75 116l65 -26l-33 -179h-533v60z" />
    <glyph glyph-name="M" unicode="M" horiz-adv-x="994" 
d="M32 60l84 19l39 589l-92 11v79h300l135 -432l18 -91l21 92l128 431h276v-79l-91 -11l51 -590l79 -19v-59h-303v59l81 20l-31 399l-2 190l-18 -72l-183 -604h-55l-169 499q-5 14 -57 176l-2 -146l-18 -441l91 -20v-60h-282v60z" />
    <glyph glyph-name="N" unicode="N" horiz-adv-x="827" 
d="M796 758v-78l-72 -10v-670h-164l-283 466l-57 133l1 -518l97 -21v-60h-276v60l79 20v589l-75 10v79h225l304 -518l51 -121v549l-86 12v78h256z" />
    <glyph glyph-name="O" unicode="O" horiz-adv-x="774" 
d="M402 765q154 0 247.5 -107t90.5 -272q-3 -178 -101 -289t-254 -111q-158 0 -254 106.5t-94 272.5q2 110 46.5 198.5t120.5 140.5q90 61 198 61zM392 694q-189 0 -189 -325q0 -124 51.5 -218.5t139.5 -94.5q99 0 140 85.5t41 243.5q0 134 -50 221.5t-133 87.5z" />
    <glyph glyph-name="P" unicode="P" horiz-adv-x="657" 
d="M33 60l88 19v590l-83 14v75h161q20 0 76.5 3.5t92.5 3.5q137 0 209.5 -51t72.5 -172q0 -116 -83 -183t-208 -66h-90v-214l123 -19v-60h-359v60zM269 371q24 -5 87 -5q70 0 107.5 46.5t37.5 134.5q0 72 -42.5 110t-116.5 37q-51 -2 -73 -8v-315z" />
    <glyph glyph-name="Q" unicode="Q" horiz-adv-x="774" 
d="M402 765q153 0 246 -105.5t92 -267.5q-1 -153 -73 -259t-197 -136q31 -70 139 -70q55 0 110 22l3 -93q-39 -42 -133 -42q-155 0 -192 172h-10q-157 0 -254 105t-96 267q0 121 50.5 215.5t139.5 145.5q81 46 175 46zM392 694q-189 0 -189 -325q0 -124 51.5 -218.5
t139.5 -94.5q68 0 109.5 43.5t56.5 113t15 172.5q0 78 -19 146.5t-62 115.5t-102 47z" />
    <glyph glyph-name="R" unicode="R" horiz-adv-x="729" 
d="M358 765q283 0 283 -199q0 -168 -164 -226q14 -7 21 -14q31 -25 67 -84l65 -108t48 -57l60 -17v-60h-187q-21 0 -47.5 50.5t-49 110.5t-55.5 109.5t-64 48.5q-30 -1 -65 -1v-240l96 -18v-60h-332v60l87 19v594l-77 10v75h115q32 0 101 3.5t98 3.5zM338 694q-56 -2 -68 -7
v-296q22 -3 61 -3q84 0 124 38t40 124q0 68 -40.5 106.5t-116.5 37.5z" />
    <glyph glyph-name="S" unicode="S" horiz-adv-x="630" 
d="M315 -13q-63 0 -137.5 13t-108.5 31v185h64l42 -111q40 -50 144 -50q56 0 91 29.5t35 84.5q0 40 -35 73t-97 67l-79.5 43.5t-64.5 41.5t-55 48.5t-31.5 53.5t-13.5 67q0 93 76.5 147.5t177.5 54.5q56 0 125 -11t97 -25v-154h-69l-43 101q-13 11 -43.5 18t-57.5 7
q-49 0 -85.5 -23t-36.5 -70q0 -55 44.5 -93t144.5 -91q93 -48 144 -99t51 -123q0 -103 -79.5 -159t-199.5 -56z" />
    <glyph glyph-name="T" unicode="T" horiz-adv-x="683" 
d="M162 60l115 18v607l-148 -13l-34 -98l-74 -3l12 187h631l-1 -183l-60 -8l-34 106l-143 12v-607l115 -18v-60h-379v60z" />
    <glyph glyph-name="U" unicode="U" horiz-adv-x="782" 
d="M767 758v-70l-72 -11v-348q0 -168 -72 -255.5t-213 -87.5q-163 0 -240 80t-76 244q0 61 1 183.5t1 184.5l-77 10v70h311v-70l-85 -11v-372q0 -125 45.5 -184t138.5 -59q168 0 168 266l-1 349l-84 11v70h255z" />
    <glyph glyph-name="V" unicode="V" horiz-adv-x="719" 
d="M65 679l-60 9v70h307v-69l-83 -11l124 -409l32 -123l30 122l114 410l-77 10v70h262v-70l-59 -9l-226 -687h-115z" />
    <glyph glyph-name="W" unicode="W" horiz-adv-x="1087" 
d="M67 678l-62 10v70h293v-70l-69 -10l126 -466q16 -68 21 -86l20 84l96 388l-22 80l-68 10v70h301v-70l-82 -10l110 -470l20 -86l22 92l114 464l-76 10v70h270v-70l-73 -10l-204 -687h-141l-120 425l-118 -424h-133z" />
    <glyph glyph-name="X" unicode="X" horiz-adv-x="738" 
d="M10 59l87 20l203 291l-208 308l-76 10v70h323v-69l-76 -11l119 -213l129 213l-69 10v70h283v-70l-87 -10l-205 -278l218 -320l80 -21v-59h-324v59l77 18l-131 220l-126 -218l92 -20v-59h-309v59z" />
    <glyph glyph-name="Y" unicode="Y" horiz-adv-x="704" 
d="M178 60l112 20v189l-229 410l-55 9v70h287v-69l-59 -9l133 -268l17 -48l19 51l115 262l-80 11l-1 70h260v-70l-64 -17l-193 -392v-198l123 -21v-60h-385v60z" />
    <glyph glyph-name="Z" unicode="Z" horiz-adv-x="673" 
d="M626 758l20 -64l-375 -548l-64 -74l301 22l86 128l66 -17l-48 -205h-563l-18 60l380 548l72 80l-301 -20l-57 -116l-68 12l19 194h550z" />
    <glyph glyph-name="bracketleft" unicode="[" horiz-adv-x="507" 
d="M117 734q0 78 30.5 107.5t104.5 29.5q46 0 145 -33l-1 -54h-147v-803l147 -1l2 -55q-65 -31 -145 -31q-79 0 -107.5 32.5t-28.5 119.5v688z" />
    <glyph glyph-name="backslash" unicode="\" horiz-adv-x="402" 
d="M128 781l259 -958h-112l-260 958h113z" />
    <glyph glyph-name="bracketright" unicode="]" horiz-adv-x="507" 
d="M256 -19v803h-148v54q99 33 145 33q74 0 104 -29t30 -108v-688q0 -87 -28.5 -119.5t-106.5 -32.5q-80 0 -145 31l1 55z" />
    <glyph glyph-name="asciicircum" unicode="^" horiz-adv-x="706" 
d="M282 748h145l191 -473h-135l-137 337l-141 -337h-117z" />
    <glyph glyph-name="underscore" unicode="_" horiz-adv-x="693" 
d="M701 -94v-101h-711v101h711z" />
    <glyph glyph-name="grave" unicode="`" horiz-adv-x="432" 
d="M333 653q-50 4 -117.5 52t-103.5 100l108 88l151 -202z" />
    <glyph glyph-name="a" unicode="a" horiz-adv-x="587" 
d="M298 560q105 0 159.5 -45t54.5 -149v-307h63v-47q-37 -25 -115 -25q-75 0 -79 58q-58 -58 -149 -58q-84 0 -137.5 42t-53.5 112q0 67 51 113t121 65t150 19v16q0 67 -27 94.5t-86 27.5q-38 0 -82.5 -11.5t-72.5 -29.5l-29 66q36 28 104 43.5t128 15.5zM363 270
q-70 0 -120.5 -26.5t-50.5 -82.5q0 -90 91 -90q50 0 80 27v172z" />
    <glyph glyph-name="b" unicode="b" horiz-adv-x="639" 
d="M81 688l-68 25v60l191 21l26 -8v-264q61 40 137 40q107 0 169.5 -69.5t62.5 -197.5q0 -130 -85.5 -219.5t-213.5 -89.5q-63 0 -130 12.5t-89 27.5v662zM230 92q18 -41 86 -41q62 0 96.5 63t36.5 163q2 90 -37.5 147.5t-102.5 57.5q-45 0 -79 -20v-370z" />
    <glyph glyph-name="c" unicode="c" horiz-adv-x="541" 
d="M345 562q112 0 156 -25v-144h-76l-35 83q-21 15 -68 15q-60 0 -94 -55.5t-35 -142.5q0 -102 45 -160t120 -58q91 0 138 33l23 -56q-74 -65 -217 -65q-121 0 -190.5 75t-70.5 199q0 135 85 217t219 84z" />
    <glyph glyph-name="d" unicode="d" horiz-adv-x="658" 
d="M535 795l29 -12v-724h68v-48q-48 -26 -134 -26q-59 0 -72 44q-55 -42 -160 -42q-99 0 -162.5 77t-63.5 200q0 130 89 214t218 84q39 0 68 -6v131l-106 25v60zM332 501q-60 0 -99 -58.5t-40 -145.5q-2 -99 35.5 -167t102.5 -68q55 0 84 20v395q-32 24 -83 24z" />
    <glyph glyph-name="e" unicode="e" horiz-adv-x="591" 
d="M330 562q101 1 157 -51.5t60 -152.5q1 -44 -7 -97h-347q5 -90 47 -138t119 -48q83 0 152 32l23 -55q-37 -32 -102 -49.5t-125 -15.5q-128 1 -197.5 74t-69.5 202q0 131 80.5 214.5t209.5 84.5zM312 499q-52 0 -82 -44t-36 -122h206q4 78 -14 107q-12 59 -74 59z" />
    <glyph glyph-name="f" unicode="f" horiz-adv-x="446" 
d="M41 59l85 13v384h-95v47l95 36v48q0 100 70.5 176.5t158.5 76.5q68 0 94 -14v-113q-16 9 -47 16t-56 7q-42 0 -56.5 -20.5t-14.5 -80.5v-89h147v-90h-147v-384l115 -13v-59h-349v59z" />
    <glyph glyph-name="g" unicode="g" horiz-adv-x="612" 
d="M295 564q107 2 167 -44q22 39 100 39h48v-104h-99q13 -33 13 -70q0 -96 -68 -146.5t-174 -50.5q-52 0 -91 10q-7 -16 -7 -43q0 -56 67 -57q36 -1 119 -1q120 0 171 -37.5t51 -119.5q0 -95 -86.5 -147t-217.5 -52q-245 0 -245 144q0 42 23 77t59 56q-34 13 -44 33.5
t-10 55.5q0 24 19 57t45 54q-90 47 -90 150q0 93 71.5 143.5t178.5 52.5zM284 501q-42 0 -67.5 -26.5t-25.5 -74.5q0 -142 104 -142q89 0 89 118q0 125 -100 125zM190 4q-18 -29 -18 -76q0 -59 40 -88t103 -29q72 0 108 21t36 74t-25.5 74t-94.5 21h-79q-40 0 -70 3z" />
    <glyph glyph-name="h" unicode="h" horiz-adv-x="693" 
d="M39 59l71 12v616l-72 25v60l194 23l27 -10l-1 -232l-7 -61q77 68 184 68q98 0 131 -61.5t31 -195.5v-232l69 -12v-59l-292 1v58l75 12v203q0 41 -1.5 66t-6.5 51.5t-15.5 40.5t-29 23t-45.5 9q-56 0 -92 -28v-365l55 -12v-59h-275v59z" />
    <glyph glyph-name="i" unicode="i" horiz-adv-x="355" 
d="M188 834q43 0 65.5 -22t22.5 -60q0 -43 -31.5 -70.5t-73.5 -27.5q-36 0 -62 23t-26 60q0 40 33 68.5t72 28.5zM226 560l36 -11v-478l73 -12v-59h-291v59l70 12v334l-63 59v41z" />
    <glyph glyph-name="j" unicode="j" horiz-adv-x="329" 
d="M173 839q43 0 66 -22.5t23 -60.5q0 -41 -31 -69t-74 -28q-37 0 -62.5 22.5t-25.5 59.5q0 41 32.5 69.5t71.5 28.5zM220 560l35 -12v-566q0 -110 -48 -176.5t-135 -66.5q-20 0 -49 5t-38 10v84q20 -5 58 -5q39 0 51 39t12 126v407l-58 61v38z" />
    <glyph glyph-name="k" unicode="k" horiz-adv-x="651" 
d="M40 59l70 13v604l-81 30v61l203 28l27 -12v-437l-5 -71l176 187l-85 9v77h287v-77l-91 -8l-133 -130l179 -264l55 -10v-59h-273v59l49 13l-106 175l-58 -63l4 -56v-58l62 -11v-59h-280v59z" />
    <glyph glyph-name="l" unicode="l" horiz-adv-x="354" 
d="M40 59l65 12v616l-69 25v60l192 23l26 -10v-713l86 -13v-59h-300v59z" />
    <glyph glyph-name="m" unicode="m" horiz-adv-x="1044" 
d="M54 59l62 12v344l-67 44v52l166 49l32 -9v-72q32 33 84 57t98 25q122 7 157 -75q38 34 87.5 54t98.5 20q94 1 135.5 -57.5t41.5 -175.5v-256l72 -12v-59h-281v59l60 12v236q0 88 -21 121.5t-86 32.5q-41 0 -89 -30q7 -28 7 -92v-268l71 -12v-59h-290v59l70 13v240
q0 81 -20.5 115.5t-77.5 33.5q-58 0 -99 -33v-357l67 -12v-59h-278v59z" />
    <glyph glyph-name="n" unicode="n" horiz-adv-x="706" 
d="M53 59l63 11v345l-67 44v52l165 49l33 -9v-72q36 36 93 58.5t108 22.5q90 1 126 -53.5t36 -169.5v-267l71 -11v-59h-291v59l71 12v246q0 84 -20 114t-84 29q-19 -1 -47 -10t-45 -21v-358l64 -12v-59h-276v59z" />
    <glyph glyph-name="o" unicode="o" horiz-adv-x="636" 
d="M328 563q131 0 200.5 -73.5t69.5 -203.5q-1 -135 -79.5 -216.5t-203.5 -81.5q-135 0 -205.5 78t-68.5 211q3 132 81.5 207.5t205.5 78.5zM323 497q-66 1 -95 -55.5t-29 -153.5q0 -94 30 -163.5t91 -69.5q35 0 59 17t37 49.5t18.5 70.5t5.5 86q0 96 -27.5 157t-89.5 62z
" />
    <glyph glyph-name="p" unicode="p" horiz-adv-x="655" 
d="M396 562q105 0 162 -70.5t57 -200.5q0 -127 -85.5 -215t-211.5 -88q-20 0 -70 9l5 -95v-79l101 -13v-60h-315v60l66 13v592l-67 44v52l165 49l30 -9v-61q17 29 66 50.5t97 21.5zM335 481q-25 0 -47.5 -12.5t-34.5 -26.5v-342q8 -18 34.5 -27t56.5 -9q56 0 90 57.5
t35 146.5q0 97 -35.5 155t-98.5 58z" />
    <glyph glyph-name="q" unicode="q" horiz-adv-x="638" 
d="M353 562q82 0 123 -27l65 25l24 -10v-729l64 -11v-60h-308v60l95 10v157l5 65q-55 -55 -144 -55q-108 0 -172.5 70.5t-64.5 211.5q0 127 89.5 210t223.5 83zM345 495q-147 0 -152 -204q-2 -97 31.5 -156t102.5 -59q57 0 89 28v360q-21 31 -71 31z" />
    <glyph glyph-name="r" unicode="r" horiz-adv-x="466" 
d="M50 59l66 12v344l-67 44v52l165 49l31 -9v-89q13 37 60 67.5t88 30.5q39 0 52 -5v-137q-28 20 -84 20q-62 0 -96 -22v-342l122 -15v-59h-337v59z" />
    <glyph glyph-name="s" unicode="s" horiz-adv-x="528" 
d="M59 155h69l27 -56q27 -25 47 -36.5t50 -12.5q47 -2 73.5 16.5t26.5 53.5q0 7 -2.5 14t-8 13t-10 11.5t-14 11.5l-16 10t-19 10t-19 9.5t-21.5 10t-21 9.5q-82 39 -125 82t-42 107q2 73 69.5 113.5t152.5 40.5q45 1 98.5 -8t82.5 -22v-125h-72l-25 59q-32 38 -76 38
q-37 0 -60 -14.5t-24 -41.5q0 -20 8.5 -36t31 -31t40 -24t57.5 -27q78 -36 117.5 -71.5t39.5 -97.5q0 -87 -69.5 -130t-177.5 -43q-113 0 -188 43v124z" />
    <glyph glyph-name="t" unicode="t" horiz-adv-x="442" 
d="M240 677v-131h167v-79h-162v-206q0 -35 0.5 -55t2 -44t5.5 -37t10.5 -25t16.5 -17t24 -5q19 0 48 6t42 13l23 -51q-27 -27 -80.5 -42.5t-103.5 -15.5q-73 0 -103 39.5t-30 128.5v311h-74v49q40 8 59.5 16.5t32.5 25.5q24 30 51 119h71z" />
    <glyph glyph-name="u" unicode="u" horiz-adv-x="644" 
d="M82 440l-47 28v53l167 39l24 -8v-339q0 -74 17 -106.5t67 -32.5q27 0 57 10.5t44 24.5v324l-61 29v59l184 39l23 -8v-493h57v-48q-16 -11 -56 -18.5t-68 -7.5q-29 0 -46.5 12.5t-17.5 37.5v26q-29 -31 -77.5 -52.5t-89.5 -21.5q-103 0 -140 51.5t-37 162.5v239z" />
    <glyph glyph-name="v" unicode="v" horiz-adv-x="613" 
d="M51 459l-49 12v75h261v-76l-49 -13l89 -240l32 -107l28 107l78 241l-60 12v76h230v-76l-55 -15l-187 -460h-118z" />
    <glyph glyph-name="w" unicode="w" horiz-adv-x="877" 
d="M56 458l-55 12v76h258v-76l-54 -12l67 -249l19 -86l15 76l92 347h125l90 -346l19 -81l18 79l60 258l-64 14v76h230v-76l-66 -15l-132 -460h-139l-85 287l-22 95l-19 -95l-76 -287h-134z" />
    <glyph glyph-name="x" unicode="x" horiz-adv-x="615" 
d="M1 59l78 15l154 188l-165 197l-65 11v76h289v-76l-53 -11l41 -62l49 -65l14 24l78 105l-64 9v76h255v-76l-85 -14l-148 -171l172 -212l63 -14v-59h-284v59l49 13l-47 66l-51 68l-12 -23l-74 -109l77 -15v-59h-271v59z" />
    <glyph glyph-name="y" unicode="y" horiz-adv-x="590" 
d="M72 -139q31 -8 62 -7q45 0 79 37.5t53 108.5h-26l-193 458l-45 12v76h267v-76l-60 -11l102 -282l15 -65l20 65l85 283l-70 10v76h236v-76l-50 -9q-17 -52 -63.5 -173l-81.5 -210t-41 -103q-57 -148 -119 -191q-42 -45 -104 -45q-53 0 -66 8v114z" />
    <glyph glyph-name="z" unicode="z" horiz-adv-x="551" 
d="M504 546l21 -54l-248 -355l-57 -71l202 15l29 84h78l-7 -165h-471l-21 46l50 77l229 313l40 45l-189 -9l-32 -96h-75v170h451z" />
    <glyph glyph-name="braceleft" unicode="{" horiz-adv-x="538" 
d="M137 276q0 23 -28.5 38t-68.5 21v94q97 13 97 54v267q0 67 29.5 94.5t92.5 27.5q20 0 40 -3t33 -6t40.5 -11t43.5 -12v-55h-148v-311q0 -9 -1.5 -16.5t-5.5 -14.5l-7 -12t-11 -11l-12 -9t-15.5 -8.5t-16 -7.5l-18.5 -8t-19 -8q55 -23 80.5 -43t25.5 -55v-310h148v-56
q-102 -31 -150 -31q-68 0 -98.5 28.5t-30.5 99.5v264z" />
    <glyph glyph-name="bar" unicode="|" horiz-adv-x="499" 
d="M178 869h146v-960h-146v960z" />
    <glyph glyph-name="braceright" unicode="}" horiz-adv-x="527" 
d="M258 -29v310q0 35 25 55.5t80 42.5q-32 13 -45 19.5t-30.5 18t-23.5 25t-6 32.5v311h-148l-1 55q114 32 157 32q65 0 93.5 -27.5t28.5 -94.5v-267q0 -40 97 -54v-94q-40 -6 -68.5 -22t-28.5 -37v-264q0 -71 -30.5 -99.5t-97.5 -28.5q-46 0 -151 31l1 56h148z" />
    <glyph glyph-name="asciitilde" unicode="~" horiz-adv-x="634" 
d="M72 418q10 40 64.5 76t103.5 36q42 0 92.5 -36.5t79.5 -36.5q49 0 106 50l45 -56q-13 -42 -64.5 -77t-102.5 -35q-43 0 -91 36.5t-84 36.5q-21 0 -41.5 -8t-32.5 -16.5t-31 -24.5z" />
    <glyph glyph-name="DEL" 
 />
    <glyph glyph-name="uni00A0" unicode="&#xa0;" horiz-adv-x="224" 
 />
    <glyph glyph-name="exclamdown" unicode="&#xa1;" horiz-adv-x="382" 
d="M204 703q43 0 66 -23t23 -62q0 -41 -31.5 -68.5t-72.5 -27.5q-37 0 -62.5 23t-25.5 59q0 40 32.5 69.5t70.5 29.5zM231 417l58 -629h-200l62 629h80z" />
    <glyph glyph-name="cent" unicode="&#xa2;" horiz-adv-x="578" 
d="M251 -7q-95 17 -147.5 88.5t-52.5 176.5q-1 123 69.5 204t185.5 97l6 106h84l-6 -104q82 -4 121 -24v-144h-76l-35 83q-21 15 -69 15q-58 0 -92 -52t-36 -134q-3 -106 42.5 -168t122.5 -62q91 0 138 33l23 -56q-67 -58 -194 -64l-5 -94h-85z" />
    <glyph glyph-name="sterling" unicode="&#xa3;" horiz-adv-x="740" 
d="M452 766q91 0 150 -49l-67 -123q-20 39 -56 68t-78 29q-40 0 -54.5 -51t-14.5 -156v-51h133v-91h-133v-23q0 -79 -12.5 -129.5t-45.5 -92.5q17 -1 67.5 -16.5t83.5 -17.5q53 -5 88.5 20t35.5 61q0 20 -13.5 39t-30.5 28l60 118q47 -11 79.5 -54t34.5 -96
q2 -81 -55.5 -137.5t-159.5 -59.5q-59 -2 -111 13.5t-87.5 31t-55.5 14.5q-48 -55 -122 -55q-30 -2 -52 10t-22 37q0 35 46.5 58t107.5 22q14 29 14 111v118h-80v91h80v32q0 125 76 213t194 88z" />
    <glyph glyph-name="currency" unicode="&#xa4;" horiz-adv-x="720" 
d="M152 612l101 -102q48 28 102 28q55 0 105 -30l109 106l67 -67l-108 -106q30 -49 30 -105q0 -58 -30 -105l100 -101l-66 -66l-101 101q-49 -30 -106 -30q-55 0 -103 28l-100 -101l-67 66l99 100q-31 48 -31 108t31 110l-98 99zM356 437q-40 0 -69 -30t-29 -71
q0 -40 29.5 -70.5t68.5 -30.5t67.5 30.5t28.5 70.5q0 41 -28.5 71t-67.5 30z" />
    <glyph glyph-name="yen" unicode="&#xa5;" horiz-adv-x="727" 
d="M172 60l110 20v95h-185v75h185v71l-12 29h-173v76h130l-154 252l-58 10v70h288v-69l-58 -9l99 -191l26 -63h9l31 67q13 25 90 185l-75 10v70h259v-70l-69 -18l-140 -244h145v-76h-186l-2 -13v-87h188v-75h-188v-94l118 -21v-60h-378v60z" />
    <glyph glyph-name="brokenbar" unicode="&#xa6;" horiz-adv-x="499" 
d="M178 869h146v-429h-146v429zM178 339h146v-429h-146v429z" />
    <glyph glyph-name="section" unicode="&#xa7;" horiz-adv-x="657" 
d="M345 865q124 0 189 -34v-146h-62l-52 87q-22 26 -86 26q-41 0 -74.5 -30t-33.5 -78q0 -29 19.5 -52t50.5 -39.5t68 -32.5t74.5 -35.5t68.5 -42.5t50.5 -59t19.5 -81q0 -43 -16 -85.5t-43 -70.5q66 -51 66 -120q0 -105 -70.5 -153t-192.5 -48q-63 0 -133.5 11.5
t-99.5 26.5v184h61l43 -99q33 -51 126 -51q52 0 87 21.5t35 64.5q0 41 -38 73t-92 56t-107.5 51t-91.5 70.5t-38 101.5q0 41 22 85.5t52 70.5q-63 53 -63 123q0 94 79.5 149.5t181.5 55.5zM220 488q-20 -36 -20 -76q0 -30 26 -56.5t55.5 -41.5t81.5 -38.5t75 -35.5
q16 36 16 64q0 20 -9 38t-22 31t-38.5 28.5t-45.5 26l-57.5 29t-61.5 31.5z" />
    <glyph glyph-name="dieresis" unicode="&#xa8;" horiz-adv-x="519" 
d="M129 663q-33 0 -56 17.5t-23 47.5q0 33 28.5 55t62.5 22q38 0 60 -17t22 -49q0 -34 -29 -55t-65 -21zM377 664q-35 0 -57.5 18t-22.5 47q0 33 29 54.5t63 21.5q38 0 59 -17t21 -48q0 -35 -28 -55.5t-64 -20.5z" />
    <glyph glyph-name="copyright" unicode="&#xa9;" horiz-adv-x="1021" 
d="M511 938q176 0 298.5 -120t122.5 -296q0 -171 -124 -293t-297 -122q-180 0 -301.5 119t-121.5 296q0 175 123 295.5t300 120.5zM510 867q-142 0 -240.5 -100.5t-98.5 -244.5q0 -143 99.5 -243.5t239.5 -100.5q142 0 240.5 100.5t98.5 243.5q0 144 -99 244.5t-240 100.5z
M537 774q99 0 136 -26v-135h-81l-31 71q-14 11 -51 11q-43 1 -64.5 -38t-20.5 -111q0 -70 36.5 -115.5t93.5 -45.5q69 0 108 22l19 -54q-23 -29 -72.5 -48t-97.5 -19q-107 0 -167.5 62.5t-60.5 169.5t74 180.5t179 75.5z" />
    <glyph glyph-name="ordfeminine" unicode="&#xaa;" horiz-adv-x="541" 
d="M278 777q90 0 134 -30.5t44 -113.5l-1 -207h41v-47q-66 -22 -111 -22q-47 0 -54 43q-48 -42 -135 -42q-52 0 -90 33t-38 88q0 38 23 67t61.5 45t82 23.5t90.5 7.5v10q0 42 -22.5 55.5t-69.5 13.5q-74 0 -115 -28l-23 64q23 16 80 28t103 12zM324 569q-129 -8 -129 -75
q0 -28 18 -45t45 -17q36 0 66 15v122z" />
    <glyph glyph-name="guillemotleft" unicode="&#xab;" horiz-adv-x="1014" 
d="M114 360l348 189l37 -60l-232 -189l232 -182l-37 -63l-348 177v128zM516 360l347 189l37 -60l-231 -189l231 -182l-37 -63l-347 177v128z" />
    <glyph glyph-name="logicalnot" unicode="&#xac;" horiz-adv-x="656" 
d="M88 455h479v-280h-131v189h-348v91z" />
    <glyph glyph-name="uni00AD" unicode="&#xad;" horiz-adv-x="631" 
d="M88 456h456v-102h-456v102z" />
    <glyph glyph-name="registered" unicode="&#xae;" horiz-adv-x="1021" 
d="M511 938q176 0 298.5 -120t122.5 -296q0 -171 -124.5 -293t-296.5 -122q-180 0 -301.5 119t-121.5 296q0 175 123 295.5t300 120.5zM510 867q-142 0 -240.5 -100.5t-98.5 -244.5q0 -143 99.5 -243.5t239.5 -100.5q141 0 240 100.5t99 243.5q0 144 -99 244.5t-240 100.5z
M530 768q186 0 189 -122q0 -58 -32.5 -97.5t-94.5 -43.5q33 -6 55.5 -30.5t32.5 -50.5t27 -47t40 -22v-57h-125q-18 0 -30 18.5t-25.5 49.5t-29.5 49q-24 60 -65 69v-123l38 -11v-54h-214v54l41 17v326l-41 13v60h100q10 0 61.5 1t72.5 1zM495 699q-15 0 -23 -4v-144
q15 -3 44 -3q32 0 49.5 22.5t17.5 54.5q0 42 -20.5 58t-67.5 16z" />
    <glyph glyph-name="macron" unicode="&#xaf;" horiz-adv-x="499" 
d="M117 774h270v-103h-270v103z" />
    <glyph glyph-name="degree" unicode="&#xb0;" horiz-adv-x="410" 
d="M205 778q71 0 120 -49t49 -117t-49.5 -117t-119.5 -49q-69 0 -119 49t-50 117q0 70 50.5 118t118.5 48zM205 701q-38 0 -61.5 -25.5t-23.5 -63.5q0 -37 24 -62t61 -25q36 0 60 25t24 62t-24 63t-60 26z" />
    <glyph glyph-name="plusminus" unicode="&#xb1;" horiz-adv-x="639" 
d="M265 265l4 89l-77 -5h-104v110h104l77 -5l-4 89v105h112v-105l-5 -89l73 5h110v-110h-110l-73 5l5 -89v-101h-112v101zM90 106h456v-101h-456v101z" />
    <glyph glyph-name="uni00B2" unicode="&#xb2;" horiz-adv-x="607" 
d="M69 422q293 164 293 253q0 37 -26 57t-66 20q-76 0 -155 -81l-39 53q31 49 95 85t129 36q102 0 153 -39t51 -102q0 -24 -9.5 -48.5t-21 -43t-38.5 -42t-45 -37.5t-58 -39t-60 -36.5l-68 -38.5l240 35l51 72l71 -22l-31 -152h-438z" />
    <glyph glyph-name="uni00B3" unicode="&#xb3;" horiz-adv-x="556" 
d="M101 389q50 -16 106 -16q66 1 108.5 25t42.5 71q0 32 -20.5 52.5t-56.5 26.5q-5 -1 -16 -3.5t-17 -3.5l-75 -17l2 73q78 19 118 45.5t40 70.5q0 27 -24.5 38.5t-57.5 11.5q-32 0 -71 -12.5t-67 -30.5l-31 54q32 29 93.5 47.5t113.5 18.5q73 0 125 -33t52 -85
q0 -85 -101 -126q60 -4 96 -41.5t36 -83.5q0 -78 -68 -125t-172 -47q-88 0 -156 24v66z" />
    <glyph glyph-name="acute" unicode="&#xb4;" horiz-adv-x="433" 
d="M157 691l151 202l108 -88q-29 -47 -92 -87.5t-129 -64.5z" />
    <glyph glyph-name="paragraph" unicode="&#xb6;" horiz-adv-x="747" 
d="M341 768q36 0 152 -5t130 -5h98v-72l-94 -25v-579l92 -21v-61h-206l-1 674h-89v-674h-221v61l101 21v241q-107 0 -168.5 57.5t-61.5 163.5q0 112 68.5 168t199.5 56z" />
    <glyph glyph-name="periodcentered" unicode="&#xb7;" horiz-adv-x="367" 
d="M191 504q42 0 65.5 -22.5t23.5 -62.5q0 -42 -31.5 -68.5t-73.5 -26.5q-36 0 -61.5 23t-25.5 58q0 39 32.5 69t70.5 30z" />
    <glyph glyph-name="cedilla" unicode="&#xb8;" horiz-adv-x="320" 
d="M176 3q-5 -30 0 -66q50 -3 80 -30t30 -63q0 -51 -39.5 -76.5t-103.5 -26.5q-37 -1 -102 13v66q21 -7 59 -7q44 0 44 36q0 34 -44 34q-6 0 -15.5 -1t-11.5 -1q0 22 8.5 63.5t16.5 58.5h78z" />
    <glyph glyph-name="uni00B9" unicode="&#xb9;" horiz-adv-x="543" 
d="M99 410l129 18v273q-89 -13 -119 -20l-15 67q45 10 133.5 44t106.5 49l35 -8v-406l118 -17v-59h-388v59z" />
    <glyph glyph-name="ordmasculine" unicode="&#xba;" horiz-adv-x="545" 
d="M282 778q98 0 154 -57t55 -157q-1 -98 -66.5 -152t-158.5 -54q-97 0 -153.5 54.5t-56.5 153.5q1 101 65.5 156.5t160.5 55.5zM276 718q-43 0 -63.5 -40t-20.5 -106q0 -64 21.5 -108.5t59.5 -44.5q47 0 65 33.5t18 108.5q0 65 -21 111.5t-59 45.5z" />
    <glyph glyph-name="guillemotright" unicode="&#xbb;" horiz-adv-x="1014" 
d="M112 113l231 190l-231 181l37 65l347 -178v-128l-347 -188zM745 303l-231 181l37 65l347 -178v-128l-347 -188l-37 58z" />
    <glyph glyph-name="onequarter" unicode="&#xbc;" horiz-adv-x="1318" 
d="M790 918l92 -27l-387 -1058l-91 31zM137 410l128 18v273q-89 -13 -119 -20l-15 67q45 10 133.5 44t106.5 49l35 -8v-406l118 -17v-59h-387v59zM970 524l53 1l62 -69l-231 -272l-38 -46l169 17l5 104l111 13v-106l108 11v-113h-108v-150h-125l5 150h-247l-25 65z" />
    <glyph glyph-name="onehalf" unicode="&#xbd;" horiz-adv-x="1318" 
d="M790 918l92 -26l-387 -1059l-91 30zM137 410l128 18v273q-89 -13 -119 -20l-15 67q45 10 133.5 44t106.5 49l35 -8v-406l118 -17v-59h-387v59zM749 69q292 165 292 253q0 37 -25.5 57t-66.5 20q-77 0 -154 -81l-40 53q31 49 95.5 85t128.5 36q103 0 154 -39t51 -102
q0 -28 -9.5 -53.5t-32 -50.5t-43 -43.5t-60.5 -44.5t-65.5 -41l-75.5 -44l-14 -8l240 35l51 72l71 -22l-32 -152h-438z" />
    <glyph glyph-name="threequarters" unicode="&#xbe;" horiz-adv-x="1376" 
d="M790 918l92 -26l-387 -1059l-91 30zM149 389q50 -16 106 -16q66 1 108.5 25t42.5 71q0 32 -20.5 52.5t-56.5 26.5q-5 -1 -16 -3.5t-17 -3.5l-75 -17l2 73q78 19 118 45.5t40 70.5q0 27 -24.5 38.5t-57.5 11.5q-32 0 -71 -12.5t-67 -30.5l-31 54q32 29 93.5 47.5
t113.5 18.5q73 0 125 -33t52 -85q0 -85 -101 -126q60 -4 96 -41.5t36 -83.5q0 -78 -68 -125t-172 -47q-88 0 -156 24v66zM970 524l53 1l62 -69l-231 -272l-38 -46l169 17l5 104l111 13v-106l108 11v-113h-108v-150h-125l5 150h-247l-25 65z" />
    <glyph glyph-name="questiondown" unicode="&#xbf;" horiz-adv-x="511" 
d="M252 709q42 0 65.5 -23.5t23.5 -61.5q0 -42 -31.5 -69t-72.5 -27q-36 0 -62 22.5t-26 58.5q0 40 32.5 70t70.5 30zM222 441h101q31 -28 57 -75t26 -82q0 -26 -27 -48.5t-56 -34t-77.5 -27.5t-63.5 -22q-14 -7 -20.5 -10.5t-11.5 -8.5t-5 -11q-1 -79 65 -141.5t178 -63.5
q56 0 80 16l6 -116q-9 -10 -45.5 -17t-68.5 -7q-142 4 -224 83.5t-82 197.5q0 52 12.5 75.5t51.5 42.5l47.5 23l43.5 21t31 17.5t23.5 20.5t6.5 21q0 43 -48 146z" />
    <glyph glyph-name="Agrave" unicode="&#xc0;" horiz-adv-x="765" 
d="M399 780q-50 5 -115.5 25.5t-101.5 44.5l87 88l172 -114zM2 60l66 18l245 680h139l236 -680l75 -19v-59h-310v59l69 20l-30 100h-273l-31 -99l75 -20v-60h-261v60zM468 259l-69 228l-39 138l-116 -366h224z" />
    <glyph glyph-name="Aacute" unicode="&#xc1;" horiz-adv-x="765" 
d="M322 824l179 114l87 -88q-34 -25 -103 -45t-121 -25zM2 60l66 18l245 680h139l236 -680l75 -19v-59h-310v59l69 20l-30 100h-273l-31 -99l75 -20v-60h-261v60zM468 259l-69 228l-39 138l-116 -366h224z" />
    <glyph glyph-name="Acircumflex" unicode="&#xc2;" horiz-adv-x="765" 
d="M199 814l130 124h108l130 -124l-51 -31l-132 69l-136 -69zM2 60l66 18l245 680h139l236 -680l75 -19v-59h-310v59l69 20l-30 100h-273l-31 -99l75 -20v-60h-261v60zM468 259l-69 228l-39 138l-116 -366h224z" />
    <glyph glyph-name="Atilde" unicode="&#xc3;" horiz-adv-x="765" 
d="M179 841q15 37 60.5 67t84.5 30q34 0 77 -26.5t62 -26.5q45 0 83 36l38 -44q-16 -37 -59.5 -63.5t-83.5 -26.5q-35 0 -78 27t-63 27q-41 0 -84 -37zM2 60l66 18l245 680h139l236 -680l75 -19v-59h-310v59l69 20l-30 100h-273l-31 -99l75 -20v-60h-261v60zM468 259
l-69 228l-39 138l-116 -366h224z" />
    <glyph glyph-name="Adieresis" unicode="&#xc4;" horiz-adv-x="765" 
d="M262 938q36 0 58.5 -17t22.5 -50t-28.5 -54.5t-66.5 -21.5q-32 0 -55 17t-23 48q0 33 28.5 55.5t63.5 22.5zM516 938q79 0 79 -66q0 -33 -26.5 -54.5t-64.5 -21.5q-34 0 -57 17.5t-23 47.5q0 32 28.5 54.5t63.5 22.5zM452 758l236 -680l75 -19v-59h-310v59l69 20l-30 100
h-273l-31 -99l75 -20v-60h-261v60l66 18l245 680h139zM360 625l-116 -366h224l-69 228z" />
    <glyph glyph-name="Aring" unicode="&#xc5;" horiz-adv-x="765" 
d="M383 938q58 0 98.5 -33.5t40.5 -85.5q0 -65 -58 -98l224 -643l75 -19v-59h-310v59l69 20l-30 100h-273l-31 -99l75 -20v-60h-261v60l66 18l233 644q-56 33 -56 97q0 54 39 86.5t99 32.5zM383 878q-28 0 -45.5 -17t-17.5 -43t17.5 -42.5t45.5 -16.5q25 0 43.5 16.5
t18.5 42.5q0 24 -18 42t-44 18zM360 625l-116 -366h224l-69 228z" />
    <glyph glyph-name="AE" unicode="&#xc6;" horiz-adv-x="946" 
d="M2 61l62 15l275 682h505l17 -158l-81 -1l-28 76l-237 10l76 -251l143 3l18 74h67v-230h-68l-17 70l-118 6l88 -290l105 12l52 95l73 -18l-24 -156h-445v60l78 18l-32 104h-298l-38 -103l85 -18v-61h-258v61zM486 265l-85 289l-17 79l-138 -368h240z" />
    <glyph glyph-name="Ccedilla" unicode="&#xc7;" horiz-adv-x="707" 
d="M453 765q35 0 71.5 -4.5t58 -9t48 -11t29.5 -7.5l-10 -175h-87l-32 94q-37 33 -119 33q-96 0 -154 -82.5t-58 -208.5q0 -88 24.5 -163t76 -123t121.5 -48q104 0 130 45l36 91h72v-164q-7 0 -81 -21t-126 -23q0 -21 2 -51q51 -3 80.5 -30t29.5 -63q0 -51 -39 -76.5
t-103 -26.5q-36 -1 -103 13v66q23 -7 60 -7q44 0 44 36q0 34 -44 34q-6 0 -16 -1t-12 -1q2 54 19 107q-153 10 -244.5 110.5t-91.5 255.5q0 179 122 295t296 116z" />
    <glyph glyph-name="Egrave" unicode="&#xc8;" horiz-adv-x="680" 
d="M376 780q-37 2 -110 23.5t-107 46.5l87 88l172 -114zM49 60l75 18v600l-72 10v70h540l14 -158h-86l-38 79l-208 9v-263l142 4l23 74h76v-229h-76l-23 76l-142 3v-283l237 13l58 97l85 -16l-25 -164h-580v60z" />
    <glyph glyph-name="Eacute" unicode="&#xc9;" horiz-adv-x="680" 
d="M299 824l179 114l87 -88q-34 -25 -103 -45t-121 -25zM49 60l75 18v600l-72 10v70h540l14 -158h-86l-38 79l-208 9v-263l142 4l23 74h76v-229h-76l-23 76l-142 3v-283l237 13l58 97l85 -16l-25 -164h-580v60z" />
    <glyph glyph-name="Ecircumflex" unicode="&#xca;" horiz-adv-x="680" 
d="M176 814l131 124h107l129 -124l-50 -31l-132 69l-136 -69zM49 60l75 18v600l-72 10v70h540l14 -158h-86l-38 79l-208 9v-263l142 4l23 74h76v-229h-76l-23 76l-142 3v-283l237 13l58 97l85 -16l-25 -164h-580v60z" />
    <glyph glyph-name="Edieresis" unicode="&#xcb;" horiz-adv-x="680" 
d="M239 938q37 0 59.5 -17t22.5 -50t-29 -54.5t-66 -21.5q-33 0 -56 17t-23 48q0 33 28.5 55.5t63.5 22.5zM493 938q38 0 59 -17t21 -49q0 -33 -26.5 -54.5t-65.5 -21.5q-34 0 -57 17.5t-23 47.5q0 32 28.5 54.5t63.5 22.5zM592 758l14 -158h-86l-38 79l-208 9v-263l142 4
l23 74h76v-229h-76l-23 76l-142 3v-283l237 13l58 97l85 -16l-25 -164h-580v60l75 18v600l-72 10v70h540z" />
    <glyph glyph-name="Igrave" unicode="&#xcc;" horiz-adv-x="402" 
d="M215 780q-37 2 -110 23.5t-107 46.5l87 88l172 -114zM34 60l91 18v600l-90 10v70h328v-70l-87 -11v-598l92 -19v-60h-334v60z" />
    <glyph glyph-name="Iacute" unicode="&#xcd;" horiz-adv-x="402" 
d="M138 824l179 114l87 -88q-34 -25 -103 -45t-121 -25zM34 60l91 18v600l-90 10v70h328v-70l-87 -11v-598l92 -19v-60h-334v60z" />
    <glyph glyph-name="Icircumflex" unicode="&#xce;" horiz-adv-x="402" 
d="M15 814l131 124h107l130 -124l-51 -31l-131 69l-137 -69zM34 60l91 18v600l-90 10v70h328v-70l-87 -11v-598l92 -19v-60h-334v60z" />
    <glyph glyph-name="Idieresis" unicode="&#xcf;" horiz-adv-x="402" 
d="M78 938q36 0 58.5 -17t22.5 -50t-28.5 -54.5t-66.5 -21.5q-32 0 -55 17t-23 48q0 33 28.5 55.5t63.5 22.5zM332 938q37 0 58 -17t21 -49q0 -33 -26.5 -54.5t-64.5 -21.5q-34 0 -57.5 17.5t-23.5 47.5q0 32 29 54.5t64 22.5zM363 758v-70l-87 -11v-598l92 -19v-60h-334v60
l91 18v600l-90 10v70h328z" />
    <glyph glyph-name="Eth" unicode="&#xd0;" horiz-adv-x="784" 
d="M46 60l75 18v269h-90v92h90v239l-73 10v70h151q30 0 87 3.5t88 3.5q185 1 280.5 -93t95.5 -272q0 -186 -108 -296.5t-283 -108.5q-19 0 -72 2.5t-86 2.5h-155v60zM271 80q44 -21 122 -14q90 5 144.5 91t54.5 211q0 163 -60 244.5t-175 81.5q-55 0 -86 -12v-243h131v-92
h-131v-267z" />
    <glyph glyph-name="Ntilde" unicode="&#xd1;" horiz-adv-x="827" 
d="M220 841q15 37 60.5 67t84.5 30q34 0 77 -26.5t61 -26.5q46 0 84 36l38 -44q-17 -37 -60 -63.5t-83 -26.5q-35 0 -78 27t-63 27q-42 0 -85 -37zM796 758v-78l-72 -10v-670h-164l-283 466l-57 133l1 -518l97 -21v-60h-276v60l79 20v589l-75 10v79h225l304 -518l51 -121
v549l-86 12v78h256z" />
    <glyph glyph-name="Ograve" unicode="&#xd2;" horiz-adv-x="774" 
d="M411 780q-38 2 -111 23.5t-107 46.5l87 88l173 -114zM402 765q154 0 247.5 -107t90.5 -272q-3 -178 -101 -289t-254 -111q-158 0 -254 106.5t-94 272.5q2 110 46.5 198.5t120.5 140.5q90 61 198 61zM392 694q-189 0 -189 -325q0 -124 51.5 -218.5t139.5 -94.5
q99 0 140 85.5t41 243.5q0 134 -50 221.5t-133 87.5z" />
    <glyph glyph-name="Oacute" unicode="&#xd3;" horiz-adv-x="774" 
d="M513 938l87 -88q-34 -25 -103 -45t-121 -25l-42 44zM399 765q155 1 249.5 -106t91.5 -273q-3 -177 -100.5 -288t-252.5 -112q-159 -1 -256 107t-94 275q4 173 106.5 284t255.5 113zM392 694q-189 0 -189 -325q0 -124 51.5 -218.5t139.5 -94.5q99 0 140 85.5t41 243.5
q0 134 -50 221.5t-133 87.5z" />
    <glyph glyph-name="Ocircumflex" unicode="&#xd4;" horiz-adv-x="774" 
d="M449 938l130 -124l-51 -31l-132 69l-136 -69l-49 31l131 124h107zM399 765q155 1 249.5 -106t91.5 -273q-3 -177 -100.5 -288t-252.5 -112q-159 -1 -256 107t-94 275q4 173 106.5 284t255.5 113zM392 694q-189 0 -189 -325q0 -124 51.5 -218.5t139.5 -94.5q99 0 140 85.5
t41 243.5q0 134 -50 221.5t-133 87.5z" />
    <glyph glyph-name="Otilde" unicode="&#xd5;" horiz-adv-x="774" 
d="M191 841q15 37 60.5 67t84.5 30q34 0 77 -26.5t61 -26.5q46 0 84 36l38 -44q-17 -37 -60 -63.5t-83 -26.5q-35 0 -78 27t-63 27q-42 0 -85 -37zM402 765q154 0 247.5 -107t90.5 -272q-3 -178 -101 -289t-254 -111q-158 0 -254 106.5t-94 272.5q2 110 46.5 198.5
t120.5 140.5q90 61 198 61zM392 694q-189 0 -189 -325q0 -124 51.5 -218.5t139.5 -94.5q99 0 140 85.5t41 243.5q0 134 -50 221.5t-133 87.5z" />
    <glyph glyph-name="Odieresis" unicode="&#xd6;" horiz-adv-x="774" 
d="M273 938q37 0 59.5 -17t22.5 -50t-28.5 -54.5t-66.5 -21.5q-32 0 -55 17t-23 48q0 33 28 55.5t63 22.5zM528 938q37 0 58 -17t21 -49q0 -33 -26.5 -54.5t-64.5 -21.5q-34 0 -57.5 17.5t-23.5 47.5q0 32 29 54.5t64 22.5zM402 765q154 0 247.5 -107t90.5 -272
q-3 -178 -101 -289t-254 -111q-158 0 -254 106.5t-94 272.5q2 110 46.5 198.5t120.5 140.5q90 61 198 61zM392 694q-189 0 -189 -325q0 -124 51.5 -218.5t139.5 -94.5q99 0 140 85.5t41 243.5q0 134 -50 221.5t-133 87.5z" />
    <glyph glyph-name="multiply" unicode="&#xd7;" horiz-adv-x="667" 
d="M90 234l174 166l-174 167l77 79l167 -176l166 176l77 -79l-174 -167l174 -166l-77 -81l-166 177l-167 -177z" />
    <glyph glyph-name="Oslash" unicode="&#xd8;" horiz-adv-x="774" 
d="M234 17q-97 45 -148.5 138.5t-48.5 212.5q4 173 106.5 284t255.5 113q57 1 105 -15l26 76l56 -19l-27 -78q89 -45 136.5 -137.5t44.5 -205.5q-3 -178 -100.5 -288.5t-252.5 -111.5q-52 0 -97 12l-40 -100l-55 20zM468 670q-35 24 -76 24q-189 0 -189 -325
q0 -69 19.5 -137t55.5 -111zM325 75q32 -19 69 -19q68 0 109.5 43.5t56.5 113t15 172.5q0 143 -61 235z" />
    <glyph glyph-name="Ugrave" unicode="&#xd9;" horiz-adv-x="782" 
d="M432 780q-38 2 -111 23.5t-107 46.5l87 88l173 -114zM767 758v-70l-72 -11v-348q0 -168 -72 -255.5t-213 -87.5q-163 0 -240 80t-76 244q0 61 1 183.5t1 184.5l-77 10v70h311v-70l-85 -11v-372q0 -125 45.5 -184t138.5 -59q168 0 168 266l-1 349l-84 11v70h255z" />
    <glyph glyph-name="Uacute" unicode="&#xda;" horiz-adv-x="782" 
d="M355 824l179 114l87 -88q-34 -25 -103 -45t-121 -25zM767 758v-70l-72 -11v-348q0 -168 -72 -255.5t-213 -87.5q-163 0 -240 80t-76 244q0 61 1 183.5t1 184.5l-77 10v70h311v-70l-85 -11v-372q0 -125 45.5 -184t138.5 -59q168 0 168 266l-1 349l-84 11v70h255z" />
    <glyph glyph-name="Ucircumflex" unicode="&#xdb;" horiz-adv-x="778" 
d="M470 938l130 -124l-51 -31l-132 69l-135 -69l-50 31l131 124h107zM767 758v-70l-72 -11v-348q0 -168 -72 -255.5t-213 -87.5q-163 0 -240 80t-76 244q0 61 1 183.5t1 184.5l-77 10v70h311v-70l-85 -11v-372q0 -125 45.5 -184t138.5 -59q168 0 168 266l-1 349l-84 11v70
h255z" />
    <glyph glyph-name="Udieresis" unicode="&#xdc;" horiz-adv-x="782" 
d="M294 938q37 0 59.5 -17t22.5 -50t-28.5 -54.5t-66.5 -21.5q-32 0 -55 17t-23 48q0 33 28 55.5t63 22.5zM549 938q37 0 58 -17t21 -49q0 -33 -26.5 -54.5t-64.5 -21.5q-34 0 -57.5 17.5t-23.5 47.5q0 32 29 54.5t64 22.5zM767 758v-70l-72 -11v-348q0 -168 -72 -255.5
t-213 -87.5q-163 0 -240 80t-76 244q0 61 1 183.5t1 184.5l-77 10v70h311v-70l-85 -11v-372q0 -125 45.5 -184t138.5 -59q168 0 168 266l-1 349l-84 11v70h255z" />
    <glyph glyph-name="Yacute" unicode="&#xdd;" horiz-adv-x="704" 
d="M304 824l179 114l87 -88q-34 -25 -103 -45t-121 -25zM178 60l112 20v189l-229 410l-55 9v70h287v-69l-59 -9l133 -268l17 -48l19 51l115 262l-80 11l-1 70h260v-70l-64 -17l-193 -392v-198l123 -21v-60h-385v60z" />
    <glyph glyph-name="Thorn" unicode="&#xde;" horiz-adv-x="661" 
d="M37 60l84 19v598l-98 11v70h340v-70l-93 -11v-83q90 10 114 10q269 0 269 -203q0 -120 -80.5 -184t-207.5 -63q-55 0 -95 4v-79l126 -19v-60h-359v60zM270 229q19 -4 79 -4q67 0 108 43.5t41 123.5q0 67 -43 102.5t-120 34.5q-46 -2 -65 -7v-293z" />
    <glyph glyph-name="germandbls" unicode="&#xdf;" horiz-adv-x="700" 
d="M25 61l76 22v341q0 163 81 251t221 88q75 0 126.5 -35t51.5 -103q0 -32 -12.5 -58t-30.5 -43.5t-36.5 -33t-31 -35t-12.5 -41.5q0 -30 23.5 -50.5t57 -34t67 -29.5t57 -47t23.5 -76q0 -93 -59 -140.5t-160 -47.5q-107 0 -137 17v92q59 -40 122 -40q40 0 66 21.5t26 62.5
q0 30 -22 49t-53.5 30t-62.5 24.5t-53 42.5t-22 74q0 31 18 61t39.5 51t39.5 54t18 69q0 44 -20 69t-57 25q-68 0 -93.5 -56t-25.5 -172v-463h-225v61z" />
    <glyph glyph-name="agrave" unicode="&#xe0;" horiz-adv-x="587" 
d="M349 653q-50 4 -117.5 52t-103.5 100l108 88l151 -202zM298 560q105 0 159.5 -45t54.5 -149v-307h63v-47q-37 -25 -115 -25q-75 0 -79 58q-58 -58 -149 -58q-84 0 -137.5 42t-53.5 112q0 67 51 113t121 65t150 19v16q0 67 -27 94.5t-86 27.5q-38 0 -82.5 -11.5
t-72.5 -29.5l-29 66q36 28 104 43.5t128 15.5zM363 270q-70 0 -120.5 -26.5t-50.5 -82.5q0 -90 91 -90q50 0 80 27v172z" />
    <glyph glyph-name="aacute" unicode="&#xe1;" horiz-adv-x="587" 
d="M221 691l151 202l108 -88q-29 -47 -92 -87.5t-129 -64.5zM298 560q105 0 159.5 -45t54.5 -149v-307h63v-47q-37 -25 -115 -25q-75 0 -79 58q-58 -58 -149 -58q-84 0 -137.5 42t-53.5 112q0 67 51 113t121 65t150 19v16q0 67 -27 94.5t-86 27.5q-38 0 -82.5 -11.5
t-72.5 -29.5l-29 66q36 28 104 43.5t128 15.5zM363 270q-70 0 -120.5 -26.5t-50.5 -82.5q0 -90 91 -90q50 0 80 27v172z" />
    <glyph glyph-name="acircumflex" unicode="&#xe2;" horiz-adv-x="587" 
d="M100 684l132 183h115l133 -183l-63 -32l-128 110l-133 -110zM298 560q105 0 159.5 -45t54.5 -149v-307h63v-47q-37 -25 -115 -25q-75 0 -79 58q-58 -58 -149 -58q-84 0 -137.5 42t-53.5 112q0 67 51 113t121 65t150 19v16q0 67 -27 94.5t-86 27.5q-38 0 -82.5 -11.5
t-72.5 -29.5l-29 66q36 28 104 43.5t128 15.5zM363 270q-70 0 -120.5 -26.5t-50.5 -82.5q0 -90 91 -90q50 0 80 27v172z" />
    <glyph glyph-name="atilde" unicode="&#xe3;" horiz-adv-x="587" 
d="M85 720q16 37 61.5 66.5t84.5 29.5q38 0 78.5 -27t59.5 -27q39 0 84 39l38 -44q-17 -38 -61 -68t-82 -30q-37 0 -79 27.5t-62 27.5q-39 0 -84 -39zM298 560q105 0 159.5 -45t54.5 -149v-307h63v-47q-37 -25 -115 -25q-75 0 -79 58q-58 -58 -149 -58q-84 0 -137.5 42
t-53.5 112q0 67 51 113t121 65t150 19v16q0 67 -27 94.5t-86 27.5q-38 0 -82.5 -11.5t-72.5 -29.5l-29 66q36 28 104 43.5t128 15.5zM363 270q-70 0 -120.5 -26.5t-50.5 -82.5q0 -90 91 -90q50 0 80 27v172z" />
    <glyph glyph-name="adieresis" unicode="&#xe4;" horiz-adv-x="587" 
d="M159 663q-33 0 -56 17.5t-23 47.5q0 33 28.5 55t62.5 22q38 0 60 -17t22 -49q0 -34 -29 -55t-65 -21zM407 664q-35 0 -57.5 18t-22.5 47q0 33 29 54.5t63 21.5q38 0 59 -17t21 -48q0 -35 -28 -55.5t-64 -20.5zM298 560q105 0 159.5 -45t54.5 -149v-307h63v-47
q-37 -25 -115 -25q-75 0 -79 58q-58 -58 -149 -58q-84 0 -137.5 42t-53.5 112q0 67 51 113t121 65t150 19v16q0 67 -27 94.5t-86 27.5q-38 0 -82.5 -11.5t-72.5 -29.5l-29 66q36 28 104 43.5t128 15.5zM363 270q-70 0 -120.5 -26.5t-50.5 -82.5q0 -90 91 -90q50 0 80 27v172
z" />
    <glyph glyph-name="aring" unicode="&#xe5;" horiz-adv-x="587" 
d="M284 891q57 0 97.5 -38.5t40.5 -90.5q0 -55 -41 -92.5t-97 -37.5q-55 0 -95.5 38t-40.5 92t40 91.5t96 37.5zM284 827q-28 0 -46.5 -18.5t-18.5 -46.5t18.5 -46.5t46.5 -18.5t46.5 18.5t18.5 46.5q0 26 -19 45.5t-46 19.5zM298 560q105 0 159.5 -45t54.5 -149v-307h63
v-47q-37 -25 -115 -25q-75 0 -79 58q-58 -58 -149 -58q-84 0 -137.5 42t-53.5 112q0 67 51 113t121 65t150 19v16q0 67 -27 94.5t-86 27.5q-38 0 -82.5 -11.5t-72.5 -29.5l-29 66q36 28 104 43.5t128 15.5zM363 270q-70 0 -120.5 -26.5t-50.5 -82.5q0 -90 91 -90q50 0 80 27
v172z" />
    <glyph glyph-name="ae" unicode="&#xe6;" horiz-adv-x="910" 
d="M656 562q104 1 159 -54.5t56 -162.5q1 -31 -6 -84h-350q5 -95 49.5 -140.5t119.5 -45.5q83 0 156 33l24 -56q-35 -30 -100.5 -47.5t-126.5 -17.5q-131 0 -203 74q-71 -74 -202 -74q-86 0 -139.5 44t-51.5 116q1 49 31.5 87.5t79 60t102.5 32.5t109 11v16q0 67 -26.5 93.5
t-86.5 26.5q-37 0 -84.5 -12t-70.5 -29l-29 68q36 28 104 43.5t128 15.5q122 0 173 -60q75 62 185 62zM636 499q-51 0 -83.5 -45.5t-37.5 -120.5h209q6 73 -12 91q-5 37 -22.5 56t-53.5 19zM363 270q-70 0 -120.5 -26.5t-50.5 -82.5q0 -90 91 -90q49 0 80 24v175z" />
    <glyph glyph-name="ccedilla" unicode="&#xe7;" horiz-adv-x="541" 
d="M340 -63q50 -3 80 -30t30 -63q0 -51 -39.5 -76.5t-103.5 -26.5q-37 -1 -102 13v66q21 -7 59 -7q44 0 44 36q0 34 -44 34q-6 0 -15.5 -1t-11.5 -1q0 49 20 109q-101 14 -158 87t-58 184q0 135 85 217t219 84q112 0 156 -25v-144h-76l-35 83q-21 15 -68 15q-60 0 -94 -55.5
t-35 -142.5q0 -102 45 -160t120 -58q91 0 138 33l23 -56q-63 -55 -180 -63q-2 -36 1 -52z" />
    <glyph glyph-name="egrave" unicode="&#xe8;" horiz-adv-x="591" 
d="M376 653q-50 4 -117.5 52t-103.5 100l108 88l151 -202zM330 562q101 1 157 -51.5t60 -152.5q1 -44 -7 -97h-347q5 -90 47 -138t119 -48q83 0 152 32l23 -55q-37 -32 -102 -49.5t-125 -15.5q-128 1 -197.5 74t-69.5 202q0 131 80.5 214.5t209.5 84.5zM312 499
q-52 0 -82 -44t-36 -122h206q4 78 -14 107q-12 59 -74 59z" />
    <glyph glyph-name="eacute" unicode="&#xe9;" horiz-adv-x="591" 
d="M248 691l151 202l108 -88q-29 -47 -92 -87.5t-129 -64.5zM330 562q101 1 157 -51.5t60 -152.5q1 -44 -7 -97h-347q5 -90 47 -138t119 -48q83 0 152 32l23 -55q-37 -32 -102 -49.5t-125 -15.5q-128 1 -197.5 74t-69.5 202q0 131 80.5 214.5t209.5 84.5zM312 499
q-52 0 -82 -44t-36 -122h206q4 78 -14 107q-12 59 -74 59z" />
    <glyph glyph-name="ecircumflex" unicode="&#xea;" horiz-adv-x="591" 
d="M128 684l132 183h115l133 -183l-63 -32l-128 110l-133 -110zM330 562q101 1 157 -51.5t60 -152.5q1 -44 -7 -97h-347q5 -90 47 -138t119 -48q83 0 152 32l23 -55q-37 -32 -102 -49.5t-125 -15.5q-128 1 -197.5 74t-69.5 202q0 131 80.5 214.5t209.5 84.5zM312 499
q-52 0 -82 -44t-36 -122h206q4 78 -14 107q-12 59 -74 59z" />
    <glyph glyph-name="edieresis" unicode="&#xeb;" horiz-adv-x="591" 
d="M187 663q-33 0 -56 17.5t-23 47.5q0 33 28.5 55t62.5 22q38 0 60 -17t22 -49q0 -34 -29 -55t-65 -21zM435 664q-35 0 -57.5 18t-22.5 47q0 33 29 54.5t63 21.5q38 0 59 -17t21 -48q0 -35 -28 -55.5t-64 -20.5zM330 562q101 1 157 -51.5t60 -152.5q1 -44 -7 -97h-347
q5 -90 47 -138t119 -48q83 0 152 32l23 -55q-37 -32 -102 -49.5t-125 -15.5q-128 1 -197.5 74t-69.5 202q0 131 80.5 214.5t209.5 84.5zM312 499q-52 0 -82 -44t-36 -122h206q4 78 -14 107q-12 59 -74 59z" />
    <glyph glyph-name="igrave" unicode="&#xec;" horiz-adv-x="355" 
d="M244 653q-50 4 -117.5 51.5t-103.5 100.5l108 88l151 -202zM44 59l70 12v334l-63 59v41l175 57l36 -11v-480l72 -12v-59h-290v59z" />
    <glyph glyph-name="iacute" unicode="&#xed;" horiz-adv-x="355" 
d="M117 691l151 202l108 -88q-29 -47 -92 -87.5t-129 -64.5zM44 59l70 12v334l-63 59v41l175 55l36 -11v-478l73 -12v-59h-291v59z" />
    <glyph glyph-name="icircumflex" unicode="&#xee;" horiz-adv-x="355" 
d="M-4 684l132 183h114l134 -183l-62 -32l-129 110l-133 -110zM44 59l70 12v334l-63 59v41l175 57l36 -11v-480l72 -12v-59h-290v59z" />
    <glyph glyph-name="idieresis" unicode="&#xef;" horiz-adv-x="355" 
d="M54 663q-33 0 -56 17.5t-23 47.5q0 33 28.5 55t62.5 22q38 0 60 -17t22 -49q0 -34 -29 -55t-65 -21zM302 664q-35 0 -57.5 18t-22.5 47q0 33 29 54.5t63 21.5q38 0 59 -17t21 -48q0 -35 -28 -55.5t-64 -20.5zM44 59l70 12v334l-63 59v41l175 55l36 -11v-478l73 -12v-59
h-291v59z" />
    <glyph glyph-name="eth" unicode="&#xf0;" horiz-adv-x="632" 
d="M414 841l52 -45l-77 -67q99 -74 149.5 -182.5t50.5 -233.5q0 -159 -72.5 -242t-212.5 -84q-118 -1 -193 71.5t-75 186.5q0 125 76.5 198.5t194.5 73.5q43 0 82.5 -16t63.5 -40q-25 121 -127 209l-81 -73l-50 41l77 71q-56 34 -121 49l13 67q90 -14 167 -58zM313 446
q-68 0 -95.5 -50t-27.5 -144q0 -76 36 -136.5t92 -60.5q63 0 94 63.5t31 157.5q0 40 -3 53q-10 44 -44.5 80.5t-82.5 36.5z" />
    <glyph glyph-name="ntilde" unicode="&#xf1;" horiz-adv-x="706" 
d="M166 720q16 37 61.5 66.5t84.5 29.5q38 0 78.5 -27t59.5 -27q38 0 84 39l38 -44q-17 -38 -61 -68t-82 -30q-37 0 -79 27.5t-62 27.5q-39 0 -84 -39zM53 59l63 11v345l-67 44v52l165 49l33 -9v-72q36 36 93 58.5t108 22.5q90 1 126 -53.5t36 -169.5v-267l71 -11v-59h-291
v59l71 12v246q0 84 -20 114t-84 29q-19 -1 -47 -10t-45 -21v-358l64 -12v-59h-276v59z" />
    <glyph glyph-name="ograve" unicode="&#xf2;" horiz-adv-x="636" 
d="M382 653q-50 4 -117.5 52t-103.5 100l108 88l151 -202zM328 563q131 0 200.5 -73.5t69.5 -203.5q-1 -135 -79.5 -216.5t-203.5 -81.5q-135 0 -205.5 78t-68.5 211q3 132 81.5 207.5t205.5 78.5zM323 497q-66 1 -95 -55.5t-29 -153.5q0 -94 30 -163.5t91 -69.5q35 0 59 17
t37 49.5t18.5 70.5t5.5 86q0 96 -27.5 157t-89.5 62z" />
    <glyph glyph-name="oacute" unicode="&#xf3;" horiz-adv-x="636" 
d="M254 691l151 202l108 -88q-29 -47 -92 -87.5t-129 -64.5zM328 563q131 0 200.5 -73.5t69.5 -203.5q-1 -135 -79.5 -216.5t-203.5 -81.5q-135 0 -205.5 78t-68.5 211q3 132 81.5 207.5t205.5 78.5zM323 497q-66 1 -95 -55.5t-29 -153.5q0 -94 30 -163.5t91 -69.5
q35 0 59 17t37 49.5t18.5 70.5t5.5 86q0 96 -27.5 157t-89.5 62z" />
    <glyph glyph-name="ocircumflex" unicode="&#xf4;" horiz-adv-x="636" 
d="M133 684l132 183h115l133 -183l-63 -32l-128 110l-133 -110zM328 563q131 0 200.5 -73.5t69.5 -203.5q-1 -135 -79.5 -216.5t-203.5 -81.5q-135 0 -205.5 78t-68.5 211q3 132 81.5 207.5t205.5 78.5zM323 497q-66 1 -95 -55.5t-29 -153.5q0 -94 30 -163.5t91 -69.5
q35 0 59 17t37 49.5t18.5 70.5t5.5 86q0 96 -27.5 157t-89.5 62z" />
    <glyph glyph-name="otilde" unicode="&#xf5;" horiz-adv-x="636" 
d="M118 720q16 37 61.5 66.5t84.5 29.5q38 0 78.5 -27t59.5 -27q38 0 84 39l38 -44q-17 -38 -61 -68t-82 -30q-37 0 -79 27.5t-62 27.5q-39 0 -84 -39zM328 563q131 0 200.5 -73.5t69.5 -203.5q-1 -135 -79.5 -216.5t-203.5 -81.5q-135 0 -205.5 78t-68.5 211
q3 132 81.5 207.5t205.5 78.5zM323 497q-66 1 -95 -55.5t-29 -153.5q0 -94 30 -163.5t91 -69.5q35 0 59 17t37 49.5t18.5 70.5t5.5 86q0 96 -27.5 157t-89.5 62z" />
    <glyph glyph-name="odieresis" unicode="&#xf6;" horiz-adv-x="636" 
d="M192 663q-33 0 -56 17.5t-23 47.5q0 33 28.5 55t62.5 22q38 0 60 -17t22 -49q0 -34 -29 -55t-65 -21zM440 664q-35 0 -57.5 18t-22.5 47q0 33 29 54.5t63 21.5q38 0 59 -17t21 -48q0 -35 -28 -55.5t-64 -20.5zM328 563q131 0 200.5 -73.5t69.5 -203.5
q-1 -135 -79.5 -216.5t-203.5 -81.5q-135 0 -205.5 78t-68.5 211q3 132 81.5 207.5t205.5 78.5zM323 497q-66 1 -95 -55.5t-29 -153.5q0 -94 30 -163.5t91 -69.5q35 0 59 17t37 49.5t18.5 70.5t5.5 86q0 96 -27.5 157t-89.5 62z" />
    <glyph glyph-name="divide" unicode="&#xf7;" horiz-adv-x="666" 
d="M351 724q43 0 65 -22t22 -61q0 -42 -30.5 -69t-71.5 -27q-36 0 -61 23t-25 59q0 38 31 67.5t70 29.5zM577 456v-102h-489v102h489zM351 263q42 0 64.5 -22t22.5 -61q0 -42 -30.5 -69t-71.5 -27q-36 0 -61 23t-25 58q0 40 31.5 69t69.5 29z" />
    <glyph glyph-name="oslash" unicode="&#xf8;" horiz-adv-x="636" 
d="M204 5q-84 30 -124.5 101.5t-38.5 170.5q1 131 80 207t206 79q28 0 58 -5l25 81l50 -14l-25 -79q80 -26 121.5 -94.5t40.5 -165.5q0 -134 -79 -216t-204 -82q-27 0 -59 5l-29 -91l-51 13zM360 489q-18 8 -37 8q-66 1 -95 -56.5t-29 -152.5q0 -118 41 -180zM281 64
q17 -9 38 -9q45 0 72.5 30.5t37.5 78t10 114.5q0 118 -37 172z" />
    <glyph glyph-name="ugrave" unicode="&#xf9;" horiz-adv-x="644" 
d="M370 653q-50 4 -117.5 51.5t-103.5 100.5l108 88l151 -202zM82 440l-47 28v53l167 39l24 -8v-339q0 -74 17 -106.5t67 -32.5q27 0 57 10.5t44 24.5v324l-61 29v59l184 39l23 -8v-493h57v-48q-16 -11 -56 -18.5t-68 -7.5q-29 0 -46.5 12.5t-17.5 37.5v26
q-29 -31 -77.5 -52.5t-89.5 -21.5q-103 0 -140 51.5t-37 162.5v239z" />
    <glyph glyph-name="uacute" unicode="&#xfa;" horiz-adv-x="644" 
d="M242 691l151 202l108 -88q-29 -47 -92.5 -88t-128.5 -64zM82 440l-47 28v53l167 39l24 -8v-339q0 -74 17 -106.5t67 -32.5q27 0 57 10.5t44 24.5v324l-61 29v59l184 39l23 -8v-493h57v-48q-16 -11 -56 -18.5t-68 -7.5q-29 0 -46.5 12.5t-17.5 37.5v26
q-29 -31 -77.5 -52.5t-89.5 -21.5q-103 0 -140 51.5t-37 162.5v239z" />
    <glyph glyph-name="ucircumflex" unicode="&#xfb;" horiz-adv-x="644" 
d="M121 684l133 183h114l133 -183l-62 -32l-128 110l-134 -110zM82 440l-47 28v53l167 39l24 -8v-339q0 -74 17 -106.5t67 -32.5q27 0 57 10.5t44 24.5v324l-61 29v59l184 39l23 -8v-493h57v-48q-16 -11 -56 -18.5t-68 -7.5q-29 0 -46.5 12.5t-17.5 37.5v26
q-29 -31 -77.5 -52.5t-89.5 -21.5q-103 0 -140 51.5t-37 162.5v239z" />
    <glyph glyph-name="udieresis" unicode="&#xfc;" horiz-adv-x="644" 
d="M181 663q-33 0 -56 17.5t-23 47.5q0 33 28.5 55t62.5 22q38 0 60 -17t22 -49q0 -34 -29 -55t-65 -21zM429 664q-35 0 -57.5 18t-22.5 47q0 33 29 54.5t63 21.5q38 0 59 -17t21 -48q0 -35 -28 -55.5t-64 -20.5zM82 440l-47 28v53l167 39l24 -8v-339q0 -74 17 -106.5
t67 -32.5q27 0 57 10.5t44 24.5v324l-61 29v59l184 39l23 -8v-493h57v-48q-16 -11 -56 -18.5t-68 -7.5q-29 0 -46.5 12.5t-17.5 37.5v26q-29 -31 -77.5 -52.5t-89.5 -21.5q-103 0 -140 51.5t-37 162.5v239z" />
    <glyph glyph-name="yacute" unicode="&#xfd;" horiz-adv-x="590" 
d="M249 691l151 202l108 -88q-29 -47 -92 -87.5t-129 -64.5zM72 -139q31 -8 62 -7q45 0 79 37.5t53 108.5h-26l-193 458l-45 12v76h267v-76l-60 -11l102 -282l15 -65l20 65l85 283l-70 10v76h236v-76l-50 -9q-17 -52 -63.5 -173l-81.5 -210t-41 -103q-57 -148 -119 -191
q-42 -45 -104 -45q-53 0 -66 8v114z" />
    <glyph glyph-name="thorn" unicode="&#xfe;" horiz-adv-x="646" 
d="M211 794l26 -8v-264q63 40 137 40q107 0 169.5 -70t62.5 -197q0 -129 -85.5 -219t-213.5 -90q-26 0 -76 6l6 -42v-126l101 -13v-61h-324v61l74 13v864l-68 25v60zM316 482q-45 0 -79 -20v-370q19 -41 86 -41q63 0 97 63t36 163q2 91 -37.5 148t-102.5 57z" />
    <glyph glyph-name="ydieresis" unicode="&#xff;" horiz-adv-x="590" 
d="M187 663q-33 0 -56 17.5t-23 47.5q0 33 28.5 55t62.5 22q38 0 60 -17t22 -49q0 -34 -29 -55t-65 -21zM435 664q-35 0 -57.5 18t-22.5 47q0 33 29 54.5t63 21.5q38 0 59 -17t21 -48q0 -35 -28 -55.5t-64 -20.5zM72 -139q31 -8 62 -7q45 0 79 37.5t53 108.5h-26l-193 458
l-45 12v76h267v-76l-60 -11l102 -282l15 -65l20 65l85 283l-70 10v76h236v-76l-50 -9q-17 -52 -63.5 -173l-81.5 -210t-41 -103q-57 -148 -119 -191q-42 -45 -104 -45q-53 0 -66 8v114z" />
    <glyph glyph-name="Amacron" unicode="&#x100;" horiz-adv-x="765" 
d="M244 919h271v-103h-271v103zM2 60l66 18l245 680h139l236 -680l75 -19v-59h-310v59l69 20l-30 100h-273l-31 -99l75 -20v-60h-261v60zM468 259l-69 228l-39 138l-116 -366h224z" />
    <glyph glyph-name="amacron" unicode="&#x101;" horiz-adv-x="587" 
d="M167 774h270v-103h-270v103zM298 560q105 0 159.5 -45t54.5 -149v-307h63v-47q-37 -25 -115 -25q-75 0 -79 58q-58 -58 -149 -58q-84 0 -137.5 42t-53.5 112q0 67 51 113t121 65t150 19v16q0 67 -27 94.5t-86 27.5q-38 0 -82.5 -11.5t-72.5 -29.5l-29 66q36 28 104 43.5
t128 15.5zM363 270q-70 0 -120.5 -26.5t-50.5 -82.5q0 -90 91 -90q50 0 80 27v172z" />
    <glyph glyph-name="Abreve" unicode="&#x102;" horiz-adv-x="765" 
d="M558 959q0 -67 -50 -114.5t-124 -47.5q-76 0 -126 46.5t-50 115.5h85q20 -72 91 -72q70 0 92 72h82zM2 60l66 18l245 680h139l236 -680l75 -19v-59h-310v59l69 20l-30 100h-273l-31 -99l75 -20v-60h-261v60zM468 259l-69 228l-39 138l-116 -366h224z" />
    <glyph glyph-name="abreve" unicode="&#x103;" horiz-adv-x="587" 
d="M484 828q0 -69 -51 -118t-125 -49q-76 0 -126.5 49t-50.5 118h86q22 -77 91 -77q68 0 93 77h83zM298 560q105 0 159.5 -45t54.5 -149v-307h63v-47q-37 -25 -115 -25q-75 0 -79 58q-58 -58 -149 -58q-84 0 -137.5 42t-53.5 112q0 67 51 113t121 65t150 19v16
q0 67 -27 94.5t-86 27.5q-38 0 -82.5 -11.5t-72.5 -29.5l-29 66q36 28 104 43.5t128 15.5zM363 270q-70 0 -120.5 -26.5t-50.5 -82.5q0 -90 91 -90q50 0 80 27v172z" />
    <glyph glyph-name="Aogonek" unicode="&#x104;" horiz-adv-x="765" 
d="M2 60l66 18l245 680h139l236 -680l75 -19v-59h-108q-51 -18 -97 -54.5t-46 -69.5q0 -35 45 -37q12 0 24 1.5t24.5 5.5l20.5 6.5t23 8.5l20 8l16 -59q-87 -64 -206 -63q-47 1 -74 24.5t-27 59.5q0 46 53 95.5t116 73.5h-94v59l69 20l-30 100h-273l-31 -99l75 -20v-60h-261
v60zM468 259l-69 228l-39 138l-116 -366h224z" />
    <glyph glyph-name="aogonek" unicode="&#x105;" horiz-adv-x="587" 
d="M298 560q105 0 159.5 -45t54.5 -149v-307h63v-48q-120 -70 -120 -129q0 -48 60 -48q26 0 61 10v-63q-49 -34 -115 -34q-55 0 -91 24t-36 71q0 43 30 81.5t76 65.5q-59 5 -59 56q-58 -58 -149 -58q-84 0 -137.5 42t-53.5 112q0 51 29.5 90.5t78 62t103 33.5t111.5 11v15
q0 68 -27 95.5t-86 27.5q-38 0 -82.5 -11.5t-72.5 -29.5l-29 66q36 28 104 43.5t128 15.5zM363 270q-70 0 -120.5 -27.5t-50.5 -81.5q0 -90 91 -90q50 0 80 27v172z" />
    <glyph glyph-name="Cacute" unicode="&#x106;" horiz-adv-x="710" 
d="M334 824l179 114l87 -88q-34 -25 -103 -45t-121 -25zM455 765q34 0 70 -4.5t58 -9t48 -11l30 -7.5l-10 -175h-86l-33 94q-37 33 -119 33q-96 0 -154.5 -81.5t-58.5 -209.5q0 -88 24.5 -162.5t77 -123t122.5 -48.5q104 0 129 45l36 91h72v-164q-3 0 -88 -23t-165 -23
q-167 0 -269.5 101t-102.5 267q0 177 121.5 294t297.5 117z" />
    <glyph glyph-name="cacute" unicode="&#x107;" horiz-adv-x="541" 
d="M254 691l151 202l108 -88q-29 -47 -92 -87.5t-129 -64.5zM345 562q112 0 156 -25v-144h-76l-35 83q-21 15 -68 15q-60 0 -94 -55.5t-35 -142.5q0 -102 45 -160t120 -58q91 0 138 33l23 -56q-74 -65 -217 -65q-121 0 -190.5 75t-70.5 199q0 135 85 217t219 84z" />
    <glyph glyph-name="Ccaron" unicode="&#x10c;" horiz-adv-x="710" 
d="M212 906l51 32l132 -69l136 69l50 -32l-132 -123h-106zM455 765q34 0 70 -4.5t58 -9t48 -11l30 -7.5l-10 -175h-86l-33 94q-37 33 -119 33q-96 0 -154.5 -81.5t-58.5 -209.5q0 -88 24.5 -162.5t77 -123t122.5 -48.5q104 0 129 45l36 91h72v-164q-3 0 -88 -23t-165 -23
q-167 0 -269.5 101t-102.5 267q0 177 121.5 294t297.5 117z" />
    <glyph glyph-name="ccaron" unicode="&#x10d;" horiz-adv-x="541" 
d="M134 835l58 32l132 -110l129 109l61 -32l-133 -182h-114zM345 562q112 0 156 -25v-144h-76l-35 83q-21 15 -68 15q-60 0 -94 -55.5t-35 -142.5q0 -102 45 -160t120 -58q91 0 138 33l23 -56q-74 -65 -217 -65q-121 0 -190.5 75t-70.5 199q0 135 85 217t219 84z" />
    <glyph glyph-name="Dcaron" unicode="&#x10e;" horiz-adv-x="786" 
d="M175 906l51 32l132 -69l136 69l50 -32l-132 -123h-106zM46 60l75 18v600l-73 10v70h151q30 0 87 3.5t88 3.5q185 1 280.5 -93t95.5 -272q0 -186 -108 -296.5t-283 -108.5q-19 0 -72 2.5t-86 2.5h-155v60zM271 80q44 -21 122 -14q90 5 144.5 91t54.5 211q0 163 -60 245.5
t-175 80.5q-55 0 -86 -12v-602z" />
    <glyph glyph-name="dcaron" unicode="&#x10f;" horiz-adv-x="739" 
d="M620 507l-4 13q10 69 10 149q0 35 -8 68.5t-17 44.5l7 21l111 28q14 -14 23 -55t9 -82q0 -56 -18 -114t-42 -91zM535 795l29 -12v-724h68v-48q-48 -26 -134 -26q-59 0 -72 44q-55 -42 -160 -42q-99 0 -162.5 77t-63.5 200q0 130 89 214t218 84q39 0 68 -6v131l-106 25v60
zM332 501q-60 0 -99 -58.5t-40 -145.5q-2 -99 35.5 -167t102.5 -68q55 0 84 20v395q-32 24 -83 24z" />
    <glyph glyph-name="Dcroat" unicode="&#x110;" horiz-adv-x="784" 
d="M46 60l75 18v269h-90v92h90v239l-73 10v70h151q30 0 87 3.5t88 3.5q185 1 280.5 -93t95.5 -272q0 -186 -108 -296.5t-283 -108.5q-19 0 -72 2.5t-86 2.5h-155v60zM271 80q44 -21 122 -14q90 5 144.5 91t54.5 211q0 163 -60 244.5t-175 81.5q-55 0 -86 -12v-243h131v-92
h-131v-267z" />
    <glyph glyph-name="dcroat" unicode="&#x111;" horiz-adv-x="658" 
d="M643 577h-79v-518h68v-48q-48 -26 -134 -26q-59 0 -72 44q-55 -42 -160 -42q-98 0 -162 72.5t-64 181.5q0 139 86 210t221 71q39 0 68 -6v61h-188v61h188v49l-106 25v60l226 23l29 -12v-145h79v-61zM415 82v355q-32 24 -83 24q-63 0 -101 -51t-38 -150q0 -78 37.5 -138
t100.5 -60q55 0 84 20z" />
    <glyph glyph-name="Emacron" unicode="&#x112;" horiz-adv-x="680" 
d="M230 919h270v-103h-270v103zM49 60l75 18v600l-72 10v70h540l14 -158h-86l-38 79l-208 9v-263l142 4l23 74h76v-229h-76l-23 76l-142 3v-283l237 13l58 97l85 -16l-25 -164h-580v60z" />
    <glyph glyph-name="emacron" unicode="&#x113;" horiz-adv-x="591" 
d="M180 774h270v-103h-270v103zM330 562q101 1 157 -51.5t60 -152.5q1 -44 -7 -97h-347q5 -90 47 -138t119 -48q83 0 152 32l23 -55q-37 -32 -102 -49.5t-125 -15.5q-128 1 -197.5 74t-69.5 202q0 131 80.5 214.5t209.5 84.5zM312 499q-52 0 -82 -44t-36 -122h206
q4 78 -14 107q-12 59 -74 59z" />
    <glyph glyph-name="Edotaccent" unicode="&#x116;" horiz-adv-x="680" 
d="M369 938q36 0 58.5 -17t22.5 -50t-28.5 -54.5t-65.5 -21.5q-33 0 -56 17t-23 48q0 33 28.5 55.5t63.5 22.5zM49 60l75 18v600l-72 10v70h540l14 -158h-86l-38 79l-208 9v-263l142 4l23 74h76v-229h-76l-23 76l-142 3v-283l237 13l58 97l85 -16l-25 -164h-580v60z" />
    <glyph glyph-name="edotaccent" unicode="&#x117;" horiz-adv-x="591" 
d="M318 796q38 0 59.5 -17.5t21.5 -49.5q0 -34 -29 -55t-65 -21q-33 0 -56 17.5t-23 47.5q0 34 29 56t63 22zM330 562q101 1 157 -51.5t60 -152.5q1 -44 -7 -97h-347q5 -90 47 -138t119 -48q83 0 152 32l23 -55q-37 -32 -102 -49.5t-125 -15.5q-128 1 -197.5 74t-69.5 202
q0 131 80.5 214.5t209.5 84.5zM312 499q-52 0 -82 -44t-36 -122h206q4 78 -14 107q-12 59 -74 59z" />
    <glyph glyph-name="Eogonek" unicode="&#x118;" horiz-adv-x="680" 
d="M49 60l75 18v600l-72 10v70h540l14 -158h-86l-38 79l-208 9v-263l142 4l23 74h76v-229h-76l-23 76l-142 3v-283l237 13l58 97l85 -16l-25 -164h-14q-52 -19 -96.5 -55t-44.5 -69q0 -35 44 -37q12 0 23.5 1.5t25.5 5.5t21 6.5t23 9t20 7.5l15 -59q-87 -64 -206 -63
q-47 1 -74 25t-27 62q0 44 53 92.5t116 73.5h-459v60z" />
    <glyph glyph-name="eogonek" unicode="&#x119;" horiz-adv-x="591" 
d="M330 562q104 1 160.5 -55t56.5 -162q0 -44 -7 -84h-347q5 -90 47 -138t119 -48q83 0 152 32l23 -55q-126 -105 -126 -162q0 -54 87 -54q28 0 55 8v-60q-21 -16 -59 -25t-70 -9q-56 0 -91.5 21.5t-35.5 67.5q0 88 104 156q-40 -8 -91 -8q-128 1 -197.5 74t-69.5 202
q0 131 80.5 214.5t209.5 84.5zM312 499q-52 0 -82 -44t-36 -122h206q3 48 3 53q0 113 -91 113z" />
    <glyph glyph-name="Ecaron" unicode="&#x11a;" horiz-adv-x="680" 
d="M163 906l51 32l132 -69l136 69l50 -32l-132 -123h-106zM49 60l75 18v600l-72 10v70h540l14 -158h-86l-38 79l-208 9v-263l142 4l23 74h76v-229h-76l-23 76l-142 3v-283l237 13l58 97l85 -16l-25 -164h-580v60z" />
    <glyph glyph-name="ecaron" unicode="&#x11b;" horiz-adv-x="591" 
d="M124 835l58 32l132 -110l129 109l61 -32l-133 -182h-114zM330 562q101 1 157 -51.5t60 -152.5q1 -44 -7 -97h-347q5 -90 47 -138t119 -48q83 0 152 32l23 -55q-37 -32 -102 -49.5t-125 -15.5q-128 1 -197.5 74t-69.5 202q0 131 80.5 214.5t209.5 84.5zM312 499
q-52 0 -82 -44t-36 -122h206q4 78 -14 107q-12 59 -74 59z" />
    <glyph glyph-name="Gbreve" unicode="&#x11e;" horiz-adv-x="767" 
d="M594 938q0 -68 -50 -115t-125 -47t-125 46.5t-50 115.5h84q22 -72 92 -72t92 72h82zM435 765q142 0 242 -28l-10 -160h-77l-39 87q-11 11 -45 21t-87 9q-102 -1 -162.5 -85t-60.5 -211q0 -92 20.5 -166.5t70 -125t123.5 -50.5q43 0 84 16t52 43v148l-107 12v71h293v-71
l-50 -11v-234q-31 4 -137 -20t-164 -24q-154 0 -250 106.5t-96 269.5q0 183 111.5 293t288.5 110z" />
    <glyph glyph-name="gbreve" unicode="&#x11f;" horiz-adv-x="612" 
d="M466 828q0 -69 -51 -118t-125 -49q-76 0 -126.5 49t-50.5 118h86q22 -77 91 -77q68 0 93 77h83zM295 564q107 2 167 -44q22 39 100 39h48v-104h-99q13 -33 13 -70q0 -96 -68 -146.5t-174 -50.5q-52 0 -91 10q-7 -16 -7 -43q0 -56 67 -57q36 -1 119 -1q120 0 171 -37.5
t51 -119.5q0 -95 -86.5 -147t-217.5 -52q-245 0 -245 144q0 42 23 77t59 56q-34 13 -44 33.5t-10 55.5q0 24 19 57t45 54q-90 47 -90 150q0 93 71.5 143.5t178.5 52.5zM284 501q-42 0 -67.5 -26.5t-25.5 -74.5q0 -142 104 -142q89 0 89 118q0 125 -100 125zM190 4
q-18 -29 -18 -76q0 -59 40 -88t103 -29q72 0 108 21t36 74t-25.5 74t-94.5 21h-79q-40 0 -70 3z" />
    <glyph glyph-name="Gcommaaccent" unicode="&#x122;" horiz-adv-x="767" 
d="M435 765q142 0 242 -28l-10 -160h-77l-39 87q-11 11 -45 21t-87 9q-102 -1 -162.5 -85t-60.5 -211q0 -92 20.5 -166.5t70 -125t123.5 -50.5q43 0 84 16t52 43v148l-107 12v71h293v-71l-50 -11v-234q-31 4 -137 -20t-164 -24q-154 0 -250 106.5t-96 269.5q0 183 111.5 293
t288.5 110zM388 -20q54 -4 87 -41.5t33 -91.5t-39 -99.5t-85 -60.5l-51 25v12q48 34 48 86q0 27 -18.5 46t-39.5 19v35z" />
    <glyph glyph-name="gcommaaccent" unicode="&#x123;" horiz-adv-x="612" 
d="M316 651q-54 4 -87 41.5t-33 91.5t39 99.5t85 60.5l51 -25v-12q-48 -35 -48 -86q0 -27 18.5 -46t39.5 -19v-35zM295 564q107 2 167 -44q22 39 100 39h48v-104h-99q13 -33 13 -70q0 -96 -68 -146.5t-174 -50.5q-52 0 -91 10q-7 -16 -7 -43q0 -56 67 -57q36 -1 119 -1
q120 0 171 -37.5t51 -119.5q0 -95 -86.5 -147t-217.5 -52q-245 0 -245 144q0 42 23 77t59 56q-34 13 -44 33.5t-10 55.5q0 24 19 57t45 54q-90 47 -90 150q0 93 71.5 143.5t178.5 52.5zM284 501q-42 0 -67.5 -26.5t-25.5 -74.5q0 -142 104 -142q89 0 89 118q0 125 -100 125z
M190 4q-18 -29 -18 -76q0 -59 40 -88t103 -29q72 0 108 21t36 74t-25.5 74t-94.5 21h-79q-40 0 -70 3z" />
    <glyph glyph-name="hbar" unicode="&#x127;" horiz-adv-x="693" 
d="M39 59l71 12v506h-79v61h79v49l-72 25v60l194 23l27 -10l-1 -147h88v-61h-88v-24l-7 -61q77 68 184 68q98 0 131 -61.5t31 -195.5v-232l69 -12v-59l-292 1v58l75 12v203q0 41 -1.5 66t-6.5 51.5t-15.5 40.5t-29 23t-45.5 9q-56 0 -92 -28v-365l55 -12v-59h-275v59z" />
    <glyph glyph-name="Itilde" unicode="&#x128;" horiz-adv-x="402" 
d="M-5 841q15 37 60.5 67t84.5 30q34 0 77 -26.5t61 -26.5q46 0 84 36l39 -44q-17 -37 -60.5 -63.5t-83.5 -26.5q-35 0 -78 27t-63 27q-41 0 -84 -37zM34 60l91 18v600l-90 10v70h328v-70l-87 -11v-598l92 -19v-60h-334v60z" />
    <glyph glyph-name="itilde" unicode="&#x129;" horiz-adv-x="355" 
d="M-20 720q16 37 61.5 66.5t84.5 29.5q38 0 78.5 -27t59.5 -27q38 0 84 39l38 -44q-17 -38 -61 -68t-82 -30q-37 0 -79 27.5t-62 27.5q-39 0 -84 -39zM44 59l70 12v334l-63 59v41l175 55l36 -11v-478l73 -12v-59h-291v59z" />
    <glyph glyph-name="Imacron" unicode="&#x12a;" horiz-adv-x="398" 
d="M64 925h270v-103h-270v103zM34 60l91 18v600l-90 10v70h328v-70l-87 -11v-598l92 -19v-60h-334v60z" />
    <glyph glyph-name="imacron" unicode="&#x12b;" horiz-adv-x="355" 
d="M41 774h270v-103h-270v103zM44 59l70 12v334l-63 59v41l175 55l36 -11v-478l73 -12v-59h-291v59z" />
    <glyph glyph-name="Iogonek" unicode="&#x12e;" horiz-adv-x="402" 
d="M334 0q-47 -12 -94.5 -50.5t-47.5 -72.5q0 -38 43 -38q28 0 87 23l15 -59q-68 -56 -179 -56q-45 0 -73.5 23.5t-28.5 62.5q0 45 54.5 94.5t118.5 72.5h-195v60l91 18v600l-90 10v70h328v-70l-87 -11v-598l92 -19v-60h-34z" />
    <glyph glyph-name="iogonek" unicode="&#x12f;" horiz-adv-x="355" 
d="M171 654q-36 0 -62 23t-26 60q0 40 33 68.5t72 28.5q43 0 65.5 -22t22.5 -60q0 -43 -31.5 -70.5t-73.5 -27.5zM323 -131l15 -59q-87 -64 -206 -63q-47 1 -74 25t-27 62q0 44 53.5 93t115.5 73h-156v59l70 12v334l-63 59v41l175 55l36 -11v-478l73 -12v-59h-28
q-49 -18 -95 -54t-46 -70q0 -35 44 -37q12 0 23.5 1.5t25.5 5.5t20.5 6t23.5 9t20 8z" />
    <glyph glyph-name="Idotaccent" unicode="&#x130;" horiz-adv-x="402" 
d="M205 938q36 0 58.5 -17t22.5 -50t-28.5 -54.5t-65.5 -21.5q-33 0 -56 17t-23 48q0 33 28.5 55.5t63.5 22.5zM34 60l91 18v600l-90 10v70h328v-70l-87 -11v-598l92 -19v-60h-334v60z" />
    <glyph glyph-name="dotlessi" unicode="&#x131;" horiz-adv-x="355" 
d="M44 59l70 12v334l-63 59v41l175 55l36 -11v-478l73 -12v-59h-291v59z" />
    <glyph glyph-name="IJ" unicode="&#x132;" horiz-adv-x="775" 
d="M34 60l91 18v600l-90 10v70h328v-70l-87 -11v-598l92 -19v-60h-334v60zM350 -148q112 40 149 123q23 66 23 222v481l-74 10v70h299v-70l-73 -10v-415q0 -199 -23 -270q-27 -80 -108 -131t-161 -54z" />
    <glyph glyph-name="ij" unicode="&#x133;" horiz-adv-x="684" 
d="M528 839q43 0 66 -22.5t23 -60.5q0 -41 -31 -69t-74 -28q-37 0 -62.5 22.5t-25.5 59.5q0 41 32.5 69.5t71.5 28.5zM188 834q43 0 65.5 -22t22.5 -60q0 -43 -31.5 -70.5t-73.5 -27.5q-36 0 -62 23t-26 60q0 40 33 68.5t72 28.5zM226 560l36 -11v-478l73 -12v-59h-291v59
l70 12v334l-63 59v41zM575 560l35 -12v-566q0 -110 -48 -176.5t-135 -66.5q-20 0 -49 5t-38 10v84q20 -5 58 -5q39 0 51 39t12 126v407l-58 61v38z" />
    <glyph glyph-name="Jcircumflex" unicode="&#x134;" horiz-adv-x="374" 
d="M249 938l130 -124l-51 -31l-132 69l-135 -69l-50 31l131 124h107zM345 758v-70l-72 -10v-415q0 -195 -24 -270q-27 -80 -108 -131t-161 -54l-31 44q113 41 148 123q24 69 24 222v481l-75 10v70h299z" />
    <glyph glyph-name="jcircumflex" unicode="&#x135;" horiz-adv-x="329" 
d="M-12 704l133 183h114l133 -183l-62 -32l-128 110l-134 -110zM106 405l-58 61v38l172 56l35 -12v-566q0 -110 -48 -176.5t-135 -66.5q-20 0 -49 5t-38 10v84q20 -5 58 -5q39 0 51 39t12 126v407z" />
    <glyph glyph-name="Kcommaaccent" unicode="&#x136;" horiz-adv-x="733" 
d="M31 60l90 19v598l-90 11v70h324v-70l-85 -11v-295l240 296l-76 10l-2 70h285v-70l-88 -11l-216 -242q40 -38 137.5 -193.5t120.5 -163.5l68 -18v-60h-189q-22 0 -58 69l-81 157.5t-78 119.5l-63 -72v-195l96 -19v-60h-335v60zM372 -20q54 -4 87 -41.5t33 -91.5t-39 -99.5
t-85 -60.5l-51 25v12q48 34 48 86q0 27 -18.5 46t-39.5 19v35z" />
    <glyph glyph-name="kcommaaccent" unicode="&#x137;" horiz-adv-x="651" 
d="M40 59l70 13v604l-81 30v61l203 28l27 -12v-437l-5 -71l176 187l-85 9v77h287v-77l-91 -8l-133 -130l179 -264l55 -10v-59h-273v59l49 13l-106 175l-58 -63l4 -56v-58l62 -11v-59h-280v59zM315 -20q54 -4 87 -41.5t33 -91.5t-39 -99.5t-85 -60.5l-51 25v12q48 34 48 86
q0 27 -18.5 46t-39.5 19v35z" />
    <glyph glyph-name="kgreenlandic" unicode="&#x138;" horiz-adv-x="651" 
d="M40 59l70 13v352l-73 38v56l175 43l47 -14v-202l-5 -70l176 187l-85 9v77h287v-77l-91 -8l-133 -130l179 -264l55 -10v-59h-273v59l49 13l-106 175l-58 -63l4 -56v-58l62 -11v-59h-280v59z" />
    <glyph glyph-name="Lacute" unicode="&#x139;" horiz-adv-x="624" 
d="M134 824l179 114l87 -88q-34 -25 -103 -45t-121 -25zM47 60l74 18v592l-71 9v79h310v-79l-88 -10l-1 -597l202 17l75 116l65 -26l-33 -179h-533v60z" />
    <glyph glyph-name="lacute" unicode="&#x13a;" horiz-adv-x="354" 
d="M115 872l151 202l108 -88q-29 -47 -92 -87.5t-129 -64.5zM40 59l65 12v616l-69 25v60l192 23l26 -10v-713l86 -13v-59h-300v59z" />
    <glyph glyph-name="Lcommaaccent" unicode="&#x13b;" horiz-adv-x="624" 
d="M47 60l74 18v592l-71 9v79h310v-79l-88 -10l-1 -597l202 17l75 116l65 -26l-33 -179h-533v60zM291 -20q54 -4 87 -41.5t33 -91.5t-39 -99.5t-85 -60.5l-51 25v12q48 34 48 86q0 27 -18.5 46t-39.5 19v35z" />
    <glyph glyph-name="lcommaaccent" unicode="&#x13c;" horiz-adv-x="354" 
d="M40 59l65 12v616l-69 25v60l192 23l26 -10v-713l86 -13v-59h-300v59zM152 -20q54 -4 87 -41.5t33 -91.5t-39 -99.5t-85 -60.5l-51 25v12q48 34 48 86q0 27 -18.5 46t-39.5 19v35z" />
    <glyph glyph-name="Lcaron" unicode="&#x13d;" horiz-adv-x="624" 
d="M445 507l-4 13q10 69 10 149q0 35 -8 68.5t-17 44.5l7 21l111 28q14 -14 23 -55t9 -82q0 -56 -18 -114t-42 -91zM47 60l74 18v592l-71 9v79h310v-79l-88 -10l-1 -597l202 17l75 116l65 -26l-33 -179h-533v60z" />
    <glyph glyph-name="lcaron" unicode="&#x13e;" horiz-adv-x="354" 
d="M310 507l-4 13q10 69 10 149q0 35 -8 68.5t-17 44.5l7 21l111 28q14 -14 23 -55t9 -82q0 -56 -18 -114t-42 -91zM40 59l65 12v616l-69 25v60l192 23l26 -10v-713l86 -13v-59h-300v59z" />
    <glyph glyph-name="Ldot" unicode="&#x13f;" horiz-adv-x="692" 
d="M360 758v-79l-88 -10l-1 -597l202 17l75 116l65 -26l-33 -179h-533v60l74 18v592l-71 9v79h310zM600 504q42 0 65.5 -23t23.5 -62q0 -42 -31.5 -68.5t-73.5 -26.5q-35 0 -61 23t-26 58q0 40 32.5 69.5t70.5 29.5z" />
    <glyph glyph-name="ldot" unicode="&#x140;" horiz-adv-x="548" 
d="M227 795l26 -10v-713l86 -13v-59h-300v59l65 12v616l-70 25v60zM452 485q43 0 66 -23t23 -61q0 -42 -31.5 -69t-72.5 -27q-36 0 -62 22.5t-26 58.5q0 40 32.5 69.5t70.5 29.5z" />
    <glyph glyph-name="Lslash" unicode="&#x141;" horiz-adv-x="622" 
d="M360 758v-79l-88 -10l-1 -231l108 45l114 48v-117l-222 -87v-255l202 17l75 116l65 -26l-33 -179h-533v60l74 18v189l-84 -33v52v53l84 35v296l-71 9v79h310z" />
    <glyph glyph-name="lslash" unicode="&#x142;" horiz-adv-x="354" 
d="M40 59l65 12v262l-62 -22v104l62 24v248l-69 25v60l192 23l26 -10v-290l94 36v-111l-94 -34v-314l86 -13v-59h-300v59z" />
    <glyph glyph-name="Nacute" unicode="&#x143;" horiz-adv-x="827" 
d="M361 824l179 114l87 -88q-34 -25 -103 -45t-121 -25zM796 758v-78l-72 -10v-670h-164l-283 466l-57 133l1 -518l97 -21v-60h-276v60l79 20v589l-75 10v79h225l304 -518l51 -121v549l-86 12v78h256z" />
    <glyph glyph-name="nacute" unicode="&#x144;" horiz-adv-x="706" 
d="M304 691l150 202l108 -88q-28 -47 -91 -87.5t-130 -64.5zM53 59l63 11v345l-67 44v52l165 49l33 -9v-72q36 36 93 58.5t108 22.5q90 1 126 -53.5t36 -169.5v-267l71 -11v-59h-291v59l71 12v246q0 84 -20 114t-84 29q-19 -1 -47 -10t-45 -21v-358l64 -12v-59h-276v59z" />
    <glyph glyph-name="Ncommaaccent" unicode="&#x145;" horiz-adv-x="827" 
d="M796 758v-78l-72 -10v-670h-164l-283 466l-57 133l1 -518l97 -21v-60h-276v60l79 20v589l-75 10v79h225l304 -518l51 -121v549l-86 12v78h256zM402 -20q54 -4 87 -41.5t33 -91.5t-39 -99.5t-85 -60.5l-51 25v12q48 34 48 86q0 27 -18.5 46t-39.5 19v35z" />
    <glyph glyph-name="ncommaaccent" unicode="&#x146;" horiz-adv-x="706" 
d="M53 59l63 11v345l-67 44v52l165 49l33 -9v-72q36 36 93 58.5t108 22.5q90 1 126 -53.5t36 -169.5v-267l71 -11v-59h-291v59l71 12v246q0 84 -20 114t-84 29q-19 -1 -47 -10t-45 -21v-358l64 -12v-59h-276v59zM332 -20q54 -4 87 -41.5t33 -91.5t-39 -99.5t-85 -60.5
l-51 25v12q48 34 48 86q0 27 -18.5 46t-39.5 19v35z" />
    <glyph glyph-name="Ncaron" unicode="&#x147;" horiz-adv-x="827" 
d="M238 906l51 32l132 -69l136 69l50 -32l-132 -123h-106zM796 758v-78l-72 -10v-670h-164l-283 466l-57 133l1 -518l97 -21v-60h-276v60l79 20v589l-75 10v79h225l304 -518l51 -121v549l-86 12v78h256z" />
    <glyph glyph-name="ncaron" unicode="&#x148;" horiz-adv-x="706" 
d="M170 835l58 32l132 -110l129 109l61 -32l-133 -182h-114zM53 59l63 11v345l-67 44v52l165 49l33 -9v-72q36 36 93 58.5t108 22.5q90 1 126 -53.5t36 -169.5v-267l71 -11v-59h-291v59l71 12v246q0 84 -20 114t-84 29q-19 -1 -47 -10t-45 -21v-358l64 -12v-59h-276v59z" />
    <glyph glyph-name="Omacron" unicode="&#x14c;" horiz-adv-x="775" 
d="M252 925h271v-103h-271v103zM402 765q154 0 247.5 -107t90.5 -272q-3 -178 -101 -289t-254 -111q-158 0 -254 106.5t-94 272.5q2 110 46.5 198.5t120.5 140.5q90 61 198 61zM392 694q-189 0 -189 -325q0 -124 51.5 -218.5t139.5 -94.5q99 0 140 85.5t41 243.5
q0 134 -50 221.5t-133 87.5z" />
    <glyph glyph-name="omacron" unicode="&#x14d;" horiz-adv-x="636" 
d="M179 774h270v-103h-270v103zM328 563q131 0 200.5 -73.5t69.5 -203.5q-1 -135 -79.5 -216.5t-203.5 -81.5q-135 0 -205.5 78t-68.5 211q3 132 81.5 207.5t205.5 78.5zM323 497q-66 1 -95 -55.5t-29 -153.5q0 -94 30 -163.5t91 -69.5q35 0 59 17t37 49.5t18.5 70.5t5.5 86
q0 96 -27.5 157t-89.5 62z" />
    <glyph glyph-name="Ohungarumlaut" unicode="&#x150;" horiz-adv-x="774" 
d="M198 811l147 203l94 -74q-34 -46 -90.5 -99t-93.5 -72zM465 811l146 203l97 -74q-42 -52 -96.5 -103.5t-91.5 -67.5zM402 765q154 0 247.5 -107t90.5 -272q-3 -178 -101 -289t-254 -111q-158 0 -254 106.5t-94 272.5q2 110 46.5 198.5t120.5 140.5q90 61 198 61zM392 694
q-189 0 -189 -325q0 -124 51.5 -218.5t139.5 -94.5q99 0 140 85.5t41 243.5q0 134 -50 221.5t-133 87.5z" />
    <glyph glyph-name="ohungarumlaut" unicode="&#x151;" horiz-adv-x="636" 
d="M102 690l147 203l94 -74q-34 -46 -90.5 -99t-93.5 -72zM369 690l146 203l97 -74q-42 -52 -96.5 -103.5t-91.5 -67.5zM328 563q131 0 200.5 -73.5t69.5 -203.5q-1 -135 -79.5 -216.5t-203.5 -81.5q-135 0 -205.5 78t-68.5 211q3 132 81.5 207.5t205.5 78.5zM323 497
q-66 1 -95 -55.5t-29 -153.5q0 -94 30 -163.5t91 -69.5q35 0 59 17t37 49.5t18.5 70.5t5.5 86q0 96 -27.5 157t-89.5 62z" />
    <glyph glyph-name="OE" unicode="&#x152;" horiz-adv-x="1062" 
d="M399 765q40 0 74 -7h499l15 -158h-76l-39 79l-204 9v-266l143 5l20 73h69v-230h-69l-20 77l-143 3v-280l239 13l58 97l74 -16l-24 -164h-531q-43 -12 -97 -14q-159 -1 -256 107t-94 275q4 173 106.5 284t255.5 113zM392 694q-189 0 -189 -325q0 -124 51.5 -218.5
t139.5 -94.5q81 0 125 62v492q-52 84 -127 84z" />
    <glyph glyph-name="oe" unicode="&#x153;" horiz-adv-x="1038" 
d="M782 562q101 1 156.5 -51.5t59.5 -152.5q2 -44 -6 -97h-347q5 -90 47 -138t119 -48q83 0 152 32l24 -55q-37 -32 -102.5 -49.5t-125.5 -15.5q-153 1 -222 106q-37 -50 -97 -77.5t-125 -27.5q-135 0 -205.5 78t-68.5 211q3 132 81.5 207.5t205.5 78.5q157 1 226 -108
q80 106 228 107zM764 499q-53 0 -83 -45t-35 -121h205q6 75 -13 107q-12 59 -74 59zM323 497q-66 1 -95 -56.5t-29 -152.5q0 -94 30 -163.5t91 -69.5q35 0 59 17t37 49.5t18.5 70.5t5.5 86q0 96 -27.5 157t-89.5 62z" />
    <glyph glyph-name="Racute" unicode="&#x154;" horiz-adv-x="729" 
d="M292 824l179 114l87 -88q-34 -25 -103 -45t-121 -25zM358 765q283 0 283 -199q0 -168 -164 -226q14 -7 21 -14q31 -25 67 -84l65 -108t48 -57l60 -17v-60h-187q-21 0 -47.5 50.5t-49 110.5t-55.5 109.5t-64 48.5q-30 -1 -65 -1v-240l96 -18v-60h-332v60l87 19v594l-77 10
v75h115q32 0 101 3.5t98 3.5zM338 694q-56 -2 -68 -7v-296q22 -3 61 -3q84 0 124 38t40 124q0 68 -40.5 106.5t-116.5 37.5z" />
    <glyph glyph-name="racute" unicode="&#x155;" horiz-adv-x="466" 
d="M141 691l151 202l108 -88q-29 -47 -92 -87.5t-129 -64.5zM50 59l66 12v344l-67 44v52l165 49l31 -9v-89q13 37 60 67.5t88 30.5q39 0 52 -5v-137q-28 20 -84 20q-62 0 -96 -22v-342l122 -15v-59h-337v59z" />
    <glyph glyph-name="Rcommaaccent" unicode="&#x156;" horiz-adv-x="729" 
d="M358 765q283 0 283 -199q0 -168 -164 -226q14 -7 21 -14q31 -25 67 -84l65 -108t48 -57l60 -17v-60h-187q-21 0 -47.5 50.5t-49 110.5t-55.5 109.5t-64 48.5q-30 -1 -65 -1v-240l96 -18v-60h-332v60l87 19v594l-77 10v75h115q32 0 101 3.5t98 3.5zM338 694q-56 -2 -68 -7
v-296q22 -3 61 -3q84 0 124 38t40 124q0 68 -40.5 106.5t-116.5 37.5zM396 -20q54 -4 87 -41.5t33 -91.5t-39 -99.5t-85 -60.5l-51 25v12q48 34 48 86q0 27 -18.5 46t-39.5 19v35z" />
    <glyph glyph-name="rcommaaccent" unicode="&#x157;" horiz-adv-x="466" 
d="M50 59l66 12v344l-67 44v52l165 49l31 -9v-89q13 37 60 67.5t88 30.5q39 0 52 -5v-137q-28 20 -84 20q-62 0 -96 -22v-342l122 -15v-59h-337v59zM183 -20q54 -4 87 -41.5t33 -91.5t-39 -99.5t-85 -60.5l-51 25v12q48 34 48 86q0 27 -18.5 46t-39.5 19v35z" />
    <glyph glyph-name="Rcaron" unicode="&#x158;" horiz-adv-x="729" 
d="M168 906l51 32l132 -69l136 69l50 -32l-132 -123h-106zM358 765q283 0 283 -199q0 -168 -164 -226q14 -7 21 -14q31 -25 67 -84l65 -108t48 -57l60 -17v-60h-187q-21 0 -47.5 50.5t-49 110.5t-55.5 109.5t-64 48.5q-30 -1 -65 -1v-240l96 -18v-60h-332v60l87 19v594
l-77 10v75h115q32 0 101 3.5t98 3.5zM338 694q-56 -2 -68 -7v-296q22 -3 61 -3q84 0 124 38t40 124q0 68 -40.5 106.5t-116.5 37.5z" />
    <glyph glyph-name="rcaron" unicode="&#x159;" horiz-adv-x="466" 
d="M32 835l58 32l132 -110l129 109l61 -32l-133 -182h-114zM50 59l66 12v344l-67 44v52l165 49l31 -9v-89q13 37 60 67.5t88 30.5q39 0 52 -5v-137q-28 20 -84 20q-62 0 -96 -22v-342l122 -15v-59h-337v59z" />
    <glyph glyph-name="Sacute" unicode="&#x15a;" horiz-adv-x="630" 
d="M211 824l179 114l87 -88q-34 -25 -103 -45t-121 -25zM315 -13q-63 0 -137.5 13t-108.5 31v185h64l42 -111q40 -50 144 -50q56 0 91 29.5t35 84.5q0 40 -35 73t-97 67l-79.5 43.5t-64.5 41.5t-55 48.5t-31.5 53.5t-13.5 67q0 93 76.5 147.5t177.5 54.5q56 0 125 -11
t97 -25v-154h-69l-43 101q-13 11 -43.5 18t-57.5 7q-49 0 -85.5 -23t-36.5 -70q0 -55 44.5 -93t144.5 -91q93 -48 144 -99t51 -123q0 -103 -79.5 -159t-199.5 -56z" />
    <glyph glyph-name="Scedilla" unicode="&#x15e;" horiz-adv-x="630" 
d="M594 202q0 -97 -71 -152.5t-182 -61.5q0 -40 2 -51q50 -3 80 -30t30 -63q0 -51 -39.5 -76.5t-103.5 -26.5q-37 -1 -102 13v66q21 -7 59 -7q44 0 44 36q0 34 -44 34q-6 0 -15.5 -1t-11.5 -1q0 48 20 108q-134 11 -191 42v185h64l42 -111q40 -50 144 -50q56 0 91 29.5
t35 84.5q0 40 -35 73t-97 67l-79.5 43.5t-64.5 41.5t-55 48.5t-31.5 53.5t-13.5 67q0 93 76.5 147.5t177.5 54.5q56 0 125 -11t97 -25v-154h-69l-43 101q-13 11 -43.5 18t-57.5 7q-49 0 -85.5 -23t-36.5 -70q0 -55 44.5 -93t144.5 -91q93 -48 144 -99t51 -123z" />
    <glyph glyph-name="scedilla" unicode="&#x15f;" horiz-adv-x="528" 
d="M494 161q0 -79 -58 -122t-151 -50q-3 -29 1 -52q50 -3 80 -30t30 -63q0 -51 -39.5 -76.5t-103.5 -26.5q-37 -1 -102 13v66q21 -7 59 -7q44 0 44 36q0 34 -44 34q-6 0 -15.5 -1t-11.5 -1q0 51 20 109q-89 10 -144 41v124h69l27 -56q27 -25 47 -36.5t50 -12.5
q47 -2 73.5 16.5t26.5 53.5q0 7 -2.5 14t-8 13t-10 11.5t-14 11.5l-16 10t-19 10t-19 9.5t-21.5 10t-21 9.5q-82 39 -125 82t-42 107q2 73 69.5 113.5t152.5 40.5q45 1 98.5 -8t82.5 -22v-125h-72l-25 59q-32 38 -76 38q-37 0 -60 -14.5t-24 -41.5q0 -20 8.5 -36t31 -31
t40 -24t57.5 -27q78 -36 117.5 -71.5t39.5 -97.5z" />
    <glyph glyph-name="Scaron" unicode="&#x160;" horiz-adv-x="630" 
d="M131 906l51 32l132 -69l136 69l50 -32l-132 -123h-106zM315 -13q-63 0 -137.5 13t-108.5 31v185h64l42 -111q40 -50 144 -50q56 0 91 29.5t35 84.5q0 40 -35 73t-97 67l-79.5 43.5t-64.5 41.5t-55 48.5t-31.5 53.5t-13.5 67q0 93 76.5 147.5t177.5 54.5q56 0 125 -11
t97 -25v-154h-69l-43 101q-13 11 -43.5 18t-57.5 7q-49 0 -85.5 -23t-36.5 -70q0 -55 44.5 -93t144.5 -91q93 -48 144 -99t51 -123q0 -103 -79.5 -159t-199.5 -56z" />
    <glyph glyph-name="scaron" unicode="&#x161;" horiz-adv-x="523" 
d="M81 835l56 32l133 -110l130 109l61 -32l-134 -182h-114zM58 155h69l28 -56q48 -47 96 -49q47 -2 73.5 16.5t26.5 53.5q0 7 -2 13.5t-7.5 13l-10 11.5t-14.5 11.5l-15.5 10t-19 10l-19.5 9.5t-21.5 10t-21.5 10q-81 39 -124 82t-43 107q2 73 69.5 113.5t152.5 40.5
q45 1 98.5 -8t83.5 -22v-125h-73l-25 59q-32 38 -76 38q-36 0 -59.5 -14.5t-23.5 -41.5q0 -20 8 -36t30.5 -31t40 -24t57.5 -27q78 -36 117.5 -71.5t39.5 -97.5q0 -87 -69.5 -130t-176.5 -43q-114 0 -189 43v124z" />
    <glyph glyph-name="Tcaron" unicode="&#x164;" horiz-adv-x="677" 
d="M166 906l51 32l132 -69l136 69l49 -32l-131 -123h-107zM162 60l115 18v607l-148 -13l-34 -98l-74 -3l12 187h631l-1 -183l-60 -8l-34 106l-143 12v-607l115 -18v-60h-379v60z" />
    <glyph glyph-name="tcaron" unicode="&#x165;" horiz-adv-x="442" 
d="M328 645l-4 13q10 69 10 149q0 35 -8 68.5t-17 44.5l7 21l111 28q14 -14 23 -55t9 -82q0 -56 -18 -114t-42 -91zM240 677v-131h167v-79h-162v-206q0 -35 0.5 -55t2 -44t5.5 -37t10.5 -25t16.5 -17t24 -5q19 0 48 6t42 13l23 -51q-27 -27 -80.5 -42.5t-103.5 -15.5
q-73 0 -103 39.5t-30 128.5v311h-74v49q40 8 59.5 16.5t32.5 25.5q24 30 51 119h71z" />
    <glyph glyph-name="Umacron" unicode="&#x16a;" horiz-adv-x="782" 
d="M290 905h270v-103h-270v103zM767 758v-70l-72 -11v-348q0 -168 -72 -255.5t-213 -87.5q-163 0 -240 80t-76 244q0 61 1 183.5t1 184.5l-77 10v70h311v-70l-85 -11v-372q0 -125 45.5 -184t138.5 -59q168 0 168 266l-1 349l-84 11v70h255z" />
    <glyph glyph-name="umacron" unicode="&#x16b;" horiz-adv-x="644" 
d="M186 774h270v-103h-270v103zM82 440l-47 28v53l167 39l24 -8v-339q0 -74 17 -106.5t67 -32.5q27 0 57 10.5t44 24.5v324l-61 29v59l184 39l23 -8v-493h57v-48q-16 -11 -56 -18.5t-68 -7.5q-29 0 -46.5 12.5t-17.5 37.5v26q-29 -31 -77.5 -52.5t-89.5 -21.5
q-103 0 -140 51.5t-37 162.5v239z" />
    <glyph glyph-name="Uring" unicode="&#x16e;" horiz-adv-x="782" 
d="M541 758h226v-70l-72 -11v-348q0 -168 -72 -255.5t-213 -87.5q-163 0 -240 80t-76 244q0 61 1 183.5t1 184.5l-77 10v70h280q-18 28 -18 61q0 54 39.5 86.5t98.5 32.5t99 -33t40 -86q0 -35 -17 -61zM419 878q-27 0 -44.5 -17t-17.5 -43t17.5 -42.5t44.5 -16.5
q26 0 44.5 16.5t18.5 42.5t-18 43t-45 17zM429 62q168 0 168 266l-1 349l-84 11v40q-39 -28 -93 -28q-51 0 -89 27v-39l-85 -11v-372q0 -125 45.5 -184t138.5 -59z" />
    <glyph glyph-name="uring" unicode="&#x16f;" horiz-adv-x="644" 
d="M320 891q57 0 97.5 -38.5t40.5 -90.5q0 -55 -41 -92.5t-97 -37.5q-55 0 -95.5 38t-40.5 92t40 91.5t96 37.5zM320 827q-28 0 -46.5 -18.5t-18.5 -46.5t18.5 -46.5t46.5 -18.5t46.5 18.5t18.5 46.5q0 26 -19 45.5t-46 19.5zM82 440l-47 28v53l167 39l24 -8v-339
q0 -74 17 -106.5t67 -32.5q27 0 57 10.5t44 24.5v324l-61 29v59l184 39l23 -8v-493h57v-48q-16 -11 -56 -18.5t-68 -7.5q-29 0 -46.5 12.5t-17.5 37.5v26q-29 -31 -77.5 -52.5t-89.5 -21.5q-103 0 -140 51.5t-37 162.5v239z" />
    <glyph glyph-name="Uhungarumlaut" unicode="&#x170;" horiz-adv-x="782" 
d="M198 811l147 203l94 -74q-34 -46 -90.5 -99t-93.5 -72zM465 811l146 203l97 -74q-42 -52 -96.5 -103.5t-91.5 -67.5zM767 758v-70l-72 -11v-348q0 -168 -72 -255.5t-213 -87.5q-163 0 -240 80t-76 244q0 61 1 183.5t1 184.5l-77 10v70h311v-70l-85 -11v-372
q0 -125 45.5 -184t138.5 -59q168 0 168 266l-1 349l-84 11v70h255z" />
    <glyph glyph-name="uhungarumlaut" unicode="&#x171;" horiz-adv-x="644" 
d="M114 690l147 203l94 -74q-34 -46 -90.5 -99t-93.5 -72zM381 690l146 203l97 -74q-42 -52 -96.5 -103.5t-91.5 -67.5zM82 440l-47 28v53l167 39l24 -8v-339q0 -74 17 -106.5t67 -32.5q27 0 57 10.5t44 24.5v324l-61 29v59l184 39l23 -8v-493h57v-48q-16 -11 -56 -18.5
t-68 -7.5q-29 0 -46.5 12.5t-17.5 37.5v26q-29 -31 -77.5 -52.5t-89.5 -21.5q-103 0 -140 51.5t-37 162.5v239z" />
    <glyph glyph-name="Uogonek" unicode="&#x172;" horiz-adv-x="782" 
d="M512 758h255v-70l-72 -11v-348q0 -303 -226 -339q-44 -19 -79.5 -51.5t-35.5 -61.5q0 -38 43 -38q28 0 87 23l15 -59q-68 -56 -179 -56q-45 0 -73.5 23.5t-28.5 62.5q0 40 43 83.5t101 71.5q-138 11 -203.5 91t-64.5 231q0 61 1 183.5t1 184.5l-77 10v70h311v-70l-85 -11
v-372q0 -125 45.5 -184t138.5 -59q168 0 168 266l-1 349l-84 11v70z" />
    <glyph glyph-name="uogonek" unicode="&#x173;" horiz-adv-x="644" 
d="M554 -8q-47 -21 -84.5 -53.5t-37.5 -62.5q0 -35 44 -37q35 -1 113 30l15 -59q-87 -64 -205 -63q-48 1 -75 25t-27 62q0 42 47 87.5t107 71.5q-25 13 -25 42v26q-29 -31 -77.5 -52.5t-89.5 -21.5q-103 0 -140 51.5t-37 162.5v239l-47 28v53l167 39l24 -8v-339
q0 -74 17 -106.5t67 -32.5q27 0 57 10.5t44 24.5v324l-61 29v59l184 39l23 -8v-493h57v-48q-15 -10 -60 -19z" />
    <glyph glyph-name="Ydieresis" unicode="&#x178;" horiz-adv-x="704" 
d="M243 938q37 0 59.5 -17t22.5 -50t-28.5 -54.5t-66.5 -21.5q-32 0 -55 17t-23 48q0 33 28 55.5t63 22.5zM498 938q37 0 58 -17t21 -49q0 -33 -26.5 -54.5t-64.5 -21.5q-34 0 -57.5 17.5t-23.5 47.5q0 32 29 54.5t64 22.5zM178 60l112 20v189l-229 410l-55 9v70h287v-69
l-59 -9l133 -268l17 -48l19 51l115 262l-80 11l-1 70h260v-70l-64 -17l-193 -392v-198l123 -21v-60h-385v60z" />
    <glyph glyph-name="Zacute" unicode="&#x179;" horiz-adv-x="673" 
d="M288 824l179 114l87 -88q-34 -25 -103 -45t-121 -25zM626 758l20 -64l-375 -548l-64 -74l301 22l86 128l66 -17l-48 -205h-563l-18 60l380 548l72 80l-301 -20l-57 -116l-68 12l19 194h550z" />
    <glyph glyph-name="zacute" unicode="&#x17a;" horiz-adv-x="551" 
d="M181 691l151 202l108 -88q-29 -47 -92 -87.5t-129 -64.5zM504 546l21 -54l-248 -355l-57 -71l202 15l29 84h78l-7 -165h-471l-21 46l50 77l229 313l40 45l-189 -9l-32 -96h-75v170h451z" />
    <glyph glyph-name="Zdotaccent" unicode="&#x17b;" horiz-adv-x="673" 
d="M351 938q36 0 58.5 -17t22.5 -50t-28.5 -54.5t-65.5 -21.5q-33 0 -56 17t-23 48q0 33 28.5 55.5t63.5 22.5zM626 758l20 -64l-375 -548l-64 -74l301 22l86 128l66 -17l-48 -205h-563l-18 60l380 548l72 80l-301 -20l-57 -116l-68 12l19 194h550z" />
    <glyph glyph-name="zdotaccent" unicode="&#x17c;" horiz-adv-x="551" 
d="M287 796q38 0 59.5 -17.5t21.5 -49.5q0 -34 -29 -55t-65 -21q-33 0 -56 17.5t-23 47.5q0 34 29 56t63 22zM504 546l21 -54l-248 -355l-57 -71l202 15l29 84h78l-7 -165h-471l-21 46l50 77l229 313l40 45l-189 -9l-32 -96h-75v170h451z" />
    <glyph glyph-name="Zcaron" unicode="&#x17d;" horiz-adv-x="673" 
d="M164 906l51 32l132 -69l136 69l50 -32l-132 -123h-106zM626 758l20 -64l-375 -548l-64 -74l301 22l86 128l66 -17l-48 -205h-563l-18 60l380 548l72 80l-301 -20l-57 -116l-68 12l19 194h550z" />
    <glyph glyph-name="zcaron" unicode="&#x17e;" horiz-adv-x="551" 
d="M95 835l58 32l132 -110l129 109l61 -32l-133 -182h-114zM504 546l21 -54l-248 -355l-57 -71l202 15l29 84h78l-7 -165h-471l-21 46l50 77l229 313l40 45l-189 -9l-32 -96h-75v170h451z" />
    <glyph glyph-name="florin" unicode="&#x192;" horiz-adv-x="493" 
d="M157 456h-96l4 47l97 36l5 48q8 102 81 177.5t161 75.5q59 0 87 -14l-9 -113q-48 23 -94 23q-43 0 -60 -20.5t-22 -80.5l-7 -89h135l-2 -90h-140l-48 -629h-141z" />
    <glyph glyph-name="Scommaaccent" unicode="&#x218;" horiz-adv-x="630" 
d="M315 -13q-63 0 -137.5 13t-108.5 31v185h64l42 -111q40 -50 144 -50q56 0 91 29.5t35 84.5q0 40 -35 73t-97 67l-79.5 43.5t-64.5 41.5t-55 48.5t-31.5 53.5t-13.5 67q0 93 76.5 147.5t177.5 54.5q56 0 125 -11t97 -25v-154h-69l-43 101q-13 11 -43.5 18t-57.5 7
q-49 0 -85.5 -23t-36.5 -70q0 -55 44.5 -93t144.5 -91q93 -48 144 -99t51 -123q0 -103 -79.5 -159t-199.5 -56zM293 -23q54 -4 87 -41.5t33 -91.5t-39 -99.5t-85 -60.5l-51 25v12q48 34 48 86q0 27 -18.5 46t-39.5 19v35z" />
    <glyph glyph-name="scommaaccent" unicode="&#x219;" horiz-adv-x="528" 
d="M59 155h69l27 -56q27 -25 47 -36.5t50 -12.5q47 -2 73.5 16.5t26.5 53.5q0 7 -2.5 14t-8 13t-10 11.5t-14 11.5l-16 10t-19 10t-19 9.5t-21.5 10t-21 9.5q-82 39 -125 82t-42 107q2 73 69.5 113.5t152.5 40.5q45 1 98.5 -8t82.5 -22v-125h-72l-25 59q-32 38 -76 38
q-37 0 -60 -14.5t-24 -41.5q0 -20 8.5 -36t31 -31t40 -24t57.5 -27q78 -36 117.5 -71.5t39.5 -97.5q0 -87 -69.5 -130t-177.5 -43q-113 0 -188 43v124zM237 -24q54 -4 87 -41.5t33 -91.5t-39 -99.5t-85 -60.5l-51 25v12q48 35 48 86q0 27 -18.5 46t-39.5 19v35z" />
    <glyph glyph-name="uni021A" unicode="&#x21a;" horiz-adv-x="683" 
d="M162 60l115 18v607l-148 -13l-34 -98l-74 -3l12 187h631l-1 -183l-60 -8l-34 106l-143 12v-607l115 -18v-60h-379v60zM334 -20q54 -4 87 -41.5t33 -91.5t-39 -99.5t-85 -60.5l-51 25v12q48 34 48 86q0 27 -18.5 46t-39.5 19v35z" />
    <glyph glyph-name="uni021B" unicode="&#x21b;" horiz-adv-x="442" 
d="M240 677v-131h167v-79h-162v-206q0 -35 0.5 -55t2 -44t5.5 -37t10.5 -25t16.5 -17t24 -5q19 0 48 6t42 13l23 -51q-27 -27 -80.5 -42.5t-103.5 -15.5q-73 0 -103 39.5t-30 128.5v311h-74v49q40 8 59.5 16.5t32.5 25.5q24 30 51 119h71zM198 -20q54 -4 87 -41.5t33 -91.5
t-39 -99.5t-85 -60.5l-51 25v12q48 34 48 86q0 27 -18.5 46t-39.5 19v35z" />
    <glyph glyph-name="uni0237" unicode="&#x237;" horiz-adv-x="329" 
d="M106 405l-58 61v38l172 56l35 -12v-566q0 -110 -48 -176.5t-135 -66.5q-20 0 -49 5t-38 10v84q20 -5 58 -5q39 0 51 39t12 126v407z" />
    <glyph glyph-name="circumflex" unicode="&#x2c6;" horiz-adv-x="519" 
d="M69 684l132 183h115l133 -183l-63 -32l-128 110l-133 -110z" />
    <glyph glyph-name="caron" unicode="&#x2c7;" horiz-adv-x="518" 
d="M70 835l58 32l132 -110l129 109l61 -32l-133 -182h-114z" />
    <glyph glyph-name="breve" unicode="&#x2d8;" horiz-adv-x="646" 
d="M499 828q0 -69 -51 -118t-125 -49q-76 0 -126.5 49t-50.5 118h86q22 -77 91 -77q68 0 93 77h83z" />
    <glyph glyph-name="dotaccent" unicode="&#x2d9;" horiz-adv-x="326" 
d="M168 796q38 0 59.5 -17.5t21.5 -49.5q0 -34 -29 -55t-65 -21q-33 0 -56 17.5t-23 47.5q0 34 29 56t63 22z" />
    <glyph glyph-name="ring" unicode="&#x2da;" horiz-adv-x="301" 
d="M150 891q57 0 97.5 -38.5t40.5 -90.5q0 -55 -41 -92.5t-97 -37.5q-55 0 -95.5 38t-40.5 92t40 91.5t96 37.5zM150 827q-28 0 -46.5 -18.5t-18.5 -46.5t18.5 -46.5t46.5 -18.5t46.5 18.5t18.5 46.5q0 26 -19 45.5t-46 19.5z" />
    <glyph glyph-name="ogonek" unicode="&#x2db;" horiz-adv-x="366" 
d="M139 5l56 -5q-50 -18 -96 -54t-46 -70q0 -35 44 -37q35 -1 113 30l15 -59q-87 -64 -205 -63q-48 1 -75 25t-27 62q0 45 53.5 93.5t116.5 72.5z" />
    <glyph glyph-name="tilde" unicode="&#x2dc;" horiz-adv-x="499" 
d="M46 720q16 37 61.5 66.5t84.5 29.5q38 0 78.5 -27t59.5 -27q38 0 84 39l38 -44q-17 -38 -61 -68t-82 -30q-37 0 -79 27.5t-62 27.5q-39 0 -84 -39z" />
    <glyph glyph-name="hungarumlaut" unicode="&#x2dd;" horiz-adv-x="467" 
d="M23 690l147 203l94 -74q-34 -46 -90.5 -99t-93.5 -72zM290 690l146 203l97 -74q-42 -52 -96.5 -103.5t-91.5 -67.5z" />
    <glyph glyph-name="uni0326" unicode="&#x326;" 
d="M-208 -20q54 -4 87 -41.5t33 -91.5t-39 -99.5t-85 -60.5l-51 25v12q48 34 48 86q0 27 -18.5 46t-39.5 19v35z" />
    <glyph glyph-name="Omega" unicode="&#x3a9;" horiz-adv-x="1014" 
d="M75 235l71 3l19 -112h170q-77 42 -137.5 132.5t-57.5 177.5q1 104 51.5 179t132 111.5t183.5 36.5q158 0 255 -83.5t94 -232.5q-4 -79 -61 -170t-128 -151h161l44 120l63 -4l-28 -242h-334v106q54 39 89 148t35 209q0 113 -52.5 174.5t-142.5 61.5q-204 0 -204 -252
q0 -91 42.5 -189.5t97.5 -151.5l1 -106h-364v235z" />
    <glyph glyph-name="mu" unicode="&#x3bc;" horiz-adv-x="645" 
d="M250 -176h-143v616l-47 28v53l167 39l23 -8v-339q0 -73 17.5 -106t67.5 -33q27 0 57 10.5t44 24.5v324l-62 29v59l185 39l23 -8v-493h56v-48q-15 -11 -55 -18.5t-68 -7.5q-29 0 -46.5 12.5t-17.5 37.5v26q-30 -32 -78 -53t-89 -21q-19 0 -34 3v-166z" />
    <glyph glyph-name="pi" unicode="&#x3c0;" horiz-adv-x="792" 
d="M730 598q-5 -77 -44.5 -126t-107.5 -53q0 -4 -12 -256q-2 -73 26 -73q22 0 42.5 15t29.5 39h76q-15 -59 -63 -106t-104 -47q-127 0 -118 136l29 292h-161q-1 -35 -2.5 -104.5t-1.5 -104.5q-4 -75 -17 -113t-50 -72q-24 -21 -75 -37l-105 68q7 0 34 12t40 21
q39 26 53.5 60t17.5 89q8 120 13 181h-43q-28 0 -49 -13t-29 -36l-64 12q-4 18 7 47q17 52 58.5 84.5t93.5 32.5h365q70 0 97 52h64z" />
    <glyph glyph-name="uni0901" unicode="&#x901;" 
d="M-153 1100l101 -101l-101 -102l-102 102zM-331 935q74 -106 158 -106q59 0 104.5 32.5t71.5 75.5l89 -81q-87 -114 -215 -114q-76 0 -139.5 54t-100.5 123z" />
    <glyph glyph-name="uni0902" unicode="&#x902;" 
d="M-153 925l101 -101l-101 -102l-102 102z" />
    <glyph glyph-name="uni0903" unicode="&#x903;" horiz-adv-x="307" 
d="M152 534l101 -101l-101 -102l-102 102zM152 198l101 -101l-101 -102l-102 102z" />
    <glyph glyph-name="uni0904" unicode="&#x904;" horiz-adv-x="862" 
d="M862 581v-19h-94v-601h-20l-100 57v195h-1q-21 -9 -46 -9q-55 0 -112 45h-4q17 -36 17 -75q0 -73 -46.5 -121t-118.5 -49q-54 0 -105 24.5t-93 68.5t-69 81t-56 84l34 28q125 -175 238 -175q51 0 83.5 29.5t32.5 68.5q0 53 -37 94q-62 -21 -137 -28l-47 85l10 20
q116 12 156 36q41 24 41 80q0 29 -24.5 51.5t-60.5 22.5q-43 0 -79 -18.5t-79 -57.5l-54 105q92 67 176 67q66 0 134.5 -72t68.5 -141q0 -68 -51 -119q62 -32 129 -32q60 0 100 30v226h-129l-42 81v20h197q3 9 3 19q0 38 -27 67t-85 29q-20 0 -86.5 -7.5t-100.5 -7.5
q-92 1 -172.5 39.5t-80.5 88.5q0 41 23 99l55 -8q-16 -41 -16 -66q0 -20 20.5 -33.5t65.5 -13.5q39 0 144 8t127 8q44 0 83 -19.5t64 -50.5q47 -55 47 -112q0 -16 -4 -40h85z" />
    <glyph glyph-name="uni0905" unicode="&#x905;" horiz-adv-x="862" 
d="M862 581v-19h-94v-601h-20l-100 57v195h-1q-21 -9 -46 -9q-55 0 -112 45h-4q17 -36 17 -75q0 -73 -46.5 -121t-118.5 -49q-54 0 -105 24.5t-93 68.5t-69 81t-56 84l34 28q125 -175 238 -175q51 0 83.5 29.5t32.5 68.5q0 53 -37 94q-62 -21 -137 -28l-47 85l10 20
q116 12 156 36q41 24 41 80q0 29 -24.5 51.5t-60.5 22.5q-43 0 -79 -18.5t-79 -57.5l-54 105q92 67 176 67q66 0 134.5 -72t68.5 -141q0 -68 -51 -119q62 -32 129 -32q60 0 100 30v226h-129l-42 81v20h342z" />
    <glyph glyph-name="uni0906" unicode="&#x906;" horiz-adv-x="1172" 
d="M1172 581v-19h-96v-601h-20l-100 57v544h-188v-601h-20l-100 57v195h-1q-21 -9 -46 -9q-55 0 -112 45h-4q17 -36 17 -75q0 -73 -46.5 -121t-118.5 -49q-54 0 -105 24.5t-93 68.5t-69 81t-56 84l34 28q125 -175 238 -175q51 0 83.5 29.5t32.5 68.5q0 53 -37 94
q-62 -21 -137 -28l-47 85l10 20q116 12 156 36q41 24 41 80q0 29 -24.5 51.5t-60.5 22.5q-43 0 -79 -18.5t-79 -57.5l-54 105q92 67 176 67q66 0 134.5 -72t68.5 -141q0 -68 -51 -119q62 -32 129 -32q60 0 100 30v226h-129l-42 81v20h651z" />
    <glyph glyph-name="uni0907" unicode="&#x907;" horiz-adv-x="528" 
d="M218 388q-66 0 -66 -61q0 -15 7.5 -29t17.5 -14q34 1 99 19.5t75 18.5q41 0 77.5 -56.5t35.5 -119.5q-1 -72 -64.5 -124.5t-140.5 -55.5l64 -83l-34 -82l-64 151l-2 15q-69 6 -117 38.5t-48 73.5q0 32 23.5 51.5t49.5 19.5q4 0 18 -2l51 -81q74 1 144 32t70 71
q0 39 -20 52q-15 0 -77 -18.5t-83 -18.5q-38 0 -95 57t-57 113q0 70 29 103t77 33h114v71h-309l-41 81v20h532l44 -82v-19h-106v-174h-204z" />
    <glyph glyph-name="uni0908" unicode="&#x908;" horiz-adv-x="528" 
d="M378 663h106l44 -82v-19h-106v-174h-204q-66 0 -66 -61q0 -15 7.5 -29t17.5 -14q34 1 99 19.5t75 18.5q41 0 77.5 -56.5t35.5 -119.5q-1 -72 -64.5 -124.5t-140.5 -55.5l64 -83l-34 -82l-64 151l-2 15q-69 6 -117 38.5t-48 73.5q0 32 23.5 51.5t49.5 19.5q4 0 18 -2
l51 -81q74 1 144 32t70 71q0 39 -20 52q-15 0 -77 -18.5t-83 -18.5q-38 0 -95 57t-57 113q0 70 29 103t77 33h114v71h-309l-41 81v20h353q-115 95 -115 190q0 66 49.5 105.5t111.5 39.5q110 0 199 -117l-28 -39q-20 18 -57.5 34t-71.5 16q-33 0 -55 -21.5t-22 -60.5
q0 -71 62 -147z" />
    <glyph glyph-name="uni0909" unicode="&#x909;" horiz-adv-x="610" 
d="M610 581v-19h-182q69 -83 69 -134q0 -62 -47 -106q57 -50 84 -89.5t27 -86.5q0 -69 -46.5 -120t-117.5 -51q-192 -1 -366 268l34 29q62 -81 135.5 -133.5t144.5 -52.5q52 0 84 29.5t32 67.5q0 55 -59 108q-41 -19 -87 -19q-37 0 -70 13l-46 102l9 17q64 -8 70 -8
q60 0 94.5 22t34.5 58q0 39 -51 86h-362l-42 81v20h614z" />
    <glyph glyph-name="uni090A" unicode="&#x90a;" horiz-adv-x="876" 
d="M876 581v-19h-448q69 -83 69 -134q0 -62 -47 -106q2 -2 15 -13.5t19 -17.5q126 105 196 105q55 0 103 -57t48 -130q0 -85 -44 -189l-130 49q36 43 68 99.5t32 87.5q0 23 -16 35.5t-42 12.5q-63 0 -149 -101q11 -28 11 -57q0 -69 -46.5 -120t-117.5 -51q-192 -1 -366 268
l34 29q62 -81 135.5 -133.5t144.5 -52.5q52 0 84 29.5t32 67.5q0 55 -59 108q-41 -19 -87 -19q-37 0 -70 13l-46 102l9 17q64 -8 70 -8q60 0 94.5 22t34.5 58q0 39 -51 86h-362l-42 81v20h880z" />
    <glyph glyph-name="uni090B" unicode="&#x90b;" horiz-adv-x="893" 
d="M849 663l44 -82v-19h-375v-215q63 3 111 35l-31 76q28 26 66 26t64 -23t25 -57q0 -33 -26 -62l78 -187q-124 -48 -124 -95q0 -16 16.5 -27t48.5 -11q54 0 100 35l53 -97q-62 -33 -111 -33q-58 0 -116 52.5t-57 108.5q1 69 82 128l-31 77q-69 -38 -148 -35v-297h-21
l-100 57l1 183v5l-241 -175l-72 81l312 204q-78 54 -159 54q-47 0 -142 -35l-61 109q89 34 151 34q79 0 212 -108v192h-404l-42 81v20h897z" />
    <glyph glyph-name="uni090C" unicode="&#x90c;" horiz-adv-x="803" 
d="M759 663l44 -82v-19h-210v-128q60 -22 107 -69t47 -98q0 -41 -26.5 -82.5t-57.5 -69.5t-57.5 -61t-26.5 -59q0 -19 14 -31.5t36 -12.5q57 0 133 107l73 -74q-52 -50 -88.5 -71.5t-88.5 -20.5q-62 1 -121 45.5t-59 99.5q0 24 18 49t43.5 48l51 47.5t44 56t18.5 64.5
q0 29 -25.5 46.5t-54.5 17.5q-39 0 -73.5 -37t-54 -82.5t-29.5 -91.5l-105 53q11 62 43 115q-49 38 -100 38q-42 0 -73 -32.5t-31 -84.5q0 -68 26 -128.5t74 -129.5l-35 -27q-66 62 -121 152.5t-55 177.5q0 74 47.5 123t116.5 49q47 0 88.5 -24t89.5 -74q42 53 92 71v128
h-479l-42 81v20h807z" />
    <glyph glyph-name="uni090D" unicode="&#x90d;" horiz-adv-x="625" 
d="M300 742q-76 0 -139.5 54t-100.5 123l32 16q74 -106 158 -106q59 0 104.5 32.5t71.5 75.5l89 -81q-87 -114 -215 -114zM529 -1q73 -48 98.5 -76.5t25.5 -57.5q0 -36 -24 -60t-65 -24q-58 0 -108 53v2l74 83l-320 215q-88 59 -111 84t-23 63v281h-82l-42 81v20h629l44 -82
v-19h-110v-216q0 -127 -103 -168l-97 65v13q40 14 60 28t20 40v238h-199v-296q0 -27 9 -41.5t34 -31.5z" />
    <glyph glyph-name="uni090E" unicode="&#x90e;" horiz-adv-x="625" 
d="M-99 990l55 -8q-16 -41 -16 -66q0 -20 20.5 -33.5t64.5 -13.5q40 0 145.5 8t125.5 8q44 0 83.5 -19.5t64.5 -50.5q47 -55 47 -112q0 -22 -5 -40h95l44 -82v-19h-110v-216q0 -127 -103 -168l-97 65v13q40 14 60 28t20 40v238h-199v-296q0 -27 9 -41.5t34 -31.5l290 -194
q73 -48 98.5 -76.5t25.5 -57.5q0 -36 -24 -60t-65 -24q-58 0 -108 53v2l74 83l-320 215q-88 59 -111 84t-23 63v281h-82l-42 81v20h475q3 18 3 19q0 38 -27 67t-85 29q-20 0 -86.5 -7.5t-100.5 -7.5q-92 1 -172.5 39.5t-80.5 88.5q0 41 23 99z" />
    <glyph glyph-name="uni090F" unicode="&#x90f;" horiz-adv-x="625" 
d="M529 -1q73 -48 98.5 -76.5t25.5 -57.5q0 -36 -24 -60t-65 -24q-58 0 -108 53v2l74 83l-320 215q-88 59 -111 84t-23 63v281h-82l-42 81v20h629l44 -82v-19h-110v-216q0 -127 -103 -168l-97 65v13q40 14 60 28t20 40v238h-199v-296q0 -27 9 -41.5t34 -31.5z" />
    <glyph glyph-name="uni0910" unicode="&#x910;" horiz-adv-x="625" 
d="M529 -1q73 -48 98.5 -76.5t25.5 -57.5q0 -36 -24 -60t-65 -24q-58 0 -108 53v2l74 83l-320 215q-88 59 -111 84t-23 63v281h-82l-42 81v20h459l-42 64q-71 106 -101 132l-130 -43q-42 37 -42 95q0 41 25.5 64t60.5 23q68 0 120 -54.5t107 -159.5l60 -121h112l44 -82v-19
h-110v-216q0 -127 -103 -168l-97 65v13q40 14 60 28t20 40v238h-199v-296q0 -27 9 -41.5t34 -31.5z" />
    <glyph glyph-name="uni0911" unicode="&#x911;" horiz-adv-x="1172" 
d="M1169 937l89 -81q-43 -54 -93 -84t-123 -30q-76 0 -139.5 54t-100.5 123l33 16q72 -106 157 -106q60 0 105 32.5t72 75.5zM477 663h651l44 -82v-19h-96v-601h-20l-100 57v544h-188v-601h-20l-100 57v195h-1q-21 -9 -46 -9q-55 0 -112 45h-4q17 -36 17 -75
q0 -73 -46.5 -121t-118.5 -49q-54 0 -105 24.5t-93 68.5t-69 81t-56 84l34 28q125 -175 238 -175q51 0 83.5 29.5t32.5 68.5q0 53 -37 94q-62 -21 -137 -28l-47 85l10 20q116 12 156 36q41 24 41 80q0 29 -24.5 51.5t-60.5 22.5q-43 0 -79 -18.5t-79 -57.5l-54 105
q92 67 176 67q66 0 134.5 -72t68.5 -141q0 -68 -51 -119q62 -32 129 -32q60 0 100 30v226h-129l-42 81v20z" />
    <glyph glyph-name="uni0912" unicode="&#x912;" horiz-adv-x="1172" 
d="M461 990l54 -8q-15 -45 -15 -66q0 -20 20.5 -33.5t64.5 -13.5q40 0 145 8t126 8q44 0 83.5 -19.5t64.5 -50.5q47 -57 47 -112q0 -22 -5 -40h82l44 -82v-19h-96v-601h-20l-100 57v544h-188v-601h-20l-100 57v195h-2q-18 -9 -45 -9q-55 0 -112 45l-4 -1q17 -34 17 -74
q0 -73 -46.5 -121t-118.5 -49q-54 0 -105 24.5t-93 68.5t-69 81t-56 84l34 28q125 -175 238 -175q51 0 83.5 29.5t32.5 68.5q0 53 -37 94q-68 -23 -137 -28l-47 85l10 20q116 12 156 36q41 24 41 80q0 29 -24.5 51.5t-60.5 22.5q-43 0 -79 -18.5t-79 -57.5l-54 105
q92 67 176 67q66 0 134.5 -72t68.5 -141q0 -71 -51 -119q64 -32 129 -32q59 0 100 29v227h-129l-42 81v20h509q3 9 3 19q0 38 -26.5 67t-84.5 29q-20 0 -86.5 -7.5t-100.5 -7.5q-92 1 -172.5 39.5t-80.5 88.5q0 41 23 99z" />
    <glyph glyph-name="uni0913" unicode="&#x913;" horiz-adv-x="1172" 
d="M1172 581v-19h-96v-601h-20l-100 57v544h-188v-601h-20l-100 57v195h-1q-21 -9 -46 -9q-55 0 -112 45h-4q17 -36 17 -75q0 -73 -46.5 -121t-118.5 -49q-54 0 -105 24.5t-93 68.5t-69 81t-56 84l34 28q125 -175 238 -175q51 0 83.5 29.5t32.5 68.5q0 53 -37 94
q-62 -21 -137 -28l-47 85l10 20q116 12 156 36q41 24 41 80q0 29 -24.5 51.5t-60.5 22.5q-43 0 -79 -18.5t-79 -57.5l-54 105q92 67 176 67q66 0 134.5 -72t68.5 -141q0 -68 -51 -119q62 -32 129 -32q60 0 100 30v226h-129l-42 81v20h501q-31 51 -49 74q-67 102 -100 132
l-130 -43q-42 35 -42 95q0 41 25.5 64t60.5 23q67 0 118.5 -54.5t107.5 -160.5q34 -63 65 -130h94z" />
    <glyph glyph-name="uni0914" unicode="&#x914;" horiz-adv-x="1172" 
d="M1172 581v-19h-96v-601h-20l-100 57v544h-188v-601h-20l-100 57v195h-1q-21 -9 -46 -9q-55 0 -112 45h-4q17 -36 17 -75q0 -73 -46.5 -121t-118.5 -49q-54 0 -105 24.5t-93 68.5t-69 81t-56 84l34 28q125 -175 238 -175q51 0 83.5 29.5t32.5 68.5q0 53 -37 94
q-62 -21 -137 -28l-47 85l10 20q116 12 156 36q41 24 41 80q0 29 -24.5 51.5t-60.5 22.5q-43 0 -79 -18.5t-79 -57.5l-54 105q92 67 176 67q66 0 134.5 -72t68.5 -141q0 -68 -51 -119q62 -32 129 -32q60 0 100 30v226h-129l-42 81v20h458q-49 63 -87 105l-191 -21h-3
q-24 27 -24 71q0 36 25 57t60 21q34 0 69 -16t62 -38.5t56 -57.5t46.5 -60.5l39.5 -60.5h18q-17 49 -37 89q-33 70 -71 134.5t-60 83.5l-148 -26h-2q-22 27 -22 70q0 41 25.5 64t60.5 23q132 0 255 -298q30 -74 53 -140h68z" />
    <glyph glyph-name="uni0915" unicode="&#x915;" horiz-adv-x="868" 
d="M868 562h-354v-174q69 54 124 54q76 0 130.5 -58t54.5 -137q0 -94 -52 -210l-108 70q30 41 58.5 99t28.5 88q0 26 -18.5 41t-49.5 15q-71 0 -168 -86v-303h-20l-105 59l11 148h-3q-42 -31 -79 -48t-82 -17q-79 0 -133.5 51.5t-54.5 141.5q0 72 42 125t118 53
q106 0 184 -125l1 213h-399l-42 81v20h872l44 -82v-19zM200 204q93 0 192 79v5q-22 28 -65 51.5t-87 23.5q-52 0 -98 -24.5t-46 -66.5q0 -29 30.5 -48.5t73.5 -19.5z" />
    <glyph glyph-name="uni0916" unicode="&#x916;" horiz-adv-x="874" 
d="M830 663l44 -82v-19h-95v-601h-21l-100 57l2 49q-51 -35 -124.5 -59.5t-140.5 -24.5q-108 0 -279 206q-6 8 -19 24t-17.5 22l-13.5 18t-12 18l-7.5 15t-6 16t-1.5 15q0 22 17.5 44.5t35.5 33.5l57 -35q22 34 22 101q0 38 -7 101h-170l-42 81v20h878zM393 74
q64 0 141 31.5t128 77.5v47h-2q-85 -66 -144 -66q-70 0 -123.5 50.5t-53.5 126.5t48.5 122.5t119.5 46.5q70 0 150 -90h2v142h-389q15 -88 15 -155q0 -105 -110 -207q35 -44 94.5 -85t123.5 -41zM483 259q42 0 90.5 28t84.5 70v2q-47 50 -125 50q-61 0 -103.5 -28.5
t-42.5 -66.5q0 -21 27 -38t69 -17z" />
    <glyph glyph-name="uni0917" unicode="&#x917;" horiz-adv-x="652" 
d="M607 663l45 -82v-19h-96v-601h-21l-100 57v544h-204q23 -210 23 -278q0 -120 -102 -120q-54 0 -84 44t-30 88q0 28 6 48l98 -13l3 231h-151l-42 81v20h655z" />
    <glyph glyph-name="uni0918" unicode="&#x918;" horiz-adv-x="675" 
d="M640 663l43 -82v-19h-96v-601h-20l-102 57l3 132l-2 1q-96 -64 -172 -64q-71 0 -133 54q-70 66 -70 120q0 84 70 142q-65 27 -97.5 53.5t-33.5 70.5q0 14 3 35h-39l-42 81v20h688zM248 182q51 0 113.5 32t105.5 76v272h-310q-20 -23 -20 -58q1 -22 27.5 -41t55.5 -28
q22 9 44 9q67 0 93 -13l16 -77l-10 -23q-30 9 -58 9q-61 0 -99.5 -34.5t-38.5 -72.5q0 -24 26.5 -37.5t54.5 -13.5z" />
    <glyph glyph-name="uni0919" unicode="&#x919;" horiz-adv-x="764" 
d="M722 663l42 -82v-19h-284v-189h-250q-71 0 -71 -62q0 -18 11.5 -38t23.5 -20q44 0 115 23t101 23q45 0 87 -60t42 -126q-1 -82 -40.5 -129t-112.5 -47q-179 0 -366 208l37 36q74 -78 138.5 -109.5t141.5 -31.5q56 0 102.5 24t46.5 71q0 17 -11.5 35t-29.5 25
q-37 -1 -100.5 -23t-100.5 -22q-42 1 -99.5 62.5t-57.5 126.5q0 72 30.5 104.5t79.5 32.5h164v86h-368l-41 81v20h770zM654 423l101 -101l-101 -102l-101 102z" />
    <glyph glyph-name="uni091A" unicode="&#x91a;" horiz-adv-x="669" 
d="M625 663l44 -82v-19h-96v-601h-20l-106 59l7 106l-2 2q-71 -52 -141 -52q-78 0 -138 65q-59 61 -59 118q0 43 19 83h-77l-42 82v20h352l43 -82v-20h-134q-34 -19 -57 -51.5t-23 -61.5t18.5 -46.5t43.5 -17.5q46 0 100.5 28t95.5 64v305h-459l-42 81v20h673z" />
    <glyph glyph-name="uni091B" unicode="&#x91b;" horiz-adv-x="836" 
d="M836 562h-220v-99q51 -22 83 -66t33 -108q0 -56 -39 -123q103 -54 103 -144q0 -37 -17 -91.5t-38 -95.5l-109 80q95 90 95 140q1 33 -64 67q-56 -72 -137.5 -118.5t-159.5 -45.5q-89 1 -167.5 68.5t-78.5 120.5q0 52 29 92q-61 35 -80 57q-27 29 -27 66q0 54 42.5 88
t104.5 34q56 0 81 -16l33 -90q-47 21 -92 21q-28 0 -46 -18.5t-18 -50.5q0 -34 39 -53q34 26 72 26q41 0 81 -7l31 -82l-10 -24q-30 9 -64 9q-44 0 -71 -24.5t-27 -51.5q0 -26 31.5 -48t69.5 -22q64 0 136.5 32t123.5 85q-74 36 -123 90.5t-49 117.5q0 47 30.5 73t78.5 32
v79h-502l-42 81v20h840l44 -82v-19zM592 212q36 56 36 113q0 35 -22.5 57.5t-55.5 22.5q-24 0 -39.5 -16t-15.5 -45q0 -41 27.5 -77t69.5 -55z" />
    <glyph glyph-name="uni091C" unicode="&#x91c;" horiz-adv-x="743" 
d="M743 581v-19h-96v-601h-19l-100 57v333h-184q91 -88 91 -163q0 -69 -39.5 -110.5t-98.5 -41.5q-57 0 -106 34.5t-83.5 93t-57.5 121.5t-38 133l45 13q15 -53 34 -99t45.5 -90t61.5 -69.5t74 -25.5q37 0 59.5 20t22.5 54q0 47 -52 99t-119 91l19 42h326v109h-534l-42 81
v20h748z" />
    <glyph glyph-name="uni091D" unicode="&#x91d;" horiz-adv-x="822" 
d="M779 663l43 -82v-19h-94v-601h-20l-99 57v174h-2q-39 -11 -57 -11q-45 0 -107 35h-2q15 -45 15 -84q0 -68 -60.5 -116t-136.5 -50l64 -83l-34 -82l-64 151l-2 15q-69 6 -117 38.5t-48 73.5q0 32 23.5 51.5t49.5 19.5q8 0 14 -2l55 -81q80 1 143 25.5t63 63.5q0 21 -10 40
t-22 26q-12 -1 -64 -19t-76 -18q-38 0 -96 57t-58 113q0 70 29 103t77 33h109v71h-302l-41 81v20h827zM508 287q55 0 101 26v249h-194v-174h-199q-67 0 -67 -61q0 -13 10 -26.5t19 -13.5q38 0 90.5 15.5t74.5 15.5q20 0 41 -16q58 -15 124 -15z" />
    <glyph glyph-name="uni091E" unicode="&#x91e;" horiz-adv-x="812" 
d="M814 581v-19h-96v-607h-21l-99 56v218q-16 -9 -32 -9q-27 0 -70 32h-2q-8 -61 -51.5 -101.5t-106.5 -41.5q-48 0 -95 20.5t-89.5 59t-74.5 75.5t-69 88l35 26q76 -87 134.5 -129t125.5 -41q46 1 76 28.5t30 66.5q0 28 -16.5 48t-42.5 20q-37 0 -104 -51l-72 80
q25 22 61 39.5t61 17.5q50 0 106 -38t81 -89q66 -14 115 19v213h-605l-41 81v20h819z" />
    <glyph glyph-name="uni091F" unicode="&#x91f;" horiz-adv-x="569" 
d="M526 663l43 -82v-19h-142v-217q-64 -4 -116 -13t-96.5 -26t-69 -44t-24.5 -63q0 -50 38.5 -72t91.5 -22q118 0 245 83l55 -108q-75 -42 -131 -59t-125 -17q-103 0 -165.5 67t-62.5 164q0 54 20.5 95t56.5 65.5t75.5 38.5t86.5 19v109h-312l-42 81v20h574z" />
    <glyph glyph-name="uni0920" unicode="&#x920;" horiz-adv-x="634" 
d="M634 581v-19h-189q24 -41 24 -72q0 -30 -25 -76q55 -39 88.5 -91.5t33.5 -111.5q0 -103 -73 -168.5t-191 -65.5q-102 0 -170.5 77.5t-68.5 180.5q0 104 74.5 159t201.5 63q9 27 9 54q0 24 -17 51h-337l-42 81v20h638zM493 253q0 31 -23 57t-47 35q-63 -3 -115 -12.5
t-96.5 -26t-69.5 -44t-25 -63.5q0 -58 45 -88.5t96 -30.5q120 0 177.5 50t57.5 123z" />
    <glyph glyph-name="uni0921" unicode="&#x921;" horiz-adv-x="617" 
d="M574 663l43 -82v-19h-117v-189h-270q-71 0 -71 -62q0 -18 11.5 -38t23.5 -20q47 0 126 23t110 23q45 0 87 -60t42 -126q-1 -82 -46 -129t-124 -47q-86 0 -181 52.5t-188 155.5l37 36q73 -78 139 -109.5t144 -31.5q38 0 74.5 9t64 31.5t27.5 54.5q0 17 -11.5 35t-29.5 25
q-40 -1 -111 -22.5t-110 -22.5q-42 1 -99.5 62.5t-57.5 126.5q0 72 30.5 104.5t79.5 32.5h183v86h-387l-41 81v20h622z" />
    <glyph glyph-name="uni0922" unicode="&#x922;" horiz-adv-x="573" 
d="M273 364q-76 0 -123 -32.5t-47 -90.5q0 -63 48.5 -107t110.5 -63q-26 46 -26 89q1 71 40 103t92 32q65 0 111 -50t47 -124q0 -75 -57.5 -119.5t-122.5 -44.5q-45 0 -94.5 20t-95.5 56.5t-75.5 98t-29.5 136.5q0 107 56 155t143 48h82v91h-339l-41 81v20h578l43 -82v-19
h-121v-198h-179zM297 116q-1 -30 9 -53q3 -1 8 -1q67 1 116 24t49 56q-1 27 -26 44.5t-53 17.5q-36 0 -69 -24t-34 -64z" />
    <glyph glyph-name="uni0923" unicode="&#x923;" horiz-adv-x="818" 
d="M818 581v-19h-95v-601h-21l-99 57v544h-134v-272q0 -74 -55 -124t-131 -50q-33 0 -68 26.5t-81 76.5q-35 36 -49.5 60.5t-14.5 58.5v224h-75l-42 81v20h822zM348 316v246h-158v-269q0 -46 21.5 -60t61.5 -14q41 0 58 30.5t17 66.5z" />
    <glyph glyph-name="uni0924" unicode="&#x924;" horiz-adv-x="631" 
d="M631 581v-19h-96v-601h-20l-100 57v332h-148q-54 0 -79.5 -23.5t-25.5 -73.5q0 -100 145 -247l-38 -41q-219 184 -219 325q0 163 192 163h173v109h-421l-42 81v20h635z" />
    <glyph glyph-name="uni0925" unicode="&#x925;" horiz-adv-x="716" 
d="M672 663l43 -82v-19h-95v-601h-21l-100 57l1 125l-2 1q-62 -39 -135 -39q-179 0 -264 208q68 18 111 50q-71 34 -118 88.5t-47 116.5q0 51 37 78.5t94 26.5q82 -1 148 -51.5t66 -143.5q0 -63 -48.5 -120t-129.5 -97q27 -59 104 -59q92 0 184 70v290h-69l-42 81v20h283z
M153 533q0 -40 28.5 -77t68.5 -55q36 48 36 111q0 33 -21.5 57.5t-56.5 24.5q-24 0 -39.5 -15.5t-15.5 -45.5z" />
    <glyph glyph-name="uni0926" unicode="&#x926;" horiz-adv-x="575" 
d="M532 663l43 -82v-19h-126v-195h-173q-77 0 -120 -30.5t-43 -85.5q-1 -61 58 -95.5t122 -34.5q31 0 50 4l-41 95q16 21 43.5 34t51.5 13q53 0 82 -30.5t29 -78.5q-2 -69 -74 -109l120 -175l-83 -44l-86 198q-41 -12 -92 -12q-38 0 -78 17t-75 48.5t-57.5 83t-22.5 113.5
q1 196 193 196h77v88h-337l-41 81v20h580z" />
    <glyph glyph-name="uni0927" unicode="&#x927;" horiz-adv-x="712" 
d="M712 581v-19h-95v-601h-21l-102 57l3 132l-1 1q-50 -33 -88.5 -48.5t-84.5 -15.5q-80 0 -141 63q-62 62 -62 111q0 73 54 127q-129 85 -129 190q0 51 32 79t91 28q54 0 99 -34q61 -41 61 -92q0 -21 -12.5 -35.5t-39.5 -14.5q-20 0 -36 6v74q-14 12 -37 12
q-24 0 -38.5 -15t-14.5 -43q0 -60 71 -119q34 20 72 20q67 0 93 -13l17 -76l-11 -24q-30 9 -58 9q-61 0 -99.5 -34.5t-38.5 -72.5q0 -24 26.5 -37.5t54.5 -13.5q51 0 113.5 32.5t105.5 75.5v272h-103l-42 81v20h318z" />
    <glyph glyph-name="uni0928" unicode="&#x928;" horiz-adv-x="629" 
d="M585 663l44 -82v-19h-95v-601h-21l-99 57v289l-214 -19l14 -100q-23 -5 -49 -5q-44 0 -88 30t-44 84q0 102 120 102q66 0 261 -21v184h-420l-42 81v20h633z" />
    <glyph glyph-name="uni0929" unicode="&#x929;" horiz-adv-x="629" 
d="M585 663l44 -82v-19h-95v-601h-21l-99 57v289l-214 -19l14 -100q-23 -5 -49 -5q-44 0 -88 30t-44 84q0 102 120 102q66 0 261 -21v184h-420l-42 81v20h633zM147 32l101 101l101 -101l-101 -102z" />
    <glyph glyph-name="uni092A" unicode="&#x92a;" horiz-adv-x="601" 
d="M557 663l43 -82v-19h-96v-601h-20l-99 57v168h-2q-53 -30 -103 -30q-21 0 -48 17t-43 32t-48 48l-7 7q-36 40 -49.5 64t-13.5 58v180h-77l-42 81v20h605zM258 261q66 0 127 46v255h-194v-239q0 -62 67 -62z" />
    <glyph glyph-name="uni092B" unicode="&#x92b;" horiz-adv-x="856" 
d="M856 562h-354v-154q68 54 124 54q76 0 130.5 -57.5t54.5 -137.5q0 -92 -53 -210l-108 70q30 41 58.5 99.5t28.5 87.5q0 26 -18 41.5t-49 15.5q-65 0 -168 -88v-322h-20l-106 59l12 168h-2q-53 -32 -106 -32q-21 0 -50 19t-45.5 34.5t-50.5 50.5q-36 40 -49.5 64t-13.5 58
v180h-77l-42 81v20h860l44 -82v-19zM257 261q61 0 123 42l1 259h-190v-239q0 -62 66 -62z" />
    <glyph glyph-name="uni092C" unicode="&#x92c;" horiz-adv-x="669" 
d="M624 663l45 -82v-19h-97v-601h-20l-105 59l7 140l-4 1q-36 -25 -58.5 -39t-57.5 -25.5t-71 -11.5q-79 0 -145.5 53t-66.5 143q0 97 60 156t134 59q102 0 206 -126h1v192h-458l-42 81v20h672zM295 387q-33 0 -63 -8l111 -166q67 36 110 85q-31 36 -75.5 62.5t-82.5 26.5z
M221 179q43 0 87 19l-112 170q-44 -19 -70 -49t-26 -60q0 -34 33.5 -57t87.5 -23z" />
    <glyph glyph-name="uni092D" unicode="&#x92d;" horiz-adv-x="773" 
d="M729 663l44 -82v-19h-96v-601h-20l-99 57v186h-200q-12 -93 -84 -93q-45 -1 -73 41t-34 89q-5 39 -1 64h75v60q-85 35 -140.5 87t-55.5 114q0 52 36.5 80t92.5 27q44 -1 84.5 -16.5t71 -56t30.5 -98.5v-197h198v257h-147l-43 81v20h361zM153 532q0 -66 92 -112
q11 73 11 108q0 27 -14 46.5t-37 19.5t-37.5 -15.5t-14.5 -46.5z" />
    <glyph glyph-name="uni092E" unicode="&#x92e;" horiz-adv-x="661" 
d="M617 663l44 -82v-19h-96v-601h-20l-99 57v205h-212q-12 -92 -84 -93q-45 -1 -72.5 41t-33.5 88q-6 37 -2 65h75v238h-123l-42 81v20h665zM236 324h210v238h-210v-238z" />
    <glyph glyph-name="uni092F" unicode="&#x92f;" horiz-adv-x="667" 
d="M667 581v-19h-96v-601h-20l-100 57l1 125l-2 1q-62 -39 -135 -39q-89 0 -160.5 61t-110.5 173q74 23 112 52t38 71q0 46 -47 100h-153l-42 81v20h671zM267 202q98 0 185 71v289h-213l-1 -1q72 -82 72 -132q0 -40 -45.5 -79.5t-106.5 -62.5q6 -39 37.5 -62t71.5 -23z" />
    <glyph glyph-name="uni0930" unicode="&#x930;" horiz-adv-x="434" 
d="M434 581v-19h-150q14 -74 14 -155q0 -107 -110 -207l212 -195l-64 -49l-223 254l-32 39.5t-19 31.5t-9 36q0 22 17.5 44.5t35.5 33.5l58 -35q21 36 21 101q0 38 -7 101h-184l-42 81v20h439z" />
    <glyph glyph-name="uni0931" unicode="&#x931;" horiz-adv-x="449" 
d="M449 581v-19h-165q14 -74 14 -155q0 -107 -110 -207l212 -195l-64 -49l-223 254l-32 39.5t-19 31.5t-9 36q0 22 17.5 44.5t35.5 33.5l58 -35q21 36 21 101q0 38 -7 101h-184l-42 81v20h453zM18 -7l102 101l101 -101l-101 -102z" />
    <glyph glyph-name="uni0932" unicode="&#x932;" horiz-adv-x="795" 
d="M795 581v-19h-96v-601h-20l-100 57v336q-16 8 -27 8q-49 0 -89.5 -62.5t-56.5 -133.5l-102 61q11 58 39 103q-43 31 -89 31q-44 0 -74 -31.5t-30 -78.5q0 -132 168 -271l-31 -33q-248 166 -248 342q0 73 47 121.5t117 50.5q45 0 84 -22t84 -68q63 73 141 73q32 0 67 -40
v158h-585l-42 81v20h798z" />
    <glyph glyph-name="uni0933" unicode="&#x933;" horiz-adv-x="828" 
d="M828 562h-158v-104q49 -28 78 -79t29 -119q0 -86 -44 -145.5t-122 -59.5q-100 0 -181 109q-28 -60 -65 -92.5t-96 -32.5q-90 0 -156 62t-66 159q0 90 47.5 153.5t128.5 63.5q94 0 181 -103q54 110 146 114v74h-556l-42 81v20h832l44 -82v-19zM720 301q0 37 -26.5 63
t-73.5 26q-29 0 -52.5 -11t-38.5 -24t-32 -43t-24 -46.5l-23 -56.5q53 -46 117 -46q55 0 104 42t49 96zM212 138q16 0 30 3t26.5 11l21.5 14t19.5 21l16.5 23t16 28.5l14 28.5t14.5 32t13.5 32q-49 38 -105 38q-71 0 -120.5 -40.5t-49.5 -99.5q0 -39 26.5 -65t76.5 -26z" />
    <glyph glyph-name="uni0934" unicode="&#x934;" horiz-adv-x="828" 
d="M828 562h-158v-104q49 -28 78 -79t29 -119q0 -86 -44 -145.5t-122 -59.5q-100 0 -181 109q-28 -60 -65 -92.5t-96 -32.5q-90 0 -156 62t-66 159q0 90 47.5 153.5t128.5 63.5q94 0 181 -103q54 110 146 114v74h-556l-42 81v20h832l44 -82v-19zM720 301q0 37 -26.5 63
t-73.5 26q-29 0 -52.5 -11t-38.5 -24t-32 -43t-24 -46.5l-23 -56.5q53 -46 117 -46q55 0 104 42t49 96zM212 138q16 0 30 3t26.5 11l21.5 14t19.5 21l16.5 23t16 28.5l14 28.5t14.5 32t13.5 32q-49 38 -105 38q-71 0 -120.5 -40.5t-49.5 -99.5q0 -39 26.5 -65t76.5 -26z
M337 -66l101 101l101 -101l-100 -102z" />
    <glyph glyph-name="uni0935" unicode="&#x935;" horiz-adv-x="664" 
d="M620 663l44 -82v-19h-96v-601h-20l-105 59l7 137l-4 2q-105 -74 -191 -74q-78 0 -141 53t-63 143q0 98 56.5 156.5t134.5 58.5q101 0 205 -126h1v192h-454l-42 81v20h668zM213 179q56 0 123.5 36t111.5 83v1q-30 36 -74 62t-82 26q-79 0 -135.5 -41t-56.5 -87
q0 -35 30.5 -57.5t82.5 -22.5z" />
    <glyph glyph-name="uni0936" unicode="&#x936;" horiz-adv-x="771" 
d="M771 562h-96v-601h-20l-100 57v544h-155q38 -44 38 -112q0 -84 -58 -171t-141 -118l111 -168l-89 -48l-71 205q-3 -1 -10 -1.5t-10 -0.5q-48 0 -90 25.5t-42 57.5q0 35 26 59.5t54 24.5q14 0 21 -3l42 -65q57 25 95 74q-77 33 -130 90.5t-53 122.5q0 16 4 28h-103l-42 81
v20h775l44 -82v-19zM334 483q0 31 -21.5 54.5t-56.5 23.5q-23 0 -39 -15.5t-16 -45.5q0 -41 31 -79.5t73 -55.5q29 55 29 118z" />
    <glyph glyph-name="uni0937" unicode="&#x937;" horiz-adv-x="620" 
d="M576 663l44 -82v-19h-96v-601h-20l-99 57v133h-2q-62 -32 -114 -32q-22 0 -51.5 19t-48.5 37l-51 50q-39 41 -53 64t-14 56v217h-77l-42 81v20h624zM405 306v256h-213zM268 223q60 0 125 43l-202 242v-221q0 -33 22 -48.5t55 -15.5z" />
    <glyph glyph-name="uni0938" unicode="&#x938;" horiz-adv-x="706" 
d="M662 663l44 -82v-19h-96v-601h-21l-99 57v187h-2q-43 -14 -84 -14q-70 0 -158 71h-2q-24 -32 -58 -62l212 -195l-64 -49l-223 254l-32 39.5t-19 31.5t-9 36q0 22 17.5 44.5t35.5 33.5l58 -35q21 36 21 101q0 40 -7 101h-182l-42 81v20h710zM381 303q63 0 109 23v236h-208
q15 -83 15 -155q0 -38 -15 -78q50 -26 99 -26z" />
    <glyph glyph-name="uni0939" unicode="&#x939;" horiz-adv-x="589" 
d="M207 384q-59 0 -59 -47q0 -35 31 -66q59 40 139 40t149 -62.5t69 -115.5q0 -41 -32.5 -85t-74.5 -74l-89 79v2q55 35 82.5 62t27.5 58q0 23 -24 39t-68 16q-56 0 -96.5 -35t-40.5 -86q0 -71 59 -126.5t184 -125.5l-26 -36l-91 48.5t-86.5 54.5t-79.5 65t-52 72.5
t-22 84.5q0 46 30 85q-61 76 -61 134q0 121 101 121h183v76h-367l-41 81v20h594l43 -82v-19h-110v-178h-272z" />
    <glyph glyph-name="uni093A" unicode="&#x93a;" 
d="M-400 901h120v-266h-120v266z" />
    <glyph glyph-name="uni093B" unicode="&#x93b;" horiz-adv-x="311" 
d="M268 663l43 -82v-19h-95v-601h-21l-99 57v544h-102l-42 81v20h144v238h120v-238h52z" />
    <glyph glyph-name="uni093C" unicode="&#x93c;" 
d="M-153 -65l101 -101l-101 -102l-101 102z" />
    <glyph glyph-name="uni093D" unicode="&#x93d;" horiz-adv-x="525" 
d="M424 663l44 -82v-19h-237q-18 0 -28.5 -10t-10.5 -27q0 -23 52 -78l22 -24q85 -89 112 -128q49 -70 48 -131q-1 -71 -49.5 -118.5t-116.5 -47.5q-125 0 -241 191l34 27q86 -105 161 -105q50 0 81.5 27.5t31.5 63.5q0 44 -29.5 87.5t-83.5 99.5l-19 21q-100 102 -100 153
q0 45 28 72.5t74 27.5h227z" />
    <glyph glyph-name="uni093E" unicode="&#x93e;" horiz-adv-x="311" 
d="M268 663l43 -82v-19h-95v-601h-21l-99 57v544h-102l-42 81v20h316z" />
    <glyph glyph-name="uni093F" unicode="&#x93f;" horiz-adv-x="311" 
d="M288 902q-62 0 -102 -30t-40 -85q0 -60 36 -124h85l44 -82v-19h-95v-601h-21l-99 57v544h-102l-42 81v20h154q-85 107 -85 185q0 70 60.5 115.5t157.5 45.5q176 0 508 -284l-28 -38q-276 217 -431 215z" />
    <glyph glyph-name="uni0940" unicode="&#x940;" horiz-adv-x="307" 
d="M267 663l44 -82v-19h-95v-601h-21l-99 57v544h-102l-42 81v20h158q-22 46 -40 79.5t-45.5 74t-58 62.5t-61.5 22q-37 0 -57.5 -24.5t-20.5 -60.5q0 -51 34 -100v-2l-47 -23q-47 32 -80.5 76.5t-33.5 95.5q0 58 48 102.5t122 43.5q32 0 62.5 -13t53.5 -30.5t48 -49.5
t41 -57t36 -66.5t30.5 -65l27.5 -64.5h98z" />
    <glyph glyph-name="uni0941" unicode="&#x941;" 
d="M-534 -44q81 -107 159.5 -168t161.5 -60q48 1 78 22.5t30 50.5q0 19 -15.5 33.5t-39.5 14.5q-39 0 -96 -27l-58 86q52 27 99 27q63 0 128 -51t65 -110q0 -57 -45 -99t-114 -43q-58 0 -113 23.5t-104.5 68t-89.5 93t-84 113.5z" />
    <glyph glyph-name="uni0942" unicode="&#x942;" 
d="M113 -391q-92 115 -166 173t-154 57q-46 -1 -76 -21.5t-30 -48.5q0 -20 15 -34t39 -14q41 0 95 27l58 -86q-54 -26 -98 -26q-64 0 -128.5 51.5t-64.5 113.5q0 55 44 94t109 40q49 0 96.5 -18t84.5 -44t78.5 -70t69 -80l65.5 -89z" />
    <glyph glyph-name="uni0943" unicode="&#x943;" 
d="M-93 58l47 -97q-82 0 -131.5 -20.5t-49.5 -54.5q0 -19 22 -32.5t56 -13.5q62 0 113 35l53 -98q-60 -33 -111 -33q-66 0 -132 54.5t-66 113.5q1 57 54 95.5t145 50.5z" />
    <glyph glyph-name="uni0944" unicode="&#x944;" 
d="M-517 67l45 -102q-164 -24 -164 -86q0 -16 20.5 -27.5t58.5 -11.5q54 0 100 35l53 -98q-53 -31 -108 -33q-33 -22 -33 -48q0 -16 16.5 -27.5t48.5 -11.5q51 0 101 35l53 -98q-62 -33 -111 -33q-58 0 -116 52.5t-57 108.5q0 24 12 46q-44 24 -73.5 62t-29.5 75
q1 55 43.5 95t140.5 67z" />
    <glyph glyph-name="uni0945" unicode="&#x945;" 
d="M92 856q-87 -114 -215 -114q-76 0 -139.5 54t-100.5 123l32 16q74 -106 158 -106q59 0 104.5 32.5t71.5 75.5z" />
    <glyph glyph-name="uni0946" unicode="&#x946;" 
d="M-701 990l55 -8q-16 -48 -16 -66q0 -20 21 -33.5t65 -13.5q40 0 145 8t126 8q91 0 147 -70q48 -57 48 -112q0 -23 -9 -59h-64q11 17 11 38q0 38 -27 67t-84 29q-21 0 -87.5 -7.5t-100.5 -7.5q-92 1 -172.5 40t-80.5 88q0 33 23 99z" />
    <glyph glyph-name="uni0947" unicode="&#x947;" 
d="M-452 998q68 0 119 -54.5t107 -159.5q50 -94 81 -165h-53q-10 20 -34 57.5t-34 50.5q-67 102 -100 132l-130 -43q-42 35 -42 95q0 41 25.5 64t60.5 23z" />
    <glyph glyph-name="uni0948" unicode="&#x948;" 
d="M-417 1087q133 0 255 -297q29 -70 56 -148h-54q-15 46 -40 97q-33 70 -71 134.5t-60 83.5l-148 -27h-2q-22 29 -22 70t25.5 64t60.5 23zM-454 883q32 0 63.5 -12t61.5 -38.5t51 -47.5t48 -60t36.5 -54.5l31.5 -51.5h-48q-46 63 -111 136l-191 -21h-3q-24 27 -24 71
q0 36 25 57t60 21z" />
    <glyph glyph-name="uni0949" unicode="&#x949;" horiz-adv-x="311" 
d="M398 856q-43 -54 -93 -84t-123 -30q-76 0 -139.5 54t-100.5 123l33 16q72 -106 157 -106q59 0 104.5 32.5t71.5 75.5zM268 663l43 -82v-19h-95v-601h-21l-99 57v544h-102l-42 81v20h316z" />
    <glyph glyph-name="uni094A" unicode="&#x94a;" horiz-adv-x="311" 
d="M-401 990l55 -8q-16 -41 -16 -66q0 -20 20.5 -33.5t64.5 -13.5q40 0 145.5 8t126.5 8q44 0 83 -19.5t64 -50.5q47 -55 47 -112q0 -18 -4 -40h82l44 -82v-19h-95v-601h-21l-99 57v544h-102l-42 81v20h173q3 9 3 19q0 38 -27 67t-84 29q-21 0 -87.5 -7.5t-100.5 -7.5
q-92 1 -172.5 39.5t-80.5 88.5q0 41 23 99z" />
    <glyph glyph-name="uni094B" unicode="&#x94b;" horiz-adv-x="311" 
d="M267 663l44 -82v-19h-95v-601h-21l-99 57v544h-102l-42 81v20h161q-25 42 -42 64q-71 105 -100 132l-130 -43q-42 35 -42 95q0 41 25.5 64t60.5 23q67 0 119 -54.5t107 -159.5l60 -121h96z" />
    <glyph glyph-name="uni094C" unicode="&#x94c;" horiz-adv-x="307" 
d="M267 663l44 -82v-19h-95v-601h-21l-99 57v544h-102l-42 81v20h116q-42 53 -77 92l-192 -21h-2q-24 29 -24 71q0 36 25 57t60 21q41 0 80.5 -20t74 -56.5t59 -68.5t51.5 -75h21q-16 43 -31 74q-33 70 -71.5 135t-60.5 85l-148 -27h-1q-23 28 -23 70q0 41 25.5 64t61.5 23
q40 0 78.5 -26t71 -73.5t57 -95t49.5 -108.5q26 -61 47 -121h68z" />
    <glyph glyph-name="uni094D" unicode="&#x94d;" 
d="M36 -294q-66 60 -115.5 89.5t-107.5 46.5l-132 -40q-35 28 -35 70q0 30 19 46.5t52 16.5q54 0 153 -57t194 -148z" />
    <glyph glyph-name="uni0950" unicode="&#x950;" horiz-adv-x="1174" 
d="M697 880l100 -101l-100 -102l-102 102zM519 716q71 -106 157 -106q60 0 106 32.5t71 75.5l89 -81q-88 -115 -215 -115q-76 0 -139 53.5t-102 123.5zM267 670q66 0 134.5 -72t68.5 -141q0 -71 -54 -122q12 -11 25 -25l36.5 -37.5t36.5 -37t31 -27.5t34.5 -21.5t33.5 -6.5
q29 0 59.5 32t58 77.5l57 91t66.5 77.5t77 32q65 0 124 -64q62 -67 62 -150q0 -72 -46 -115t-107 -43q-38 0 -83 31t-77 73q-40 -66 -72.5 -100.5t-70.5 -34.5q-29 0 -57 12t-42.5 24.5t-35 33l-23.5 23.5l-2 -1q0 -26 -8 -53q-12 -55 -54 -88t-102 -34q-54 0 -105 24.5
t-93 68.5t-69 81t-56 84l34 28q125 -175 238 -175q51 0 83.5 29.5t32.5 68.5q0 53 -37 94q-68 -23 -137 -28l-47 85l10 20q116 12 156 36q41 24 41 80q0 29 -24.5 51.5t-60.5 22.5q-43 0 -79 -18.5t-79 -57.5l-54 105q92 67 176 67zM973 400q-51 0 -107 -80l-39 -59
q37 -53 82 -53q46 0 82 34t36 87q0 32 -13.5 51.5t-40.5 19.5z" />
    <glyph glyph-name="uni0951" unicode="&#x951;" 
d="M-199 1015h86v-263h-86v263z" />
    <glyph glyph-name="uni0952" unicode="&#x952;" 
d="M-385 -263v82h462v-82h-462z" />
    <glyph glyph-name="uni0953" unicode="&#x953;" 
d="M-391 978v7l95 34l164 -230v-7l-76 -34z" />
    <glyph glyph-name="uni0954" unicode="&#x954;" 
d="M-43 1019l94 -34v-7l-183 -230l-76 34v7z" />
    <glyph glyph-name="uni0956" unicode="&#x956;" 
d="M-225 -135q110 0 180 74l37 -31q-31 -58 -90 -98t-127 -40t-127.5 39.5t-90.5 98.5l38 31q70 -74 180 -74z" />
    <glyph glyph-name="uni0957" unicode="&#x957;" 
d="M-225 -135q110 0 180 74l37 -31q-31 -58 -90 -98t-127 -40t-127.5 39.5t-90.5 98.5l38 31q70 -74 180 -74zM-225 -301q110 0 180 74l37 -31q-31 -58 -90 -98t-127 -40t-127.5 39.5t-90.5 98.5l38 31q70 -74 180 -74z" />
    <glyph glyph-name="uni0958" unicode="&#x958;" horiz-adv-x="868" 
d="M868 562h-354v-174q69 54 124 54q76 0 130.5 -58t54.5 -137q0 -94 -52 -210l-108 70q30 41 58.5 99t28.5 88q0 26 -18.5 41t-49.5 15q-71 0 -168 -86v-303h-20l-105 59l11 148h-3q-42 -31 -79 -48t-82 -17q-79 0 -133.5 51.5t-54.5 141.5q0 72 42 125t118 53
q106 0 184 -125l1 213h-399l-42 81v20h872l44 -82v-19zM200 204q93 0 192 79v5q-22 28 -65 51.5t-87 23.5q-52 0 -98 -24.5t-46 -66.5q0 -29 30.5 -48.5t73.5 -19.5zM133 -28l101 101l101 -101l-101 -102z" />
    <glyph glyph-name="uni0959" unicode="&#x959;" horiz-adv-x="874" 
d="M830 663l44 -82v-19h-95v-601h-21l-100 57l2 49q-51 -35 -124.5 -59.5t-140.5 -24.5q-108 0 -279 206q-6 8 -19 24t-17.5 22l-13.5 18t-12 18l-7.5 15t-6 16t-1.5 15q0 22 17.5 44.5t35.5 33.5l57 -35q22 34 22 101q0 38 -7 101h-170l-42 81v20h878zM393 74
q64 0 141 31.5t128 77.5v47h-2q-85 -66 -144 -66q-70 0 -123.5 50.5t-53.5 126.5t48.5 122.5t119.5 46.5q70 0 150 -90h2v142h-389q15 -88 15 -155q0 -105 -110 -207q35 -44 94.5 -85t123.5 -41zM483 259q42 0 90.5 28t84.5 70v2q-47 50 -125 50q-61 0 -103.5 -28.5
t-42.5 -66.5q0 -21 27 -38t69 -17zM2 0l101 101l101 -101l-101 -102z" />
    <glyph glyph-name="uni095A" unicode="&#x95a;" horiz-adv-x="652" 
d="M607 663l45 -82v-19h-96v-601h-21l-100 57v544h-204q23 -210 23 -278q0 -120 -102 -120q-54 0 -84 44t-30 88q0 28 6 48l98 -13l3 231h-151l-42 81v20h655zM52 15l101 101l101 -101l-101 -102z" />
    <glyph glyph-name="uni095B" unicode="&#x95b;" horiz-adv-x="743" 
d="M743 581v-19h-96v-601h-19l-100 57v333h-184q91 -88 91 -163q0 -69 -39.5 -110.5t-98.5 -41.5q-57 0 -106 34.5t-83.5 93t-57.5 121.5t-38 133l45 13q15 -53 34 -99t45.5 -90t61.5 -69.5t74 -25.5q37 0 59.5 20t22.5 54q0 47 -52 99t-119 91l19 42h326v109h-534l-42 81
v20h748zM184 -104l101 101l101 -101l-101 -102z" />
    <glyph glyph-name="uni095C" unicode="&#x95c;" horiz-adv-x="617" 
d="M574 663l43 -82v-19h-117v-189h-270q-71 0 -71 -62q0 -18 11.5 -38t23.5 -20q47 0 126 23t110 23q45 0 87 -60t42 -126q-1 -82 -46 -129t-124 -47q-86 0 -181 52.5t-188 155.5l37 36q73 -78 139 -109.5t144 -31.5q38 0 74.5 9t64 31.5t27.5 54.5q0 17 -11.5 35t-29.5 25
q-40 -1 -111 -22.5t-110 -22.5q-42 1 -99.5 62.5t-57.5 126.5q0 72 30.5 104.5t79.5 32.5h183v86h-387l-41 81v20h622zM371 -105l101 -101l-101 -102l-101 102z" />
    <glyph glyph-name="uni095D" unicode="&#x95d;" horiz-adv-x="573" 
d="M273 364q-76 0 -123 -32.5t-47 -90.5q0 -63 48.5 -107t110.5 -63q-26 46 -26 89q1 71 40 103t92 32q65 0 111 -50t47 -124q0 -75 -57.5 -119.5t-122.5 -44.5q-45 0 -94.5 20t-95.5 56.5t-75.5 98t-29.5 136.5q0 107 56 155t143 48h82v91h-339l-41 81v20h578l43 -82v-19
h-121v-198h-179zM297 116q-1 -30 9 -53q3 -1 8 -1q67 1 116 24t49 56q-1 27 -26 44.5t-53 17.5q-36 0 -69 -24t-34 -64zM243 -170l101 101l101 -101l-101 -102z" />
    <glyph glyph-name="uni095E" unicode="&#x95e;" horiz-adv-x="856" 
d="M856 562h-354v-154q68 54 124 54q76 0 130.5 -57.5t54.5 -137.5q0 -92 -53 -210l-108 70q30 41 58.5 99.5t28.5 87.5q0 26 -18 41.5t-49 15.5q-65 0 -168 -88v-322h-20l-106 59l12 168h-2q-53 -32 -106 -32q-21 0 -50 19t-45.5 34.5t-50.5 50.5q-36 40 -49.5 64t-13.5 58
v180h-77l-42 81v20h860l44 -82v-19zM257 261q61 0 123 42l1 259h-190v-239q0 -62 66 -62zM-7 94l101 101l101 -101l-101 -102z" />
    <glyph glyph-name="uni095F" unicode="&#x95f;" horiz-adv-x="667" 
d="M667 581v-19h-96v-601h-20l-100 57l1 125l-2 1q-62 -39 -135 -39q-89 0 -160.5 61t-110.5 173q74 23 112 52t38 71q0 46 -47 100h-153l-42 81v20h671zM267 202q98 0 185 71v289h-213l-1 -1q72 -82 72 -132q0 -40 -45.5 -79.5t-106.5 -62.5q6 -39 37.5 -62t71.5 -23z
M74 146l101 -101l-101 -102l-101 102z" />
    <glyph glyph-name="uni0960" unicode="&#x960;" horiz-adv-x="893" 
d="M849 663l44 -82v-19h-375v-215q63 3 111 35l-31 76q28 26 66 26t64 -23t25 -57q0 -33 -26 -62l78 -187q-124 -48 -124 -95q0 -36 62 -36q52 0 100 35l53 -97q-56 -30 -108 -33q-31 -22 -31 -50q0 -16 16.5 -27.5t48.5 -11.5q53 0 100 36l53 -98q-60 -33 -111 -33
q-57 0 -114.5 52t-56.5 108q0 30 10 51q-38 24 -63 60t-25 72q1 69 82 128l-31 77q-69 -38 -148 -35v-297h-21l-100 57l1 179v9l-241 -175l-72 81l312 204q-78 54 -159 54q-47 0 -142 -35l-61 109q89 34 151 34q79 0 212 -108v192h-404l-42 81v20h897z" />
    <glyph glyph-name="uni0961" unicode="&#x961;" horiz-adv-x="803" 
d="M759 663l44 -82v-19h-210v-128q60 -22 107 -69t47 -98q0 -41 -26.5 -82.5t-57.5 -69.5t-57.5 -61t-26.5 -59q0 -19 14 -31.5t36 -12.5q57 0 133 107l73 -74q-73 -70 -119 -83q-21 -25 -21 -44q0 -50 59 -50q57 0 136 113l74 -75q-64 -59 -93 -75q-40 -23 -86 -22
q-55 1 -109.5 36t-53.5 79q0 17 7 32q-58 11 -104.5 52.5t-46.5 89.5q0 24 18 49t43.5 48l51 47.5t44 56t18.5 64.5q0 29 -25.5 46.5t-54.5 17.5q-39 0 -73.5 -37t-54 -82.5t-29.5 -91.5l-105 53q10 60 42 115q-48 38 -99 38q-42 0 -73 -32.5t-31 -84.5q0 -68 26 -128.5
t74 -129.5l-35 -27q-66 62 -121 152.5t-55 177.5q0 74 47.5 123t116.5 49q47 0 88.5 -24t89.5 -74q39 53 92 71v128h-479l-42 81v20h807z" />
    <glyph glyph-name="uni0962" unicode="&#x962;" 
d="M-115 28v-119q76 -41 76 -91q0 -27 -22.5 -56t-44.5 -52t-22 -38q0 -18 18 -18q16 0 38.5 16t41.5 40l44 -50q-51 -48 -104 -48q-40 0 -75.5 23.5t-36.5 64.5q0 20 22 43l44.5 48.5t22.5 50.5q0 11 -9.5 18t-22.5 7q-19 0 -33.5 -12t-25 -35t-15 -37t-10.5 -36l-78 35
q11 40 24 66q-20 15 -40 15q-26 0 -41 -16t-15 -42q0 -65 58 -145l-24 -20q-50 42 -84.5 93t-34.5 96q0 46 33 74t77 28q42 0 94 -46q28 32 70 39v104h75z" />
    <glyph glyph-name="uni0963" unicode="&#x963;" 
d="M-115 28v-119q76 -41 76 -91q0 -27 -22.5 -56t-44.5 -52t-22 -38q0 -18 18 -18q34 0 80 56l44 -50q-32 -31 -63 -40q-12 -14 -12 -27q0 -21 29 -21q17 0 41.5 19.5t38.5 39.5l51 -47q-20 -18 -33 -27.5t-34.5 -18.5t-43.5 -9q-34 0 -69.5 21t-35.5 50q0 8 3 15
q-36 7 -62 29t-26 56q0 20 22 43l44.5 48.5t22.5 50.5q0 11 -9.5 18t-22.5 7q-19 0 -34 -12t-25 -35.5t-14.5 -36t-10.5 -36.5l-78 35q11 40 24 66q-20 15 -40 15q-26 0 -41 -16t-15 -42q0 -65 58 -145l-24 -20q-50 42 -84.5 93t-34.5 96q0 46 33 74t76 28q44 0 95 -47
q25 33 70 40v104h75z" />
    <glyph glyph-name="uni0964" unicode="&#x964;" horiz-adv-x="534" 
d="M272 690l99 -56v-673h-21l-99 57v672h21z" />
    <glyph glyph-name="uni0965" unicode="&#x965;" horiz-adv-x="798" 
d="M272 690l99 -56v-673h-21l-99 57v672h21zM536 690l99 -56v-673h-21l-99 57v672h21z" />
    <glyph glyph-name="uni0966" unicode="&#x966;" horiz-adv-x="631" 
d="M91 269q0 82 78.5 159t155.5 77q87 0 151.5 -61t64.5 -153q0 -89 -80 -166t-155 -77q-92 0 -153.5 63.5t-61.5 157.5zM198 321q0 -90 46.5 -144t90.5 -54q38 0 68 31.5t30 78.5q0 78 -42 137.5t-94 59.5q-40 0 -69.5 -31t-29.5 -78z" />
    <glyph glyph-name="uni0967" unicode="&#x967;" horiz-adv-x="631" 
d="M295 677q64 0 132 -56.5t68 -126.5q0 -81 -131 -229l-77 -85l150 -154q68 -76 82 -101q11 -21 11 -38q0 -37 -26 -60t-59 -23q-34 0 -63.5 22.5t-46.5 58.5v2l81 62q-22 33 -55.5 69.5t-57.5 59l-74.5 68l-69.5 62.5v1l136 136q-96 61 -125 90q-46 45 -46 95
q0 62 50 104.5t121 42.5zM320 616q-34 0 -58 -34t-24 -81q0 -27 26.5 -60t63.5 -55q58 82 58 146q0 36 -19.5 60t-46.5 24z" />
    <glyph glyph-name="uni0968" unicode="&#x968;" horiz-adv-x="631" 
d="M318 677q46 0 97 -42.5t84.5 -103.5t33.5 -113q0 -76 -70 -152t-164 -97l184 -278l-101 -54l-141 326q-59 -1 -102.5 23.5t-43.5 57.5q0 38 24.5 66t49.5 28q13 0 21 -4l48 -73q88 19 147.5 79t59.5 126q0 45 -22.5 78.5t-60.5 33.5q-92 0 -206 -76l-78 111
q52 22 83 33.5t74.5 21t82.5 9.5z" />
    <glyph glyph-name="uni0969" unicode="&#x969;" horiz-adv-x="631" 
d="M581 224q0 -84 -75 -149t-167 -68l66 -85l-34 -82l-62 152l-2 16q-70 5 -116.5 37.5t-46.5 72.5q1 32 24.5 51t48.5 19q5 0 19 -2l50 -80q72 7 138 55t66 103q0 34 -25 52t-62 18q-15 0 -22 -1q-83 -43 -172 -43q-25 0 -45 23t-20 59q0 18 55 34.5t139 22.5q59 34 59 86
q0 29 -22 46t-61 17q-75 0 -206 -38l-58 110q125 25 220 25q69 0 142 -71.5t73 -136.5q0 -44 -35 -84q67 -48 99 -90.5t32 -68.5z" />
    <glyph glyph-name="uni096A" unicode="&#x96a;" horiz-adv-x="631" 
d="M378 365q80 -75 117.5 -126t37.5 -88q0 -60 -62.5 -94t-145.5 -34q-74 0 -136.5 48t-62.5 119q0 43 28.5 88t98.5 116q-52 47 -154 122t-104 77l50 63q16 -15 101.5 -88l150.5 -130l270 265l49 -117zM290 85q42 0 76.5 38.5t34.5 87.5q0 36 -57 94l-14 14
q-61 -62 -83.5 -98.5t-22.5 -71.5q0 -27 19.5 -45.5t46.5 -18.5z" />
    <glyph glyph-name="uni096B" unicode="&#x96b;" horiz-adv-x="631" 
d="M670 -134l-85 -43l-154 323q-59 -45 -114 -45q-70 0 -149 60.5t-79 137.5q0 69 32 175t76 201l98 -79q-113 -232 -113 -338q0 -28 21.5 -51t43.5 -23q50 0 136 65l-44 89q33 33 75 33t69.5 -26t27.5 -70t-45 -96z" />
    <glyph glyph-name="uni096C" unicode="&#x96c;" horiz-adv-x="631" 
d="M257 681q30 0 44 -1l64 -117q-33 5 -54 5q-91 0 -138 -22t-47 -79q0 -25 18 -50t41 -37q44 27 98.5 42t97.5 15q25 0 44 -20.5t19 -57.5q0 -19 -61.5 -40t-130.5 -23q-56 -40 -56 -93q0 -36 32.5 -68t72.5 -32q51 0 124 26l-37 80q40 30 85 30q40 0 66 -21t26 -61
q0 -51 -54 -97l136 -190l-83 -43l-94 204q-59 -32 -121 -32q-41 0 -102.5 47t-106.5 107t-45 97q0 51 44 95q-47 38 -81 85.5t-34 83.5q0 167 233 167z" />
    <glyph glyph-name="uni096D" unicode="&#x96d;" horiz-adv-x="631" 
d="M74 676q16 -156 47.5 -271.5t72 -179t82.5 -93t86 -29.5q79 0 119.5 48t48.5 128q-34 -24 -70 -24q-68 0 -136 61q-47 42 -69 85t-22 106q0 58 47 101.5t99 43.5t87.5 -22.5t66.5 -72.5q31 -51 52 -126t21 -141q0 -136 -67 -213.5t-153 -77.5q-143 0 -238.5 175
t-120.5 487zM440 552q-49 0 -80 -33.5t-31 -75.5q0 -87 84 -87q59 0 115 48q-10 65 -35 106.5t-53 41.5z" />
    <glyph glyph-name="uni096E" unicode="&#x96e;" horiz-adv-x="631" 
d="M471 746l32 -114l-211 -238q-76 -86 -103 -140t-27 -104q0 -41 31 -76t81 -35q35 0 79 25t67.5 46t76.5 72q9 9 14 13l82 -76q-77 -86 -141 -118t-141 -32q-87 0 -169 71.5t-82 146.5q0 93 110 216z" />
    <glyph glyph-name="uni096F" unicode="&#x96f;" horiz-adv-x="631" 
d="M208 706q63 0 136 -68t73 -141q0 -64 -53.5 -114.5t-125.5 -63.5q176 -156 295 -281q93 -97 93 -143q0 -37 -25.5 -59.5t-58.5 -22.5q-35 0 -64 22t-46 59v2l81 61q-18 24 -44 52.5l-49.5 53l-57 57l-55.5 53l-58.5 53l-51 45.5l-47.5 41.5t-35 30.5q-59 54 -78 92
t-19 92q0 73 50.5 126t139.5 53zM251 606q-61 0 -99.5 -38t-38.5 -84q0 -49 33 -87q66 11 114.5 52t48.5 80q0 32 -16 54.5t-42 22.5z" />
    <glyph glyph-name="uni0970" unicode="&#x970;" horiz-adv-x="447" 
d="M56 270q0 63 61.5 116t111.5 53q64 0 113 -41.5t49 -111.5q0 -67 -61.5 -119.5t-111.5 -52.5q-65 0 -113.5 44t-48.5 112zM149 305q0 -56 30 -90.5t57 -34.5q23 0 43 20t20 48q0 48 -28 87t-58 39q-23 0 -43.5 -20t-20.5 -49z" />
    <glyph glyph-name="uni0971" unicode="&#x971;" horiz-adv-x="311" 
d="M153 714l101 -101l-101 -102l-102 101z" />
    <glyph glyph-name="uni0972" unicode="&#x972;" horiz-adv-x="862" 
d="M865 937l89 -81q-87 -114 -215 -114q-76 0 -139.5 54t-100.5 123l32 16q74 -106 158 -106q59 0 104.5 32.5t71.5 75.5zM477 663h342l43 -82v-19h-94v-601h-20l-100 57v195h-1q-21 -9 -46 -9q-55 0 -112 45h-4q17 -36 17 -75q0 -73 -46.5 -121t-118.5 -49q-54 0 -105 24.5
t-93 68.5t-69 81t-56 84l34 28q125 -175 238 -175q51 0 83.5 29.5t32.5 68.5q0 53 -37 94q-62 -21 -137 -28l-47 85l10 20q116 12 156 36q41 24 41 80q0 29 -24.5 51.5t-60.5 22.5q-43 0 -79 -18.5t-79 -57.5l-54 105q92 67 176 67q66 0 134.5 -72t68.5 -141q0 -68 -51 -119
q62 -32 129 -32q60 0 100 30v226h-129l-42 81v20z" />
    <glyph glyph-name="uni0973" unicode="&#x973;" horiz-adv-x="862" 
d="M862 581v-19h-94v-601h-20l-100 57v195h-1q-21 -9 -46 -9q-55 0 -112 45h-4q17 -36 17 -75q0 -73 -46.5 -121t-118.5 -49q-54 0 -105 24.5t-93 68.5t-69 81t-56 84l34 28q125 -175 238 -175q51 0 83.5 29.5t32.5 68.5q0 53 -37 94q-62 -21 -137 -28l-47 85l10 20
q116 12 156 36q41 24 41 80q0 29 -24.5 51.5t-60.5 22.5q-43 0 -79 -18.5t-79 -57.5l-54 105q92 67 176 67q66 0 134.5 -72t68.5 -141q0 -68 -51 -119q62 -32 129 -32q60 0 100 30v226h-129l-42 81v20h171v238h120v-238h51z" />
    <glyph glyph-name="uni0974" unicode="&#x974;" horiz-adv-x="1172" 
d="M1172 581v-19h-96v-601h-20l-100 57v544h-188v-601h-20l-100 57v195h-1q-21 -9 -46 -9q-55 0 -112 45h-4q17 -36 17 -75q0 -73 -46.5 -121t-118.5 -49q-54 0 -105 24.5t-93 68.5t-69 81t-56 84l34 28q125 -175 238 -175q51 0 83.5 29.5t32.5 68.5q0 53 -37 94
q-62 -21 -137 -28l-47 85l10 20q116 12 156 36q41 24 41 80q0 29 -24.5 51.5t-60.5 22.5q-43 0 -79 -18.5t-79 -57.5l-54 105q92 67 176 67q66 0 134.5 -72t68.5 -141q0 -68 -51 -119q62 -32 129 -32q60 0 100 30v226h-129l-42 81v20h479v238h120v-238h52z" />
    <glyph glyph-name="uni0976" unicode="&#x976;" horiz-adv-x="862" 
d="M819 663l43 -82v-19h-94v-601h-20l-100 57v195h-1q-21 -9 -46 -9q-55 0 -112 45h-4q17 -36 17 -75q0 -73 -46.5 -121t-118.5 -49q-54 0 -105 24.5t-93 68.5t-69 81t-56 84l34 28q125 -175 238 -175q51 0 83.5 29.5t32.5 68.5q0 53 -37 94q-62 -21 -137 -28l-47 85l10 20
q116 12 156 36q41 24 41 80q0 29 -24.5 51.5t-60.5 22.5q-43 0 -79 -18.5t-79 -57.5l-54 105q92 67 176 67q66 0 134.5 -72t68.5 -141q0 -68 -51 -119q62 -32 129 -32q60 0 100 30v226h-129l-42 81v20h342zM625 -135q110 0 180 74l37 -31q-31 -58 -90 -98t-127 -40
t-127.5 39.5t-90.5 98.5l38 31q70 -74 180 -74z" />
    <glyph glyph-name="uni0977" unicode="&#x977;" horiz-adv-x="862" 
d="M819 663l43 -82v-19h-94v-601h-20l-100 57v195h-1q-21 -9 -46 -9q-55 0 -112 45h-4q17 -36 17 -75q0 -73 -46.5 -121t-118.5 -49q-54 0 -105 24.5t-93 68.5t-69 81t-56 84l34 28q125 -175 238 -175q51 0 83.5 29.5t32.5 68.5q0 53 -37 94q-62 -21 -137 -28l-47 85l10 20
q116 12 156 36q41 24 41 80q0 29 -24.5 51.5t-60.5 22.5q-43 0 -79 -18.5t-79 -57.5l-54 105q92 67 176 67q66 0 134.5 -72t68.5 -141q0 -68 -51 -119q62 -32 129 -32q60 0 100 30v226h-129l-42 81v20h342zM625 -135q110 0 180 74l37 -31q-31 -58 -90 -98t-127 -40
t-127.5 39.5t-90.5 98.5l38 31q70 -74 180 -74zM625 -301q110 0 180 74l37 -31q-31 -58 -90 -98t-127 -40t-127.5 39.5t-90.5 98.5l38 31q70 -74 180 -74z" />
    <glyph glyph-name="uni0979" unicode="&#x979;" horiz-adv-x="743" 
d="M743 581v-19h-96v-601h-19l-100 57v333h-184q91 -88 91 -163q0 -69 -39.5 -110.5t-98.5 -41.5q-57 0 -106 34.5t-83.5 93t-57.5 121.5t-38 133l45 13q15 -53 34 -99t45.5 -90t61.5 -69.5t74 -25.5q37 0 59.5 20t22.5 54q0 47 -52 99t-119 91l19 42h326v109h-534l-42 81
v20h748zM171 23l81 -81l-81 -83l-82 83zM304 -58l81 81l82 -81l-81 -83zM196 -167l82 82l82 -81l-82 -83z" />
    <glyph glyph-name="uni097A" unicode="&#x97a;" horiz-adv-x="667" 
d="M623 663l44 -82v-19h-96v-601h-20l-100 57l1 125l-2 1q-62 -39 -135 -39q-89 0 -160.5 61t-110.5 173q74 23 112 52t38 71q0 46 -47 100h-153l-42 81v20h671zM239 562l-1 -1q14 -16 19 -23v1l195 -237v260h-213zM267 202q87 0 170 60l-128 155q-7 -37 -51 -73t-100 -57
q6 -39 37.5 -62t71.5 -23z" />
    <glyph glyph-name="uni097B" unicode="&#x97b;" horiz-adv-x="652" 
d="M607 663l45 -82v-19h-96v-619h-494l-34 64v20h407v535h-204q24 -180 24 -278q0 -120 -103 -120q-54 0 -84 44t-30 88q0 28 6 48l98 -13v231h-148l-42 81v20h655z" />
    <glyph glyph-name="uni097C" unicode="&#x97c;" horiz-adv-x="743" 
d="M700 663l43 -82v-19h-96v-674h-585l-34 63v20h500v380h-185q92 -87 92 -163q0 -69 -39.5 -110.5t-98.5 -41.5q-57 0 -106 34.5t-83.5 93t-57.5 121.5t-38 133l45 13q15 -53 34 -99t45.5 -90t61.5 -69.5t74 -25.5q37 0 59.5 20t22.5 54q0 47 -52 99t-119 91l19 42h326v109
h-534l-42 81v20h748z" />
    <glyph glyph-name="uni097D" unicode="&#x97d;" horiz-adv-x="564" 
d="M255 670q72 0 148 -84.5t76 -167.5q0 -42 -26 -80.5t-66 -60.5q-25 -14 -94 -32v-284h-21l-99 57v302l9 17q106 8 156 37q25 14 42 38.5t17 53.5q0 42 -32 75t-70 33q-71 0 -150 -76l-54 105q37 26 86 46.5t78 20.5z" />
    <glyph glyph-name="uni097E" unicode="&#x97e;" horiz-adv-x="617" 
d="M574 663l43 -82v-19h-117v-189h-270q-71 0 -71 -62q0 -18 11.5 -38t23.5 -20q47 0 126 23t110 23q45 0 87 -60t42 -126q-1 -82 -46 -129t-124 -47q-86 0 -181 52.5t-188 155.5l37 36q73 -78 139 -109.5t144 -31.5q38 0 74.5 9t64 31.5t27.5 54.5q0 17 -11.5 35t-29.5 25
q-40 -1 -111 -22.5t-110 -22.5q-42 1 -99.5 62.5t-57.5 126.5q0 72 30.5 104.5t79.5 32.5h183v86h-387l-41 81v20h622zM555 -135l34 -63v-20h-527l-34 63v20h527z" />
    <glyph glyph-name="uni097F" unicode="&#x97f;" horiz-adv-x="669" 
d="M624 663l45 -82v-19h-97v-619h-510l-34 64v20h419l7 133l-4 1q-37 -26 -59 -39t-57 -25t-71 -12q-79 0 -145.5 53t-66.5 143q0 97 60 156t134 59q102 0 206 -126h1v192h-458l-42 81v20h672zM295 387q-25 0 -63 -8l110 -166q65 34 110 84v2q-30 35 -74 61.5t-83 26.5z
M196 367q-44 -17 -70 -48t-26 -60q0 -34 33.5 -57t87.5 -23q41 0 87 18z" />
    <glyph glyph-name="uni2000" unicode="&#x2000;" horiz-adv-x="500" 
 />
    <glyph glyph-name="uni2001" unicode="&#x2001;" horiz-adv-x="1000" 
 />
    <glyph glyph-name="uni2002" unicode="&#x2002;" horiz-adv-x="500" 
 />
    <glyph glyph-name="uni2003" unicode="&#x2003;" horiz-adv-x="1000" 
 />
    <glyph glyph-name="uni2004" unicode="&#x2004;" horiz-adv-x="333" 
 />
    <glyph glyph-name="uni2005" unicode="&#x2005;" horiz-adv-x="250" 
 />
    <glyph glyph-name="uni2006" unicode="&#x2006;" horiz-adv-x="167" 
 />
    <glyph glyph-name="uni2007" unicode="&#x2007;" horiz-adv-x="629" 
 />
    <glyph glyph-name="uni2008" unicode="&#x2008;" horiz-adv-x="353" 
 />
    <glyph glyph-name="uni2009" unicode="&#x2009;" horiz-adv-x="200" 
 />
    <glyph glyph-name="uni200A" unicode="&#x200a;" horiz-adv-x="100" 
 />
    <glyph glyph-name="uni200C" unicode="&#x200c;" horiz-adv-x="417" 
 />
    <glyph glyph-name="uni200D" unicode="&#x200d;" horiz-adv-x="417" 
 />
    <glyph glyph-name="endash" unicode="&#x2013;" horiz-adv-x="718" 
d="M90 456h539v-102h-541z" />
    <glyph glyph-name="emdash" unicode="&#x2014;" horiz-adv-x="1177" 
d="M88 456h1001v-102h-1001v102z" />
    <glyph glyph-name="quoteleft" unicode="&#x2018;" horiz-adv-x="428" 
d="M219 398q-59 19 -91 74.5t-32 119.5q3 91 57.5 162.5t136.5 102.5l42 -41v-19q-35 -12 -64 -59t-29 -90q0 -33 23 -63.5t52 -33.5v-34z" />
    <glyph glyph-name="quoteright" unicode="&#x2019;" horiz-adv-x="428" 
d="M96 442v18q35 13 64.5 59.5t29.5 89.5q0 36 -23.5 66t-52.5 33v33l95 120q60 -20 92.5 -76.5t30.5 -118.5q-1 -89 -57 -161.5t-136 -102.5z" />
    <glyph glyph-name="quotesinglbase" unicode="&#x201a;" horiz-adv-x="428" 
d="M114 71l95 120q60 -21 92.5 -76.5t30.5 -118.5q-1 -88 -53.5 -153.5t-139.5 -100.5l-43 41v18q38 14 65.5 55t27.5 84q0 36 -23 66t-52 33v32z" />
    <glyph glyph-name="quotedblleft" unicode="&#x201c;" horiz-adv-x="715" 
d="M219 398q-58 18 -90 75t-32 119q0 88 56 160.5t137 103.5l42 -41v-18q-35 -13 -64 -59t-29 -90q0 -35 23 -65t52 -33v-33zM506 398q-58 18 -90 75.5t-32 118.5q0 87 56 160t136 104l43 -41v-18q-35 -13 -64 -59t-29 -90q0 -34 23.5 -64.5t52.5 -33.5v-33z" />
    <glyph glyph-name="quotedblright" unicode="&#x201d;" horiz-adv-x="719" 
d="M96 441v19q35 11 64.5 57.5t29.5 90.5q0 36 -23 65.5t-53 32.5v33l96 120q60 -19 92.5 -75.5t30.5 -118.5q-3 -91 -58 -163t-135 -101zM387 441v19q34 11 63.5 58t29.5 90q0 34 -22.5 64.5t-51.5 33.5v33l94 120q60 -19 92.5 -76t30.5 -118q-1 -89 -57.5 -162.5
t-135.5 -101.5z" />
    <glyph glyph-name="quotedblbase" unicode="&#x201e;" horiz-adv-x="703" 
d="M115 73l96 119q59 -19 91.5 -76.5t30.5 -117.5q-1 -88 -57 -161.5t-136 -103.5l-44 41v19q35 11 64.5 57.5t29.5 90.5q0 36 -23 66t-52 33v33zM389 73l95 119q60 -19 92.5 -75.5t30.5 -118.5q-1 -89 -57.5 -161t-136.5 -104l-43 41v19q34 11 64 58.5t30 89.5q0 34 -23 65
t-52 34v33z" />
    <glyph glyph-name="dagger" unicode="&#x2020;" horiz-adv-x="518" 
d="M192 439l12 102l-146 -14v113l149 -17l-17 125v57h138l-1 -57l-17 -125l150 17l1 -113l-147 14l12 -102l-33 -308h-75z" />
    <glyph glyph-name="daggerdbl" unicode="&#x2021;" horiz-adv-x="518" 
d="M328 805l-1 -57l-17 -125l150 17l1 -113l-147 14l12 -102l-16 -127l150 17l1 -113l-147 14l12 -102l-33 -308h-74l-27 308l12 102l-147 -14l1 113l149 -17l-15 127l12 102l-147 -14l1 113l149 -17l-17 125v57h138z" />
    <glyph glyph-name="bullet" unicode="&#x2022;" horiz-adv-x="437" 
d="M214 226q-59 0 -101.5 43.5t-37.5 101.5q4 60 49 102.5t104 42.5q61 0 102.5 -42.5t37.5 -102.5q-5 -60 -50 -102.5t-104 -42.5z" />
    <glyph glyph-name="ellipsis" unicode="&#x2026;" horiz-adv-x="1129" 
d="M196 168q42 0 65.5 -23t23.5 -62q0 -42 -31 -69t-73 -27q-36 0 -62.5 23t-26.5 58q0 40 33 70t71 30zM571 168q43 0 66.5 -23.5t23.5 -61.5q0 -42 -31.5 -69t-73.5 -27q-36 0 -61.5 22.5t-25.5 58.5q0 40 32.5 70t69.5 30zM947 168q43 0 66 -23t23 -62q0 -42 -31 -69
t-73 -27q-36 0 -62 22.5t-26 58.5q0 40 33 70t70 30z" />
    <glyph glyph-name="perthousand" unicode="&#x2030;" horiz-adv-x="1404" 
d="M701 839l-327 -899h-105l327 899h105zM238 697q83 1 127.5 -47.5t44.5 -130.5q0 -83 -53.5 -131.5t-133.5 -49.5q-76 -1 -124 50t-48 126q0 83 54 132.5t133 50.5zM232 633q-35 0 -53.5 -33.5t-18.5 -81.5q0 -43 21.5 -79.5t52.5 -36.5t49 30t18 83q0 48 -19 83t-50 35z
M758 439q83 1 127.5 -47.5t44.5 -130.5q0 -83 -54 -131.5t-133 -49.5q-76 -1 -124.5 50t-48.5 126q0 83 54.5 132.5t133.5 50.5zM1172 439q82 1 126.5 -47t44.5 -131t-53.5 -131.5t-133.5 -49.5q-76 -1 -124 50.5t-48 125.5q0 83 54.5 132.5t133.5 50.5zM753 375
q-34 0 -52.5 -33t-18.5 -82q0 -45 22 -80.5t52 -35.5q31 0 48.5 30t17.5 83q0 49 -19 83.5t-50 34.5zM1167 375q-35 0 -53.5 -33.5t-18.5 -81.5q0 -45 22 -80.5t53 -35.5t48.5 30t17.5 83q0 48 -19 83t-50 35z" />
    <glyph glyph-name="guilsinglleft" unicode="&#x2039;" horiz-adv-x="612" 
d="M114 360l348 189l37 -60l-232 -189l232 -182l-37 -63l-348 177v128z" />
    <glyph glyph-name="guilsinglright" unicode="&#x203a;" horiz-adv-x="612" 
d="M112 113l231 190l-231 181l37 65l347 -178v-128l-347 -188z" />
    <glyph glyph-name="fraction" unicode="&#x2044;" horiz-adv-x="495" 
d="M394 918l92 -26l-386 -1059l-92 30z" />
    <glyph glyph-name="Euro" unicode="&#x20ac;" horiz-adv-x="783" 
d="M483 765q57 0 125.5 -19t92.5 -16l-8 -171h-67l-33 89q-50 38 -138 38q-143 0 -168 -175h235v-77h-242v-57v-10.5v-18v-11.5h232v-75h-226q24 -201 187 -201q62 -1 101 26q27 26 50 110h77v-166q-23 3 -55 -8t-83.5 -24t-113.5 -13q-130 0 -217 74t-111 202h-98v75h91v14
q0 39 6 83h-82v77h99q38 123 128 188.5t218 65.5z" />
    <glyph glyph-name="uni20B9" unicode="&#x20b9;" horiz-adv-x="631" 
d="M549 569h-165q33 -41 40 -89h164v-20l-39 -75h-138q-39 -87 -191 -139l283 -203l-88 -90l-222 233q-47 48 -52 88l5 4q32 8 80.5 37t72.5 70h-187v20l41 75h156q-12 41 -57 89h-140v19l41 75h435v-20z" />
    <glyph glyph-name="trademark" unicode="&#x2122;" horiz-adv-x="1123" 
d="M167 421l56 9v271l-74 -10l-19 -57l-43 -2l7 126h359l3 -123l-38 -5l-21 63l-67 8v-271l60 -9v-42h-223v42zM486 421l55 11l13 270l-46 5v51h184l66 -184l14 -53l77 237h170v-51l-44 -4l21 -272l48 -10v-42h-190v42l38 9l-3 172v103l-8 -34l-100 -296h-44l-109 271
l-20 59l2 -76l-5 -198l46 -10v-42h-165v42z" />
    <glyph glyph-name="partialdiff" unicode="&#x2202;" horiz-adv-x="687" 
d="M329 850q154 0 228 -96.5t74 -263.5q0 -100 -21 -190t-62.5 -164.5t-113.5 -118.5t-165 -44q-98 0 -160.5 62.5t-62.5 157.5q0 135 111.5 229t255.5 94q43 0 86 -9q-24 254 -224 254q-76 0 -137 -37l-43 57q103 69 234 69zM355 429q-79 0 -129 -51t-50 -139
q0 -71 47 -124t115 -53q38 0 67.5 21.5t47.5 58.5t28.5 78.5t14.5 90.5q1 10 3 38t2 31q-70 49 -146 49z" />
    <glyph glyph-name="uni2206" unicode="&#x2206;" horiz-adv-x="864" 
d="M168 240l237 500l136 -221l255 -503l-227 -16l-492 3zM583 124l-190 381l-172 -381h362z" />
    <glyph glyph-name="product" unicode="&#x220f;" horiz-adv-x="877" 
d="M151 -8v686l-91 10v70h761v-70l-94 -10v-686l91 -19v-59h-333v59l91 19v695h-274v-695l88 -18v-60h-328v60z" />
    <glyph glyph-name="summation" unicode="&#x2211;" horiz-adv-x="751" 
d="M351 318l-250 361l3 79h517l15 -164h-75l-37 92l-267 7l246 -349l-273 -361l306 11l54 100l75 -16l-25 -166l-534 1l-5 60z" />
    <glyph glyph-name="minus" unicode="&#x2212;" horiz-adv-x="633" 
d="M88 456h456v-102h-456v102z" />
    <glyph glyph-name="radical" unicode="&#x221a;" horiz-adv-x="866" 
d="M60 283l88 63h134l140 -387h4l292 979h100l-344 -1111h-128l-179 428l-62 -45z" />
    <glyph glyph-name="infinity" unicode="&#x221e;" horiz-adv-x="1055" 
d="M763 527q96 1 159 -55t64 -142q1 -56 -34 -115t-91.5 -97.5t-112.5 -38.5q-126 0 -237 139q-116 -139 -215 -139q-95 -1 -159.5 55.5t-66.5 141.5q-1 56 34.5 115t92 97.5t111.5 38.5q71 0 126.5 -35.5t110.5 -103.5q120 139 218 139zM727 428q-61 0 -133 -94
q54 -67 101 -108t92 -41q34 0 54.5 35t18.5 79q-2 50 -43.5 89.5t-89.5 39.5zM273 420q-35 0 -57 -35t-20 -77q2 -50 45 -90.5t92 -40.5q61 0 130 96q-35 41 -47.5 54.5t-42 42t-53 39.5t-47.5 11z" />
    <glyph glyph-name="integral" unicode="&#x222b;" horiz-adv-x="582" 
d="M420 836q111 0 147 -71l-76 -61q-6 23 -28.5 42t-47.5 19q-54 0 -74 -38.5t-20 -114.5q0 -99 36.5 -289t36.5 -285q0 -113 -65 -190.5t-168 -77.5q-111 0 -146 71l74 64q7 -23 30 -41.5t47 -18.5q54 0 74.5 37.5t20.5 114.5q0 88 -38 283t-38 288q0 115 66 191.5
t169 76.5z" />
    <glyph glyph-name="approxequal" unicode="&#x2248;" horiz-adv-x="663" 
d="M84 503q11 39 66 75.5t103 36.5q42 0 92.5 -36.5t79.5 -36.5q48 0 106 49l44 -55q-13 -42 -64.5 -77.5t-102.5 -35.5q-43 0 -90.5 36.5t-83.5 36.5q-49 0 -106 -49zM86 246q11 39 65.5 75.5t103.5 36.5q42 0 92.5 -36.5t79.5 -36.5q48 0 106 49l44 -55
q-13 -42 -64.5 -77.5t-102.5 -35.5q-43 0 -90.5 36.5t-83.5 36.5q-31 0 -54 -12t-52 -37z" />
    <glyph glyph-name="notequal" unicode="&#x2260;" horiz-adv-x="633" 
d="M213 224h-125v101h160l41 143h-201v101h235l31 96h101l-31 -96h120v-101h-154l-42 -143h196v-101h-229l-35 -112h-101z" />
    <glyph glyph-name="lessequal" unicode="&#x2264;" horiz-adv-x="652" 
d="M90 505l473 200v-122l-293 -107l293 -106v-122l-473 199v58zM88 168h469v-101h-469v101z" />
    <glyph glyph-name="greaterequal" unicode="&#x2265;" horiz-adv-x="652" 
d="M90 370l293 106l-293 107v122l473 -200v-58l-473 -199v122zM88 168h469v-101h-469v101z" />
    <glyph glyph-name="lozenge" unicode="&#x25ca;" horiz-adv-x="663" 
d="M75 319v49l203 323h118l193 -319v-49l-204 -323h-119zM480 323l-159 271l-138 -226l158 -271z" />
    <glyph glyph-name="uni25CC" unicode="&#x25cc;" horiz-adv-x="769" 
d="M345 575q0 16 12 28.5t29 12.5q16 0 28.5 -12.5t12.5 -28.5q0 -17 -12.5 -29t-28.5 -12q-17 0 -29 12t-12 29zM218 543q0 17 12 29t28 12t28.5 -12t12.5 -29t-12.5 -29t-28.5 -12t-28 12t-12 29zM469 543q0 17 12.5 29t28.5 12q17 0 29 -12t12 -29t-12 -29t-29 -12
q-16 0 -28.5 12t-12.5 29zM124 450q0 17 12 29t29 12t29 -12.5t12 -28.5q0 -17 -12 -29t-29 -12t-29 12t-12 29zM564 450q0 16 12 28.5t29 12.5t29 -12t12 -29t-12 -29t-29 -12t-29 12t-12 29zM93 323q0 17 12 29t29 12t29 -12t12 -29t-12.5 -29t-28.5 -12q-17 0 -29 12
t-12 29zM596 323q0 17 12 29t28 12q17 0 29 -12t12 -29t-12 -29t-29 -12q-16 0 -28 12.5t-12 28.5zM124 197q0 17 12 28.5t29 11.5t29 -12t12 -28q0 -17 -12 -29t-29 -12t-29 12t-12 29zM564 197q0 16 12 28t29 12t29 -11.5t12 -28.5t-12 -29t-29 -12t-29 12t-12 29z
M218 102q0 16 12 28t28 12q17 0 29 -12t12 -28t-12.5 -28.5t-28.5 -12.5t-28 12t-12 29zM469 102q0 16 12 28t29 12t29 -11.5t12 -28.5t-12 -29t-29 -12q-16 0 -28.5 12.5t-12.5 28.5zM345 71q0 17 12 29t29 12q16 0 28.5 -12t12.5 -29q0 -16 -12.5 -28.5t-28.5 -12.5
q-17 0 -29 12t-12 29z" />
    <glyph glyph-name="uni093F0902" horiz-adv-x="311" 
d="M21 848q0 70 60.5 115.5t157.5 45.5q176 0 508 -284l-28 -38q-276 217 -431 215q-62 0 -102 -30t-40 -85q0 -60 36 -124h85l44 -82v-19h-95v-601h-21l-99 57v544h-102l-42 81v20h154q-85 107 -85 185zM811 930l101 -100l-101 -102l-102 101z" />
    <glyph glyph-name="uni093F0930094D" horiz-adv-x="311" 
d="M708 1076q54 0 106.5 -31t94.5 -85l-28 -39q-21 18 -58.5 34t-70.5 16t-55.5 -22t-22.5 -61q0 -57 38 -115q16 -28 34 -49l-27 -37q-276 217 -431 215q-62 0 -102 -30t-40 -85q0 -63 36 -124h85l44 -82v-19h-95v-601h-21l-99 57v544h-102l-42 81v20h154q-85 108 -85 185
q0 70 60.5 115.5t157.5 45.5q137 0 356 -163l2 1q-38 54 -39 101q1 61 47 94.5t103 33.5z" />
    <glyph glyph-name="uni093F0930094D0902" horiz-adv-x="311" 
d="M703 1072q76 0 130 -41l-18 -61q-38 17 -71 17q-35 0 -60.5 -25.5t-24.5 -74.5q1 -55 39 -108q18 -29 48 -55l-27 -37q-276 217 -431 215q-62 0 -102 -30t-40 -85q0 -63 36 -124h85l44 -82v-19h-95v-601h-21l-99 57v544h-102l-42 81v20h154q-85 108 -85 185
q0 70 60.5 115.5t157.5 45.5q136 0 353 -161l3 1q-36 54 -36 95q-1 57 43 92.5t101 35.5zM807 944l80 -80l-79 -80l-80 80z" />
    <glyph glyph-name="uni09400902" horiz-adv-x="307" 
d="M169 663h98l44 -82v-19h-95v-601h-21l-99 57v544h-102l-42 81v20h158q-22 46 -40 79.5t-45.5 74t-58 62.5t-61.5 22q-37 0 -57.5 -24.5t-20.5 -60.5q0 -51 34 -100v-2l-47 -23q-47 32 -80.5 76.5t-33.5 95.5q0 58 48 102.5t122 43.5q32 0 62.5 -13t53.5 -30.5t48 -49.5
t41 -57t36 -66.5t30.5 -65zM360 824l-101 -102l-102 101l102 102z" />
    <glyph glyph-name="uni09400930094D" horiz-adv-x="311" 
d="M-130 1009q92 0 170 -107q12 44 48.5 70t76.5 26q54 0 106.5 -31.5t94.5 -85.5l-28 -39q-22 18 -59 34t-70 16q-34 0 -57.5 -22.5t-24.5 -63.5q0 -58 47 -143h93l44 -82v-19h-95v-601h-21l-99 57v544h-102l-42 81v20h153q-109 238 -201 238q-36 0 -56.5 -24.5
t-20.5 -60.5q0 -51 34 -100v-2l-47 -23q-47 32 -80.5 76.5t-33.5 95.5q0 58 48 102.5t122 43.5z" />
    <glyph glyph-name="uni09400930094D0902" horiz-adv-x="307" 
d="M-130 1009q90 0 167 -103q15 41 51.5 66.5t81.5 25.5q75 0 129 -41l-18 -61q-38 17 -70 17q-34 0 -59 -25t-25 -75q0 -69 47 -150h93l44 -82v-19h-95v-601h-21l-99 57v544h-102l-42 81v20h153q-109 238 -201 238q-36 0 -56.5 -24.5t-20.5 -60.5q0 -51 34 -100v-2l-47 -23
q-47 32 -80.5 76.5t-33.5 95.5q0 58 48 102.5t122 43.5zM274 869l79 -79l-79 -80l-80 80z" />
    <glyph glyph-name="uni094B0902" horiz-adv-x="311" 
d="M171 663h96l44 -82v-19h-95v-601h-21l-99 57v544h-102l-42 81v20h161q-25 42 -42 64q-71 105 -100 132l-130 -43q-42 35 -42 95q0 41 25.5 64t60.5 23q67 0 119 -54.5t107 -159.5zM350 824l-101 -102l-102 101l102 102z" />
    <glyph glyph-name="uni094B0930094D" horiz-adv-x="311" 
d="M219 902q-34 0 -58 -23t-25 -64q0 -63 55 -152h76l44 -82v-19h-95v-601h-21l-99 57v544h-102l-42 81v20h163q-38 62 -46 74q-58 88 -106 132l-130 -43q-42 35 -42 95q0 41 25.5 64t60.5 23q87 0 163 -106q12 49 51.5 77t84.5 28q53 0 106 -31t94 -85l-28 -39
q-20 18 -57.5 34t-71.5 16z" />
    <glyph glyph-name="uni094B0930094D0902" horiz-adv-x="311" 
d="M221 923q-35 0 -60 -25.5t-25 -74.5q0 -71 55 -160h76l44 -82v-19h-95v-601h-21l-99 57v544h-102l-42 81v20h163q-38 62 -46 74q-58 88 -106 132l-130 -43q-42 35 -42 95q0 41 25.5 64t60.5 23q87 0 163 -106q12 47 51 76t89 29q77 0 129 -41l-18 -60q-38 17 -70 17z
M284 879l79 -79l-79 -80l-80 80z" />
    <glyph glyph-name="uni094C0902" horiz-adv-x="307" 
d="M199 663h68l44 -82v-19h-95v-601h-21l-99 57v544h-102l-42 81v20h116q-42 53 -77 92l-192 -21h-2q-24 29 -24 71q0 36 25 57t60 21q41 0 80.5 -20t74 -56.5t59 -68.5t51.5 -75h21q-16 43 -31 74q-33 70 -71.5 135t-60.5 85l-148 -27h-1q-23 28 -23 70q0 41 25.5 64
t61.5 23q40 0 78.5 -26t71 -73.5t57 -95t49.5 -108.5q26 -61 47 -121zM382 824l-101 -102l-102 101l102 102z" />
    <glyph glyph-name="uni094C0930094D" horiz-adv-x="311" 
d="M-114 1101q99 0 195 -176q17 42 54.5 64t75.5 22q103 0 187 -117l-29 -38q-21 17 -58 33.5t-70 16.5t-56.5 -22t-23.5 -62q0 -51 45 -159h61l44 -82v-19h-95v-601h-21l-99 57v544h-102l-42 81v20h121l-87 105l-194 -21q-25 28 -25 71q0 36 25 57t60 21q42 0 83.5 -21.5
t77 -59.5t61 -72.5t52.5 -79.5h16q-4 11 -44 96q-85 171 -129 211l-148 -26q-22 28 -22 70q0 41 25.5 64t61.5 23z" />
    <glyph glyph-name="uni094C0930094D0902" horiz-adv-x="311" 
d="M-114 1101q99 0 194 -173q14 38 48.5 60.5t77.5 22.5q75 0 129 -41l-18 -61q-38 17 -71 17q-34 0 -59.5 -25t-25.5 -74q0 -53 45 -164h61l44 -82v-19h-95v-601h-21l-99 57v544h-102l-42 81v20h121l-87 105l-194 -21q-25 28 -25 71q0 36 25 57t60 21q42 0 83.5 -21.5
t77 -59.5t61 -72.5t52.5 -79.5h17q-9 21 -45 96q-85 171 -129 211l-148 -26q-22 28 -22 70q0 41 25.5 64t61.5 23zM310 883l79 -79l-79 -81l-80 80z" />
    <glyph glyph-name="uni093F.0" horiz-adv-x="311" 
d="M187 997q49 0 97.5 -25t94 -72.5t76 -86.5t70.5 -97l-37 -26q-71 94 -130.5 147t-121.5 53q-40 0 -65 -27.5t-25 -75.5q0 -63 36 -124h85l44 -82v-19h-95v-601h-21l-99 57v544h-102l-42 81v20h154q-85 108 -85 185q0 64 46.5 106.5t119.5 42.5z" />
    <glyph glyph-name="uni093F0902.0" horiz-adv-x="311" 
d="M187 997q49 0 97.5 -25t94 -72.5t76 -86.5t70.5 -97l-37 -26q-71 94 -130.5 147t-121.5 53q-40 0 -65 -27.5t-25 -75.5q0 -63 36 -124h85l44 -82v-19h-95v-601h-21l-99 57v544h-102l-42 81v20h154q-85 108 -85 185q0 64 46.5 106.5t119.5 42.5zM600 930l100 -100
l-100 -102l-102 101z" />
    <glyph glyph-name="uni093F0930094D.0" horiz-adv-x="311" 
d="M485 1075q54 0 106.5 -31.5t93.5 -85.5l-27 -38q-21 18 -58.5 34t-70.5 16t-55.5 -21.5t-22.5 -58.5q0 -60 39 -123q6 -10 18.5 -27.5t15.5 -22.5l-37 -26q-73 95 -131 147t-120 52q-40 0 -65 -27.5t-25 -75.5q0 -63 36 -124h85l44 -82v-19h-95v-601h-21l-99 57v544h-102
l-42 81v20h154q-85 108 -85 185q0 64 46.5 106.5t119.5 42.5q79 0 167 -76l1 1q-4 20 -4 37q1 55 42 85.5t92 30.5z" />
    <glyph glyph-name="uni093F0930094D0902.0" horiz-adv-x="311" 
d="M483 1065q76 0 130 -41l-18 -60q-38 17 -70 17q-29 0 -50.5 -25t-20.5 -72q0 -60 48 -133l10 -15t12 -19l-37 -26q-73 95 -131 147t-120 52q-40 0 -65 -27.5t-25 -75.5q0 -63 36 -124h85l44 -82v-19h-95v-601h-21l-99 57v544h-102l-42 81v20h154q-85 108 -85 185
q0 64 46.5 106.5t119.5 42.5q80 0 170 -80l2 1q-4 18 -4 32q0 51 38.5 83t89.5 32zM590 939l82 -81l-82 -83l-82 82z" />
    <glyph glyph-name="uni093F.05" horiz-adv-x="311" 
d="M292 1009q250 0 640 -284l-28 -38q-150 101 -288.5 158.5t-274.5 56.5q-88 0 -140 -34.5t-52 -96.5q0 -55 32 -108h87l43 -82v-19h-95v-601h-21l-99 57v544h-102l-42 81v20h153q-81 95 -81 171t73 125.5t195 49.5z" />
    <glyph glyph-name="uni093F.10" horiz-adv-x="311" 
d="M295 1009q272 0 683 -284l-28 -38q-160 101 -308 158.5t-298 56.5q-90 0 -142.5 -34.5t-52.5 -96.5q0 -55 32 -108h87l43 -82v-19h-95v-601h-21l-99 57v544h-102l-42 81v20h153q-81 95 -81 171t73.5 125.5t197.5 49.5z" />
    <glyph glyph-name="uni093F0902.05" horiz-adv-x="311" 
d="M292 1009q250 0 640 -284l-28 -38q-150 101 -288.5 158.5t-274.5 56.5q-88 0 -140 -34.5t-52 -96.5q0 -55 32 -108h87l43 -82v-19h-95v-601h-21l-99 57v544h-102l-42 81v20h153q-81 95 -81 171t73 125.5t195 49.5zM994 930l101 -100l-101 -102l-101 101z" />
    <glyph glyph-name="uni093F0902.10" horiz-adv-x="311" 
d="M295 1009q272 0 683 -284l-28 -38q-160 101 -308 158.5t-298 56.5q-90 0 -142.5 -34.5t-52.5 -96.5q0 -55 32 -108h87l43 -82v-19h-95v-601h-21l-99 57v544h-102l-42 81v20h153q-81 95 -81 171t73.5 125.5t197.5 49.5zM1040 930l101 -100l-101 -102l-101 101z" />
    <glyph glyph-name="uni093F0930094D.05" horiz-adv-x="311" 
d="M894 1077q112 0 200 -116l-28 -39q-20 18 -57.5 34t-71.5 16q-33 0 -55.5 -21.5t-22.5 -60.5q0 -59 42 -122q12 -20 31 -43l-28 -38q-150 101 -288.5 158.5t-274.5 56.5q-88 0 -140 -34.5t-52 -96.5q0 -53 31 -108h88l43 -82v-19h-95v-601h-21l-99 57v544h-102l-42 81v20
h152q-80 96 -80 171q0 76 73 125.5t195 49.5q210 0 506 -192h1q-55 77 -55 132q1 61 47 94.5t103 33.5z" />
    <glyph glyph-name="uni093F0930094D.10" horiz-adv-x="311" 
d="M983 972q-33 0 -55.5 -21.5t-22.5 -60.5q0 -71 53 -137q4 -7 20 -28l-28 -38q-160 101 -308 158.5t-298 56.5q-90 0 -142.5 -34.5t-52.5 -96.5q0 -53 31 -108h88l43 -82v-19h-95v-601h-21l-99 57v544h-102l-42 81v20h152q-80 96 -80 171q0 76 73.5 125.5t197.5 49.5
q235 0 556 -202l1 1q-62 82 -62 141q0 61 46 94.5t103 33.5q113 0 201 -116l-28 -39q-20 18 -57.5 34t-71.5 16z" />
    <glyph glyph-name="uni093F0930094D0902.05" horiz-adv-x="311" 
d="M889 1072q76 0 129 -40l-18 -61q-38 17 -71 17q-34 0 -59.5 -25.5t-24.5 -74.5q0 -64 54 -129q15 -17 33 -34l-28 -38q-150 101 -288.5 158.5t-274.5 56.5q-88 0 -140 -34.5t-52 -96.5q0 -53 31 -108h88l43 -82v-19h-95v-601h-21l-99 57v544h-102l-42 81v20h152
q-80 96 -80 171q0 76 73 125.5t195 49.5q210 0 503 -190h1q-51 72 -51 126q-1 57 42.5 92t101.5 35zM993 945l79 -80l-79 -80l-80 80z" />
    <glyph glyph-name="uni093F0930094D0902.10" horiz-adv-x="311" 
d="M975 988q-34 0 -59.5 -25.5t-25.5 -74.5q1 -68 59 -133q16 -20 29 -30l-28 -38q-160 101 -308 158.5t-298 56.5q-90 0 -142.5 -34.5t-52.5 -96.5q0 -53 31 -108h88l43 -82v-19h-95v-601h-21l-99 57v544h-102l-42 81v20h152q-80 96 -80 171q0 76 73.5 125.5t197.5 49.5
q233 0 553 -199h1q-58 76 -59 135q0 57 43.5 92t101.5 35q76 0 129 -40l-18 -61q-38 17 -71 17zM1039 945l79 -80l-79 -80l-80 80z" />
    <glyph glyph-name="uni0940.02" horiz-adv-x="307" 
d="M-356 1019q57 -1 119.5 -25.5t113 -58.5t108.5 -87t95 -92.5l83 -92.5h104l44 -82v-19h-95v-601h-21l-99 57v544h-102l-42 81v20h138q-244 244 -408 245q-46 1 -73.5 -24.5t-27.5 -66.5q0 -52 34 -101v-2l-47 -23q-46 32 -80 77t-34 96q0 62 52 109t138 46z" />
    <glyph glyph-name="uni09400902.02" horiz-adv-x="307" 
d="M-356 1019q57 -1 119.5 -25.5t113 -58.5t108.5 -87t95 -92.5l83 -92.5h104l44 -82v-19h-95v-601h-21l-99 57v544h-102l-42 81v20h138q-244 244 -408 245q-46 1 -73.5 -24.5t-27.5 -66.5q0 -52 34 -101v-2l-47 -23q-46 32 -80 77t-34 96q0 62 52 109t138 46zM231 925
l101 -101l-100 -102l-102 101z" />
    <glyph glyph-name="uni09400930094D.02" horiz-adv-x="307" 
d="M-356 1019q158 -1 358 -186q-3 49 21 84q15 37 50 59t74 22q110 0 200 -117l-28 -39q-20 18 -57.5 34t-71.5 16q-33 0 -55 -21.5t-22 -60.5q0 -65 53 -147h101l44 -82v-19h-95v-601h-21l-99 57v544h-102l-42 81v20h138q-244 244 -408 245q-46 1 -73.5 -24.5t-27.5 -66.5
q0 -52 34 -101v-2l-47 -23q-46 32 -80 77t-34 96q0 62 52 109t138 46z" />
    <glyph glyph-name="uni09400930094D0902.02" horiz-adv-x="307" 
d="M-356 1019q157 -1 353 -182q-2 38 14 69q14 40 52.5 66t83.5 26q75 0 129 -41l-18 -61q-38 17 -70 17q-35 0 -60 -25.5t-24 -74.5q0 -63 63 -150h100l44 -82v-19h-95v-601h-21l-99 57v544h-102l-42 81v20h138q-244 244 -408 245q-46 1 -73.5 -24.5t-27.5 -66.5
q0 -52 34 -101v-2l-47 -23q-46 32 -80 77t-34 96q0 62 52 109t138 46zM251 869l79 -79l-79 -80l-80 80z" />
    <glyph glyph-name="uni0932.loclMAR" horiz-adv-x="785" 
d="M741 663l44 -82v-19h-198v-128q60 -22 107 -70t48 -101q1 -46 -17.5 -96.5t-35.5 -79t-48 -73.5l-105 60q113 145 114 221q-3 37 -27.5 54t-56.5 17q-37 0 -70.5 -36t-53.5 -81.5t-29 -90.5l-102 55q11 61 39 110q-46 38 -96 38q-42 0 -73 -30.5t-31 -79.5
q0 -132 168 -271l-31 -33q-248 166 -248 342q0 74 47.5 123t116.5 49q47 0 87 -23.5t86 -73.5q40 51 91 70v128h-473l-42 81v20h789z" />
    <glyph glyph-name="uni0936.loclMAR" horiz-adv-x="778" 
d="M740 663l44 -82v-19h-96v-601h-21l-99 57v544h-239v-64q56 -27 98.5 -87t42.5 -112q0 -54 -56.5 -108.5t-137.5 -73.5l106 -159l-89 -48l-68 200l-16 -1q-51 0 -94 25t-43 59t26.5 59t53.5 25q11 0 21 -4l43 -64q81 16 125 53.5t44 84.5q0 30 -22 52t-60 22
q-82 0 -191 -57l-52 103q86 34 149 44v51h-208l-42 81v20h781z" />
    <glyph glyph-name="uni091D.loclNEP" horiz-adv-x="1031" 
d="M174 673q44 -1 84.5 -16.5t71 -56t30.5 -98.5v-197h198v257h-147l-43 81v20h620l43 -82v-19h-354v-172q69 54 125 54q75 0 129.5 -58t54.5 -137q0 -97 -53 -210l-107 70q30 42 58.5 100t28.5 87q0 25 -18.5 40.5t-49.5 15.5q-69 0 -168 -87v-304h-20l-99 57v186h-200
q-12 -93 -84 -93q-44 -1 -71 39.5t-33 85.5q-8 38 -4 69h75v60q-85 35 -140.5 87t-55.5 114q0 52 36.5 80t92.5 27zM205 594q-23 0 -37.5 -15.5t-14.5 -46.5q0 -65 92 -110q11 70 11 106q0 27 -14 46.5t-37 19.5z" />
    <glyph glyph-name="uni0979.loclNEP" horiz-adv-x="726" 
d="M683 663l43 -82v-19h-433q34 -54 50 -94q51 14 106 14q82 0 154 -84.5t72 -171.5q0 -63 -39.5 -114.5t-106.5 -69.5l101 -151l-88 -45l-64 189q-21 0 -36 4q-48 3 -81.5 25t-33.5 51q0 34 26.5 59t53.5 25q6 0 21 -3l42 -65q73 17 100 51.5t26 88.5q-1 49 -32.5 82.5
t-79.5 33.5q-63 0 -114 -27v-14q0 -74 -47.5 -127t-129.5 -53q-75 0 -132 46l-28 80l14 16q44 -47 113 -47q38 0 66.5 24t28.5 84q0 44 -20.5 99.5t-50.5 93.5h-190l-42 81v20h731z" />
    <glyph glyph-name="uni0928.post" 
d="M-192 351l6 -71l-241 -146l53 -73q-41 -45 -99 -45q-46 0 -76 27.5t-30 67.5q0 62 97 114q45 25 139 65t151 61z" />
    <glyph glyph-name="uni092F.post" horiz-adv-x="837" 
d="M793 663l44 -82v-19h-96v-601h-20l-100 57l1 64l-3 2q-62 -39 -135 -39q-86 0 -156.5 56.5t-107.5 157.5q146 37 146 90q0 34 -52 34h-233v103h165q70 0 139.5 -59t68.5 -113q-2 -74 -121 -107q23 -64 103 -64q100 0 185 71v348h-627l-42 81v20h841z" />
    <glyph glyph-name="uni0930.post" 
d="M-191 331l2 -106l-264 -205l-73 81z" />
    <glyph glyph-name="uni0935.post" 
d="M-96 11v-455h-21l-99 56v50l-1 9q-66 -43 -125 -43t-107.5 42.5t-48.5 108.5q0 64 37.5 107.5t85.5 43.5q83 0 159 -83v152l16 56zM-331 -167q-51 0 -85 -25t-34 -55q0 -19 16.5 -29t43.5 -10q41 0 89 21.5t85 53.5v1q-45 43 -115 43z" />
    <glyph glyph-name="uni0915094D0915" horiz-adv-x="1494" 
d="M1494 562h-354v-174q67 54 124 54q76 0 130.5 -58t54.5 -137q0 -94 -52 -210l-108 70q30 41 58.5 99t28.5 88q0 26 -18.5 41t-49.5 15q-71 0 -168 -86v-303h-20l-105 59l11 148l-2 1q-89 -66 -162 -66q-79 0 -133.5 51.5t-54.5 141.5v8q-18 15 -43 15q-47 0 -117 -56
v-302h-20l-105 59l11 147l-4 1q-86 -65 -160 -65q-79 0 -133.5 51.5t-54.5 141.5q0 72 42 125t118 53q106 0 184 -125l1 213h-399l-42 81v20h674h824l44 -82v-19zM599 410q52 0 95 -23q42 87 140 87q107 0 184 -126l1 214h-350h-155v-180q42 28 85 28zM826 204q94 0 192 80
v5q-23 28 -65.5 51t-86.5 23q-52 0 -98 -24.5t-46 -66.5q0 -29 30.5 -48.5t73.5 -19.5zM200 204q93 0 192 79v5q-22 28 -65 51.5t-87 23.5q-52 0 -98 -24.5t-46 -66.5q0 -29 30.5 -48.5t73.5 -19.5z" />
    <glyph glyph-name="uni0915094D0924" horiz-adv-x="979" 
d="M625 562v-174q71 54 125 54q75 0 129.5 -58t54.5 -137q0 -93 -53 -211l-107 71q30 41 58.5 99t28.5 88q0 25 -18.5 40.5t-49.5 15.5q-69 0 -168 -87v-302h-20l-100 57v322h-139q-55 0 -84 -30t-29 -84q1 -98 152 -220l-39 -41q-45 34 -79 64.5t-70 71t-56 84.5t-20 87
q0 34 17 68h-98l-42 82v20h487v120h-511l-42 81v20h983l44 -82v-19h-354z" />
    <glyph glyph-name="uni0915094D0930" horiz-adv-x="868" 
d="M868 562h-354v-174q69 54 124 54q76 0 130.5 -58t54.5 -137q0 -94 -52 -210l-108 70q30 41 58.5 99t28.5 88q0 26 -18.5 41t-49.5 15q-71 0 -168 -86v-303h-20l-105 59l11 149l-3 1q-3 -3 -5 -4l-276 -243l-81 91l144 99q-59 16 -95 64t-36 119q0 72 42 125t118 53
q106 0 184 -125l1 213h-399l-42 81v20h872l44 -82v-19zM96 272q0 -29 30.5 -48.5t73.5 -19.5q93 0 192 79v6q-22 28 -65 51t-87 23q-52 0 -98 -24.5t-46 -66.5z" />
    <glyph glyph-name="uni0915094D0932" horiz-adv-x="1421" 
d="M1421 581v-19h-96v-601h-20l-100 57v336q-13 8 -27 8q-49 0 -89.5 -62.5t-56.5 -133.5l-102 61q10 51 39 103q-43 31 -89 31q-44 0 -74 -31.5t-30 -78.5q0 -132 168 -271l-31 -33q-248 166 -248 342q0 14 1 20q-17 10 -35 10q-47 0 -117 -56v-302h-20l-105 59l11 147
l-4 1q-86 -65 -160 -65q-79 0 -133.5 51.5t-54.5 141.5q0 72 42 125t118 53q106 0 184 -125l1 213h-399l-42 81v20h674h750zM1205 404v158h-536h-155v-180q42 28 85 28q54 0 94 -23q48 72 136 74q46 0 84.5 -21.5t84.5 -68.5q61 73 140 73q32 0 67 -40zM200 204q93 0 192 79
v5q-22 28 -65 51.5t-87 23.5q-52 0 -98 -24.5t-46 -66.5q0 -29 30.5 -48.5t73.5 -19.5z" />
    <glyph glyph-name="uni0915094D0935" horiz-adv-x="1290" 
d="M1246 663l44 -82v-19h-96v-601h-20l-105 59l7 137l-4 2q-105 -74 -191 -74q-78 0 -141 53t-63 143q0 14 1 21q-23 17 -47 17q-47 0 -117 -56v-302h-20l-105 59l11 147l-4 1q-86 -65 -160 -65q-79 0 -133.5 51.5t-54.5 141.5q0 72 42 125t118 53q106 0 184 -125l1 213
h-399l-42 81v20h674h620zM599 410q55 0 99 -26q24 53 70 82.5t100 29.5q102 0 204 -126h2v192h-405h-155v-180q42 28 85 28zM839 179q57 0 123.5 35.5t111.5 82.5v2q-30 36 -74 62t-82 26q-79 0 -135.5 -41t-56.5 -87q0 -35 30.5 -57.5t82.5 -22.5zM200 204q93 0 192 79v5
q-22 28 -65 51.5t-87 23.5q-52 0 -98 -24.5t-46 -66.5q0 -29 30.5 -48.5t73.5 -19.5z" />
    <glyph glyph-name="uni0915094D0937" horiz-adv-x="826" 
d="M826 562h-94v-601h-21l-99 57v221q-45 -17 -90 -17q-53 0 -100.5 19t-105.5 67q-16 -9 -56.5 -29t-58 -30t-34.5 -30.5t-17 -44.5q0 -41 25.5 -69t59.5 -28q39 0 82 17l-31 71q36 34 86 34q41 0 63.5 -23.5t22.5 -57.5q-1 -53 -57 -90l107 -146l-81 -42l-72 166
q-33 -10 -63 -10q-82 0 -164.5 75t-82.5 159q0 22 11.5 41t35.5 36.5t46 30t57 30.5q7 3 10 5q-136 71 -136 149q0 71 52 112t124 41q52 0 121.5 -67t69.5 -124q0 -92 -79 -150q40 -13 113 -13q84 0 142 42v199h-131l-42 81v20h343l44 -82v-19zM174 494q0 -20 21 -49t54 -49
q107 58 107 119q0 22 -25.5 43t-48.5 21q-42 0 -75 -22t-33 -63z" />
    <glyph glyph-name="uni0915094D0937094D" horiz-adv-x="534" 
d="M245 675q52 0 121.5 -67t69.5 -124q0 -93 -83 -153q62 -31 117 -31q98 0 153 40l8 -117q-48 -22 -109 -22q-96 0 -209 105q-16 -9 -45.5 -23t-46 -23t-35.5 -22.5t-27.5 -29t-8.5 -34.5q0 -41 25.5 -69t59.5 -28q39 0 82 17l-31 71q36 34 86 34q41 0 63.5 -23.5
t22.5 -57.5q-1 -53 -57 -90l107 -146l-81 -42l-72 166q-33 -10 -63 -10q-82 0 -164.5 75t-82.5 159q0 22 11.5 41t35.5 36.5t46 30t57 30.5q7 3 10 5q-62 32 -99 71t-37 78q0 71 52 112t124 41zM557 663l44 -82v-19h-120l-42 81v20h118zM282 579q-42 0 -75 -22t-33 -63
q0 -20 21.5 -49t53.5 -49q107 58 107 119q0 22 -25.5 43t-48.5 21z" />
    <glyph glyph-name="uni0915094D0937094D0930" horiz-adv-x="953" 
d="M245 675q52 0 121.5 -67t69.5 -124q0 -88 -69 -141q71 -17 154 -17q109 0 218 62v174h-141l-41 81v20h352l44 -82v-19h-94v-601h-21l-100 57l7 112l-2 1l-165 -128l-69 75l230 162v22l-1 1q-82 -37 -166 -37q-121 0 -249 86q-19 -11 -59 -30.5t-59.5 -30.5t-37 -32
t-17.5 -45q0 -41 25.5 -69t59.5 -28q39 0 82 17l-31 71q36 34 86 34q41 0 63.5 -23.5t22.5 -57.5q-1 -53 -57 -90l107 -146l-81 -42l-72 166q-33 -10 -63 -10q-82 0 -164.5 75t-82.5 159q0 22 11.5 41t35.5 36.5t46 30t57 30.5q7 3 10 5q-62 32 -99 71t-37 78q0 71 52 112
t124 41zM282 579q-42 0 -75 -22t-33 -63q0 -20 21.5 -49t53.5 -49q107 58 107 119q0 22 -25.5 43t-48.5 21z" />
    <glyph glyph-name="uni0915094D0072" horiz-adv-x="626" 
d="M626 663l43 -82v-19h-155v-180q46 29 85 29q88 0 149 -68l-47 -63q-34 39 -70 39q-50 0 -117 -56v-302h-20l-105 59l11 149l-3 1l-281 -247l-81 91l145 100q-59 16 -96 63.5t-37 118.5q0 72 42.5 125t118.5 53q105 0 184 -125h1v213h-399l-42 81v20h674zM240 363
q-52 0 -98 -24.5t-46 -66.5q0 -29 30.5 -48.5t72.5 -19.5q90 0 193 80v4q-21 27 -64 51t-88 24z" />
    <glyph glyph-name="uni0916094D0930" horiz-adv-x="874" 
d="M830 663l44 -82v-19h-95v-601h-21l-100 57l3 43l-2 2l-395 -199l-77 85l131 57q-91 47 -202 183q-6 8 -19 24t-17.5 22l-13.5 18t-12 18l-7.5 15t-6 16t-1.5 15q0 22 17.5 44.5t35.5 33.5l57 -35q22 34 22 101q0 40 -7 101h-170l-42 81v20h878zM659 562h-389
q15 -88 15 -155q0 -105 -110 -207q35 -44 94.5 -85t123.5 -41q63 0 140.5 31.5t128.5 77.5v46l-3 1q-84 -66 -143 -66q-70 0 -123.5 50.5t-53.5 126.5t48.5 122.5t119.5 46.5q24 0 46.5 -8t43 -24.5t32 -27.5t28.5 -30h2v142zM533 409q-61 0 -103.5 -28.5t-42.5 -66.5
q0 -21 27 -38t69 -17t90 27.5t85 70.5v2q-47 50 -125 50z" />
    <glyph glyph-name="uni0916094D0072" horiz-adv-x="610" 
d="M610 663l43 -82v-19h-384q16 -83 16 -154q0 -106 -110 -208q35 -44 94.5 -85t123.5 -41q54 0 121.5 24.5t122.5 63.5l45 -88l-418 -210l-77 85l131 57q-86 44 -202 184l-15 18.5l-14 17.5l-12 15.5t-11 15l-8.5 12.5t-7.5 13l-4.5 11.5t-3.5 12t-1 11.5q0 23 17 45t36 33
l57 -35q22 36 22 101q0 45 -8 101h-169l-42 81v20h658zM507 512q72 0 125.5 -51.5t53.5 -128.5q0 -62 -48.5 -113.5t-121.5 -51.5q-69 0 -123 51t-54 127q0 74 48.5 120.5t119.5 46.5zM534 413q-62 0 -104.5 -28.5t-42.5 -66.5q0 -22 27 -38.5t70 -16.5q48 0 100 29.5
t52 67.5q0 24 -32 38.5t-70 14.5z" />
    <glyph glyph-name="uni0917094D0928" horiz-adv-x="649" 
d="M607 663l45 -82v-19h-96v-601h-21l-101 57v177l-158 -133l57 -67q-42 -49 -101 -49q-45 0 -71.5 29.5t-26.5 65.5q0 58 85 112q87 57 215 127l1 282h-205q22 -143 22 -209q0 -120 -100 -120q-54 0 -84 44t-30 87q0 30 6 49l98 -13v162h-148l-42 81v20h655z" />
    <glyph glyph-name="uni0917094D0930" horiz-adv-x="652" 
d="M607 663l45 -82v-19h-96v-601h-21l-101 57l1 153l-2 1l-245 -207l-70 84l317 248v265h-204q19 -131 19 -210q0 -119 -98 -119q-54 0 -84 43.5t-30 87.5q0 30 6 49l98 -13l3 162h-151l-42 81v20h655z" />
    <glyph glyph-name="uni0917094D0072" horiz-adv-x="316" 
d="M250 335q0 -119 -98 -119q-54 0 -84 44t-30 87q0 29 6 49l98 -13l3 179h-151l-42 81v20h364l45 -82v-19h-131q20 -160 20 -227zM405 274l29 -100l-246 -209l-70 84z" />
    <glyph glyph-name="uni0918094D0930" horiz-adv-x="675" 
d="M640 663l43 -82v-19h-96v-601h-20l-102 57l4 135l-2 1l-256 -231l-82 88l112 86q-43 12 -80 44q-70 66 -70 120q0 41 19 79t51 63q-66 27 -98 53.5t-33 70.5q0 15 3 35h-39l-42 81v20h688zM467 562h-308q-22 -22 -22 -58q2 -22 28 -41t55 -28q22 9 44 9q67 0 93 -13
l16 -77l-10 -23q-30 9 -58 9q-61 0 -99.5 -34.5t-38.5 -72.5q0 -24 26.5 -37.5t54.5 -13.5q51 0 114.5 33.5t104.5 76.5v270z" />
    <glyph glyph-name="uni0918094D0072" horiz-adv-x="448" 
d="M448 663l43 -82v-19h-332q-22 -24 -22 -58q1 -22 27.5 -41t55.5 -28q22 9 44 9q67 0 93 -13l16 -77l-10 -23q-30 9 -58 9q-61 0 -99.5 -34.5t-38.5 -72.5q0 -27 26.5 -44t56.5 -17q69 0 146 40t121 92l47 -104l-353 -277l-82 88l133 80q-62 11 -112 61q-59 61 -59 109
q0 84 70 142q-65 27 -97.5 53.5t-33.5 70.5q0 14 3 35h-39l-42 81v20h496z" />
    <glyph glyph-name="uni0919094D0915" horiz-adv-x="725" 
d="M381 -287l-81 45v80l-2 2q-57 -40 -111 -40q-64 0 -106.5 46.5t-42.5 113.5q0 52 34 92t77 40q42 0 82 -23t68 -59l1 100q-142 34 -280 203l37 37q76 -90 135.5 -123.5t127.5 -33.5q57 0 106.5 18t50.5 41q0 27 -22 47q-26 -4 -96 -21t-100 -17q-38 0 -94 47t-56 90
q0 105 108 105h141v59h-365l-41 81v20h729l44 -82v-19h-261v-145h-221q-56 0 -56 -30q0 -16 10.5 -29t20.5 -13q28 0 100 19t92 19q42 0 85 -51.5t44 -102.5q0 -44 -37.5 -80t-99.5 -45v-69q51 37 100 37t87.5 -42.5t38.5 -105.5q0 -61 -48 -161l-84 54q2 3 11 14t12.5 16
t11.5 15.5t12 16.5l10.5 16t10 17t7 15.5t5 16t1.5 14.5q0 36 -39 36q-54 0 -136 -68v-213h-21zM634 291l-101 101l101 102l101 -101zM147 -112q75 0 152 61q-46 48 -108 48q-44 0 -75 -18t-31 -48q0 -43 62 -43z" />
    <glyph glyph-name="uni0919094D0915094D" horiz-adv-x="725" 
d="M681 663l44 -82v-19h-261v-145h-221q-56 0 -56 -30q0 -16 10.5 -29t20.5 -13q28 0 100 19t92 19q42 0 85 -51.5t44 -102.5q0 -45 -37.5 -80t-99.5 -45v-81q46 35 93 35q72 0 129 -63l-43 -55q-35 35 -67 35q-51 0 -112 -59v-203h-21l-81 45v80l-2 2q-57 -40 -111 -40
q-64 0 -106.5 46.5t-42.5 113.5q0 52 34 92t77 40q86 0 150 -83v100q-141 34 -279 204l37 37q76 -90 135.5 -123.5t127.5 -33.5q57 0 106.5 18t50.5 41q0 27 -22 47q-26 -4 -96 -21t-100 -17q-38 0 -94 47t-56 90q0 105 108 105h141v59h-365l-41 81v20h729zM611 314l-55 102
l102 54l53 -101zM147 -112q76 0 151 61v1q-45 47 -107 47q-44 0 -75 -18.5t-31 -47.5q0 -43 62 -43z" />
    <glyph glyph-name="uni0919094D0915094D0937" horiz-adv-x="725" 
d="M410 383q42 0 85 -51.5t44 -102.5q0 -39 -28 -70v-447h-21l-82 46v158q-40 -21 -73 -21q-57 0 -162 49q-25 -10 -36.5 -15.5t-28 -16.5t-23.5 -24t-7 -29q0 -12 15.5 -22t39.5 -10q28 0 61 11l-18 41q23 17 53 17q32 0 52 -17.5t20 -44.5q-1 -28 -36 -52l61 -87l-59 -28
l-41 96q-29 -10 -55 -10q-49 0 -115 46.5t-66 98.5q0 21 17.5 38.5t36.5 26.5t53 22q-88 56 -88 99q0 37 39 66.5t82 29.5q19 0 46 -15q-76 51 -156 148l37 37q76 -90 135.5 -123.5t127.5 -33.5q57 0 106.5 18t50.5 41q0 27 -22 47q-26 -4 -96 -21t-100 -17q-38 0 -94 47
t-56 90q0 105 108 105h141v59h-365l-41 81v20h729l44 -82v-19h-261v-145h-221q-56 0 -56 -30q0 -16 10.5 -29t20.5 -13q28 0 100 19t92 19zM634 494l101 -101l-101 -102l-101 101zM408 15v90q-19 -4 -46 -4q-80 0 -164 51q31 -23 52 -53t21 -58q0 -38 -38 -66q25 -3 53 -3
q60 0 122 43zM138 2q59 29 59 62q0 20 -11 30.5t-26 11.5q-29 0 -47 -13t-18 -32q0 -34 43 -59z" />
    <glyph glyph-name="uni0919094D0916" horiz-adv-x="725" 
d="M681 663l44 -82v-19h-261v-145h-221q-56 0 -56 -30q0 -16 10.5 -29t20.5 -13q28 0 100 19t92 19q42 0 85 -51.5t44 -102.5q0 -27 -13 -49v-467h-21l-81 45v27q-77 -40 -139 -40q-43 0 -101.5 41.5t-98.5 83.5q-25 25 -36.5 38.5t-22.5 32t-11 34.5q0 33 32 55h2l44 -29
q26 31 26 62q0 69 -28 176q-42 40 -71 74l37 37q76 -90 135.5 -123.5t127.5 -33.5q57 0 106.5 18t50.5 41q0 27 -22 47q-26 -4 -96 -21t-100 -17q-38 0 -94 47t-56 90q0 105 108 105h141v59h-365l-41 81v20h729zM634 494l101 -101l-101 -102l-101 101zM181 164
q17 -89 17 -138q0 -66 -72 -138q76 -70 153 -70q67 0 145 52v34q-48 -40 -86 -40q-39 0 -77 36.5t-38 78.5q0 44 30 75.5t72 31.5q39 0 99 -42v64q-33 -7 -62 -7q-88 0 -181 63zM360 11q-38 0 -63.5 -20t-25.5 -40q0 -18 30 -18q53 0 121 53v2q-30 23 -62 23z" />
    <glyph glyph-name="uni0919094D0917" horiz-adv-x="725" 
d="M410 383q42 0 85 -51.5t44 -102.5q0 -63 -67 -102v-414h-21l-81 45v343h-8q-65 0 -131 33q18 -112 18 -170q0 -109 -80 -109q-53 0 -82.5 39.5t-29.5 78.5q0 18 6 44l92 -16v180q-67 49 -135 132l37 37q76 -90 135.5 -123.5t127.5 -33.5q57 0 106.5 18t50.5 41
q0 27 -22 47q-26 -4 -96 -21t-100 -17q-38 0 -94 47t-56 90q0 105 108 105h141v59h-365l-41 81v20h729l44 -82v-19h-261v-145h-221q-56 0 -56 -30q0 -16 10.5 -29t20.5 -13q28 0 100 19t92 19zM634 494l101 -101l-101 -102l-101 101z" />
    <glyph glyph-name="uni0919094D0918" horiz-adv-x="725" 
d="M681 663l44 -82v-19h-261v-145h-221q-56 0 -56 -30q0 -16 10.5 -29t20.5 -13q28 0 100 19t92 19q42 0 85 -51.5t44 -102.5q0 -48 -42 -84v-432h-21l-81 45v73q-63 -43 -115 -43q-44 0 -107 45q-74 53 -74 101q0 57 61 96q-50 21 -78 44t-28 58q0 48 47 94q-35 32 -81 87
l37 37q76 -90 135.5 -123.5t127.5 -33.5q57 0 106.5 18t50.5 41q0 27 -22 47q-26 -4 -96 -21t-100 -17q-38 0 -94 47t-56 90q0 105 108 105h141v59h-365l-41 81v20h729zM634 494l101 -101l-101 -102l-101 101zM178 164q-26 -23 -26 -56q0 -21 17 -35.5t38 -18.5q21 8 37 8
q29 0 68 -15l23 -55l-10 -25q-58 8 -62 8q-34 0 -61 -23.5t-27 -44.5q0 -16 16.5 -24t36.5 -8q34 0 82 23t85 57v148q-20 -2 -33 -2q-90 0 -184 63z" />
    <glyph glyph-name="uni0919094D092E" horiz-adv-x="998" 
d="M954 663l44 -82v-19h-96v-849h-20l-99 56v163h-267q-14 -79 -78 -79q-46 -1 -76 37t-35 80q-5 34 0 63h75v69q-9 -1 -28 -1q-170 2 -342 212l37 37q75 -90 134.5 -123.5t127.5 -33.5q57 0 107 18t51 41q0 27 -22 47q-26 -4 -96 -21t-100 -17q-38 0 -94 47t-56 90
q0 105 108 105h141v59h-365l-42 81v20h991zM783 562h-307v-145h-221q-56 0 -56 -30q0 -16 10 -29t20 -13q29 0 101.5 19t91.5 19q42 0 85 -51.5t44 -102.5q0 -40 -31 -71v-125h263v529zM644 467l88 -88l-87 -89l-89 88z" />
    <glyph glyph-name="uni0919094D0930" horiz-adv-x="764" 
d="M722 663l42 -82v-19h-284v-189h-250q-71 0 -71 -62q0 -18 11.5 -38t23.5 -20q44 0 115 23t101 23q45 0 87 -60t42 -126q-1 -81 -40.5 -128t-110.5 -48l103 -99l-56 -44l-144 145l-181 -142l-79 73l182 116q-96 52 -193 159l37 36q74 -78 138.5 -109.5t141.5 -31.5
q56 0 102.5 24t46.5 71q0 17 -11.5 35t-29.5 25q-37 -1 -100.5 -23t-100.5 -22q-42 1 -99.5 62.5t-57.5 126.5q0 72 30.5 104.5t79.5 32.5h164v86h-368l-41 81v20h770zM553 322l101 101l101 -101l-101 -102z" />
    <glyph glyph-name="uni091A094D091A" horiz-adv-x="971" 
d="M927 663l44 -82v-19h-96v-600h-20l-106 58l8 107l-2 1q-73 -52 -142 -52q-62 0 -116 44q-11 8 -22 21q-91 -65 -168 -65q-76 0 -138 65q-59 61 -59 118q0 41 21 83l-3 1h-76l-42 81v20h658l43 -82v-19h-128q-37 -17 -61.5 -49.5t-24.5 -64.5q0 -29 18.5 -46.5t43.5 -17.5
q46 0 101.5 29.5t94.5 65.5v302h-761l-42 81v20h975zM432 343h-156q-37 -17 -61.5 -49.5t-24.5 -64.5q0 -29 19 -46.5t44 -17.5q74 0 166 69q-3 12 -3 25q0 41 21 83z" />
    <glyph glyph-name="uni091A094D0930" horiz-adv-x="669" 
d="M625 663l44 -82v-19h-96v-601h-20l-106 59l8 106l-2 2l-242 -199l-83 89l107 76q-32 16 -62 46q-59 63 -59 119q0 39 20 83h-78l-42 81v21h352l43 -82v-20h-129q-36 -17 -60.5 -49t-24.5 -64q0 -29 18.5 -46.5t43.5 -17.5q46 0 101.5 29.5t94.5 65.5v302h-459l-42 81v20
h673z" />
    <glyph glyph-name="uni091B094D0930" horiz-adv-x="836" 
d="M836 562h-220v-99q51 -22 83 -66t33 -108q0 -56 -39 -123q103 -54 103 -144q0 -37 -17 -91.5t-38 -95.5l-109 80q95 90 95 140q1 33 -64 67q-51 -65 -124 -110.5t-146 -52.5l178 -173l-55 -44l-144 145l-181 -142l-80 74l223 141q-81 13 -147.5 76t-66.5 111q0 52 29 92
q-61 35 -80 57q-27 29 -27 66q0 54 42.5 88t104.5 34q56 0 81 -16l33 -90q-47 21 -92 21q-28 0 -46 -18.5t-18 -50.5q0 -34 39 -53q34 26 72 26q41 0 81 -7l31 -82l-10 -24q-30 9 -64 9q-44 0 -71 -24.5t-27 -51.5q0 -26 31.5 -48t69.5 -22q64 0 136.5 32t123.5 85
q-74 36 -123 90.5t-49 117.5q0 47 30.5 73t78.5 32v79h-502l-42 81v20h840l44 -82v-19zM592 212q36 56 36 113q0 35 -22.5 57.5t-55.5 22.5q-24 0 -39.5 -16t-15.5 -45q0 -41 27.5 -77t69.5 -55z" />
    <glyph glyph-name="uni091B094D0935" horiz-adv-x="781" 
d="M737 663l44 -82v-19h-185v-48q98 -54 98 -169q-1 -48 -39 -96q49 -21 73.5 -52.5t24.5 -89.5t-35 -123l-99 65q64 54 65 92q1 23 -16 37.5t-52 29.5q-8 -7 -26 -21v-474h-21l-81 45v68q-61 -37 -117 -37q-59 0 -102 40t-43 107q0 57 34 96t77 39t83 -23.5t68 -57.5v138
q-85 -34 -162 -33q-59 1 -132 60.5t-73 103.5q0 25 12 46q-90 50 -90 114q0 46 41.5 75.5t102.5 29.5q50 0 79 -16l33 -90q-40 21 -90 21q-27 0 -44 -14t-17 -38q0 -21 18 -41q40 33 91 35q39 0 78 -7l31 -65l-10 -24q-29 10 -61 10q-45 -3 -70 -19t-25 -40q0 -22 23 -35
t64 -13q55 0 116.5 18t109.5 50q-53 33 -87.5 77t-33.5 90q0 48 27 76t72 34v29h-497l-42 81v20h785zM538 456q-22 0 -37 -15t-15 -43q0 -29 20.5 -57.5t50.5 -48.5q43 43 43 93q0 31 -18 51t-44 20zM379 -24q-46 0 -76 -20.5t-30 -46.5q0 -18 16 -28t38 -10q73 0 162 66
q-44 39 -110 39z" />
    <glyph glyph-name="uni091C094D091E094D" horiz-adv-x="534" 
d="M568 581v-19h-575l-41 81v20h572zM216 388q-67 0 -67 -61q0 -13 10 -26.5t19 -13.5q38 0 90.5 15.5t74.5 15.5q41 0 77 -59.5t36 -126.5q0 -66 -57.5 -113t-131.5 -53l88 -131l-85 -44l-59 177q-66 9 -109.5 40.5t-43.5 70.5q0 32 23.5 51.5t49.5 19.5q8 0 14 -2l55 -81
q80 1 143 25.5t63 63.5q0 21 -10 40t-22 26q-12 -1 -64 -19t-76 -18q-38 0 -96 57t-58 113q0 70 29 103t77 33h498v-103h-468z" />
    <glyph glyph-name="uni091C094D091C" horiz-adv-x="1033" 
d="M989 663l44 -82v-19h-96v-601h-20l-99 57v333h-185q91 -87 91 -163q0 -69 -39.5 -110.5t-98.5 -41.5q-102 0 -178 111q-41 -49 -112 -49q-54 0 -101.5 30t-81 80t-57 105.5t-37.5 117.5l45 15q79 -237 207 -237q37 0 61 16t24 45q0 68 -103 141l19 42h546v109h-824
l-42 81v20h1037zM557 351h-171q51 -59 51 -114v-13q55 -77 124 -77q37 0 60 20t23 54q0 58 -87 130z" />
    <glyph glyph-name="uni091C094D091C094D" horiz-adv-x="764" 
d="M764 663l44 -82v-19h-814l-42 81v20h812zM64 440q79 -236 207 -236q38 0 61.5 15.5t23.5 45.5q0 26 -23 52t-73 64l18 40h681l-75 -99h-243q83 -80 83 -149q0 -65 -39.5 -104t-98.5 -39q-102 0 -178 112q-41 -50 -112 -50q-54 0 -101.5 30t-81 80t-57 106t-37.5 118z
M565 322h-169q41 -44 41 -90v-13q54 -77 124 -77q35 0 59 16.5t24 47.5q0 53 -79 116z" />
    <glyph glyph-name="uni091C094D091E" horiz-adv-x="707" 
d="M707 581v-19h-94v-601h-21l-99 57v354h-223v-4q61 -47 96.5 -92t35.5 -99q0 -58 -47.5 -101.5t-115.5 -53.5l90 -133l-86 -44l-58 175q-64 5 -109.5 38t-44.5 75q1 32 24.5 51t48.5 19q9 0 15 -2l54 -80q63 0 97.5 27t34.5 71q0 88 -208 204l19 50h377v89h-500l-41 81v20
h711z" />
    <glyph glyph-name="uni091C094D091E094D.1" horiz-adv-x="457" 
d="M500 581v-19h-507l-41 81v20h505zM579 372h-309v-4q61 -47 96.5 -92t35.5 -99q0 -58 -47.5 -101.5t-115.5 -53.5l90 -133l-86 -44l-58 175q-64 5 -109.5 38t-44.5 75q1 32 24.5 51t48.5 19q9 0 15 -2l54 -80q63 0 97.5 27t34.5 71q0 88 -208 204l19 50h463v-101z" />
    <glyph glyph-name="uni091C094D091E094D0930" horiz-adv-x="837" 
d="M793 663l44 -82v-19h-94v-601h-21l-99 57l4 63l-115 -108l-61 72l172 148v195h-407q-67 0 -67 -61q0 -13 10 -26.5t19 -13.5q38 0 90.5 15.5t74.5 15.5q41 0 77 -59.5t36 -126.5q0 -66 -57.5 -113t-131.5 -53l88 -131l-85 -44l-59 177q-66 9 -109.5 40.5t-43.5 70.5
q0 32 23.5 51.5t49.5 19.5q8 0 14 -2l55 -81q80 1 143 25.5t63 63.5q0 21 -10 40t-22 26q-12 -1 -64 -19t-76 -18q-38 0 -96 57t-58 113q0 70 29 103t77 33h437v71h-630l-41 81v20h841z" />
    <glyph glyph-name="uni091C094D0930" horiz-adv-x="779" 
d="M735 663l44 -82v-19h-96v-601h-20l-100 57l3 138l-2 1l-235 -237l-75 81l309 288v94h-199q50 -58 50 -114t-36.5 -93t-95.5 -37q-67 0 -123.5 48t-89 114t-52.5 145l45 15q31 -90 79.5 -150t115.5 -60q76 0 76 57q0 29 -34 67.5t-73 64.5l18 42h319v80h-569l-42 81v20
h783z" />
    <glyph glyph-name="uni091D094D0930" horiz-adv-x="943" 
d="M899 663l44 -82v-19h-94v-600h-20l-100 56l3 79l-3 2l-169 -139l-71 77l240 163v27q-71 -42 -137 -42t-150 33h-2q16 -42 16 -86q0 -67 -57.5 -113.5t-131.5 -52.5l88 -131l-85 -44l-60 177q-65 9 -108.5 40.5t-43.5 70.5q0 32 23.5 51.5t49.5 19.5q8 0 14 -2l55 -81
q80 1 143 25.5t63 63.5q0 21 -10 40t-22 26q-12 -1 -64 -19t-76 -18q-38 0 -96 57t-58 113q0 136 106 136h109v71h-302l-41 81v20h947zM729 562h-313v-174h-200q-67 0 -67 -60q0 -13 10 -27t19 -14q38 0 90.5 16t74.5 16q17 0 36 -14q75 -15 158 -15q98 0 192 65v207z" />
    <glyph glyph-name="uni091E094D091A" horiz-adv-x="775" 
d="M731 663l44 -82v-19h-97v-607h-20l-100 56v53l-1 2q-41 -50 -102.5 -86.5t-105.5 -36.5q-33 0 -69 9.5t-65.5 32.5t-29.5 54q0 17 16 51l-65 -18l-54 59l-2 20l280 75l53 -59l6 -20l-74 -19q-30 -11 -52 -42t-22 -54q0 -26 42 -26q48 0 127 73t118 146v104h-44h-30h-3
q-16 -39 -56 -64.5t-95 -26.5q-82 0 -153 51t-143 135l35 30q64 -61 115.5 -89.5t111.5 -27.5q46 1 76 20t30 41t-16.5 36.5t-42.5 14.5q-34 0 -86 -38l-72 81q22 18 52 30.5t53 12.5q50 0 106 -34t80 -81h38h44v142h-565l-41 81v20h779z" />
    <glyph glyph-name="uni091E094D091C" horiz-adv-x="775" 
d="M731 663l44 -82v-19h-97v-607h-20l-100 56v148l-195 -52q55 -35 55 -88q0 -46 -45 -74.5t-97 -28.5q-71 0 -140.5 51.5t-121.5 115.5l39 28q93 -101 185 -101q25 0 51 11t26 30q0 16 -8 27.5t-25.5 20t-27.5 12t-31 9.5q-5 1 -7 2l6 44l336 88v75h-39h-33h-5
q-16 -39 -56 -64.5t-95 -26.5q-82 0 -153 51t-143 135l35 30q64 -61 115.5 -89.5t111.5 -27.5q46 1 76 20t30 41t-16.5 36.5t-42.5 14.5q-34 0 -86 -38l-72 81q22 18 52 30.5t53 12.5q50 0 106 -34t80 -81h40h42v142h-565l-41 81v20h779z" />
    <glyph glyph-name="uni091E094D0930" horiz-adv-x="812" 
d="M771 663l43 -82v-19h-96v-607h-21l-99 56v102l-2 1l-238 -160l-69 84l309 188v60h-2q-19 -12 -39 -12q-25 0 -70 32h-1q-6 -62 -49 -103.5t-109 -42.5q-48 0 -95 20t-90 58.5t-74.5 74.5t-69.5 86l36 26q76 -84 134.5 -125.5t124.5 -40.5q47 1 76.5 27.5t29.5 62.5
q0 28 -16.5 48.5t-42.5 20.5q-38 0 -103 -51l-72 80q26 21 61.5 38.5t60.5 17.5q48 0 102.5 -35t80.5 -84q16 -4 37 -4q54 0 90 29v153h-605l-41 81v20h819z" />
    <glyph glyph-name="uni091F094D091F" horiz-adv-x="569" 
d="M427 393q-306 -11 -306 -117q0 -42 38 -61t94 -19q118 0 243 79l55 -108q-74 -40 -126 -56v-176q-304 -10 -304 -116q0 -42 38 -61t94 -19q118 0 243 79l55 -108q-75 -41 -130 -57t-123 -16q-107 0 -169 63.5t-62 154.5q0 88 70 134t171 54v51h-10q-107 0 -169 64
t-62 154q0 88 70 134t169 54v62h-312l-42 81v20h573l44 -82v-19h-142v-169z" />
    <glyph glyph-name="uni091F094D0920" horiz-adv-x="617" 
d="M427 393q-306 -11 -306 -117q0 -42 38 -61t94 -19q118 0 243 79l55 -108q-74 -40 -126 -56v-100q61 -37 99.5 -90t38.5 -108q0 -80 -73 -131.5t-193 -51.5q-98 0 -164.5 67.5t-66.5 156.5q0 163 242 188v52h-10q-107 0 -169 64t-62 154q0 88 70 134t169 54v62h-312
l-42 81v20h621l44 -82v-19h-190v-169zM490 -154q0 25 -25 52.5t-50 36.5q-296 -12 -296 -110q0 -44 42.5 -68.5t92.5 -24.5q121 0 178.5 33t57.5 81z" />
    <glyph glyph-name="uni091F094D092F" horiz-adv-x="1121" 
d="M1077 663l44 -82v-19h-97v-601h-19l-100 57l1 64l-3 2q-60 -39 -135 -39q-86 0 -156 56.5t-107 157.5q146 37 146 90q0 36 -53 36h-110q-111 0 -190.5 -17t-128 -57.5t-48.5 -102.5q0 -35 21 -57t48 -29.5t61 -7.5q95 0 198 54l54 -105q-101 -51 -208 -51
q-103 0 -165.5 68.5t-62.5 165.5q0 217 295 238v78h-368l-42 81v20h1125zM905 562h-424v-75h50q69 0 139 -59.5t68 -113.5q0 -73 -120 -107q10 -31 38 -47.5t64 -16.5q99 0 185 70v349z" />
    <glyph glyph-name="uni091F094D0930" horiz-adv-x="569" 
d="M427 345q-64 -4 -116 -13t-96.5 -26t-69 -44t-24.5 -63q0 -50 38.5 -72t91.5 -22q118 0 245 83l55 -108q-71 -40 -124.5 -57.5t-115.5 -18.5l203 -196l-55 -44l-144 144l-182 -141l-79 73l257 164h-16q-103 0 -165.5 67t-62.5 164q0 54 20.5 95t56.5 65.5t75.5 38.5
t86.5 19v109h-312l-42 81v20h574l43 -82v-19h-142v-217z" />
    <glyph glyph-name="uni091F094D0935" horiz-adv-x="569" 
d="M525 663l44 -82v-19h-142v-169q-306 -11 -306 -117q0 -42 38 -62t94 -20q115 0 243 80l55 -107q-18 -10 -66 -33v-421h-20l-82 45v68q-61 -37 -117 -37q-59 0 -102 40t-43 107q0 57 34 96t77 39t83 -23.5t68 -57.5v111q-38 -7 -85 -7q-107 0 -169 64t-62 154q0 88 70 134
t169 54v62h-312l-42 81v20h573zM275 -24q-47 0 -77 -20.5t-30 -46.5q0 -18 16 -28t39 -10q74 0 161 66q-44 39 -109 39z" />
    <glyph glyph-name="uni0920094D0920" horiz-adv-x="617" 
d="M573 663l44 -82v-19h-190v-95q60 -37 98 -89.5t38 -107.5q0 -56 -36.5 -99t-101.5 -65v-95q61 -38 99.5 -90.5t38.5 -107.5q0 -80 -73 -131.5t-193 -51.5q-98 0 -164.5 67.5t-66.5 156.5q0 161 242 188v45q-31 -1 -64 8q-78 16 -128 78t-50 138q0 164 240 189v62h-312
l-42 81v20h621zM415 392q-296 -12 -296 -110q0 -44 42.5 -68.5t92.5 -24.5q121 0 178.5 33t57.5 81q0 25 -25 52.5t-50 36.5zM415 -65q-296 -12 -296 -110q0 -44 42.5 -68.5t92.5 -24.5q121 0 178.5 33t57.5 81q0 25 -25 52.5t-50 36.5z" />
    <glyph glyph-name="uni0920094D092F" horiz-adv-x="1270" 
d="M1227 663l43 -82v-19h-95v-601h-21l-99 57v68l-2 1q-64 -38 -135 -38q-86 0 -156 56.5t-107 157.5q146 34 146 85q0 20 -15 29t-51 11q-140 9 -233 8q64 -71 64 -152q0 -104 -73 -169.5t-191 -65.5q-102 0 -170.5 78t-68.5 181q0 102 72 156.5t228 67.5q6 24 6 40
q0 12 -7 30h-368l-42 81v20h1275zM1055 562h-578q12 -29 12 -50q0 -11 -2 -16q80 -2 176 -9q78 -7 152 -63t73 -109q0 -33 -29.5 -60.5t-90.5 -43.5q10 -31 38 -48t65 -17q99 0 184 71v345zM394 391q-277 -24 -277 -159q0 -58 45 -89t96 -31q120 0 177.5 50.5t57.5 123.5
q0 35 -29.5 62.5t-69.5 42.5z" />
    <glyph glyph-name="uni0920094D0930" horiz-adv-x="634" 
d="M634 581v-19h-189q24 -41 24 -72q0 -30 -25 -76q55 -39 88.5 -91.5t33.5 -111.5q0 -103 -73 -168.5t-191 -65.5q-102 0 -170.5 77.5t-68.5 180.5q0 104 74.5 159t201.5 63q9 27 9 54q0 24 -17 51h-337l-42 81v20h638zM493 253q0 31 -23 57t-47 35q-63 -3 -115 -12.5
t-96.5 -26t-69.5 -44t-25 -63.5q0 -58 45 -88.5t96 -30.5q120 0 177.5 50t57.5 123zM57 -196l257 164l203 -196l-56 -44l-144 145l-181 -142z" />
    <glyph glyph-name="uni0920094D0072" horiz-adv-x="634" 
d="M590 663l44 -82v-19h-189q24 -41 24 -72q0 -30 -25 -76q55 -39 88.5 -91.5t33.5 -111.5q0 -103 -73 -168.5t-191 -65.5q-102 0 -170.5 77.5t-68.5 180.5q0 104 74.5 159t201.5 63q9 27 9 54q0 24 -17 51h-337l-42 81v20h638zM493 253q0 31 -23 57t-47 35
q-63 -3 -115 -12.5t-96.5 -26t-69.5 -44t-25 -63.5q0 -58 45 -88.5t96 -30.5q120 0 177.5 50t57.5 123zM461 -272l-144 145l-181 -142l-79 73l257 164l203 -196zM215 -326q0 30 19 46.5t52 16.5q54 0 153 -57t194 -148l-27 -24q-66 59 -116 89t-108 47l-132 -40
q-35 28 -35 70z" />
    <glyph glyph-name="uni0921094D0921" horiz-adv-x="620" 
d="M246 401q-54 0 -54 -36q0 -18 12.5 -31.5t25.5 -13.5q40 0 114.5 20.5t100.5 20.5q42 0 82 -51.5t40 -110.5q0 -64 -46 -103t-129 -39q-55 0 -122 28q-33 -8 -52 -27t-19 -40q0 -17 12.5 -31t25.5 -14q40 0 115 20t86 20q46 0 84 -50.5t38 -111.5q0 -64 -44 -102
t-122 -38q-77 0 -178 49.5t-186 143.5l34 34q69 -70 148 -99t143 -29q55 0 100.5 17.5t45.5 45.5q0 33 -21 50q-25 -1 -93 -20.5t-99 -19.5q-44 0 -106 49.5t-62 102.5q0 38 16 65t39 39q-80 57 -150 142l34 33q137 -158 296 -158q56 0 104.5 18.5t48.5 46.5q0 33 -21 49
q-39 -2 -107.5 -21t-98.5 -19q-43 0 -104.5 49t-61.5 97q0 125 106 125h138v61h-366l-41 81v20h625l43 -82v-19h-142v-161h-232z" />
    <glyph glyph-name="uni0921094D0922" horiz-adv-x="620" 
d="M246 401q-54 0 -54 -36q0 -18 12.5 -31.5t25.5 -13.5q40 0 114.5 20.5t100.5 20.5q42 0 82 -51.5t40 -110.5q0 -64 -46 -103t-129 -39q-43 0 -92 17q-65 -17 -104 -49.5t-39 -77.5q1 -48 50 -82t106 -46q-20 32 -20 63q0 59 43 90.5t90 31.5q55 0 96.5 -41t41.5 -97
q0 -62 -58 -105t-126 -43q-44 0 -93 19.5t-92 53t-71 85t-28 109.5q1 102 80 153q-81 57 -151 143l34 33q137 -158 296 -158q56 0 104.5 18.5t48.5 46.5q0 33 -21 49q-39 -2 -107.5 -21t-98.5 -19q-43 0 -104.5 49t-61.5 97q0 125 106 125h138v61h-366l-41 81v20h625l43 -82
v-19h-142v-161h-232zM461 -78q-42 0 -73.5 -23.5t-31.5 -58.5q0 -12 4 -26q65 2 108.5 24t43.5 50q0 34 -51 34z" />
    <glyph glyph-name="uni0921094D092F" horiz-adv-x="1234" 
d="M1190 663l44 -82v-19h-96v-601h-20l-100 57l1 64l-3 2q-62 -39 -135 -39q-87 0 -157 56.5t-107 157.5q146 37 146 90q0 34 -52 34h-481q-71 0 -71 -62q0 -18 11.5 -37.5t23.5 -19.5q47 0 126 22.5t110 22.5q45 0 87 -59.5t42 -126.5q-1 -81 -46 -128t-124 -47
q-183 0 -369 208l37 35q74 -77 140 -109t143 -32q62 0 114 24.5t52 70.5q0 18 -11 35.5t-30 24.5q-40 -1 -110.5 -22t-110.5 -22q-42 1 -99.5 62t-57.5 126q0 72 30.5 104.5t79.5 32.5h183v76h-386l-42 81v20h1238zM1018 562h-518v-76h143q69 0 139 -59t69 -113
q-2 -74 -121 -107q10 -31 38 -47.5t65 -16.5q100 0 185 71v348z" />
    <glyph glyph-name="uni0921094D0930" horiz-adv-x="617" 
d="M574 663l43 -82v-19h-117v-189h-270q-71 0 -71 -62q0 -18 11.5 -38t23.5 -20q47 0 126 23t110 23q45 0 87 -60t42 -126q-1 -82 -46 -129t-124 -47q-14 0 -21 1l131 -125l-56 -45l-144 145l-181 -142l-79 74l202 128q-112 51 -221 172l37 36q73 -78 139 -109.5t144 -31.5
q38 0 74.5 9t64 31.5t27.5 54.5q0 17 -11.5 35t-29.5 25q-40 -1 -111 -22.5t-110 -22.5q-42 1 -99.5 62.5t-57.5 126.5q0 72 30.5 104.5t79.5 32.5h183v86h-387l-41 81v20h622z" />
    <glyph glyph-name="uni0921094D0072" horiz-adv-x="617" 
d="M574 663l43 -82v-19h-117v-189h-270q-71 0 -71 -62q0 -18 11.5 -38t23.5 -20q47 0 126 23t110 23q45 0 87 -60t42 -126q-1 -82 -46 -129t-124 -47q-14 0 -21 1l131 -125l-56 -45l-144 145l-181 -142l-79 74l202 128q-112 51 -221 172l37 36q73 -78 139 -109.5t144 -31.5
q38 0 74.5 9t64 31.5t27.5 54.5q0 17 -11.5 35t-29.5 25q-40 -1 -111 -22.5t-110 -22.5q-42 1 -99.5 62.5t-57.5 126.5q0 72 30.5 104.5t79.5 32.5h183v86h-387l-41 81v20h622zM591 -451q-66 60 -115.5 89.5t-107.5 46.5l-132 -40q-35 28 -35 70q0 30 19 46.5t52 16.5
q54 0 153 -57t194 -148z" />
    <glyph glyph-name="uni0922094D0922" horiz-adv-x="584" 
d="M541 663l43 -82v-19h-125v-156h-176q-69 0 -113 -31t-44 -79q1 -43 52.5 -76.5t109.5 -46.5q-20 30 -20 63q0 58 43 88t91 30q55 0 96.5 -40.5t41.5 -94.5q0 -62 -58 -104.5t-127 -42.5q-27 0 -61 8q-71 -13 -116.5 -49t-45.5 -84q1 -48 50 -82t106 -46q-20 32 -20 63
q0 59 43 90.5t90 31.5q55 0 96.5 -41t41.5 -97q0 -63 -56.5 -105.5t-127.5 -42.5q-44 0 -93 19.5t-92 53t-71 85t-28 109.5q0 109 92 161q-98 79 -98 182q0 86 54 129.5t135 43.5h86v61h-347l-41 81v20h589zM436 273q-42 0 -73 -22.5t-31 -57.5q0 -15 3 -25q65 2 108.5 23.5
t43.5 47.5q0 14 -13 24t-38 10zM436 -78q-42 0 -73.5 -23.5t-31.5 -58.5q0 -12 4 -26q65 2 108.5 24t43.5 50q0 34 -51 34z" />
    <glyph glyph-name="uni0922094D092F" horiz-adv-x="1221" 
d="M1105 -39l-100 57l1 64l-3 2q-62 -39 -135 -39q-86 0 -156.5 56.5t-107.5 157.5q146 37 146 90q0 34 -52 34h-414q-77 0 -123.5 -33t-46.5 -94q0 -65 49 -109t110 -61q-26 43 -26 89q0 71 39.5 103t92.5 32q65 0 111 -50t47 -124q0 -75 -58 -119.5t-123 -44.5
q-45 0 -94.5 20t-95 56t-75.5 98t-30 137q0 56 16.5 97t45.5 63t62.5 32.5t74.5 10.5h83v76h-349l-42 81v20h1225l44 -82v-19h-96v-601h-20zM820 143q100 0 185 71v348h-543v-76h169q69 0 138.5 -59t68.5 -113q-2 -74 -121 -107q23 -64 103 -64zM317 77q74 0 123.5 23.5
t49.5 56.5q-1 27 -26 44.5t-54 17.5q-36 0 -69.5 -24t-33.5 -64q0 -26 10 -54z" />
    <glyph glyph-name="uni0922094D0930" horiz-adv-x="581" 
d="M273 364q-76 0 -123 -32.5t-47 -90.5q0 -63 48.5 -107t110.5 -63q-26 46 -26 89q1 71 40 103t92 32q65 0 111 -50t47 -124q0 -75 -57.5 -119.5t-122.5 -44.5q-4 1 -10.5 1.5t-10.5 0.5l173 -167l-56 -44l-144 145l-181 -142l-79 73l230 147q-89 29 -153 105.5t-64 191.5
q0 107 56 155t143 48h82v91h-339l-41 81v20h578l43 -82v-19h-121v-198h-179zM297 116q-1 -30 9 -53q3 -1 8 -1q67 1 116 24t49 56q-1 27 -26 44.5t-53 17.5q-36 0 -69 -24t-34 -64z" />
    <glyph glyph-name="uni0922094D0072" horiz-adv-x="573" 
d="M442 -252l-144 145l-181 -142l-79 73l230 147q-89 29 -153 105.5t-64 191.5q0 107 56 155t143 48h82v91h-339l-41 81v20h578l43 -82v-19h-121v-198h-179q-76 0 -123 -32.5t-47 -90.5q0 -63 48.5 -107t110.5 -63q-26 46 -26 89q1 71 40 103t92 32q65 0 111 -50t47 -124
q0 -75 -57.5 -119.5t-122.5 -44.5q-4 1 -10.5 1.5t-10.5 0.5l173 -167zM297 116q-1 -30 9 -53q3 -1 8 -1q67 1 116 24t49 56q-1 27 -26 44.5t-53 17.5q-36 0 -69 -24t-34 -64zM272 -243q54 0 153 -57t194 -148l-28 -24q-66 60 -115.5 89.5t-107.5 46.5l-132 -40
q-35 28 -35 70q0 30 19 46.5t52 16.5z" />
    <glyph glyph-name="uni0923094D0930" horiz-adv-x="818" 
d="M775 663l43 -82v-19h-95v-601h-21l-100 57l1 106l-230 -194l-70 83l300 234v315h-134v-272q0 -74 -55 -124t-131 -50q-33 0 -68 26.5t-81 76.5q-35 36 -49.5 60.5t-14.5 58.5v224h-75l-42 81v20h822zM348 562h-158v-269q0 -46 21.5 -60t61.5 -14q41 0 58 30.5t17 66.5
v246z" />
    <glyph glyph-name="uni0924094D0924" horiz-adv-x="721" 
d="M676 663l45 -82v-19h-96v-601h-20l-100 57v322h-139q-56 0 -84.5 -30t-28.5 -84q0 -96 151 -220l-38 -41q-45 34 -79 64.5t-70 71t-56 84.5t-20 87q0 36 17 68h-98l-42 82v20h487v120h-511l-42 81v20h724z" />
    <glyph glyph-name="uni0924094D0924094D" horiz-adv-x="444" 
d="M444 663l44 -82v-19h-494l-42 81v20h492zM571 442v-102h-205q-56 0 -84.5 -30t-28.5 -84q0 -96 151 -220l-38 -41q-45 34 -79 64.5t-70 71t-56 84.5t-20 87q0 36 17 68h-98l-42 82v20h553z" />
    <glyph glyph-name="uni0924094D092F" horiz-adv-x="961" 
d="M961 581v-19h-96v-601h-20l-100 57l2 125l-3 1q-62 -39 -135 -39q-86 0 -156.5 57.5t-109.5 163.5q-42 35 -89 35q-44 0 -74 -31.5t-30 -78.5q0 -132 168 -271l-31 -33q-248 166 -248 342q0 73 47 121.5t117 50.5q49 0 90 -25.5t91 -80.5q104 42 104 107q0 46 -47 100
h-447l-42 81v20h966zM561 202q95 0 185 71v289h-213l-1 -1q73 -84 72 -132q0 -40 -45.5 -79.5t-106.5 -62.5q6 -39 37.5 -62t71.5 -23z" />
    <glyph glyph-name="uni0924094D0930" horiz-adv-x="611" 
d="M567 663l44 -82v-19h-96v-601h-20l-100 57l2 185l-2 1l-238 -184l-72 81l312 214q-78 55 -159 55q-47 0 -142 -35l-61 109q89 34 151 34q78 0 209 -106v190h-401l-42 81v20h615z" />
    <glyph glyph-name="uni0924094D0072" horiz-adv-x="363" 
d="M381 663l44 -82v-19h-431l-42 81v20h429zM186 478q97 0 265 -156v-76l-294 -226l-72 81l312 214q-77 55 -159 55q-47 0 -142 -35l-61 109q89 34 151 34z" />
    </font>
</defs>
</svg>
