<?xml version="1.0" standalone="no"?>
<!DOCTYPE svg PUBLIC "-//W3C//DTD SVG 1.1//EN" "http://www.w3.org/Graphics/SVG/1.1/DTD/svg11.dtd" >
<svg>
<metadata>
Created by FontForge 20090622 at Thu Nov 30 20:13:36 2017
 By deploy user
Copyright (c) 2015 Dan Reynolds. Copyright (c) 2010-2015, Sorkin Type Co (www.sorkintype.com) with Reserved Font Name 'Merriweather'
</metadata>
<defs>
<font id="Martel-Heavy" horiz-adv-x="0" >
  <font-face 
    font-family="Martel Heavy"
    font-weight="900"
    font-stretch="normal"
    units-per-em="1000"
    panose-1="0 0 10 0 0 0 0 0 0 0"
    ascent="800"
    descent="-200"
    x-height="546"
    cap-height="758"
    bbox="-1199 -562 1511 1125"
    underline-thickness="50"
    underline-position="-50"
    unicode-range="U+000D-U+FB02"
  />
<missing-glyph horiz-adv-x="586" 
 />
    <glyph glyph-name="fi" unicode="fi" horiz-adv-x="827" 
d="M656 848q48 0 74 -24.5t26 -67.5q0 -48 -35.5 -78.5t-83.5 -30.5q-42 0 -71 26t-29 66q0 45 37 77t82 32zM356 847q70 0 105 -16v-127q-19 10 -53.5 18.5t-55.5 8.5q-40 0 -52.5 -20t-12.5 -72v-93h147v-100h-147v-365l117 -15v-66h-369v66l79 15v365h-89v51l89 39v51
q0 99 73 179.5t169 80.5zM697 562l42 -12v-471l70 -13v-66h-308v66l65 14v304l-62 70v46z" />
    <glyph glyph-name="fl" unicode="fl" horiz-adv-x="821" 
d="M35 66l79 15v365h-89v51l89 39v51q0 99 73 179.5t169 80.5q70 0 105 -16v-127q-19 10 -53.5 18.5t-55.5 8.5q-40 0 -52.5 -20t-12.5 -72v-93h147v-100h-147v-365l117 -15v-66h-369v66zM496 66l58 13v597l-66 28v68l210 24l29 -9v-706l85 -15v-66h-316v66z" />
    <glyph glyph-name="f_f" unicode="ff" horiz-adv-x="924" 
d="M35 66l79 15v365h-89v51l89 39v51q0 99 73 179.5t169 80.5q70 0 105 -16v-127q-19 10 -53.5 18.5t-55.5 8.5q-40 0 -52.5 -20t-12.5 -72v-93h147v-100h-147v-365l117 -15v-66h-369v66zM497 66l79 15v365h-89v51l89 39v51q0 99 73 179.5t169 80.5q70 0 105 -16v-127
q-19 10 -53.5 18.5t-55.5 8.5q-40 0 -52.5 -20t-12.5 -72v-93h147v-100h-147v-365l117 -15v-66h-369v66z" />
    <glyph glyph-name="f_f_i" unicode="ffi" horiz-adv-x="1289" 
d="M1118 848q48 0 74 -24.5t26 -67.5q0 -48 -35.5 -78.5t-83.5 -30.5q-42 0 -71 26t-29 66q0 45 37 77t82 32zM356 847q70 0 105 -16v-127q-19 10 -53.5 18.5t-55.5 8.5q-40 0 -52.5 -20t-12.5 -72v-93h147v-100h-147v-365l117 -15v-66h-369v66l79 15v365h-89v51l89 39v51
q0 99 73 179.5t169 80.5zM818 847q70 0 105 -16v-127q-19 10 -53.5 18.5t-55.5 8.5q-40 0 -52.5 -20t-12.5 -72v-93h147v-100h-147v-365l117 -15v-66h-369v66l79 15v365h-89v51l89 39v51q0 99 73 179.5t169 80.5zM1159 562l42 -12v-471l70 -13v-66h-308v66l65 14v304l-62 70
v46z" />
    <glyph glyph-name="f_f_l" unicode="ffl" horiz-adv-x="1283" 
d="M35 66l79 15v365h-89v51l89 39v51q0 99 73 179.5t169 80.5q70 0 105 -16v-127q-19 10 -53.5 18.5t-55.5 8.5q-40 0 -52.5 -20t-12.5 -72v-93h147v-100h-147v-365l117 -15v-66h-369v66zM497 66l79 15v365h-89v51l89 39v51q0 99 73 179.5t169 80.5q70 0 105 -16v-127
q-19 10 -53.5 18.5t-55.5 8.5q-40 0 -52.5 -20t-12.5 -72v-93h147v-100h-147v-365l117 -15v-66h-369v66zM958 66l58 13v597l-66 28v68l210 24l29 -9v-706l85 -15v-66h-316v66z" />
    <glyph glyph-name=".notdef" horiz-adv-x="586" 
 />
    <glyph glyph-name=".null" 
 />
    <glyph glyph-name="nonmarkingreturn" horiz-adv-x="333" 
 />
    <glyph glyph-name="CR" unicode="&#xd;" 
 />
    <glyph glyph-name="space" unicode=" " horiz-adv-x="224" 
 />
    <glyph glyph-name="exclam" unicode="!" horiz-adv-x="397" 
d="M315 869l-74 -592h-89l-70 592h233zM204 186q47 0 74 -26t27 -69q0 -47 -35.5 -77t-82.5 -30q-41 0 -70.5 25.5t-29.5 65.5q0 42 36.5 76.5t80.5 34.5z" />
    <glyph glyph-name="quotedbl" unicode="&#x22;" horiz-adv-x="616" 
d="M85 870h178l-41 -403h-96zM353 870h178l-42 -403h-95z" />
    <glyph glyph-name="numbersign" unicode="#" horiz-adv-x="727" 
d="M161 168h-106v107h115l13 130h-115v105h121l19 152h120l-13 -152h119l13 152h128l-13 -152h110v-105h-122l-11 -130h114l1 -107h-125l-15 -168h-125l13 168h-114l-17 -168h-125zM412 275l11 130h-114l-12 -130h115z" />
    <glyph glyph-name="dollar" unicode="$" horiz-adv-x="667" 
d="M62 229h73l46 -118q22 -30 54.5 -39.5t82.5 -9.5q54 0 85 28t31 80q0 61 -112 120l-88 48t-69 44t-59.5 50.5t-32.5 55t-14 69.5q0 87 65.5 142t166.5 65l2 101h104l-2 -103q126 -13 163 -32v-162h-80l-46 103q-9 9 -43 16t-51 7q-49 0 -81 -20t-33 -60q0 -50 36 -85.5
t107 -74.5q130 -72 168 -103q73 -61 73 -145q0 -94 -73 -152.5t-184 -65.5l-5 -106h-109l4 108q-133 15 -179 41v198z" />
    <glyph glyph-name="percent" unicode="%" horiz-adv-x="1043" 
d="M744 864l-353 -950h-117l353 950h117zM252 697q87 0 135 -47.5t48 -130.5q0 -82 -57 -131.5t-142 -49.5q-80 0 -131.5 50.5t-51.5 125.5q0 82 58 132.5t141 50.5zM245 627q-34 0 -51.5 -33t-17.5 -76q0 -38 22 -74t52 -36q29 0 45.5 29t16.5 78q0 43 -19 77.5t-48 34.5z
M796 439q87 0 135 -47.5t48 -130.5q0 -82 -57 -131.5t-142 -49.5q-80 0 -131.5 50.5t-51.5 125.5q0 82 57.5 132.5t141.5 50.5zM792 369q-33 0 -51 -32t-18 -77q0 -39 23 -74.5t50 -35.5q29 0 45.5 28.5t16.5 78.5q0 44 -19 78t-47 34z" />
    <glyph glyph-name="ampersand" unicode="&#x26;" horiz-adv-x="777" 
d="M350 758q93 0 156.5 -45t63.5 -121q0 -70 -49.5 -128t-124.5 -90q28 -37 85 -103t83 -92q3 17 3 69q0 70 -18 112h153q18 -18 18 -86q0 -94 -68 -170q46 -29 90 -29v-69q-26 -15 -83 -15q-81 0 -131 30q-72 -35 -169 -35q-93 0 -162 19.5t-113 66t-44 116.5
q0 67 42.5 109t122.5 75q-44 56 -66 101t-21 91q3 88 71 141t161 53zM347 691q-60 0 -73 -74q-7 -49 13.5 -91t64.5 -92q41 29 54 66.5t13 99.5q0 40 -18.5 65.5t-53.5 25.5zM257 300q-49 -40 -49 -86q0 -74 43.5 -111t119.5 -37q53 0 81 6q-38 33 -96 102.5t-99 125.5z" />
    <glyph glyph-name="quotesingle" unicode="'" horiz-adv-x="348" 
d="M85 870h178l-41 -403h-96z" />
    <glyph glyph-name="parenleft" unicode="(" horiz-adv-x="494" 
d="M349 -172q-136 75 -203.5 210t-67.5 310q0 159 72 302t189 216l70 -55q-81 -59 -122.5 -177t-45.5 -259q-5 -144 45 -281.5t137 -209.5z" />
    <glyph glyph-name="parenright" unicode=")" horiz-adv-x="494" 
d="M84 -122q81 59 122.5 177t45.5 259q5 144 -45 281.5t-137 209.5l74 56q136 -75 203.5 -210t67.5 -310q0 -159 -72 -302t-189 -216z" />
    <glyph glyph-name="asterisk" unicode="*" horiz-adv-x="605" 
d="M241 521l29 62l-44 -55l-117 -98l-73 99l151 82l63 11l-62 8l-154 70l73 111l119 -98l44 -50l-29 65l-11 150h136l-10 -150l-35 -65l47 56l118 90l85 -110l-167 -68l-63 -9l63 -12l165 -82l-85 -96l-116 96l-45 55l29 -62l14 -152h-136z" />
    <glyph glyph-name="plus" unicode="+" horiz-adv-x="645" 
d="M258 261l5 92l-75 -5h-104v125h104l75 -5l-5 92v103h128v-103l-5 -92l76 5h103v-125h-103l-76 5l5 -92v-94h-128v94z" />
    <glyph glyph-name="comma" unicode="," horiz-adv-x="389" 
d="M88 32l100 126q61 -22 94.5 -74.5t33.5 -121.5q-2 -90 -54.5 -157.5t-136.5 -95.5l-37 34v27q39 16 61.5 51t22.5 80q0 33 -25 61t-59 31v39z" />
    <glyph glyph-name="hyphen" unicode="-" horiz-adv-x="645" 
d="M89 468h466v-115h-466v115z" />
    <glyph glyph-name="period" unicode="." horiz-adv-x="392" 
d="M204 188q47 0 74 -26t27 -69q0 -46 -35.5 -76.5t-82.5 -30.5q-41 0 -70.5 25.5t-29.5 65.5q0 44 37.5 77.5t79.5 33.5z" />
    <glyph glyph-name="slash" unicode="/" horiz-adv-x="404" 
d="M266 781h123l-251 -958h-123z" />
    <glyph glyph-name="zero" unicode="0" horiz-adv-x="686" 
d="M353 611q138 1 210.5 -79.5t72.5 -227.5q-2 -133 -87.5 -224.5t-208.5 -91.5q-136 0 -213.5 90.5t-74.5 230.5q2 130 89 216t212 86zM335 537q-24 1 -41.5 -11t-27.5 -30.5t-15.5 -48.5t-7.5 -59.5t-2 -69.5q0 -55 12 -112t38 -100t60 -43q31 -2 51 15.5t29 54.5t12 73
t3 92q0 62 -10 113.5t-36 88t-65 37.5z" />
    <glyph glyph-name="one" unicode="1" horiz-adv-x="486" 
d="M55 71l128 20v354l-136 -15l-17 79q42 12 135 52t116 58l71 -9l-3 -519l116 -20v-71h-410v71z" />
    <glyph glyph-name="two" unicode="2" horiz-adv-x="616" 
d="M43 63q121 71 216 168t95 174q0 47 -28.5 77t-75.5 30q-48 0 -86 -17t-83 -53l-42 63q30 47 111.5 79.5t153.5 32.5q96 0 163 -48t67 -125q0 -25 -6.5 -49t-13.5 -43.5t-26 -43l-30 -38t-41 -39l-42.5 -35t-51.5 -37l-51 -34.5l-56 -37l257 35l45 57l71 -21l-34 -159
h-487z" />
    <glyph glyph-name="three" unicode="3" horiz-adv-x="544" 
d="M254 620q90 0 147 -43t57 -122q0 -55 -46 -108t-104 -72q88 -2 143 -50.5t55 -126.5q0 -117 -102 -188.5t-241 -71.5q-53 0 -107 10l-1 87q40 -10 81 -10q86 0 144 45.5t58 122.5q0 119 -118 133q-7 -1 -20 -3.5t-20 -4.5l-65 -14v90q68 4 124 48.5t56 104.5
q0 35 -24 55.5t-57 20.5q-32 0 -58 -6.5t-41 -14t-52 -28.5l-42 62q93 84 233 84z" />
    <glyph glyph-name="four" unicode="4" horiz-adv-x="639" 
d="M37 63l114.5 192l96.5 172.5t98 194.5h48l112 -75l-298 -425l-35 -42l219 23l7 185l135 16v-186l88 9v-127h-88v-184h-154l8 184h-327z" />
    <glyph glyph-name="five" unicode="5" horiz-adv-x="556" 
d="M53 -89q123 -10 203 41.5t80 158.5q0 91 -55.5 124t-153.5 10l-64 19l30 340h325l14 18h63l-41 -147h-248l-32 -146q66 21 127.5 15t109 -30.5t75.5 -72.5t28 -110q0 -93 -58 -163t-148 -104.5t-195 -34.5q-40 0 -60 6v76z" />
    <glyph glyph-name="six" unicode="6" horiz-adv-x="658" 
d="M502 757l39 -72q-126 -30 -220.5 -142.5t-94.5 -238.5q0 -73 8 -123t34.5 -85.5t72.5 -35.5q52 0 78 48.5t26 122.5q0 54 -30.5 96t-77.5 42q-35 0 -61 -14l-23 46q17 31 63.5 51.5t91.5 20.5q95 0 148 -58.5t53 -155.5q0 -122 -79.5 -196.5t-206.5 -74.5
q-118 0 -192.5 79.5t-74.5 201.5q0 177 132 317t314 171z" />
    <glyph glyph-name="seven" unicode="7" horiz-adv-x="602" 
d="M128 -105q150 272 311 635l-242 -13l-37 -112l-102 2l18 205h470l29 -31l-279 -745z" />
    <glyph glyph-name="eight" unicode="8" horiz-adv-x="633" 
d="M322 765q101 0 167 -46.5t66 -131.5q0 -50 -41 -103t-88 -71q80 -54 122 -102.5t42 -107.5q0 -103 -76 -159t-189 -56q-120 0 -198.5 49.5t-78.5 144.5q0 66 45 121t115 79q-126 92 -126 191q0 89 70 140.5t170 51.5zM314 696q-36 0 -62 -23.5t-26 -60.5q0 -41 35 -76.5
t102 -80.5q56 41 54 122q0 50 -30 84.5t-73 34.5zM270 339q-70 -53 -70 -116q0 -69 37.5 -116t95.5 -47q46 0 73 29t27 77q0 25 -12 47.5t-40 46t-48 38t-63 41.5z" />
    <glyph glyph-name="nine" unicode="9" horiz-adv-x="650" 
d="M137 -127q76 18 143.5 87t107 160t39.5 177q0 113 -24.5 178.5t-89.5 65.5q-52 0 -78.5 -49t-26.5 -123q0 -53 31 -95t77 -42q37 0 61 14l23 -47q-19 -36 -61 -53.5t-94 -17.5q-95 0 -148 59t-53 154q0 123 79 197t207 74q120 0 194 -79.5t74 -200.5q0 -120 -57.5 -236
t-155.5 -196t-210 -100z" />
    <glyph glyph-name="colon" unicode=":" horiz-adv-x="392" 
d="M204 544q48 0 74.5 -25.5t26.5 -68.5q0 -46 -35.5 -76.5t-82.5 -30.5q-41 0 -70.5 25.5t-29.5 65.5q0 43 36.5 76.5t80.5 33.5zM204 184q47 0 74 -26t27 -69q0 -47 -35.5 -77t-82.5 -30q-41 0 -70.5 25.5t-29.5 65.5q0 42 36.5 76.5t80.5 34.5z" />
    <glyph glyph-name="semicolon" unicode=";" horiz-adv-x="404" 
d="M204 544q48 0 74.5 -25t26.5 -69q0 -47 -35.5 -77t-82.5 -30q-41 0 -70 25.5t-29 65.5q0 44 36.5 77t79.5 33zM203 158q61 -21 95.5 -75t32.5 -121q-1 -89 -54 -157.5t-136 -95.5l-38 34v27q39 16 61.5 51t22.5 80q0 33 -25 61t-58 31v39z" />
    <glyph glyph-name="less" unicode="&#x3c;" horiz-adv-x="652" 
d="M89 409l474 245v-143l-291 -136l291 -121v-148l-474 237v66z" />
    <glyph glyph-name="equal" unicode="=" horiz-adv-x="645" 
d="M89 591h466v-113h-466v113zM89 323h466v-113h-466v113z" />
    <glyph glyph-name="greater" unicode="&#x3e;" horiz-adv-x="652" 
d="M89 241l291 136l-291 121v148l474 -237v-66l-474 -245v143z" />
    <glyph glyph-name="question" unicode="?" horiz-adv-x="519" 
d="M155 909q140 -7 225 -82.5t85 -199.5q0 -55 -13.5 -81t-51.5 -43l-37 -17l-33 -15t-26.5 -13t-23 -13t-15.5 -12t-11 -13.5t-3 -13.5q0 -45 48 -141h-122q-34 32 -57.5 74t-23.5 78q0 22 16 41t45.5 32.5t56.5 22.5t64 19.5t52 16.5q37 15 37 27q0 73 -63.5 132
t-182.5 60q-58 0 -80 -17l-8 133q10 12 49 18.5t73 6.5zM280 186q47 0 74 -26t27 -69q0 -46 -36 -76.5t-82 -30.5q-41 0 -70 25.5t-29 65.5q0 44 36.5 77.5t79.5 33.5z" />
    <glyph glyph-name="at" unicode="@" horiz-adv-x="1114" 
d="M632 714q121 0 214 -33t150 -105.5t57 -176.5q0 -147 -89 -260.5t-218 -120.5q-48 -3 -67.5 22t-19.5 80q0 18 7 74q-35 -76 -84 -127.5t-105 -54.5q-66 -4 -116 50t-50 126q0 135 76 232.5t182 97.5q49 0 113 -25q13 31 30 26q50 -15 116 -37l-13 -77l-12 -72.5
t-7.5 -53t-6 -57t-1.5 -46.5q0 -71 11 -71q38 0 83 82t45 169q0 280 -340 280q-97 0 -184 -56t-139 -147.5t-52 -192.5q0 -170 90 -257.5t259 -87.5q42 0 111 13t88 27l32 -63q-78 -57 -250 -57q-210 0 -342 97t-132 274q0 144 80 266.5t209.5 192t274.5 69.5zM567 421
q-56 0 -85 -50t-29 -126q0 -49 11 -86.5t36 -37.5q29 0 84.5 101t64.5 180q-12 7 -40.5 13t-41.5 6z" />
    <glyph glyph-name="A" unicode="A" horiz-adv-x="781" 
d="M2 68l65 20l241 670h163l234 -671l74 -20v-67h-334v67l65 22l-21 75h-264l-22 -73l73 -23v-68h-274v68zM463 254l-65 224l-36 134l-109 -358h210z" />
    <glyph glyph-name="B" unicode="B" horiz-adv-x="711" 
d="M39 68l76 21v578l-74 11v80h152q25 0 88.5 3.5t82.5 3.5q273 0 273 -181q0 -66 -34 -112.5t-94 -62.5q75 0 127.5 -55t52.5 -127q0 -67 -24.5 -113t-72 -71.5t-108 -36.5t-142.5 -11q-30 0 -89.5 2.5t-103.5 2.5h-110v68zM288 431q20 -4 63 -4q68 0 94 35.5t26 109.5
q0 118 -131 118q-28 0 -51 -7zM287 80q26 -13 100 -13q59 0 89.5 43t30.5 109q0 60 -36.5 97.5t-90.5 37.5q-62 0 -93 -6v-268z" />
    <glyph glyph-name="C" unicode="C" horiz-adv-x="720" 
d="M463 765q35 0 72 -4.5t60.5 -9.5l47 -10.5t27.5 -6.5l-10 -190h-102l-36 100q-19 31 -105 31q-91 0 -141 -79t-50 -198q0 -132 54 -230t148 -98q100 0 117 39l40 98h85v-174q-2 0 -88.5 -23.5t-165.5 -23.5q-173 0 -278 100t-105 268q0 174 124 292.5t306 118.5z" />
    <glyph glyph-name="D" unicode="D" horiz-adv-x="789" 
d="M44 68l71 20v580l-69 10v80h160q22 0 80.5 3.5t90.5 3.5q186 0 283 -93t97 -271q0 -186 -107 -296t-286 -110q-26 0 -77 2.5t-78 2.5h-165v68zM290 87q36 -23 115 -14q54 4 93.5 49t57.5 108t18 135q0 322 -208 322q-51 0 -76 -14v-586z" />
    <glyph glyph-name="E" unicode="E" horiz-adv-x="696" 
d="M49 68l72 19v580l-69 11v80h554l15 -167h-100l-46 78l-181 11v-254l125 5l27 73h88v-238h-88l-27 77l-125 3v-268l215 14l62 96l101 -18l-26 -170h-597v68z" />
    <glyph glyph-name="F" unicode="F" horiz-adv-x="646" 
d="M42 68l73 16v584l-76 10v80h560l15 -170l-86 -1l-35 75l-205 11v-256l141 6l32 75h73v-249h-81l-22 80l-142 2v-240l156 -13v-78h-403v68z" />
    <glyph glyph-name="G" unicode="G" horiz-adv-x="774" 
d="M436 765q160 0 249 -27l-11 -167h-88l-45 88q-9 10 -39 19.5t-76 9.5q-99 0 -152.5 -82t-53.5 -202q0 -68 10 -126.5t31.5 -107.5t60 -77.5t90.5 -28.5q42 0 82 18t44 44v125l-103 14v81h302v-81l-46 -12v-227q-38 6 -148 -17t-162 -23q-156 0 -252.5 107.5t-96.5 271.5
q0 184 111 292t293 108z" />
    <glyph glyph-name="H" unicode="H" horiz-adv-x="869" 
d="M32 68l83 21v578l-86 11v80h345v-80l-84 -11v-236h290v238l-82 9v80h342v-80l-86 -10v-580l91 -21v-67h-354v67l89 21v249h-290v-248l89 -21v-68h-347v68z" />
    <glyph glyph-name="I" unicode="I" horiz-adv-x="414" 
d="M27 68l92 20v579l-92 11v80h355v-80l-87 -12v-577l92 -21v-68h-360v68z" />
    <glyph glyph-name="J" unicode="J" horiz-adv-x="384" 
d="M359 758v-80l-69 -11v-406q0 -206 -30 -281q-31 -76 -117 -124.5t-164 -48.5l-34 49q108 40 144 121q24 69 24 221v469l-72 11v80h318z" />
    <glyph glyph-name="K" unicode="K" horiz-adv-x="750" 
d="M22 68l93 21v577l-94 12v80h354v-80l-87 -12v-277l224 278l-77 11l-2 80h302v-80l-91 -12l-210 -232q37 -33 91.5 -116.5l99.5 -152.5t66 -79l63 -18v-68h-206q-25 1 -57.5 66.5l-72.5 150.5t-75 117l-55 -62v-183l98 -21v-68h-364v68z" />
    <glyph glyph-name="L" unicode="L" horiz-adv-x="631" 
d="M45 68l70 19v571l-67 10v90h331v-90l-89 -11v-577l176 19l81 115l75 -27l-34 -187h-543v68z" />
    <glyph glyph-name="M" unicode="M" horiz-adv-x="1006" 
d="M30 68l84 21l34 567l-90 11v91h332l117 -388l16 -99l21 99l110 388h306v-91l-91 -11l50 -568l77 -21v-67h-324v67l81 22l-27 374l-2 199l-17 -68l-173 -603h-64l-161 484l-59 183l-1 -136l-15 -432l90 -22v-68h-294v68z" />
    <glyph glyph-name="N" unicode="N" horiz-adv-x="833" 
d="M805 758v-89l-67 -11v-658h-192l-266 448l-53 132l1 -488l99 -24v-68h-289v68l77 22v567l-73 11v90h248l294 -511l43 -116v524l-88 14v89h266z" />
    <glyph glyph-name="O" unicode="O" horiz-adv-x="781" 
d="M401 765q159 0 255.5 -107t93.5 -272q-3 -175 -101.5 -287.5t-257.5 -112.5q-162 0 -261 107.5t-96 274.5q3 102 44.5 188t112.5 139q92 70 210 70zM396 685q-51 0 -85.5 -23.5t-52.5 -69.5t-25 -98.5t-7 -124.5q0 -118 46 -211.5t125 -93.5q50 0 83.5 23t50 69.5
t22.5 99t6 129.5q0 133 -45.5 216.5t-117.5 83.5z" />
    <glyph glyph-name="P" unicode="P" horiz-adv-x="668" 
d="M29 68l86 21v568l-84 17v84h175q24 0 78 3.5t89 3.5q144 0 219 -51.5t75 -170.5q0 -116 -82 -182.5t-212 -66.5q-58 0 -86 1v-206l119 -21v-68h-377v68zM287 382q22 -5 82 -5q65 0 96 47.5t31 127.5q0 64 -40 99t-104 35q-49 0 -65 -7v-297z" />
    <glyph glyph-name="Q" unicode="Q" horiz-adv-x="781" 
d="M401 765q157 0 253 -105t96 -265q0 -150 -70.5 -257.5t-197.5 -139.5q29 -62 115 -62q57 0 129 24v-107q-44 -44 -144 -44q-146 0 -182 177h-9q-159 0 -258 105t-99 268q0 116 50 211t141 147q79 48 176 48zM396 685q-52 0 -86.5 -24t-52 -70.5t-24.5 -98.5t-7 -123
q0 -75 18.5 -142.5t58.5 -115t94 -47.5q51 0 84 23.5t49.5 70t22.5 99t6 128.5q0 75 -16.5 141t-55 112.5t-91.5 46.5z" />
    <glyph glyph-name="R" unicode="R" horiz-adv-x="745" 
d="M371 765q133 0 214 -48t81 -150q0 -173 -165 -230q19 -12 26 -19q33 -32 87 -126.5t77 -105.5l63 -18v-68h-206q-23 0 -49 49t-46 108.5t-49 108.5t-57 49q-33 -1 -59 -1v-227l93 -19v-68h-351v68l85 21v573l-76 12v84h110q41 0 119 3.5t103 3.5zM347 685q-50 0 -59 -6
v-284q30 -4 50 -4q84 0 122.5 36.5t38.5 121.5q0 63 -41 99.5t-111 36.5z" />
    <glyph glyph-name="S" unicode="S" horiz-adv-x="643" 
d="M322 -14q-62 0 -139.5 12.5t-115.5 32.5v198h73l46 -118q22 -30 54.5 -39.5t82.5 -9.5q53 0 84.5 28t31.5 80q0 61 -112 120l-74 40l-61.5 36.5t-55.5 40.5t-37 41.5t-27.5 51t-7.5 57.5q0 93 77.5 150.5t184.5 57.5q53 0 130 -10t107 -25v-162h-81l-45 103
q-12 10 -42.5 16.5t-51.5 6.5q-49 0 -81.5 -20.5t-32.5 -59.5q0 -30 12 -54t43 -48t59.5 -41.5t84.5 -46.5q89 -46 137 -97t48 -121q0 -103 -83 -161.5t-208 -58.5z" />
    <glyph glyph-name="T" unicode="T" horiz-adv-x="711" 
d="M167 68l112 19v589l-134 -13l-34 -105l-88 -4l12 204h653v-198l-69 -9l-38 112l-129 13v-588l110 -20v-68h-395v68z" />
    <glyph glyph-name="U" unicode="U" horiz-adv-x="787" 
d="M773 758v-80l-70 -12v-340q0 -164 -70.5 -252t-215.5 -88q-164 0 -243.5 79t-78.5 240q1 60 1 181t1 181l-77 11v80h333v-80l-83 -11v-369q0 -112 39 -168.5t129 -56.5q86 0 121 66.5t35 185.5l-2 341l-82 12v80h263z" />
    <glyph glyph-name="V" unicode="V" horiz-adv-x="729" 
d="M64 669l-58 9v80h326v-78l-80 -13l106 -368l31 -131l30 128l100 371l-76 11v80h280v-80l-59 -9l-221 -676h-134z" />
    <glyph glyph-name="W" unicode="W" horiz-adv-x="1114" 
d="M68 668l-61 10v80h306v-79l-59 -11l115 -451q9 -51 16 -82l16 82l93 374l-19 77l-64 10v80h316v-79l-80 -12l100 -450l18 -84l20 84l109 451l-73 10v80h285v-80l-73 -10l-203 -676h-167l-112 394l-108 -393h-156z" />
    <glyph glyph-name="X" unicode="X" horiz-adv-x="758" 
d="M12 67l86 22l200 276l-208 302l-78 11v80h345v-78l-71 -12l104 -192l119 192l-67 10v80h305v-80l-94 -11l-206 -267l220 -310l80 -23v-67h-343v67l70 19l-113 195l-114 -192l91 -22v-67h-326v67z" />
    <glyph glyph-name="Y" unicode="Y" horiz-adv-x="723" 
d="M170 68l118 22v160l-228 419l-54 9v80h308v-78l-52 -10l123 -259l14 -46l17 50l104 251l-78 12l-1 80h275v-80l-64 -18l-191 -395v-173l132 -24v-68h-423v68z" />
    <glyph glyph-name="Z" unicode="Z" horiz-adv-x="678" 
d="M632 758l23 -74l-355 -523l-71 -81l272 23l97 130l73 -20l-54 -213h-572l-20 68l361 523l81 89l-280 -23l-62 -119l-75 14l21 206h561z" />
    <glyph glyph-name="bracketleft" unicode="[" horiz-adv-x="546" 
d="M126 738q0 81 35.5 112t117.5 31q50 0 152 -38l-1 -60h-150v-797l150 -2l2 -61q-26 -15 -72 -25t-80 -10q-88 0 -121 36t-33 130v684z" />
    <glyph glyph-name="backslash" unicode="\" horiz-adv-x="404" 
d="M138 781l251 -958h-123l-251 958h123z" />
    <glyph glyph-name="bracketright" unicode="]" horiz-adv-x="546" 
d="M263 -14v797h-150l-1 60q102 38 152 38q82 0 117.5 -31t35.5 -112v-684q0 -94 -33 -130t-121 -36q-34 0 -80 10t-72 25l2 61z" />
    <glyph glyph-name="asciicircum" unicode="^" horiz-adv-x="733" 
d="M286 748h166l192 -473h-156l-129 321l-135 -321h-135z" />
    <glyph glyph-name="underscore" unicode="_" horiz-adv-x="694" 
d="M701 -94v-114h-711v114h711z" />
    <glyph glyph-name="grave" unicode="`" horiz-adv-x="432" 
d="M349 653q-54 -3 -124.5 48t-110.5 108l124 95l154 -208z" />
    <glyph glyph-name="a" unicode="a" horiz-adv-x="599" 
d="M308 562q114 0 169 -47.5t55 -153.5v-295h64v-52q-39 -28 -126 -28q-37 0 -61 14.5t-27 41.5q-60 -56 -142 -56q-92 0 -149 41.5t-57 115.5q0 66 49 113t120.5 67t155.5 20v6q-1 66 -23.5 93t-80.5 27q-42 0 -88.5 -12t-72.5 -30l-33 75q36 29 107.5 44.5t139.5 15.5z
M359 268q-65 0 -107.5 -26t-42.5 -78q0 -84 81 -84q44 0 69 21v167z" />
    <glyph glyph-name="b" unicode="b" horiz-adv-x="648" 
d="M73 676l-61 28v68l206 23l28 -8v-256q53 31 128 31q113 0 175.5 -71.5t62.5 -195.5q0 -131 -89 -220t-219 -89q-64 0 -134 12.5t-97 28.5v649zM246 98q20 -41 76 -41q110 0 116 220q2 82 -33.5 141t-97.5 59q-36 0 -61 -10v-369z" />
    <glyph glyph-name="c" unicode="c" horiz-adv-x="554" 
d="M357 562q116 0 163 -25v-155h-89l-39 92q-20 12 -64 12q-57 0 -84.5 -56.5t-27.5 -141.5q0 -93 41 -149t118 -56q91 0 137 34l26 -61q-81 -70 -230 -70q-126 0 -198.5 75t-72.5 199q0 136 89 219t231 83z" />
    <glyph glyph-name="d" unicode="d" horiz-adv-x="675" 
d="M553 796l32 -13v-717h69v-52q-51 -28 -148 -28q-60 0 -81 35q-51 -35 -157 -35q-104 0 -168 80t-64 198q0 130 92.5 214t225.5 84q33 0 58 -4v118l-108 28v68zM338 496q-58 0 -90 -59.5t-32 -135.5q-2 -94 31 -165t98 -71q42 0 67 10v404q-26 17 -74 17z" />
    <glyph glyph-name="e" unicode="e" horiz-adv-x="605" 
d="M335 562q108 0 166 -52t62 -152q1 -44 -7 -99h-340q14 -175 155 -175q80 0 155 33l26 -61q-41 -34 -109.5 -53t-129.5 -17q-133 3 -205 74t-72 199q0 134 83 218.5t216 84.5zM320 494q-91 0 -104 -157h179q5 57 3 80q-6 77 -78 77z" />
    <glyph glyph-name="f" unicode="f" horiz-adv-x="462" 
d="M35 66l79 15v365h-89v51l89 39v51q0 99 73 179.5t169 80.5q70 0 105 -16v-127q-19 10 -53.5 18.5t-55.5 8.5q-40 0 -52.5 -20t-12.5 -72v-93h147v-100h-147v-365l117 -15v-66h-369v66z" />
    <glyph glyph-name="g" unicode="g" horiz-adv-x="623" 
d="M295 562q117 2 179 -46q22 46 109 46h43v-118h-101q9 -27 9 -60q0 -97 -70 -146t-182 -49q-50 0 -86 7q-8 -19 -8 -35q0 -56 70 -56h115q123 0 179 -33.5t56 -125.5q0 -67 -47 -115t-118.5 -69t-158.5 -21q-250 0 -250 144q0 42 22.5 76.5t59.5 55.5q-32 13 -43 33.5
t-11 58.5q0 25 20.5 56.5t45.5 52.5q-95 46 -95 150q0 92 74.5 142t187.5 52zM285 494q-38 0 -60.5 -24.5t-22.5 -64.5q0 -138 92 -138q41 0 61 31.5t20 79.5q0 56 -23 86t-67 30zM194 2q-14 -28 -14 -69q0 -57 38.5 -86t98.5 -29q69 0 101 18t32 71q0 54 -24 73.5t-86 19.5
h-86q-42 0 -60 2z" />
    <glyph glyph-name="h" unicode="h" horiz-adv-x="696" 
d="M29 66l70 14v596l-66 28v68l211 24l28 -9v-240l-10 -50q72 65 181 65q42 0 72 -12t47.5 -32.5t27.5 -54.5t13 -70t2 -87v-226l67 -14v-66l-310 1v65l71 14v202q0 37 -1.5 59t-6.5 46.5t-14.5 37.5t-26.5 21.5t-42 8.5q-42 0 -70 -22v-354l48 -13v-66h-291v66z" />
    <glyph glyph-name="i" unicode="i" horiz-adv-x="365" 
d="M194 848q48 0 74 -24.5t26 -67.5q0 -48 -35.5 -78.5t-83.5 -30.5q-42 0 -71 26t-29 66q0 45 37 77t82 32zM235 562l42 -12v-471l70 -13v-66h-308v66l65 14v304l-62 70v46z" />
    <glyph glyph-name="j" unicode="j" horiz-adv-x="334" 
d="M175 848q47 0 73.5 -24.5t26.5 -67.5q0 -46 -35 -77.5t-84 -31.5q-42 0 -71 26t-29 66q0 45 37 77t82 32zM227 562l40 -13v-572q0 -109 -48 -175.5t-137 -66.5q-24 0 -57 6t-45 12v92q21 -6 60 -6q19 0 31 11t16.5 37.5t5.5 47t1 62.5v387l-54 72v43z" />
    <glyph glyph-name="k" unicode="k" horiz-adv-x="663" 
d="M34 66l65 15v579l-78 35v69l221 32l30 -13v-436l-6 -69l159 171l-90 10v87h312v-87l-99 -9l-118 -113l167 -260l50 -10v-67h-289v67l41 14l-82 153l-50 -57l4 -40v-58l58 -13v-66h-295v66z" />
    <glyph glyph-name="l" unicode="l" horiz-adv-x="359" 
d="M34 66l58 13v597l-66 28v68l210 24l29 -9v-706l85 -15v-66h-316v66z" />
    <glyph glyph-name="m" unicode="m" horiz-adv-x="1059" 
d="M48 66l60 13v321l-66 47v61l182 54l36 -9v-73q32 35 82 58.5t96 24.5q129 7 166 -77q79 76 181 76q183 0 183 -233v-249l68 -14v-66h-298v66l57 14v227q0 83 -19.5 113.5t-81.5 30.5q-33 0 -71 -25q5 -27 5 -82v-264l69 -14v-66h-311v66l69 15v230q0 73 -19 106.5
t-70 33.5q-60 0 -85 -25v-346l64 -14v-66h-297v66z" />
    <glyph glyph-name="n" unicode="n" horiz-adv-x="716" 
d="M47 66l61 13v321l-66 47v61l181 54l37 -9v-73q38 38 94.5 60t109.5 22q89 0 125 -55t36 -165v-263l68 -13v-66h-311v66l70 14v240q0 78 -18 103.5t-79 25.5q-13 0 -39 -7.5t-35 -14.5v-347l60 -14v-66h-294v66z" />
    <glyph glyph-name="o" unicode="o" horiz-adv-x="652" 
d="M336 563q137 0 209 -71t72 -203q0 -138 -81 -219.5t-214 -81.5q-138 0 -212.5 75.5t-72.5 210.5q3 134 83 209.5t216 79.5zM332 491q-111 0 -111 -203q0 -41 5.5 -79t17 -73t33 -55.5t51.5 -20.5q106 0 106 220q0 211 -102 211z" />
    <glyph glyph-name="p" unicode="p" horiz-adv-x="659" 
d="M401 562q111 0 166.5 -72t55.5 -199t-89 -215t-217 -88q-7 0 -21 1.5t-25 2.5l-11 2l6 -80v-82l104 -14v-68h-340v68l64 14v568l-66 47v61l181 54l34 -9v-63q15 29 64.5 50.5t93.5 21.5zM331 473q-18 0 -37.5 -11t-27.5 -23v-331q7 -17 33 -25.5t50 -8.5q51 0 77.5 56
t26.5 133q0 91 -30.5 150.5t-91.5 59.5z" />
    <glyph glyph-name="q" unicode="q" horiz-adv-x="652" 
d="M359 562q88 0 133 -31l68 31l25 -11v-724l64 -12v-65h-330v65l93 11v151l6 60q-49 -49 -134 -49q-123 0 -185.5 74t-62.5 208q0 127 93 209.5t230 82.5zM355 488q-75 0 -106 -49t-33 -145q-3 -91 27 -149.5t97 -58.5q47 0 72 20v355q-16 27 -57 27z" />
    <glyph glyph-name="r" unicode="r" horiz-adv-x="472" 
d="M48 66l60 13v321l-66 47v61l181 54l35 -9v-95q10 41 55 72.5t85 31.5q41 0 53 -6v-154q-11 11 -37.5 17t-45.5 6q-60 0 -87 -18v-324l114 -17v-66h-347v66z" />
    <glyph glyph-name="s" unicode="s" horiz-adv-x="535" 
d="M49 161h80l31 -54q18 -18 28.5 -27t27 -17t36.5 -9q43 -2 66 14.5t23 46.5q-1 13 -10.5 25.5t-32 25.5t-37.5 20.5t-47 21.5q-86 40 -130 85t-44 112q2 75 73 116t161 41q45 2 104 -6.5t90 -21.5v-134h-86l-27 61q-33 39 -72 39q-31 0 -51.5 -12.5t-20.5 -32.5
q0 -37 30.5 -60.5t106.5 -58.5q79 -36 118.5 -73t39.5 -99t-37.5 -102.5t-93.5 -57t-130 -16.5q-50 0 -105.5 12t-90.5 32v129z" />
    <glyph glyph-name="t" unicode="t" horiz-adv-x="451" 
d="M249 677v-131h167v-87h-160v-188v-37.5t1 -34t2.5 -32.5t4 -26.5t7 -23t10.5 -16t15 -11.5t20 -3q53 0 85 17l26 -55q-30 -30 -85.5 -45.5t-112.5 -15.5q-81 0 -111 42t-30 138v291h-74v55q64 10 94 40q29 30 59 123h82z" />
    <glyph glyph-name="u" unicode="u" horiz-adv-x="650" 
d="M72 424l-46 34v60l186 44l26 -8v-340q0 -68 15.5 -100t59.5 -32q59 0 87 25v309l-62 34v68l204 44l27 -8v-488h56v-52q-17 -12 -62 -20t-76 -8t-50.5 13.5t-19.5 40.5v19q-24 -29 -73 -51t-88 -22q-103 0 -143.5 49t-40.5 156v233z" />
    <glyph glyph-name="v" unicode="v" horiz-adv-x="627" 
d="M52 447l-50 13v86h282v-87l-44 -14l80 -231l26 -92l21 94l71 230l-59 13v87h246v-87l-57 -17l-181 -444h-141z" />
    <glyph glyph-name="w" unicode="w" horiz-adv-x="899" 
d="M58 446l-57 13v87h278v-87l-48 -13l56 -227l16 -77l11 63l93 341h142l88 -341l15 -69l14 69l53 239l-65 15v87h244v-87l-68 -16l-126 -445h-163l-75 250l-27 105l-18 -105l-67 -250h-157z" />
    <glyph glyph-name="x" unicode="x" horiz-adv-x="634" 
d="M0 66l80 17l151 178l-164 186l-63 12v87h307v-87l-46 -12l18 -27l60 -79l12 20l69 89l-62 9v87h271v-87l-90 -15l-143 -155l171 -207l63 -16v-66h-302v66l41 15l-29 39l-59 77l-7 -17l-65 -96l71 -18v-66h-284v66z" />
    <glyph glyph-name="y" unicode="y" horiz-adv-x="602" 
d="M72 -127q42 -10 72 -8q45 0 75.5 37.5t45.5 97.5h-28l-192 446l-43 13v87h286v-87l-56 -12l97 -261l7 -50l15 50l79 262l-67 11v87h248v-87l-48 -10q0 -1 -95 -238.5t-96 -237.5q-47 -124 -92 -176q-53 -62 -131 -62q-66 0 -78 8z" />
    <glyph glyph-name="z" unicode="z" horiz-adv-x="562" 
d="M514 546l25 -60l-232 -338l-60 -74l177 17l29 84h90l-7 -175h-488l-23 49l57 90l213 290l41 44l-168 -10l-32 -99h-89v182h467z" />
    <glyph glyph-name="braceleft" unicode="{" horiz-adv-x="553" 
d="M126 273q0 25 -25 39t-61 17v108q86 7 86 51v273q0 121 135 121q20 0 40.5 -3t35 -7l44 -12.5t49.5 -13.5v-61h-150v-311q0 -11 -2.5 -20t-5 -15.5t-10 -13l-12 -10.5t-16.5 -10t-17 -8l-20.5 -8.5t-21.5 -9.5q56 -22 80.5 -42t24.5 -56v-310h150v-62q-105 -32 -141 -34
q-9 -1 -18 -1q-73 0 -109 30.5t-36 100.5v268z" />
    <glyph glyph-name="bar" unicode="|" horiz-adv-x="531" 
d="M179 869h173v-960h-173v960z" />
    <glyph glyph-name="braceright" unicode="}" horiz-adv-x="553" 
d="M271 -29v310q0 37 24.5 56.5t79.5 41.5q-31 12 -45 18.5t-30.5 18t-22.5 25t-6 33.5v311h-150l-1 61q121 36 169 36q68 0 101.5 -28.5t33.5 -92.5v-273q0 -44 86 -51v-108q-36 -3 -61 -18t-25 -38v-268q0 -71 -36 -101t-108 -30q-45 0 -160 35l1 62h150z" />
    <glyph glyph-name="asciitilde" unicode="~" horiz-adv-x="643" 
d="M71 416q6 39 64 79.5t105 40.5q42 0 94 -34.5t83 -34.5q46 0 107 49l48 -61q-8 -44 -62 -82.5t-105 -38.5q-43 0 -91 34.5t-89 34.5q-31 0 -53.5 -11.5t-52.5 -36.5z" />
    <glyph glyph-name="DEL" 
 />
    <glyph glyph-name="uni00A0" unicode="&#xa0;" horiz-adv-x="224" 
 />
    <glyph glyph-name="exclamdown" unicode="&#xa1;" horiz-adv-x="397" 
d="M214 703q48 0 74.5 -25.5t26.5 -69.5q0 -46 -36 -76.5t-82 -30.5q-41 0 -70 26t-29 65q0 44 36.5 77.5t79.5 33.5zM245 403l70 -620h-233l74 620h89z" />
    <glyph glyph-name="cent" unicode="&#xa2;" horiz-adv-x="593" 
d="M251 -7q-97 18 -151 88.5t-54 174.5q0 124 72.5 205.5t192.5 97.5l6 106h95l-6 -104q86 -6 124 -24v-155h-90l-38 92q-20 12 -65 12q-54 0 -81.5 -51.5t-29.5 -129.5q-4 -100 37 -161t122 -61q91 0 137 34l26 -61q-72 -61 -203 -69l-5 -93h-95z" />
    <glyph glyph-name="sterling" unicode="&#xa3;" horiz-adv-x="756" 
d="M454 766q95 0 158 -53l-76 -138q-25 49 -60.5 79.5t-74.5 30.5q-19 0 -31 -13t-16.5 -44.5t-5.5 -55t-1 -73.5v-15v-49h122v-98h-122v-27q0 -145 -60 -210q14 -1 63 -13.5t83 -12.5q41 0 74 21.5t33 50.5q0 20 -15 39t-32 26l67 131q53 -10 90.5 -58.5t37.5 -105.5
q0 -89 -67 -143t-167 -54q-70 0 -143.5 28.5t-93.5 28.5q-47 -51 -131 -52q-34 -2 -59.5 11t-25.5 38q0 38 48.5 59.5t109.5 21.5q14 28 14 104v117h-77v98h77v23q0 129 79 218.5t202 89.5z" />
    <glyph glyph-name="currency" unicode="&#xa4;" horiz-adv-x="728" 
d="M152 628l107 -108q46 25 100 25q52 0 101 -26l118 114l77 -78l-115 -113q29 -47 29 -106q0 -58 -27 -104l105 -107l-77 -77l-106 107q-48 -28 -105 -28q-55 0 -102 26l-106 -106l-78 77l105 105q-29 47 -29 107q0 58 30 109l-103 105zM360 428q-36 0 -63 -28t-27 -64
t27 -64.5t63 -28.5q35 0 61.5 28.5t26.5 64.5t-26 64t-62 28z" />
    <glyph glyph-name="yen" unicode="&#xa5;" horiz-adv-x="745" 
d="M159 68l117 22v81h-176v81h176v67l-17 28h-159v82h111l-141 239l-56 10v80h307v-78l-51 -10l81 -175l28 -66h7l31 70q28 57 74 168l-76 11v80h274v-80l-68 -19l-124 -230h136v-82h-180l-3 -5v-90h183v-81h-183v-80l126 -23v-68h-417v68z" />
    <glyph glyph-name="brokenbar" unicode="&#xa6;" horiz-adv-x="531" 
d="M179 869h173v-426h-173v426zM179 336h173v-426h-173v426z" />
    <glyph glyph-name="section" unicode="&#xa7;" horiz-adv-x="661" 
d="M348 865q122 0 188 -33v-150h-70l-59 83q-21 25 -73 25q-38 0 -65 -28.5t-27 -68.5q0 -36 35 -63t85 -47t100 -44.5t85 -70t35 -108.5q0 -43 -17.5 -86t-47.5 -71q79 -54 79 -129q0 -203 -269 -203q-61 0 -133.5 10.5t-103.5 26.5v196h70l48 -101q24 -50 110 -50
q48 0 79 18t31 54q0 38 -37.5 68.5t-91 54t-107 49.5t-91 70t-37.5 102q0 41 26 88t59 72q-72 55 -72 130q0 92 81 149t190 57zM229 479q-21 -36 -21 -75q0 -21 13.5 -39.5t40 -34.5t50.5 -27.5t61 -27t55 -24.5q17 31 17 59q0 43 -37 71t-137 77q-27 14 -42 21z" />
    <glyph glyph-name="dieresis" unicode="&#xa8;" horiz-adv-x="519" 
d="M124 658q-37 0 -62 18.5t-25 49.5q0 35 31.5 57.5t68.5 22.5q40 0 65 -17.5t25 -51.5q0 -36 -32 -57.5t-71 -21.5zM381 659q-39 0 -63.5 19t-24.5 49q0 35 32 57t69 22q87 0 87 -68q0 -37 -30 -58t-70 -21z" />
    <glyph glyph-name="copyright" unicode="&#xa9;" horiz-adv-x="1031" 
d="M516 938q180 0 303 -118.5t123 -297.5q0 -172 -125.5 -293.5t-300.5 -121.5q-186 0 -306.5 117.5t-120.5 297.5q0 177 123.5 296.5t303.5 119.5zM515 862q-141 0 -238 -98.5t-97 -241.5q0 -142 98.5 -240.5t236.5 -98.5q140 0 238 98.5t98 240.5q0 143 -98 241.5
t-238 98.5zM552 776q85 0 129 -25v-149h-93l-33 75q-9 9 -38 9q-36 1 -53.5 -33.5t-16.5 -102.5q0 -65 32 -108t84 -43q67 0 107 20l21 -62q-23 -31 -75.5 -51t-99.5 -20q-108 0 -170.5 62.5t-62.5 169.5q0 112 76.5 185t192.5 73z" />
    <glyph glyph-name="ordfeminine" unicode="&#xaa;" horiz-adv-x="571" 
d="M300 777q93 0 139 -32t46 -112l-1 -200h40v-52q-83 -23 -124 -23q-49 0 -58 38q-45 -38 -130 -38q-56 0 -93.5 34t-37.5 89q0 48 41 82t96.5 48t115.5 14v9q0 36 -21.5 47.5t-64.5 11.5q-72 0 -113 -26l-25 73q23 15 83.5 26t106.5 11zM333 568q-45 -4 -77 -22.5
t-32 -50.5q0 -25 17.5 -41t44.5 -16q17 0 47 8v122z" />
    <glyph glyph-name="guillemotleft" unicode="&#xab;" horiz-adv-x="1052" 
d="M112 370l361 189l42 -67l-223 -192l223 -184l-42 -72l-361 177v149zM538 370l360 189l42 -67l-222 -192l222 -184l-42 -72l-360 177v149z" />
    <glyph glyph-name="logicalnot" unicode="&#xac;" horiz-adv-x="680" 
d="M89 468h501v-289h-153v185h-348v104z" />
    <glyph glyph-name="uni00AD" unicode="&#xad;" horiz-adv-x="645" 
d="M89 468h466v-115h-466v115z" />
    <glyph glyph-name="registered" unicode="&#xae;" horiz-adv-x="1031" 
d="M516 938q180 0 303 -118.5t123 -297.5q0 -172 -125.5 -293.5t-300.5 -121.5q-186 0 -306.5 117.5t-120.5 297.5q0 177 123.5 296.5t303.5 119.5zM515 862q-141 0 -238 -98.5t-97 -241.5q0 -142 98.5 -240.5t236.5 -98.5q141 0 238.5 98.5t97.5 240.5q0 144 -98 242
t-238 98zM538 771q97 0 146 -30t50 -95q0 -61 -34.5 -100.5t-91.5 -39.5q34 -2 57 -24t32 -47.5t24.5 -47.5t37.5 -23v-63h-146q-14 0 -23 16.5t-21 50.5q-2 9 -4 13q-26 85 -78 99v-111l35 -11v-59h-230v59l39 19v313l-39 13v66h109zM495 693q-8 0 -8 -4v-133q12 -3 35 -3
q28 0 41.5 20.5t13.5 51.5q0 40 -18 54t-64 14z" />
    <glyph glyph-name="macron" unicode="&#xaf;" horiz-adv-x="528" 
d="M126 773h276v-117h-276v117z" />
    <glyph glyph-name="degree" unicode="&#xb0;" horiz-adv-x="445" 
d="M222 778q73 0 124 -51t51 -120q0 -70 -51.5 -120.5t-123.5 -50.5q-70 0 -122 50.5t-52 120.5q0 72 52 121.5t122 49.5zM222 691q-36 0 -57.5 -24.5t-21.5 -59.5q0 -36 22 -59t57 -23q34 0 56 23.5t22 58.5q0 36 -22 60t-56 24z" />
    <glyph glyph-name="plusminus" unicode="&#xb1;" horiz-adv-x="648" 
d="M262 261l5 92l-76 -5h-103v125h103l76 -5l-5 92v103h128v-103l-5 -92l76 5h103v-125h-103l-76 5l5 -92v-94h-128v94zM89 115h466v-115h-466v115z" />
    <glyph glyph-name="uni00B2" unicode="&#xb2;" horiz-adv-x="604" 
d="M69 428q132 76 209 137t77 109q0 32 -24 50.5t-62 18.5q-39 0 -74 -21t-76 -60l-41 57q33 52 98 89t127 37q102 0 155.5 -37t53.5 -106q0 -83 -115 -166q-38 -28 -183 -113l234 42l48 73l80 -22l-33 -164h-444z" />
    <glyph glyph-name="uni00B3" unicode="&#xb3;" horiz-adv-x="555" 
d="M97 392q40 -12 93 -12q64 0 109.5 22t45.5 70q0 59 -65 77q-5 -1 -16 -4t-17 -4l-80 -19l2 80q81 21 119 44.5t38 65.5q0 24 -23.5 35t-54.5 11q-66 0 -136 -43l-35 59q32 29 94.5 48t115.5 19q76 0 131.5 -31.5t55.5 -85.5q0 -45 -23.5 -74t-72.5 -50q53 -7 88.5 -42.5
t35.5 -80.5q0 -83 -71 -129.5t-175 -46.5q-83 0 -159 19v72z" />
    <glyph glyph-name="acute" unicode="&#xb4;" horiz-adv-x="433" 
d="M179 696l154 208l124 -95q-31 -50 -96 -90.5t-139 -66.5z" />
    <glyph glyph-name="paragraph" unicode="&#xb6;" horiz-adv-x="787" 
d="M354 768q39 0 166 -5t146 -5h104v-82l-98 -29v-553l100 -24v-70h-228l-1 665h-86v-665h-240v70l103 24v226q-108 0 -174 59t-66 162q0 227 274 227z" />
    <glyph glyph-name="periodcentered" unicode="&#xb7;" horiz-adv-x="377" 
d="M196 515q47 0 74 -25t27 -70q0 -47 -35.5 -77t-82.5 -30q-41 0 -70 26t-29 65q0 44 37 77.5t79 33.5z" />
    <glyph glyph-name="cedilla" unicode="&#xb8;" horiz-adv-x="329" 
d="M181 5q-6 -33 1 -69q46 -4 75 -30.5t29 -63.5q0 -53 -41.5 -77.5t-109.5 -24.5q-32 0 -105 15v73q24 -7 61 -7q34 0 34 28q0 27 -30 27q-6 0 -16 -0.5t-13 -0.5q0 22 10.5 70.5t18.5 59.5h86z" />
    <glyph glyph-name="uni00B9" unicode="&#xb9;" horiz-adv-x="549" 
d="M97 417l127 20v253q-14 -1 -58.5 -7.5t-54.5 -9.5l-18 76q43 8 138 42t114 50l40 -8v-396l115 -20v-66h-403v66z" />
    <glyph glyph-name="ordmasculine" unicode="&#xba;" horiz-adv-x="571" 
d="M296 778q101 0 158.5 -56.5t57.5 -157.5q-2 -97 -68.5 -152t-166.5 -55q-102 0 -159 54t-57 153q0 101 65.5 157.5t169.5 56.5zM289 714q-40 0 -57.5 -41t-17.5 -102t19 -104.5t56 -43.5q43 0 56.5 33.5t13.5 105.5q0 61 -18 106.5t-52 45.5z" />
    <glyph glyph-name="guillemotright" unicode="&#xbb;" horiz-adv-x="1052" 
d="M109 110l222 192l-222 184l42 73l361 -177v-149l-361 -189zM757 302l-222 184l42 73l361 -177v-149l-361 -189l-42 66z" />
    <glyph glyph-name="onequarter" unicode="&#xbc;" horiz-adv-x="1334" 
d="M800 918l104 -30l-390 -1055l-103 36zM144 417l127 20v253q-14 -1 -58.5 -7.5t-54.5 -9.5l-18 76q43 8 138 42t114 50l40 -8v-396l115 -20v-66h-403v66zM971 516h61l66 -77l-263 -303l157 17l6 97l122 14v-97l97 11v-126h-97v-138h-141l7 138h-243l-25 73z" />
    <glyph glyph-name="onehalf" unicode="&#xbd;" horiz-adv-x="1334" 
d="M800 918l104 -30l-390 -1055l-103 36zM144 417l127 20v253q-14 -1 -58.5 -7.5t-54.5 -9.5l-18 76q43 8 138 42t114 50l40 -8v-396l115 -20v-66h-403v66zM764 75q132 76 209 137t77 109q0 32 -24 50.5t-62 18.5q-39 0 -74 -21t-76 -60l-41 57q33 52 98 89t127 37
q102 0 155.5 -37t53.5 -106q0 -83 -115 -166q-38 -28 -183 -113l234 42l48 73l80 -22l-33 -164h-444z" />
    <glyph glyph-name="threequarters" unicode="&#xbe;" horiz-adv-x="1417" 
d="M800 918l104 -30l-390 -1055l-103 36zM166 392q40 -12 93 -12q64 0 109.5 22t45.5 70q0 59 -65 77q-5 -1 -16 -4t-17 -4l-80 -19l2 80q81 21 119 44.5t38 65.5q0 24 -23.5 35t-54.5 11q-66 0 -136 -43l-35 59q32 29 94.5 48t115.5 19q76 0 131.5 -31.5t55.5 -85.5
q0 -45 -23.5 -74t-72.5 -50q53 -7 88.5 -42.5t35.5 -80.5q0 -83 -71 -129.5t-175 -46.5q-83 0 -159 19v72zM971 516h61l66 -77l-263 -303l157 17l6 97l122 14v-97l97 11v-126h-97v-138h-141l7 138h-243l-25 73z" />
    <glyph glyph-name="questiondown" unicode="&#xbf;" horiz-adv-x="519" 
d="M262 711q47 0 74 -26t27 -69q0 -46 -36 -76.5t-82 -30.5q-41 0 -70 25.5t-29 65.5q0 44 36.5 77.5t79.5 33.5zM225 436h122q34 -32 57.5 -74t23.5 -78q0 -22 -16 -41t-45.5 -32.5t-56.5 -22.5t-64 -19.5t-52 -16.5q-37 -15 -37 -27q0 -73 63.5 -132t182.5 -60q58 0 80 17
l8 -133q-10 -12 -49 -18.5t-73 -6.5q-140 7 -225 82.5t-85 199.5q0 55 13.5 81t51.5 43l37 17l33 15t26.5 13t23 13t15.5 12t11 13.5t3 13.5q0 45 -48 141z" />
    <glyph glyph-name="Agrave" unicode="&#xc0;" horiz-adv-x="781" 
d="M411 778q-52 3 -123 23t-104 43l94 94l182 -108zM2 68l65 20l241 670h163l234 -671l74 -20v-67h-334v67l65 22l-21 75h-264l-22 -73l73 -23v-68h-274v68zM463 254l-65 224l-36 134l-109 -358h210z" />
    <glyph glyph-name="Aacute" unicode="&#xc1;" horiz-adv-x="781" 
d="M316 830l192 108l94 -94q-31 -24 -106.5 -43.5t-130.5 -22.5zM2 68l65 20l241 670h163l234 -671l74 -20v-67h-334v67l65 22l-21 75h-264l-22 -73l73 -23v-68h-274v68zM463 254l-65 224l-36 134l-109 -358h210z" />
    <glyph glyph-name="Acircumflex" unicode="&#xc2;" horiz-adv-x="781" 
d="M200 815l134 123h114l132 -123l-55 -35l-133 63l-138 -63zM2 68l65 20l241 670h163l234 -671l74 -20v-67h-334v67l65 22l-21 75h-264l-22 -73l73 -23v-68h-274v68zM463 254l-65 224l-36 134l-109 -358h210z" />
    <glyph glyph-name="Atilde" unicode="&#xc3;" horiz-adv-x="781" 
d="M182 836q13 38 62.5 70t87.5 32q34 0 80 -24.5t63 -24.5q43 0 81 34l44 -47q-16 -38 -61 -65.5t-86 -27.5q-35 0 -81.5 25t-65.5 25q-40 0 -82 -35zM2 68l65 20l241 670h163l234 -671l74 -20v-67h-334v67l65 22l-21 75h-264l-22 -73l73 -23v-68h-274v68zM463 254l-65 224
l-36 134l-109 -358h210z" />
    <glyph glyph-name="Adieresis" unicode="&#xc4;" horiz-adv-x="781" 
d="M264 938q39 0 64.5 -17t25.5 -52t-31.5 -57t-72.5 -22q-35 0 -60.5 17.5t-25.5 49.5q0 35 30.5 58t69.5 23zM530 938q87 0 87 -68q0 -34 -28.5 -56.5t-70.5 -22.5q-38 0 -63.5 18.5t-25.5 49.5q0 34 31.5 56.5t69.5 22.5zM471 758l234 -671l74 -20v-67h-334v67l65 22
l-21 75h-264l-22 -73l73 -23v-68h-274v68l65 20l241 670h163zM362 612l-109 -358h210l-65 224z" />
    <glyph glyph-name="Aring" unicode="&#xc5;" horiz-adv-x="781" 
d="M391 938q62 0 104 -33t42 -88q0 -61 -54 -95l222 -635l74 -20v-67h-334v67l65 22l-21 75h-264l-22 -73l73 -23v-68h-274v68l65 20l229 636q-50 32 -50 93q0 57 40.5 89t104.5 32zM391 876q-28 0 -45 -16.5t-17 -42.5q0 -25 17.5 -41.5t44.5 -16.5q24 0 42.5 16t18.5 42
q0 23 -17 41t-44 18zM362 612l-109 -358h210l-65 224z" />
    <glyph glyph-name="AE" unicode="&#xc6;" horiz-adv-x="946" 
d="M2 69l60 16l270 673h519l18 -167h-95l-31 73l-210 11l73 -236l123 3l19 73h77v-242h-78l-19 71l-94 7l86 -278l82 14l54 92l85 -17l-25 -162h-458v68l77 20l-23 76h-299l-28 -75l86 -20v-69h-269v69zM484 259l-83 284l-16 73l-135 -357h234z" />
    <glyph glyph-name="Ccedilla" unicode="&#xc7;" horiz-adv-x="715" 
d="M461 765q35 0 72.5 -4.5t61 -9.5l47 -10.5t27.5 -6.5l-10 -190h-103l-35 100q-19 31 -106 31q-91 0 -140.5 -80t-49.5 -197q0 -133 54 -230.5t147 -97.5q102 0 118 39l40 98h85v-174q-6 0 -80.5 -21t-118.5 -23q0 -8 3 -53q46 -4 75 -30.5t29 -63.5q0 -53 -41.5 -77.5
t-109.5 -24.5q-32 0 -105 15v73q25 -7 61 -7q34 0 34 28q0 27 -30 27q-6 0 -16 -0.5t-13 -0.5q0 51 20 113q-159 10 -252 110t-93 256q0 178 125 294.5t304 116.5z" />
    <glyph glyph-name="Egrave" unicode="&#xc8;" horiz-adv-x="696" 
d="M383 778q-31 -2 -114.5 20t-112.5 46l94 94l182 -108zM49 68l72 19v580l-69 11v80h554l15 -167h-100l-46 78l-181 11v-254l125 5l27 73h88v-238h-88l-27 77l-125 3v-268l215 14l62 96l101 -18l-26 -170h-597v68z" />
    <glyph glyph-name="Eacute" unicode="&#xc9;" horiz-adv-x="696" 
d="M288 830l192 108l94 -94q-31 -24 -106.5 -43.5t-130.5 -22.5zM49 68l72 19v580l-69 11v80h554l15 -167h-100l-46 78l-181 11v-254l125 5l27 73h88v-238h-88l-27 77l-125 3v-268l215 14l62 96l101 -18l-26 -170h-597v68z" />
    <glyph glyph-name="Ecircumflex" unicode="&#xca;" horiz-adv-x="696" 
d="M172 815l134 123h113l132 -123l-54 -35l-133 63l-138 -63zM49 68l72 19v580l-69 11v80h554l15 -167h-100l-46 78l-181 11v-254l125 5l27 73h88v-238h-88l-27 77l-125 3v-268l215 14l62 96l101 -18l-26 -170h-597v68z" />
    <glyph glyph-name="Edieresis" unicode="&#xcb;" horiz-adv-x="696" 
d="M236 938q39 0 64.5 -17t25.5 -52t-31.5 -57t-72.5 -22q-35 0 -60.5 17.5t-25.5 49.5q0 35 30.5 58t69.5 23zM502 938q87 0 87 -68q0 -34 -28.5 -56.5t-70.5 -22.5q-38 0 -63.5 18.5t-25.5 49.5q0 34 31.5 56.5t69.5 22.5zM606 758l15 -167h-100l-46 78l-181 11v-254
l125 5l27 73h88v-238h-88l-27 77l-125 3v-268l215 14l62 96l101 -18l-26 -170h-597v68l72 19v580l-69 11v80h554z" />
    <glyph glyph-name="Igrave" unicode="&#xcc;" horiz-adv-x="414" 
d="M225 778q-31 -2 -114.5 20t-112.5 46l94 94l182 -108zM27 68l92 20v579l-92 11v80h355v-80l-87 -12v-577l92 -21v-68h-360v68z" />
    <glyph glyph-name="Iacute" unicode="&#xcd;" horiz-adv-x="414" 
d="M129 830l192 108l94 -94q-31 -24 -106.5 -43.5t-130.5 -22.5zM27 68l92 20v579l-92 11v80h355v-80l-87 -12v-577l92 -21v-68h-360v68z" />
    <glyph glyph-name="Icircumflex" unicode="&#xce;" horiz-adv-x="414" 
d="M14 815l134 123h113l132 -123l-55 -35l-132 63l-138 -63zM27 68l92 20v579l-92 11v80h355v-80l-87 -12v-577l92 -21v-68h-360v68z" />
    <glyph glyph-name="Idieresis" unicode="&#xcf;" horiz-adv-x="414" 
d="M77 938q39 0 64.5 -17t25.5 -52t-31.5 -57t-72.5 -22q-35 0 -60.5 17.5t-25.5 49.5q0 35 30.5 58t69.5 23zM343 938q87 0 87 -68q0 -34 -28.5 -56.5t-70.5 -22.5q-38 0 -63.5 18.5t-25.5 49.5q0 34 31.5 56.5t69.5 22.5zM382 758v-80l-87 -12v-577l92 -21v-68h-360v68
l92 20v579l-92 11v80h355z" />
    <glyph glyph-name="Eth" unicode="&#xd0;" horiz-adv-x="787" 
d="M44 68l71 20v256h-91v101h91v223l-69 10v80h160q22 0 80.5 3.5t90.5 3.5q186 0 283 -93t97 -271q0 -186 -107 -296t-286 -110q-26 0 -77 2.5t-78 2.5h-165v68zM290 87q36 -23 115 -14q54 4 93.5 49t57.5 108t18 135q0 319 -208 322q-51 0 -76 -14v-228h133v-101h-133
v-257z" />
    <glyph glyph-name="Ntilde" unicode="&#xd1;" horiz-adv-x="833" 
d="M223 836q13 38 62.5 70t87.5 32q34 0 80 -24.5t63 -24.5q43 0 81 34l44 -47q-16 -38 -61 -65.5t-86 -27.5q-35 0 -81.5 25t-65.5 25q-40 0 -82 -35zM805 758v-89l-67 -11v-658h-192l-266 448l-53 132l1 -488l99 -24v-68h-289v68l77 22v567l-73 11v90h248l294 -511
l43 -116v524l-88 14v89h266z" />
    <glyph glyph-name="Ograve" unicode="&#xd2;" horiz-adv-x="781" 
d="M420 778q-31 -2 -114.5 20t-112.5 46l94 94l182 -108zM401 765q159 0 255.5 -107t93.5 -272q-3 -175 -101.5 -287.5t-257.5 -112.5q-162 0 -261 107.5t-96 274.5q3 102 44.5 188t112.5 139q92 70 210 70zM396 685q-51 0 -85.5 -23.5t-52.5 -69.5t-25 -98.5t-7 -124.5
q0 -118 46 -211.5t125 -93.5q50 0 83.5 23t50 69.5t22.5 99t6 129.5q0 133 -45.5 216.5t-117.5 83.5z" />
    <glyph glyph-name="Oacute" unicode="&#xd3;" horiz-adv-x="781" 
d="M517 938l94 -94q-31 -24 -106.5 -43.5t-130.5 -22.5l-49 52zM401 765q159 0 255.5 -107t93.5 -272q-3 -175 -101.5 -287.5t-257.5 -112.5q-162 0 -261 107.5t-96 274.5q5 169 109 283t258 114zM396 685q-51 0 -85.5 -23.5t-52.5 -69.5t-25 -98.5t-7 -124.5
q0 -118 46 -211.5t125 -93.5q50 0 83.5 23t50 69.5t22.5 99t6 129.5q0 133 -45.5 216.5t-117.5 83.5z" />
    <glyph glyph-name="Ocircumflex" unicode="&#xd4;" horiz-adv-x="781" 
d="M457 938l131 -123l-54 -35l-133 63l-138 -63l-54 35l134 123h114zM401 765q159 0 255.5 -107t93.5 -272q-3 -175 -101.5 -287.5t-257.5 -112.5q-162 0 -261 107.5t-96 274.5q5 169 109 283t258 114zM396 685q-51 0 -85.5 -23.5t-52.5 -69.5t-25 -98.5t-7 -124.5
q0 -118 46 -211.5t125 -93.5q50 0 83.5 23t50 69.5t22.5 99t6 129.5q0 133 -45.5 216.5t-117.5 83.5z" />
    <glyph glyph-name="Otilde" unicode="&#xd5;" horiz-adv-x="781" 
d="M190 836q13 38 62.5 70t87.5 32q34 0 80 -24.5t63 -24.5q43 0 81 34l44 -47q-16 -38 -61 -65.5t-86 -27.5q-35 0 -81.5 25t-65.5 25q-40 0 -82 -35zM401 765q159 0 255.5 -107t93.5 -272q-3 -175 -101.5 -287.5t-257.5 -112.5q-162 0 -261 107.5t-96 274.5
q3 102 44.5 188t112.5 139q92 70 210 70zM396 685q-51 0 -85.5 -23.5t-52.5 -69.5t-25 -98.5t-7 -124.5q0 -118 46 -211.5t125 -93.5q50 0 83.5 23t50 69.5t22.5 99t6 129.5q0 133 -45.5 216.5t-117.5 83.5z" />
    <glyph glyph-name="Odieresis" unicode="&#xd6;" horiz-adv-x="781" 
d="M272 938q39 0 64.5 -17t25.5 -52t-31.5 -57t-72.5 -22q-35 0 -60.5 17.5t-25.5 49.5q0 35 30.5 58t69.5 23zM538 938q87 0 87 -68q0 -34 -28.5 -56.5t-70.5 -22.5q-38 0 -63.5 18.5t-25.5 49.5q0 34 31.5 56.5t69.5 22.5zM401 765q159 0 255.5 -107t93.5 -272
q-3 -175 -101.5 -287.5t-257.5 -112.5q-162 0 -261 107.5t-96 274.5q3 102 44.5 188t112.5 139q92 70 210 70zM396 685q-51 0 -85.5 -23.5t-52.5 -69.5t-25 -98.5t-7 -124.5q0 -118 46 -211.5t125 -93.5q50 0 83.5 23t50 69.5t22.5 99t6 129.5q0 133 -45.5 216.5
t-117.5 83.5z" />
    <glyph glyph-name="multiply" unicode="&#xd7;" horiz-adv-x="694" 
d="M91 236l177 169l-177 170l86 88l170 -178l170 178l86 -88l-177 -170l177 -169l-86 -89l-170 179l-170 -179z" />
    <glyph glyph-name="Oslash" unicode="&#xd8;" horiz-adv-x="781" 
d="M229 21q-97 47 -147.5 139.5t-47.5 207.5q5 169 108.5 283t258.5 114q59 0 102 -14l26 75l63 -21l-28 -77q91 -46 140 -138.5t46 -203.5q-3 -175 -101.5 -287.5t-257.5 -112.5q-51 0 -101 13l-44 -103l-60 21zM462 663q-30 22 -66 22q-52 0 -86.5 -24t-52 -70.5
t-24.5 -98.5t-7 -123q0 -59 14.5 -122t40.5 -106zM331 85q31 -21 66 -21q51 0 84 23.5t49.5 70t22.5 99t6 128.5q0 128 -47 219z" />
    <glyph glyph-name="Ugrave" unicode="&#xd9;" horiz-adv-x="787" 
d="M443 778q-31 -2 -114.5 20t-112.5 46l94 94l182 -108zM773 758v-80l-70 -12v-340q0 -164 -70.5 -252t-215.5 -88q-164 0 -243.5 79t-78.5 240q1 60 1 181t1 181l-77 11v80h333v-80l-83 -11v-369q0 -112 39 -168.5t129 -56.5q86 0 121 66.5t35 185.5l-2 341l-82 12v80h263
z" />
    <glyph glyph-name="Uacute" unicode="&#xda;" horiz-adv-x="787" 
d="M348 830l192 108l94 -94q-31 -24 -106.5 -43.5t-130.5 -22.5zM773 758v-80l-70 -12v-340q0 -164 -70.5 -252t-215.5 -88q-164 0 -243.5 79t-78.5 240q1 60 1 181t1 181l-77 11v80h333v-80l-83 -11v-369q0 -112 39 -168.5t129 -56.5q86 0 121 66.5t35 185.5l-2 341l-82 12
v80h263z" />
    <glyph glyph-name="Ucircumflex" unicode="&#xdb;" horiz-adv-x="782" 
d="M480 938l132 -123l-55 -35l-133 63l-137 -63l-55 35l135 123h113zM773 758v-80l-70 -12v-340q0 -164 -70.5 -252t-215.5 -88q-164 0 -243.5 79t-78.5 240q1 60 1 181t1 181l-77 11v80h333v-80l-83 -11v-369q0 -112 39 -168.5t129 -56.5q86 0 121 66.5t35 185.5l-2 341
l-82 12v80h263z" />
    <glyph glyph-name="Udieresis" unicode="&#xdc;" horiz-adv-x="787" 
d="M296 938q39 0 64.5 -17t25.5 -52t-31.5 -57t-72.5 -22q-35 0 -60.5 17.5t-25.5 49.5q0 35 30.5 58t69.5 23zM562 938q87 0 87 -68q0 -34 -28.5 -56.5t-70.5 -22.5q-38 0 -63.5 18.5t-25.5 49.5q0 34 31.5 56.5t69.5 22.5zM773 758v-80l-70 -12v-340q0 -164 -70.5 -252
t-215.5 -88q-164 0 -243.5 79t-78.5 240q1 60 1 181t1 181l-77 11v80h333v-80l-83 -11v-369q0 -112 39 -168.5t129 -56.5q86 0 121 66.5t35 185.5l-2 341l-82 12v80h263z" />
    <glyph glyph-name="Yacute" unicode="&#xdd;" horiz-adv-x="723" 
d="M298 830l192 108l94 -94q-31 -24 -106.5 -43.5t-130.5 -22.5zM170 68l118 22v160l-228 419l-54 9v80h308v-78l-52 -10l123 -259l14 -46l17 50l104 251l-78 12l-1 80h275v-80l-64 -18l-191 -395v-173l132 -24v-68h-423v68z" />
    <glyph glyph-name="Thorn" unicode="&#xde;" horiz-adv-x="673" 
d="M35 68l80 21v577l-104 12v80h374v-80l-97 -12v-75q79 9 108 9q275 0 275 -200q0 -123 -78.5 -185.5t-211.5 -62.5q-55 0 -93 4v-67l124 -21v-68h-377v68zM288 236q13 -4 71 -4q62 0 97 44t35 113q0 64 -39.5 95.5t-109.5 31.5q-42 0 -54 -3v-277z" />
    <glyph glyph-name="germandbls" unicode="&#xdf;" horiz-adv-x="722" 
d="M22 70l75 25v327q0 161 83 248.5t236 87.5q79 0 134 -35.5t55 -99.5q0 -38 -21 -68t-46.5 -45.5t-46.5 -38t-21 -48.5q0 -31 24.5 -51.5t59 -33t69.5 -27.5t59.5 -46t24.5 -77q0 -98 -60 -148.5t-167 -50.5q-44 0 -92.5 5.5t-57.5 14.5v96q56 -41 126 -41q38 0 62 22
t24 59q0 30 -22 48t-53.5 27t-63 21.5t-53.5 43t-22 80.5q0 35 19 65t41 48t41 49.5t19 69.5q0 40 -18 61.5t-52 21.5q-62 0 -85 -52.5t-23 -149.5v-478h-248v70z" />
    <glyph glyph-name="agrave" unicode="&#xe0;" horiz-adv-x="599" 
d="M349 653q-54 -3 -124.5 48t-110.5 108l124 95l154 -208zM308 562q114 0 169 -47.5t55 -153.5v-295h64v-52q-39 -28 -126 -28q-37 0 -61 14.5t-27 41.5q-60 -56 -142 -56q-92 0 -149 41.5t-57 115.5q0 66 49 113t120.5 67t155.5 20v6q-1 66 -23.5 93t-80.5 27
q-42 0 -88.5 -12t-72.5 -30l-33 75q36 29 107.5 44.5t139.5 15.5zM359 268q-65 0 -107.5 -26t-42.5 -78q0 -84 81 -84q44 0 69 21v167z" />
    <glyph glyph-name="aacute" unicode="&#xe1;" horiz-adv-x="599" 
d="M224 696l154 208l124 -95q-31 -50 -96 -90.5t-139 -66.5zM308 562q114 0 169 -47.5t55 -153.5v-295h64v-52q-39 -28 -126 -28q-37 0 -61 14.5t-27 41.5q-60 -56 -142 -56q-92 0 -149 41.5t-57 115.5q0 66 49 113t120.5 67t155.5 20v6q-1 66 -23.5 93t-80.5 27
q-42 0 -88.5 -12t-72.5 -30l-33 75q36 29 107.5 44.5t139.5 15.5zM359 268q-65 0 -107.5 -26t-42.5 -78q0 -84 81 -84q44 0 69 21v167z" />
    <glyph glyph-name="acircumflex" unicode="&#xe2;" horiz-adv-x="599" 
d="M97 688l132 179h124l135 -179l-71 -36l-126 101l-130 -101zM308 562q114 0 169 -47.5t55 -153.5v-295h64v-52q-39 -28 -126 -28q-37 0 -61 14.5t-27 41.5q-60 -56 -142 -56q-92 0 -149 41.5t-57 115.5q0 66 49 113t120.5 67t155.5 20v6q-1 66 -23.5 93t-80.5 27
q-42 0 -88.5 -12t-72.5 -30l-33 75q36 29 107.5 44.5t139.5 15.5zM359 268q-65 0 -107.5 -26t-42.5 -78q0 -84 81 -84q44 0 69 21v167z" />
    <glyph glyph-name="atilde" unicode="&#xe3;" horiz-adv-x="599" 
d="M82 716q13 38 61.5 70t88.5 32q39 0 82 -24.5t61 -24.5q38 0 81 35l44 -48q-16 -39 -62.5 -71t-84.5 -32t-83.5 25.5t-63.5 25.5q-35 0 -82 -36zM308 562q114 0 169 -47.5t55 -153.5v-295h64v-52q-39 -28 -126 -28q-37 0 -61 14.5t-27 41.5q-60 -56 -142 -56
q-92 0 -149 41.5t-57 115.5q0 66 49 113t120.5 67t155.5 20v6q-1 66 -23.5 93t-80.5 27q-42 0 -88.5 -12t-72.5 -30l-33 75q36 29 107.5 44.5t139.5 15.5zM359 268q-65 0 -107.5 -26t-42.5 -78q0 -84 81 -84q44 0 69 21v167z" />
    <glyph glyph-name="adieresis" unicode="&#xe4;" horiz-adv-x="599" 
d="M156 658q-37 0 -62 18.5t-25 49.5q0 35 31.5 57.5t68.5 22.5q40 0 65 -17.5t25 -51.5q0 -36 -32 -57.5t-71 -21.5zM413 659q-39 0 -63.5 19t-24.5 49q0 35 32 57t69 22q87 0 87 -68q0 -37 -30 -58t-70 -21zM308 562q114 0 169 -47.5t55 -153.5v-295h64v-52
q-39 -28 -126 -28q-37 0 -61 14.5t-27 41.5q-60 -56 -142 -56q-92 0 -149 41.5t-57 115.5q0 66 49 113t120.5 67t155.5 20v6q-1 66 -23.5 93t-80.5 27q-42 0 -88.5 -12t-72.5 -30l-33 75q36 29 107.5 44.5t139.5 15.5zM359 268q-65 0 -107.5 -26t-42.5 -78q0 -84 81 -84
q44 0 69 21v167z" />
    <glyph glyph-name="aring" unicode="&#xe5;" horiz-adv-x="599" 
d="M291 896q59 0 101.5 -40t42.5 -94q0 -58 -43.5 -96.5t-100.5 -38.5q-58 0 -100.5 39.5t-42.5 95.5t42.5 95t100.5 39zM291 827q-29 0 -47 -18.5t-18 -46.5t18 -46.5t47 -18.5q28 0 46.5 18.5t18.5 46.5q0 27 -19 46t-46 19zM308 562q114 0 169 -47.5t55 -153.5v-295h64
v-52q-39 -28 -126 -28q-37 0 -61 14.5t-27 41.5q-60 -56 -142 -56q-92 0 -149 41.5t-57 115.5q0 66 49 113t120.5 67t155.5 20v6q-1 66 -23.5 93t-80.5 27q-42 0 -88.5 -12t-72.5 -30l-33 75q36 29 107.5 44.5t139.5 15.5zM359 268q-65 0 -107.5 -26t-42.5 -78q0 -84 81 -84
q44 0 69 21v167z" />
    <glyph glyph-name="ae" unicode="&#xe6;" horiz-adv-x="924" 
d="M661 562q227 0 227 -223q0 -26 -7 -80h-345q14 -175 160 -175q81 0 160 35l26 -63q-39 -33 -106.5 -51.5t-129.5 -18.5q-133 0 -209 68q-72 -68 -197 -68q-92 0 -149 41.5t-57 115.5q0 66 49 113t120.5 67t155.5 20v6q-1 65 -23.5 91t-80.5 26q-41 0 -91 -12.5t-70 -29.5
l-33 78q36 29 107.5 44.5t139.5 15.5q119 0 174 -52q74 52 179 52zM645 494q-49 0 -77 -45.5t-32 -111.5h184q4 40 4 56q0 101 -79 101zM359 268q-65 0 -107.5 -26t-42.5 -78q0 -84 81 -84q43 0 69 16v172z" />
    <glyph glyph-name="ccedilla" unicode="&#xe7;" horiz-adv-x="554" 
d="M353 -64q46 -4 75 -30.5t29 -63.5q0 -53 -41.5 -77.5t-109.5 -24.5q-32 0 -105 15v73q25 -7 61 -7q34 0 34 28q0 27 -30 27q-6 0 -16 -0.5t-13 -0.5q0 17 7 54.5t15 59.5q-104 15 -163 87.5t-59 183.5q0 136 89 219t231 83q116 0 163 -25v-155h-89l-39 92q-20 12 -64 12
q-57 0 -84.5 -56.5t-27.5 -141.5q0 -93 41 -149t118 -56q91 0 137 34l26 -61q-68 -59 -187 -68q-1 -26 2 -52z" />
    <glyph glyph-name="egrave" unicode="&#xe8;" horiz-adv-x="605" 
d="M383 653q-54 -3 -124.5 48t-110.5 108l124 95l154 -208zM335 562q108 0 166 -52t62 -152q1 -44 -7 -99h-340q14 -175 155 -175q80 0 155 33l26 -61q-41 -34 -109.5 -53t-129.5 -17q-133 3 -205 74t-72 199q0 134 83 218.5t216 84.5zM320 494q-91 0 -104 -157h179
q5 57 3 80q-6 77 -78 77z" />
    <glyph glyph-name="eacute" unicode="&#xe9;" horiz-adv-x="605" 
d="M258 696l154 208l124 -95q-31 -50 -96 -90.5t-139 -66.5zM335 562q108 0 166 -52t62 -152q1 -44 -7 -99h-340q14 -175 155 -175q80 0 155 33l26 -61q-41 -34 -109.5 -53t-129.5 -17q-133 3 -205 74t-72 199q0 134 83 218.5t216 84.5zM320 494q-91 0 -104 -157h179
q5 57 3 80q-6 77 -78 77z" />
    <glyph glyph-name="ecircumflex" unicode="&#xea;" horiz-adv-x="605" 
d="M131 688l132 179h124l135 -179l-71 -36l-126 101l-130 -101zM335 562q108 0 166 -52t62 -152q1 -44 -7 -99h-340q14 -175 155 -175q80 0 155 33l26 -61q-41 -34 -109.5 -53t-129.5 -17q-133 3 -205 74t-72 199q0 134 83 218.5t216 84.5zM320 494q-91 0 -104 -157h179
q5 57 3 80q-6 77 -78 77z" />
    <glyph glyph-name="edieresis" unicode="&#xeb;" horiz-adv-x="605" 
d="M190 658q-37 0 -62 18.5t-25 49.5q0 35 31.5 57.5t68.5 22.5q40 0 65 -17.5t25 -51.5q0 -36 -32 -57.5t-71 -21.5zM447 659q-39 0 -63.5 19t-24.5 49q0 35 32 57t69 22q87 0 87 -68q0 -37 -30 -58t-70 -21zM335 562q108 0 166 -52t62 -152q1 -44 -7 -99h-340
q14 -175 155 -175q80 0 155 33l26 -61q-41 -34 -109.5 -53t-129.5 -17q-133 3 -205 74t-72 199q0 134 83 218.5t216 84.5zM320 494q-91 0 -104 -157h179q5 57 3 80q-6 77 -78 77z" />
    <glyph glyph-name="igrave" unicode="&#xec;" horiz-adv-x="365" 
d="M249 653q-53 -3 -124 47.5t-111 108.5l124 95l154 -208zM39 66l65 14v304l-62 70v46l193 65l42 -12v-474l69 -13v-66h-307v66z" />
    <glyph glyph-name="iacute" unicode="&#xed;" horiz-adv-x="365" 
d="M124 696l154 208l124 -95q-31 -50 -96 -90.5t-139 -66.5zM39 66l65 14v304l-62 70v46l193 62l42 -12v-471l70 -13v-66h-308v66z" />
    <glyph glyph-name="icircumflex" unicode="&#xee;" horiz-adv-x="365" 
d="M-3 688l132 179h123l136 -179l-71 -36l-127 101l-129 -101zM39 66l65 14v304l-62 70v46l193 65l42 -12v-474l69 -13v-66h-307v66z" />
    <glyph glyph-name="idieresis" unicode="&#xef;" horiz-adv-x="365" 
d="M55 658q-37 0 -62 18.5t-25 49.5q0 35 31.5 57.5t68.5 22.5q40 0 65 -17.5t25 -51.5q0 -36 -32 -57.5t-71 -21.5zM312 659q-39 0 -63.5 19t-24.5 49q0 35 32 57t69 22q87 0 87 -68q0 -37 -30 -58t-70 -21zM39 66l65 14v304l-62 70v46l193 62l42 -12v-471l70 -13v-66h-308
v66z" />
    <glyph glyph-name="eth" unicode="&#xf0;" horiz-adv-x="646" 
d="M431 841l54 -47l-76 -66q96 -72 146 -178t50 -232q0 -331 -299 -331q-121 0 -198 72.5t-77 185.5q0 125 78.5 201t200.5 76q91 0 145 -52q-21 114 -116 193l-80 -73l-51 42l76 70q-62 36 -135 51l13 73q98 -10 188 -60l54 49zM318 444q-64 0 -87.5 -49t-23.5 -142
q0 -70 33.5 -130t81.5 -60q118 0 118 216q0 34 -4 52q-10 44 -43.5 78.5t-74.5 34.5z" />
    <glyph glyph-name="ntilde" unicode="&#xf1;" horiz-adv-x="716" 
d="M164 716q13 38 61.5 70t88.5 32q39 0 82 -24.5t61 -24.5q38 0 81 35l44 -48q-16 -39 -62.5 -71t-84.5 -32t-83.5 25.5t-63.5 25.5q-35 0 -82 -36zM47 66l61 13v321l-66 47v61l181 54l37 -9v-73q38 38 94.5 60t109.5 22q89 0 125 -55t36 -165v-263l68 -13v-66h-311v66
l70 14v240q0 78 -18 103.5t-79 25.5q-13 0 -39 -7.5t-35 -14.5v-347l60 -14v-66h-294v66z" />
    <glyph glyph-name="ograve" unicode="&#xf2;" horiz-adv-x="652" 
d="M387 653q-54 -3 -124.5 48t-110.5 108l124 95l154 -208zM336 563q137 0 209 -71t72 -203q0 -138 -81 -219.5t-214 -81.5q-138 0 -212.5 75.5t-72.5 210.5q3 134 83 209.5t216 79.5zM332 491q-111 0 -111 -203q0 -41 5.5 -79t17 -73t33 -55.5t51.5 -20.5q106 0 106 220
q0 211 -102 211z" />
    <glyph glyph-name="oacute" unicode="&#xf3;" horiz-adv-x="652" 
d="M262 696l154 208l124 -95q-31 -50 -96 -90.5t-139 -66.5zM336 563q137 0 209 -71t72 -203q0 -138 -81 -219.5t-214 -81.5q-138 0 -212.5 75.5t-72.5 210.5q3 134 83 209.5t216 79.5zM332 491q-111 0 -111 -203q0 -41 5.5 -79t17 -73t33 -55.5t51.5 -20.5q106 0 106 220
q0 211 -102 211z" />
    <glyph glyph-name="ocircumflex" unicode="&#xf4;" horiz-adv-x="652" 
d="M134 688l132 179h124l135 -179l-71 -36l-126 101l-130 -101zM336 563q137 0 209 -71t72 -203q0 -138 -81 -219.5t-214 -81.5q-138 0 -212.5 75.5t-72.5 210.5q3 134 83 209.5t216 79.5zM332 491q-111 0 -111 -203q0 -41 5.5 -79t17 -73t33 -55.5t51.5 -20.5
q106 0 106 220q0 211 -102 211z" />
    <glyph glyph-name="otilde" unicode="&#xf5;" horiz-adv-x="652" 
d="M120 716q13 38 61.5 70t88.5 32q39 0 82 -24.5t61 -24.5q38 0 81 35l44 -48q-16 -39 -62.5 -71t-84.5 -32t-83.5 25.5t-63.5 25.5q-35 0 -82 -36zM336 563q137 0 209 -71t72 -203q0 -138 -81 -219.5t-214 -81.5q-138 0 -212.5 75.5t-72.5 210.5q3 134 83 209.5t216 79.5z
M332 491q-111 0 -111 -203q0 -41 5.5 -79t17 -73t33 -55.5t51.5 -20.5q106 0 106 220q0 211 -102 211z" />
    <glyph glyph-name="odieresis" unicode="&#xf6;" horiz-adv-x="652" 
d="M193 658q-37 0 -62 18.5t-25 49.5q0 35 31.5 57.5t68.5 22.5q40 0 65 -17.5t25 -51.5q0 -36 -32 -57.5t-71 -21.5zM450 659q-39 0 -63.5 19t-24.5 49q0 35 32 57t69 22q87 0 87 -68q0 -37 -30 -58t-70 -21zM336 563q137 0 209 -71t72 -203q0 -138 -81 -219.5t-214 -81.5
q-138 0 -212.5 75.5t-72.5 210.5q3 134 83 209.5t216 79.5zM332 491q-111 0 -111 -203q0 -41 5.5 -79t17 -73t33 -55.5t51.5 -20.5q106 0 106 220q0 211 -102 211z" />
    <glyph glyph-name="divide" unicode="&#xf7;" horiz-adv-x="684" 
d="M365 758q48 0 73 -24t25 -68q0 -47 -34 -77t-81 -30q-41 0 -69 26t-28 65q0 42 35 75t79 33zM594 468v-115h-505v115h505zM365 261q46 0 72 -23.5t26 -68.5q0 -46 -34.5 -76.5t-80.5 -30.5q-41 0 -69 26t-28 65q0 44 35.5 76t78.5 32z" />
    <glyph glyph-name="oslash" unicode="&#xf8;" horiz-adv-x="652" 
d="M210 3q-89 28 -132 99t-41 172q1 134 81.5 209.5t216.5 79.5q27 0 53 -3l24 80l54 -13l-24 -78q87 -23 131 -91.5t44 -168.5q0 -137 -81.5 -219t-213.5 -82q-21 0 -57 4l-28 -92l-55 13zM362 485q-13 6 -31 6q-41 0 -66.5 -30.5t-35 -73.5t-9.5 -99q0 -106 30 -168z
M293 68q16 -8 34 -8q106 0 106 220q0 110 -27 160z" />
    <glyph glyph-name="ugrave" unicode="&#xf9;" horiz-adv-x="650" 
d="M373 653q-53 -3 -123.5 46.5t-112.5 109.5l125 95l154 -208zM72 424l-46 34v60l186 44l26 -8v-340q0 -68 15.5 -100t59.5 -32q59 0 87 25v309l-62 34v68l204 44l27 -8v-488h56v-52q-17 -12 -62 -20t-76 -8t-50.5 13.5t-19.5 40.5v19q-24 -29 -73 -51t-88 -22
q-103 0 -143.5 49t-40.5 156v233z" />
    <glyph glyph-name="uacute" unicode="&#xfa;" horiz-adv-x="650" 
d="M247 696l154 208l124 -95q-30 -50 -96 -91t-139 -66zM72 424l-46 34v60l186 44l26 -8v-340q0 -68 15.5 -100t59.5 -32q59 0 87 25v309l-62 34v68l204 44l27 -8v-488h56v-52q-17 -12 -62 -20t-76 -8t-50.5 13.5t-19.5 40.5v19q-24 -29 -73 -51t-88 -22q-103 0 -143.5 49
t-40.5 156v233z" />
    <glyph glyph-name="ucircumflex" unicode="&#xfb;" horiz-adv-x="650" 
d="M120 688l132 179h124l135 -179l-71 -36l-126 101l-130 -101zM72 424l-46 34v60l186 44l26 -8v-340q0 -68 15.5 -100t59.5 -32q59 0 87 25v309l-62 34v68l204 44l27 -8v-488h56v-52q-17 -12 -62 -20t-76 -8t-50.5 13.5t-19.5 40.5v19q-24 -29 -73 -51t-88 -22
q-103 0 -143.5 49t-40.5 156v233z" />
    <glyph glyph-name="udieresis" unicode="&#xfc;" horiz-adv-x="650" 
d="M179 658q-37 0 -62 18.5t-25 49.5q0 35 31.5 57.5t68.5 22.5q40 0 65 -17.5t25 -51.5q0 -36 -32 -57.5t-71 -21.5zM436 659q-39 0 -63.5 19t-24.5 49q0 35 32 57t69 22q87 0 87 -68q0 -37 -30 -58t-70 -21zM72 424l-46 34v60l186 44l26 -8v-340q0 -68 15.5 -100t59.5 -32
q59 0 87 25v309l-62 34v68l204 44l27 -8v-488h56v-52q-17 -12 -62 -20t-76 -8t-50.5 13.5t-19.5 40.5v19q-24 -29 -73 -51t-88 -22q-103 0 -143.5 49t-40.5 156v233z" />
    <glyph glyph-name="yacute" unicode="&#xfd;" horiz-adv-x="602" 
d="M259 696l154 208l124 -95q-31 -50 -96 -90.5t-139 -66.5zM72 -127q42 -10 72 -8q45 0 75.5 37.5t45.5 97.5h-28l-192 446l-43 13v87h286v-87l-56 -12l97 -261l7 -50l15 50l79 262l-67 11v87h248v-87l-48 -10q0 -1 -95 -238.5t-96 -237.5q-47 -124 -92 -176
q-53 -62 -131 -62q-66 0 -78 8z" />
    <glyph glyph-name="thorn" unicode="&#xfe;" horiz-adv-x="658" 
d="M228 795l28 -8v-256q55 31 128 31q113 0 176 -72t63 -195q0 -130 -89 -219.5t-220 -89.5q-21 0 -65 4l7 -40v-117l104 -14v-69h-353v69l76 14v843l-61 28v68zM317 477q-36 0 -61 -10v-369q21 -41 76 -41q110 0 116 220q2 83 -33.5 141.5t-97.5 58.5z" />
    <glyph glyph-name="ydieresis" unicode="&#xff;" horiz-adv-x="602" 
d="M191 658q-37 0 -62 18.5t-25 49.5q0 35 31.5 57.5t68.5 22.5q40 0 65 -17.5t25 -51.5q0 -36 -32 -57.5t-71 -21.5zM448 659q-39 0 -63.5 19t-24.5 49q0 35 32 57t69 22q87 0 87 -68q0 -37 -30 -58t-70 -21zM72 -127q42 -10 72 -8q45 0 75.5 37.5t45.5 97.5h-28l-192 446
l-43 13v87h286v-87l-56 -12l97 -261l7 -50l15 50l79 262l-67 11v87h248v-87l-48 -10q0 -1 -95 -238.5t-96 -237.5q-47 -124 -92 -176q-53 -62 -131 -62q-66 0 -78 8z" />
    <glyph glyph-name="Amacron" unicode="&#x100;" horiz-adv-x="781" 
d="M248 924h276v-117h-276v117zM2 68l65 20l241 670h163l234 -671l74 -20v-67h-334v67l65 22l-21 75h-264l-22 -73l73 -23v-68h-274v68zM463 254l-65 224l-36 134l-109 -358h210z" />
    <glyph glyph-name="amacron" unicode="&#x101;" horiz-adv-x="599" 
d="M176 773h276v-117h-276v117zM308 562q114 0 169 -47.5t55 -153.5v-295h64v-52q-39 -28 -126 -28q-37 0 -61 14.5t-27 41.5q-60 -56 -142 -56q-92 0 -149 41.5t-57 115.5q0 66 49 113t120.5 67t155.5 20v6q-1 66 -23.5 93t-80.5 27q-42 0 -88.5 -12t-72.5 -30l-33 75
q36 29 107.5 44.5t139.5 15.5zM359 268q-65 0 -107.5 -26t-42.5 -78q0 -84 81 -84q44 0 69 21v167z" />
    <glyph glyph-name="Abreve" unicode="&#x102;" horiz-adv-x="781" 
d="M574 958q0 -70 -52.5 -118.5t-129.5 -48.5q-78 0 -130.5 47.5t-52.5 119.5h103q17 -68 80 -68t81 68h101zM2 68l65 20l241 670h163l234 -671l74 -20v-67h-334v67l65 22l-21 75h-264l-22 -73l73 -23v-68h-274v68zM463 254l-65 224l-36 134l-109 -358h210z" />
    <glyph glyph-name="abreve" unicode="&#x103;" horiz-adv-x="599" 
d="M503 827q0 -71 -53 -121t-129 -50q-78 0 -130.5 49.5t-52.5 121.5h103q18 -73 80 -73t81 73h101zM308 562q114 0 169 -47.5t55 -153.5v-295h64v-52q-39 -28 -126 -28q-37 0 -61 14.5t-27 41.5q-60 -56 -142 -56q-92 0 -149 41.5t-57 115.5q0 66 49 113t120.5 67t155.5 20
v6q-1 66 -23.5 93t-80.5 27q-42 0 -88.5 -12t-72.5 -30l-33 75q36 29 107.5 44.5t139.5 15.5zM359 268q-65 0 -107.5 -26t-42.5 -78q0 -84 81 -84q44 0 69 21v167z" />
    <glyph glyph-name="Aogonek" unicode="&#x104;" horiz-adv-x="781" 
d="M2 68l65 20l241 670h163l234 -671l74 -20v-67h-116q-54 -18 -100 -51t-46 -67q0 -28 37 -28q40 0 116 27l18 -66q-93 -66 -222 -66q-46 0 -75 22.5t-29 57.5q0 47 57.5 98t123.5 73h-98v67l65 22l-21 75h-264l-22 -73l73 -23v-68h-274v68zM463 254l-65 224l-36 134
l-109 -358h210z" />
    <glyph glyph-name="aogonek" unicode="&#x105;" horiz-adv-x="599" 
d="M308 562q114 0 169 -47.5t55 -153.5v-295h64v-52q-56 -34 -86.5 -64t-30.5 -63q0 -42 58 -42q21 0 56 7v-72q-47 -33 -116 -33q-58 0 -96 24t-38 71q0 81 102 147q-27 4 -45 18t-18 35q-60 -56 -142 -56q-92 0 -149 41.5t-57 115.5q0 67 50 114t121 66.5t154 19.5v4
q0 67 -23 94.5t-81 27.5q-42 0 -88.5 -12t-72.5 -30l-33 75q36 29 107.5 44.5t139.5 15.5zM359 268q-67 0 -108.5 -26.5t-41.5 -77.5q0 -84 81 -84q44 0 69 21v167z" />
    <glyph glyph-name="Cacute" unicode="&#x106;" horiz-adv-x="720" 
d="M325 830l192 108l94 -94q-31 -24 -106.5 -43.5t-130.5 -22.5zM463 765q35 0 72 -4.5t60.5 -9.5l47 -10.5t27.5 -6.5l-10 -190h-102l-36 100q-19 31 -105 31q-91 0 -141 -79t-50 -198q0 -132 54 -230t148 -98q100 0 117 39l40 98h85v-174q-2 0 -88.5 -23.5t-165.5 -23.5
q-173 0 -278 100t-105 268q0 174 124 292.5t306 118.5z" />
    <glyph glyph-name="cacute" unicode="&#x107;" horiz-adv-x="554" 
d="M262 696l154 208l124 -95q-31 -50 -96 -90.5t-139 -66.5zM357 562q116 0 163 -25v-155h-89l-39 92q-20 12 -64 12q-57 0 -84.5 -56.5t-27.5 -141.5q0 -93 41 -149t118 -56q91 0 137 34l26 -61q-81 -70 -230 -70q-126 0 -198.5 75t-72.5 199q0 136 89 219t231 83z" />
    <glyph glyph-name="Ccaron" unicode="&#x10c;" horiz-adv-x="720" 
d="M207 902l55 36l137 -63l143 63l54 -36l-139 -122h-113zM463 765q35 0 72 -4.5t60.5 -9.5l47 -10.5t27.5 -6.5l-10 -190h-102l-36 100q-19 31 -105 31q-91 0 -141 -79t-50 -198q0 -132 54 -230t148 -98q100 0 117 39l40 98h85v-174q-2 0 -88.5 -23.5t-165.5 -23.5
q-173 0 -278 100t-105 268q0 174 124 292.5t306 118.5z" />
    <glyph glyph-name="ccaron" unicode="&#x10d;" horiz-adv-x="554" 
d="M136 831l64 36l130 -101l126 100l71 -36l-135 -178h-124zM357 562q116 0 163 -25v-155h-89l-39 92q-20 12 -64 12q-57 0 -84.5 -56.5t-27.5 -141.5q0 -93 41 -149t118 -56q91 0 137 34l26 -61q-81 -70 -230 -70q-126 0 -198.5 75t-72.5 199q0 136 89 219t231 83z" />
    <glyph glyph-name="Dcaron" unicode="&#x10e;" horiz-adv-x="789" 
d="M164 902l55 36l137 -63l143 63l54 -36l-139 -122h-113zM44 68l71 20v580l-69 10v80h160q22 0 80.5 3.5t90.5 3.5q186 0 283 -93t97 -271q0 -186 -107 -296t-286 -110q-26 0 -77 2.5t-78 2.5h-165v68zM290 87q36 -23 115 -14q54 4 93.5 49t57.5 108t18 135q0 322 -208 322
q-51 0 -76 -14v-586z" />
    <glyph glyph-name="dcaron" unicode="&#x10f;" horiz-adv-x="751" 
d="M636 500l-5 13q7 61 7 161q0 32 -8 64.5t-17 43.5l7 21l127 32q14 -15 23 -59.5t9 -86.5q0 -54 -17.5 -111t-41.5 -97zM553 796l32 -13v-717h69v-52q-51 -28 -148 -28q-60 0 -81 35q-51 -35 -157 -35q-104 0 -168 80t-64 198q0 130 92.5 214t225.5 84q33 0 58 -4v118
l-108 28v68zM338 496q-58 0 -90 -59.5t-32 -135.5q-2 -94 31 -165t98 -71q42 0 67 10v404q-26 17 -74 17z" />
    <glyph glyph-name="Dcroat" unicode="&#x110;" horiz-adv-x="787" 
d="M44 68l71 20v256h-91v101h91v223l-69 10v80h160q22 0 80.5 3.5t90.5 3.5q186 0 283 -93t97 -271q0 -186 -107 -296t-286 -110q-26 0 -77 2.5t-78 2.5h-165v68zM290 87q36 -23 115 -14q54 4 93.5 49t57.5 108t18 135q0 319 -208 322q-51 0 -76 -14v-228h133v-101h-133
v-257z" />
    <glyph glyph-name="dcroat" unicode="&#x111;" horiz-adv-x="675" 
d="M663 570h-78v-504h69v-52q-51 -28 -148 -28q-60 0 -81 35q-51 -35 -157 -35q-104 0 -168 74.5t-64 183.5q0 135 90 206.5t228 71.5q33 0 58 -4v52h-189v62h189v44l-108 28v68l249 24l32 -13v-151h78v-62zM412 75v364q-26 17 -74 17q-122 0 -122 -195q0 -70 33 -133
t96 -63q42 0 67 10z" />
    <glyph glyph-name="Emacron" unicode="&#x112;" horiz-adv-x="696" 
d="M230 924h276v-117h-276v117zM49 68l72 19v580l-69 11v80h554l15 -167h-100l-46 78l-181 11v-254l125 5l27 73h88v-238h-88l-27 77l-125 3v-268l215 14l62 96l101 -18l-26 -170h-597v68z" />
    <glyph glyph-name="emacron" unicode="&#x113;" horiz-adv-x="605" 
d="M186 773h276v-117h-276v117zM335 562q108 0 166 -52t62 -152q1 -44 -7 -99h-340q14 -175 155 -175q80 0 155 33l26 -61q-41 -34 -109.5 -53t-129.5 -17q-133 3 -205 74t-72 199q0 134 83 218.5t216 84.5zM320 494q-91 0 -104 -157h179q5 57 3 80q-6 77 -78 77z" />
    <glyph glyph-name="Edotaccent" unicode="&#x116;" horiz-adv-x="696" 
d="M372 938q39 0 64.5 -17t25.5 -52t-31.5 -57t-72.5 -22q-35 0 -60.5 17.5t-25.5 49.5q0 35 30.5 58t69.5 23zM49 68l72 19v580l-69 11v80h554l15 -167h-100l-46 78l-181 11v-254l125 5l27 73h88v-238h-88l-27 77l-125 3v-268l215 14l62 96l101 -18l-26 -170h-597v68z" />
    <glyph glyph-name="edotaccent" unicode="&#x117;" horiz-adv-x="605" 
d="M322 796q40 0 65 -17.5t25 -51.5q0 -36 -32 -57.5t-71 -21.5q-37 0 -62 18.5t-25 49.5q0 35 31.5 57.5t68.5 22.5zM335 562q108 0 166 -52t62 -152q1 -44 -7 -99h-340q14 -175 155 -175q80 0 155 33l26 -61q-41 -34 -109.5 -53t-129.5 -17q-133 3 -205 74t-72 199
q0 134 83 218.5t216 84.5zM320 494q-91 0 -104 -157h179q5 57 3 80q-6 77 -78 77z" />
    <glyph glyph-name="Eogonek" unicode="&#x118;" horiz-adv-x="696" 
d="M49 68l72 19v580l-69 11v80h554l15 -167h-100l-46 78l-181 11v-254l125 5l27 73h88v-238h-88l-27 77l-125 3v-268l215 14l62 96l101 -18l-26 -170h-20q-56 -19 -100 -51.5t-44 -66.5q0 -28 36 -28q40 0 116 27l17 -66q-92 -66 -221 -66q-47 0 -75.5 22.5t-28.5 61.5
q0 45 57.5 94.5t123.5 72.5h-458v68z" />
    <glyph glyph-name="eogonek" unicode="&#x119;" horiz-adv-x="605" 
d="M335 562q111 0 169.5 -55.5t58.5 -161.5q0 -44 -7 -86h-340q14 -175 155 -175q80 0 155 33l26 -61q-122 -105 -122 -162q0 -24 26.5 -36t65.5 -12q27 0 51 6v-67q-22 -16 -64.5 -26t-75.5 -10q-57 0 -92.5 20.5t-35.5 64.5q0 52 27 89t80 73q-46 -10 -99 -10
q-133 3 -205 74t-72 199q0 134 83 218.5t216 84.5zM320 494q-91 0 -104 -157h179q4 36 4 61q0 96 -79 96z" />
    <glyph glyph-name="Ecaron" unicode="&#x11a;" horiz-adv-x="696" 
d="M164 902l55 36l137 -63l143 63l54 -36l-139 -122h-113zM49 68l72 19v580l-69 11v80h554l15 -167h-100l-46 78l-181 11v-254l125 5l27 73h88v-238h-88l-27 77l-125 3v-268l215 14l62 96l101 -18l-26 -170h-597v68z" />
    <glyph glyph-name="ecaron" unicode="&#x11b;" horiz-adv-x="605" 
d="M126 831l64 36l130 -101l126 100l71 -36l-135 -178h-124zM335 562q108 0 166 -52t62 -152q1 -44 -7 -99h-340q14 -175 155 -175q80 0 155 33l26 -61q-41 -34 -109.5 -53t-129.5 -17q-133 3 -205 74t-72 199q0 134 83 218.5t216 84.5zM320 494q-91 0 -104 -157h179
q5 57 3 80q-6 77 -78 77z" />
    <glyph glyph-name="Gbreve" unicode="&#x11e;" horiz-adv-x="774" 
d="M606 938q0 -70 -52.5 -118.5t-129.5 -48.5q-78 0 -130.5 47.5t-52.5 119.5h103q17 -68 80 -68t81 68h101zM436 765q160 0 249 -27l-11 -167h-88l-45 88q-9 10 -39 19.5t-76 9.5q-99 0 -152.5 -82t-53.5 -202q0 -68 10 -126.5t31.5 -107.5t60 -77.5t90.5 -28.5q42 0 82 18
t44 44v125l-103 14v81h302v-81l-46 -12v-227q-38 6 -148 -17t-162 -23q-156 0 -252.5 107.5t-96.5 271.5q0 184 111 292t293 108z" />
    <glyph glyph-name="gbreve" unicode="&#x11f;" horiz-adv-x="623" 
d="M473 827q0 -71 -53 -121t-129 -50q-78 0 -130.5 49.5t-52.5 121.5h103q18 -73 80 -73t81 73h101zM295 562q117 2 179 -46q22 46 109 46h43v-118h-101q9 -27 9 -60q0 -97 -70 -146t-182 -49q-50 0 -86 7q-8 -19 -8 -35q0 -56 70 -56h115q123 0 179 -33.5t56 -125.5
q0 -67 -47 -115t-118.5 -69t-158.5 -21q-250 0 -250 144q0 42 22.5 76.5t59.5 55.5q-32 13 -43 33.5t-11 58.5q0 25 20.5 56.5t45.5 52.5q-95 46 -95 150q0 92 74.5 142t187.5 52zM285 494q-38 0 -60.5 -24.5t-22.5 -64.5q0 -138 92 -138q41 0 61 31.5t20 79.5q0 56 -23 86
t-67 30zM194 2q-14 -28 -14 -69q0 -57 38.5 -86t98.5 -29q69 0 101 18t32 71q0 54 -24 73.5t-86 19.5h-86q-42 0 -60 2z" />
    <glyph glyph-name="Gcommaaccent" unicode="&#x122;" horiz-adv-x="774" 
d="M436 765q160 0 249 -27l-11 -167h-88l-45 88q-9 10 -39 19.5t-76 9.5q-99 0 -152.5 -82t-53.5 -202q0 -68 10 -126.5t31.5 -107.5t60 -77.5t90.5 -28.5q42 0 82 18t44 44v125l-103 14v81h302v-81l-46 -12v-227q-38 6 -148 -17t-162 -23q-156 0 -252.5 107.5t-96.5 271.5
q0 184 111 292t293 108zM389 -20q57 0 92.5 -38.5t35.5 -98.5q0 -50 -38 -95t-86 -61l-62 25v11q26 22 36.5 37.5t10.5 37.5q0 28 -19 46.5t-42 18.5v38z" />
    <glyph glyph-name="gcommaaccent" unicode="&#x123;" horiz-adv-x="623" 
d="M324 651q-57 0 -92.5 38.5t-35.5 98.5q0 50 38 95t86 61l62 -25v-11q-26 -22 -36.5 -37.5t-10.5 -37.5q0 -27 18.5 -46t42.5 -19v-38zM295 562q117 2 179 -46q22 46 109 46h43v-118h-101q9 -27 9 -60q0 -97 -70 -146t-182 -49q-50 0 -86 7q-8 -19 -8 -35q0 -56 70 -56
h115q123 0 179 -33.5t56 -125.5q0 -67 -47 -115t-118.5 -69t-158.5 -21q-250 0 -250 144q0 42 22.5 76.5t59.5 55.5q-32 13 -43 33.5t-11 58.5q0 25 20.5 56.5t45.5 52.5q-95 46 -95 150q0 92 74.5 142t187.5 52zM285 494q-38 0 -60.5 -24.5t-22.5 -64.5q0 -138 92 -138
q41 0 61 31.5t20 79.5q0 56 -23 86t-67 30zM194 2q-14 -28 -14 -69q0 -57 38.5 -86t98.5 -29q69 0 101 18t32 71q0 54 -24 73.5t-86 19.5h-86q-42 0 -60 2z" />
    <glyph glyph-name="hbar" unicode="&#x127;" horiz-adv-x="696" 
d="M29 66l70 14v490h-78v62h78v44l-66 28v68l211 24l28 -9v-155h89v-62h-89v-23l-10 -50q72 65 181 65q42 0 72 -12t47.5 -32.5t27.5 -54.5t13 -70t2 -87v-226l67 -14v-66l-310 1v65l71 14v202q0 37 -1.5 59t-6.5 46.5t-14.5 37.5t-26.5 21.5t-42 8.5q-42 0 -70 -22v-354
l48 -13v-66h-291v66z" />
    <glyph glyph-name="Itilde" unicode="&#x128;" horiz-adv-x="414" 
d="M-5 836q13 38 62.5 70t87.5 32q34 0 80 -24.5t63 -24.5q43 0 81 34l44 -47q-16 -38 -61 -65.5t-86 -27.5q-35 0 -81.5 25t-65.5 25q-40 0 -82 -35zM27 68l92 20v579l-92 11v80h355v-80l-87 -12v-577l92 -21v-68h-360v68z" />
    <glyph glyph-name="itilde" unicode="&#x129;" horiz-adv-x="365" 
d="M-19 716q13 38 61.5 70t88.5 32q39 0 82 -24.5t61 -24.5q38 0 81 35l44 -48q-16 -39 -62.5 -71t-84.5 -32t-83.5 25.5t-63.5 25.5q-35 0 -82 -36zM39 66l65 14v304l-62 70v46l193 62l42 -12v-471l70 -13v-66h-308v66z" />
    <glyph glyph-name="Imacron" unicode="&#x12a;" horiz-adv-x="414" 
d="M69 924h276v-117h-276v117zM27 68l92 20v579l-92 11v80h355v-80l-87 -12v-577l92 -21v-68h-360v68z" />
    <glyph glyph-name="imacron" unicode="&#x12b;" horiz-adv-x="365" 
d="M43 773h276v-117h-276v117zM39 66l65 14v304l-62 70v46l193 62l42 -12v-471l70 -13v-66h-308v66z" />
    <glyph glyph-name="Iogonek" unicode="&#x12e;" horiz-adv-x="414" 
d="M355 0q-46 -10 -95.5 -46t-49.5 -72q0 -28 36 -28q11 0 20.5 1t20 4.5l16.5 5.5t20 8t20 8l17 -66q-77 -66 -202 -66q-46 0 -75 22.5t-29 59.5q0 46 57.5 95.5t124.5 73.5h-209v68l92 20v579l-92 11v80h355v-80l-87 -12v-577l92 -21v-68h-32z" />
    <glyph glyph-name="iogonek" unicode="&#x12f;" horiz-adv-x="365" 
d="M175 647q-42 0 -71 26t-29 66q0 45 37 77t82 32q48 0 74 -24.5t26 -67.5q0 -48 -35.5 -78.5t-83.5 -30.5zM333 -119l17 -66q-92 -66 -221 -66q-47 0 -75.5 22.5t-28.5 61.5q0 46 57.5 95.5t123.5 71.5h-167v66l65 14v304l-62 70v46l193 62l42 -12v-471l70 -13v-66h-22
q-52 -17 -98 -49.5t-46 -68.5q0 -28 36 -28q42 0 116 27z" />
    <glyph glyph-name="Idotaccent" unicode="&#x130;" horiz-adv-x="414" 
d="M210 938q39 0 64.5 -17t25.5 -52t-31.5 -57t-72.5 -22q-35 0 -60.5 17.5t-25.5 49.5q0 35 30.5 58t69.5 23zM27 68l92 20v579l-92 11v80h355v-80l-87 -12v-577l92 -21v-68h-360v68z" />
    <glyph glyph-name="dotlessi" unicode="&#x131;" horiz-adv-x="365" 
d="M39 66l65 14v304l-62 70v46l193 62l42 -12v-471l70 -13v-66h-308v66z" />
    <glyph glyph-name="IJ" unicode="&#x132;" horiz-adv-x="798" 
d="M27 68l92 20v579l-92 11v80h355v-80l-87 -12v-577l92 -21v-68h-360v68zM359 -144q108 40 144 121q24 69 24 221v469l-72 11v80h318v-80l-69 -11v-406q0 -206 -30 -281q-31 -76 -117 -124.5t-164 -48.5z" />
    <glyph glyph-name="ij" unicode="&#x133;" horiz-adv-x="699" 
d="M194 848q48 0 74 -24.5t26 -67.5q0 -48 -35.5 -78.5t-83.5 -30.5q-42 0 -71 26t-29 66q0 45 37 77t82 32zM540 848q47 0 73.5 -24.5t26.5 -67.5q0 -46 -35 -77.5t-84 -31.5q-42 0 -71 26t-29 66q0 45 37 77t82 32zM235 562l42 -12v-471l70 -13v-66h-308v66l65 14v304
l-62 70v46zM592 562l40 -13v-572q0 -109 -48 -175.5t-137 -66.5q-24 0 -57 6t-45 12v92q21 -6 60 -6q19 0 31 11t16.5 37.5t5.5 47t1 62.5v387l-54 72v43z" />
    <glyph glyph-name="Jcircumflex" unicode="&#x134;" horiz-adv-x="383" 
d="M256 938l132 -123l-55 -35l-133 63l-137 -63l-55 35l135 123h113zM359 758v-80l-69 -11v-406q0 -206 -30 -281q-31 -76 -117 -124.5t-164 -48.5l-34 49q108 40 144 121q24 69 24 221v469l-72 11v80h318z" />
    <glyph glyph-name="jcircumflex" unicode="&#x135;" horiz-adv-x="334" 
d="M-17 717l132 179h124l135 -179l-71 -36l-126 101l-130 -101zM94 384l-54 72v43l187 63l40 -13v-572q0 -109 -48 -175.5t-137 -66.5q-24 0 -57 6t-45 12v92q21 -6 60 -6q19 0 31 11t16.5 37.5t5.5 47t1 62.5v387z" />
    <glyph glyph-name="Kcommaaccent" unicode="&#x136;" horiz-adv-x="750" 
d="M22 68l93 21v577l-94 12v80h354v-80l-87 -12v-277l224 278l-77 11l-2 80h302v-80l-91 -12l-210 -232q37 -33 91.5 -116.5l99.5 -152.5t66 -79l63 -18v-68h-206q-25 1 -57.5 66.5l-72.5 150.5t-75 117l-55 -62v-183l98 -21v-68h-364v68zM360 -20q57 0 92.5 -38.5
t35.5 -98.5q0 -50 -38 -95t-86 -61l-62 25v11q26 22 36.5 37.5t10.5 37.5q0 28 -18.5 46.5t-42.5 18.5v38z" />
    <glyph glyph-name="kcommaaccent" unicode="&#x137;" horiz-adv-x="663" 
d="M34 66l65 15v579l-78 35v69l221 32l30 -13v-436l-6 -69l159 171l-90 10v87h312v-87l-99 -9l-118 -113l167 -260l50 -10v-67h-289v67l41 14l-82 153l-50 -57l4 -40v-58l58 -13v-66h-295v66zM303 -20q57 0 92.5 -38.5t35.5 -98.5q0 -50 -38 -95t-86 -61l-62 25v11
q26 22 36.5 37.5t10.5 37.5q0 28 -19 46.5t-42 18.5v38z" />
    <glyph glyph-name="kgreenlandic" unicode="&#x138;" horiz-adv-x="663" 
d="M34 66l65 15v319l-66 46v62l181 54l58 -16v-200l-6 -68l159 171l-90 10v87h312v-87l-99 -9l-118 -113l167 -260l50 -10v-67h-289v67l41 14l-82 153l-50 -57l4 -40v-58l58 -13v-66h-295v66z" />
    <glyph glyph-name="Lacute" unicode="&#x139;" horiz-adv-x="631" 
d="M125 830l192 108l94 -94q-31 -24 -106.5 -43.5t-130.5 -22.5zM45 68l70 19v571l-67 10v90h331v-90l-89 -11v-577l176 19l81 115l75 -27l-34 -187h-543v68z" />
    <glyph glyph-name="lacute" unicode="&#x13a;" horiz-adv-x="359" 
d="M118 877l154 208l124 -95q-31 -50 -96 -90.5t-139 -66.5zM34 66l58 13v597l-66 28v68l210 24l29 -9v-706l85 -15v-66h-316v66z" />
    <glyph glyph-name="Lcommaaccent" unicode="&#x13b;" horiz-adv-x="631" 
d="M45 68l70 19v571l-67 10v90h331v-90l-89 -11v-577l176 19l81 115l75 -27l-34 -187h-543v68zM291 -20q57 0 92.5 -38.5t35.5 -98.5q0 -50 -38 -95t-86 -61l-62 25v11q26 22 36.5 37.5t10.5 37.5q0 28 -19 46.5t-42 18.5v38z" />
    <glyph glyph-name="lcommaaccent" unicode="&#x13c;" horiz-adv-x="359" 
d="M34 66l58 13v597l-66 28v68l210 24l29 -9v-706l85 -15v-66h-316v66zM147 -20q57 0 92.5 -38.5t35.5 -98.5q0 -50 -38 -95t-86 -61l-62 25v11q26 22 36.5 37.5t10.5 37.5q0 28 -19 46.5t-42 18.5v38z" />
    <glyph glyph-name="Lcaron" unicode="&#x13d;" horiz-adv-x="631" 
d="M461 500l-5 13q7 61 7 161q0 32 -8 64.5t-17 43.5l7 21l127 32q14 -15 23 -59.5t9 -86.5q0 -54 -17.5 -111t-41.5 -97zM45 68l70 19v571l-67 10v90h331v-90l-89 -11v-577l176 19l81 115l75 -27l-34 -187h-543v68z" />
    <glyph glyph-name="lcaron" unicode="&#x13e;" horiz-adv-x="359" 
d="M316 500l-5 13q7 61 7 161q0 32 -8 64.5t-17 43.5l7 21l127 32q14 -15 23 -59.5t9 -86.5q0 -54 -17.5 -111t-41.5 -97zM34 66l58 13v597l-66 28v68l210 24l29 -9v-706l85 -15v-66h-316v66z" />
    <glyph glyph-name="Ldot" unicode="&#x13f;" horiz-adv-x="697" 
d="M379 758v-90l-89 -11v-577l176 19l81 115l75 -27l-34 -187h-543v68l70 19v571l-67 10v90h331zM603 515q47 0 74 -26t27 -69q0 -47 -36 -77t-83 -30q-41 0 -70 26t-29 65q0 44 37.5 77.5t79.5 33.5z" />
    <glyph glyph-name="ldot" unicode="&#x140;" horiz-adv-x="559" 
d="M235 796l28 -9v-706l86 -15v-66h-316v66l57 13v597l-66 28v68zM459 496q48 0 74.5 -25.5t26.5 -69.5q0 -46 -36 -76.5t-82 -30.5q-40 0 -69.5 25.5t-29.5 65.5q0 44 36.5 77.5t79.5 33.5z" />
    <glyph glyph-name="Lslash" unicode="&#x141;" horiz-adv-x="629" 
d="M379 758v-90l-89 -11v-196q52 22 76 33l126 54v-133l-202 -81v-254l176 19l81 115l75 -27l-34 -187h-543v68l70 19v177l-82 -33v59v60l82 35v273l-67 10v90h331z" />
    <glyph glyph-name="lslash" unicode="&#x142;" horiz-adv-x="359" 
d="M34 66l58 13v236l-57 -19v121l57 21v238l-66 28v68l210 24l29 -9v-286l95 36v-129l-95 -33v-294l85 -15v-66h-316v66z" />
    <glyph glyph-name="Nacute" unicode="&#x143;" horiz-adv-x="833" 
d="M355 830l192 108l94 -94q-31 -24 -106.5 -43.5t-130.5 -22.5zM805 758v-89l-67 -11v-658h-192l-266 448l-53 132l1 -488l99 -24v-68h-289v68l77 22v567l-73 11v90h248l294 -511l43 -116v524l-88 14v89h266z" />
    <glyph glyph-name="nacute" unicode="&#x144;" horiz-adv-x="716" 
d="M307 696l153 208l125 -95q-30 -49 -95.5 -90.5t-139.5 -66.5zM47 66l61 13v321l-66 47v61l181 54l37 -9v-73q38 38 94.5 60t109.5 22q89 0 125 -55t36 -165v-263l68 -13v-66h-311v66l70 14v240q0 78 -18 103.5t-79 25.5q-13 0 -39 -7.5t-35 -14.5v-347l60 -14v-66h-294
v66z" />
    <glyph glyph-name="Ncommaaccent" unicode="&#x145;" horiz-adv-x="833" 
d="M805 758v-89l-67 -11v-658h-192l-266 448l-53 132l1 -488l99 -24v-68h-289v68l77 22v567l-73 11v90h248l294 -511l43 -116v524l-88 14v89h266zM397 -20q57 0 92.5 -38.5t35.5 -98.5q0 -50 -38 -95t-86 -61l-62 25v11q26 22 36.5 37.5t10.5 37.5q0 28 -19 46.5t-42 18.5
v38z" />
    <glyph glyph-name="ncommaaccent" unicode="&#x146;" horiz-adv-x="716" 
d="M47 66l61 13v321l-66 47v61l181 54l37 -9v-73q38 38 94.5 60t109.5 22q89 0 125 -55t36 -165v-263l68 -13v-66h-311v66l70 14v240q0 78 -18 103.5t-79 25.5q-13 0 -39 -7.5t-35 -14.5v-347l60 -14v-66h-294v66zM327 -20q57 0 92.5 -38.5t35.5 -98.5q0 -50 -38 -95
t-86 -61l-62 25v11q26 22 36.5 37.5t10.5 37.5q0 28 -19 46.5t-42 18.5v38z" />
    <glyph glyph-name="Ncaron" unicode="&#x147;" horiz-adv-x="833" 
d="M229 902l55 36l137 -63l143 63l54 -36l-139 -122h-113zM805 758v-89l-67 -11v-658h-192l-266 448l-53 132l1 -488l99 -24v-68h-289v68l77 22v567l-73 11v90h248l294 -511l43 -116v524l-88 14v89h266z" />
    <glyph glyph-name="ncaron" unicode="&#x148;" horiz-adv-x="716" 
d="M166 831l64 36l130 -101l126 100l71 -36l-135 -178h-124zM47 66l61 13v321l-66 47v61l181 54l37 -9v-73q38 38 94.5 60t109.5 22q89 0 125 -55t36 -165v-263l68 -13v-66h-311v66l70 14v240q0 78 -18 103.5t-79 25.5q-13 0 -39 -7.5t-35 -14.5v-347l60 -14v-66h-294v66z
" />
    <glyph glyph-name="Omacron" unicode="&#x14c;" horiz-adv-x="781" 
d="M253 924h276v-117h-276v117zM401 765q159 0 255.5 -107t93.5 -272q-3 -175 -101.5 -287.5t-257.5 -112.5q-162 0 -261 107.5t-96 274.5q3 102 44.5 188t112.5 139q92 70 210 70zM396 685q-51 0 -85.5 -23.5t-52.5 -69.5t-25 -98.5t-7 -124.5q0 -118 46 -211.5t125 -93.5
q50 0 83.5 23t50 69.5t22.5 99t6 129.5q0 133 -45.5 216.5t-117.5 83.5z" />
    <glyph glyph-name="omacron" unicode="&#x14d;" horiz-adv-x="652" 
d="M188 773h276v-117h-276v117zM336 563q137 0 209 -71t72 -203q0 -138 -81 -219.5t-214 -81.5q-138 0 -212.5 75.5t-72.5 210.5q3 134 83 209.5t216 79.5zM332 491q-111 0 -111 -203q0 -41 5.5 -79t17 -73t33 -55.5t51.5 -20.5q106 0 106 220q0 211 -102 211z" />
    <glyph glyph-name="Ohungarumlaut" unicode="&#x150;" horiz-adv-x="781" 
d="M181 816l142 203l108 -81q-34 -48 -88 -101t-92 -69zM461 816l140 203l112 -81q-46 -59 -97 -108.5t-88 -61.5zM401 765q159 0 255.5 -107t93.5 -272q-3 -175 -101.5 -287.5t-257.5 -112.5q-162 0 -261 107.5t-96 274.5q3 102 44.5 188t112.5 139q92 70 210 70zM396 685
q-51 0 -85.5 -23.5t-52.5 -69.5t-25 -98.5t-7 -124.5q0 -118 46 -211.5t125 -93.5q50 0 83.5 23t50 69.5t22.5 99t6 129.5q0 133 -45.5 216.5t-117.5 83.5z" />
    <glyph glyph-name="ohungarumlaut" unicode="&#x151;" horiz-adv-x="652" 
d="M91 694l142 203l108 -81q-34 -48 -88 -101t-92 -69zM371 694l140 203l112 -81q-46 -59 -97 -108.5t-88 -61.5zM336 563q137 0 209 -71t72 -203q0 -138 -81 -219.5t-214 -81.5q-138 0 -212.5 75.5t-72.5 210.5q3 134 83 209.5t216 79.5zM332 491q-111 0 -111 -203
q0 -41 5.5 -79t17 -73t33 -55.5t51.5 -20.5q106 0 106 220q0 211 -102 211z" />
    <glyph glyph-name="OE" unicode="&#x152;" horiz-adv-x="1085" 
d="M401 765q40 0 74 -7h515l15 -167h-86l-45 78l-181 11v-258l127 5l22 72h78v-239h-78l-22 78l-127 3v-263l223 14l62 96l87 -18l-26 -170h-548q-50 -14 -100 -14q-162 0 -261 107.5t-96 274.5q5 169 108.5 283t258.5 114zM396 685q-52 0 -86.5 -24t-52 -70.5t-24.5 -98.5
t-7 -123q0 -75 18.5 -142.5t58.5 -115t94 -47.5q84 0 123 68v457q-49 96 -124 96z" />
    <glyph glyph-name="oe" unicode="&#x153;" horiz-adv-x="1059" 
d="M796 562q107 0 165 -52t62 -152q2 -44 -6 -99h-341q15 -175 155 -175q80 0 156 33l26 -61q-41 -34 -110 -53t-130 -17q-153 3 -225 96q-38 -45 -99.5 -69.5t-126.5 -24.5q-138 0 -212.5 75.5t-72.5 210.5q3 134 83 209.5t216 79.5q160 2 232 -99q82 98 228 98zM780 494
q-49 0 -74.5 -44t-28.5 -113h178q5 57 3 80q-6 77 -78 77zM332 491q-111 0 -111 -203q0 -41 5.5 -79t17 -73t33 -55.5t51.5 -20.5q106 0 106 220q0 211 -102 211z" />
    <glyph glyph-name="Racute" unicode="&#x154;" horiz-adv-x="745" 
d="M284 830l192 108l94 -94q-31 -24 -106.5 -43.5t-130.5 -22.5zM371 765q133 0 214 -48t81 -150q0 -173 -165 -230q19 -12 26 -19q33 -32 87 -126.5t77 -105.5l63 -18v-68h-206q-23 0 -49 49t-46 108.5t-49 108.5t-57 49q-33 -1 -59 -1v-227l93 -19v-68h-351v68l85 21v573
l-76 12v84h110q41 0 119 3.5t103 3.5zM347 685q-50 0 -59 -6v-284q30 -4 50 -4q84 0 122.5 36.5t38.5 121.5q0 63 -41 99.5t-111 36.5z" />
    <glyph glyph-name="racute" unicode="&#x155;" horiz-adv-x="472" 
d="M139 696l154 208l124 -95q-31 -50 -96 -90.5t-139 -66.5zM48 66l60 13v321l-66 47v61l181 54l35 -9v-95q10 41 55 72.5t85 31.5q41 0 53 -6v-154q-11 11 -37.5 17t-45.5 6q-60 0 -87 -18v-324l114 -17v-66h-347v66z" />
    <glyph glyph-name="Rcommaaccent" unicode="&#x156;" horiz-adv-x="745" 
d="M371 765q133 0 214 -48t81 -150q0 -173 -165 -230q19 -12 26 -19q33 -32 87 -126.5t77 -105.5l63 -18v-68h-206q-23 0 -49 49t-46 108.5t-49 108.5t-57 49q-33 -1 -59 -1v-227l93 -19v-68h-351v68l85 21v573l-76 12v84h110q41 0 119 3.5t103 3.5zM347 685q-50 0 -59 -6
v-284q30 -4 50 -4q84 0 122.5 36.5t38.5 121.5q0 63 -41 99.5t-111 36.5zM407 -20q57 0 92.5 -38.5t35.5 -98.5q0 -50 -38 -95t-86 -61l-62 25v11q26 22 36.5 37.5t10.5 37.5q0 28 -19 46.5t-42 18.5v38z" />
    <glyph glyph-name="rcommaaccent" unicode="&#x157;" horiz-adv-x="472" 
d="M48 66l60 13v321l-66 47v61l181 54l35 -9v-95q10 41 55 72.5t85 31.5q41 0 53 -6v-154q-11 11 -37.5 17t-45.5 6q-60 0 -87 -18v-324l114 -17v-66h-347v66zM185 -20q57 0 92.5 -38.5t35.5 -98.5q0 -50 -38 -95t-86 -61l-62 25v11q26 22 36.5 37.5t10.5 37.5
q0 28 -19 46.5t-42 18.5v38z" />
    <glyph glyph-name="Rcaron" unicode="&#x158;" horiz-adv-x="745" 
d="M163 902l55 36l137 -63l143 63l54 -36l-139 -122h-113zM371 765q133 0 214 -48t81 -150q0 -173 -165 -230q19 -12 26 -19q33 -32 87 -126.5t77 -105.5l63 -18v-68h-206q-23 0 -49 49t-46 108.5t-49 108.5t-57 49q-33 -1 -59 -1v-227l93 -19v-68h-351v68l85 21v573l-76 12
v84h110q41 0 119 3.5t103 3.5zM347 685q-50 0 -59 -6v-284q30 -4 50 -4q84 0 122.5 36.5t38.5 121.5q0 63 -41 99.5t-111 36.5z" />
    <glyph glyph-name="rcaron" unicode="&#x159;" horiz-adv-x="472" 
d="M0 831l64 36l130 -101l126 100l71 -36l-135 -178h-124zM48 66l60 13v321l-66 47v61l181 54l35 -9v-95q10 41 55 72.5t85 31.5q41 0 53 -6v-154q-11 11 -37.5 17t-45.5 6q-60 0 -87 -18v-324l114 -17v-66h-347v66z" />
    <glyph glyph-name="Sacute" unicode="&#x15a;" horiz-adv-x="643" 
d="M203 830l192 108l94 -94q-31 -24 -106.5 -43.5t-130.5 -22.5zM322 -14q-62 0 -139.5 12.5t-115.5 32.5v198h73l46 -118q22 -30 54.5 -39.5t82.5 -9.5q53 0 84.5 28t31.5 80q0 61 -112 120l-74 40l-61.5 36.5t-55.5 40.5t-37 41.5t-27.5 51t-7.5 57.5q0 93 77.5 150.5
t184.5 57.5q53 0 130 -10t107 -25v-162h-81l-45 103q-12 10 -42.5 16.5t-51.5 6.5q-49 0 -81.5 -20.5t-32.5 -59.5q0 -30 12 -54t43 -48t59.5 -41.5t84.5 -46.5q89 -46 137 -97t48 -121q0 -103 -83 -161.5t-208 -58.5z" />
    <glyph glyph-name="Scedilla" unicode="&#x15e;" horiz-adv-x="643" 
d="M613 206q0 -96 -72.5 -153.5t-185.5 -65.5q-1 -25 2 -51q46 -4 75 -30.5t29 -63.5q0 -53 -41.5 -77.5t-109.5 -24.5q-32 0 -105 15v73q24 -7 61 -7q34 0 34 28q0 27 -30 27q-6 0 -16 -0.5t-13 -0.5q0 17 7 54.5t15 59.5q-137 12 -196 42v198h73l46 -118
q22 -30 54.5 -39.5t82.5 -9.5q53 0 84.5 28t31.5 80q0 61 -112 120l-74 40l-61.5 36.5t-55.5 40.5t-37 41.5t-27.5 51t-7.5 57.5q0 93 77.5 150.5t184.5 57.5q53 0 130 -10t107 -25v-162h-81l-45 103q-12 10 -42.5 16.5t-51.5 6.5q-49 0 -81.5 -20.5t-32.5 -59.5
q0 -30 12 -54t43 -48t59.5 -41.5t84.5 -46.5q89 -46 137 -97t48 -121z" />
    <glyph glyph-name="scedilla" unicode="&#x15f;" horiz-adv-x="535" 
d="M506 164q0 -80 -57.5 -122.5t-152.5 -51.5q-2 -36 2 -54q46 -4 75 -30.5t29 -63.5q0 -53 -41.5 -77.5t-109.5 -24.5q-32 0 -105 15v73q25 -7 61 -7q34 0 34 28q0 27 -30 27q-6 0 -16 -0.5t-13 -0.5q0 17 7 55t15 60q-96 9 -155 42v129h80l31 -54q18 -18 28.5 -27t27 -17
t36.5 -9q43 -2 66 14.5t23 46.5q-1 13 -10.5 25.5t-32 25.5t-37.5 20.5t-47 21.5q-86 40 -130 85t-44 112q2 75 73 116t161 41q45 2 104 -6.5t90 -21.5v-134h-86l-27 61q-33 39 -72 39q-31 0 -51.5 -12.5t-20.5 -32.5q0 -37 30.5 -60.5t106.5 -58.5q79 -36 118.5 -73
t39.5 -99z" />
    <glyph glyph-name="Scaron" unicode="&#x160;" horiz-adv-x="643" 
d="M122 902l55 36l137 -63l143 63l54 -36l-139 -122h-113zM322 -14q-62 0 -139.5 12.5t-115.5 32.5v198h73l46 -118q22 -30 54.5 -39.5t82.5 -9.5q53 0 84.5 28t31.5 80q0 61 -112 120l-74 40l-61.5 36.5t-55.5 40.5t-37 41.5t-27.5 51t-7.5 57.5q0 93 77.5 150.5
t184.5 57.5q53 0 130 -10t107 -25v-162h-81l-45 103q-12 10 -42.5 16.5t-51.5 6.5q-49 0 -81.5 -20.5t-32.5 -59.5q0 -30 12 -54t43 -48t59.5 -41.5t84.5 -46.5q89 -46 137 -97t48 -121q0 -103 -83 -161.5t-208 -58.5z" />
    <glyph glyph-name="scaron" unicode="&#x161;" horiz-adv-x="535" 
d="M83 831l63 36l130 -101l127 100l71 -36l-136 -178h-123zM49 161h80l31 -54q18 -18 28.5 -27t27 -17t36.5 -9q43 -2 66 14.5t23 46.5q-1 13 -10.5 25.5t-32 25.5t-37.5 20.5t-47 21.5q-86 40 -130 85t-44 112q2 75 73 116t161 41q45 2 104 -6.5t90 -21.5v-134h-86l-27 61
q-33 39 -72 39q-31 0 -51.5 -12.5t-20.5 -32.5q0 -37 30.5 -60.5t106.5 -58.5q79 -36 118.5 -73t39.5 -99t-37.5 -102.5t-93.5 -57t-130 -16.5q-50 0 -105.5 12t-90.5 32v129z" />
    <glyph glyph-name="Tcaron" unicode="&#x164;" horiz-adv-x="711" 
d="M171 902l55 36l137 -63l143 63l54 -36l-139 -122h-113zM167 68l112 19v589l-134 -13l-34 -105l-88 -4l12 204h653v-198l-69 -9l-38 112l-129 13v-588l110 -20v-68h-395v68z" />
    <glyph glyph-name="tcaron" unicode="&#x165;" horiz-adv-x="451" 
d="M344 641l-5 13q7 61 7 161q0 33 -8 65t-17 43l7 21l127 32q14 -15 23 -59.5t9 -86.5q0 -54 -17.5 -111t-41.5 -97zM249 677v-131h167v-87h-160v-188v-37.5t1 -34t2.5 -32.5t4 -26.5t7 -23t10.5 -16t15 -11.5t20 -3q53 0 85 17l26 -55q-30 -30 -85.5 -45.5t-112.5 -15.5
q-81 0 -111 42t-30 138v291h-74v55q64 10 94 40q29 30 59 123h82z" />
    <glyph glyph-name="Umacron" unicode="&#x16a;" horiz-adv-x="787" 
d="M298 904h276v-117h-276v117zM773 758v-80l-70 -12v-340q0 -164 -70.5 -252t-215.5 -88q-164 0 -243.5 79t-78.5 240q1 60 1 181t1 181l-77 11v80h333v-80l-83 -11v-369q0 -112 39 -168.5t129 -56.5q86 0 121 66.5t35 185.5l-2 341l-82 12v80h263z" />
    <glyph glyph-name="umacron" unicode="&#x16b;" horiz-adv-x="650" 
d="M186 773h276v-117h-276v117zM72 424l-46 34v60l186 44l26 -8v-340q0 -68 15.5 -100t59.5 -32q59 0 87 25v309l-62 34v68l204 44l27 -8v-488h56v-52q-17 -12 -62 -20t-76 -8t-50.5 13.5t-19.5 40.5v19q-24 -29 -73 -51t-88 -22q-103 0 -143.5 49t-40.5 156v233z" />
    <glyph glyph-name="Uring" unicode="&#x16e;" horiz-adv-x="787" 
d="M559 758h214v-80l-70 -12v-340q0 -164 -70.5 -252t-215.5 -88q-164 0 -243.5 79t-78.5 240q1 60 1 181t1 181l-77 11v80h281q-17 26 -17 59q0 56 41 88.5t104 32.5t104.5 -33t41.5 -88q0 -33 -16 -59zM429 876q-27 0 -44 -16.5t-17 -42.5q0 -25 17 -41.5t44 -16.5
q25 0 43 16t18 42q0 25 -17.5 42t-43.5 17zM438 73q86 0 121 66.5t35 185.5l-2 341l-82 12v37q-36 -18 -81 -18q-42 0 -76 17v-36l-83 -11v-369q0 -112 39 -168.5t129 -56.5z" />
    <glyph glyph-name="uring" unicode="&#x16f;" horiz-adv-x="650" 
d="M325 896q59 0 101.5 -40t42.5 -94q0 -58 -43.5 -96.5t-100.5 -38.5q-58 0 -100.5 39.5t-42.5 95.5t42.5 95t100.5 39zM325 827q-29 0 -47 -18.5t-18 -46.5t18 -46.5t47 -18.5q28 0 46.5 18.5t18.5 46.5q0 27 -19 46t-46 19zM72 424l-46 34v60l186 44l26 -8v-340
q0 -68 15.5 -100t59.5 -32q59 0 87 25v309l-62 34v68l204 44l27 -8v-488h56v-52q-17 -12 -62 -20t-76 -8t-50.5 13.5t-19.5 40.5v19q-24 -29 -73 -51t-88 -22q-103 0 -143.5 49t-40.5 156v233z" />
    <glyph glyph-name="Uhungarumlaut" unicode="&#x170;" horiz-adv-x="787" 
d="M181 816l142 203l108 -81q-34 -48 -88 -101t-92 -69zM461 816l140 203l112 -81q-46 -59 -97 -108.5t-88 -61.5zM773 758v-80l-70 -12v-340q0 -164 -70.5 -252t-215.5 -88q-164 0 -243.5 79t-78.5 240q1 60 1 181t1 181l-77 11v80h333v-80l-83 -11v-369q0 -112 39 -168.5
t129 -56.5q86 0 121 66.5t35 185.5l-2 341l-82 12v80h263z" />
    <glyph glyph-name="uhungarumlaut" unicode="&#x171;" horiz-adv-x="650" 
d="M91 694l142 203l108 -81q-34 -48 -88 -101t-92 -69zM371 694l140 203l112 -81q-46 -59 -97 -108.5t-88 -61.5zM72 424l-46 34v60l186 44l26 -8v-340q0 -68 15.5 -100t59.5 -32q59 0 87 25v309l-62 34v68l204 44l27 -8v-488h56v-52q-17 -12 -62 -20t-76 -8t-50.5 13.5
t-19.5 40.5v19q-24 -29 -73 -51t-88 -22q-103 0 -143.5 49t-40.5 156v233z" />
    <glyph glyph-name="Uogonek" unicode="&#x172;" horiz-adv-x="787" 
d="M510 758h263v-80l-70 -12v-340q0 -303 -229 -336q-44 -18 -79 -48t-35 -60q0 -28 36 -28q11 0 20.5 1t20 4.5l16.5 5.5t20 8t20 8l17 -66q-77 -66 -202 -66q-46 0 -75 22.5t-29 59.5q0 41 46.5 85.5t107.5 72.5q-266 25 -263 316q1 60 1 181t1 181l-77 11v80h333v-80
l-83 -11v-369q0 -112 39 -168.5t129 -56.5q86 0 121 66.5t35 185.5l-2 341l-82 12v80z" />
    <glyph glyph-name="uogonek" unicode="&#x173;" horiz-adv-x="650" 
d="M587 -1q-51 -17 -96.5 -49.5t-45.5 -67.5q0 -28 36 -28q42 0 116 27l17 -66q-92 -66 -221 -66q-47 0 -75.5 22.5t-28.5 61.5q0 42 49.5 88t111.5 71q-33 13 -33 48v19q-24 -29 -73 -51t-88 -22q-103 0 -143.5 49t-40.5 156v233l-46 34v60l186 44l26 -8v-340
q0 -68 15.5 -100t59.5 -32q59 0 87 25v309l-62 34v68l204 44l27 -8v-488h56v-52q-11 -8 -38 -15z" />
    <glyph glyph-name="Ydieresis" unicode="&#x178;" horiz-adv-x="723" 
d="M246 938q39 0 64.5 -17t25.5 -52t-31.5 -57t-72.5 -22q-35 0 -60.5 17.5t-25.5 49.5q0 35 30.5 58t69.5 23zM512 938q87 0 87 -68q0 -34 -28.5 -56.5t-70.5 -22.5q-38 0 -63.5 18.5t-25.5 49.5q0 34 31.5 56.5t69.5 22.5zM170 68l118 22v160l-228 419l-54 9v80h308v-78
l-52 -10l123 -259l14 -46l17 50l104 251l-78 12l-1 80h275v-80l-64 -18l-191 -395v-173l132 -24v-68h-423v68z" />
    <glyph glyph-name="Zacute" unicode="&#x179;" horiz-adv-x="678" 
d="M269 830l192 108l94 -94q-31 -24 -106.5 -43.5t-130.5 -22.5zM632 758l23 -74l-355 -523l-71 -81l272 23l97 130l73 -20l-54 -213h-572l-20 68l361 523l81 89l-280 -23l-62 -119l-75 14l21 206h561z" />
    <glyph glyph-name="zacute" unicode="&#x17a;" horiz-adv-x="562" 
d="M179 696l154 208l124 -95q-31 -50 -96 -90.5t-139 -66.5zM514 546l25 -60l-232 -338l-60 -74l177 17l29 84h90l-7 -175h-488l-23 49l57 90l213 290l41 44l-168 -10l-32 -99h-89v182h467z" />
    <glyph glyph-name="Zdotaccent" unicode="&#x17b;" horiz-adv-x="678" 
d="M345 938q39 0 64.5 -17t25.5 -52t-31.5 -57t-72.5 -22q-35 0 -60.5 17.5t-25.5 49.5q0 35 30.5 58t69.5 23zM632 758l23 -74l-355 -523l-71 -81l272 23l97 130l73 -20l-54 -213h-572l-20 68l361 523l81 89l-280 -23l-62 -119l-75 14l21 206h561z" />
    <glyph glyph-name="zdotaccent" unicode="&#x17c;" horiz-adv-x="562" 
d="M293 796q40 0 65 -17.5t25 -51.5q0 -36 -32 -57.5t-71 -21.5q-37 0 -62 18.5t-25 49.5q0 35 31.5 57.5t68.5 22.5zM514 546l25 -60l-232 -338l-60 -74l177 17l29 84h90l-7 -175h-488l-23 49l57 90l213 290l41 44l-168 -10l-32 -99h-89v182h467z" />
    <glyph glyph-name="Zcaron" unicode="&#x17d;" horiz-adv-x="678" 
d="M148 902l55 36l137 -63l143 63l54 -36l-139 -122h-113zM632 758l23 -74l-355 -523l-71 -81l272 23l97 130l73 -20l-54 -213h-572l-20 68l361 523l81 89l-280 -23l-62 -119l-75 14l21 206h561z" />
    <glyph glyph-name="zcaron" unicode="&#x17e;" horiz-adv-x="562" 
d="M95 831l64 36l130 -101l126 100l71 -36l-135 -178h-124zM514 546l25 -60l-232 -338l-60 -74l177 17l29 84h90l-7 -175h-488l-23 49l57 90l213 290l41 44l-168 -10l-32 -99h-89v182h467z" />
    <glyph glyph-name="florin" unicode="&#x192;" horiz-adv-x="481" 
d="M140 446h-90l4 51l92 39l5 51q8 102 82 181t171 79q57 0 94 -16l-10 -127q-56 27 -97 27t-55.5 -19.5t-19.5 -72.5l-7 -93h129v-100h-137l-48 -619h-161z" />
    <glyph glyph-name="Scommaaccent" unicode="&#x218;" horiz-adv-x="643" 
d="M322 -14q-62 0 -139.5 12.5t-115.5 32.5v198h73l46 -118q22 -30 54.5 -39.5t82.5 -9.5q53 0 84.5 28t31.5 80q0 61 -112 120l-74 40l-61.5 36.5t-55.5 40.5t-37 41.5t-27.5 51t-7.5 57.5q0 93 77.5 150.5t184.5 57.5q53 0 130 -10t107 -25v-162h-81l-45 103
q-12 10 -42.5 16.5t-51.5 6.5q-49 0 -81.5 -20.5t-32.5 -59.5q0 -30 12 -54t43 -48t59.5 -41.5t84.5 -46.5q89 -46 137 -97t48 -121q0 -103 -83 -161.5t-208 -58.5zM297 -20q57 0 92.5 -38.5t35.5 -98.5q0 -50 -38 -95t-86 -61l-62 25v11q26 22 36.5 37.5t10.5 37.5
q0 28 -19 46.5t-42 18.5v38z" />
    <glyph glyph-name="scommaaccent" unicode="&#x219;" horiz-adv-x="535" 
d="M49 161h80l31 -54q18 -18 28.5 -27t27 -17t36.5 -9q43 -2 66 14.5t23 46.5q-1 13 -10.5 25.5t-32 25.5t-37.5 20.5t-47 21.5q-86 40 -130 85t-44 112q2 75 73 116t161 41q45 2 104 -6.5t90 -21.5v-134h-86l-27 61q-33 39 -72 39q-31 0 -51.5 -12.5t-20.5 -32.5
q0 -37 30.5 -60.5t106.5 -58.5q79 -36 118.5 -73t39.5 -99t-37.5 -102.5t-93.5 -57t-130 -16.5q-50 0 -105.5 12t-90.5 32v129zM234 -20q57 0 92.5 -38.5t35.5 -98.5q0 -50 -38 -95t-86 -61l-62 25v11q26 22 36.5 37.5t10.5 37.5q0 28 -18.5 46.5t-42.5 18.5v38z" />
    <glyph glyph-name="uni021A" unicode="&#x21a;" horiz-adv-x="711" 
d="M167 68l112 19v589l-134 -13l-34 -105l-88 -4l12 204h653v-198l-69 -9l-38 112l-129 13v-588l110 -20v-68h-395v68zM347 -20q57 0 92.5 -38.5t35.5 -98.5q0 -50 -38 -95t-86 -61l-62 25v11q26 22 36.5 37.5t10.5 37.5q0 28 -19 46.5t-42 18.5v38z" />
    <glyph glyph-name="uni021B" unicode="&#x21b;" horiz-adv-x="451" 
d="M249 677v-131h167v-87h-160v-188v-37.5t1 -34t2.5 -32.5t4 -26.5t7 -23t10.5 -16t15 -11.5t20 -3q53 0 85 17l26 -55q-30 -30 -85.5 -45.5t-112.5 -15.5q-81 0 -111 42t-30 138v291h-74v55q64 10 94 40q29 30 59 123h82zM187 -20q57 0 92.5 -38.5t35.5 -98.5
q0 -50 -38 -95t-86 -61l-62 25v11q26 22 36.5 37.5t10.5 37.5q0 28 -19 46.5t-42 18.5v38z" />
    <glyph glyph-name="uni0237" unicode="&#x237;" horiz-adv-x="334" 
d="M94 384l-54 72v43l187 63l40 -13v-572q0 -109 -48 -175.5t-137 -66.5q-24 0 -57 6t-45 12v92q21 -6 60 -6q19 0 31 11t16.5 37.5t5.5 47t1 62.5v387z" />
    <glyph glyph-name="circumflex" unicode="&#x2c6;" horiz-adv-x="519" 
d="M64 688l132 179h124l135 -179l-71 -36l-126 101l-130 -101z" />
    <glyph glyph-name="caron" unicode="&#x2c7;" horiz-adv-x="518" 
d="M66 831l64 36l130 -101l126 100l71 -36l-135 -178h-124z" />
    <glyph glyph-name="breve" unicode="&#x2d8;" horiz-adv-x="701" 
d="M533 827q0 -71 -53 -121t-129 -50q-78 0 -130.5 49.5t-52.5 121.5h103q18 -73 80 -73t81 73h101z" />
    <glyph glyph-name="dotaccent" unicode="&#x2d9;" horiz-adv-x="346" 
d="M178 796q40 0 65 -17.5t25 -51.5q0 -36 -32 -57.5t-71 -21.5q-37 0 -62 18.5t-25 49.5q0 35 31.5 57.5t68.5 22.5z" />
    <glyph glyph-name="ring" unicode="&#x2da;" horiz-adv-x="310" 
d="M155 896q59 0 101.5 -40t42.5 -94q0 -58 -43.5 -96.5t-100.5 -38.5q-58 0 -100.5 39.5t-42.5 95.5t42.5 95t100.5 39zM155 827q-29 0 -47 -18.5t-18 -46.5t18 -46.5t47 -18.5q28 0 46.5 18.5t18.5 46.5q0 27 -19 46t-46 19z" />
    <glyph glyph-name="ogonek" unicode="&#x2db;" horiz-adv-x="375" 
d="M134 5l61 -5q-52 -17 -98 -49.5t-46 -68.5q0 -28 36 -28q42 0 116 27l17 -66q-92 -66 -221 -66q-47 0 -75.5 22.5t-28.5 61.5q0 46 57.5 95.5t123.5 71.5z" />
    <glyph glyph-name="tilde" unicode="&#x2dc;" horiz-adv-x="528" 
d="M55 716q13 38 61.5 70t88.5 32q39 0 82 -24.5t61 -24.5q38 0 81 35l44 -48q-16 -39 -62.5 -71t-84.5 -32t-83.5 25.5t-63.5 25.5q-35 0 -82 -36z" />
    <glyph glyph-name="hungarumlaut" unicode="&#x2dd;" horiz-adv-x="476" 
d="M-9 694l142 203l108 -81q-34 -48 -88 -101t-92 -69zM271 694l140 203l112 -81q-46 -59 -97 -108.5t-88 -61.5z" />
    <glyph glyph-name="uni0326" unicode="&#x326;" 
d="M-228 -20q57 0 92.5 -38.5t35.5 -98.5q0 -50 -38 -95t-86 -61l-62 25v11q26 22 36.5 37.5t10.5 37.5q0 28 -18.5 46.5t-42.5 18.5v38z" />
    <glyph glyph-name="Omega" unicode="&#x3a9;" horiz-adv-x="1041" 
d="M77 261l81 3l21 -122h172q-80 42 -144.5 135.5t-61.5 173.5q2 147 107.5 230.5t268.5 83.5q162 0 262.5 -80.5t97.5 -225.5q-4 -76 -64 -165.5t-134 -151.5h157l49 126l69 -4l-30 -264h-335v117q45 37 75.5 155t30.5 211q0 99 -47 153.5t-135 54.5q-101 0 -145.5 -56.5
t-44.5 -168.5q0 -83 37 -187t86 -162l1 -117h-374v261z" />
    <glyph glyph-name="mu" unicode="&#x3bc;" horiz-adv-x="625" 
d="M263 -174h-166v598l-46 34v60l186 44l26 -8v-340q0 -68 15.5 -100t59.5 -32q59 0 87 25v309l-62 34v68l204 44l27 -8v-488h56v-52q-17 -12 -62 -20t-76 -8t-50.5 13.5t-19.5 40.5v19q-24 -29 -73 -51t-88 -22h-18v-160z" />
    <glyph glyph-name="pi" unicode="&#x3c0;" horiz-adv-x="799" 
d="M742 598q-6 -82 -44 -135.5t-107 -58.5q-1 -37 -4.5 -112t-5.5 -113q-5 -84 27 -84q22 0 41 13.5t27 37.5h87q-16 -63 -65 -108t-107 -45q-78 0 -112.5 32.5t-29.5 96.5l33 282h-150q0 -32 -0.5 -97t-0.5 -97q-4 -73 -17 -111.5t-52 -73.5q-22 -20 -78 -37l-120 68
q7 0 35 12.5t39 20.5q39 25 53.5 59t17.5 89q2 28 7 83.5t7 83.5h-48q-56 2 -74 -49l-70 15q-3 16 7 47q15 55 58 92t96 37h383q70 0 97 52h70z" />
    <glyph glyph-name="uni0901" unicode="&#x901;" 
d="M-153 1120l111 -111l-111 -112l-112 112zM-333 940q70 -106 156 -106q60 0 105 33.5t72 78.5l100 -90q-43 -57 -95 -88t-126 -31q-76 0 -141.5 56.5t-103.5 128.5z" />
    <glyph glyph-name="uni0902" unicode="&#x902;" 
d="M-153 945l111 -111l-111 -112l-112 112z" />
    <glyph glyph-name="uni0903" unicode="&#x903;" horiz-adv-x="307" 
d="M152 544l111 -111l-111 -112l-112 112zM152 208l111 -111l-111 -112l-112 112z" />
    <glyph glyph-name="uni0904" unicode="&#x904;" horiz-adv-x="871" 
d="M871 577v-21h-87v-593h-23l-111 63v178h-2q-23 -7 -40 -7q-52 0 -107 43h-3q14 -29 14 -66q0 -74 -47 -124.5t-119 -51.5q-165 -2 -329 264l33 31q128 -170 238 -170q52 0 83.5 27.5t31.5 64.5q0 47 -34 88q-65 -22 -138 -29l-52 95l9 17q126 14 167 39q33 21 33 76
q0 27 -22 47.5t-58 20.5q-44 0 -79.5 -18.5t-82.5 -60.5l-57 113q93 69 183 69q68 0 137.5 -74t69.5 -143q0 -42 -12.5 -67.5t-38.5 -50.5q60 -27 121 -27q60 0 101 29v217h-122l-46 91v22h199q1 4 1 12q0 37 -27.5 65t-84.5 28q-20 0 -84 -7.5t-100 -7.5q-61 1 -122 17.5
t-102.5 47t-41.5 66.5q0 42 23 100l57 -9q-15 -42 -15 -62q0 -18 20 -32t67 -14q49 0 151.5 8t122.5 8q47 0 88.5 -19.5t66.5 -50.5q46 -56 46 -116q0 -14 -2 -34h77z" />
    <glyph glyph-name="uni0905" unicode="&#x905;" horiz-adv-x="871" 
d="M871 577v-21h-87v-593h-23l-111 63v178h-2q-23 -7 -40 -7q-52 0 -107 43h-3q14 -29 14 -66q0 -74 -47 -124.5t-119 -51.5q-165 -2 -329 264l33 31q128 -170 238 -170q52 0 83.5 27.5t31.5 64.5q0 47 -34 88q-65 -22 -138 -29l-52 95l9 17q126 14 167 39q33 21 33 76
q0 27 -22 47.5t-58 20.5q-44 0 -79.5 -18.5t-82.5 -60.5l-57 113q93 69 183 69q68 0 137.5 -74t69.5 -143q0 -42 -12.5 -67.5t-38.5 -50.5q60 -27 121 -27q60 0 101 29v217h-122l-46 91v22h340z" />
    <glyph glyph-name="uni0906" unicode="&#x906;" horiz-adv-x="1182" 
d="M1182 577v-21h-90v-593h-23l-111 63v530h-174v-593h-23l-111 63v178h-2q-23 -7 -40 -7q-52 0 -107 43h-3q14 -29 14 -66q0 -74 -47 -124.5t-119 -51.5q-165 -2 -329 264l33 31q128 -170 238 -170q52 0 83.5 27.5t31.5 64.5q0 47 -34 88q-65 -22 -138 -29l-52 95l9 17
q126 14 167 39q33 21 33 76q0 27 -22 47.5t-58 20.5q-44 0 -79.5 -18.5t-82.5 -60.5l-57 113q93 69 183 69q68 0 137.5 -74t69.5 -143q0 -42 -12.5 -67.5t-38.5 -50.5q60 -27 121 -27q60 0 101 29v217h-122l-46 91v22h651z" />
    <glyph glyph-name="uni0907" unicode="&#x907;" horiz-adv-x="533" 
d="M227 376q-70 0 -70 -57q0 -12 5 -24.5t13 -12.5q37 1 106.5 21t76.5 20q41 0 79 -57t37 -121q-2 -76 -63 -131.5t-135 -61.5l88 -130l-95 -49l-51 182q-73 10 -117.5 46.5t-44.5 79.5q1 33 24.5 50.5t50.5 17.5q2 0 20 -2l50 -82q70 0 145 33t75 69q0 31 -18 45
q-15 0 -81 -19.5t-84 -19.5q-39 0 -97.5 57t-58.5 117q0 142 112 142h100v67h-304l-46 91v22h540l49 -92v-21h-105v-180h-201z" />
    <glyph glyph-name="uni0908" unicode="&#x908;" horiz-adv-x="533" 
d="M377 669h107l49 -92v-21h-105v-180h-201q-70 0 -70 -57q0 -12 5 -24.5t13 -12.5q37 1 106.5 21t76.5 20q41 0 79 -57t37 -121q-2 -76 -63 -131.5t-135 -61.5l88 -130l-95 -49l-51 182q-73 10 -117.5 46.5t-44.5 79.5q1 33 24.5 50.5t50.5 17.5q2 0 20 -2l50 -82
q70 0 145 33t75 69q0 31 -18 45q-15 0 -81 -19.5t-84 -19.5q-39 0 -97.5 57t-58.5 117q0 142 112 142h100v67h-304l-46 91v22h355q-113 94 -113 189q0 68 48.5 107t108.5 39q59 0 115.5 -36t101.5 -99l-29 -37q-21 19 -60 36t-73 17q-30 0 -51.5 -20.5t-21.5 -56.5
q0 -66 52 -139z" />
    <glyph glyph-name="uni0909" unicode="&#x909;" horiz-adv-x="613" 
d="M613 577v-21h-174q67 -77 67 -131q0 -62 -44 -104q59 -54 83 -92t24 -85q0 -74 -47 -124.5t-119 -51.5q-191 -1 -369 264l33 31q146 -170 278 -170q52 0 83.5 27.5t31.5 64.5q0 55 -47 102q-43 -21 -93 -21q-31 0 -62 13l-52 115l9 17q5 -1 18 -3t24.5 -3.5t21.5 -1.5
q57 0 91.5 21t34.5 54q0 37 -41 78h-373l-47 91v22h619z" />
    <glyph glyph-name="uni090A" unicode="&#x90a;" horiz-adv-x="884" 
d="M884 577v-21h-445q67 -77 67 -131q0 -62 -44 -104l29 -28q121 106 194 106q60 0 108.5 -59.5t48.5 -134.5q0 -83 -38 -186l-146 49q36 44 68.5 105t32.5 89q0 18 -15 28t-38 10q-62 0 -147 -100q10 -26 10 -56q0 -74 -47 -124.5t-119 -51.5q-191 -1 -369 264l33 31
q146 -170 278 -170q52 0 83.5 27.5t31.5 64.5q0 55 -47 102q-43 -21 -93 -21q-31 0 -62 13l-52 115l9 17q5 -1 18 -3t24.5 -3.5t21.5 -1.5q57 0 91.5 21t34.5 54q0 37 -41 78h-373l-47 91v22h890z" />
    <glyph glyph-name="uni090B" unicode="&#x90b;" horiz-adv-x="903" 
d="M854 669l49 -92v-21h-373v-204q58 6 104 36l-31 76q29 29 71 29q41 0 68 -24.5t26 -60.5q0 -32 -27 -65l81 -192q-133 -44 -133 -91q0 -33 65 -33q55 0 103 39l54 -108q-64 -36 -118 -36q-58 0 -114.5 54t-55.5 112q1 71 79 132l-28 68q-66 -36 -144 -35v-290h-23
l-111 63v171l-233 -169l-78 87l311 203q-75 47 -152 47q-47 0 -142 -35l-67 119q89 34 151 34q78 0 210 -109v182h-405l-47 91v22h910z" />
    <glyph glyph-name="uni090C" unicode="&#x90c;" horiz-adv-x="823" 
d="M773 669l50 -92v-21h-221v-119q65 -22 114.5 -71.5t49.5 -101.5q0 -34 -17 -67t-42 -59l-49.5 -50t-41.5 -48.5t-17 -46.5q0 -17 13 -28.5t32 -11.5q57 0 138 118l77 -81q-38 -38 -56 -54t-53 -31t-75 -15q-69 1 -127 46t-58 103q0 25 18 50.5t44 47.5t51.5 46t44 54
t18.5 62q0 27 -24.5 42.5t-56.5 15.5q-50 0 -93.5 -65t-59.5 -137l-115 59q11 62 41 113q-43 28 -91 28q-42 0 -74 -33t-32 -87q0 -113 99 -257l-35 -29q-70 58 -129.5 151t-59.5 183q0 77 50.5 129t123.5 52q48 0 85.5 -21.5t90.5 -74.5q36 44 82 66v122h-477l-47 91v22
h829z" />
    <glyph glyph-name="uni090D" unicode="&#x90d;" horiz-adv-x="641" 
d="M302 737q-76 0 -141.5 56.5t-103.5 128.5l33 18q70 -106 156 -106q60 0 105 33.5t72 78.5l100 -90q-43 -57 -95 -88t-126 -31zM529 3q75 -50 101 -79t26 -59q0 -38 -25 -65t-71 -27q-30 0 -57 11t-38 20t-30 26v2l82 93l-302 204q-97 65 -121.5 89.5t-24.5 63.5v274h-78
l-47 91v22h648l49 -92v-21h-114v-208q0 -132 -103 -175l-111 75v13q41 13 60.5 25.5t19.5 36.5v233h-190v-291q0 -29 9 -43.5t34 -30.5z" />
    <glyph glyph-name="uni090E" unicode="&#x90e;" horiz-adv-x="641" 
d="M-107 990l57 -9q-15 -42 -15 -62q0 -18 20 -32t67 -14q49 0 151.5 8t122.5 8q47 0 88.5 -19.5t66.5 -50.5q46 -56 46 -116q0 -14 -2 -34h97l49 -92v-21h-114v-208q0 -132 -103 -175l-111 75v13q41 13 60.5 25.5t19.5 36.5v233h-190v-291q0 -29 9 -43.5t34 -30.5l283 -188
q75 -50 101 -79t26 -59q0 -38 -25 -65t-71 -27q-30 0 -57 11t-38 20t-30 26v2l82 93l-302 204q-97 65 -121.5 89.5t-24.5 63.5v274h-78l-47 91v22h487q1 4 1 12q0 37 -27.5 65t-84.5 28q-20 0 -84 -7.5t-100 -7.5q-61 1 -122 17.5t-102.5 47t-41.5 66.5q0 42 23 100z" />
    <glyph glyph-name="uni090F" unicode="&#x90f;" horiz-adv-x="641" 
d="M529 3q75 -50 101 -79t26 -59q0 -38 -25 -65t-71 -27q-30 0 -57 11t-38 20t-30 26v2l82 93l-302 204q-97 65 -121.5 89.5t-24.5 63.5v274h-78l-47 91v22h648l49 -92v-21h-114v-208q0 -132 -103 -175l-111 75v13q41 13 60.5 25.5t19.5 36.5v233h-190v-291q0 -29 9 -43.5
t34 -30.5z" />
    <glyph glyph-name="uni0910" unicode="&#x910;" horiz-adv-x="641" 
d="M529 3q75 -50 101 -79t26 -59q0 -38 -25 -65t-71 -27q-30 0 -57 11t-38 20t-30 26v2l82 93l-302 204q-97 65 -121.5 89.5t-24.5 63.5v274h-78l-47 91v22h463q-6 9 -13.5 19l-13.5 18t-7 10q-58 78 -95 116l-135 -46q-45 40 -45 105q0 46 28 72t65 26q67 0 118.5 -54
t107.5 -159l53 -107h122l49 -92v-21h-114v-208q0 -132 -103 -175l-111 75v13q41 13 60.5 25.5t19.5 36.5v233h-190v-291q0 -29 9 -43.5t34 -30.5z" />
    <glyph glyph-name="uni0911" unicode="&#x911;" horiz-adv-x="1182" 
d="M1178 946l100 -90q-43 -57 -95 -88t-126 -31q-76 0 -141.5 56.5t-103.5 128.5l33 18q70 -106 156 -106q60 0 105 33.5t72 78.5zM482 669h651l49 -92v-21h-90v-593h-23l-111 63v530h-174v-593h-23l-111 63v178h-2q-23 -7 -40 -7q-52 0 -107 43h-3q14 -29 14 -66
q0 -74 -47 -124.5t-119 -51.5q-165 -2 -329 264l33 31q128 -170 238 -170q52 0 83.5 27.5t31.5 64.5q0 47 -34 88q-65 -22 -138 -29l-52 95l9 17q126 14 167 39q33 21 33 76q0 27 -22 47.5t-58 20.5q-44 0 -79.5 -18.5t-82.5 -60.5l-57 113q93 69 183 69q68 0 137.5 -74
t69.5 -143q0 -42 -12.5 -67.5t-38.5 -50.5q60 -27 121 -27q60 0 101 29v217h-122l-46 91v22z" />
    <glyph glyph-name="uni0912" unicode="&#x912;" horiz-adv-x="1182" 
d="M458 990l57 -9q-15 -42 -15 -62q0 -18 20 -32t67 -14q49 0 151.5 8t122.5 8q47 0 88.5 -19.5t66.5 -50.5q46 -56 46 -116q0 -14 -2 -34h73l49 -92v-21h-90v-593h-23l-111 63v530h-174v-593h-23l-111 63v178h-2q-23 -7 -40 -7q-52 0 -107 43h-3q14 -29 14 -66
q0 -74 -47 -124.5t-119 -51.5q-165 -2 -329 264l33 31q128 -170 238 -170q52 0 83.5 27.5t31.5 64.5q0 47 -34 88q-65 -22 -138 -29l-52 95l9 17q126 14 167 39q33 21 33 76q0 27 -22 47.5t-58 20.5q-44 0 -79.5 -18.5t-82.5 -60.5l-57 113q93 69 183 69q68 0 137.5 -74
t69.5 -143q0 -42 -12.5 -67.5t-38.5 -50.5q60 -27 121 -27q60 0 101 29v217h-122l-46 91v22h514q1 4 1 12q0 37 -27.5 65t-84.5 28q-20 0 -84 -7.5t-100 -7.5q-61 1 -122 17.5t-102.5 47t-41.5 66.5q0 42 23 100z" />
    <glyph glyph-name="uni0913" unicode="&#x913;" horiz-adv-x="1182" 
d="M1182 577v-21h-90v-593h-23l-111 63v530h-174v-593h-23l-111 63v178h-2q-23 -7 -40 -7q-52 0 -107 43h-3q14 -29 14 -66q0 -74 -47 -124.5t-119 -51.5q-165 -2 -329 264l33 31q128 -170 238 -170q52 0 83.5 27.5t31.5 64.5q0 47 -34 88q-65 -22 -138 -29l-52 95l9 17
q126 14 167 39q33 21 33 76q0 27 -22 47.5t-58 20.5q-44 0 -79.5 -18.5t-82.5 -60.5l-57 113q93 69 183 69q68 0 137.5 -74t69.5 -143q0 -42 -12.5 -67.5t-38.5 -50.5q60 -27 121 -27q60 0 101 29v217h-122l-46 91v22h505l-44 61q-58 78 -95 116l-135 -46q-45 40 -45 105
q0 46 28 72t65 26q67 0 118.5 -54t107.5 -159l60 -121h86z" />
    <glyph glyph-name="uni0914" unicode="&#x914;" horiz-adv-x="1182" 
d="M1182 577v-21h-90v-593h-23l-111 63v530h-174v-593h-23l-111 63v178h-2q-23 -7 -40 -7q-52 0 -107 43h-3q14 -29 14 -66q0 -74 -47 -124.5t-119 -51.5q-165 -2 -329 264l33 31q128 -170 238 -170q52 0 83.5 27.5t31.5 64.5q0 47 -34 88q-65 -22 -138 -29l-52 95l9 17
q126 14 167 39q33 21 33 76q0 27 -22 47.5t-58 20.5q-44 0 -79.5 -18.5t-82.5 -60.5l-57 113q93 69 183 69q68 0 137.5 -74t69.5 -143q0 -42 -12.5 -67.5t-38.5 -50.5q60 -27 121 -27q60 0 101 29v217h-122l-46 91v22h460l-78 97l-212 -22h-3q-22 30 -22 77q0 41 28 64
t65 23q139 0 282 -239h12q-11 34 -34 85q-33 70 -72.5 137t-62.5 88l-153 -22h-2q-17 27 -17 70q0 46 28 72t65 26q131 0 260 -321q26 -64 50 -135h57z" />
    <glyph glyph-name="uni0915" unicode="&#x915;" horiz-adv-x="875" 
d="M875 556h-350v-158q65 47 116 47q73 0 133 -59.5t60 -133.5q0 -92 -47 -210l-125 69q30 45 59.5 108t29.5 89q0 38 -58 38q-70 0 -168 -83v-300h-22l-118 66l13 130l-3 1q-89 -61 -158 -61q-80 0 -136 53t-56 145q0 75 41.5 128.5t120.5 53.5q103 0 181 -125l1 202h-398
l-47 91v22h882l49 -92v-21zM200 211q88 0 188 73v6q-20 24 -63 46t-87 22q-50 0 -97.5 -23t-47.5 -62q0 -25 31 -43.5t76 -18.5z" />
    <glyph glyph-name="uni0916" unicode="&#x916;" horiz-adv-x="880" 
d="M831 669l49 -92v-21h-89v-593h-23l-111 63l2 43q-54 -37 -132.5 -63t-152.5 -26q-102 0 -266 211l-22 28t-19.5 26l-14.5 21t-12.5 20.5t-6.5 17t-3 18.5q0 22 17.5 44.5t36.5 33.5l59 -31q20 34 20 97q0 32 -7 90h-165l-47 91v22h887zM371 81q70 0 152.5 33t136.5 81v29
l-1 1q-83 -63 -141 -63q-71 0 -125.5 52t-54.5 131q0 77 49.5 124.5t120.5 47.5q29 0 60 -17.5t48 -34t40 -42.5h1v133h-380q14 -79 14 -147q0 -104 -118 -214q30 -40 84.5 -77t113.5 -37zM483 268q41 0 88.5 26t84.5 66v2q-49 45 -123 45q-62 0 -104.5 -26.5t-42.5 -62.5
q0 -19 27 -34.5t70 -15.5z" />
    <glyph glyph-name="uni0917" unicode="&#x917;" horiz-adv-x="662" 
d="M612 669l50 -92v-21h-90v-593h-23l-112 63v530h-201q28 -193 28 -272q0 -125 -112 -125q-54 0 -84 45t-30 90q0 29 5 52l99 -13v223h-151l-47 91v22h668z" />
    <glyph glyph-name="uni0918" unicode="&#x918;" horiz-adv-x="687" 
d="M638 669l49 -92v-21h-90v-593h-22l-114 63l3 112l-2 2q-46 -30 -85 -44.5t-90 -14.5q-69 0 -133 59q-30 29 -48 62t-18 59q0 84 65 142q-69 28 -102 54.5t-34 69.5q0 7 2 29h-28l-47 91v22h694zM244 186q51 0 112 28.5t107 68.5v273h-313q-15 -22 -15 -52q3 -31 72 -65
q29 12 57 12q67 0 93 -13l16 -93l-10 -23q-26 10 -53 10q-64 0 -105 -32t-41 -67q0 -21 26 -34t54 -13z" />
    <glyph glyph-name="uni0919" unicode="&#x919;" horiz-adv-x="787" 
d="M739 669l48 -92v-21h-300v-191h-260q-70 0 -70 -57q0 -17 10.5 -37t21.5 -20q47 0 121 23.5t101 23.5q47 0 90.5 -61t43.5 -132q-1 -86 -41.5 -134t-110.5 -48q-87 0 -185 55t-191 158l37 37q73 -76 137.5 -106.5t147.5 -30.5q55 0 104 23.5t49 67.5q0 16 -12 33t-32 25
q-33 -1 -100.5 -24.5t-106.5 -22.5q-43 1 -101 65t-58 133q0 142 112 142h160v78h-364l-46 91v22h795zM670 424l111 -111l-111 -112l-112 112z" />
    <glyph glyph-name="uni091A" unicode="&#x91a;" horiz-adv-x="670" 
d="M621 669l49 -92v-21h-90v-593h-22l-119 66l9 89l-1 1q-71 -50 -135 -50q-77 0 -145 73q-59 63 -59 118q0 38 14 76h-69l-47 91v22h354l49 -92v-21h-135q-33 -20 -56 -52t-23 -57q0 -27 15.5 -40t37.5 -13q90 0 198 83v299h-455l-47 91v22h677z" />
    <glyph glyph-name="uni091B" unicode="&#x91b;" horiz-adv-x="845" 
d="M845 556h-223v-95q52 -24 84.5 -69t33.5 -109q0 -52 -41 -121q99 -54 99 -144q0 -36 -16.5 -90t-36.5 -95l-125 86q101 91 102 141q1 29 -55 58q-58 -72 -140 -120t-158 -47q-95 1 -172 69t-77 126q0 51 26 93q-61 30 -82 52q-30 31 -30 73q0 57 44 91t108 34
q51 0 78 -16l33 -96q-45 18 -87 18q-26 0 -42 -18t-16 -49q0 -30 26 -50q36 33 76 33q38 0 78 -7l36 -99l-10 -23q-29 10 -61 10q-45 0 -73.5 -22t-28.5 -46q0 -27 31 -47.5t69 -20.5q57 0 130.5 31.5t125.5 82.5q-74 35 -123.5 90t-49.5 118q0 45 30.5 71.5t79.5 32.5v74
h-497l-47 91v22h852l49 -92v-21zM500 339q0 -38 24.5 -73.5t61.5 -53.5q36 52 36 109q0 31 -19.5 54t-51.5 23q-22 0 -36.5 -15t-14.5 -44z" />
    <glyph glyph-name="uni091C" unicode="&#x91c;" horiz-adv-x="745" 
d="M745 577v-21h-90v-593h-22l-111 63v319h-176q90 -88 90 -166q0 -72 -40.5 -113.5t-101.5 -41.5q-76 0 -137.5 61t-96 147t-51.5 188l45 13q71 -286 212 -286q40 0 64 18t24 53q0 46 -53.5 99t-124.5 95l21 46h325v98h-531l-47 91v22h752z" />
    <glyph glyph-name="uni091D" unicode="&#x91d;" horiz-adv-x="838" 
d="M789 669l49 -92v-21h-87v-593h-23l-111 63v158h-2q-34 -12 -58 -12q-44 0 -106 36h-3q15 -39 15 -83q0 -71 -57.5 -119.5t-129.5 -53.5l88 -130l-95 -49l-51 182q-73 10 -117.5 46.5t-44.5 79.5q1 33 24.5 50.5t50.5 17.5q8 0 14 -2l56 -82q77 0 143 23.5t66 58.5
q0 21 -11 39t-24 26q-11 -1 -63 -20t-74 -19q-40 0 -99.5 57t-59.5 117q0 142 112 142h94v67h-295l-46 91v22h845zM514 290q57 0 103 27v239h-198v-180h-195q-70 0 -70 -57q0 -10 8 -21.5t15 -11.5q43 0 94.5 16t75.5 16q17 0 36 -13q62 -15 131 -15z" />
    <glyph glyph-name="uni091E" unicode="&#x91e;" horiz-adv-x="829" 
d="M833 577v-21h-91v-603h-23l-111 63v203q-14 -7 -30 -7q-30 0 -76 36h-2q-9 -62 -53 -102t-106 -41q-44 0 -87 17t-75.5 40.5t-67.5 62t-56.5 67t-49.5 69.5l36 26q72 -88 132.5 -133t131.5 -44q46 1 75 28.5t29 65.5q0 29 -16 47t-39 18q-26 0 -47.5 -12t-59.5 -42
l-77 83q22 21 61.5 41t66.5 20q50 0 106 -35.5t82 -86.5q71 -17 122 16v203h-618l-46 91v22h840z" />
    <glyph glyph-name="uni091F" unicode="&#x91f;" horiz-adv-x="576" 
d="M527 669l49 -92v-21h-139v-216q-317 -17 -317 -141q0 -85 127 -85q120 0 253 87l61 -119q-81 -45 -135.5 -63t-129.5 -18q-107 0 -168.5 68t-61.5 169q0 70 36 119t86.5 71.5t114.5 30.5v97h-312l-47 91v22h583z" />
    <glyph glyph-name="uni0920" unicode="&#x920;" horiz-adv-x="644" 
d="M644 577v-21h-183q21 -36 21 -67q0 -30 -23 -72q54 -38 86.5 -91.5t32.5 -111.5q0 -107 -76 -175t-194 -68q-102 0 -172 80.5t-70 186.5q0 103 74 160t200 65q8 24 8 49q0 21 -13 44h-344l-47 91v22h651zM505 256q0 28 -22.5 51t-45.5 33q-317 -17 -317 -141
q0 -55 44.5 -84.5t95.5 -29.5q125 0 185 49.5t60 121.5z" />
    <glyph glyph-name="uni0921" unicode="&#x921;" horiz-adv-x="624" 
d="M576 669l48 -92v-21h-117v-191h-280q-70 0 -70 -57q0 -17 10.5 -37t21.5 -20q52 0 132.5 23.5t109.5 23.5q47 0 90.5 -61t43.5 -132q-1 -86 -46.5 -134t-125.5 -48q-87 0 -185 55t-191 158l37 37q73 -76 137.5 -106.5t147.5 -30.5q63 0 118 23.5t55 67.5q0 16 -12 33
t-32 25q-37 -1 -111 -23.5t-116 -23.5q-43 1 -101 65t-58 133q0 142 112 142h180v78h-384l-46 91v22h632z" />
    <glyph glyph-name="uni0922" unicode="&#x922;" horiz-adv-x="573" 
d="M273 359q-76 0 -122.5 -31t-46.5 -87q0 -60 47 -102t109 -61q-22 44 -22 82q1 73 40.5 107t92.5 34q66 0 113 -52t48 -128q0 -78 -58.5 -123.5t-124.5 -45.5q-36 0 -75.5 12t-79.5 38t-72 62t-52 89.5t-20 114.5q0 110 56.5 159t143.5 49h76v80h-336l-46 91v22h581
l48 -92v-21h-114v-197h-186zM300 116q-3 -24 5 -47q4 -1 12 -1q68 0 117.5 22t49.5 52q-1 24 -26.5 40.5t-54.5 16.5q-36 0 -69 -23t-34 -60z" />
    <glyph glyph-name="uni0923" unicode="&#x923;" horiz-adv-x="830" 
d="M830 577v-21h-89v-593h-23l-111 63v530h-123v-272q0 -78 -58 -131t-137 -53q-34 0 -72 31t-89 88q-37 39 -51.5 65t-14.5 63v209h-69l-47 91v22h835zM348 313v243h-152v-268q0 -46 21.5 -60t60.5 -14q40 0 55 31t15 68z" />
    <glyph glyph-name="uni0924" unicode="&#x924;" horiz-adv-x="636" 
d="M636 577v-21h-90v-593h-22l-112 63v319h-141q-98 0 -98 -92q0 -101 144 -247l-42 -45q-228 186 -228 329q0 168 199 168h166v98h-421l-47 91v22h642z" />
    <glyph glyph-name="uni0925" unicode="&#x925;" horiz-adv-x="730" 
d="M680 669l49 -92v-21h-89v-593h-23l-111 63v110l-2 1q-57 -31 -128 -31q-89 0 -161.5 54.5t-116.5 159.5q67 17 111 49q-71 35 -118 89t-47 115q0 51 39.5 79t99.5 27q85 -1 154 -53t69 -148q0 -60 -49.5 -114t-133.5 -96q29 -57 102 -57q90 0 181 62v283h-59l-47 91v22
h280zM217 593q-21 0 -36 -15t-15 -44q0 -38 24 -73.5t61 -53.5q37 47 37 109q0 31 -19.5 54t-51.5 23z" />
    <glyph glyph-name="uni0926" unicode="&#x926;" horiz-adv-x="573" 
d="M525 669l48 -92v-21h-114v-197h-186q-71 0 -114.5 -28t-44.5 -80q-1 -56 55 -89.5t124 -33.5q28 0 44 4l-39 89q14 19 43 34.5t54 15.5q56 0 87 -32t30 -82q-2 -69 -74 -112l131 -179l-95 -49l-90 207q-40 -12 -91 -12q-39 0 -79.5 17t-75.5 48.5t-56.5 84t-21.5 116.5
q1 105 54 151.5t136 46.5h76v80h-336l-46 91v22h581z" />
    <glyph glyph-name="uni0927" unicode="&#x927;" horiz-adv-x="724" 
d="M724 577v-21h-90v-593h-22l-114 63l3 112l-2 2q-46 -30 -85 -44.5t-90 -14.5q-80 0 -145 72q-54 59 -54 108q0 72 51 128q-65 43 -98.5 86.5t-33.5 104.5q0 52 32 80.5t95 28.5q52 0 101 -35q64 -46 64 -96q0 -23 -12.5 -38.5t-39.5 -15.5q-23 0 -41 7v74q-12 10 -32 10
q-22 0 -35.5 -14t-13.5 -40q0 -57 59 -114q42 24 80 24q67 0 93 -13l16 -93l-10 -23q-26 10 -53 10q-64 0 -105 -32t-41 -67q0 -21 26 -34t54 -13q51 0 112 28.5t107 68.5v273h-99l-47 91v22h321z" />
    <glyph glyph-name="uni0928" unicode="&#x928;" horiz-adv-x="644" 
d="M594 669l50 -92v-21h-90v-593h-22l-112 63v283l-213 -25l14 -100q-30 -4 -53 -4q-45 0 -90 30t-45 84q0 112 125 112q31 0 71.5 -3t67.5 -6.5t69.5 -9.5t53.5 -7v176h-429l-47 91v22h650z" />
    <glyph glyph-name="uni0929" unicode="&#x929;" horiz-adv-x="644" 
d="M594 669l50 -92v-21h-90v-593h-22l-112 63v283l-213 -25l14 -100q-30 -4 -53 -4q-45 0 -90 30t-45 84q0 112 125 112q31 0 71.5 -3t67.5 -6.5t69.5 -9.5t53.5 -7v176h-429l-47 91v22h650zM139 22l112 111l111 -111l-111 -112z" />
    <glyph glyph-name="uni092A" unicode="&#x92a;" horiz-adv-x="602" 
d="M552 669l49 -92v-21h-90v-593h-22l-111 63v150l-2 1q-48 -25 -92 -25q-8 0 -16 2t-17 7.5t-16.5 9.5t-18 13.5l-17 15t-18.5 18l-17 17.5t-17.5 18.5t-16.5 17.5q-40 44 -53 67.5t-13 60.5v157h-73l-47 91v22h608zM260 266q58 0 118 41v249h-180v-234q0 -28 17 -42
t45 -14z" />
    <glyph glyph-name="uni092B" unicode="&#x92b;" horiz-adv-x="862" 
d="M862 556h-351v-135q65 47 117 47q73 0 132.5 -59.5t59.5 -134.5q0 -92 -47 -210l-125 70q30 43 59.5 107t29.5 90q0 38 -58 38q-67 0 -168 -84v-322h-22l-118 66l16 152l-2 1q-16 -10 -46.5 -20t-54.5 -10q-20 0 -46.5 18t-47 38t-49.5 51q-7 8 -11 12q-40 44 -53 67.5
t-13 60.5v157h-73l-47 91v22h869l49 -92v-21zM259 266q57 0 116 39l1 251h-178v-234q0 -29 18 -42.5t43 -13.5z" />
    <glyph glyph-name="uni092C" unicode="&#x92c;" horiz-adv-x="670" 
d="M620 669l50 -92v-21h-91v-593h-22l-118 66l8 120l-5 1q-49 -34 -90.5 -51.5t-94.5 -17.5q-78 0 -145 55t-67 147q0 98 61 158t137 60q96 0 201 -126h1v181h-454l-47 91v22h676zM292 382q-33 0 -60 -6l105 -157q60 29 108 79v2q-30 33 -72.5 57.5t-80.5 24.5zM214 186
q40 0 89 17l-108 162q-46 -17 -74 -46.5t-28 -58.5q0 -31 33.5 -52.5t87.5 -21.5z" />
    <glyph glyph-name="uni092D" unicode="&#x92d;" horiz-adv-x="786" 
d="M737 669l49 -92v-21h-90v-593h-22l-111 63v172h-190q-12 -94 -90 -95q-37 0 -64.5 28t-39 62t-11.5 65q0 29 5 52h71v53q-86 36 -143 91t-57 117q0 52 38.5 80.5t96.5 27.5q76 -1 136.5 -46.5t60.5 -130.5v-192h187v246h-143l-47 91v22h364zM166 533q0 -63 80 -112
q12 70 12 111q0 26 -11.5 43.5t-32.5 17.5q-20 0 -34 -15t-14 -45z" />
    <glyph glyph-name="uni092E" unicode="&#x92e;" horiz-adv-x="670" 
d="M621 669l49 -92v-21h-90v-593h-22l-111 63v192h-200q-12 -94 -90 -95q-37 0 -64.5 28t-39 62t-11.5 65q0 29 5 52h71v226h-127l-47 91v22h677zM250 330h197v226h-197v-226z" />
    <glyph glyph-name="uni092F" unicode="&#x92f;" horiz-adv-x="680" 
d="M680 577v-21h-90v-593h-22l-111 63v110l-2 1q-57 -31 -128 -31q-93 0 -169.5 61t-117.5 178q80 25 116 52t36 67q0 45 -38 92h-163l-47 91v22h687zM276 211q90 0 181 62v283h-202q66 -80 65 -129q0 -34 -44.5 -72.5t-110.5 -61.5q8 -38 40 -60t71 -22z" />
    <glyph glyph-name="uni0930" unicode="&#x930;" horiz-adv-x="436" 
d="M436 577v-21h-142q12 -76 12 -147q0 -105 -117 -214l213 -184l-71 -53l-223 254q-61 72 -61 110q0 22 17.5 44.5t36.5 33.5l59 -31q19 32 19 97q0 41 -6 90h-182l-47 91v22h443z" />
    <glyph glyph-name="uni0931" unicode="&#x931;" horiz-adv-x="457" 
d="M457 577v-21h-163q12 -76 12 -147q0 -105 -117 -214l213 -184l-71 -53l-223 254q-61 72 -61 110q0 22 17.5 44.5t36.5 33.5l59 -31q19 32 19 97q0 41 -6 90h-182l-47 91v22h464zM3 -17l112 111l111 -111l-111 -112z" />
    <glyph glyph-name="uni0932" unicode="&#x932;" horiz-adv-x="815" 
d="M815 577v-21h-90v-593h-22l-112 63v328q-7 3 -16 3q-50 0 -93.5 -61.5t-59.5 -130.5l-115 69q10 50 39 100q-37 21 -79 21q-45 0 -75.5 -31.5t-30.5 -78.5q0 -126 170 -263l-31 -33q-264 160 -264 334q0 76 50 127.5t124 53.5q46 0 82.5 -20t85.5 -68q65 73 150 73
q30 0 63 -38v145h-600l-47 91v22h821z" />
    <glyph glyph-name="uni0933" unicode="&#x933;" horiz-adv-x="835" 
d="M835 556h-155v-95q106 -64 106 -203q0 -85 -43.5 -147t-126.5 -62q-101 0 -181 109q-27 -59 -63.5 -92t-96.5 -33q-96 0 -163 61.5t-67 167.5q0 90 45.5 155.5t132.5 65.5q101 0 180 -103q27 52 60 82t83 33v61h-555l-47 91v22h842l49 -92v-21zM729 299q0 36 -26 60
t-76 24q-36 0 -62.5 -13t-47.5 -43.5t-31 -51.5t-29 -66q56 -39 111 -39q59 0 110 38t51 91zM211 145q16 0 30 3t26.5 11l21.5 14t20 20.5t16.5 22.5t15.5 28t13.5 27.5l14 31t13.5 29.5q-44 30 -96 30q-72 0 -126 -37.5t-54 -93.5q0 -36 27 -61t78 -25z" />
    <glyph glyph-name="uni0934" unicode="&#x934;" horiz-adv-x="835" 
d="M835 556h-155v-95q106 -64 106 -203q0 -85 -43.5 -147t-126.5 -62q-101 0 -181 109q-27 -59 -63.5 -92t-96.5 -33q-96 0 -163 61.5t-67 167.5q0 90 45.5 155.5t132.5 65.5q101 0 180 -103q27 52 60 82t83 33v61h-555l-47 91v22h842l49 -92v-21zM729 299q0 36 -26 60
t-76 24q-36 0 -62.5 -13t-47.5 -43.5t-31 -51.5t-29 -66q56 -39 111 -39q59 0 110 38t51 91zM211 145q16 0 30 3t26.5 11l21.5 14t20 20.5t16.5 22.5t15.5 28t13.5 27.5l14 31t13.5 29.5q-44 30 -96 30q-72 0 -126 -37.5t-54 -93.5q0 -36 27 -61t78 -25zM335 -82l112 111
l111 -111l-111 -112z" />
    <glyph glyph-name="uni0935" unicode="&#x935;" horiz-adv-x="665" 
d="M616 669l49 -92v-21h-90v-593h-22l-119 66l9 120l-5 1q-50 -34 -92.5 -51.5t-97.5 -17.5q-77 0 -140 54.5t-63 147.5q0 100 57 159t139 59q97 0 199 -126h1v181h-450l-47 91v22h672zM205 186q57 0 124.5 34t111.5 79v2q-31 33 -72.5 57t-78.5 24q-79 0 -138 -39.5
t-59 -82.5q0 -32 29.5 -53t82.5 -21z" />
    <glyph glyph-name="uni0936" unicode="&#x936;" horiz-adv-x="783" 
d="M783 556h-89v-593h-23l-111 63v530h-145q35 -45 35 -108q0 -83 -60 -171.5t-148 -120.5l106 -159l-99 -51l-56 198q-3 0 -10 -0.5t-11 -0.5q-57 0 -98.5 25.5t-41.5 58.5q0 36 27.5 62t57.5 26q13 0 23 -4l39 -59q58 25 95 70q-79 36 -132.5 93t-53.5 121q0 8 2 20h-99
l-47 91v22h790l49 -92v-21zM332 485q0 28 -19.5 49.5t-51.5 21.5q-21 0 -36 -15t-15 -44q0 -40 27 -77t66 -54q29 55 29 119z" />
    <glyph glyph-name="uni0937" unicode="&#x937;" horiz-adv-x="621" 
d="M572 669l49 -92v-21h-90v-593h-22l-111 63v112l-2 1q-52 -25 -102 -25q-23 0 -55 22t-49.5 40l-54.5 57q-43 46 -57 69t-14 59v195h-73l-47 91v22h628zM398 556h-200l200 -253v253zM270 228q53 0 116 35l-188 237v-216q0 -28 19.5 -42t52.5 -14z" />
    <glyph glyph-name="uni0938" unicode="&#x938;" horiz-adv-x="707" 
d="M658 669l49 -92v-21h-90v-593h-23l-111 63v171h-2q-40 -13 -78 -13q-69 0 -157 72h-3q-20 -26 -57 -61l213 -184l-71 -53l-223 254q-61 72 -61 110q0 22 17.5 44.5t36.5 33.5l59 -31q19 32 19 97q0 41 -6 90h-179l-47 91v22h714zM380 310q59 0 103 20v226h-192
q13 -74 13 -147q0 -37 -15 -77q47 -22 91 -22z" />
    <glyph glyph-name="uni0939" unicode="&#x939;" horiz-adv-x="596" 
d="M217 375q-60 0 -60 -47q0 -32 27 -59q59 43 143 43q81 0 151.5 -65t70.5 -120q0 -41 -31.5 -86.5t-72.5 -78.5l-97 87v2q57 37 84 63.5t27 55.5q0 22 -21.5 35.5t-64.5 13.5q-57 0 -96.5 -34t-39.5 -83q0 -72 62 -130.5t185 -125.5l-27 -37l-94 48.5t-90 55.5t-83.5 67
t-54.5 75.5t-23 87.5q0 46 28 83q-58 72 -58 130q0 132 102 132h175v68h-369l-46 91v22h604l48 -92v-21h-104v-181h-275z" />
    <glyph glyph-name="uni093A" unicode="&#x93a;" 
d="M-223 895h134v-260h-134v260z" />
    <glyph glyph-name="uni093B" unicode="&#x93b;" horiz-adv-x="313" 
d="M264 669l49 -92v-21h-89v-593h-23l-111 63v530h-99l-47 91v22h146v226h134v-226h40z" />
    <glyph glyph-name="uni093C" unicode="&#x93c;" 
d="M-153 -65l111 -111l-111 -112l-112 112z" />
    <glyph glyph-name="uni093D" unicode="&#x93d;" horiz-adv-x="531" 
d="M421 669l49 -92v-21h-236q-17 0 -27.5 -9t-10.5 -24q0 -21 51 -75l20 -21l26 -27t28.5 -30.5l25.5 -29t26.5 -33l20.5 -32t18.5 -35.5t10 -34t4.5 -37q-1 -75 -49 -125t-117 -50q-135 0 -245 194l35 28q79 -97 152 -97q51 0 83 27t32 65q0 31 -18.5 66t-39.5 59.5
t-58 61.5l-15 15q-92 92 -92 150q0 50 27 78t78 28h221z" />
    <glyph glyph-name="uni093E" unicode="&#x93e;" horiz-adv-x="313" 
d="M264 669l49 -92v-21h-89v-593h-23l-111 63v530h-99l-47 91v22h320z" />
    <glyph glyph-name="uni093F" unicode="&#x93f;" horiz-adv-x="313" 
d="M291 895q-60 -1 -98.5 -30t-38.5 -82q0 -56 32 -114h78l49 -92v-21h-89v-593h-23l-111 63v530h-99l-47 91v22h157q-86 104 -86 182q0 71 62 117t160 46q179 0 521 -287l-29 -38q-275 208 -438 206z" />
    <glyph glyph-name="uni0940" unicode="&#x940;" horiz-adv-x="307" 
d="M264 669l49 -92v-21h-89v-593h-23l-111 63v530h-99l-47 91v22h160q-21 42 -38.5 73t-43.5 67.5t-55 56t-59 19.5q-35 0 -55 -22.5t-20 -58.5q0 -43 27 -90v-2l-47 -23q-49 31 -84 74t-35 92q0 60 49.5 105.5t125.5 44.5q32 0 62 -12t53.5 -30t47.5 -48t40.5 -55
t36.5 -64.5t31 -63.5t27 -63h97z" />
    <glyph glyph-name="uni0941" unicode="&#x941;" 
d="M-547 -34q90 -113 165 -170.5t164 -56.5q45 1 74.5 22t29.5 47q0 19 -14 32t-36 13q-36 0 -95 -27l-61 90q52 27 100 27q66 0 132.5 -51.5t66.5 -112.5q0 -60 -46 -102t-115 -43q-52 -1 -103.5 19.5t-89.5 48.5t-80.5 75t-67.5 80l-60 83z" />
    <glyph glyph-name="uni0942" unicode="&#x942;" 
d="M119 -390q-90 113 -165 170.5t-164 56.5q-45 -1 -74.5 -22t-29.5 -47q0 -19 14 -32t36 -13q36 0 95 27l61 -90q-52 -27 -100 -27q-66 0 -132.5 51.5t-66.5 112.5q0 60 46 102t115 43q52 1 103.5 -19.5t89.5 -48.5t80.5 -75t67.5 -80l60 -83z" />
    <glyph glyph-name="uni0943" unicode="&#x943;" 
d="M-85 75l51 -110q-89 0 -142 -19.5t-54 -53.5q0 -18 24 -30.5t61 -12.5q64 0 120 39l54 -108q-64 -36 -118 -36q-70 0 -138.5 57t-68.5 119q3 119 211 155z" />
    <glyph glyph-name="uni0944" unicode="&#x944;" 
d="M-696 88l49 -118q-171 -31 -171 -88q0 -33 85 -33q55 0 103 39l54 -108q-57 -33 -112 -36q-30 -22 -30 -44q0 -33 65 -33q55 0 103 39l54 -108q-64 -36 -118 -36q-58 0 -114.5 54t-55.5 112q0 19 6 40q-45 24 -76 63.5t-30 78.5q1 59 40 99.5t148 78.5z" />
    <glyph glyph-name="uni0945" unicode="&#x945;" 
d="M100 856q-43 -57 -95 -88t-126 -31q-76 0 -141.5 56.5t-103.5 128.5l33 18q70 -106 156 -106q60 0 105 33.5t72 78.5z" />
    <glyph glyph-name="uni0946" unicode="&#x946;" 
d="M-716 990l57 -9q-15 -42 -15 -62q0 -18 20 -32t67 -14q49 0 151.5 8t122.5 8q47 0 88.5 -19.5t66.5 -50.5q46 -56 46 -116q0 -29 -8 -61h-68q11 17 11 39q0 37 -27.5 65t-84.5 28q-20 0 -84 -7.5t-100 -7.5q-61 1 -122 17.5t-102.5 47t-41.5 66.5q0 42 23 100z" />
    <glyph glyph-name="uni0947" unicode="&#x947;" 
d="M-455 989q67 0 118.5 -54t107.5 -159q63 -126 83 -170h-53q-18 39 -74 110q-58 78 -95 116l-135 -46q-45 40 -45 105q0 46 28 72t65 26z" />
    <glyph glyph-name="uni0948" unicode="&#x948;" 
d="M-412 1106q131 0 260 -321q21 -51 54 -145h-63q-8 29 -37 95q-33 70 -72.5 137t-62.5 88l-153 -22h-2q-17 27 -17 70q0 46 28 72t65 26zM-458 889q136 0 277 -231q8 -13 21 -36l10 -16h-53q-2 3 -111 141l-212 -22h-3q-22 30 -22 77q0 41 28 64t65 23z" />
    <glyph glyph-name="uni0949" unicode="&#x949;" horiz-adv-x="313" 
d="M410 856q-43 -57 -95 -88t-126 -31q-76 0 -141.5 56.5t-103.5 128.5l33 18q70 -106 156 -106q60 0 105 33.5t72 78.5zM264 669l49 -92v-21h-89v-593h-23l-111 63v530h-99l-47 91v22h320z" />
    <glyph glyph-name="uni094A" unicode="&#x94a;" horiz-adv-x="313" 
d="M-415 990l57 -9q-15 -42 -15 -62q0 -18 20 -32t67 -14q49 0 151.5 8t122.5 8q47 0 88.5 -19.5t66.5 -50.5q46 -56 46 -116q0 -14 -2 -34h77l49 -92v-21h-89v-593h-23l-111 63v530h-99l-47 91v22h179q1 4 1 12q0 37 -27.5 65t-84.5 28q-20 0 -84 -7.5t-100 -7.5
q-61 1 -122 17.5t-102.5 47t-41.5 66.5q0 42 23 100z" />
    <glyph glyph-name="uni094B" unicode="&#x94b;" horiz-adv-x="313" 
d="M264 669l49 -92v-21h-89v-593h-23l-111 63v530h-99l-47 91v22h160q-26 37 -35 47q-62 83 -94 116l-135 -46q-45 40 -45 105q0 46 28 72t65 26q67 0 119 -54.5t106 -158.5l54 -107h97z" />
    <glyph glyph-name="uni094C" unicode="&#x94c;" horiz-adv-x="307" 
d="M264 669l49 -92v-21h-89v-593h-23l-111 63v530h-99l-47 91v22h118q-52 63 -63 78l-214 -22h-1q-22 30 -22 77q0 41 28 64t65 23q134 0 270 -220h17q-10 29 -26 63q-33 71 -72.5 138.5t-63.5 89.5l-154 -22h-1q-17 27 -17 70q0 46 28 72t65 26q132 0 263 -329
q24 -59 41 -108h59z" />
    <glyph glyph-name="uni094D" unicode="&#x94d;" 
d="M36 -288q-66 60 -115.5 89.5t-107.5 46.5l-132 -40q-35 28 -35 70q0 30 19 46.5t52 16.5q54 0 153 -57t194 -148z" />
    <glyph glyph-name="uni0950" unicode="&#x950;" horiz-adv-x="1178" 
d="M699 902l111 -111l-111 -112l-112 112zM519 722q70 -106 156 -106q60 0 105 33.5t72 78.5l100 -90q-43 -57 -95 -88t-126 -31q-76 0 -141.5 56.5t-103.5 128.5zM272 672q68 0 137.5 -74t69.5 -143q0 -44 -13.5 -70t-41.5 -52q8 -6 22 -20l39.5 -40l37 -37t29.5 -26
t32 -20t30 -6q28 0 58.5 32t58.5 78l57.5 91.5t67 77.5t76.5 32q66 0 125 -64q67 -72 67 -157q0 -74 -47 -117.5t-107 -43.5q-37 0 -82 30.5t-79 73.5q-39 -64 -72.5 -98.5t-70.5 -34.5q-28 0 -54.5 11t-40.5 22t-34 30.5t-23 21.5l-2 -1q-2 -34 -12 -62
q-18 -48 -59.5 -77.5t-94.5 -30.5q-165 -2 -329 264l33 31q128 -170 238 -170q52 0 83.5 27.5t31.5 64.5q0 47 -34 88q-65 -22 -138 -29l-52 95l9 17q126 14 167 39q33 21 33 76q0 27 -22 47.5t-58 20.5q-44 0 -79.5 -18.5t-82.5 -60.5l-57 113q93 69 183 69zM978 396
q-51 0 -107 -80q-13 -19 -39 -61q34 -43 78 -43q45 0 80.5 33.5t35.5 90.5q0 60 -48 60z" />
    <glyph glyph-name="uni0951" unicode="&#x951;" 
d="M-204 1021h94v-263h-94v263z" />
    <glyph glyph-name="uni0952" unicode="&#x952;" 
d="M-385 -267v90h462v-90h-462z" />
    <glyph glyph-name="uni0953" unicode="&#x953;" 
d="M-395 982v7l103 38l164 -230v-7l-84 -38z" />
    <glyph glyph-name="uni0954" unicode="&#x954;" 
d="M-47 1027l102 -38v-7l-183 -230l-84 38v7z" />
    <glyph glyph-name="uni0956" unicode="&#x956;" 
d="M-225 -130q109 0 180 69l37 -31q-31 -60 -90.5 -101.5t-126.5 -41.5q-68 0 -127.5 41.5t-90.5 101.5l38 31q71 -69 180 -69z" />
    <glyph glyph-name="uni0957" unicode="&#x957;" 
d="M-225 -130q109 0 180 69l37 -31q-31 -60 -90.5 -101.5t-126.5 -41.5q-68 0 -127.5 41.5t-90.5 101.5l38 31q71 -69 180 -69zM-225 -296q109 0 180 69l37 -31q-31 -60 -90.5 -101.5t-126.5 -41.5q-68 0 -127.5 41.5t-90.5 101.5l38 31q71 -69 180 -69z" />
    <glyph glyph-name="uni0958" unicode="&#x958;" horiz-adv-x="875" 
d="M875 556h-350v-158q65 47 116 47q73 0 133 -59.5t60 -133.5q0 -92 -47 -210l-125 69q30 45 59.5 108t29.5 89q0 38 -58 38q-70 0 -168 -83v-300h-22l-118 66l13 130l-3 1q-89 -61 -158 -61q-80 0 -136 53t-56 145q0 75 41.5 128.5t120.5 53.5q103 0 181 -125l1 202h-398
l-47 91v22h882l49 -92v-21zM200 211q88 0 188 73v6q-20 24 -63 46t-87 22q-50 0 -97.5 -23t-47.5 -62q0 -25 31 -43.5t76 -18.5zM123 -40l112 111l111 -111l-111 -112z" />
    <glyph glyph-name="uni0959" unicode="&#x959;" horiz-adv-x="880" 
d="M831 669l49 -92v-21h-89v-593h-23l-111 63l2 43q-54 -37 -132.5 -63t-152.5 -26q-102 0 -266 211l-22 28t-19.5 26l-14.5 21t-12.5 20.5t-6.5 17t-3 18.5q0 22 17.5 44.5t36.5 33.5l59 -31q20 34 20 97q0 32 -7 90h-165l-47 91v22h887zM371 81q70 0 152.5 33t136.5 81v29
l-1 1q-83 -63 -141 -63q-71 0 -125.5 52t-54.5 131q0 77 49.5 124.5t120.5 47.5q29 0 60 -17.5t48 -34t40 -42.5h1v133h-380q14 -79 14 -147q0 -104 -118 -214q30 -40 84.5 -77t113.5 -37zM483 268q41 0 88.5 26t84.5 66v2q-49 45 -123 45q-62 0 -104.5 -26.5t-42.5 -62.5
q0 -19 27 -34.5t70 -15.5zM-17 0l112 111l111 -111l-111 -112z" />
    <glyph glyph-name="uni095A" unicode="&#x95a;" horiz-adv-x="662" 
d="M612 669l50 -92v-21h-90v-593h-23l-112 63v530h-201q28 -193 28 -272q0 -125 -112 -125q-54 0 -84 45t-30 90q0 29 5 52l99 -13v223h-151l-47 91v22h668zM41 0l112 111l111 -111l-111 -112z" />
    <glyph glyph-name="uni095B" unicode="&#x95b;" horiz-adv-x="745" 
d="M745 577v-21h-90v-593h-22l-111 63v319h-176q90 -88 90 -166q0 -72 -40.5 -113.5t-101.5 -41.5q-76 0 -137.5 61t-96 147t-51.5 188l45 13q71 -286 212 -286q40 0 64 18t24 53q0 46 -53.5 99t-124.5 95l21 46h325v98h-531l-47 91v22h752zM259 -150l112 111l111 -111
l-111 -112z" />
    <glyph glyph-name="uni095C" unicode="&#x95c;" horiz-adv-x="624" 
d="M576 669l48 -92v-21h-117v-191h-280q-70 0 -70 -57q0 -17 10.5 -37t21.5 -20q52 0 132.5 23.5t109.5 23.5q47 0 90.5 -61t43.5 -132q-1 -86 -46.5 -134t-125.5 -48q-87 0 -185 55t-191 158l37 37q73 -76 137.5 -106.5t147.5 -30.5q63 0 118 23.5t55 67.5q0 16 -12 33
t-32 25q-37 -1 -111 -23.5t-116 -23.5q-43 1 -101 65t-58 133q0 142 112 142h180v78h-384l-46 91v22h632zM371 -119l111 -111l-111 -112l-112 112z" />
    <glyph glyph-name="uni095D" unicode="&#x95d;" horiz-adv-x="573" 
d="M273 359q-76 0 -122.5 -31t-46.5 -87q0 -60 47 -102t109 -61q-22 44 -22 82q1 73 40.5 107t92.5 34q66 0 113 -52t48 -128q0 -78 -58.5 -123.5t-124.5 -45.5q-36 0 -75.5 12t-79.5 38t-72 62t-52 89.5t-20 114.5q0 110 56.5 159t143.5 49h76v80h-336l-46 91v22h581
l48 -92v-21h-114v-197h-186zM300 116q-3 -24 5 -47q4 -1 12 -1q68 0 117.5 22t49.5 52q-1 24 -26.5 40.5t-54.5 16.5q-36 0 -69 -23t-34 -60zM234 -178l112 111l111 -111l-111 -112z" />
    <glyph glyph-name="uni095E" unicode="&#x95e;" horiz-adv-x="862" 
d="M862 556h-351v-135q65 47 117 47q73 0 132.5 -59.5t59.5 -134.5q0 -92 -47 -210l-125 70q30 43 59.5 107t29.5 90q0 38 -58 38q-67 0 -168 -84v-322h-22l-118 66l16 152l-2 1q-16 -10 -46.5 -20t-54.5 -10q-20 0 -46.5 18t-47 38t-49.5 51q-7 8 -11 12q-40 44 -53 67.5
t-13 60.5v157h-73l-47 91v22h869l49 -92v-21zM259 266q57 0 116 39l1 251h-178v-234q0 -29 18 -42.5t43 -13.5zM-27 100l112 111l111 -111l-111 -112z" />
    <glyph glyph-name="uni095F" unicode="&#x95f;" horiz-adv-x="680" 
d="M680 577v-21h-90v-593h-22l-111 63v110l-2 1q-57 -31 -128 -31q-93 0 -169.5 61t-117.5 178q80 25 116 52t36 67q0 45 -38 92h-163l-47 91v22h687zM276 211q90 0 181 62v283h-202q66 -80 65 -129q0 -34 -44.5 -72.5t-110.5 -61.5q8 -38 40 -60t71 -22zM74 151l111 -111
l-111 -112l-112 112z" />
    <glyph glyph-name="uni0960" unicode="&#x960;" horiz-adv-x="903" 
d="M854 669l49 -92v-21h-373v-204q58 6 104 36l-31 76q29 29 71 29q41 0 68 -24.5t26 -60.5q0 -32 -27 -65l81 -192q-133 -44 -133 -91q0 -33 65 -33q55 0 103 39l54 -108q-57 -33 -112 -36q-30 -22 -30 -44q0 -33 65 -33q55 0 103 39l54 -108q-64 -36 -118 -36
q-58 0 -114.5 54t-55.5 112q0 23 7 44q-38 25 -63 63t-24 75q1 71 79 132l-28 68q-66 -36 -144 -35v-290h-23l-111 63v171l-233 -169l-78 87l311 203q-75 47 -152 47q-47 0 -142 -35l-67 119q89 34 151 34q78 0 210 -109v182h-405l-47 91v22h910z" />
    <glyph glyph-name="uni0961" unicode="&#x961;" horiz-adv-x="823" 
d="M773 669l50 -92v-21h-221v-119q65 -22 114.5 -71.5t49.5 -101.5q0 -34 -17 -67t-42 -59l-49.5 -50t-41.5 -48.5t-17 -46.5q0 -17 13 -28.5t32 -11.5q57 0 138 118l77 -81l-44 -43t-38.5 -28.5t-49.5 -22.5q-17 -22 -17 -39q0 -48 58 -48q57 0 143 126l78 -82l-19 -19
t-20.5 -20l-19 -17t-22 -17l-22.5 -13.5t-26 -12t-27.5 -6t-31.5 -2.5q-56 1 -110.5 38t-53.5 79q0 15 5 30q-61 12 -106.5 54t-45.5 92q0 25 18 50.5t44 47.5t51.5 46t44 54t18.5 62q0 27 -24.5 42.5t-56.5 15.5q-50 0 -93.5 -65t-59.5 -137l-115 59q11 62 41 113
q-43 28 -91 28q-42 0 -74 -33t-32 -87q0 -113 99 -257l-35 -29q-70 58 -129.5 151t-59.5 183q0 77 50.5 129t123.5 52q48 0 85.5 -21.5t90.5 -74.5q36 44 82 66v122h-477l-47 91v22h829z" />
    <glyph glyph-name="uni0962" unicode="&#x962;" 
d="M-111 28v-115q81 -42 81 -97q0 -30 -24.5 -60t-49 -54.5t-24.5 -39.5t14 -15q30 0 84 59l46 -50q-54 -54 -107 -54q-42 0 -78.5 26t-37.5 67q0 22 24 46.5l48.5 50t24.5 50.5q0 21 -31 21q-19 0 -34 -12t-25.5 -35.5t-15 -37t-10.5 -36.5l-85 43q11 41 24 64
q-17 10 -32 10q-57 0 -57 -60q0 -68 53 -144l-24 -20q-51 42 -86.5 96t-35.5 101t32 75t80 28q45 0 95 -46q26 32 68 39v100h83z" />
    <glyph glyph-name="uni0963" unicode="&#x963;" 
d="M-111 28v-115q81 -42 81 -97q0 -30 -24.5 -60t-49 -54.5t-24.5 -39.5t14 -15q30 0 84 59l46 -50q-39 -39 -73 -49q-8 -11 -8 -22q0 -20 24 -20q17 0 42.5 21t41.5 43l49 -49l-11 -10.5t-12 -11l-11.5 -10t-13 -10l-13 -7t-15 -6.5t-15.5 -3.5t-19 -1.5q-35 0 -69 22
t-34 50q0 5 2 13q-35 8 -61 32t-27 58q0 22 24 46.5l48.5 50t24.5 50.5q0 21 -31 21q-19 0 -34 -12t-25.5 -35.5t-15 -37t-10.5 -36.5l-85 43q11 41 24 64q-17 10 -32 10q-57 0 -57 -60q0 -68 53 -144l-24 -20q-51 42 -86.5 96t-35.5 101t32 75t80 28q45 0 95 -46
q26 32 68 39v100h83z" />
    <glyph glyph-name="uni0964" unicode="&#x964;" horiz-adv-x="544" 
d="M267 696l111 -63v-670h-23l-111 63v670h23z" />
    <glyph glyph-name="uni0965" unicode="&#x965;" horiz-adv-x="808" 
d="M267 696l111 -63v-670h-23l-111 63v670h23zM531 696l111 -63v-670h-23l-111 63v670h23z" />
    <glyph glyph-name="uni0966" unicode="&#x966;" horiz-adv-x="631" 
d="M87 267q0 83 80 160.5t158 77.5q89 0 154.5 -60.5t65.5 -151.5q0 -90 -81.5 -167.5t-157.5 -77.5q-94 0 -156.5 63t-62.5 156zM202 323q0 -90 45.5 -145t87.5 -55q37 0 65.5 31t28.5 77q0 79 -41 139t-91 60q-38 0 -66.5 -30.5t-28.5 -76.5z" />
    <glyph glyph-name="uni0967" unicode="&#x967;" horiz-adv-x="631" 
d="M293 677q65 0 134.5 -57t69.5 -128q0 -79 -131 -227l-77 -85l156 -158q47 -51 68.5 -81.5t21.5 -57.5q0 -40 -27.5 -64.5t-61.5 -24.5q-38 0 -72 25t-54 67v2l90 67q-22 32 -56 69t-56.5 58.5t-75 68l-69.5 61.5v1l137 133q-97 61 -127 91q-45 44 -45 94q0 62 51 104
t124 42zM318 616q-32 0 -55 -34.5t-23 -81.5q0 -26 24.5 -58t58.5 -55q57 80 57 147q0 35 -18.5 58.5t-43.5 23.5z" />
    <glyph glyph-name="uni0968" unicode="&#x968;" horiz-adv-x="631" 
d="M318 677q47 0 98.5 -42t85 -104t33.5 -115q0 -70 -69.5 -145.5t-163.5 -102.5l183 -276l-109 -56l-134 322q-62 -3 -107 23t-45 61q0 41 25 71t52 30q13 0 23 -4l47 -72q89 18 148 76.5t59 123.5q0 41 -22 74t-58 33q-56 0 -100 -18t-106 -60l-82 116q50 21 81 32.5
t76 22t85 10.5z" />
    <glyph glyph-name="uni0969" unicode="&#x969;" horiz-adv-x="631" 
d="M583 224q0 -88 -70.5 -152t-154.5 -70l88 -130l-95 -49l-51 182q-73 10 -117.5 46.5t-44.5 79.5q1 33 24.5 50.5t50.5 17.5q2 0 20 -2l50 -82q65 0 135.5 48t70.5 101q-1 32 -24.5 49.5t-59.5 17.5q-14 0 -20 -1q-85 -44 -170 -44q-26 0 -48 25t-22 63q0 18 54.5 34.5
t137.5 23.5q58 34 58 85q0 25 -21.5 41t-58.5 16q-87 0 -206 -38l-61 116q132 25 221 25q72 0 144.5 -71.5t72.5 -139.5q0 -45 -32 -83q66 -48 97.5 -90.5t31.5 -68.5z" />
    <glyph glyph-name="uni096A" unicode="&#x96a;" horiz-adv-x="631" 
d="M380 364q155 -143 155 -215q0 -59 -63 -92.5t-149 -33.5q-78 0 -141 48.5t-63 120.5q0 43 28 87t98 115q-52 47 -152.5 121.5t-102.5 75.5l53 67l250 -216l272 267l53 -124zM288 85q40 0 73 39t33 89q0 34 -57 91l-9 9q-59 -58 -80.5 -94.5t-21.5 -71.5q0 -27 18.5 -44.5
t43.5 -17.5z" />
    <glyph glyph-name="uni096B" unicode="&#x96b;" horiz-adv-x="631" 
d="M676 -133l-94 -49l-154 324q-57 -45 -113 -45q-71 0 -153 63.5t-82 142.5q0 69 32 175t76 201l105 -85q-113 -232 -113 -338q0 -25 19.5 -46t40.5 -22q50 0 136 65l-44 89q35 39 81 39q43 0 70 -28.5t27 -76.5q0 -47 -46 -100z" />
    <glyph glyph-name="uni096C" unicode="&#x96c;" horiz-adv-x="631" 
d="M253 685q30 0 44 -1l69 -125q-33 5 -54 5q-89 0 -136.5 -22t-47.5 -76q0 -23 16.5 -45.5t37.5 -35.5q94 56 196 56q26 0 47 -21.5t21 -59.5q0 -21 -62.5 -43.5t-132.5 -25.5q-53 -38 -53 -89q0 -35 30 -65t69 -30q51 0 124 26l-39 88q46 34 94 34q44 0 71.5 -24t27.5 -69
q0 -56 -61 -106l139 -190l-95 -49l-91 208q-55 -30 -118 -30q-42 0 -105 48t-109 109.5t-46 98.5q0 51 43 96q-47 39 -80.5 86t-33.5 82q0 170 235 170z" />
    <glyph glyph-name="uni096D" unicode="&#x96d;" horiz-adv-x="631" 
d="M72 676q13 -125 36.5 -224.5t52 -162.5t63 -105t67.5 -59.5t68 -17.5q74 0 113.5 44.5t50.5 119.5q-30 -20 -63 -20q-68 0 -138 63q-49 44 -72 87.5t-23 108.5q0 59 47.5 102.5t99.5 43.5t88.5 -23t68.5 -74q32 -53 54.5 -129t22.5 -142q0 -138 -67.5 -215.5
t-155.5 -77.5q-144 0 -239.5 176t-120.5 490zM441 548q-49 0 -79.5 -33t-30.5 -75q0 -80 78 -80q57 0 113 45q-10 63 -32.5 103t-48.5 40z" />
    <glyph glyph-name="uni096E" unicode="&#x96e;" horiz-adv-x="631" 
d="M471 751l35 -121l-209 -236q-76 -86 -103 -138.5t-27 -104.5q0 -42 28 -75t77 -33q35 0 78 24t68.5 46t75.5 70q11 10 16 15l87 -79q-77 -88 -141.5 -121t-141.5 -33q-89 0 -173.5 73.5t-84.5 150.5q0 89 110 214z" />
    <glyph glyph-name="uni096F" unicode="&#x96f;" horiz-adv-x="631" 
d="M205 710q64 0 138.5 -69.5t74.5 -143.5q0 -64 -53 -115t-125 -66q184 -158 304 -289q90 -97 90 -144q0 -40 -27.5 -64.5t-61.5 -24.5q-38 0 -72 25t-54 67v2l90 67q-41 51 -105.5 116t-108 104.5l-112 100t-71.5 63.5q-62 56 -82 94.5t-20 93.5q0 75 52 129t143 54z
M248 602q-59 0 -96.5 -36.5t-37.5 -81.5q0 -49 30 -82q64 12 110.5 50.5t46.5 76.5q0 31 -15 52t-38 21z" />
    <glyph glyph-name="uni0970" unicode="&#x970;" horiz-adv-x="447" 
d="M52 268q0 64 62.5 117.5t114.5 53.5q66 0 116 -41t50 -110q0 -68 -62.5 -121t-114.5 -53q-67 0 -116.5 43t-49.5 111zM153 307q0 -56 29 -91.5t54 -35.5q21 0 40 19t19 47q0 49 -27 88.5t-55 39.5q-22 0 -41 -19.5t-19 -47.5z" />
    <glyph glyph-name="uni0971" unicode="&#x971;" horiz-adv-x="313" 
d="M157 725l111 -111l-111 -112l-112 112z" />
    <glyph glyph-name="uni0972" unicode="&#x972;" horiz-adv-x="871" 
d="M870 946l100 -90q-43 -57 -95 -88t-126 -31q-76 0 -141.5 56.5t-103.5 128.5l33 18q70 -106 156 -106q60 0 105 33.5t72 78.5zM482 669h340l49 -92v-21h-87v-593h-23l-111 63v178h-2q-23 -7 -40 -7q-52 0 -107 43h-3q14 -29 14 -66q0 -74 -47 -124.5t-119 -51.5
q-165 -2 -329 264l33 31q128 -170 238 -170q52 0 83.5 27.5t31.5 64.5q0 47 -34 88q-65 -22 -138 -29l-52 95l9 17q126 14 167 39q33 21 33 76q0 27 -22 47.5t-58 20.5q-44 0 -79.5 -18.5t-82.5 -60.5l-57 113q93 69 183 69q68 0 137.5 -74t69.5 -143q0 -42 -12.5 -67.5
t-38.5 -50.5q60 -27 121 -27q60 0 101 29v217h-122l-46 91v22z" />
    <glyph glyph-name="uni0973" unicode="&#x973;" horiz-adv-x="871" 
d="M871 577v-21h-87v-593h-23l-111 63v178h-2q-23 -7 -40 -7q-52 0 -107 43h-3q14 -29 14 -66q0 -74 -47 -124.5t-119 -51.5q-165 -2 -329 264l33 31q128 -170 238 -170q52 0 83.5 27.5t31.5 64.5q0 47 -34 88q-65 -22 -138 -29l-52 95l9 17q126 14 167 39q33 21 33 76
q0 27 -22 47.5t-58 20.5q-44 0 -79.5 -18.5t-82.5 -60.5l-57 113q93 69 183 69q68 0 137.5 -74t69.5 -143q0 -42 -12.5 -67.5t-38.5 -50.5q60 -27 121 -27q60 0 101 29v217h-122l-46 91v22h168v226h134v-226h38z" />
    <glyph glyph-name="uni0974" unicode="&#x974;" horiz-adv-x="1182" 
d="M1182 577v-21h-90v-593h-23l-111 63v530h-174v-593h-23l-111 63v178h-2q-23 -7 -40 -7q-52 0 -107 43h-3q14 -29 14 -66q0 -74 -47 -124.5t-119 -51.5q-165 -2 -329 264l33 31q128 -170 238 -170q52 0 83.5 27.5t31.5 64.5q0 47 -34 88q-65 -22 -138 -29l-52 95l9 17
q126 14 167 39q33 21 33 76q0 27 -22 47.5t-58 20.5q-44 0 -79.5 -18.5t-82.5 -60.5l-57 113q93 69 183 69q68 0 137.5 -74t69.5 -143q0 -42 -12.5 -67.5t-38.5 -50.5q60 -27 121 -27q60 0 101 29v217h-122l-46 91v22h476v226h134v-226h41z" />
    <glyph glyph-name="uni0976" unicode="&#x976;" horiz-adv-x="871" 
d="M498 240q14 -29 14 -66q0 -74 -47 -124.5t-119 -51.5q-165 -2 -329 264l33 31q128 -170 238 -170q52 0 83.5 27.5t31.5 64.5q0 47 -34 88q-65 -22 -138 -29l-52 95l9 17q126 14 167 39q33 21 33 76q0 27 -22 47.5t-58 20.5q-44 0 -79.5 -18.5t-82.5 -60.5l-57 113
q93 69 183 69q68 0 137.5 -74t69.5 -143q0 -42 -12.5 -67.5t-38.5 -50.5q60 -27 121 -27q60 0 101 29v217h-122l-46 91v22h340l49 -92v-21h-87v-593h-23l-111 63v178h-2q-23 -7 -40 -7q-52 0 -107 43h-3zM897 -61l37 -31q-31 -60 -90.5 -101.5t-126.5 -41.5
q-68 0 -127.5 41.5t-90.5 101.5l38 31q71 -69 180 -69t180 69z" />
    <glyph glyph-name="uni0977" unicode="&#x977;" horiz-adv-x="871" 
d="M498 240q14 -29 14 -66q0 -74 -47 -124.5t-119 -51.5q-165 -2 -329 264l33 31q128 -170 238 -170q52 0 83.5 27.5t31.5 64.5q0 47 -34 88q-65 -22 -138 -29l-52 95l9 17q126 14 167 39q33 21 33 76q0 27 -22 47.5t-58 20.5q-44 0 -79.5 -18.5t-82.5 -60.5l-57 113
q93 69 183 69q68 0 137.5 -74t69.5 -143q0 -42 -12.5 -67.5t-38.5 -50.5q60 -27 121 -27q60 0 101 29v217h-122l-46 91v22h340l49 -92v-21h-87v-593h-23l-111 63v178h-2q-23 -7 -40 -7q-52 0 -107 43h-3zM537 -61q71 -69 180 -69t180 69l37 -31q-31 -60 -90.5 -101.5
t-126.5 -41.5q-68 0 -127.5 41.5t-90.5 101.5zM717 -296q109 0 180 69l37 -31q-31 -60 -90.5 -101.5t-126.5 -41.5q-68 0 -127.5 41.5t-90.5 101.5l38 31q71 -69 180 -69z" />
    <glyph glyph-name="uni0979" unicode="&#x979;" horiz-adv-x="745" 
d="M745 577v-21h-90v-593h-22l-111 63v319h-176q90 -88 90 -166q0 -72 -40.5 -113.5t-101.5 -41.5q-76 0 -137.5 61t-96 147t-51.5 188l45 13q71 -286 212 -286q40 0 64 18t24 53q0 46 -53.5 99t-124.5 95l21 46h325v98h-531l-47 91v22h752zM163 13l83 -83l-83 -84l-84 84z
M292 -70l84 83l83 -83l-83 -84zM185 -177l84 83l83 -83l-83 -84z" />
    <glyph glyph-name="uni097A" unicode="&#x97a;" horiz-adv-x="680" 
d="M631 669l49 -92v-21h-90v-593h-22l-111 63v110l-2 1q-57 -31 -128 -31q-93 0 -169.5 61t-117.5 178q80 25 116 52t36 67q0 45 -38 92h-163l-47 91v22h687zM255 556q6 -7 18 -23l184 -228v251h-202zM276 211q80 0 165 52l-122 152q-8 -32 -51 -66.5t-103 -55.5
q8 -38 40 -60t71 -22z" />
    <glyph glyph-name="uni097B" unicode="&#x97b;" horiz-adv-x="662" 
d="M612 669l50 -92v-21h-90v-619h-508l-37 71v22h410v526h-201q28 -193 28 -272q0 -125 -112 -125q-54 0 -84 45t-30 90q0 29 5 52l99 -13v223h-151l-47 91v22h668z" />
    <glyph glyph-name="uni097C" unicode="&#x97c;" horiz-adv-x="745" 
d="M696 669l49 -92v-21h-90v-699h-591l-37 71v22h495v395h-176q90 -88 90 -166q0 -72 -40.5 -113.5t-101.5 -41.5q-76 0 -137.5 61t-96 147t-51.5 188l45 13q71 -286 212 -286q40 0 64 18t24 53q0 46 -53.5 99t-124.5 95l21 46h325v98h-531l-47 91v22h752z" />
    <glyph glyph-name="uni097D" unicode="&#x97d;" horiz-adv-x="568" 
d="M254 672q76 0 152.5 -86.5t76.5 -169.5q0 -40 -25.5 -79t-66.5 -61q-29 -16 -90 -32v-281h-23l-111 63v296l9 17q115 10 166 41q50 28 50 89q0 40 -28.5 70t-66.5 30q-42 0 -74.5 -18.5t-76.5 -60.5l-57 113q40 28 88 48.5t77 20.5z" />
    <glyph glyph-name="uni097E" unicode="&#x97e;" horiz-adv-x="624" 
d="M576 669l48 -92v-21h-117v-191h-280q-70 0 -70 -57q0 -17 10.5 -37t21.5 -20q52 0 132.5 23.5t109.5 23.5q47 0 90.5 -61t43.5 -132q-1 -86 -46.5 -134t-125.5 -48q-87 0 -185 55t-191 158l37 37q73 -76 137.5 -106.5t147.5 -30.5q63 0 118 23.5t55 67.5q0 16 -12 33
t-32 25q-37 -1 -111 -23.5t-116 -23.5q-43 1 -101 65t-58 133q0 142 112 142h180v78h-384l-46 91v22h632zM560 -150l37 -71v-22h-533l-37 71v22h533z" />
    <glyph glyph-name="uni097F" unicode="&#x97f;" horiz-adv-x="670" 
d="M620 669l50 -92v-21h-91v-619h-515l-37 71v22h412l8 119l-5 1q-49 -34 -90.5 -51.5t-94.5 -17.5q-78 0 -145 55t-67 147q0 98 61 158t137 60q96 0 201 -126h1v181h-454l-47 91v22h676zM292 382q-33 0 -60 -6l105 -157q60 29 108 79v2q-30 33 -72.5 57.5t-80.5 24.5z
M195 365q-46 -17 -74 -46.5t-28 -58.5q0 -31 33.5 -52.5t87.5 -21.5q40 0 89 17z" />
    <glyph glyph-name="uni2000" unicode="&#x2000;" horiz-adv-x="500" 
 />
    <glyph glyph-name="uni2001" unicode="&#x2001;" horiz-adv-x="1000" 
 />
    <glyph glyph-name="uni2002" unicode="&#x2002;" horiz-adv-x="500" 
 />
    <glyph glyph-name="uni2003" unicode="&#x2003;" horiz-adv-x="1000" 
 />
    <glyph glyph-name="uni2004" unicode="&#x2004;" horiz-adv-x="333" 
 />
    <glyph glyph-name="uni2005" unicode="&#x2005;" horiz-adv-x="250" 
 />
    <glyph glyph-name="uni2006" unicode="&#x2006;" horiz-adv-x="167" 
 />
    <glyph glyph-name="uni2007" unicode="&#x2007;" horiz-adv-x="629" 
 />
    <glyph glyph-name="uni2008" unicode="&#x2008;" horiz-adv-x="353" 
 />
    <glyph glyph-name="uni2009" unicode="&#x2009;" horiz-adv-x="200" 
 />
    <glyph glyph-name="uni200A" unicode="&#x200a;" horiz-adv-x="100" 
 />
    <glyph glyph-name="uni200C" unicode="&#x200c;" horiz-adv-x="600" 
 />
    <glyph glyph-name="uni200D" unicode="&#x200d;" horiz-adv-x="600" 
 />
    <glyph glyph-name="endash" unicode="&#x2013;" horiz-adv-x="737" 
d="M92 468h556v-115h-559z" />
    <glyph glyph-name="emdash" unicode="&#x2014;" horiz-adv-x="1179" 
d="M89 468h1001v-114h-1001v114z" />
    <glyph glyph-name="quoteleft" unicode="&#x2018;" horiz-adv-x="450" 
d="M225 371q-62 22 -96 81t-34 130q4 96 63 173t148 110l50 -46v-21q-34 -13 -64.5 -62t-30.5 -90q0 -32 24 -62.5t53 -33.5v-38z" />
    <glyph glyph-name="quoteright" unicode="&#x2019;" horiz-adv-x="450" 
d="M94 417v21q35 14 65.5 62.5t30.5 89.5q0 35 -24 64.5t-54 32.5v38l113 141q63 -22 97.5 -82t32.5 -129q-1 -94 -61.5 -172t-148.5 -110z" />
    <glyph glyph-name="quotesinglbase" unicode="&#x201a;" horiz-adv-x="450" 
d="M112 74l113 141q64 -23 98 -82t32 -129q-2 -93 -57.5 -160.5t-152.5 -107.5l-51 46v21q38 15 66.5 55.5t28.5 81.5q0 35 -24 64.5t-53 32.5v37z" />
    <glyph glyph-name="quotedblleft" unicode="&#x201c;" horiz-adv-x="750" 
d="M226 371q-60 20 -95 81t-35 129q0 92 60.5 170.5t149.5 112.5l51 -46v-20q-35 -13 -65 -61.5t-30 -90.5q0 -35 23.5 -64.5t53.5 -32.5v-37zM525 371q-60 21 -94.5 82t-34.5 128q0 92 60.5 171t148.5 112l52 -46v-20q-36 -14 -66 -62t-30 -90q0 -34 24.5 -64t53.5 -33v-37
z" />
    <glyph glyph-name="quotedblright" unicode="&#x201d;" horiz-adv-x="751" 
d="M94 416v21q35 12 65.5 60.5t30.5 90.5q0 36 -24 65t-54 32v38l114 141q63 -22 97.5 -82t32.5 -129q-4 -96 -63 -173.5t-147 -108.5zM394 416v21q34 11 65 60.5t31 90.5q0 32 -23.5 63t-53.5 34v38l112 141q62 -22 97.5 -82.5t33.5 -128.5q-2 -93 -62.5 -172.5
t-147.5 -109.5z" />
    <glyph glyph-name="quotedblbase" unicode="&#x201e;" horiz-adv-x="727" 
d="M113 76l114 141q62 -22 97.5 -83.5t31.5 -127.5q-2 -93 -62.5 -172.5t-147.5 -110.5l-52 46v21q35 12 65.5 60.5t30.5 90.5q0 36 -23.5 65t-53.5 32v38zM389 76l113 141q62 -22 97 -82.5t33 -128.5q-2 -93 -62.5 -171.5t-148.5 -111.5l-51 46v21q34 11 65 60.5t31 90.5
q0 33 -23.5 63.5t-53.5 33.5v38z" />
    <glyph glyph-name="dagger" unicode="&#x2020;" horiz-adv-x="547" 
d="M197 417l16 118l-150 -19v131l151 -23l-20 136v45h159v-45l-20 -136l151 23l1 -131l-151 19l17 -118l-39 -289h-86z" />
    <glyph glyph-name="daggerdbl" unicode="&#x2021;" horiz-adv-x="547" 
d="M353 805v-45l-20 -136l151 23l1 -131l-151 19l17 -118l-18 -102l151 24l1 -131l-151 19l17 -118l-38 -289h-87l-29 289l16 118l-150 -19v131l151 -24l-17 102l16 118l-150 -19v131l151 -23l-20 136v45h159z" />
    <glyph glyph-name="bullet" unicode="&#x2022;" horiz-adv-x="449" 
d="M219 216q-67 0 -115.5 49t-42.5 114q4 67 55.5 114.5t119.5 47.5q69 0 115.5 -47t42.5 -115q-4 -67 -55.5 -115t-119.5 -48z" />
    <glyph glyph-name="ellipsis" unicode="&#x2026;" horiz-adv-x="1170" 
d="M204 188q47 0 74 -26t27 -69q0 -46 -35.5 -76.5t-82.5 -30.5q-41 0 -70.5 25.5t-29.5 65.5q0 44 37.5 77.5t79.5 33.5zM593 188q47 0 74 -26t27 -69q0 -46 -35.5 -76.5t-82.5 -30.5q-42 0 -70.5 25.5t-28.5 65.5q0 44 37 77.5t79 33.5zM982 188q48 0 74.5 -25.5
t26.5 -69.5q0 -47 -35.5 -77t-82.5 -30q-41 0 -70 25.5t-29 65.5q0 44 37 77.5t79 33.5z" />
    <glyph glyph-name="perthousand" unicode="&#x2030;" horiz-adv-x="1473" 
d="M744 864l-353 -950h-117l353 950h117zM252 697q87 0 135 -47.5t48 -130.5q0 -82 -57 -131.5t-142 -49.5q-80 0 -131.5 50.5t-51.5 125.5q0 82 58 132.5t141 50.5zM245 627q-34 0 -51.5 -33t-17.5 -76q0 -38 22 -74t52 -36q29 0 45.5 29t16.5 78q0 43 -19 77.5t-48 34.5z
M796 439q87 0 135 -47.5t48 -130.5q0 -82 -57 -131.5t-142 -49.5q-80 0 -131.5 50.5t-51.5 125.5q0 82 57.5 132.5t141.5 50.5zM1224 439q86 0 134 -46.5t48 -131.5q0 -82 -57 -131.5t-142 -49.5q-79 0 -131 51t-52 125q0 83 57.5 133t142.5 50zM792 369q-33 0 -51 -32
t-18 -77q0 -39 23 -74.5t50 -35.5q29 0 45.5 28.5t16.5 78.5q0 44 -19 78t-47 34zM1219 369q-34 0 -51.5 -33t-17.5 -76q0 -39 23 -74.5t51 -35.5q29 0 45.5 29t16.5 78q0 43 -19 77.5t-48 34.5z" />
    <glyph glyph-name="guilsinglleft" unicode="&#x2039;" horiz-adv-x="626" 
d="M112 370l361 189l42 -67l-223 -192l223 -184l-42 -72l-361 177v149z" />
    <glyph glyph-name="guilsinglright" unicode="&#x203a;" horiz-adv-x="626" 
d="M109 110l222 192l-222 184l42 73l361 -177v-149l-361 -189z" />
    <glyph glyph-name="fraction" unicode="&#x2044;" horiz-adv-x="522" 
d="M403 918l104 -30l-390 -1055l-103 36z" />
    <glyph glyph-name="Euro" unicode="&#x20ac;" horiz-adv-x="829" 
d="M513 765q57 0 126.5 -21t96.5 -14l-8 -184h-78l-35 93q-46 37 -129 37q-73 0 -108.5 -40.5t-45.5 -119.5h216v-84h-223v-58v-37h214v-81h-207q23 -185 176 -185q44 -1 75 16q16 9 33.5 45.5t28.5 75.5h91v-177q-26 5 -57.5 -5.5t-82.5 -25t-113 -14.5q-131 0 -223.5 72
t-120.5 198h-97v81h88v12q0 39 6 83h-79v84h99q41 123 133.5 186t223.5 63z" />
    <glyph glyph-name="uni20B9" unicode="&#x20b9;" horiz-adv-x="631" 
d="M546 566h-157q35 -44 39 -95h160v-22l-42 -81h-138q-45 -84 -195 -132l294 -180l-93 -103l-222 224q-52 52 -56 89l5 4q30 8 74.5 34t70.5 64h-179v21l44 82h155q-11 46 -56 95h-143v21l44 82h437v-22z" />
    <glyph glyph-name="trademark" unicode="&#x2122;" horiz-adv-x="1141" 
d="M172 423l56 10v263l-74 -12l-18 -55l-47 -2l6 131h371l5 -128l-42 -5l-24 62l-61 9v-263l58 -10v-44h-230v44zM494 423l56 12l13 262l-44 6v55h188l62 -173l10 -45l71 218h179v-55l-43 -5l17 -264l49 -11v-44h-199v44l36 9l2 169l2 101l-8 -35l-99 -292h-39l-112 272
l-16 53l3 -75l-3 -191l46 -11v-44h-171v44z" />
    <glyph glyph-name="partialdiff" unicode="&#x2202;" horiz-adv-x="723" 
d="M348 857q154 0 230.5 -96t76.5 -266q0 -107 -23 -200.5t-68.5 -167.5t-119.5 -117t-168 -43q-99 0 -161.5 63.5t-62.5 159.5q0 137 116.5 235t263.5 98q36 0 72 -6q-26 238 -218 238q-71 0 -131 -35l-48 64q110 73 241 73zM365 423q-77 0 -121.5 -48.5t-44.5 -130.5
q0 -70 46.5 -123t112.5 -53t101 69.5t44 171.5q5 63 5 66q-71 48 -143 48z" />
    <glyph glyph-name="uni2206" unicode="&#x2206;" horiz-adv-x="864" 
d="M63 21l333 719h35l370 -717l-17 -23h-705zM548 152l-157 315l-141 -315h298z" />
    <glyph glyph-name="product" unicode="&#x220f;" horiz-adv-x="959" 
d="M174 2v665l-95 11v80h806v-80l-100 -11v-665l95 -21v-67h-364v67l94 20v677h-261v-676l90 -20v-68h-356v68z" />
    <glyph glyph-name="summation" unicode="&#x2211;" horiz-adv-x="740" 
d="M341 312l-241 350l4 96h513l15 -167h-86l-41 88l-227 8l237 -344l-274 -351l278 10l57 100l87 -18l-26 -172l-533 1l-4 80z" />
    <glyph glyph-name="minus" unicode="&#x2212;" horiz-adv-x="645" 
d="M89 468h466v-115h-466v115z" />
    <glyph glyph-name="radical" unicode="&#x221a;" horiz-adv-x="867" 
d="M48 283l88 63h156l130 -373h4l284 965h109l-341 -1111h-145l-175 421l-62 -45z" />
    <glyph glyph-name="infinity" unicode="&#x221e;" horiz-adv-x="1139" 
d="M822 546q99 0 170 -58t72 -149q1 -58 -38 -123t-100.5 -109.5t-119.5 -44.5q-139 0 -255 144q-125 -144 -233 -144q-97 0 -168 58t-74 149q-1 58 38 123t101 109.5t120 44.5q77 0 136 -35.5t118 -107.5q126 143 233 143zM774 430q-59 0 -127 -89q126 -150 203 -150
q30 0 51 35.5t19 74.5q-3 49 -50.5 89t-95.5 40zM291 417q-30 0 -51.5 -35.5t-19.5 -74.5q3 -49 51 -88.5t96 -39.5q60 0 127 89q-44 49 -69 74.5t-63.5 50t-70.5 24.5z" />
    <glyph glyph-name="integral" unicode="&#x222b;" horiz-adv-x="609" 
d="M436 836q113 0 151 -71l-80 -68q-7 24 -28.5 43t-44.5 19q-50 0 -69 -39t-19 -110q0 -98 35.5 -284t35.5 -280q0 -117 -68 -196.5t-176 -79.5q-113 0 -152 71l80 73q7 -23 29 -42.5t44 -19.5q50 0 69.5 38.5t19.5 109.5q0 82 -38 276t-38 284q0 119 70.5 197.5
t178.5 78.5z" />
    <glyph glyph-name="approxequal" unicode="&#x2248;" horiz-adv-x="679" 
d="M89 513q6 39 64 79.5t105 40.5q42 0 94 -34.5t83 -34.5q46 0 107 49l48 -61q-8 -44 -62 -82.5t-105 -38.5q-43 0 -91 34.5t-89 34.5q-31 0 -53.5 -11.5t-52.5 -36.5zM89 227q6 39 64 79.5t105 40.5q42 0 94 -34.5t83 -34.5q46 0 107 49l48 -61q-8 -44 -62 -82.5
t-105 -38.5q-43 0 -91 34.5t-89 34.5q-31 0 -53.5 -11.5t-52.5 -36.5z" />
    <glyph glyph-name="notequal" unicode="&#x2260;" horiz-adv-x="645" 
d="M209 210h-120v113h160l45 155h-205v113h245l33 100h108l-33 -100h113v-113h-153l-46 -155h199v-113h-238l-39 -124h-108z" />
    <glyph glyph-name="lessequal" unicode="&#x2264;" horiz-adv-x="654" 
d="M92 508l473 197v-139l-265 -91l265 -88v-139l-473 194v66zM89 173h466v-115h-466v115z" />
    <glyph glyph-name="greaterequal" unicode="&#x2265;" horiz-adv-x="654" 
d="M92 387l265 88l-265 91v139l473 -197v-66l-473 -194v139zM89 173h466v-115h-466v115z" />
    <glyph glyph-name="lozenge" unicode="&#x25ca;" horiz-adv-x="651" 
d="M67 311v59l201 321h129l187 -311v-59l-201 -321h-130zM464 319l-152 259l-125 -206l150 -259z" />
    <glyph glyph-name="uni25CC" unicode="&#x25cc;" horiz-adv-x="769" 
d="M345 575q0 16 12 28.5t29 12.5q16 0 28.5 -12.5t12.5 -28.5q0 -17 -12.5 -29t-28.5 -12q-17 0 -29 12t-12 29zM218 543q0 17 12 29t28 12t28.5 -12t12.5 -29t-12.5 -29t-28.5 -12t-28 12t-12 29zM469 543q0 17 12.5 29t28.5 12q17 0 29 -12t12 -29t-12 -29t-29 -12
q-16 0 -28.5 12t-12.5 29zM124 450q0 17 12 29t29 12t29 -12.5t12 -28.5q0 -17 -12 -29t-29 -12t-29 12t-12 29zM564 450q0 16 12 28.5t29 12.5t29 -12t12 -29t-12 -29t-29 -12t-29 12t-12 29zM93 323q0 17 12 29t29 12t29 -12t12 -29t-12.5 -29t-28.5 -12q-17 0 -29 12
t-12 29zM596 323q0 17 12 29t28 12q17 0 29 -12t12 -29t-12 -29t-29 -12q-16 0 -28 12.5t-12 28.5zM124 197q0 17 12 28.5t29 11.5t29 -12t12 -28q0 -17 -12 -29t-29 -12t-29 12t-12 29zM564 197q0 16 12 28t29 12t29 -11.5t12 -28.5t-12 -29t-29 -12t-29 12t-12 29z
M218 102q0 16 12 28t28 12q17 0 29 -12t12 -28t-12.5 -28.5t-28.5 -12.5t-28 12t-12 29zM469 102q0 16 12 28t29 12t29 -11.5t12 -28.5t-12 -29t-29 -12q-16 0 -28.5 12.5t-12.5 28.5zM345 71q0 17 12 29t29 12q16 0 28.5 -12t12.5 -29q0 -16 -12.5 -28.5t-28.5 -12.5
q-17 0 -29 12t-12 29z" />
    <glyph glyph-name="uni093F0902" horiz-adv-x="313" 
d="M15 851q0 71 62 117t160 46q179 0 521 -287l-29 -38q-275 208 -438 206q-60 -1 -98.5 -30t-38.5 -82q0 -56 32 -114h78l49 -92v-21h-89v-593h-23l-111 63v530h-99l-47 91v22h157q-86 104 -86 182zM822 953l111 -111l-111 -112l-112 112z" />
    <glyph glyph-name="uni093F0930094D" horiz-adv-x="313" 
d="M710 1088q59 0 115.5 -36t101.5 -99l-29 -37q-21 19 -60 36t-73 17q-30 0 -51.5 -20.5t-21.5 -56.5q0 -55 30 -110q15 -29 36 -55l-29 -38q-275 208 -438 206q-60 -1 -98.5 -30t-38.5 -82q0 -56 32 -114h78l49 -92v-21h-89v-593h-23l-111 63v530h-99l-47 91v22h157
q-86 104 -86 182q0 71 62 117t160 46q140 0 369 -168h2q-44 63 -45 116q1 59 46 92.5t101 33.5z" />
    <glyph glyph-name="uni093F0930094D0902" horiz-adv-x="313" 
d="M703 1081q65 0 115 -26l-15 -69q-24 6 -49 6q-32 0 -58 -25.5t-25 -76.5q1 -52 32 -99q21 -35 55 -64l-29 -38q-275 208 -438 206q-60 -1 -98.5 -30t-38.5 -82q0 -56 32 -114h78l49 -92v-21h-89v-593h-23l-111 63v530h-99l-47 91v22h157q-86 104 -86 182q0 71 62 117
t160 46q137 0 365 -165h2q-40 62 -40 107q-1 54 40.5 89.5t98.5 35.5zM828 957l83 -83l-83 -84l-84 84z" />
    <glyph glyph-name="uni09400902" horiz-adv-x="307" 
d="M167 669h97l49 -92v-21h-89v-593h-23l-111 63v530h-99l-47 91v22h160q-21 42 -38.5 73t-43.5 67.5t-55 56t-59 19.5q-35 0 -55 -22.5t-20 -58.5q0 -43 27 -90v-2l-47 -23q-49 31 -84 74t-35 92q0 60 49.5 105.5t125.5 44.5q32 0 62 -12t53.5 -30t47.5 -48t40.5 -55
t36.5 -64.5t31 -63.5t27 -63zM375 834l-111 -112l-112 112l112 111z" />
    <glyph glyph-name="uni09400930094D" horiz-adv-x="313" 
d="M-131 1005q90 0 168 -95q11 45 44 69.5t71 24.5q57 0 115 -36.5t102 -98.5l-29 -37q-21 19 -60 36t-73 17q-33 0 -56 -22t-24 -61q-1 -59 45 -133h92l49 -92v-21h-89v-593h-23l-111 63v530h-99l-47 91v22h160q-21 42 -38.5 73t-43.5 67.5t-55 56t-59 19.5
q-35 0 -55 -22.5t-20 -58.5q0 -43 27 -90v-2l-47 -23q-49 31 -84 74t-35 92q0 60 49.5 105.5t125.5 44.5z" />
    <glyph glyph-name="uni09400930094D0902" horiz-adv-x="307" 
d="M-131 1005q88 0 163 -90q15 41 48.5 65t77.5 24q65 0 115 -26l-15 -69q-24 6 -49 6q-32 0 -57.5 -25.5t-25.5 -76.5q0 -70 46 -144h92l49 -92v-21h-89v-593h-23l-111 63v530h-99l-47 91v22h160q-21 42 -38.5 73t-43.5 67.5t-55 56t-59 19.5q-35 0 -55 -22.5t-20 -58.5
q0 -43 27 -90v-2l-47 -23q-49 31 -84 74t-35 92q0 60 49.5 105.5t125.5 44.5zM283 880l83 -83l-83 -84l-84 84z" />
    <glyph glyph-name="uni094B0902" horiz-adv-x="313" 
d="M167 669h97l49 -92v-21h-89v-593h-23l-111 63v530h-99l-47 91v22h160q-26 37 -35 47q-62 83 -94 116l-135 -46q-45 40 -45 105q0 46 28 72t65 26q67 0 119 -54.5t106 -158.5zM362 834l-111 -112l-112 112l112 111z" />
    <glyph glyph-name="uni094B0930094D" horiz-adv-x="313" 
d="M222 899q-33 0 -56 -22t-24 -61q-1 -62 54 -147h68l49 -92v-21h-89v-593h-23l-111 63v530h-99l-47 91v22h175l-44 61q-58 78 -95 116l-135 -46q-45 40 -45 105q0 46 28 72t65 26q79 0 146 -85q13 47 50 73.5t78 26.5q57 0 115 -36.5t102 -98.5l-29 -37q-21 19 -60 36
t-73 17z" />
    <glyph glyph-name="uni094B0930094D0902" horiz-adv-x="313" 
d="M224 929q-32 0 -57.5 -25.5t-25.5 -76.5q0 -76 55 -158h68l49 -92v-21h-89v-593h-23l-111 63v530h-99l-47 91v22h175l-44 61q-58 78 -95 116l-135 -46q-45 40 -45 105q0 46 28 72t65 26q79 0 146 -85q13 45 49.5 72.5t84.5 27.5q65 0 115 -26l-15 -69q-24 6 -49 6z
M298 894l83 -83l-83 -84l-84 84z" />
    <glyph glyph-name="uni094C0902" horiz-adv-x="307" 
d="M205 669h59l49 -92v-21h-89v-593h-23l-111 63v530h-99l-47 91v22h118q-52 63 -63 78l-214 -22h-1q-22 30 -22 77q0 41 28 64t65 23q134 0 270 -220h17q-10 29 -26 63q-33 71 -72.5 138.5t-63.5 89.5l-154 -22h-1q-17 27 -17 70q0 46 28 72t65 26q132 0 263 -329
q24 -59 41 -108zM403 834l-111 -112l-112 112l112 111z" />
    <glyph glyph-name="uni094C0930094D" horiz-adv-x="313" 
d="M-102 1125q97 0 192 -175q19 38 53.5 55.5t66.5 17.5q110 0 197 -135l-29 -37q-21 19 -60 36t-73 17q-30 0 -52.5 -21t-22.5 -58q0 -45 39 -156h55l49 -92v-21h-89v-593h-23l-111 63v530h-99l-47 91v22h130l-78 97l-215 -22q-22 30 -22 77q0 41 28 64t65 23
q139 0 282 -239h12q-14 39 -34 85q-33 70 -72.5 137t-62.5 88l-155 -22q-17 27 -17 70q0 46 28 72t65 26z" />
    <glyph glyph-name="uni094C0930094D0902" horiz-adv-x="313" 
d="M-102 1125q95 0 190 -171q33 69 114 69q65 0 115 -26l-15 -69q-24 6 -49 6q-32 0 -57.5 -25.5t-25.5 -76.5q0 -58 40 -163h54l49 -92v-21h-89v-593h-23l-111 63v530h-99l-47 91v22h130l-78 97l-215 -22q-22 30 -22 77q0 41 28 64t65 23q139 0 282 -239h12q-11 34 -34 85
q-33 70 -72.5 137t-62.5 88l-155 -22q-17 27 -17 70q0 46 28 72t65 26zM327 899l83 -83l-83 -84l-84 84z" />
    <glyph glyph-name="uni093F.0" horiz-adv-x="313" 
d="M187 1004q117 0 247 -161q28 -34 92 -125l-37 -29q-35 45 -57 70.5t-56.5 59.5t-68 50t-66.5 16q-38 0 -62.5 -27t-24.5 -75q0 -56 32 -114h78l49 -92v-21h-89v-593h-23l-111 63v530h-99l-47 91v22h157q-86 104 -86 182q0 66 48 109.5t124 43.5z" />
    <glyph glyph-name="uni093F0902.0" horiz-adv-x="313" 
d="M187 1004q117 0 247 -161q28 -34 92 -125l-37 -29q-35 45 -57 70.5t-56.5 59.5t-68 50t-66.5 16q-38 0 -62.5 -27t-24.5 -75q0 -56 32 -114h78l49 -92v-21h-89v-593h-23l-111 63v530h-99l-47 91v22h157q-86 104 -86 182q0 66 48 109.5t124 43.5zM604 953l111 -111
l-111 -112l-112 112z" />
    <glyph glyph-name="uni093F0930094D.0" horiz-adv-x="313" 
d="M473 1086q59 0 115.5 -36t101.5 -99l-29 -37q-21 19 -60 36t-73 17q-30 0 -51.5 -20.5t-21.5 -56.5q0 -64 42 -131q3 -4 29 -41l-37 -29q-35 45 -57 70.5t-56.5 59.5t-68 50t-66.5 16q-38 0 -62.5 -27t-24.5 -75q0 -56 32 -114h78l49 -92v-21h-89v-593h-23l-111 63v530
h-99l-47 91v22h157q-86 104 -86 182q0 66 48 109.5t124 43.5q81 0 162 -71h1q-4 16 -4 37q1 55 40.5 85.5t86.5 30.5z" />
    <glyph glyph-name="uni093F0930094D0902.0" horiz-adv-x="313" 
d="M471 1072q65 0 115 -26l-15 -69q-24 6 -49 6q-24 0 -44 -25.5t-19 -76.5q1 -68 55 -146q4 -5 12 -17l-37 -29q-35 45 -57 70.5t-56.5 59.5t-68 50t-66.5 16q-38 0 -62.5 -27t-24.5 -75q0 -56 32 -114h78l49 -92v-21h-89v-593h-23l-111 63v530h-99l-47 91v22h157
q-86 104 -86 182q0 66 48 109.5t124 43.5q81 0 167 -76h1q-3 15 -3 29q-1 50 34.5 82.5t84.5 32.5zM596 948l83 -83l-83 -84l-84 84z" />
    <glyph glyph-name="uni093F.05" horiz-adv-x="313" 
d="M293 1014q85 0 177.5 -26t181.5 -73.5t154.5 -89.5t142.5 -98l-29 -38q-153 100 -288 153.5t-285 52.5q-85 -1 -139 -33.5t-54 -92.5q0 -48 30 -100h81l48 -92v-21h-89v-593h-23l-111 63v530h-99l-47 91v22h155q-84 96 -84 169q0 77 77 126.5t201 49.5z" />
    <glyph glyph-name="uni093F.10" horiz-adv-x="313" 
d="M293 1014q92 0 191 -26t195 -73.5t166.5 -89.5t153.5 -98l-29 -38q-168 100 -314.5 153.5t-308.5 52.5q-85 -1 -139 -33.5t-54 -92.5q0 -48 30 -100h81l48 -92v-21h-89v-593h-23l-111 63v530h-99l-47 91v22h155q-84 96 -84 169q0 77 77 126.5t201 49.5z" />
    <glyph glyph-name="uni093F0902.05" horiz-adv-x="313" 
d="M293 1014q85 0 177.5 -26t181.5 -73.5t154.5 -89.5t142.5 -98l-29 -38q-153 100 -288 153.5t-285 52.5q-85 -1 -139 -33.5t-54 -92.5q0 -48 30 -100h81l48 -92v-21h-89v-593h-23l-111 63v530h-99l-47 91v22h155q-84 96 -84 169q0 77 77 126.5t201 49.5zM1012 953
l111 -111l-111 -112l-112 112z" />
    <glyph glyph-name="uni093F0902.10" horiz-adv-x="313" 
d="M293 1014q92 0 191 -26t195 -73.5t166.5 -89.5t153.5 -98l-29 -38q-168 100 -314.5 153.5t-308.5 52.5q-85 -1 -139 -33.5t-54 -92.5q0 -48 30 -100h81l48 -92v-21h-89v-593h-23l-111 63v530h-99l-47 91v22h155q-84 96 -84 169q0 77 77 126.5t201 49.5zM1062 953
l111 -111l-111 -112l-112 112z" />
    <glyph glyph-name="uni093F0930094D.05" horiz-adv-x="313" 
d="M901 1088q59 0 115.5 -36t101.5 -99l-29 -37q-21 19 -60 36t-73 17q-30 0 -51.5 -20.5t-21.5 -56.5q0 -56 30 -111q14 -26 36 -54l-29 -38q-153 100 -288 153.5t-285 52.5q-85 -1 -139 -33.5t-54 -92.5q0 -48 30 -100h81l48 -92v-21h-89v-593h-23l-111 63v530h-99l-47 91
v22h155q-84 96 -84 169q0 77 77 126.5t201 49.5q225 0 525 -196h1q-64 82 -65 144q1 59 46 92.5t101 33.5z" />
    <glyph glyph-name="uni093F0930094D.10" horiz-adv-x="313" 
d="M1006 969q-30 0 -51.5 -20.5t-21.5 -56.5q0 -66 41 -129q6 -11 25 -36l-29 -38q-168 100 -314.5 153.5t-308.5 52.5q-85 -1 -139 -33.5t-54 -92.5q0 -48 30 -100h81l48 -92v-21h-89v-593h-23l-111 63v530h-99l-47 91v22h155q-84 96 -84 169q0 77 77 126.5t201 49.5
q247 0 585 -209l1 1q-74 92 -75 156q1 59 46 92.5t101 33.5q59 0 115.5 -36t101.5 -99l-29 -37q-21 19 -60 36t-73 17z" />
    <glyph glyph-name="uni093F0930094D0902.05" horiz-adv-x="313" 
d="M894 1081q65 0 115 -26l-15 -69q-24 6 -49 6q-33 0 -58.5 -25.5t-24.5 -76.5q1 -63 48 -122q12 -16 39 -41l-29 -38q-153 100 -288 153.5t-285 52.5q-85 -1 -139 -33.5t-54 -92.5q0 -48 30 -100h81l48 -92v-21h-89v-593h-23l-111 63v530h-99l-47 91v22h155
q-84 96 -84 169q0 77 77 126.5t201 49.5q224 0 520 -193h2q-59 77 -60 135q-1 54 40.5 89.5t98.5 35.5zM1019 957l83 -83l-83 -84l-84 84z" />
    <glyph glyph-name="uni093F0930094D0902.10" horiz-adv-x="313" 
d="M995 992q-33 0 -58.5 -25.5t-24.5 -76.5q1 -64 49 -124q21 -25 38 -39l-29 -38q-168 100 -314.5 153.5t-308.5 52.5q-85 -1 -139 -33.5t-54 -92.5q0 -48 30 -100h81l48 -92v-21h-89v-593h-23l-111 63v530h-99l-47 91v22h155q-84 96 -84 169q0 77 77 126.5t201 49.5
q247 0 581 -206h1q-69 83 -70 148q-1 54 40.5 89.5t98.5 35.5q65 0 115 -26l-15 -69q-24 6 -49 6zM1069 957l83 -83l-83 -84l-84 84z" />
    <glyph glyph-name="uni0940.02" horiz-adv-x="307" 
d="M-356 1015q72 -1 146 -33t144.5 -90.5t118 -106.5t106.5 -116h105l49 -92v-21h-89v-593h-23l-111 63v530h-99l-47 91v22h138q-236 224 -399 226q-44 1 -70 -24t-26 -65q0 -45 27 -92v-2l-47 -23q-48 31 -83.5 74.5t-35.5 93.5q0 63 55.5 111t140.5 47z" />
    <glyph glyph-name="uni09400902.02" horiz-adv-x="307" 
d="M-356 1015q72 -1 146 -33t144.5 -90.5t118 -106.5t106.5 -116h105l49 -92v-21h-89v-593h-23l-111 63v530h-99l-47 91v22h138q-236 224 -399 226q-44 1 -70 -24t-26 -65q0 -45 27 -92v-2l-47 -23q-48 31 -83.5 74.5t-35.5 93.5q0 63 55.5 111t140.5 47zM237 945l111 -111
l-111 -112l-112 112z" />
    <glyph glyph-name="uni09400930094D.02" horiz-adv-x="307" 
d="M-356 1015q156 -3 337 -162q0 58 34 97q43 54 110 54q59 0 115.5 -36t101.5 -99l-29 -37q-21 19 -60 36t-73 17q-30 0 -51.5 -20.5t-21.5 -56.5q0 -66 52 -139h105l49 -92v-21h-89v-593h-23l-111 63v530h-99l-47 91v22h138q-236 224 -399 226q-44 1 -70 -24t-26 -65
q0 -45 27 -92v-2l-47 -23q-48 31 -83.5 74.5t-35.5 93.5q0 63 55.5 111t140.5 47z" />
    <glyph glyph-name="uni09400930094D0902.02" horiz-adv-x="307" 
d="M-356 1015q153 -3 330 -156q1 41 24 76q21 32 55 50.5t72 18.5q65 0 115 -26l-15 -69q-24 6 -49 6q-32 0 -58 -25.5t-25 -76.5q1 -70 69 -144h102l49 -92v-21h-89v-593h-23l-111 63v530h-99l-47 91v22h138q-236 224 -399 226q-44 1 -70 -24t-26 -65q0 -45 27 -92v-2
l-47 -23q-48 31 -83.5 74.5t-35.5 93.5q0 63 55.5 111t140.5 47zM250 880l83 -83l-83 -84l-84 84z" />
    <glyph glyph-name="uni0932.loclMAR" horiz-adv-x="805" 
d="M755 669l50 -92v-21h-203v-122q65 -26 114 -76.5t50 -103.5q1 -44 -15 -95t-30 -77.5t-42 -74.5l-117 62q103 143 104 220q-9 68 -91 68q-47 0 -87.5 -65t-55.5 -137l-115 59q10 59 40 114q-43 27 -90 27q-42 0 -74 -30.5t-32 -79.5q0 -126 170 -263l-31 -33
q-264 160 -264 334q0 77 50.5 129t123.5 52q47 0 85 -21.5t89 -72.5q37 47 84 67v119h-477l-47 91v22h811z" />
    <glyph glyph-name="uni0936.loclMAR" horiz-adv-x="793" 
d="M744 669l49 -92v-21h-89v-593h-23l-111 63v530h-227v-60q55 -31 96.5 -91t41.5 -112q0 -54 -58.5 -108.5t-144.5 -74.5l102 -154l-99 -51l-56 198l-21 -1q-57 0 -98.5 25.5t-41.5 58.5q0 36 27.5 62t57.5 26q13 0 23 -4l39 -59q88 17 133.5 53t45.5 80q0 28 -22 49
t-58 21q-52 0 -93.5 -14t-98.5 -45l-57 113q90 35 148 44v44h-208l-47 91v22h790z" />
    <glyph glyph-name="uni091D.loclNEP" horiz-adv-x="1047" 
d="M179 679q76 -1 136.5 -46.5t60.5 -130.5v-192h187v246h-143l-47 91v22h625l49 -92v-21h-351v-155q65 47 117 47q73 0 132.5 -59.5t59.5 -134.5q0 -92 -47 -210l-125 70q30 43 59.5 107t29.5 90q0 38 -58 38q-67 0 -168 -84v-302h-22l-111 63v172h-190q-12 -94 -90 -95
q-37 0 -64.5 28t-39 62t-11.5 65q0 29 5 52h71v53q-86 36 -143 91t-57 117q0 52 38.5 80.5t96.5 27.5zM214 593q-20 0 -34 -15t-14 -45q0 -63 80 -112q12 70 12 111q0 26 -11.5 43.5t-32.5 17.5z" />
    <glyph glyph-name="uni0979.loclNEP" horiz-adv-x="732" 
d="M683 669l49 -92v-21h-429q26 -42 44 -84q57 17 117 17q74 0 150.5 -89.5t76.5 -174.5q0 -57 -40 -111t-114 -74l103 -155l-99 -51l-56 198q-7 -1 -21 -1q-57 0 -98.5 25.5t-41.5 58.5q0 36 27.5 62t57.5 26q13 0 23 -4l39 -59q82 16 106.5 49.5t22.5 86.5q-2 46 -29 78
t-71 32q-62 0 -125 -25q1 -6 1 -16q0 -75 -48.5 -128.5t-133.5 -53.5q-75 0 -132 46l-31 88l14 16q44 -47 113 -47q36 0 63.5 23t27.5 81q0 42 -19 95t-47 91h-192l-47 91v22h739z" />
    <glyph glyph-name="uni0928.post" 
d="M-211 350l9 -78l-230 -141l53 -68q-43 -50 -103 -50q-51 0 -81 29.5t-30 69.5q0 37 24.5 64.5t78.5 56.5q37 20 132 59.5t147 57.5z" />
    <glyph glyph-name="uni092F.post" horiz-adv-x="844" 
d="M795 669l49 -92v-21h-90v-593h-22l-111 63v44l-2 1q-57 -31 -128 -31q-90 0 -164 56t-113 163q76 19 112 39t36 52q0 30 -46 30h-240v113h165q72 0 144.5 -62t70.5 -119q-2 -78 -117 -105q8 -29 36.5 -45.5t64.5 -16.5q90 0 181 62v349h-630l-47 91v22h851z" />
    <glyph glyph-name="uni0930.post" 
d="M-207 326l3 -117l-249 -181l-78 87z" />
    <glyph glyph-name="uni0935.post" 
d="M-90 -2v-442h-23l-111 63v44q-55 -33 -110 -33q-58 0 -102.5 41t-44.5 108q0 62 32.5 101.5t76.5 39.5q78 0 148 -78v219h23zM-326 -183q-48 0 -78 -20.5t-30 -44.5q0 -14 14.5 -21.5t33.5 -7.5q33 0 79 18t83 45v2q-39 29 -102 29z" />
    <glyph glyph-name="uni0915094D0915" horiz-adv-x="1511" 
d="M1511 556h-350v-158q65 47 116 47q73 0 133 -59.5t60 -133.5q0 -92 -47 -210l-125 69q30 45 59.5 108t29.5 89q0 38 -58 38q-70 0 -168 -83v-300h-22l-118 66l13 130l-3 1q-89 -61 -158 -61q-80 0 -136 53t-56 145v3q-20 16 -45 16q-47 0 -111 -54v-299h-22l-118 66
l13 130l-3 1q-89 -61 -158 -61q-80 0 -136 53t-56 145q0 75 41.5 128.5t120.5 53.5q103 0 181 -125l1 202h-398l-47 91v22h1518l49 -92v-21zM601 415q56 0 100 -25q40 89 142 89q103 0 181 -125l1 202h-500v-164q39 23 76 23zM200 211q88 0 188 73v6q-20 24 -63 46t-87 22
q-50 0 -97.5 -23t-47.5 -62q0 -25 31 -43.5t76 -18.5zM836 211q88 0 188 73v6q-20 24 -63 46t-87 22q-50 0 -97.5 -23t-47.5 -62q0 -25 31 -43.5t76 -18.5z" />
    <glyph glyph-name="uni0915094D0924" horiz-adv-x="987" 
d="M636 556v-158q65 47 117 47q73 0 132.5 -59.5t59.5 -134.5q0 -93 -47 -210l-125 70q30 43 59.5 107t29.5 90q0 38 -58 38q-67 0 -168 -84v-299h-22l-112 63v309h-121q-59 0 -86 -27.5t-27 -85.5q1 -89 149 -216l-42 -45q-233 177 -233 313q0 31 11 61h-89l-47 91v22h485
v108h-511l-47 91v22h993l50 -92v-21h-351z" />
    <glyph glyph-name="uni0915094D0930" horiz-adv-x="875" 
d="M875 556h-350v-158q65 47 116 47q73 0 133 -59.5t60 -133.5q0 -92 -47 -210l-125 69q30 45 59.5 108t29.5 89q0 38 -58 38q-70 0 -168 -83v-300h-22l-118 66l13 130l-3 1l-277 -246l-89 102l138 95q-55 20 -88.5 68t-33.5 118q0 75 41.5 128.5t120.5 53.5q103 0 181 -125
l1 202h-398l-47 91v22h882l49 -92v-21zM93 273q0 -25 31 -43.5t76 -18.5q88 0 188 73v6q-21 25 -63.5 46.5t-86.5 21.5q-50 0 -97.5 -23t-47.5 -62z" />
    <glyph glyph-name="uni0915094D0932" horiz-adv-x="1451" 
d="M1451 577v-21h-90v-593h-22l-112 63v328q-7 3 -16 3q-50 0 -93.5 -61.5t-59.5 -130.5l-115 69q10 50 39 100q-37 21 -79 21q-45 0 -75.5 -31.5t-30.5 -78.5q0 -126 170 -263l-31 -33q-264 160 -264 334q0 15 1 22q-18 11 -37 11q-47 0 -111 -54v-299h-22l-118 66l13 130
l-3 1q-89 -61 -158 -61q-80 0 -136 53t-56 145q0 75 41.5 128.5t120.5 53.5q103 0 181 -125l1 202h-398l-47 91v22h1457zM1227 411v145h-702v-164q39 23 76 23q57 0 103 -27q49 73 142 76q46 0 82.5 -20t85.5 -68q65 73 150 73q30 0 63 -38zM200 211q88 0 188 73v6
q-20 24 -63 46t-87 22q-50 0 -97.5 -23t-47.5 -62q0 -25 31 -43.5t76 -18.5z" />
    <glyph glyph-name="uni0915094D0935" horiz-adv-x="1301" 
d="M1252 669l49 -92v-21h-90v-593h-22l-119 66l9 120l-5 1q-50 -34 -92.5 -51.5t-97.5 -17.5q-77 0 -140 54.5t-63 147.5v16q-19 17 -45 17q-47 0 -111 -54v-299h-22l-118 66l13 130l-3 1q-89 -61 -158 -61q-80 0 -136 53t-56 145q0 75 41.5 128.5t120.5 53.5
q103 0 181 -125l1 202h-398l-47 91v22h1308zM601 415q55 0 101 -26q24 53 71 82.5t104 29.5q97 0 199 -126h1v181h-552v-164q39 23 76 23zM841 186q57 0 124.5 34t111.5 79v2q-31 33 -72.5 57t-78.5 24q-79 0 -138 -39.5t-59 -82.5q0 -32 29.5 -53t82.5 -21zM200 211
q88 0 188 73v6q-20 24 -63 46t-87 22q-50 0 -97.5 -23t-47.5 -62q0 -25 31 -43.5t76 -18.5z" />
    <glyph glyph-name="uni0915094D0937" horiz-adv-x="826" 
d="M826 556h-87v-593h-23l-111 63v196q-42 -15 -77 -15q-49 1 -97 21t-112 75l-56.5 -28.5t-57.5 -30t-35 -30t-17 -42.5q0 -41 25 -67t56 -26q39 0 80 16l-30 69q14 16 40.5 26.5t49.5 10.5q43 0 66 -24.5t22 -59.5q-2 -51 -56 -91l120 -150l-95 -49l-76 174
q-26 -10 -59 -10q-91 0 -173 77t-81 164q0 23 12 43t39 39t46.5 30.5t59.5 31.5q-133 71 -133 147q0 72 52.5 113.5t125.5 41.5q53 0 124 -69t71 -127q0 -93 -77 -151q35 -14 109 -14q81 0 134 39v200h-122l-46 91v22h340l49 -92v-21zM177 493q0 -19 19.5 -46t49.5 -47
q51 28 79 55.5t28 61.5q0 20 -24 39.5t-46 19.5q-41 0 -73.5 -21.5t-32.5 -61.5z" />
    <glyph glyph-name="uni0915094D0937094D" horiz-adv-x="540" 
d="M244 678q53 0 124 -69t71 -127q0 -94 -79 -152q63 -33 111 -33q105 0 161 45l1 -133q-46 -21 -105 -21q-95 0 -210 115l-56.5 -28.5t-57 -29.5t-34.5 -30t-17 -43q0 -41 25 -67t56 -26q39 0 80 16l-30 69q14 16 40.5 26.5t49.5 10.5q43 0 66 -24.5t22 -59.5
q-2 -51 -56 -91l120 -150l-95 -49l-76 174q-26 -10 -59 -10q-91 0 -173 77t-81 164q0 23 12 43t39 39t46.5 30.5t59.5 31.5q-133 71 -133 147q0 72 52.5 113.5t125.5 41.5zM540 669l49 -92v-21h-106l-46 91v22h103zM283 576q-41 0 -73.5 -21.5t-32.5 -61.5q0 -19 19.5 -46
t49.5 -47q51 28 79 55.5t28 61.5q0 20 -24 39.5t-46 19.5z" />
    <glyph glyph-name="uni0915094D0937094D0930" horiz-adv-x="962" 
d="M244 678q53 0 124 -69t71 -127q0 -85 -63 -139q65 -16 145 -16q109 0 220 62v167h-122l-46 91v22h340l49 -92v-21h-87v-593h-23l-111 63l8 99l-1 1l-163 -126l-75 81l231 163v12q-81 -39 -164 -39q-115 0 -249 92q-21 -12 -59.5 -31t-59 -30.5t-38.5 -31.5t-18 -44
q0 -41 25 -67t56 -26q39 0 80 16l-30 69q14 16 40.5 26.5t49.5 10.5q43 0 66 -24.5t22 -59.5q-2 -51 -56 -91l120 -150l-95 -49l-76 174q-26 -10 -59 -10q-91 0 -173 77t-81 164q0 23 12 43t39 39t46.5 30.5t59.5 31.5q-133 71 -133 147q0 72 52.5 113.5t125.5 41.5z
M283 576q-41 0 -73.5 -21.5t-32.5 -61.5q0 -19 19.5 -46t49.5 -47q51 28 79 55.5t28 61.5q0 20 -24 39.5t-46 19.5z" />
    <glyph glyph-name="uni0915094D0072" horiz-adv-x="636" 
d="M636 669l49 -92v-21h-160v-164q39 23 76 23q91 0 158 -72l-52 -71q-1 1 -6 7t-7.5 8.5l-8 8t-10 8l-11 6t-13.5 5t-15 1.5q-47 0 -111 -54v-299h-22l-118 66l13 130l-3 1l-277 -246l-89 102l138 95q-55 20 -88.5 68t-33.5 118q0 75 41.5 128.5t120.5 53.5q103 0 181 -125
h1v202h-398l-47 91v22h692zM238 358q-50 0 -97.5 -23t-47.5 -62q0 -25 31 -43.5t76 -18.5q88 0 188 73v6q-20 24 -63 46t-87 22z" />
    <glyph glyph-name="uni0916094D0930" horiz-adv-x="880" 
d="M831 669l49 -92v-21h-89v-593h-23l-111 63l2 38l-1 1l-413 -208l-84 92l132 58q-79 48 -185 184l-22 28t-19.5 26l-14.5 21t-12.5 20.5t-6.5 17t-3 18.5q0 22 17.5 44.5t36.5 33.5l59 -31q20 34 20 97q0 32 -7 90h-165l-47 91v22h887zM657 556h-380q14 -79 14 -147
q0 -104 -118 -214q30 -40 84.5 -77t113.5 -37q70 0 152.5 33t136.5 81v29l-1 1q-83 -63 -141 -63q-71 0 -125.5 52t-54.5 131q0 77 49.5 124.5t120.5 47.5q29 0 60 -17.5t48 -34t40 -42.5h1v133zM533 407q-62 0 -104.5 -26.5t-42.5 -62.5q0 -19 27 -34.5t70 -15.5
q41 0 88.5 26t84.5 66v2q-49 45 -123 45z" />
    <glyph glyph-name="uni0916094D0072" horiz-adv-x="619" 
d="M619 669l49 -92v-21h-391q14 -79 14 -147q0 -104 -118 -214q30 -40 84.5 -77t113.5 -37q61 0 132.5 25.5t127.5 64.5l49 -96l-435 -218l-84 92l132 58q-79 48 -185 184l-22 28t-19.5 26l-14.5 21t-12.5 20.5t-6.5 17t-3 18.5q0 22 17.5 44.5t36.5 33.5l59 -31
q20 34 20 97q0 32 -7 90h-165l-47 91v22h675zM508 517q72 0 125 -53.5t53 -131.5q0 -63 -46.5 -116.5t-121.5 -53.5q-71 0 -125.5 52t-54.5 131q0 77 49.5 124.5t120.5 47.5zM533 407q-62 0 -104.5 -26.5t-42.5 -62.5q0 -19 27 -34.5t70 -15.5t98 28t55 64q0 23 -33 35
t-70 12z" />
    <glyph glyph-name="uni0917094D0928" horiz-adv-x="658" 
d="M612 669l50 -92v-21h-90v-593h-23l-112 63v170l-153 -128l58 -68q-43 -50 -103 -50q-47 0 -74 29.5t-27 69.5q0 63 93 121q90 56 206 112v274h-202q24 -137 24 -198q0 -125 -107 -125q-54 0 -84 45t-30 90q0 29 5 52l99 -13v149h-151l-47 91v22h668z" />
    <glyph glyph-name="uni0917094D0930" horiz-adv-x="662" 
d="M612 669l50 -92v-21h-90v-593h-23l-112 63v142l-2 1l-245 -207l-75 90l322 252v252h-202q24 -137 24 -198q0 -125 -107 -125q-54 0 -84 45t-30 90q0 29 5 52l99 -13v149h-151l-47 91v22h668z" />
    <glyph glyph-name="uni0917094D0072" horiz-adv-x="325" 
d="M259 358q0 -125 -107 -125q-54 0 -84 45t-30 90q0 29 5 52l99 -13v149h-151l-47 91v22h381l50 -92v-21h-140q24 -137 24 -198zM411 284l24 -115l-245 -207l-75 90z" />
    <glyph glyph-name="uni0918094D0930" horiz-adv-x="687" 
d="M638 669l49 -92v-21h-90v-593h-22l-114 63l3 112l-1 1l-252 -225l-91 98l106 81q-38 16 -72 47q-30 29 -48 62t-18 59q0 84 65 142q-69 28 -102 54.5t-34 69.5q0 7 2 29h-28l-47 91v22h694zM463 556h-313q-15 -22 -15 -52q3 -31 72 -65q29 12 57 12q67 0 93 -13l16 -93
l-10 -23q-26 10 -53 10q-64 0 -105 -32t-41 -67q0 -21 26 -34t54 -13q51 0 112 28.5t107 68.5v273z" />
    <glyph glyph-name="uni0918094D0072" horiz-adv-x="457" 
d="M457 669l49 -92v-21h-356q-15 -22 -15 -52q3 -31 72 -65q29 12 57 12q67 0 93 -13l16 -93l-10 -23q-26 10 -53 10q-64 0 -105 -32t-41 -67q0 -25 27 -41t57 -16q69 0 150.5 43t122.5 95l47 -117l-357 -283l-91 98l126 74q-61 17 -108 71q-50 56 -50 104q0 84 65 142
q-69 28 -102 54.5t-34 69.5q0 7 2 29h-28l-47 91v22h513z" />
    <glyph glyph-name="uni0919094D0915" horiz-adv-x="734" 
d="M384 -310l-90 51v74l-2 2q-54 -38 -101 -38q-66 0 -109.5 50t-43.5 119q0 54 32.5 95t76.5 41q83 0 146 -80l1 100q-135 39 -273 211l37 37q78 -91 137.5 -124t123.5 -33q59 0 115.5 17.5t57.5 38.5q1 27 -22 48q-14 -3 -95.5 -22.5t-117.5 -19.5q-42 0 -98 44t-56 90
q0 116 116 116h136v49h-365l-46 91v22h742l48 -92v-21h-266v-142h-226q-38 0 -51 -5.5t-13 -17.5q0 -16 10.5 -29.5t20.5 -13.5q39 0 117 22t98 22q43 0 84 -53t42 -111q1 -48 -40 -85t-103 -48v-63q49 32 96 32q50 0 87.5 -43.5t37.5 -108.5q0 -73 -40 -165l-90 50
q3 5 14 20.5l16 22.5t14.5 21.5t14 23.5l10 21t8 21.5t2.5 18.5q0 29 -38 29q-55 0 -132 -62v-223h-23zM646 281l-112 112l112 111l111 -111zM144 -118q76 0 149 56q-45 43 -101 43q-44 0 -75.5 -17t-31.5 -45q0 -37 59 -37z" />
    <glyph glyph-name="uni0919094D0915094D" horiz-adv-x="734" 
d="M493 44q68 0 129 -66l-45 -61q-41 38 -68 38q-44 0 -102 -57v-208h-23l-90 51v74l-2 2q-54 -38 -101 -38q-66 0 -109.5 50t-43.5 119q0 54 32.5 95t76.5 41q83 0 146 -80l1 100q-135 39 -273 211l37 37q78 -91 137.5 -124t123.5 -33q59 0 115.5 17.5t57.5 38.5
q1 27 -22 48q-14 -3 -95.5 -22.5t-117.5 -19.5q-42 0 -98 44t-56 90q0 116 116 116h136v49h-365l-46 91v22h742l48 -92v-21h-266v-142h-226q-38 0 -51 -5.5t-13 -17.5q0 -16 10.5 -29.5t20.5 -13.5q39 0 117 22t98 22q43 0 84 -53t42 -111q1 -48 -40 -85t-103 -48v-80
q44 29 86 29zM646 504l111 -111l-111 -112l-112 112zM144 -118q76 0 149 56q-45 43 -101 43q-44 0 -75.5 -17t-31.5 -45q0 -37 59 -37z" />
    <glyph glyph-name="uni0919094D0915094D0937" horiz-adv-x="734" 
d="M734 577v-21h-266v-142h-226q-38 0 -51 -5.5t-13 -17.5q0 -16 10.5 -29.5t20.5 -13.5q39 0 117 22t98 22q43 0 84 -53t42 -111q0 -45 -34 -79v-459h-23l-90 51v152q-34 -17 -65 -17q-57 0 -162 50q-25 -10 -36.5 -15.5t-28 -16.5t-23.5 -23.5t-7 -28.5q0 -11 14 -19
t37 -8q28 0 61 11l-18 41q23 17 53 17q34 0 55.5 -19t20.5 -46q0 -29 -35 -53l63 -87l-63 -31l-42 97q-33 -11 -56 -11q-50 0 -117 48.5t-67 101.5q0 21 17.5 38.5t36 26.5t52.5 22q-87 57 -87 99q0 38 39.5 68t82.5 30q42 0 94 -48t52 -95q0 -39 -33 -64q28 -2 44 -2
q57 0 118 41v95q-17 -3 -35 -3q-167 0 -347 223l37 37q78 -91 137.5 -124t123.5 -33q59 0 115.5 17.5t57.5 38.5q1 27 -22 48q-14 -3 -95.5 -22.5t-117.5 -19.5q-42 0 -98 44t-56 90q0 116 116 116h136v49h-365l-46 91v22h742zM646 504l111 -111l-111 -112l-112 112zM98 45
q0 -33 38 -56q58 26 58 61q0 18 -10 27.5t-23 9.5q-30 0 -46.5 -12t-16.5 -30z" />
    <glyph glyph-name="uni0919094D0916" horiz-adv-x="734" 
d="M686 669l48 -92v-21h-266v-142h-226q-38 0 -51 -5.5t-13 -17.5q0 -16 10.5 -29.5t20.5 -13.5q39 0 117 22t98 22q43 0 84 -53t42 -111q0 -27 -14 -53v-485h-23l-90 51v29q-79 -41 -144 -41q-38 0 -97.5 42.5t-98.5 83.5q-25 26 -37 40t-23 33.5t-11 34.5q0 33 32 55h2
l42 -26q26 28 26 57q0 78 -33 198q-27 28 -60 68l37 37q78 -91 137.5 -124t123.5 -33q59 0 115.5 17.5t57.5 38.5q1 27 -22 48q-14 -3 -95.5 -22.5t-117.5 -19.5q-42 0 -98 44t-56 90q0 116 116 116h136v49h-365l-46 91v22h742zM646 504l111 -111l-111 -112l-112 112z
M180 161q20 -102 20 -152q0 -66 -72 -140q73 -61 145 -61q63 0 150 54v31q-47 -41 -87 -41q-39 0 -77 37t-38 79q0 46 30 78t71 32q45 0 101 -43v63q-25 -6 -55 -6q-90 0 -188 69zM360 -4q-35 0 -63 -19t-28 -37q0 -15 29 -15q52 0 122 53v1q-30 17 -60 17z" />
    <glyph glyph-name="uni0919094D0917" horiz-adv-x="734" 
d="M424 392q43 0 84 -53t42 -111q1 -32 -19 -61t-55 -48v-429h-23l-90 51v351q-70 2 -145 45q24 -118 24 -184q0 -115 -85 -115q-57 0 -88 41.5t-31 83.5q0 19 6 45l98 -16v198q-62 52 -121 125l37 37q78 -91 137.5 -124t123.5 -33q59 0 115.5 17.5t57.5 38.5q1 27 -22 48
q-14 -3 -95.5 -22.5t-117.5 -19.5q-42 0 -98 44t-56 90q0 116 116 116h136v49h-365l-46 91v22h742l48 -92v-21h-266v-142h-226q-38 0 -51 -5.5t-13 -17.5q0 -16 10.5 -29.5t20.5 -13.5q39 0 117 22t98 22zM646 504l111 -111l-111 -112l-112 112z" />
    <glyph glyph-name="uni0919094D0918" horiz-adv-x="734" 
d="M686 669l48 -92v-21h-266v-142h-226q-38 0 -51 -5.5t-13 -17.5q0 -16 10.5 -29.5t20.5 -13.5q39 0 117 22t98 22q43 0 84 -53t42 -111q0 -53 -47 -91v-447h-23l-90 51v77q-58 -39 -110 -39q-41 0 -107 46q-74 53 -74 103q0 56 57 98q-49 20 -77 43t-28 57q0 28 11.5 50
t39.5 50q-39 37 -81 89l37 37q78 -91 137.5 -124t123.5 -33q59 0 115.5 17.5t57.5 38.5q1 27 -22 48q-14 -3 -95.5 -22.5t-117.5 -19.5q-42 0 -98 44t-56 90q0 116 116 116h136v49h-365l-46 91v22h742zM646 504l111 -111l-111 -112l-112 112zM183 159q-28 -23 -28 -57
q0 -33 42 -53q27 10 44 10q29 0 68 -15l26 -61l-10 -25q-58 8 -62 8q-33 0 -60.5 -23t-27.5 -42q0 -14 17 -21.5t36 -7.5q32 0 78 22t84 54v145q-7 -1 -22 -1q-89 0 -185 67z" />
    <glyph glyph-name="uni0919094D092E" horiz-adv-x="1022" 
d="M974 669l48 -92v-21h-90v-866h-22l-111 63v159h-261q-18 -74 -84 -75q-54 -1 -86.5 45t-32.5 90q0 29 5 52h71v69q-9 -1 -26 -1q-167 0 -347 223l37 37q78 -91 137.5 -124t123.5 -33q59 0 115.5 17.5t57.5 38.5q1 27 -22 48q-14 -3 -95.5 -22.5t-117.5 -19.5
q-42 0 -98 44t-56 90q0 116 116 116h136v49h-365l-46 91v22h1013zM799 556h-314v-142h-226q-38 0 -51 -5.5t-13 -17.5q0 -16 10.5 -29.5t20.5 -13.5q39 0 117 22t98 22q43 0 84 -53t42 -111q0 -37 -24 -67v-137h256v532zM661 465l92 -92l-92 -93l-93 93z" />
    <glyph glyph-name="uni0919094D0930" horiz-adv-x="787" 
d="M739 669l48 -92v-21h-300v-191h-260q-70 0 -70 -57q0 -17 10.5 -37t21.5 -20q47 0 121 23.5t101 23.5q47 0 90.5 -61t43.5 -132q-1 -83 -38.5 -130.5t-103.5 -51.5l91 -88l-59 -48l-144 145l-181 -142l-83 78l177 112q-97 55 -187 156l37 37q73 -76 137.5 -106.5
t147.5 -30.5q55 0 104 23.5t49 67.5q0 16 -12 33t-32 25q-33 -1 -100.5 -24.5t-106.5 -22.5q-43 1 -101 65t-58 133q0 142 112 142h160v78h-364l-46 91v22h795zM558 313l112 111l111 -111l-111 -112z" />
    <glyph glyph-name="uni091A094D091A" horiz-adv-x="977" 
d="M928 669l49 -92v-21h-90v-593h-22l-119 66l9 89l-1 1q-71 -50 -135 -50q-58 0 -113 43q-15 12 -26 24q-94 -67 -168 -67q-77 0 -145 73q-59 63 -59 118q0 38 14 76h-69l-47 91v22h661l49 -92v-21h-135q-33 -20 -56 -52t-23 -57q0 -27 15.5 -40t37.5 -13q90 0 198 83v299
h-762l-47 91v22h984zM274 336q-33 -20 -56 -52t-23 -57q0 -27 15.5 -40t37.5 -13q77 0 169 62q-2 16 -2 24q0 38 14 76h-155z" />
    <glyph glyph-name="uni091A094D0930" horiz-adv-x="670" 
d="M621 669l49 -92v-21h-90v-593h-22l-119 66l9 89l-1 1l-230 -205l-91 98l104 79q-31 18 -63 51q-59 63 -59 118q0 38 14 76h-69l-47 91v22h354l49 -92v-21h-135q-33 -20 -56 -52t-23 -57q0 -27 15.5 -40t37.5 -13q90 0 198 83v299h-455l-47 91v22h677z" />
    <glyph glyph-name="uni091B094D0930" horiz-adv-x="845" 
d="M845 556h-223v-95q52 -24 84.5 -69t33.5 -109q0 -52 -41 -121q99 -54 99 -144q0 -36 -16.5 -90t-36.5 -95l-125 86q101 91 102 141q1 29 -55 58q-52 -65 -125 -111t-143 -54l178 -172l-59 -48l-144 145l-181 -142l-83 78l221 141q-83 15 -147 77.5t-64 113.5t26 93
q-61 30 -82 52q-30 31 -30 73q0 57 44 91t108 34q51 0 78 -16l33 -96q-45 18 -87 18q-26 0 -42 -18t-16 -49q0 -30 26 -50q36 33 76 33q38 0 78 -7l36 -99l-10 -23q-29 10 -61 10q-45 0 -73.5 -22t-28.5 -46q0 -27 31 -47.5t69 -20.5q57 0 130.5 31.5t125.5 82.5
q-74 35 -123.5 90t-49.5 118q0 45 30.5 71.5t79.5 32.5v74h-497l-47 91v22h852l49 -92v-21zM500 339q0 -38 24.5 -73.5t61.5 -53.5q36 52 36 109q0 31 -19.5 54t-51.5 23q-22 0 -36.5 -15t-14.5 -44z" />
    <glyph glyph-name="uni091B094D0935" horiz-adv-x="790" 
d="M741 669l49 -92v-21h-190v-37q100 -52 100 -174q0 -47 -43 -100q51 -22 76 -56.5t25 -95.5q0 -54 -33 -115l-115 66q71 54 72 91q1 22 -15.5 37t-49.5 30l-21 -18v-494h-23l-90 51v56q-55 -33 -110 -33q-58 0 -102.5 41t-44.5 108q0 62 32.5 101.5t76.5 39.5
q78 0 148 -78v141q-84 -35 -160 -34q-56 1 -129.5 64t-73.5 109q0 24 9 43q-95 45 -95 116q0 51 44 82t108 31q51 0 78 -16l33 -95q-39 18 -87 18q-26 0 -42 -16t-16 -40q0 -20 10 -34q41 36 92 38q38 0 78 -7l36 -73l-10 -23q-29 10 -61 10q-48 -4 -75 -19t-27 -37t22 -35
t63 -13q49 0 111 19t112 51q-53 34 -85 78t-31 90q1 49 28.5 77.5t71.5 35.5v19h-496l-47 91v22h797zM541 453q-22 0 -36.5 -13.5t-14.5 -42.5q0 -57 59 -104q48 46 48 96q0 26 -15.5 45t-40.5 19zM381 -49q-48 0 -78 -20.5t-30 -44.5q0 -14 14.5 -21.5t33.5 -7.5
q33 0 79.5 18.5t83.5 45.5q-41 30 -103 30z" />
    <glyph glyph-name="uni091C094D091E094D" horiz-adv-x="543" 
d="M592 577v-21h-602l-46 91v22h599zM224 376q-70 0 -70 -57q0 -10 8 -21.5t15 -11.5q43 0 94.5 16t75.5 16q41 0 78.5 -61t37.5 -132t-57.5 -119.5t-129.5 -53.5l88 -130l-95 -49l-51 182q-73 10 -117.5 46.5t-44.5 79.5q1 33 24.5 50.5t50.5 17.5q8 0 14 -2l56 -82
q77 0 143 23.5t66 58.5q0 21 -11 39t-24 26q-11 -1 -63 -20t-74 -19q-40 0 -99.5 57t-59.5 117q0 142 112 142h526v-113h-493z" />
    <glyph glyph-name="uni091C094D091C" horiz-adv-x="1047" 
d="M998 669l49 -92v-21h-90v-593h-22l-111 63v319h-176q90 -88 90 -166q0 -72 -40.5 -113.5t-101.5 -41.5q-109 0 -188 122q-43 -52 -116 -52q-56 0 -103.5 30t-80 81t-54.5 109.5t-35 125.5l45 13q16 -51 32.5 -88.5t40.5 -73.5t56 -55t71 -19q40 0 66.5 16t26.5 45
q0 60 -105 134l21 46h551v98h-833l-47 91v22h1054zM572 345h-177q44 -55 44 -106v-11q56 -81 129 -81q40 0 64 18t24 53q0 56 -84 127z" />
    <glyph glyph-name="uni091C094D091C094D" horiz-adv-x="773" 
d="M773 669l49 -92v-21h-831l-47 91v22h829zM64 453q16 -51 32.5 -88.5t40.5 -73.5t56 -55t71 -19q40 0 66.5 16t26.5 45q0 42 -95 109l21 46h696l-90 -113h-229q78 -76 78 -146q0 -69 -41.5 -109.5t-100.5 -40.5q-109 0 -188 122q-43 -52 -116 -52q-56 0 -103.5 30t-80 81
t-54.5 109.5t-35 125.5zM584 320h-176q31 -42 31 -81v-11q56 -81 129 -81q36 0 62 16t26 50q0 47 -72 107z" />
    <glyph glyph-name="uni091C094D091E" horiz-adv-x="713" 
d="M713 577v-21h-87v-593h-23l-111 63v340h-208l-1 -4q122 -102 122 -188q0 -63 -47.5 -104.5t-113.5 -53.5l90 -134l-95 -49l-50 179q-72 4 -118 43t-45 86q1 33 24.5 50.5t50.5 17.5q8 0 14 -2l56 -82q64 0 98 26.5t34 71.5q0 47 -61.5 100.5t-145.5 99.5l24 56h372v77
h-502l-46 91v22h720z" />
    <glyph glyph-name="uni091C094D091E094D.1" horiz-adv-x="466" 
d="M515 577v-21h-525l-46 91v22h522zM581 366h-297l-1 -4q122 -102 122 -188q0 -63 -47.5 -104.5t-113.5 -53.5l90 -134l-95 -49l-50 179q-72 4 -118 43t-45 86q1 33 24.5 50.5t50.5 17.5q8 0 14 -2l56 -82q64 0 98 26.5t34 71.5q0 47 -61.5 100.5t-145.5 99.5l24 56h461
v-113z" />
    <glyph glyph-name="uni091C094D091E094D0930" horiz-adv-x="867" 
d="M818 669l49 -92v-21h-87v-593h-23l-111 63l5 56l-112 -109l-68 81l175 156v166h-422q-70 0 -70 -57q0 -10 8 -21.5t15 -11.5q43 0 94.5 16t75.5 16q41 0 78.5 -61t37.5 -132t-57.5 -119.5t-129.5 -53.5l88 -130l-95 -49l-51 182q-73 10 -117.5 46.5t-44.5 79.5
q1 33 24.5 50.5t50.5 17.5q8 0 14 -2l56 -82q77 0 143 23.5t66 58.5q0 21 -11 39t-24 26q-11 -1 -63 -20t-74 -19q-40 0 -99.5 57t-59.5 117q0 142 112 142h455v67h-656l-46 91v22h874z" />
    <glyph glyph-name="uni091C094D0930" horiz-adv-x="788" 
d="M739 669l49 -92v-21h-90v-593h-22l-111 63l3 125l-2 1l-234 -236l-81 87l314 293v80h-209q50 -62 50 -120q0 -55 -36.5 -93t-97.5 -38q-70 0 -127 50.5t-88.5 121t-47.5 154.5l45 13q63 -216 191 -216q79 0 79 56q0 29 -37.5 69.5t-80.5 69.5l21 46h338v67h-574l-47 91
v22h795z" />
    <glyph glyph-name="uni091D094D0930" horiz-adv-x="952" 
d="M903 669l49 -92v-21h-87v-593h-23l-111 63l3 71l-2 1l-169 -141l-77 83l245 165v17q-71 -44 -135 -44q-58 0 -146 34h-3q16 -43 16 -87q0 -71 -57.5 -119.5t-129.5 -53.5l88 -130l-95 -49l-51 182q-73 10 -117.5 46.5t-44.5 79.5q1 33 24.5 50.5t50.5 17.5q8 0 14 -2
l56 -82q77 0 143 23.5t66 58.5q0 21 -11 39t-24 26q-11 -1 -63 -20t-74 -19q-40 0 -99.5 57t-59.5 117q0 142 112 142h94v67h-295l-46 91v22h959zM731 556h-312v-180h-195q-70 0 -70 -57q0 -10 8 -21.5t15 -11.5q43 0 94.5 16t75.5 16q15 0 30 -9q80 -13 157 -13
q96 0 197 67v193z" />
    <glyph glyph-name="uni091E094D091A" horiz-adv-x="784" 
d="M735 669l49 -92v-21h-91v-603h-23l-111 63v37q-43 -48 -101 -80.5t-100 -32.5q-56 0 -112 26t-56 72q0 16 17 48l-60 -17l-57 63l-2 22l278 75l56 -63l6 -22l-70 -18q-29 -11 -52 -41.5t-23 -52.5q0 -11 11 -17t26 -6q46 0 121 68t118 140v109h-37h-27h-3
q-16 -40 -57 -65t-95 -26q-48 0 -94 17.5t-86 51t-66 61t-56 64.5l35 30q63 -59 116 -89.5t115 -29.5q45 1 74.5 19.5t29.5 39.5q0 22 -16 35t-39 13q-32 0 -87 -39l-77 83q18 16 51.5 31t56.5 15q51 0 108 -33.5t82 -80.5h35h37v133h-569l-46 91v22h791z" />
    <glyph glyph-name="uni091E094D091C" horiz-adv-x="784" 
d="M735 669l49 -92v-21h-91v-603h-23l-111 63v126l-187 -49q49 -36 49 -87q0 -46 -46 -75.5t-98 -29.5q-72 0 -142.5 53.5t-123.5 119.5l39 28q96 -101 187 -101q23 0 49 10.5t26 28.5q0 20 -17 35t-31.5 20.5t-40.5 12.5q-5 1 -7 2l6 47l337 89v80h-35h-26h-6
q-16 -40 -57 -65t-95 -26q-48 0 -94 17.5t-86 51t-66 61t-56 64.5l35 30q63 -59 116 -89.5t115 -29.5q45 1 74.5 19.5t29.5 39.5q0 22 -16 35t-39 13q-32 0 -87 -39l-77 83q18 16 51.5 31t56.5 15q51 0 108 -33.5t82 -80.5h36h36v133h-569l-46 91v22h791z" />
    <glyph glyph-name="uni091E094D0930" horiz-adv-x="829" 
d="M784 669l49 -92v-21h-91v-603h-23l-111 63v87l-2 1l-234 -158l-74 91l310 188v49h-2q-17 -12 -40 -12q-30 0 -76 36h-2q-9 -62 -53 -102t-106 -41q-44 0 -87 17t-75.5 40.5t-67.5 62t-56.5 67t-49.5 69.5l36 26q72 -88 132.5 -133t131.5 -44q46 1 75 28.5t29 65.5
q0 29 -16 47t-39 18q-26 0 -47.5 -12t-59.5 -42l-77 83q22 21 61.5 41t66.5 20q50 0 106 -35.5t82 -86.5q24 -6 46 -6q50 0 88 31v144h-618l-46 91v22h840z" />
    <glyph glyph-name="uni091F094D091F" horiz-adv-x="576" 
d="M437 381q-317 -13 -317 -111q0 -75 127 -75q120 0 253 87l61 -119q-79 -43 -124 -59v-194q-317 -13 -317 -111q0 -75 127 -75q120 0 253 87l61 -119q-81 -45 -135.5 -63t-129.5 -18q-107 0 -168.5 65t-61.5 162q0 88 68 134.5t169 56.5v53h-7q-107 0 -168.5 65t-61.5 162
q0 88 68 134.5t169 56.5v56h-312l-47 91v22h583l49 -92v-21h-139v-175z" />
    <glyph glyph-name="uni091F094D0920" horiz-adv-x="644" 
d="M437 381q-317 -13 -317 -111q0 -75 127 -75q120 0 253 87l61 -119q-79 -43 -124 -59v-104q62 -39 101.5 -97.5t39.5 -115.5q0 -82 -76.5 -134t-195.5 -52q-103 0 -171.5 70.5t-68.5 163.5q0 84 63.5 133.5t173.5 61.5v52h-7q-107 0 -168.5 65t-61.5 162q0 88 68 134.5
t169 56.5v56h-312l-47 91v22h651l49 -92v-21h-207v-175zM505 -180q0 24 -23.5 53t-44.5 37q-317 -11 -317 -104q0 -42 43 -66.5t95 -24.5q127 0 187 30.5t60 74.5z" />
    <glyph glyph-name="uni091F094D092F" horiz-adv-x="1126" 
d="M1077 669l49 -92v-21h-90v-593h-22l-111 63v44l-2 1q-57 -31 -128 -31q-90 0 -164 56t-113 163q76 19 112 39t36 52q0 30 -46 30h-93q-180 0 -282.5 -46t-102.5 -135q0 -85 127 -85q96 0 201 56l59 -117q-55 -28 -102 -40t-109 -12q-107 0 -168.5 68t-61.5 169
q0 222 288 251v67h-363l-47 91v22h1133zM903 556h-416v-63h36q72 0 144.5 -62t70.5 -119q-2 -78 -117 -105q8 -29 36.5 -45.5t64.5 -16.5q90 0 181 62v349z" />
    <glyph glyph-name="uni091F094D0930" horiz-adv-x="576" 
d="M437 340q-317 -17 -317 -141q0 -85 127 -85q120 0 253 87l61 -119q-73 -41 -122.5 -58.5t-111.5 -21.5l197 -190l-59 -48l-144 145l-181 -142l-83 78l245 156h-6q-107 0 -168.5 68t-61.5 169q0 70 36 119t86.5 71.5t114.5 30.5v97h-312l-47 91v22h583l49 -92v-21h-139
v-216z" />
    <glyph glyph-name="uni091F094D0935" horiz-adv-x="576" 
d="M527 669l49 -92v-21h-139v-175q-317 -13 -317 -111q0 -75 127 -75q120 0 253 87l61 -119q-29 -17 -67 -35v-438h-23l-90 51v56q-55 -33 -110 -33q-58 0 -102.5 41t-44.5 108q0 62 32.5 101.5t76.5 39.5q78 0 148 -78v113q-36 -7 -85 -7q-107 0 -168.5 65t-61.5 162
q0 88 68 134.5t169 56.5v56h-312l-47 91v22h583zM279 -49q-48 0 -78 -20.5t-30 -44.5q0 -14 14.5 -21.5t33.5 -7.5q33 0 79.5 18.5t83.5 45.5q-41 30 -103 30z" />
    <glyph glyph-name="uni0920094D0920" horiz-adv-x="644" 
d="M595 669l49 -92v-21h-207v-86q62 -38 101.5 -97t39.5 -116q0 -56 -37.5 -99.5t-103.5 -66.5v-91q62 -38 101.5 -97t39.5 -116q0 -82 -76.5 -134t-195.5 -52q-103 0 -171.5 70.5t-68.5 163.5q0 84 63.5 133.5t173.5 61.5v41q-39 0 -73 12q-73 24 -118.5 86t-45.5 136
q0 84 63.5 133.5t173.5 61.5v56h-312l-47 91v22h651zM437 380q-317 -11 -317 -104q0 -42 43 -66.5t95 -24.5q127 0 187 30.5t60 74.5q0 24 -23.5 53t-44.5 37zM437 -90q-317 -11 -317 -104q0 -42 43 -66.5t95 -24.5q127 0 187 30.5t60 74.5q0 24 -23.5 53t-44.5 37z" />
    <glyph glyph-name="uni0920094D092F" horiz-adv-x="1296" 
d="M1247 669l49 -92v-21h-90v-593h-22l-111 63v44l-2 1q-57 -31 -128 -31q-90 0 -164 56t-113 163q76 17 112 36t36 49q0 18 -14.5 25.5t-51.5 10.5q-137 11 -229 11q59 -70 59 -148q0 -107 -76 -175t-194 -68q-102 0 -172 80.5t-70 186.5q0 102 73 158.5t228 69.5
q4 22 4 35q0 11 -5 26h-375l-47 91v22h1303zM1073 556h-580q12 -24 12 -49v-9q81 -2 165 -10q83 -8 161 -66t77 -113q-2 -77 -117 -102q8 -29 36.5 -45.5t64.5 -16.5q90 0 181 62v349zM398 386q-278 -22 -278 -158q0 -55 44.5 -84.5t95.5 -29.5q125 0 185 49.5t60 121.5
q0 34 -32 60.5t-75 40.5z" />
    <glyph glyph-name="uni0920094D0930" horiz-adv-x="644" 
d="M644 577v-21h-183q21 -36 21 -67q0 -30 -23 -72q54 -38 86.5 -91.5t32.5 -111.5q0 -107 -76 -175t-194 -68q-102 0 -172 80.5t-70 186.5q0 103 74 160t200 65q8 24 8 49q0 21 -13 44h-344l-47 91v22h651zM505 256q0 28 -22.5 51t-45.5 33q-317 -17 -317 -141
q0 -55 44.5 -84.5t95.5 -29.5q125 0 185 49.5t60 121.5zM61 -198l261 166l206 -199l-59 -48l-144 145l-181 -142z" />
    <glyph glyph-name="uni0920094D0072" horiz-adv-x="644" 
d="M595 669l49 -92v-21h-183q21 -36 21 -67q0 -30 -23 -72q54 -38 86.5 -91.5t32.5 -111.5q0 -107 -76 -175t-194 -68q-102 0 -172 80.5t-70 186.5q0 103 74 160t200 65q8 24 8 49q0 21 -13 44h-344l-47 91v22h651zM505 256q0 28 -22.5 51t-45.5 33q-317 -17 -317 -141
q0 -55 44.5 -84.5t95.5 -29.5q125 0 185 49.5t60 121.5zM469 -279l-144 145l-181 -142l-83 78l261 166l206 -199zM220 -333q0 30 19 46.5t52 16.5q54 0 153 -57t194 -148l-28 -24q-66 60 -115.5 89.5t-107.5 46.5l-132 -40q-35 28 -35 70z" />
    <glyph glyph-name="uni0921094D0921" horiz-adv-x="624" 
d="M247 390q-37 0 -49.5 -7t-12.5 -22q0 -18 11 -31.5t22 -13.5q48 0 131 23.5t112 23.5q42 0 79 -51.5t37 -121.5q0 -71 -48 -111.5t-132 -40.5q-54 0 -123 32q-36 -4 -57.5 -23t-21.5 -42q0 -18 11 -31.5t22 -13.5q48 0 131.5 23.5t91.5 23.5q48 0 82 -50.5t34 -122.5
q0 -70 -45.5 -111t-124.5 -41t-179.5 54.5t-189.5 153.5l32 32q70 -65 151.5 -96t145.5 -31q55 0 106 17t51 44q0 32 -21 50q-21 -2 -98 -24.5t-114 -22.5q-44 0 -103 48t-59 108q0 44 16.5 74.5t37.5 42.5q-77 60 -144 144l32 32q70 -80 151 -118.5t145 -38.5
q58 0 112.5 17t54.5 44q0 32 -21 50q-43 -2 -119.5 -24.5t-112.5 -22.5q-43 0 -101.5 47.5t-58.5 98.5q0 142 113 142h130v53h-364l-46 91v22h632l48 -92v-21h-137v-166h-240z" />
    <glyph glyph-name="uni0921094D0922" horiz-adv-x="624" 
d="M247 390q-37 0 -49.5 -7t-12.5 -22q0 -18 11 -31.5t22 -13.5q48 0 131 23.5t112 23.5q42 0 79 -51.5t37 -121.5q0 -71 -48 -111.5t-132 -40.5q-38 0 -86 17q-78 -16 -125 -49t-46 -77q1 -46 56 -80.5t118 -47.5q-19 28 -19 58q0 66 44.5 98.5t95.5 32.5q52 0 93 -41.5
t41 -98.5q0 -49 -32 -87t-75 -55t-86 -17t-92 18.5t-94 52t-74.5 88t-29.5 118.5q0 109 88 164q-80 60 -145 144l32 32q70 -80 151 -118.5t145 -38.5q58 0 112.5 17t54.5 44q0 32 -21 50q-43 -2 -119.5 -24.5t-112.5 -22.5q-43 0 -101.5 47.5t-58.5 98.5q0 142 113 142h130
v53h-364l-46 91v22h632l48 -92v-21h-137v-166h-240zM470 -102q-46 0 -79.5 -22.5t-33.5 -60.5q0 -11 3 -18q65 3 113 25t48 49t-51 27z" />
    <glyph glyph-name="uni0921094D092F" horiz-adv-x="1251" 
d="M1202 669l49 -92v-21h-90v-593h-22l-111 63v44l-2 1q-57 -31 -128 -31q-90 0 -164 56t-113 163q76 19 112 39t36 52q0 30 -46 30h-496q-70 0 -70 -57q0 -17 10.5 -37t21.5 -20q52 0 132.5 23.5t109.5 23.5q47 0 90.5 -61t43.5 -132q-1 -86 -46.5 -134t-125.5 -48
q-87 0 -185 55t-191 158l37 37q73 -76 137.5 -106.5t147.5 -30.5q63 0 118 23.5t55 67.5q0 16 -12 33t-32 25q-37 -1 -111 -23.5t-116 -23.5q-43 1 -101 65t-58 133q0 142 112 142h180v63h-383l-47 91v22h1258zM1028 556h-521v-63h141q72 0 144.5 -62t70.5 -119
q-2 -78 -117 -105q8 -29 36.5 -45.5t64.5 -16.5q90 0 181 62v349z" />
    <glyph glyph-name="uni0921094D0930" horiz-adv-x="624" 
d="M576 669l48 -92v-21h-117v-191h-280q-70 0 -70 -57q0 -17 10.5 -37t21.5 -20q52 0 132.5 23.5t109.5 23.5q47 0 90.5 -61t43.5 -132q-1 -86 -46.5 -134t-125.5 -48q-14 0 -21 1l130 -126l-59 -48l-144 145l-181 -142l-83 78l205 130q-116 57 -223 175l37 37
q73 -76 137.5 -106.5t147.5 -30.5q63 0 118 23.5t55 67.5q0 16 -12 33t-32 25q-37 -1 -111 -23.5t-116 -23.5q-43 1 -101 65t-58 133q0 142 112 142h180v78h-384l-46 91v22h632z" />
    <glyph glyph-name="uni0921094D0072" horiz-adv-x="624" 
d="M576 669l48 -92v-21h-117v-191h-280q-70 0 -70 -57q0 -17 10.5 -37t21.5 -20q52 0 132.5 23.5t109.5 23.5q47 0 90.5 -61t43.5 -132q-1 -86 -46.5 -134t-125.5 -48q-14 0 -21 1l130 -126l-59 -48l-144 145l-181 -142l-83 78l205 130q-116 57 -223 175l37 37
q73 -76 137.5 -106.5t147.5 -30.5q63 0 118 23.5t55 67.5q0 16 -12 33t-32 25q-37 -1 -111 -23.5t-116 -23.5q-43 1 -101 65t-58 133q0 142 112 142h180v78h-384l-46 91v22h632zM589 -469q-66 60 -115.5 89.5t-107.5 46.5l-132 -40q-35 28 -35 70q0 30 19 46.5t52 16.5
q54 0 153 -57t194 -148z" />
    <glyph glyph-name="uni0922094D0922" horiz-adv-x="573" 
d="M525 669l48 -92v-21h-114v-157h-186q-75 0 -122.5 -34t-46.5 -81q1 -39 57 -74.5t117 -48.5q-19 28 -19 58q0 66 44.5 98.5t95.5 32.5q52 0 93 -41.5t41 -98.5q0 -49 -32 -87t-75 -55t-86 -17q-26 0 -53 6q-83 -15 -133.5 -49t-49.5 -79q1 -46 56 -80.5t118 -47.5
q-19 28 -19 58q0 66 44.5 98.5t95.5 32.5q52 0 93 -41.5t41 -98.5q0 -73 -60.5 -116t-132.5 -43q-43 0 -92 18.5t-94 52t-74.5 88t-29.5 118.5q0 109 90 165q-90 80 -90 185q0 91 54 138t138 47h84v53h-336l-46 91v22h581zM434 258q-46 0 -79.5 -22.5t-33.5 -60.5
q0 -11 3 -18q65 3 113 25t48 49t-51 27zM434 -102q-46 0 -79.5 -22.5t-33.5 -60.5q0 -11 3 -18q65 3 113 25t48 49t-51 27z" />
    <glyph glyph-name="uni0922094D092F" horiz-adv-x="1246" 
d="M1134 -37l-111 63v44l-2 1q-57 -31 -128 -31q-90 0 -164 56t-113 163q76 19 112 39t36 52q0 30 -46 30h-430q-76 0 -122.5 -31t-46.5 -87q0 -60 47 -102t109 -61q-22 44 -22 82q0 73 40 107t93 34q66 0 113 -52t48 -128q0 -78 -58.5 -123.5t-124.5 -45.5q-36 0 -75.5 12
t-79.5 38t-72 62t-52 89.5t-20 114.5q0 108 56.5 156t143.5 48h76v63h-350l-47 91v22h1253l49 -92v-21h-90v-593h-22zM842 145q90 0 181 62v349h-549v-63h169q72 0 144.5 -62t70.5 -119q-2 -78 -117 -105q8 -29 36.5 -45.5t64.5 -16.5zM322 89q77 0 127 21.5t50 52.5
q-1 24 -26.5 40.5t-54.5 16.5q-36 0 -69.5 -23t-33.5 -60q0 -25 7 -48z" />
    <glyph glyph-name="uni0922094D0930" horiz-adv-x="573" 
d="M273 359q-76 0 -122.5 -31t-46.5 -87q0 -60 47 -102t109 -61q-22 44 -22 82q1 73 40.5 107t92.5 34q66 0 113 -52t48 -128q0 -78 -58.5 -123.5t-124.5 -45.5q-12 0 -18 1l170 -164l-59 -48l-144 145l-181 -142l-83 78l230 146q-89 31 -151.5 108t-62.5 192
q0 110 56.5 159t143.5 49h76v80h-336l-46 91v22h581l48 -92v-21h-114v-197h-186zM300 116q-3 -24 5 -47q4 -1 12 -1q68 0 117.5 22t49.5 52q-1 24 -26.5 40.5t-54.5 16.5q-36 0 -69 -23t-34 -60z" />
    <glyph glyph-name="uni0922094D0072" horiz-adv-x="573" 
d="M442 -259l-144 145l-181 -142l-83 78l230 146q-89 31 -151.5 108t-62.5 192q0 110 56.5 159t143.5 49h76v80h-336l-46 91v22h581l48 -92v-21h-114v-197h-186q-76 0 -122.5 -31t-46.5 -87q0 -60 47 -102t109 -61q-22 44 -22 82q1 73 40.5 107t92.5 34q66 0 113 -52
t48 -128q0 -78 -58.5 -123.5t-124.5 -45.5q-12 0 -18 1l170 -164zM300 116q-3 -24 5 -47q4 -1 12 -1q68 0 117.5 22t49.5 52q-1 24 -26.5 40.5t-54.5 16.5q-36 0 -69 -23t-34 -60zM270 -250q54 0 153 -57t194 -148l-28 -24q-66 60 -115.5 89.5t-107.5 46.5l-132 -40
q-35 28 -35 70q0 30 19 46.5t52 16.5z" />
    <glyph glyph-name="uni0923094D0930" horiz-adv-x="830" 
d="M781 669l49 -92v-21h-89v-593h-23l-111 63v73l-223 -188l-75 90l298 233v322h-123v-272q0 -78 -58 -131t-137 -53q-34 0 -72 31t-89 88q-37 39 -51.5 65t-14.5 63v209h-69l-47 91v22h835zM348 556h-152v-268q0 -46 21.5 -60t60.5 -14q40 0 55 31t15 68v243z" />
    <glyph glyph-name="uni0924094D0924" horiz-adv-x="726" 
d="M676 669l50 -92v-21h-90v-593h-22l-112 63v309h-121q-59 0 -86 -27.5t-27 -85.5q1 -89 149 -216l-42 -45q-233 177 -233 313q0 31 11 61h-89l-47 91v22h485v108h-511l-47 91v22h732z" />
    <glyph glyph-name="uni0924094D0924094D" horiz-adv-x="453" 
d="M453 669l50 -92v-21h-512l-47 91v22h509zM576 448v-113h-195q-59 0 -86 -27.5t-27 -85.5q1 -89 149 -216l-42 -45q-233 177 -233 313q0 31 11 61h-89l-47 91v22h559z" />
    <glyph glyph-name="uni0924094D092F" horiz-adv-x="980" 
d="M980 577v-21h-90v-593h-22l-111 63v110l-2 1q-57 -31 -128 -31q-91 0 -166.5 59t-117.5 171q-37 19 -76 19q-45 0 -75.5 -31.5t-30.5 -78.5q0 -126 170 -263l-31 -33q-264 160 -264 334q0 76 50 127.5t124 53.5q49 0 87.5 -22.5t93.5 -78.5q52 20 76.5 43.5t24.5 57.5
q0 45 -38 92h-463l-47 91v22h987zM576 211q90 0 181 62v283h-202q66 -80 65 -129q0 -34 -44.5 -72.5t-110.5 -61.5q8 -38 40 -60t71 -22z" />
    <glyph glyph-name="uni0924094D0930" horiz-adv-x="616" 
d="M567 669l49 -92v-21h-90v-593h-22l-111 63l2 168l-2 1l-230 -167l-78 87l311 203q-78 47 -152 47q-47 0 -142 -35l-67 119q89 34 151 34q77 0 207 -107v180h-402l-47 91v22h623z" />
    <glyph glyph-name="uni0924094D0072" horiz-adv-x="372" 
d="M372 669l49 -92v-21h-430l-47 91v22h428zM186 483q102 0 272 -166v-74l-295 -215l-78 87l312 203q-77 47 -153 47q-47 0 -142 -35l-67 119q89 34 151 34z" />
    </font>
</defs>
</svg>
