<?xml version="1.0" standalone="no"?>
<!DOCTYPE svg PUBLIC "-//W3C//DTD SVG 1.1//EN" "http://www.w3.org/Graphics/SVG/1.1/DTD/svg11.dtd" >
<svg>
<metadata>
Created by FontForge 20090622 at Fri Dec  1 13:05:46 2017
 By deploy user
Copyright (c) 2015 Dan Reynolds. Copyright (c) 2010-2015, Sorkin Type Co (www.sorkintype.com) with Reserved Font Name 'Merriweather'
</metadata>
<defs>
<font id="Martel-Regular" horiz-adv-x="0" >
  <font-face 
    font-family="Martel"
    font-weight="400"
    font-stretch="normal"
    units-per-em="1000"
    panose-1="0 0 5 0 0 0 0 0 0 0"
    ascent="800"
    descent="-200"
    x-height="546"
    cap-height="758"
    bbox="-668 -544 1440 1049"
    underline-thickness="50"
    underline-position="-50"
    unicode-range="U+000D-U+FB02"
  />
<missing-glyph horiz-adv-x="596" 
 />
    <glyph glyph-name="fi" unicode="fi" horiz-adv-x="742" 
d="M352 824q50 0 70 -9v-77q-23 16 -87 16q-47 0 -70.5 -25.5t-23.5 -104.5v-81h150v-61h-150v-434l113 -9v-39h-299v39l99 10v433h-109v35l109 26v44q0 102 64.5 169.5t133.5 67.5zM583 800q28 0 43 -16t15 -40q0 -30 -20.5 -48.5t-48.5 -18.5q-23 0 -40 15.5t-17 40.5
q0 28 21.5 47.5t46.5 19.5zM612 555l21 -10v-496l80 -10v-39h-245v39l82 10v410l-68 32v29z" />
    <glyph glyph-name="fl" unicode="fl" horiz-adv-x="750" 
d="M55 39l99 10v433h-109v35l109 26v44q0 102 64.5 169.5t133.5 67.5q50 0 70 -9v-77q-23 16 -87 16q-47 0 -70.5 -25.5t-23.5 -104.5v-81h150v-61h-150v-434l113 -9v-39h-299v39zM466 39l82 10v669l-78 16v40l147 19l19 -11v-733l86 -10v-39h-256v39z" />
    <glyph glyph-name="f_f" unicode="ff" horiz-adv-x="817" 
d="M55 39l99 10v433h-109v35l109 26v44q0 102 64.5 169.5t133.5 67.5q50 0 70 -9v-77q-23 16 -87 16q-47 0 -70.5 -25.5t-23.5 -104.5v-81h150v-61h-150v-434l113 -9v-39h-299v39zM464 39l99 10v433h-109v35l109 26v44q0 102 64 169.5t134 67.5q47 0 70 -9v-77
q-25 16 -88 16q-47 0 -70.5 -25.5t-23.5 -104.5v-81h151v-61h-151v-434l114 -9v-39h-299v39z" />
    <glyph glyph-name="f_f_i" unicode="ffi" horiz-adv-x="1151" 
d="M352 824q50 0 70 -9v-77q-23 16 -87 16q-47 0 -70.5 -25.5t-23.5 -104.5v-81h150v-61h-150v-434l113 -9v-39h-299v39l99 10v433h-109v35l109 26v44q0 102 64.5 169.5t133.5 67.5zM761 824q47 0 70 -9v-77q-25 16 -88 16q-47 0 -70.5 -25.5t-23.5 -104.5v-81h151v-61h-151
v-434l114 -9v-39h-299v39l99 10v433h-109v35l109 26v44q0 102 64 169.5t134 67.5zM992 800q28 0 43 -16t15 -40q0 -30 -20.5 -48.5t-48.5 -18.5q-23 0 -40 15.5t-17 40.5q0 28 21 47.5t47 19.5zM1021 555l21 -10v-496l80 -10v-39h-246v39l83 10v410l-69 32v29z" />
    <glyph glyph-name="f_f_l" unicode="ffl" horiz-adv-x="1158" 
d="M55 39l99 10v433h-109v35l109 26v44q0 102 64.5 169.5t133.5 67.5q50 0 70 -9v-77q-23 16 -87 16q-47 0 -70.5 -25.5t-23.5 -104.5v-81h150v-61h-150v-434l113 -9v-39h-299v39zM464 39l99 10v433h-109v35l109 26v44q0 102 64 169.5t134 67.5q47 0 70 -9v-77
q-25 16 -88 16q-47 0 -70.5 -25.5t-23.5 -104.5v-81h151v-61h-151v-434l114 -9v-39h-299v39zM875 39l82 10v669l-79 16v40l148 19l18 -11v-733l86 -10v-39h-255v39z" />
    <glyph glyph-name=".notdef" horiz-adv-x="596" 
 />
    <glyph glyph-name=".null" 
 />
    <glyph glyph-name="nonmarkingreturn" horiz-adv-x="333" 
 />
    <glyph glyph-name="CR" unicode="&#xd;" 
 />
    <glyph glyph-name="space" unicode=" " horiz-adv-x="230" 
 />
    <glyph glyph-name="exclam" unicode="!" horiz-adv-x="345" 
d="M225 869l-33 -635h-53l-29 635h115zM177 111q29 0 43.5 -15.5t14.5 -40.5q0 -29 -20.5 -47.5t-47.5 -18.5q-24 0 -41 15.5t-17 40.5q0 28 21 47t47 19z" />
    <glyph glyph-name="quotedbl" unicode="&#x22;" horiz-adv-x="615" 
d="M149 870h102l-22 -398h-58zM364 870h102l-22 -398h-58z" />
    <glyph glyph-name="numbersign" unicode="#" horiz-adv-x="699" 
d="M182 178h-109v58h111l18 207h-118v57h121l13 162h75l-12 -162h163l13 162h75l-13 -162h106v-57h-109l-18 -207h110l1 -58h-113l-16 -178h-72l13 178h-164l-16 -178h-74zM423 236l17 207h-163l-17 -207h163z" />
    <glyph glyph-name="dollar" unicode="$" horiz-adv-x="620" 
d="M85 184h41l28 -98q51 -51 166 -51q64 0 110.5 33.5t46.5 100.5q0 30 -13.5 56t-45 50.5t-54.5 38.5t-70 40l-60.5 33.5t-54 35.5t-47.5 43t-29.5 49.5t-12.5 60.5q0 83 59.5 129.5t139.5 56.5l3 83h71l-3 -81q105 -5 154 -37v-134h-39l-35 95q-36 32 -122 32
q-33 0 -64 -11t-56.5 -42t-25.5 -76q0 -52 43 -89.5t125 -79.5l46 -24.5t42.5 -24.5t43 -28.5t34.5 -30t29.5 -35.5t17 -39.5t7.5 -46.5q0 -97 -63.5 -147.5t-163.5 -55.5l-4 -103h-71l3 104q-122 8 -176 39v154z" />
    <glyph glyph-name="percent" unicode="%" horiz-adv-x="864" 
d="M601 782l-271 -782h-71l270 782h72zM207 697q73 3 110 -48t37 -130q0 -84 -46.5 -131.5t-114.5 -49.5q-66 -2 -107 50t-41 126q0 84 47 132.5t115 50.5zM201 650q-39 0 -61 -35.5t-22 -96.5q0 -59 21 -96t59 -37q40 0 62.5 34.5t22.5 95.5q0 62 -21.5 98.5t-60.5 36.5z
M671 439q73 3 110 -48t37 -130q0 -83 -46.5 -131t-114.5 -50q-67 -1 -107.5 50.5t-40.5 125.5q0 84 47 132.5t115 50.5zM666 392q-40 0 -62.5 -35.5t-22.5 -96.5q0 -58 22 -95.5t60 -37.5q40 0 62 34.5t22 95.5q0 62 -21.5 98.5t-59.5 36.5z" />
    <glyph glyph-name="ampersand" unicode="&#x26;" horiz-adv-x="766" 
d="M346 763q81 0 122.5 -46t42.5 -115t-45.5 -126t-114.5 -99q40 -52 105 -126t105 -110q16 39 16 102q0 44 -7.5 76t-13.5 41h84q16 -48 16 -98q0 -97 -46 -162q60 -47 114 -54v-38q-30 -10 -69 -4q-48 8 -100 42q-35 -30 -88.5 -46t-104.5 -16q-34 0 -67.5 4.5t-71.5 18
t-66 34t-47 56t-19 81.5q0 67 42 113.5t117 84.5q-29 39 -43.5 62.5t-30.5 62.5t-16 75q0 87 52.5 137t133.5 50zM335 717q-38 0 -68.5 -27.5t-29.5 -84.5q0 -42 16 -83.5t30.5 -61.5t38.5 -48q115 60 115 176q-1 31 -8.5 57.5t-31.5 49t-62 22.5zM276 339q-56 -34 -79 -66
t-23 -84q0 -69 56 -110t137 -41q101 0 146 41q-55 48 -123.5 123t-113.5 137z" />
    <glyph glyph-name="quotesingle" unicode="'" horiz-adv-x="400" 
d="M149 870h102l-22 -398h-58z" />
    <glyph glyph-name="parenleft" unicode="(" horiz-adv-x="397" 
d="M290 -152q-19 11 -42.5 32t-59 65.5t-63.5 98.5t-48.5 137t-20.5 175q0 99 29.5 191.5t71.5 153.5t77 98t57 49l40 -24q-19 -13 -46.5 -45.5t-61 -86.5t-57.5 -137.5t-27 -174.5q-3 -103 19.5 -197t58.5 -155.5t66 -98.5t53 -53z" />
    <glyph glyph-name="parenright" unicode=")" horiz-adv-x="397" 
d="M66 -125q19 13 46.5 45.5t61 87t57.5 137.5t27 175q3 103 -19.5 196.5t-58.5 155t-66 98.5t-53 53l46 29q18 -11 42 -32t59.5 -65.5t63.5 -99t48.5 -137t20.5 -174.5q0 -99 -29.5 -191.5t-71.5 -153.5t-77 -98.5t-57 -49.5z" />
    <glyph glyph-name="asterisk" unicode="*" horiz-adv-x="632" 
d="M287 551l12 51l-32 -34l-146 -113l-45 64l167 89l44 16l-44 16l-168 87l44 65l146 -112l34 -34l-12 57l-15 169h83l-14 -169l-15 -57l43 40l137 105l51 -65l-170 -83l-50 -19l50 -17l170 -88l-52 -63l-142 113l-36 33l12 -51l16 -176h-83z" />
    <glyph glyph-name="plus" unicode="+" horiz-adv-x="618" 
d="M274 277l3 80l-81 -3h-110v70h110l81 -5l-3 82v114h70v-114l-4 -82l68 5h124v-70h-124l-68 4l4 -81v-120h-70v120z" />
    <glyph glyph-name="comma" unicode="," horiz-adv-x="336" 
d="M101 71l50 65q51 -12 77.5 -59.5t26.5 -95.5q1 -77 -45 -136t-108 -85l-22 27v13q36 12 64 55t28 91q0 39 -21.5 70.5t-49.5 33.5v21z" />
    <glyph glyph-name="hyphen" unicode="-" horiz-adv-x="604" 
d="M86 424h432v-67h-432v67z" />
    <glyph glyph-name="period" unicode="." horiz-adv-x="345" 
d="M175 110q27 0 41 -15.5t14 -38.5q0 -29 -20 -47t-47 -18q-22 0 -38.5 15t-16.5 38q0 27 21 46.5t46 19.5z" />
    <glyph glyph-name="slash" unicode="/" horiz-adv-x="398" 
d="M291 781h83l-277 -958h-82z" />
    <glyph glyph-name="zero" unicode="0" horiz-adv-x="648" 
d="M333 611q134 1 193.5 -82.5t57.5 -224.5q-1 -139 -76.5 -228.5t-186.5 -89.5q-67 0 -118 26.5t-81 72.5t-44 102.5t-14 121.5q2 137 80.5 219t188.5 83zM329 563q-89 1 -130.5 -64t-41.5 -186q0 -74 17 -135t56 -101.5t94 -41.5q88 -2 128 66.5t40 198.5
q0 118 -40.5 189.5t-122.5 73.5z" />
    <glyph glyph-name="one" unicode="1" horiz-adv-x="456" 
d="M58 39l144 12v458q-20 -5 -134 -30l-9 44q45 14 116.5 47t88.5 47l26 -7l-1 -559l133 -12v-39h-364v39z" />
    <glyph glyph-name="two" unicode="2" horiz-adv-x="596" 
d="M66 36q141 89 235 192t94 192q-1 56 -34.5 96.5t-99.5 40.5q-45 0 -93.5 -23t-79.5 -51l-21 36q30 38 93 68.5t131 30.5q94 0 144 -49.5t50 -119.5q0 -100 -86.5 -207t-222.5 -188l289 19l46 74l39 -13l-31 -134h-440z" />
    <glyph glyph-name="three" unicode="3" horiz-adv-x="523" 
d="M244 620q76 0 130 -40t54 -120q0 -58 -50.5 -116t-113.5 -76q100 4 153 -43t53 -121q0 -104 -92.5 -185t-235.5 -81q-42 0 -81 7v49q26 -5 62 -5q107 0 180.5 58.5t73.5 139.5q0 72 -38.5 109.5t-127.5 37.5l-32 -6l-52 -11v61q91 16 149.5 59t59.5 98q1 63 -33.5 93.5
t-88.5 30.5q-83 0 -157 -57l-25 40q30 30 85.5 54t126.5 24z" />
    <glyph glyph-name="four" unicode="4" horiz-adv-x="612" 
d="M37 43l93 166.5l120 220t94 192.5h29l52 -40l-279 -484l-31 -46l263 14l2 235l79 22v-252l107 6v-77h-107v-184h-82l1 184h-327z" />
    <glyph glyph-name="five" unicode="5" horiz-adv-x="527" 
d="M67 -122q111 -14 210 58.5t99 179.5q0 63 -24.5 103.5t-66.5 55t-94 11.5t-111 -24l-17 14l38 328h264l14 9h51l-22 -84h-241l-36 -217q56 26 116 27.5t109 -19.5t80.5 -72t31.5 -122q0 -108 -103.5 -202.5t-246.5 -94.5q-30 0 -52 6z" />
    <glyph glyph-name="six" unicode="6" horiz-adv-x="611" 
d="M482 749l19 -38q-157 -50 -249.5 -160t-96.5 -230q-2 -58 5.5 -106.5t25.5 -89.5t53 -64.5t84 -23.5q73 0 112 57t39 128q0 91 -35.5 141t-89.5 50q-61 0 -102 -31l-20 36q14 19 57.5 37t87.5 18q88 0 137 -64.5t49 -149.5q0 -103 -68.5 -186t-180.5 -83
q-113 0 -180 82.5t-67 202.5q0 90 37.5 174t98.5 144t135 101t149 55z" />
    <glyph glyph-name="seven" unicode="7" horiz-adv-x="604" 
d="M183 -122q96 198 289 673l-313 -10l-44 -93l-45 5l24 159h436l16 -19l-273 -747z" />
    <glyph glyph-name="eight" unicode="8" horiz-adv-x="606" 
d="M320 758q85 0 142.5 -47t57.5 -122q0 -56 -37.5 -115.5t-99.5 -91.5q80 -46 124 -88.5t45 -97.5q1 -103 -71.5 -156.5t-171.5 -53.5q-44 0 -86.5 12t-79 35t-58.5 61.5t-22 87.5q0 58 40.5 112t115.5 90q-118 79 -118 186q0 90 65.5 139t153.5 49zM315 714
q-58 0 -100.5 -36.5t-42.5 -92.5q0 -51 41.5 -90.5t119.5 -83.5q43 12 77.5 57.5t35.5 91.5q2 68 -35.5 111t-95.5 43zM263 357q-49 -23 -83 -64.5t-34 -89.5q0 -72 48.5 -121t128.5 -49q60 0 105.5 37t45.5 94q0 22 -9.5 42.5t-22 34.5t-37 32t-42 27.5l-51 28t-49.5 28.5z
" />
    <glyph glyph-name="nine" unicode="9" horiz-adv-x="615" 
d="M117 -159q103 33 181.5 109t116 162t40.5 169q8 284 -161 284q-73 0 -112 -57t-39 -128q0 -90 35.5 -140.5t89.5 -50.5q65 0 103 31l20 -36q-20 -23 -60 -39t-85 -16q-88 0 -137 64.5t-49 149.5q0 103 68.5 186t180.5 83t175 -82.5t63 -202.5q0 -96 -36.5 -188
t-95.5 -160.5t-132.5 -115.5t-148.5 -61z" />
    <glyph glyph-name="colon" unicode=":" horiz-adv-x="345" 
d="M176 505q28 -1 41.5 -16.5t12.5 -39.5q-1 -28 -22 -45.5t-46 -16.5q-23 1 -38.5 16.5t-14.5 39.5q1 27 22 45t45 17zM176 110q28 -1 41.5 -17t12.5 -40q-1 -28 -22 -45.5t-46 -16.5q-23 1 -38.5 16.5t-14.5 39.5q1 27 22 45.5t45 17.5z" />
    <glyph glyph-name="semicolon" unicode=";" horiz-adv-x="345" 
d="M173 505q28 0 42 -15t14 -38q0 -29 -20.5 -47t-46.5 -18q-22 0 -38.5 14.5t-16.5 38.5q0 27 20.5 46t45.5 19zM164 136q52 -12 78.5 -59.5t26.5 -95.5q0 -77 -46 -136t-108 -85l-21 27v13q35 12 63 55t28 91q0 39 -21.5 70.5t-49.5 33.5v21z" />
    <glyph glyph-name="less" unicode="&#x3c;" horiz-adv-x="645" 
d="M64 397l474 245v-83l-397 -192l397 -191v-84l-474 244v61z" />
    <glyph glyph-name="equal" unicode="=" horiz-adv-x="604" 
d="M86 517h432v-67h-432v67zM86 324h432v-66h-432v66z" />
    <glyph glyph-name="greater" unicode="&#x3e;" horiz-adv-x="645" 
d="M108 175l396 192l-396 191v84l473 -244v-61l-473 -245v83z" />
    <glyph glyph-name="question" unicode="?" horiz-adv-x="494" 
d="M156 896q78 0 137.5 -26t93 -68t50.5 -89.5t17 -96.5q0 -41 -9.5 -59.5t-47.5 -40.5q-20 -12 -70.5 -36t-74.5 -42.5t-24 -41.5q0 -11 1 -21.5t4.5 -23.5t6 -21t9 -23.5t8.5 -21.5t10 -24t10 -22h-49q-26 21 -56 77.5t-30 91.5q1 28 37 52t95.5 48.5t78.5 36.5
q32 19 32 37q1 95 -71 164.5t-169 69.5q-56 0 -82 -11v69q7 9 35 15.5t58 6.5zM272 110q28 0 41.5 -15t13.5 -39q0 -29 -20 -47t-46 -18q-23 0 -39 15t-16 38q0 28 20.5 47t45.5 19z" />
    <glyph glyph-name="at" unicode="@" horiz-adv-x="1042" 
d="M594 702q144 0 239 -83t95 -223q0 -77 -17 -141.5t-44.5 -107t-63 -72.5t-70.5 -43t-69 -13q-49 0 -55 84q-2 45 14 140q-36 -95 -89.5 -163t-108.5 -68q-48 0 -86 55t-38 143q0 66 25.5 134.5t78 119.5t118.5 51q81 0 130 -27q4 8 5.5 12t6 7.5t10.5 2.5l28.5 -9
l24.5 -8q-19 -83 -42 -300q-6 -52 -1.5 -86.5t15.5 -34.5q51 0 108 87.5t57 202.5q0 75 -25.5 131t-70 87.5t-97.5 47t-114 15.5q-75 0 -142.5 -27.5t-119.5 -78t-83 -129.5t-31 -176q0 -95 28 -165t78.5 -110.5t112 -60t134.5 -19.5q44 0 95 10.5t78 23.5l17 -39
q-32 -25 -96.5 -41t-128.5 -16q-169 0 -277 106t-108 282q0 111 39 206t105 158.5t153 99t182 35.5zM524 448q-77 0 -114.5 -58.5t-37.5 -145.5q0 -24 3 -48.5t10.5 -50t22.5 -41.5t36 -16q32 0 75 57t75.5 134t40.5 136q-14 14 -48.5 23.5t-62.5 9.5z" />
    <glyph glyph-name="A" unicode="A" horiz-adv-x="729" 
d="M1 39l70 13l257 707h75l247 -707l79 -13v-39h-252v39l81 13l-55 164h-300l-55 -164l82 -13v-39h-229v39zM485 270l-87 257l-43 136l-134 -393h264z" />
    <glyph glyph-name="B" unicode="B" horiz-adv-x="693" 
d="M52 39l84 14v653l-82 7v45h121q13 1 47.5 3t67.5 3t68 1q116 -1 178 -46t62 -125q0 -71 -36.5 -121.5t-108.5 -65.5q82 -2 138 -52.5t56 -131.5q0 -104 -80.5 -167t-235.5 -63q-33 0 -156 7h-123v39zM223 427q17 -3 127 -3q76 0 120 39t44 115q0 68 -48.5 103t-126.5 35
q-94 0 -115 -7zM223 61q14 -7 55 -12.5t74 -5.5q90 0 146 38.5t56 124.5q0 162 -189 162q-123 0 -142 -2v-305z" />
    <glyph glyph-name="C" unicode="C" horiz-adv-x="688" 
d="M436 765q32 0 66 -4.5t53.5 -9t48 -12t35.5 -9.5l-8 -139h-47l-24 83q-59 38 -152 38q-113 0 -193.5 -89t-80.5 -240q0 -96 31 -173.5t96 -126t153 -48.5q115 0 161 56l25 78h40v-138q-7 0 -87 -22.5t-162 -22.5q-152 0 -250.5 103.5t-98.5 265.5q0 182 116 296t278 114z
" />
    <glyph glyph-name="D" unicode="D" horiz-adv-x="778" 
d="M52 39l84 14v652l-82 8v45h126q44 0 100.5 3.5t84.5 3.5q184 1 276 -95t92 -271q0 -188 -109.5 -298t-278.5 -106q-15 0 -71.5 2.5t-91.5 2.5h-130v39zM224 59q66 -15 136 -14q121 3 201 87t80 244q0 170 -80 256.5t-223 81.5q-68 -1 -114 -9v-646z" />
    <glyph glyph-name="E" unicode="E" horiz-adv-x="644" 
d="M50 39l84 13v653l-82 8v45h507l14 -139h-50l-23 86l-279 6v-289l188 4l13 77h47v-209h-47l-13 77l-188 3v-325l300 9l48 105l43 -11l-22 -152h-540v39z" />
    <glyph glyph-name="F" unicode="F" horiz-adv-x="604" 
d="M51 39l86 14v652l-82 8v45h522l10 -139l-45 -1l-23 84l-294 7v-297l218 4l18 72h45v-205h-50l-13 76l-218 4v-311l144 -9v-43h-318v39z" />
    <glyph glyph-name="G" unicode="G" horiz-adv-x="750" 
d="M434 765q42 0 82 -4.5t59.5 -8t49.5 -11.5t31 -8l-7 -139h-49l-23 83q-12 13 -58 24.5t-113 10.5q-113 -2 -192.5 -91t-79.5 -239q0 -68 16.5 -129t48.5 -110.5t84.5 -78.5t119.5 -29q119 0 167 50v209l-123 7v45h274v-45l-62 -8v-254q-7 0 -107.5 -26.5t-170.5 -26.5
q-150 0 -244.5 104t-94.5 265q0 183 114 296.5t278 113.5z" />
    <glyph glyph-name="H" unicode="H" horiz-adv-x="833" 
d="M52 39l83 14v653l-81 7v45h248v-45l-79 -7v-312h385v312l-81 7v45h247v-45l-78 -7v-653l84 -14v-39h-256v39l84 13v289h-385v-289l83 -13v-39h-254v39z" />
    <glyph glyph-name="I" unicode="I" horiz-adv-x="373" 
d="M56 39l86 13v654l-84 7v45h255v-45l-83 -7v-654l88 -13v-39h-262v39z" />
    <glyph glyph-name="J" unicode="J" horiz-adv-x="352" 
d="M310 758v-45l-82 -7v-448v-51v-54t-0.5 -44t-3 -47.5t-5.5 -39.5q-18 -88 -86 -144t-151 -68l-24 33q124 38 160 128q22 63 22 225v510l-82 7v45h252z" />
    <glyph glyph-name="K" unicode="K" horiz-adv-x="693" 
d="M52 39l81 13v654l-79 7v45h247v-45l-80 -7v-346l289 345l-76 8l-1 45h238v-45l-79 -8l-234 -267q25 -28 86.5 -126l113.5 -177t67 -79l77 -17v-39h-144q-14 0 -61.5 78.5l-104.5 175t-85 125.5l-86 -98v-229l89 -13v-39h-258v39z" />
    <glyph glyph-name="L" unicode="L" horiz-adv-x="607" 
d="M52 39l84 14v648l-82 8v49h259v-49l-89 -8l-1 -650l272 10l58 118l40 -19l-32 -160h-509v39z" />
    <glyph glyph-name="M" unicode="M" horiz-adv-x="965" 
d="M38 39l86 13l48 649l-95 8v49h217l182 -545l22 -71l22 72l174 544h201v-49l-93 -8l56 -649l88 -13v-39h-255v39l85 13l-42 471l-5 168l-22 -84l-207 -614h-31l-191 546q-11 29 -53 156l-5 -175l-25 -467l96 -14v-39h-253v39z" />
    <glyph glyph-name="N" unicode="N" horiz-adv-x="812" 
d="M774 758v-48l-82 -9v-701h-94l-329 519l-69 136v-603l97 -13v-39h-246v39l84 13v649l-81 8v49h169l334 -543l70 -133v619l-82 9v48h229z" />
    <glyph glyph-name="O" unicode="O" horiz-adv-x="759" 
d="M403 765q144 0 230 -106t84 -271q-3 -186 -101 -294t-245 -108q-148 0 -238 105t-89 270q1 128 51.5 221t134.5 139q77 44 173 44zM384 716q-110 0 -176 -92.5t-66 -255.5q0 -139 66.5 -236t177.5 -97q109 0 171.5 93t62.5 257q0 139 -63 235t-173 96z" />
    <glyph glyph-name="P" unicode="P" horiz-adv-x="633" 
d="M42 39l94 14v648l-82 8v49h126q13 0 75.5 3.5t98.5 3.5q122 0 188.5 -51.5t66.5 -175.5q0 -114 -84.5 -181.5t-198.5 -65.5q-86 0 -102 -3v-235l132 -14v-39h-314v39zM224 342q37 -5 101 -5q194 0 194 200q0 184 -200 178q-72 -5 -95 -10v-363z" />
    <glyph glyph-name="Q" unicode="Q" horiz-adv-x="759" 
d="M402 765q144 0 230.5 -106t84.5 -271q-2 -161 -78.5 -265t-197.5 -129q36 -93 190 -93q47 0 72 18l8 -57q-10 -14 -40 -25t-69 -11q-170 0 -211 160h-13q-151 -1 -243.5 104.5t-90.5 267.5q0 125 47.5 216.5t127.5 139.5q83 51 183 51zM384 716q-110 0 -176.5 -92.5
t-66.5 -255.5q0 -139 67 -236t178 -97q109 0 171 93t62 257q0 139 -62.5 235t-172.5 96z" />
    <glyph glyph-name="R" unicode="R" horiz-adv-x="693" 
d="M328 765q122 0 188.5 -45.5t66.5 -157.5q0 -76 -45 -133t-120 -81l8 -3q31 -14 66 -61.5t59.5 -96t50.5 -90t42 -45.5l55 -13v-39h-136q-15 0 -44 53t-57.5 116t-70 114t-79.5 48q-27 -1 -88 -1v-278l103 -13v-39h-285v39l94 14v648l-82 8v49h126q12 0 61.5 3.5t86.5 3.5
zM315 716q-73 -2 -91 -8v-326q36 -4 95 -4q83 1 128 44.5t45 129.5q0 82 -41 125t-136 39z" />
    <glyph glyph-name="S" unicode="S" horiz-adv-x="600" 
d="M298 -11q-68 0 -133.5 13.5t-89.5 27.5v154h41l28 -98q51 -51 166 -51q64 0 110.5 33.5t46.5 100.5q0 30 -13.5 56t-44.5 50.5t-55 39t-70 39.5l-60.5 33.5t-54 35.5t-47.5 43t-29.5 49.5t-12.5 60.5q0 64 39.5 109t91 62.5t105.5 17.5q125 0 188 -38v-134h-39l-35 95
q-36 32 -121 32q-33 0 -64.5 -11t-57 -42t-25.5 -76q0 -52 43 -89.5t125 -79.5l46 -24.5t42.5 -24.5t43 -28.5t34.5 -30t29.5 -35.5t17 -39.5t7.5 -46.5q0 -103 -71 -153.5t-181 -50.5z" />
    <glyph glyph-name="T" unicode="T" horiz-adv-x="620" 
d="M152 39l122 14v655l-185 -9l-33 -88l-41 -1l12 148h581l-1 -150l-37 -4l-24 95l-184 9v-655l130 -14v-39h-340v39z" />
    <glyph glyph-name="U" unicode="U" horiz-adv-x="770" 
d="M749 758v-45l-76 -8v-373q0 -176 -75.5 -261t-207.5 -85q-159 0 -228.5 82.5t-69.5 252.5q0 65 0.5 193t0.5 192l-77 7v45h252v-45l-87 -8v-387q0 -156 59 -220.5t166 -64.5q199 0 199 299v373l-88 8v45h232z" />
    <glyph glyph-name="V" unicode="V" horiz-adv-x="696" 
d="M68 706l-66 7v45h258v-45l-90 -7l172 -515l33 -103l28 104l152 514l-80 7v45h219v-45l-62 -7l-238 -716h-67z" />
    <glyph glyph-name="W" unicode="W" horiz-adv-x="1026" 
d="M67 706l-65 7v45h256v-45l-94 -7l159 -517l30 -94l29 89l108 433l-28 89l-79 7v45h261v-45l-87 -7l137 -526l24 -91l24 108l133 509l-86 7v45h233v-45l-74 -7l-208 -716h-73l-144 509l-141 -509h-75z" />
    <glyph glyph-name="X" unicode="X" horiz-adv-x="693" 
d="M7 39l87 13l211 331l-205 323l-74 7v45h269v-45l-89 -7l157 -271l157 271l-77 7v45h230v-45l-71 -7l-206 -307l214 -347l84 -13v-39h-278v39l94 13l-175 286l-159 -286l95 -13v-39h-264v39z" />
    <glyph glyph-name="Y" unicode="Y" horiz-adv-x="660" 
d="M199 39l100 14v259l-236 394l-57 7v45h235v-45l-77 -7l160 -295l25 -51l22 51l145 294l-83 8v45h221v-45l-65 -12l-202 -390v-258l104 -14v-39h-292v39z" />
    <glyph glyph-name="Z" unicode="Z" horiz-adv-x="660" 
d="M611 758l13 -39l-423 -604l-52 -65l378 18l61 123l45 -10l-35 -181h-539l-13 40l427 606l52 63l-358 -10l-44 -111l-48 8l15 162h521z" />
    <glyph glyph-name="bracketleft" unicode="[" horiz-adv-x="417" 
d="M98 726q0 71 17 94.5t71 23.5q48 0 128 -20l-1 -39h-142v-816l142 -1l1 -39q-76 -20 -130 -20q-53 0 -69.5 23t-16.5 92v702z" />
    <glyph glyph-name="backslash" unicode="\" horiz-adv-x="398" 
d="M97 781l277 -958h-83l-276 958h82z" />
    <glyph glyph-name="bracketright" unicode="]" horiz-adv-x="418" 
d="M246 -31v816h-142v39q80 20 127 20q54 0 71.5 -23.5t17.5 -94.5v-702q0 -69 -17 -92t-70 -23q-54 0 -129 20v39z" />
    <glyph glyph-name="asciicircum" unicode="^" horiz-adv-x="640" 
d="M275 748h89l190 -473h-80l-159 380l-158 -380h-71z" />
    <glyph glyph-name="underscore" unicode="_" horiz-adv-x="691" 
d="M701 -94v-66h-711v66h711z" />
    <glyph glyph-name="grave" unicode="`" horiz-adv-x="432" 
d="M289 655q-140 74 -187 146l65 66l146 -187z" />
    <glyph glyph-name="a" unicode="a" horiz-adv-x="559" 
d="M274 556q192 0 192 -179l-1 -337h63v-31q-40 -20 -90 -20q-33 0 -43.5 14t-10.5 52q-56 -67 -167 -67q-69 0 -114.5 42.5t-45.5 108.5q0 51 32.5 89.5t83.5 58t103 29t103 9.5v42q0 73 -35.5 101t-101.5 28q-72 0 -147 -40l-16 42q33 27 92.5 42.5t102.5 15.5zM379 277
q-38 0 -75.5 -6t-75 -18.5t-60.5 -38t-23 -60.5q-1 -56 30.5 -82t89.5 -26q32 0 64 14t49 31z" />
    <glyph glyph-name="b" unicode="b" horiz-adv-x="617" 
d="M101 721l-83 16v40l150 16l19 -8v-286q76 64 164 64q91 0 153.5 -66t62.5 -202q0 -129 -77.5 -219t-198.5 -90q-64 0 -121.5 13t-68.5 25v697zM187 73q15 -38 114 -38q74 0 126.5 62t53.5 181q2 113 -46.5 167.5t-119.5 54.5q-76 0 -128 -48v-379z" />
    <glyph glyph-name="c" unicode="c" horiz-adv-x="511" 
d="M317 561q99 4 141 -24v-114h-43l-23 62q-30 23 -84 23q-72 0 -122 -53.5t-51 -151.5q-1 -125 54 -188t128 -63q38 0 80 9t62 23l16 -41q-28 -25 -80 -39t-109 -14q-110 0 -171.5 76t-63.5 197q-1 132 74.5 212.5t191.5 85.5z" />
    <glyph glyph-name="d" unicode="d" horiz-adv-x="620" 
d="M495 793l21 -11v-742h66v-35q-38 -19 -99 -19q-30 0 -40 12.5t-10 48.5q-21 -22 -65 -40.5t-104 -18.5q-90 0 -152 70.5t-62 205.5q0 129 81 214t200 85q49 0 98 -15v171l-103 15v40zM321 514q-32 0 -63 -12t-59 -37.5t-45 -71.5t-18 -107q-1 -114 46 -175t116 -61
q85 0 131 45v379q-35 40 -108 40z" />
    <glyph glyph-name="e" unicode="e" horiz-adv-x="559" 
d="M319 563q85 1 135.5 -53t54.5 -151q1 -36 -6 -89h-367q0 -102 50 -161t142 -59q40 0 84 9.5t65 22.5l17 -39q-28 -25 -85 -40t-115 -15q-116 0 -180.5 76.5t-64.5 206.5q0 125 75.5 207t194.5 85zM295 514q-63 0 -106.5 -47.5t-51.5 -142.5h280q8 136 -56 174
q-25 16 -66 16z" />
    <glyph glyph-name="f" unicode="f" horiz-adv-x="409" 
d="M55 39l99 10v433h-109v35l109 26v44q0 102 64.5 169.5t133.5 67.5q50 0 70 -9v-77q-23 16 -87 16q-47 0 -70.5 -25.5t-23.5 -104.5v-81h150v-61h-150v-434l113 -9v-39h-299v39z" />
    <glyph glyph-name="g" unicode="g" horiz-adv-x="587" 
d="M293 567q87 2 141 -38q22 24 81 24h59v-69l-100 1q25 -41 25 -99q0 -93 -63 -146.5t-154 -53.5q-58 0 -103 18q-9 -20 -9 -67q0 -29 15 -43.5t51 -16.5q26 -3 125 -3q64 0 106 -14t59.5 -39.5t22.5 -46t5 -49.5q0 -84 -69 -134t-186 -50q-65 0 -115 12t-86 45.5t-36 86.5
q0 41 26 78t57 56q-20 7 -32 17t-16 24t-4.5 20.5t-0.5 22.5q0 21 16.5 56t43.5 59q-81 47 -81 150q0 94 65.5 145.5t156.5 53.5zM281 519q-124 0 -124 -134q0 -67 34.5 -108.5t103.5 -41.5q61 0 89.5 34t28.5 104q0 146 -132 146zM180 10q-34 -36 -34 -96q0 -64 47 -93
t117 -29q81 0 127.5 28t46.5 83q0 51 -29.5 75t-116.5 24l-68 1q-58 0 -90 7z" />
    <glyph glyph-name="h" unicode="h" horiz-adv-x="686" 
d="M62 39l73 10v669l-83 16v40l148 19l22 -11l-1 -220l-2 -81q41 33 97.5 54.5t97.5 21.5q96 0 130.5 -59t33.5 -202v-247l73 -10v-39h-242v39l82 10v210q0 129 -21.5 180.5t-97.5 51.5q-87 0 -150 -45v-397l73 -10v-39h-233v39z" />
    <glyph glyph-name="i" unicode="i" horiz-adv-x="333" 
d="M174 800q28 0 43 -16t15 -40q0 -30 -20.5 -48.5t-47.5 -18.5q-23 0 -40.5 15.5t-17.5 40.5q0 28 21 47.5t47 19.5zM204 555l21 -10v-496l79 -10v-39h-245v39l82 10v410l-68 32v29z" />
    <glyph glyph-name="j" unicode="j" horiz-adv-x="317" 
d="M171 809q29 0 43.5 -16t14.5 -41q0 -29 -20.5 -47t-47.5 -18q-24 0 -40.5 15t-16.5 41q0 27 21 46.5t46 19.5zM202 555l21 -10v-553q0 -114 -46.5 -178.5t-127.5 -64.5q-46 0 -53 7v62q12 -5 53 -5q48 0 68.5 40.5t20.5 145.5v460l-70 32v28z" />
    <glyph glyph-name="k" unicode="k" horiz-adv-x="622" 
d="M56 39l79 10v669l-87 16v40l155 19l19 -11v-429l-3 -86l227 230l-73 6v48h225v-47l-74 -8l-171 -169l210 -278l68 -10v-39h-232v39l69 11l-168 233l-81 -79l3 -101v-55l72 -9v-39h-238v39z" />
    <glyph glyph-name="l" unicode="l" horiz-adv-x="341" 
d="M57 39l83 10v669l-79 16v40l147 19l19 -11v-733l86 -10v-39h-256v39z" />
    <glyph glyph-name="m" unicode="m" horiz-adv-x="1011" 
d="M67 39l68 10v407l-71 35v29l126 35l21 -10v-68q35 30 92.5 54t104.5 25q53 2 85.5 -14t50.5 -55q34 27 91.5 47.5t104.5 21.5q90 3 126.5 -50.5t36.5 -182.5v-274l82 -10v-39h-236v39l67 10v259q0 102 -23.5 143.5t-96.5 39.5q-64 -3 -138 -44q12 -48 12 -119v-280l75 -9
v-39h-236v39l74 10v266q0 100 -23.5 139t-96.5 36q-66 -2 -140 -53v-388l73 -10v-39h-229v39z" />
    <glyph glyph-name="n" unicode="n" horiz-adv-x="682" 
d="M67 39l68 9v408l-71 35v29l126 35l21 -10v-68q36 30 93.5 54t106.5 26q90 3 126.5 -50.5t36.5 -180.5v-278l78 -9v-39h-239v39l74 10v263q0 99 -25 140.5t-96 38.5q-70 -3 -143 -54v-388l73 -10v-39h-229v39z" />
    <glyph glyph-name="o" unicode="o" horiz-adv-x="601" 
d="M311 563q119 1 180.5 -79t60.5 -203q-1 -129 -74 -211t-180 -82q-64 0 -113.5 24t-78 65.5t-42.5 93t-14 111.5q1 127 77.5 203.5t183.5 77.5zM303 514q-81 1 -120.5 -57.5t-39.5 -167.5q0 -68 16.5 -122.5t54 -90.5t90.5 -37q81 -1 118.5 59t37.5 178q0 106 -39 171.5
t-118 66.5z" />
    <glyph glyph-name="p" unicode="p" horiz-adv-x="646" 
d="M382 563q91 0 153 -67t62 -205q0 -127 -78.5 -214.5t-199.5 -87.5q-50 0 -104 17l2 -133v-74l101 -10v-39h-258v39l71 11v656l-70 35v29l125 35l21 -10v-56q27 29 73.5 51.5t101.5 22.5zM346 504q-65 0 -130 -53l1 -371q25 -42 112 -44q74 0 127 61t54 183q2 114 -45 169
t-119 55z" />
    <glyph glyph-name="q" unicode="q" horiz-adv-x="606" 
d="M337 563q65 0 107 -20l53 13l19 -9v-744l68 -9v-44h-258v44l103 10v173l3 74q-68 -65 -169 -65q-25 0 -50 5.5t-55.5 24t-53.5 47.5t-38.5 81.5t-15.5 121.5q0 126 81 211.5t206 85.5zM323 514q-80 0 -133 -60t-54 -173q-2 -112 40.5 -172t117.5 -60q87 0 135 48v378
q-32 39 -106 39z" />
    <glyph glyph-name="r" unicode="r" horiz-adv-x="451" 
d="M54 39l81 10v407l-70 35v29l124 35l22 -10v-72q21 29 74.5 56t97.5 27q36 0 48 -3v-92q-45 15 -84 15q-68 0 -124 -37v-389l141 -11v-39h-310v39z" />
    <glyph glyph-name="s" unicode="s" horiz-adv-x="512" 
d="M81 140h40l19 -62q46 -39 110 -40q59 -2 94.5 21.5t35.5 72.5q0 18 -7 32t-24.5 26.5t-29.5 19t-41.5 20l-40.5 18.5q-71 33 -111.5 71.5t-39.5 96.5q1 69 60 107t133 40q91 1 153 -35v-102h-39l-20 56q-31 35 -89 35q-52 0 -83 -21.5t-32 -63.5q0 -10 1.5 -19t7 -17
l10 -14.5t14.5 -13.5l16 -11.5t20.5 -11.5t20.5 -10.5t23 -11t23 -10.5q1 -1 23.5 -11t26 -12t22.5 -12t24 -15t19 -15.5t18.5 -19.5t12 -21t10 -26t2.5 -29q0 -79 -59.5 -121.5t-152.5 -42.5q-97 0 -170 42v110z" />
    <glyph glyph-name="t" unicode="t" horiz-adv-x="421" 
d="M215 677v-131h170v-57h-170v-261q0 -112 10 -144t50 -32q26 0 57.5 9t44.5 17l15 -40q-21 -22 -67 -36t-84 -14q-111 0 -111 139v362h-75v34q10 3 24.5 6t20 4.5t14 4.5t12 6t8 8t8.5 12q6 16 16.5 57t12.5 56h44z" />
    <glyph glyph-name="u" unicode="u" horiz-adv-x="631" 
d="M104 483l-50 13v35l120 25l16 -9v-336q0 -88 22 -123.5t87 -35.5q42 0 83.5 20t59.5 38v369l-61 13v38l133 26l13 -8v-508h60v-36q-40 -19 -88 -19q-49 0 -49 40v41q-88 -76 -185 -76q-32 0 -57 6.5t-42 16t-28.5 28t-18 35t-10 44.5t-4.5 49t-1 56v258z" />
    <glyph glyph-name="v" unicode="v" horiz-adv-x="580" 
d="M50 490l-49 9v47h212v-47l-64 -10l113 -275l46 -137l45 132l99 280l-65 9v48h193v-47l-54 -11l-199 -500h-61z" />
    <glyph glyph-name="w" unicode="w" horiz-adv-x="826" 
d="M53 490l-52 8v48h211v-48l-71 -10l98 -316l25 -97l20 96l99 375h77l101 -374l25 -99l25 95l82 321l-62 9v48h194v-47l-62 -11l-145 -500h-80l-109 379l-13 75l-121 -454h-75z" />
    <glyph glyph-name="x" unicode="x" horiz-adv-x="570" 
d="M5 39l73 10l164 216l-171 225l-69 8v48h242v-48l-71 -8l99 -146l24 -37l22 36l101 148l-71 7v48h215v-48l-74 -9l-162 -213l174 -228l67 -9v-39h-239v39l70 10l-127 180l-22 -37l-99 -143l89 -10v-39h-235v39z" />
    <glyph glyph-name="y" unicode="y" horiz-adv-x="562" 
d="M73 -172q18 -5 39 -5q45 0 87.5 37.5t72.5 135.5h-18l-199 494l-54 8v48h224v-48l-73 -9l117 -332l37 -107l30 105l102 335l-78 8v48h208v-48l-56 -7q-157 -461 -177 -509q-40 -104 -81.5 -159.5t-98.5 -69.5q-17 -4 -43 -4q-28 0 -39 7v72z" />
    <glyph glyph-name="z" unicode="z" horiz-adv-x="526" 
d="M479 546l12 -38l-294 -401l-49 -62l274 10l29 84h47l-8 -139h-432l-15 38l35 47l269 370l41 48l-252 -7l-28 -91h-42v141h413z" />
    <glyph glyph-name="braceleft" unicode="{" horiz-adv-x="502" 
d="M163 282q0 18 -38.5 38t-83.5 31v57q122 31 122 64v255q0 70 17.5 93.5t72.5 23.5q45 0 127 -20v-39h-142v-311q0 -17 -7 -30t-27 -25.5t-31.5 -18.5t-45.5 -21q36 -17 55.5 -27.5t37.5 -29.5t18 -41v-312h142v-40q-75 -20 -129 -20t-71 23.5t-17 94.5v255z" />
    <glyph glyph-name="bar" unicode="|" horiz-adv-x="426" 
d="M175 869h78v-960h-78v960z" />
    <glyph glyph-name="braceright" unicode="}" horiz-adv-x="468" 
d="M231 -31v312q0 22 17.5 41.5t37 30t54.5 26.5q-73 35 -90 51q-19 19 -19 44v311h-142l-1 39q82 20 128 20q54 0 71.5 -23.5t17.5 -93.5v-255q0 -33 123 -64v-57q-45 -11 -84 -31t-39 -38v-255q0 -71 -17 -94.5t-70 -23.5q-54 0 -130 20l1 40h142z" />
    <glyph glyph-name="asciitilde" unicode="~" horiz-adv-x="614" 
d="M74 423q23 39 67.5 65.5t96.5 26.5q32 0 60.5 -21t53.5 -42t49 -21q52 0 106 52l33 -40q-24 -39 -68.5 -65.5t-95.5 -26.5q-33 0 -62 21.5t-54 42.5t-49 21q-50 0 -105 -53z" />
    <glyph glyph-name="DEL" 
 />
    <glyph glyph-name="uni00A0" unicode="&#xa0;" horiz-adv-x="230" 
 />
    <glyph glyph-name="exclamdown" unicode="&#xa1;" horiz-adv-x="348" 
d="M182 700q28 -1 41 -16.5t12 -39.5q-1 -28 -21 -45.5t-47 -16.5q-22 1 -38 16.5t-15 39.5q1 27 22 45t46 17zM196 455l29 -652h-115l33 652h53z" />
    <glyph glyph-name="cent" unicode="&#xa2;" horiz-adv-x="545" 
d="M251 -6q-90 15 -139 88t-50 181q-1 121 64.5 200.5t169.5 94.5l7 107h56l-6 -104q82 -2 115 -24v-114h-43l-23 62q-30 23 -84 23q-73 0 -122.5 -53.5t-50.5 -151.5q-1 -125 53.5 -188t128.5 -63q38 0 79.5 9t62.5 23l16 -41q-26 -23 -74.5 -37t-102.5 -16l-5 -95h-57z
" />
    <glyph glyph-name="sterling" unicode="&#xa3;" horiz-adv-x="704" 
d="M447 764q85 2 132 -39l-43 -83q-5 9 -19.5 22.5t-46.5 28.5t-66 15q-111 0 -111 -225v-56h164v-66h-163v-24q0 -96 -14 -147t-48 -105q22 -1 81.5 -23.5t90.5 -26.5q91 -15 130.5 18t39.5 88q0 50 -38 77l42 79q67 -28 78 -115q0 -19 1 -43.5t-10.5 -50.5t-29 -48.5
t-55 -38t-87.5 -18.5q-70 -5 -133 12.5t-102 35t-54 14.5q-45 -60 -97 -60q-46 0 -46 42q0 28 39 51t97 20q28 45 28 139v124h-91v66h91v55q0 116 67.5 198.5t172.5 83.5z" />
    <glyph glyph-name="currency" unicode="&#xa4;" horiz-adv-x="701" 
d="M150 575l88 -88q48 34 109 34q67 0 116 -40l88 87l38 -39l-89 -89q32 -46 32 -103q0 -63 -36 -110l88 -87l-40 -39l-87 87q-49 -36 -110 -36q-59 0 -107 34l-88 -88l-39 39l87 86q-39 50 -39 114q0 61 37 111l-86 88zM347 463q-50 0 -85.5 -37t-35.5 -89t35.5 -89
t85.5 -37q49 0 84.5 37t35.5 89t-35.5 89t-84.5 37z" />
    <glyph glyph-name="yen" unicode="&#xa5;" horiz-adv-x="687" 
d="M203 39l96 14v136h-210v58h210v116h-210v58h180l-190 284l-64 8v45h240v-45l-75 -7l144 -229l25 -56h13l30 60l132 225l-74 7v45h219v-45l-69 -13l-180 -279h171v-58h-204v-116h204v-58h-204v-136l101 -14v-39h-285v39z" />
    <glyph glyph-name="brokenbar" unicode="&#xa6;" horiz-adv-x="426" 
d="M175 869h78v-436h-78v436zM175 346h78v-437h-78v437z" />
    <glyph glyph-name="section" unicode="&#xa7;" horiz-adv-x="648" 
d="M338 864q124 0 191 -39v-134h-39l-35 96q-29 30 -122 30q-23 0 -47.5 -7.5t-48 -23t-39 -43.5t-15.5 -64q0 -46 39.5 -81t95.5 -59.5l112 -51t95.5 -69.5t39.5 -101q0 -97 -46 -154q39 -45 39 -101q0 -99 -70.5 -146.5t-180.5 -47.5q-68 0 -133 13.5t-89 27.5v153h39
l30 -94q30 -33 70 -43t95 -10q62 0 108.5 29t46.5 91q0 48 -39.5 84.5t-95.5 62l-112 53t-95.5 70.5t-39.5 101q0 39 15 80t39 67q-46 48 -46 109q0 66 40.5 114t93 68t104.5 20zM198 512q-22 -39 -22 -89q0 -51 43 -85.5t127 -71.5t118 -59q18 41 18 84q0 33 -18 60
t-50.5 48t-66 37l-77.5 37t-72 39z" />
    <glyph glyph-name="dieresis" unicode="&#xa8;" horiz-adv-x="510" 
d="M135 681q-23 0 -39.5 15t-16.5 39q0 28 20.5 47t46.5 19q29 0 43.5 -15.5t14.5 -39.5q0 -29 -21 -47t-48 -18zM361 681q-23 0 -39.5 14.5t-16.5 39.5q0 28 20.5 47t45.5 19q29 0 43.5 -15.5t14.5 -39.5q0 -29 -20.5 -47t-47.5 -18z" />
    <glyph glyph-name="copyright" unicode="&#xa9;" horiz-adv-x="995" 
d="M498 938q168 0 289.5 -123t121.5 -293q0 -169 -121.5 -292t-289.5 -123q-169 0 -290.5 123t-121.5 292q0 170 121.5 293t290.5 123zM498 883q-146 0 -249.5 -106.5t-103.5 -254.5q0 -147 103.5 -253.5t249.5 -106.5t249 106.5t103 253.5q0 148 -103 254.5t-249 106.5z
M502 768q42 3 90 -3t63 -25v-101h-52l-23 63q-28 17 -85 17q-59 -1 -93.5 -51.5t-34.5 -130.5q0 -83 47 -136.5t121 -53.5q32 0 66 10t46 21l13 -33q-22 -25 -65 -42.5t-93 -17.5q-105 0 -161.5 64t-56.5 169q0 98 68.5 171t149.5 79z" />
    <glyph glyph-name="ordfeminine" unicode="&#xaa;" horiz-adv-x="471" 
d="M228 778q80 0 120.5 -29t40.5 -117v-226h42v-34q-37 -16 -77 -16q-26 0 -33.5 11.5t-7.5 43.5q-60 -52 -152 -52q-41 0 -80.5 30.5t-39.5 86.5q0 42 22 70.5t62.5 42.5t84.5 19.5t101 5.5v14q0 59 -26 76.5t-83 17.5q-84 0 -123 -31l-18 40q22 19 71 33t96 14zM310 572
q-185 0 -185 -82q0 -35 19 -56t50 -21q78 0 116 36v123z" />
    <glyph glyph-name="guillemotleft" unicode="&#xab;" horiz-adv-x="926" 
d="M120 336l316 189l23 -39l-256 -186l256 -179l-23 -41l-316 181v75zM465 336l317 189l23 -39l-256 -186l256 -179l-23 -41l-317 181v75z" />
    <glyph glyph-name="logicalnot" unicode="&#xac;" horiz-adv-x="600" 
d="M86 423h428v-259h-74v201h-354v58z" />
    <glyph glyph-name="uni00AD" unicode="&#xad;" horiz-adv-x="600" 
d="M86 424h432v-67h-432v67z" />
    <glyph glyph-name="registered" unicode="&#xae;" horiz-adv-x="995" 
d="M498 938q168 0 289.5 -123t121.5 -293q0 -169 -121.5 -292t-289.5 -123q-169 0 -290.5 123t-121.5 292q0 170 121.5 293t290.5 123zM498 883q-146 0 -249.5 -106.5t-103.5 -254.5q0 -147 103.5 -253.5t249.5 -106.5t249 106.5t103 253.5q0 148 -103 254.5t-249 106.5z
M512 762q167 0 170 -115q0 -123 -128 -145q29 -16 51.5 -46.5t34.5 -57t32.5 -46.5t47.5 -20v-42h-71q-31 0 -52 26.5t-31.5 59.5t-33.5 68t-55 49h-43v-154l47 -10v-39h-174v39l46 13v362l-46 11v45h78q2 -2 48.5 0t78.5 2zM497 716q-39 0 -63 -5v-173q30 -4 69 -3
q42 0 69.5 27t27.5 64q0 90 -103 90z" />
    <glyph glyph-name="macron" unicode="&#xaf;" horiz-adv-x="436" 
d="M95 777h259v-68h-259v68z" />
    <glyph glyph-name="degree" unicode="&#xb0;" horiz-adv-x="331" 
d="M165 778q64 0 110 -45.5t46 -108.5q0 -64 -46 -109.5t-110 -45.5t-109.5 45.5t-45.5 109.5q0 63 45.5 108.5t109.5 45.5zM165 727q-44 0 -72.5 -29.5t-28.5 -73.5q0 -42 29.5 -72.5t71.5 -30.5q44 0 73 29.5t29 73.5q0 42 -30 72.5t-72 30.5z" />
    <glyph glyph-name="plusminus" unicode="&#xb1;" horiz-adv-x="618" 
d="M274 277l3 80l-81 -3h-110v70h110l81 -5l-3 82v114h70v-114l-4 -82l68 5h124v-70h-124l-68 4l4 -81v-120h-70v120zM91 86h434v-66h-434v66z" />
    <glyph glyph-name="uni00B2" unicode="&#xb2;" horiz-adv-x="613" 
d="M71 404q40 20 87 49t101 68t89.5 82t35.5 78q0 49 -31 72.5t-80 23.5q-45 0 -92.5 -23t-76.5 -60l-34 40q26 41 89 75.5t133 34.5q102 0 146.5 -42.5t43.5 -92.5q0 -85 -77.5 -154t-229.5 -149l263 17l57 73l46 -18l-28 -126h-423z" />
    <glyph glyph-name="uni00B3" unicode="&#xb3;" horiz-adv-x="559" 
d="M110 381q67 -25 138 -25q71 1 109 31t38 78q0 41 -29.5 63t-79.5 23q-11 -1 -30 -5l-68 -14v55q78 14 122.5 47t44.5 82q0 33 -26.5 48t-66.5 15q-34 0 -78.5 -14t-68.5 -32l-23 41q34 26 92 45t108 19q70 0 111.5 -34.5t41.5 -84.5q0 -90 -113 -130q42 2 73.5 -10.5
t47 -34t23 -42.5t7.5 -41q0 -71 -61 -116.5t-165 -45.5q-74 0 -147 32v50z" />
    <glyph glyph-name="acute" unicode="&#xb4;" horiz-adv-x="432" 
d="M115 680l147 187l65 -66q-25 -38 -80.5 -78.5t-107.5 -67.5z" />
    <glyph glyph-name="paragraph" unicode="&#xb6;" horiz-adv-x="657" 
d="M310 768q25 0 110.5 -4.5t102.5 -5.5h84v-46l-84 -14v-646l73 -13v-39h-150l-1 698h-103v-698h-173v39l98 13v279q-105 0 -157 53.5t-52 166.5q0 100 63 158.5t189 58.5z" />
    <glyph glyph-name="periodcentered" unicode="&#xb7;" horiz-adv-x="336" 
d="M176 473q28 -1 41.5 -17t12.5 -40q-1 -28 -22 -45t-46 -16q-23 1 -38.5 16.5t-14.5 39.5q1 26 22 44t45 18z" />
    <glyph glyph-name="cedilla" unicode="&#xb8;" horiz-adv-x="300" 
d="M160 0q-4 -36 -2 -61q63 1 95 -27t32 -65q0 -47 -34.5 -74.5t-88.5 -29.5q-43 -2 -97 10l1 46q32 -8 58 -8q22 0 36 3t25.5 16.5t11.5 37.5q0 52 -80 52q-5 0 -15 -1t-11 -1q0 43 17 102h52z" />
    <glyph glyph-name="uni00B9" unicode="&#xb9;" horiz-adv-x="530" 
d="M105 390l136 12v332q-63 -17 -136 -33l-10 46q45 14 118.5 47t90.5 48l25 -8l-1 -432l128 -12v-39h-351v39z" />
    <glyph glyph-name="ordmasculine" unicode="&#xba;" horiz-adv-x="487" 
d="M250 778q91 0 142.5 -57.5t50.5 -156.5q-1 -53 -20 -94t-49.5 -64t-65 -35t-69.5 -12q-85 0 -139.5 56t-53.5 154q1 70 34 119t77 69.5t93 20.5zM245 731q-111 -2 -111 -157q0 -76 29.5 -122t74.5 -46q60 0 88.5 33.5t28.5 119.5q0 79 -29 126t-81 46z" />
    <glyph glyph-name="guillemotright" unicode="&#xbb;" horiz-adv-x="926" 
d="M122 118l255 186l-255 179l23 42l316 -181v-76l-316 -188zM723 304l-255 179l23 42l316 -181v-76l-316 -188l-23 38z" />
    <glyph glyph-name="onequarter" unicode="&#xbc;" horiz-adv-x="1282" 
d="M762 918l59 -19l-370 -1066l-60 19zM120 390l135 12v332q-70 -19 -136 -33l-9 46q45 14 118.5 47t90.5 48l24 -8v-432l128 -12v-39h-351v39zM964 543l31 1l50 -45l-252 -318l-31 -43l210 15l1 129l79 10v-133l135 10l2 -77h-137v-179h-81l1 179h-264l-23 43z" />
    <glyph glyph-name="onehalf" unicode="&#xbd;" horiz-adv-x="1282" 
d="M760 918l59 -16l-371 -1069l-60 13zM120 390l135 12v332q-70 -19 -136 -33l-9 46q45 14 118.5 47t90.5 48l24 -8v-432l128 -12v-39h-351v39zM713 52q40 20 87 48.5t101 67.5t89 82t35 78q0 49 -31.5 73t-79.5 24q-44 0 -92 -23t-77 -60l-34 39q27 42 89.5 76.5
t133.5 34.5q101 0 145.5 -42.5t44.5 -92.5q0 -85 -77.5 -154t-229.5 -149l263 17l56 73l47 -19l-29 -126h-422z" />
    <glyph glyph-name="threequarters" unicode="&#xbe;" horiz-adv-x="1290" 
d="M763 918l59 -16l-371 -1069l-59 13zM110 381q67 -25 138 -25q71 1 109 31t38 78q0 41 -29.5 63t-79.5 23q-11 -1 -30 -5l-68 -14v55q78 14 122.5 47t44.5 82q0 33 -26.5 48t-66.5 15q-34 0 -78.5 -14t-68.5 -32l-23 41q34 26 92 45t108 19q70 0 111.5 -34.5t41.5 -84.5
q0 -90 -113 -130q42 2 73.5 -10.5t47 -34t23 -42.5t7.5 -41q0 -71 -61 -116.5t-165 -45.5q-74 0 -147 32v50zM964 543l31 1l50 -45l-252 -318l-31 -43l210 15l1 129l79 10v-133l135 10l1 -77h-136v-179h-81l1 179h-264l-23 43z" />
    <glyph glyph-name="questiondown" unicode="&#xbf;" horiz-adv-x="494" 
d="M229 701q28 0 42 -15.5t14 -38.5q0 -29 -20.5 -47t-46.5 -18q-22 0 -38.5 15t-16.5 38q0 27 21 46.5t45 19.5zM220 453h48q26 -21 56 -78t30 -91q0 -28 -36 -52t-96.5 -49.5t-78.5 -35.5q-31 -18 -31 -37q-2 -95 70.5 -165t169.5 -70q52 0 81 12v-69q-7 -9 -34.5 -15.5
t-57.5 -6.5q-78 0 -138 26t-93.5 68t-50 89t-16.5 96q0 41 9.5 59.5t46.5 41.5q19 12 70.5 35.5t75.5 42.5t24 42q0 14 -2.5 29t-8.5 33t-10.5 29.5t-14 34z" />
    <glyph glyph-name="Agrave" unicode="&#xc0;" horiz-adv-x="729" 
d="M369 785q-92 22 -189 86l66 67l148 -129zM1 39l70 13l257 707h75l247 -707l79 -13v-39h-252v39l81 13l-55 164h-300l-55 -164l82 -13v-39h-229v39zM485 270l-87 257l-43 136l-134 -393h264z" />
    <glyph glyph-name="Aacute" unicode="&#xc1;" horiz-adv-x="729" 
d="M337 809l148 129l65 -67q-94 -64 -189 -86zM1 39l70 13l257 707h75l247 -707l79 -13v-39h-252v39l81 13l-55 164h-300l-55 -164l82 -13v-39h-229v39zM485 270l-87 257l-43 136l-134 -393h264z" />
    <glyph glyph-name="Acircumflex" unicode="&#xc2;" horiz-adv-x="729" 
d="M196 811l126 127h86l127 -126l-39 -23l-131 87l-133 -87zM1 39l70 13l257 707h75l247 -707l79 -13v-39h-252v39l81 13l-55 164h-300l-55 -164l82 -13v-39h-229v39zM485 270l-87 257l-43 136l-134 -393h264z" />
    <glyph glyph-name="Atilde" unicode="&#xc3;" horiz-adv-x="729" 
d="M171 856q19 34 57.5 58t76.5 24q33 0 70 -32.5t60 -32.5q50 0 91 43l23 -34q-18 -34 -56.5 -58.5t-76.5 -24.5q-34 0 -70.5 33.5t-59.5 33.5q-48 0 -91 -43zM1 39l70 13l257 707h75l247 -707l79 -13v-39h-252v39l81 13l-55 164h-300l-55 -164l82 -13v-39h-229v39z
M485 270l-87 257l-43 136l-134 -393h264z" />
    <glyph glyph-name="Adieresis" unicode="&#xc4;" horiz-adv-x="729" 
d="M256 934q28 0 43 -16t15 -40q0 -29 -20.5 -47.5t-47.5 -18.5q-24 0 -40.5 15.5t-16.5 40.5q0 27 21 46.5t46 19.5zM482 934q29 0 43.5 -16t14.5 -40q0 -29 -20.5 -47.5t-47.5 -18.5q-24 0 -41 15.5t-17 40.5q0 27 21.5 46.5t46.5 19.5zM403 759l247 -707l79 -13v-39h-252
v39l81 13l-55 164h-300l-55 -164l82 -13v-39h-229v39l70 13l257 707h75zM355 663l-134 -393h264l-87 257z" />
    <glyph glyph-name="Aring" unicode="&#xc5;" horiz-adv-x="729" 
d="M364 938q51 0 87 -33t36 -81q0 -34 -19 -61t-52 -41l234 -670l79 -13v-39h-252v39l81 13l-55 164h-300l-55 -164l82 -13v-39h-229v39l70 13l243 669q-33 14 -53 41.5t-20 61.5q0 48 36 81t87 33zM364 887q-28 0 -48 -18t-20 -45t20 -45.5t48 -18.5q29 0 49 18t20 45
t-20 45.5t-49 18.5zM355 663l-134 -393h264l-87 257z" />
    <glyph glyph-name="AE" unicode="&#xc6;" horiz-adv-x="947" 
d="M1 39l68 13l286 706h470l15 -139l-46 -1l-22 87l-308 5l86 -287l197 3l13 77h42v-205h-42l-13 73l-182 2l97 -323l164 8l47 103l40 -19l-22 -142h-410v39l82 13l-53 174h-299l-65 -174l84 -13v-39h-229v39zM493 279l-95 306l-17 91l-150 -397h262z" />
    <glyph glyph-name="Ccedilla" unicode="&#xc7;" horiz-adv-x="688" 
d="M436 765q32 0 66 -4.5t53.5 -9t48 -12t35.5 -9.5l-8 -139h-47l-24 83q-59 38 -152 38q-113 0 -193.5 -89t-80.5 -240q0 -96 31 -173.5t96 -126t153 -48.5q115 0 161 56l25 78h40v-138q-9 -1 -81.5 -21.5t-145.5 -22.5q-2 -24 0 -48q63 1 95.5 -27t32.5 -65
q0 -47 -35 -74.5t-89 -29.5q-44 -2 -96 10v46q32 -8 58 -8q22 0 36 3t25.5 16.5t11.5 37.5q0 52 -80 52q-5 0 -15 -1t-11 -1q2 48 13 90q-140 11 -228.5 112.5t-88.5 254.5q0 182 116 296t278 114z" />
    <glyph glyph-name="Egrave" unicode="&#xc8;" horiz-adv-x="644" 
d="M358 785q-93 21 -188 86l65 67l147 -129zM50 39l84 13v653l-82 8v45h507l14 -139h-50l-23 86l-279 6v-289l188 4l13 77h47v-209h-47l-13 77l-188 3v-325l300 9l48 105l43 -11l-22 -152h-540v39z" />
    <glyph glyph-name="Eacute" unicode="&#xc9;" horiz-adv-x="644" 
d="M326 809l148 129l65 -67q-96 -64 -188 -86zM50 39l84 13v653l-82 8v45h507l14 -139h-50l-23 86l-279 6v-289l188 4l13 77h47v-209h-47l-13 77l-188 3v-325l300 9l48 105l43 -11l-22 -152h-540v39z" />
    <glyph glyph-name="Ecircumflex" unicode="&#xca;" horiz-adv-x="644" 
d="M185 811l126 127h86l127 -126l-40 -23l-130 87l-133 -87zM50 39l84 13v653l-82 8v45h507l14 -139h-50l-23 86l-279 6v-289l188 4l13 77h47v-209h-47l-13 77l-188 3v-325l300 9l48 105l43 -11l-22 -152h-540v39z" />
    <glyph glyph-name="Edieresis" unicode="&#xcb;" horiz-adv-x="644" 
d="M245 934q28 0 43 -16t15 -40q0 -29 -21 -47.5t-48 -18.5q-23 0 -40 15.5t-17 40.5q0 27 21.5 46.5t46.5 19.5zM471 934q28 0 43 -16t15 -40q0 -29 -20.5 -47.5t-47.5 -18.5q-24 0 -41 15.5t-17 40.5q0 27 21 46.5t47 19.5zM559 758l14 -139h-50l-23 86l-279 6v-289l188 4
l13 77h47v-209h-47l-13 77l-188 3v-325l300 9l48 105l43 -11l-22 -152h-540v39l84 13v653l-82 8v45h507z" />
    <glyph glyph-name="Igrave" unicode="&#xcc;" horiz-adv-x="373" 
d="M191 785q-93 22 -188 86l65 67l148 -129zM56 39l86 13v654l-84 7v45h255v-45l-83 -7v-654l88 -13v-39h-262v39z" />
    <glyph glyph-name="Iacute" unicode="&#xcd;" horiz-adv-x="373" 
d="M160 809l147 129l65 -67q-95 -64 -188 -86zM56 39l86 13v654l-84 7v45h255v-45l-83 -7v-654l88 -13v-39h-262v39z" />
    <glyph glyph-name="Icircumflex" unicode="&#xce;" horiz-adv-x="373" 
d="M19 811l126 127h85l127 -126l-39 -23l-130 87l-134 -87zM56 39l86 13v654l-84 7v45h255v-45l-83 -7v-654l88 -13v-39h-262v39z" />
    <glyph glyph-name="Idieresis" unicode="&#xcf;" horiz-adv-x="373" 
d="M79 934q28 0 43 -16t15 -40q0 -29 -21 -47.5t-48 -18.5q-24 0 -40.5 15.5t-16.5 40.5q0 28 21 47t47 19zM305 934q28 0 42.5 -16t14.5 -40q0 -29 -20.5 -47.5t-47.5 -18.5q-23 0 -40.5 15.5t-17.5 40.5q0 27 21.5 46.5t47.5 19.5zM313 758v-45l-83 -7v-654l88 -13v-39
h-262v39l86 13v654l-84 7v45h255z" />
    <glyph glyph-name="Eth" unicode="&#xd0;" horiz-adv-x="778" 
d="M52 39l84 14v306h-88v66h88v280l-82 8v45h126q44 0 100.5 3.5t84.5 3.5q184 1 276 -95t92 -271q0 -188 -109.5 -298t-278.5 -106q-15 0 -71.5 2.5t-91.5 2.5h-130v39zM224 59q66 -15 136 -14q121 3 201 87t80 244q0 170 -80 256.5t-223 81.5q-68 -1 -114 -9v-280h128v-66
h-128v-300z" />
    <glyph glyph-name="Ntilde" unicode="&#xd1;" horiz-adv-x="812" 
d="M212 856q19 34 57 58t76 24q27 0 49.5 -16t42 -32.5t38.5 -16.5q52 0 91 43l25 -34q-19 -34 -57.5 -58.5t-76.5 -24.5q-33 0 -70 33.5t-59 33.5q-47 0 -92 -43zM774 758v-48l-82 -9v-701h-94l-329 519l-69 136v-603l97 -13v-39h-246v39l84 13v649l-81 8v49h169l334 -543
l70 -133v619l-82 9v48h229z" />
    <glyph glyph-name="Ograve" unicode="&#xd2;" horiz-adv-x="759" 
d="M391 785q-95 22 -189 86l65 67l148 -129zM403 765q144 0 230 -106t84 -271q-3 -186 -101 -294t-245 -108q-148 0 -238 105t-89 270q1 128 51.5 221t134.5 139q77 44 173 44zM384 716q-110 0 -176 -92.5t-66 -255.5q0 -139 66.5 -236t177.5 -97q109 0 171.5 93t62.5 257
q0 139 -63 235t-173 96z" />
    <glyph glyph-name="Oacute" unicode="&#xd3;" horiz-adv-x="759" 
d="M507 938l65 -67q-97 -64 -189 -86l-25 24zM393 765q149 4 238 -103.5t86 -276.5q-4 -182 -99.5 -289t-239.5 -110q-152 -3 -244 105t-90 277q4 181 103 287t246 110zM384 716q-110 0 -176 -92.5t-66 -255.5q0 -139 66.5 -236t177.5 -97q109 0 171.5 93t62.5 257
q0 139 -63 235t-173 96z" />
    <glyph glyph-name="Ocircumflex" unicode="&#xd4;" horiz-adv-x="759" 
d="M430 938l127 -126l-40 -23l-130 87l-134 -87l-35 22l125 127h87zM393 765q149 4 238 -103.5t86 -276.5q-4 -182 -99.5 -289t-239.5 -110q-152 -3 -244 105t-90 277q4 181 103 287t246 110zM384 716q-110 0 -176 -92.5t-66 -255.5q0 -139 66.5 -236t177.5 -97
q109 0 171.5 93t62.5 257q0 139 -63 235t-173 96z" />
    <glyph glyph-name="Otilde" unicode="&#xd5;" horiz-adv-x="759" 
d="M192 856q19 34 57 58t76 24q27 0 49.5 -16t42 -32.5t38.5 -16.5q52 0 91 43l25 -34q-19 -34 -57.5 -58.5t-76.5 -24.5q-33 0 -70 33.5t-59 33.5q-47 0 -92 -43zM403 765q144 0 230 -106t84 -271q-3 -186 -101 -294t-245 -108q-148 0 -238 105t-89 270q1 128 51.5 221
t134.5 139q77 44 173 44zM384 716q-110 0 -176 -92.5t-66 -255.5q0 -139 66.5 -236t177.5 -97q109 0 171.5 93t62.5 257q0 139 -63 235t-173 96z" />
    <glyph glyph-name="Odieresis" unicode="&#xd6;" horiz-adv-x="759" 
d="M337 812q-24 0 -41 15.5t-17 40.5q0 27 21 46.5t47 19.5q29 0 44 -17q20 17 44 17q28 0 43 -16t15 -40q0 -29 -20.5 -47.5t-47.5 -18.5t-42 17q-20 -17 -46 -17zM403 765q144 0 230 -106t84 -271q-3 -186 -101 -294t-245 -108q-148 0 -238 105t-89 270q1 128 51.5 221
t134.5 139q77 44 173 44zM386 35q109 0 171.5 93t62.5 257q0 139 -63 235t-173 96t-176 -92.5t-66 -255.5q0 -139 66.5 -236t177.5 -97z" />
    <glyph glyph-name="multiply" unicode="&#xd7;" horiz-adv-x="606" 
d="M89 227l169 161l-169 162l53 56l161 -172l160 172l54 -56l-169 -162l169 -161l-54 -57l-160 173l-161 -173z" />
    <glyph glyph-name="Oslash" unicode="&#xd8;" horiz-adv-x="759" 
d="M247 9q-96 40 -150.5 135.5t-52.5 223.5q4 181 103 287t246 110q58 1 112 -16l28 77l38 -15l-27 -79q83 -44 129 -136t44 -211q-4 -182 -99.5 -289t-239.5 -110q-50 0 -89 10l-32 -92l-41 15zM484 690q-44 26 -100 26q-110 0 -176 -92.5t-66 -255.5q0 -97 33.5 -177.5
t94.5 -121.5zM309 49q34 -14 77 -14q109 0 171.5 93t62.5 257q0 87 -26 161.5t-75 117.5z" />
    <glyph glyph-name="Ugrave" unicode="&#xd9;" horiz-adv-x="770" 
d="M402 785q-95 22 -189 86l65 67l148 -129zM749 758v-45l-76 -8v-373q0 -176 -75.5 -261t-207.5 -85q-159 0 -228.5 82.5t-69.5 252.5q0 65 0.5 193t0.5 192l-77 7v45h252v-45l-87 -8v-387q0 -156 59 -220.5t166 -64.5q199 0 199 299v373l-88 8v45h232z" />
    <glyph glyph-name="Uacute" unicode="&#xda;" horiz-adv-x="770" 
d="M369 809l148 129l65 -67q-94 -64 -189 -86zM749 758v-45l-76 -8v-373q0 -176 -75.5 -261t-207.5 -85q-159 0 -228.5 82.5t-69.5 252.5q0 65 0.5 193t0.5 192l-77 7v45h252v-45l-87 -8v-387q0 -156 59 -220.5t166 -64.5q199 0 199 299v373l-88 8v45h232z" />
    <glyph glyph-name="Ucircumflex" unicode="&#xdb;" horiz-adv-x="770" 
d="M440 938l128 -126l-40 -23l-131 87l-133 -87l-36 22l126 127h86zM749 758v-45l-76 -8v-373q0 -176 -75.5 -261t-207.5 -85q-159 0 -228.5 82.5t-69.5 252.5q0 65 0.5 193t0.5 192l-77 7v45h252v-45l-87 -8v-387q0 -156 59 -220.5t166 -64.5q199 0 199 299v373l-88 8v45
h232z" />
    <glyph glyph-name="Udieresis" unicode="&#xdc;" horiz-adv-x="770" 
d="M347 812q-24 0 -41 15.5t-17 40.5q0 27 21 46.5t47 19.5q29 0 44 -17q20 17 44 17q28 0 43 -16t15 -40q0 -29 -20.5 -47.5t-47.5 -18.5t-42 17q-20 -17 -46 -17zM517 758h232v-45l-76 -8v-373q0 -176 -75.5 -261t-207.5 -85q-159 0 -228.5 82.5t-69.5 252.5q0 65 0.5 193
t0.5 192l-77 7v45h252v-45l-87 -8v-387q0 -156 59 -220.5t166 -64.5q199 0 199 299v373l-88 8v45z" />
    <glyph glyph-name="Yacute" unicode="&#xdd;" horiz-adv-x="660" 
d="M317 809l148 129l65 -67q-94 -64 -189 -86zM199 39l100 14v259l-236 394l-57 7v45h235v-45l-77 -7l160 -295l25 -51l22 51l145 294l-83 8v45h221v-45l-65 -12l-202 -390v-258l104 -14v-39h-292v39z" />
    <glyph glyph-name="Thorn" unicode="&#xde;" horiz-adv-x="633" 
d="M42 39l94 14v653l-84 7v45h256v-45l-84 -7v-106q114 12 129 12q117 0 186.5 -53.5t69.5 -157.5q0 -114 -84.5 -179t-198.5 -63q-19 0 -42.5 0.5t-37 1t-22.5 0.5v-108l132 -14v-39h-314v39zM224 211q37 -6 101 -6q86 0 140 44.5t54 149.5q0 79 -52.5 123t-148.5 40
q-51 -3 -94 -15v-336z" />
    <glyph glyph-name="germandbls" unicode="&#xdf;" horiz-adv-x="651" 
d="M33 39l77 14v375q0 169 76.5 257t187.5 88q64 0 108 -33t44 -110q0 -40 -15 -74t-33.5 -55t-33.5 -49.5t-15 -58.5q0 -27 21.5 -48t52.5 -36.5t62 -33.5t52.5 -49.5t21.5 -74.5q0 -80 -57.5 -120.5t-144.5 -40.5q-69 0 -108 9v78q69 -36 115 -36q112 0 112 95
q0 29 -21.5 51.5t-52.5 38.5l-62 32.5t-52.5 42t-21.5 58.5q0 28 25.5 68.5t51 86t25.5 86.5q0 53 -24.5 86t-73.5 33q-82 0 -117.5 -64.5t-35.5 -226.5v-428h-164v39z" />
    <glyph glyph-name="agrave" unicode="&#xe0;" horiz-adv-x="559" 
d="M342 655q-140 74 -187 146l65 66l146 -187zM274 556q192 0 192 -179l-1 -337h63v-31q-40 -20 -90 -20q-33 0 -43.5 14t-10.5 52q-56 -67 -167 -67q-69 0 -114.5 42.5t-45.5 108.5q0 51 32.5 89.5t83.5 58t103 29t103 9.5v42q0 73 -35.5 101t-101.5 28q-72 0 -147 -40
l-16 42q33 27 92.5 42.5t102.5 15.5zM379 277q-38 0 -75.5 -6t-75 -18.5t-60.5 -38t-23 -60.5q-1 -56 30.5 -82t89.5 -26q32 0 64 14t49 31z" />
    <glyph glyph-name="aacute" unicode="&#xe1;" horiz-adv-x="559" 
d="M218 680l147 187l65 -66q-25 -38 -80.5 -78.5t-107.5 -67.5zM274 556q192 0 192 -179l-1 -337h63v-31q-40 -20 -90 -20q-33 0 -43.5 14t-10.5 52q-56 -67 -167 -67q-69 0 -114.5 42.5t-45.5 108.5q0 51 32.5 89.5t83.5 58t103 29t103 9.5v42q0 73 -35.5 101t-101.5 28
q-72 0 -147 -40l-16 42q33 27 92.5 42.5t102.5 15.5zM379 277q-38 0 -75.5 -6t-75 -18.5t-60.5 -38t-23 -60.5q-1 -56 30.5 -82t89.5 -26q32 0 64 14t49 31z" />
    <glyph glyph-name="acircumflex" unicode="&#xe2;" horiz-adv-x="559" 
d="M108 673l135 193h85l130 -192l-39 -22l-134 137l-142 -137zM274 556q192 0 192 -179l-1 -337h63v-31q-40 -20 -90 -20q-33 0 -43.5 14t-10.5 52q-56 -67 -167 -67q-69 0 -114.5 42.5t-45.5 108.5q0 51 32.5 89.5t83.5 58t103 29t103 9.5v42q0 73 -35.5 101t-101.5 28
q-72 0 -147 -40l-16 42q33 27 92.5 42.5t102.5 15.5zM379 277q-38 0 -75.5 -6t-75 -18.5t-60.5 -38t-23 -60.5q-1 -56 30.5 -82t89.5 -26q32 0 64 14t49 31z" />
    <glyph glyph-name="atilde" unicode="&#xe3;" horiz-adv-x="559" 
d="M90 729q19 34 57.5 59t76.5 25q33 0 70 -34.5t60 -34.5q41 0 91 48l23 -33q-19 -35 -57 -59.5t-76 -24.5q-33 0 -70 34t-60 34q-45 0 -91 -48zM274 556q192 0 192 -179l-1 -337h63v-31q-40 -20 -90 -20q-33 0 -43.5 14t-10.5 52q-56 -67 -167 -67q-69 0 -114.5 42.5
t-45.5 108.5q0 51 32.5 89.5t83.5 58t103 29t103 9.5v42q0 73 -35.5 101t-101.5 28q-72 0 -147 -40l-16 42q33 27 92.5 42.5t102.5 15.5zM379 277q-38 0 -75.5 -6t-75 -18.5t-60.5 -38t-23 -60.5q-1 -56 30.5 -82t89.5 -26q32 0 64 14t49 31z" />
    <glyph glyph-name="adieresis" unicode="&#xe4;" horiz-adv-x="559" 
d="M165 681q-23 0 -39.5 15t-16.5 39q0 28 20.5 47t46.5 19q29 0 43.5 -15.5t14.5 -39.5q0 -29 -21 -47t-48 -18zM391 681q-23 0 -39.5 14.5t-16.5 39.5q0 28 20.5 47t45.5 19q29 0 43.5 -15.5t14.5 -39.5q0 -29 -20.5 -47t-47.5 -18zM274 556q192 0 192 -179l-1 -337h63
v-31q-40 -20 -90 -20q-33 0 -43.5 14t-10.5 52q-56 -67 -167 -67q-69 0 -114.5 42.5t-45.5 108.5q0 51 32.5 89.5t83.5 58t103 29t103 9.5v42q0 73 -35.5 101t-101.5 28q-72 0 -147 -40l-16 42q33 27 92.5 42.5t102.5 15.5zM379 277q-38 0 -75.5 -6t-75 -18.5t-60.5 -38
t-23 -60.5q-1 -56 30.5 -82t89.5 -26q32 0 64 14t49 31z" />
    <glyph glyph-name="aring" unicode="&#xe5;" horiz-adv-x="559" 
d="M270 878q50 0 86 -34t36 -83q0 -48 -36 -82t-86 -34t-86 34t-36 82q0 49 36 83t86 34zM270 828q-28 0 -48 -20t-20 -48t20 -47.5t48 -19.5t48 19.5t20 47.5t-20 48t-48 20zM274 556q192 0 192 -179l-1 -337h63v-31q-40 -20 -90 -20q-33 0 -43.5 14t-10.5 52
q-56 -67 -167 -67q-69 0 -114.5 42.5t-45.5 108.5q0 51 32.5 89.5t83.5 58t103 29t103 9.5v42q0 73 -35.5 101t-101.5 28q-72 0 -147 -40l-16 42q33 27 92.5 42.5t102.5 15.5zM379 277q-38 0 -75.5 -6t-75 -18.5t-60.5 -38t-23 -60.5q-1 -56 30.5 -82t89.5 -26q32 0 64 14
t49 31z" />
    <glyph glyph-name="ae" unicode="&#xe6;" horiz-adv-x="881" 
d="M646 563q85 2 134.5 -52.5t52.5 -151.5q2 -36 -5 -89h-364q1 -60 17.5 -104.5t45 -69t61 -35.5t69.5 -11q39 0 83.5 10t65.5 22l17 -39q-27 -25 -84.5 -40t-114.5 -15q-133 0 -196 98q-27 -44 -84.5 -71t-128.5 -27q-72 0 -118 48.5t-39 119.5q4 48 40.5 83.5t89.5 53
t101.5 25t89.5 6.5v43q0 74 -35.5 101.5t-100.5 27.5q-70 0 -148 -40l-16 42q33 26 92.5 42t104.5 16q132 0 170 -88q73 92 200 95zM622 514q-63 0 -106 -47.5t-51 -142.5h277q8 135 -56 174q-25 16 -64 16zM379 277q-35 0 -72.5 -5.5t-75.5 -18t-62 -38.5t-24 -61
q0 -108 118 -108q34 0 67 17.5t48 41.5z" />
    <glyph glyph-name="ccedilla" unicode="&#xe7;" horiz-adv-x="511" 
d="M308 -61q63 1 95 -27t32 -65q0 -47 -34.5 -74.5t-88.5 -29.5q-43 -2 -97 10l1 46q32 -8 58 -8q22 0 36 3t25.5 16.5t11.5 37.5q0 52 -80 52q-5 0 -15 -1t-11 -1q0 42 15 94q-96 11 -149.5 85t-55.5 186q-1 132 74.5 212.5t191.5 85.5q99 4 141 -24v-114h-43l-23 62
q-30 23 -84 23q-72 0 -122 -53.5t-51 -151.5q-1 -125 54 -188t128 -63q38 0 80 9t62 23l16 -41q-51 -47 -166 -52q-4 -30 -1 -52z" />
    <glyph glyph-name="egrave" unicode="&#xe8;" horiz-adv-x="559" 
d="M355 655q-140 74 -187 146l65 66l146 -187zM319 563q85 1 135.5 -53t54.5 -151q1 -36 -6 -89h-367q0 -102 50 -161t142 -59q40 0 84 9.5t65 22.5l17 -39q-28 -25 -85 -40t-115 -15q-116 0 -180.5 76.5t-64.5 206.5q0 125 75.5 207t194.5 85zM295 514q-63 0 -106.5 -47.5
t-51.5 -142.5h280q8 136 -56 174q-25 16 -66 16z" />
    <glyph glyph-name="eacute" unicode="&#xe9;" horiz-adv-x="559" 
d="M232 680l147 187l65 -66q-25 -38 -80.5 -78.5t-107.5 -67.5zM319 563q85 1 135.5 -53t54.5 -151q1 -36 -6 -89h-367q0 -102 50 -161t142 -59q40 0 84 9.5t65 22.5l17 -39q-28 -25 -85 -40t-115 -15q-116 0 -180.5 76.5t-64.5 206.5q0 125 75.5 207t194.5 85zM295 514
q-63 0 -106.5 -47.5t-51.5 -142.5h280q8 136 -56 174q-25 16 -66 16z" />
    <glyph glyph-name="ecircumflex" unicode="&#xea;" horiz-adv-x="559" 
d="M121 673l135 193h85l130 -192l-39 -22l-134 137l-142 -137zM319 563q85 1 135.5 -53t54.5 -151q1 -36 -6 -89h-367q0 -102 50 -161t142 -59q40 0 84 9.5t65 22.5l17 -39q-28 -25 -85 -40t-115 -15q-116 0 -180.5 76.5t-64.5 206.5q0 125 75.5 207t194.5 85zM295 514
q-63 0 -106.5 -47.5t-51.5 -142.5h280q8 136 -56 174q-25 16 -66 16z" />
    <glyph glyph-name="edieresis" unicode="&#xeb;" horiz-adv-x="559" 
d="M178 681q-23 0 -39.5 15t-16.5 39q0 28 20.5 47t46.5 19q29 0 43.5 -15.5t14.5 -39.5q0 -29 -21 -47t-48 -18zM404 681q-23 0 -39.5 14.5t-16.5 39.5q0 28 20.5 47t45.5 19q29 0 43.5 -15.5t14.5 -39.5q0 -29 -20.5 -47t-47.5 -18zM319 563q85 1 135.5 -53t54.5 -151
q1 -36 -6 -89h-367q0 -102 50 -161t142 -59q40 0 84 9.5t65 22.5l17 -39q-28 -25 -85 -40t-115 -15q-116 0 -180.5 76.5t-64.5 206.5q0 125 75.5 207t194.5 85zM295 514q-63 0 -106.5 -47.5t-51.5 -142.5h280q8 136 -56 174q-25 16 -66 16z" />
    <glyph glyph-name="igrave" unicode="&#xec;" horiz-adv-x="333" 
d="M231 655q-140 74 -187 146l65 66l147 -187zM59 39l82 10v410l-68 32v29l131 35l21 -10v-496l79 -10v-39h-245v39z" />
    <glyph glyph-name="iacute" unicode="&#xed;" horiz-adv-x="333" 
d="M108 680l147 187l65 -66q-25 -38 -80.5 -78.5t-107.5 -67.5zM59 39l82 10v410l-68 32v29l131 35l21 -10v-496l79 -10v-39h-245v39z" />
    <glyph glyph-name="icircumflex" unicode="&#xee;" horiz-adv-x="333" 
d="M-3 673l135 193h86l129 -192l-39 -22l-134 137l-142 -137zM59 39l82 10v410l-68 32v29l131 35l21 -10v-496l79 -10v-39h-245v39z" />
    <glyph glyph-name="idieresis" unicode="&#xef;" horiz-adv-x="333" 
d="M54 681q-23 0 -39.5 15t-16.5 39q0 28 20.5 47t46.5 19q29 0 43.5 -15.5t14.5 -39.5q0 -29 -21 -47t-48 -18zM280 681q-23 0 -39.5 14.5t-16.5 39.5q0 28 20.5 47t45.5 19q29 0 43.5 -15.5t14.5 -39.5q0 -29 -20.5 -47t-47.5 -18zM59 39l82 10v410l-68 32v29l131 35
l21 -10v-496l79 -10v-39h-245v39z" />
    <glyph glyph-name="eth" unicode="&#xf0;" horiz-adv-x="601" 
d="M375 841l47 -39l-80 -70q103 -77 156.5 -191t53.5 -240q0 -147 -72 -229.5t-180 -84.5q-112 -3 -181.5 70t-69.5 188q0 123 72 191t180 68q40 0 85 -19.5t69 -47.5q-30 142 -157 253l-84 -73l-45 35l81 74q-50 34 -92 47l11 50q63 -21 122 -56l53 46zM300 455
q-79 0 -118 -54t-39 -151q0 -90 43 -152.5t121 -62.5q69 0 110 70t42 162q0 48 -3 62q-12 46 -52 86t-104 40z" />
    <glyph glyph-name="ntilde" unicode="&#xf1;" horiz-adv-x="682" 
d="M171 729q19 34 57.5 59t76.5 25q33 0 70 -34.5t60 -34.5q41 0 91 48l23 -33q-19 -35 -57 -59.5t-76 -24.5q-33 0 -70 34t-60 34q-45 0 -91 -48zM67 39l68 9v408l-71 35v29l126 35l21 -10v-68q36 30 93.5 54t106.5 26q90 3 126.5 -50.5t36.5 -180.5v-278l78 -9v-39h-239
v39l74 10v263q0 99 -25 140.5t-96 38.5q-70 -3 -143 -54v-388l73 -10v-39h-229v39z" />
    <glyph glyph-name="ograve" unicode="&#xf2;" horiz-adv-x="601" 
d="M366 655q-140 74 -187 146l65 66l146 -187zM311 563q119 1 180.5 -79t60.5 -203q-1 -129 -74 -211t-180 -82q-64 0 -113.5 24t-78 65.5t-42.5 93t-14 111.5q1 127 77.5 203.5t183.5 77.5zM303 514q-81 1 -120.5 -57.5t-39.5 -167.5q0 -68 16.5 -122.5t54 -90.5t90.5 -37
q81 -1 118.5 59t37.5 178q0 106 -39 171.5t-118 66.5z" />
    <glyph glyph-name="oacute" unicode="&#xf3;" horiz-adv-x="601" 
d="M242 680l147 187l65 -66q-25 -38 -80.5 -78.5t-107.5 -67.5zM311 563q119 1 180.5 -79t60.5 -203q-1 -129 -74 -211t-180 -82q-64 0 -113.5 24t-78 65.5t-42.5 93t-14 111.5q1 127 77.5 203.5t183.5 77.5zM303 514q-81 1 -120.5 -57.5t-39.5 -167.5q0 -68 16.5 -122.5
t54 -90.5t90.5 -37q81 -1 118.5 59t37.5 178q0 106 -39 171.5t-118 66.5z" />
    <glyph glyph-name="ocircumflex" unicode="&#xf4;" horiz-adv-x="601" 
d="M131 673l135 193h85l130 -192l-39 -22l-134 137l-142 -137zM311 563q119 1 180.5 -79t60.5 -203q-1 -129 -74 -211t-180 -82q-64 0 -113.5 24t-78 65.5t-42.5 93t-14 111.5q1 127 77.5 203.5t183.5 77.5zM303 514q-81 1 -120.5 -57.5t-39.5 -167.5q0 -68 16.5 -122.5
t54 -90.5t90.5 -37q81 -1 118.5 59t37.5 178q0 106 -39 171.5t-118 66.5z" />
    <glyph glyph-name="otilde" unicode="&#xf5;" horiz-adv-x="601" 
d="M114 729q19 34 57.5 59t76.5 25q33 0 70 -34.5t60 -34.5q41 0 91 48l23 -33q-19 -35 -57 -59.5t-76 -24.5q-33 0 -70 34t-60 34q-45 0 -91 -48zM311 563q119 1 180.5 -79t60.5 -203q-1 -129 -74 -211t-180 -82q-64 0 -113.5 24t-78 65.5t-42.5 93t-14 111.5
q1 127 77.5 203.5t183.5 77.5zM303 514q-81 1 -120.5 -57.5t-39.5 -167.5q0 -68 16.5 -122.5t54 -90.5t90.5 -37q81 -1 118.5 59t37.5 178q0 106 -39 171.5t-118 66.5z" />
    <glyph glyph-name="odieresis" unicode="&#xf6;" horiz-adv-x="601" 
d="M189 681q-23 0 -39.5 15t-16.5 39q0 28 20.5 47t46.5 19q29 0 43.5 -15.5t14.5 -39.5q0 -29 -21 -47t-48 -18zM415 681q-23 0 -39.5 14.5t-16.5 39.5q0 28 20.5 47t45.5 19q29 0 43.5 -15.5t14.5 -39.5q0 -29 -20.5 -47t-47.5 -18zM311 563q119 1 180.5 -79t60.5 -203
q-1 -129 -74 -211t-180 -82q-64 0 -113.5 24t-78 65.5t-42.5 93t-14 111.5q1 127 77.5 203.5t183.5 77.5zM303 514q-81 1 -120.5 -57.5t-39.5 -167.5q0 -68 16.5 -122.5t54 -90.5t90.5 -37q81 -1 118.5 59t37.5 178q0 106 -39 171.5t-118 66.5z" />
    <glyph glyph-name="divide" unicode="&#xf7;" horiz-adv-x="623" 
d="M318 640q29 0 43.5 -16t14.5 -41q0 -28 -21 -46.5t-48 -18.5q-23 0 -40 15.5t-17 40.5q0 27 21.5 46.5t46.5 19.5zM538 424v-67h-452v67h452zM320 260q28 -1 41 -17t12 -40q-1 -28 -21 -45.5t-47 -17.5q-22 2 -37.5 17.5t-14.5 39.5q1 26 22 44.5t45 18.5z" />
    <glyph glyph-name="oslash" unicode="&#xf8;" horiz-adv-x="601" 
d="M192 8q-73 32 -108 106.5t-34 169.5q2 125 78 201t182 78q38 0 70 -9l28 82l37 -14l-27 -81q67 -31 101 -101t33 -159q-1 -129 -74 -211t-181 -82q-34 0 -66 8l-30 -91l-39 15zM360 502q-26 12 -56 12q-161 3 -161 -225q0 -151 72 -216zM251 50q24 -11 51 -11
q157 -3 157 237q0 145 -64 202z" />
    <glyph glyph-name="ugrave" unicode="&#xf9;" horiz-adv-x="631" 
d="M360 655q-142 75 -188 146l65 66l147 -187zM104 483l-50 13v35l120 25l16 -9v-336q0 -88 22 -123.5t87 -35.5q42 0 83.5 20t59.5 38v369l-61 13v38l133 26l13 -8v-508h60v-36q-40 -19 -88 -19q-49 0 -49 40v41q-88 -76 -185 -76q-32 0 -57 6.5t-42 16t-28.5 28t-18 35
t-10 44.5t-4.5 49t-1 56v258z" />
    <glyph glyph-name="uacute" unicode="&#xfa;" horiz-adv-x="631" 
d="M236 680l146 187l66 -66q-25 -38 -80.5 -78.5t-107.5 -67.5zM104 483l-50 13v35l120 25l16 -9v-336q0 -88 22 -123.5t87 -35.5q42 0 83.5 20t59.5 38v369l-61 13v38l133 26l13 -8v-508h60v-36q-40 -19 -88 -19q-49 0 -49 40v41q-88 -76 -185 -76q-32 0 -57 6.5t-42 16
t-28.5 28t-18 35t-10 44.5t-4.5 49t-1 56v258z" />
    <glyph glyph-name="ucircumflex" unicode="&#xfb;" horiz-adv-x="631" 
d="M126 673l134 193h86l130 -192l-40 -22l-133 137l-142 -137zM104 483l-50 13v35l120 25l16 -9v-336q0 -88 22 -123.5t87 -35.5q42 0 83.5 20t59.5 38v369l-61 13v38l133 26l13 -8v-508h60v-36q-40 -19 -88 -19q-49 0 -49 40v41q-88 -76 -185 -76q-32 0 -57 6.5t-42 16
t-28.5 28t-18 35t-10 44.5t-4.5 49t-1 56v258z" />
    <glyph glyph-name="udieresis" unicode="&#xfc;" horiz-adv-x="631" 
d="M184 681q-23 0 -39.5 15t-16.5 39q0 28 20.5 47t46.5 19q29 0 43.5 -15.5t14.5 -39.5q0 -29 -21 -47t-48 -18zM410 681q-23 0 -39.5 14.5t-16.5 39.5q0 28 20.5 47t45.5 19q29 0 43.5 -15.5t14.5 -39.5q0 -29 -20.5 -47t-47.5 -18zM104 483l-50 13v35l120 25l16 -9v-336
q0 -88 22 -123.5t87 -35.5q42 0 83.5 20t59.5 38v369l-61 13v38l133 26l13 -8v-508h60v-36q-40 -19 -88 -19q-49 0 -49 40v41q-88 -76 -185 -76q-32 0 -57 6.5t-42 16t-28.5 28t-18 35t-10 44.5t-4.5 49t-1 56v258z" />
    <glyph glyph-name="yacute" unicode="&#xfd;" horiz-adv-x="562" 
d="M232 680l147 187l65 -66q-25 -38 -80.5 -78.5t-107.5 -67.5zM73 -172q18 -5 39 -5q45 0 87.5 37.5t72.5 135.5h-18l-199 494l-54 8v48h224v-48l-73 -9l117 -332l37 -107l30 105l102 335l-78 8v48h208v-48l-56 -7q-157 -461 -177 -509q-40 -104 -81.5 -159.5t-98.5 -69.5
q-17 -4 -43 -4q-28 0 -39 7v72z" />
    <glyph glyph-name="thorn" unicode="&#xfe;" horiz-adv-x="618" 
d="M169 793l19 -8v-286q74 64 163 64q92 0 154.5 -66t62.5 -202q0 -129 -77.5 -219t-198.5 -90q-48 0 -107 11l2 -47l1 -151l101 -10v-39h-258v39l70 11v921l-83 16v40zM316 500q-78 0 -128 -48v-379q14 -38 114 -38q73 0 126 62.5t54 180.5q1 113 -47 167.5t-119 54.5z" />
    <glyph glyph-name="ydieresis" unicode="&#xff;" horiz-adv-x="562" 
d="M179 681q-23 0 -39.5 15t-16.5 39q0 28 20.5 47t46.5 19q29 0 43.5 -15.5t14.5 -39.5q0 -29 -21 -47t-48 -18zM405 681q-23 0 -39.5 14.5t-16.5 39.5q0 28 20.5 47t45.5 19q29 0 43.5 -15.5t14.5 -39.5q0 -29 -20.5 -47t-47.5 -18zM73 -172q18 -5 39 -5q45 0 87.5 37.5
t72.5 135.5h-18l-199 494l-54 8v48h224v-48l-73 -9l117 -332l37 -107l30 105l102 335l-78 8v48h208v-48l-56 -7q-157 -461 -177 -509q-40 -104 -81.5 -159.5t-98.5 -69.5q-17 -4 -43 -4q-28 0 -39 7v72z" />
    <glyph glyph-name="Amacron" unicode="&#x100;" horiz-adv-x="729" 
d="M235 908h259v-68h-259v68zM1 39l70 13l257 707h75l247 -707l79 -13v-39h-252v39l81 13l-55 164h-300l-55 -164l82 -13v-39h-229v39zM485 270l-87 257l-43 136l-134 -393h264z" />
    <glyph glyph-name="amacron" unicode="&#x101;" horiz-adv-x="559" 
d="M145 777h259v-68h-259v68zM274 556q192 0 192 -179l-1 -337h63v-31q-40 -20 -90 -20q-33 0 -43.5 14t-10.5 52q-56 -67 -167 -67q-69 0 -114.5 42.5t-45.5 108.5q0 51 32.5 89.5t83.5 58t103 29t103 9.5v42q0 73 -35.5 101t-101.5 28q-72 0 -147 -40l-16 42
q33 27 92.5 42.5t102.5 15.5zM379 277q-38 0 -75.5 -6t-75 -18.5t-60.5 -38t-23 -60.5q-1 -56 30.5 -82t89.5 -26q32 0 64 14t49 31z" />
    <glyph glyph-name="Abreve" unicode="&#x102;" horiz-adv-x="729" 
d="M523 963q0 -62 -44.5 -106.5t-113.5 -44.5q-72 0 -115 44t-43 107h39q18 -49 47 -68q30 -19 73 -19q15 0 28 2t23.5 7t19 9.5t15.5 12l11.5 12.5t8.5 13.5t6 12t5 11.5l3 7h37zM1 39l70 13l257 707h75l247 -707l79 -13v-39h-252v39l81 13l-55 164h-300l-55 -164l82 -13
v-39h-229v39zM485 270l-87 257l-43 136l-134 -393h264z" />
    <glyph glyph-name="abreve" unicode="&#x103;" horiz-adv-x="559" 
d="M442 831q0 -62 -47 -109t-116 -47q-71 0 -116.5 46.5t-45.5 108.5h43q18 -46 42 -65q31 -24 78 -24q17 0 32 3.5t25.5 8t20 12.5t15 14t11 15.5t7.5 14l5.5 13t3.5 9.5h42zM274 556q192 0 192 -179l-1 -337h63v-31q-40 -20 -90 -20q-33 0 -43.5 14t-10.5 52
q-56 -67 -167 -67q-69 0 -114.5 42.5t-45.5 108.5q0 51 32.5 89.5t83.5 58t103 29t103 9.5v42q0 73 -35.5 101t-101.5 28q-72 0 -147 -40l-16 42q33 27 92.5 42.5t102.5 15.5zM379 277q-38 0 -75.5 -6t-75 -18.5t-60.5 -38t-23 -60.5q-1 -56 30.5 -82t89.5 -26q32 0 64 14
t49 31z" />
    <glyph glyph-name="Aogonek" unicode="&#x104;" horiz-adv-x="729" 
d="M1 39l70 13l257 707h75l247 -707l79 -13v-39h-89q-47 -17 -95.5 -61t-48.5 -78q0 -33 15 -45.5t50 -14.5q39 -2 105 35l11 -41q-73 -56 -165 -52q-49 2 -73 28.5t-24 63.5q0 44 45 91.5t102 73.5h-85v39l81 13l-55 164h-300l-55 -164l82 -13v-39h-229v39zM485 270
l-87 257l-43 136l-134 -393h264z" />
    <glyph glyph-name="aogonek" unicode="&#x105;" horiz-adv-x="559" 
d="M274 556q192 0 192 -179l-1 -337h63v-35q-58 -27 -97.5 -64.5t-39.5 -72.5q0 -63 68 -63q39 0 75 18v-41q-47 -35 -112 -35q-48 0 -80 24t-32 72q0 42 38 84t84 62q-29 1 -38.5 15.5t-9.5 50.5q-56 -67 -167 -67q-69 0 -114.5 42.5t-45.5 108.5q-1 51 31.5 89t84 58
t104 29.5t102.5 9.5v42q0 73 -35.5 101t-101.5 28q-72 0 -147 -40l-16 42q33 27 92.5 42.5t102.5 15.5zM379 277q-38 0 -75.5 -6t-75 -18.5t-60.5 -38t-23 -60.5q-1 -56 30.5 -82t89.5 -26q32 0 64 14t49 31z" />
    <glyph glyph-name="Cacute" unicode="&#x106;" horiz-adv-x="688" 
d="M358 809l148 129l65 -67q-94 -64 -189 -86zM436 765q32 0 66 -4.5t53.5 -9t48 -12t35.5 -9.5l-8 -139h-47l-24 83q-59 38 -152 38q-113 0 -193.5 -89t-80.5 -240q0 -96 31 -173.5t96 -126t153 -48.5q115 0 161 56l25 78h40v-138q-7 0 -87 -22.5t-162 -22.5
q-152 0 -250.5 103.5t-98.5 265.5q0 182 116 296t278 114z" />
    <glyph glyph-name="cacute" unicode="&#x107;" horiz-adv-x="511" 
d="M242 680l147 187l65 -66q-25 -38 -80.5 -78.5t-107.5 -67.5zM317 561q99 4 141 -24v-114h-43l-23 62q-30 23 -84 23q-72 0 -122 -53.5t-51 -151.5q-1 -125 54 -188t128 -63q38 0 80 9t62 23l16 -41q-28 -25 -80 -39t-109 -14q-110 0 -171.5 76t-63.5 197
q-1 132 74.5 212.5t191.5 85.5z" />
    <glyph glyph-name="Ccaron" unicode="&#x10c;" horiz-adv-x="688" 
d="M224 915l40 23l122 -85l125 85l35 -22l-118 -125h-84zM436 765q32 0 66 -4.5t53.5 -9t48 -12t35.5 -9.5l-8 -139h-47l-24 83q-59 38 -152 38q-113 0 -193.5 -89t-80.5 -240q0 -96 31 -173.5t96 -126t153 -48.5q115 0 161 56l25 78h40v-138q-7 0 -87 -22.5t-162 -22.5
q-152 0 -250.5 103.5t-98.5 265.5q0 182 116 296t278 114z" />
    <glyph glyph-name="ccaron" unicode="&#x10d;" horiz-adv-x="511" 
d="M132 845l40 21l137 -136l138 136l35 -21l-130 -193h-86zM317 561q99 4 141 -24v-114h-43l-23 62q-30 23 -84 23q-72 0 -122 -53.5t-51 -151.5q-1 -125 54 -188t128 -63q38 0 80 9t62 23l16 -41q-28 -25 -80 -39t-109 -14q-110 0 -171.5 76t-63.5 197q-1 132 74.5 212.5
t191.5 85.5z" />
    <glyph glyph-name="Dcaron" unicode="&#x10e;" horiz-adv-x="778" 
d="M191 915l40 23l122 -85l125 85l35 -22l-118 -125h-84zM52 39l84 14v652l-82 8v45h126q44 0 100.5 3.5t84.5 3.5q184 1 276 -95t92 -271q0 -188 -109.5 -298t-278.5 -106q-15 0 -71.5 2.5t-91.5 2.5h-130v39zM224 59q66 -15 136 -14q121 3 201 87t80 244q0 170 -80 256.5
t-223 81.5q-68 -1 -114 -9v-646z" />
    <glyph glyph-name="dcaron" unicode="&#x10f;" horiz-adv-x="709" 
d="M583 525l-1 13q17 58 17 119q0 42 -7.5 78t-17.5 47l7 21l70 18q13 -13 22 -46t9 -68q0 -59 -18.5 -118t-43.5 -81zM495 793l21 -11v-742h66v-35q-38 -19 -99 -19q-30 0 -40 12.5t-10 48.5q-21 -22 -65 -40.5t-104 -18.5q-90 0 -152 70.5t-62 205.5q0 129 81 214t200 85
q49 0 98 -15v171l-103 15v40zM321 514q-32 0 -63 -12t-59 -37.5t-45 -71.5t-18 -107q-1 -114 46 -175t116 -61q85 0 131 45v379q-35 40 -108 40z" />
    <glyph glyph-name="Dcroat" unicode="&#x110;" horiz-adv-x="778" 
d="M52 39l84 14v306h-88v66h88v280l-82 8v45h126q44 0 100.5 3.5t84.5 3.5q184 1 276 -95t92 -271q0 -188 -109.5 -298t-278.5 -106q-15 0 -71.5 2.5t-91.5 2.5h-130v39zM224 59q66 -15 136 -14q121 3 201 87t80 244q0 170 -80 256.5t-223 81.5q-68 -1 -114 -9v-280h128v-66
h-128v-300z" />
    <glyph glyph-name="dcroat" unicode="&#x111;" horiz-adv-x="620" 
d="M599 596h-83v-556h66v-35q-38 -19 -99 -19q-30 0 -40 12.5t-10 48.5q-21 -22 -65 -40.5t-104 -18.5q-88 0 -151 67.5t-63 181.5q0 142 78 214t203 72q49 0 98 -15v88h-191v54h191v69l-103 15v40l169 19l21 -11v-132h83v-54zM429 95v339q-35 40 -108 40t-128.5 -51.5
t-56.5 -163.5q-1 -102 46 -155.5t116 -53.5q85 0 131 45z" />
    <glyph glyph-name="Emacron" unicode="&#x112;" horiz-adv-x="644" 
d="M226 908h259v-68h-259v68zM50 39l84 13v653l-82 8v45h507l14 -139h-50l-23 86l-279 6v-289l188 4l13 77h47v-209h-47l-13 77l-188 3v-325l300 9l48 105l43 -11l-22 -152h-540v39z" />
    <glyph glyph-name="emacron" unicode="&#x113;" horiz-adv-x="559" 
d="M165 777h259v-68h-259v68zM319 563q85 1 135.5 -53t54.5 -151q1 -36 -6 -89h-367q0 -102 50 -161t142 -59q40 0 84 9.5t65 22.5l17 -39q-28 -25 -85 -40t-115 -15q-116 0 -180.5 76.5t-64.5 206.5q0 125 75.5 207t194.5 85zM295 514q-63 0 -106.5 -47.5t-51.5 -142.5h280
q8 136 -56 174q-25 16 -66 16z" />
    <glyph glyph-name="Edotaccent" unicode="&#x116;" horiz-adv-x="644" 
d="M356 903q27 0 27 -28q0 -14 -10 -23t-23 -9q-10 0 -18.5 7.5t-8.5 19.5q0 14 10 23.5t23 9.5zM50 39l84 13v653l-82 8v45h507l14 -139h-50l-23 86l-279 6v-289l188 4l13 77h47v-209h-47l-13 77l-188 3v-325l300 9l48 105l43 -11l-22 -152h-540v39z" />
    <glyph glyph-name="edotaccent" unicode="&#x117;" horiz-adv-x="559" 
d="M309 793q29 0 43.5 -15.5t14.5 -40.5q0 -28 -21 -47t-48 -19q-23 0 -40 15.5t-17 40.5q0 27 21.5 46.5t46.5 19.5zM319 563q85 1 135.5 -53t54.5 -151q1 -36 -6 -89h-367q0 -102 50 -161t142 -59q40 0 84 9.5t65 22.5l17 -39q-28 -25 -85 -40t-115 -15
q-116 0 -180.5 76.5t-64.5 206.5q0 125 75.5 207t194.5 85zM295 514q-63 0 -106.5 -47.5t-51.5 -142.5h280q8 136 -56 174q-25 16 -66 16z" />
    <glyph glyph-name="Eogonek" unicode="&#x118;" horiz-adv-x="644" 
d="M50 39l84 13v653l-82 8v45h507l14 -139h-50l-23 86l-279 6v-289l188 4l13 77h47v-209h-47l-13 77l-188 3v-325l300 9l48 105l43 -11l-22 -152h-1q-47 -18 -94.5 -62t-47.5 -77q0 -32 15.5 -45t49.5 -15q37 -2 106 35l9 -41q-73 -56 -164 -52q-48 2 -72.5 28.5t-24.5 63.5
q0 44 44.5 91.5t102.5 73.5h-463v39z" />
    <glyph glyph-name="eogonek" unicode="&#x119;" horiz-adv-x="559" 
d="M319 563q88 1 138.5 -55.5t51.5 -157.5q0 -38 -6 -80h-367q0 -102 50 -161t142 -59q40 0 84 9.5t65 22.5l17 -40q-76 -57 -109.5 -95t-33.5 -70q0 -36 22 -52.5t56 -16.5q35 0 68 15v-41q-40 -31 -105 -31q-51 0 -86.5 25t-35.5 76q0 35 27 75t72 68q-36 -7 -75 -7
q-116 0 -180.5 76.5t-64.5 206.5q0 125 76 207.5t194 84.5zM295 514q-63 0 -106.5 -47.5t-51.5 -142.5h280q1 11 1 31q0 159 -123 159z" />
    <glyph glyph-name="Ecaron" unicode="&#x11a;" horiz-adv-x="644" 
d="M163 915l40 23l122 -85l125 85l35 -22l-118 -125h-84zM50 39l84 13v653l-82 8v45h507l14 -139h-50l-23 86l-279 6v-289l188 4l13 77h47v-209h-47l-13 77l-188 3v-325l300 9l48 105l43 -11l-22 -152h-540v39z" />
    <glyph glyph-name="ecaron" unicode="&#x11b;" horiz-adv-x="559" 
d="M122 845l40 21l137 -136l138 136l35 -21l-130 -193h-86zM319 563q85 1 135.5 -53t54.5 -151q1 -36 -6 -89h-367q0 -102 50 -161t142 -59q40 0 84 9.5t65 22.5l17 -39q-28 -25 -85 -40t-115 -15q-116 0 -180.5 76.5t-64.5 206.5q0 125 75.5 207t194.5 85zM295 514
q-63 0 -106.5 -47.5t-51.5 -142.5h280q8 136 -56 174q-25 16 -66 16z" />
    <glyph glyph-name="Gbreve" unicode="&#x11e;" horiz-adv-x="750" 
d="M566 938q0 -62 -44.5 -107t-113.5 -45q-72 0 -115 44.5t-43 107.5h39q18 -49 47 -68q30 -19 73 -19q15 0 28 2t23.5 7t19 9.5t15.5 12l11.5 12.5t8.5 13.5t6 12t5 10.5l3 8h37zM434 765q42 0 82 -4.5t59.5 -8t49.5 -11.5t31 -8l-7 -139h-49l-23 83q-12 13 -58 24.5
t-113 10.5q-113 -2 -192.5 -91t-79.5 -239q0 -68 16.5 -129t48.5 -110.5t84.5 -78.5t119.5 -29q119 0 167 50v209l-123 7v45h274v-45l-62 -8v-254q-7 0 -107.5 -26.5t-170.5 -26.5q-150 0 -244.5 104t-94.5 265q0 183 114 296.5t278 113.5z" />
    <glyph glyph-name="gbreve" unicode="&#x11f;" horiz-adv-x="587" 
d="M452 831q0 -62 -47 -109t-116 -47q-71 0 -116.5 46.5t-45.5 108.5h43q18 -46 42 -65q31 -24 78 -24q17 0 32 3.5t25.5 8t20 12.5t15 14t11 15.5t7.5 14l5.5 13t3.5 9.5h42zM293 567q87 2 141 -38q22 24 81 24h59v-69l-100 1q25 -41 25 -99q0 -93 -63 -146.5t-154 -53.5
q-58 0 -103 18q-9 -20 -9 -67q0 -29 15 -43.5t51 -16.5q26 -3 125 -3q64 0 106 -14t59.5 -39.5t22.5 -46t5 -49.5q0 -84 -69 -134t-186 -50q-65 0 -115 12t-86 45.5t-36 86.5q0 41 26 78t57 56q-20 7 -32 17t-16 24t-4.5 20.5t-0.5 22.5q0 21 16.5 56t43.5 59
q-81 47 -81 150q0 94 65.5 145.5t156.5 53.5zM281 519q-124 0 -124 -134q0 -67 34.5 -108.5t103.5 -41.5q61 0 89.5 34t28.5 104q0 146 -132 146zM180 10q-34 -36 -34 -96q0 -64 47 -93t117 -29q81 0 127.5 28t46.5 83q0 51 -29.5 75t-116.5 24l-68 1q-58 0 -90 7z" />
    <glyph glyph-name="Gcommaaccent" unicode="&#x122;" horiz-adv-x="750" 
d="M434 765q42 0 82 -4.5t59.5 -8t49.5 -11.5t31 -8l-7 -139h-49l-23 83q-12 13 -58 24.5t-113 10.5q-113 -2 -192.5 -91t-79.5 -239q0 -68 16.5 -129t48.5 -110.5t84.5 -78.5t119.5 -29q119 0 167 50v209l-123 7v45h274v-45l-62 -8v-254q-7 0 -107.5 -26.5t-170.5 -26.5
q-150 0 -244.5 104t-94.5 265q0 183 114 296.5t278 113.5zM381 -25q47 -11 73 -46.5t26 -73.5q1 -59 -39 -107t-80 -61l-25 23v13q26 12 39 44t13 69q0 28 -18 48t-35 20v24z" />
    <glyph glyph-name="gcommaaccent" unicode="&#x123;" horiz-adv-x="587" 
d="M301 645q-47 11 -73 46.5t-26 73.5q-1 59 39 107t80 61l25 -23v-13q-26 -12 -39 -44t-13 -69q0 -28 18 -48t35 -20v-24zM293 567q87 2 141 -38q22 24 81 24h59v-69l-100 1q25 -41 25 -99q0 -93 -63 -146.5t-154 -53.5q-58 0 -103 18q-9 -20 -9 -67q0 -29 15 -43.5
t51 -16.5q26 -3 125 -3q64 0 106 -14t59.5 -39.5t22.5 -46t5 -49.5q0 -84 -69 -134t-186 -50q-65 0 -115 12t-86 45.5t-36 86.5q0 41 26 78t57 56q-20 7 -32 17t-16 24t-4.5 20.5t-0.5 22.5q0 21 16.5 56t43.5 59q-81 47 -81 150q0 94 65.5 145.5t156.5 53.5zM281 519
q-124 0 -124 -134q0 -67 34.5 -108.5t103.5 -41.5q61 0 89.5 34t28.5 104q0 146 -132 146zM180 10q-34 -36 -34 -96q0 -64 47 -93t117 -29q81 0 127.5 28t46.5 83q0 51 -29.5 75t-116.5 24l-68 1q-58 0 -90 7z" />
    <glyph glyph-name="hbar" unicode="&#x127;" horiz-adv-x="686" 
d="M62 39l73 10v547h-83v54h83v68l-83 16v40l148 19l22 -11l-1 -132h91v-54h-91v-34l-2 -81q41 33 97.5 54.5t97.5 21.5q96 0 130.5 -59t33.5 -202v-247l73 -10v-39h-242v39l82 10v210q0 129 -21.5 180.5t-97.5 51.5q-87 0 -150 -45v-397l73 -10v-39h-233v39z" />
    <glyph glyph-name="Itilde" unicode="&#x128;" horiz-adv-x="373" 
d="M-5 856q19 34 57 58t76 24q33 0 70 -32.5t60 -32.5q50 0 91 43l24 -34q-19 -35 -57 -59t-76 -24q-34 0 -71 33.5t-59 33.5q-48 0 -91 -43zM56 39l86 13v654l-84 7v45h255v-45l-83 -7v-654l88 -13v-39h-262v39z" />
    <glyph glyph-name="itilde" unicode="&#x129;" horiz-adv-x="333" 
d="M-20 729q19 34 57.5 59t76.5 25q33 0 70 -34.5t60 -34.5q41 0 91 48l23 -33q-19 -35 -57 -59.5t-76 -24.5q-33 0 -70 34t-60 34q-45 0 -91 -48zM59 39l82 10v410l-68 32v29l131 35l21 -10v-496l79 -10v-39h-245v39z" />
    <glyph glyph-name="Imacron" unicode="&#x12a;" horiz-adv-x="361" 
d="M51 928h259v-68h-259v68zM56 39l86 13v654l-84 7v45h255v-45l-83 -7v-654l88 -13v-39h-262v39z" />
    <glyph glyph-name="imacron" unicode="&#x12b;" horiz-adv-x="333" 
d="M35 777h259v-68h-259v68zM59 39l82 10v410l-68 32v29l131 35l21 -10v-496l79 -10v-39h-245v39z" />
    <glyph glyph-name="Iogonek" unicode="&#x12e;" horiz-adv-x="373" 
d="M230 52l88 -13v-39h-29q-48 -15 -94.5 -59.5t-46.5 -77.5q0 -31 14 -46.5t49 -15.5t67 17l10 -40q-46 -35 -126 -35q-41 0 -69 26t-28 68t46.5 91t106.5 72h-162v39l86 13v654l-84 7v45h255v-45l-83 -7v-654z" />
    <glyph glyph-name="iogonek" unicode="&#x12f;" horiz-adv-x="333" 
d="M164 677q-23 0 -40.5 15.5t-17.5 40.5q0 28 21 47.5t47 19.5q28 0 43 -16t15 -40q0 -30 -20.5 -48.5t-47.5 -18.5zM296 -164l10 -41q-73 -56 -164 -52q-49 2 -73 28.5t-24 63.5q0 44 44.5 91.5t101.5 73.5h-132v39l82 10v410l-68 32v29l131 35l21 -10v-496l79 -10v-39
h-35q-47 -17 -95.5 -61t-48.5 -78q0 -32 15.5 -45t49.5 -15q37 -2 106 35z" />
    <glyph glyph-name="Idotaccent" unicode="&#x130;" horiz-adv-x="373" 
d="M189 903q27 0 27 -28q0 -14 -10 -23t-23 -9q-10 0 -18.5 7.5t-8.5 19.5q0 14 10 23.5t23 9.5zM56 39l86 13v654l-84 7v45h255v-45l-83 -7v-654l88 -13v-39h-262v39z" />
    <glyph glyph-name="dotlessi" unicode="&#x131;" horiz-adv-x="333" 
d="M59 39l82 10v410l-68 32v29l131 35l21 -10v-496l79 -10v-39h-245v39z" />
    <glyph glyph-name="IJ" unicode="&#x132;" horiz-adv-x="724" 
d="M56 39l86 13v654l-84 7v45h255v-45l-83 -7v-654l88 -13v-39h-262v39zM331 -157q124 39 160 128q22 66 22 225v510l-82 7v45h252v-45l-83 -7v-448q0 -14 0.5 -63t0 -67.5t-2.5 -50.5t-7 -55q-18 -88 -85.5 -144t-150.5 -68z" />
    <glyph glyph-name="ij" unicode="&#x133;" horiz-adv-x="650" 
d="M504 809q29 0 43.5 -16t14.5 -41q0 -29 -20.5 -47t-47.5 -18q-24 0 -40.5 15t-16.5 41q0 27 21 46.5t46 19.5zM174 800q28 0 43 -16t15 -40q0 -30 -20.5 -48.5t-47.5 -18.5q-23 0 -40.5 15.5t-17.5 40.5q0 28 21 47.5t47 19.5zM204 555l21 -10v-496l79 -10v-39h-245v39
l82 10v410l-68 32v29zM535 555l21 -10v-553q0 -114 -46.5 -178.5t-127.5 -64.5q-46 0 -53 7v62q13 -5 53 -5q48 0 68.5 40.5t20.5 145.5v460l-70 32v28z" />
    <glyph glyph-name="Jcircumflex" unicode="&#x134;" horiz-adv-x="352" 
d="M227 938l128 -126l-40 -23l-130 87l-134 -87l-35 22l126 127h85zM310 758v-45l-82 -7v-448v-51v-54t-0.5 -44t-3 -47.5t-5.5 -39.5q-18 -88 -86 -144t-151 -68l-24 33q124 38 160 128q22 63 22 225v510l-82 7v45h252z" />
    <glyph glyph-name="jcircumflex" unicode="&#x135;" horiz-adv-x="317" 
d="M3 673l135 193h85l130 -192l-39 -22l-133 137l-143 -137zM138 459l-70 32v28l134 36l21 -10v-553q0 -114 -46.5 -178.5t-127.5 -64.5q-46 0 -53 7v62q12 -5 53 -5q48 0 68.5 40.5t20.5 145.5v460z" />
    <glyph glyph-name="Kcommaaccent" unicode="&#x136;" horiz-adv-x="693" 
d="M52 39l81 13v654l-79 7v45h247v-45l-80 -7v-346l289 345l-76 8l-1 45h238v-45l-79 -8l-234 -267q25 -28 86.5 -126l113.5 -177t67 -79l77 -17v-39h-144q-14 0 -61.5 78.5l-104.5 175t-85 125.5l-86 -98v-229l89 -13v-39h-258v39zM390 -25q47 -11 73 -46.5t26 -73.5
q1 -59 -39 -107t-80 -61l-25 23v13q26 12 39 44t13 69q0 28 -18 48t-35 20v24z" />
    <glyph glyph-name="kcommaaccent" unicode="&#x137;" horiz-adv-x="622" 
d="M56 39l79 10v669l-87 16v40l155 19l19 -11v-429l-3 -86l227 230l-73 6v48h225v-47l-74 -8l-171 -169l210 -278l68 -10v-39h-232v39l69 11l-168 233l-81 -79l3 -101v-55l72 -9v-39h-238v39zM337 -25q47 -11 73 -46.5t26 -73.5q1 -59 -39 -107t-80 -61l-25 23v13
q26 12 39 44t13 69q0 28 -18 48t-35 20v24z" />
    <glyph glyph-name="kgreenlandic" unicode="&#x138;" horiz-adv-x="622" 
d="M56 39l79 10v435l-87 16v40l155 19l19 -11v-204l-3 -77l227 230l-73 6v48h225v-47l-74 -8l-171 -169l210 -278l68 -10v-39h-232v39l69 11l-168 233l-81 -79l3 -101v-55l72 -9v-39h-238v39z" />
    <glyph glyph-name="Lacute" unicode="&#x139;" horiz-adv-x="607" 
d="M153 809l148 129l65 -67q-94 -64 -189 -86zM52 39l84 14v648l-82 8v49h259v-49l-89 -8l-1 -650l272 10l58 118l40 -19l-32 -160h-509v39z" />
    <glyph glyph-name="lacute" unicode="&#x13a;" horiz-adv-x="341" 
d="M116 861l147 187l65 -66q-25 -38 -80.5 -78.5t-107.5 -67.5zM57 39l83 10v669l-79 16v40l147 19l19 -11v-733l86 -10v-39h-256v39z" />
    <glyph glyph-name="Lcommaaccent" unicode="&#x13b;" horiz-adv-x="607" 
d="M52 39l84 14v648l-82 8v49h259v-49l-89 -8l-1 -650l272 10l58 118l40 -19l-32 -160h-509v39zM293 -25q47 -11 73 -46.5t26 -73.5q1 -59 -39 -107t-80 -61l-25 23v13q26 12 39 44t13 69q0 28 -18 48t-35 20v24z" />
    <glyph glyph-name="lcommaaccent" unicode="&#x13c;" horiz-adv-x="341" 
d="M57 39l83 10v669l-79 16v40l147 19l19 -11v-733l86 -10v-39h-256v39zM166 -25q47 -11 73 -46.5t26 -73.5q1 -59 -39 -107t-80 -61l-25 23v13q26 12 39 44t13 69q0 28 -18 48t-35 20v24z" />
    <glyph glyph-name="Lcaron" unicode="&#x13d;" horiz-adv-x="607" 
d="M409 525l-2 13q17 58 17 119q0 42 -7.5 78t-17.5 47l7 21l70 18q14 -13 22.5 -45.5t8.5 -68.5q0 -59 -18.5 -118t-43.5 -81zM52 39l84 14v648l-82 8v49h259v-49l-89 -8l-1 -650l272 10l58 118l40 -19l-32 -160h-509v39z" />
    <glyph glyph-name="lcaron" unicode="&#x13e;" horiz-adv-x="341" 
d="M295 525l-2 13q17 58 17 119q0 42 -7.5 78t-17.5 47l7 21l70 18q14 -13 22.5 -45.5t8.5 -68.5q0 -59 -18.5 -118t-43.5 -81zM57 39l83 10v669l-79 16v40l147 19l19 -11v-733l86 -10v-39h-256v39z" />
    <glyph glyph-name="Ldot" unicode="&#x13f;" horiz-adv-x="680" 
d="M313 758v-49l-89 -8l-1 -650l272 10l58 118l40 -19l-32 -160h-509v39l84 14v648l-82 8v49h259zM596 473q27 -1 40.5 -17t12.5 -40q-1 -28 -21.5 -45t-46.5 -16q-23 1 -38.5 16t-14.5 40q1 26 22 44t46 18z" />
    <glyph glyph-name="ldot" unicode="&#x140;" horiz-adv-x="514" 
d="M208 793l19 -11v-733l86 -10v-39h-256v39l83 10v669l-79 16v40zM436 454q27 -1 40.5 -17t12.5 -39q-1 -28 -21.5 -45.5t-47.5 -16.5q-22 1 -37.5 16t-14.5 40q1 26 22 44t46 18z" />
    <glyph glyph-name="Lslash" unicode="&#x141;" horiz-adv-x="607" 
d="M313 758v-49l-89 -8l-1 -320l180 72l87 35v-72l-267 -103v-262l272 10l58 118l40 -19l-32 -160h-509v39l84 14v226l-90 -35v32v34l90 36v355l-82 8v49h259z" />
    <glyph glyph-name="lslash" unicode="&#x142;" horiz-adv-x="341" 
d="M57 39l83 10v330l-80 -32v62l80 33v276l-79 16v40l147 19l19 -11v-305l92 39v-67l-92 -37v-363l86 -10v-39h-256v39z" />
    <glyph glyph-name="Nacute" unicode="&#x143;" horiz-adv-x="812" 
d="M379 809l148 129l65 -67q-94 -64 -189 -86zM774 758v-48l-82 -9v-701h-94l-329 519l-69 136v-603l97 -13v-39h-246v39l84 13v649l-81 8v49h169l334 -543l70 -133v619l-82 9v48h229z" />
    <glyph glyph-name="nacute" unicode="&#x144;" horiz-adv-x="682" 
d="M298 680l146 187l65 -66q-44 -68 -187 -146zM67 39l68 9v408l-71 35v29l126 35l21 -10v-68q36 30 93.5 54t106.5 26q90 3 126.5 -50.5t36.5 -180.5v-278l78 -9v-39h-239v39l74 10v263q0 99 -25 140.5t-96 38.5q-70 -3 -143 -54v-388l73 -10v-39h-229v39z" />
    <glyph glyph-name="Ncommaaccent" unicode="&#x145;" horiz-adv-x="812" 
d="M774 758v-48l-82 -9v-701h-94l-329 519l-69 136v-603l97 -13v-39h-246v39l84 13v649l-81 8v49h169l334 -543l70 -133v619l-82 9v48h229zM412 -25q47 -11 73 -46.5t26 -73.5q1 -59 -39 -107t-80 -61l-25 23v13q26 12 39 44t13 69q0 28 -18 48t-35 20v24z" />
    <glyph glyph-name="ncommaaccent" unicode="&#x146;" horiz-adv-x="682" 
d="M67 39l68 9v408l-71 35v29l126 35l21 -10v-68q36 30 93.5 54t106.5 26q90 3 126.5 -50.5t36.5 -180.5v-278l78 -9v-39h-239v39l74 10v263q0 99 -25 140.5t-96 38.5q-70 -3 -143 -54v-388l73 -10v-39h-229v39zM340 -25q47 -11 73 -46.5t26 -73.5q1 -59 -39 -107t-80 -61
l-25 23v13q26 12 39 44t13 69q0 28 -18 48t-35 20v24z" />
    <glyph glyph-name="Ncaron" unicode="&#x147;" horiz-adv-x="812" 
d="M256 915l40 23l122 -85l125 85l35 -22l-118 -125h-84zM774 758v-48l-82 -9v-701h-94l-329 519l-69 136v-603l97 -13v-39h-246v39l84 13v649l-81 8v49h169l334 -543l70 -133v619l-82 9v48h229z" />
    <glyph glyph-name="ncaron" unicode="&#x148;" horiz-adv-x="682" 
d="M176 845l40 21l137 -136l138 136l35 -21l-130 -193h-86zM67 39l68 9v408l-71 35v29l126 35l21 -10v-68q36 30 93.5 54t106.5 26q90 3 126.5 -50.5t36.5 -180.5v-278l78 -9v-39h-239v39l74 10v263q0 99 -25 140.5t-96 38.5q-70 -3 -143 -54v-388l73 -10v-39h-229v39z" />
    <glyph glyph-name="Omacron" unicode="&#x14c;" horiz-adv-x="761" 
d="M251 928h259v-68h-259v68zM403 765q144 0 230 -106t84 -271q-3 -186 -101 -294t-245 -108q-148 0 -238 105t-89 270q1 128 51.5 221t134.5 139q77 44 173 44zM384 716q-110 0 -176 -92.5t-66 -255.5q0 -139 66.5 -236t177.5 -97q109 0 171.5 93t62.5 257q0 139 -63 235
t-173 96z" />
    <glyph glyph-name="omacron" unicode="&#x14d;" horiz-adv-x="600" 
d="M157 777h259v-68h-259v68zM311 563q119 1 180.5 -79t60.5 -203q-1 -129 -74 -211t-180 -82q-64 0 -113.5 24t-78 65.5t-42.5 93t-14 111.5q1 127 77.5 203.5t183.5 77.5zM303 514q-81 1 -120.5 -57.5t-39.5 -167.5q0 -68 16.5 -122.5t54 -90.5t90.5 -37q81 -1 118.5 59
t37.5 178q0 106 -39 171.5t-118 66.5z" />
    <glyph glyph-name="Ohungarumlaut" unicode="&#x150;" horiz-adv-x="759" 
d="M243 797l159 201l57 -53q-29 -38 -86.5 -89t-104.5 -84zM481 797l159 201l57 -53q-29 -38 -87 -89t-105 -84zM403 765q144 0 230 -106t84 -271q-3 -186 -101 -294t-245 -108q-148 0 -238 105t-89 270q1 128 51.5 221t134.5 139q77 44 173 44zM384 716q-110 0 -176 -92.5
t-66 -255.5q0 -139 66.5 -236t177.5 -97q109 0 171.5 93t62.5 257q0 139 -63 235t-173 96z" />
    <glyph glyph-name="ohungarumlaut" unicode="&#x151;" horiz-adv-x="601" 
d="M130 680l159 201l57 -53q-29 -38 -86.5 -89t-104.5 -84zM368 680l159 201l57 -53q-29 -38 -87 -89t-105 -84zM311 563q119 1 180.5 -79t60.5 -203q-1 -129 -74 -211t-180 -82q-64 0 -113.5 24t-78 65.5t-42.5 93t-14 111.5q1 127 77.5 203.5t183.5 77.5zM303 514
q-81 1 -120.5 -57.5t-39.5 -167.5q0 -68 16.5 -122.5t54 -90.5t90.5 -37q81 -1 118.5 59t37.5 178q0 106 -39 171.5t-118 66.5z" />
    <glyph glyph-name="OE" unicode="&#x152;" horiz-adv-x="1012" 
d="M393 765q35 1 77 -7h462l14 -139h-49l-23 86l-268 6v-288l185 4l15 77h46v-209h-46l-15 77l-185 3v-326l285 9l47 105l44 -11l-22 -152h-490q-41 -11 -92 -14q-152 -2 -244 105.5t-90 276.5q4 181 103 287t246 110zM384 716q-111 0 -176.5 -92.5t-65.5 -254.5
q0 -139 66.5 -237t177.5 -98q77 0 133 51v576q-58 55 -135 55z" />
    <glyph glyph-name="oe" unicode="&#x153;" horiz-adv-x="995" 
d="M756 563q86 2 136.5 -52.5t53.5 -151.5q1 -36 -6 -89h-367q0 -102 50 -161t142 -59q40 0 84 9.5t65 22.5l17 -39q-28 -25 -85 -40t-115 -15q-157 0 -217 136q-33 -64 -90 -100t-126 -36q-126 0 -188 85t-60 211q2 125 78 201t182 78q154 1 214 -135q35 62 95 97.5
t137 37.5zM304 514q-161 3 -161 -225q0 -105 40.5 -177t118.5 -73q158 -3 158 237q0 68 -15.5 120t-51.5 84.5t-89 33.5zM733 514q-63 0 -107 -47.5t-52 -142.5h280q8 136 -56 174q-25 16 -65 16z" />
    <glyph glyph-name="Racute" unicode="&#x154;" horiz-adv-x="693" 
d="M311 809l148 129l65 -67q-94 -64 -189 -86zM328 765q122 0 188.5 -45.5t66.5 -157.5q0 -76 -45 -133t-120 -81l8 -3q31 -14 66 -61.5t59.5 -96t50.5 -90t42 -45.5l55 -13v-39h-136q-15 0 -44 53t-57.5 116t-70 114t-79.5 48q-27 -1 -88 -1v-278l103 -13v-39h-285v39
l94 14v648l-82 8v49h126q12 0 61.5 3.5t86.5 3.5zM315 716q-73 -2 -91 -8v-326q36 -4 95 -4q83 1 128 44.5t45 129.5q0 82 -41 125t-136 39z" />
    <glyph glyph-name="racute" unicode="&#x155;" horiz-adv-x="451" 
d="M149 680l147 187l65 -66q-25 -38 -80.5 -78.5t-107.5 -67.5zM54 39l81 10v407l-70 35v29l124 35l22 -10v-72q21 29 74.5 56t97.5 27q36 0 48 -3v-92q-45 15 -84 15q-68 0 -124 -37v-389l141 -11v-39h-310v39z" />
    <glyph glyph-name="Rcommaaccent" unicode="&#x156;" horiz-adv-x="693" 
d="M328 765q122 0 188.5 -45.5t66.5 -157.5q0 -76 -45 -133t-120 -81l8 -3q31 -14 66 -61.5t59.5 -96t50.5 -90t42 -45.5l55 -13v-39h-136q-15 0 -44 53t-57.5 116t-70 114t-79.5 48q-27 -1 -88 -1v-278l103 -13v-39h-285v39l94 14v648l-82 8v49h126q12 0 61.5 3.5t86.5 3.5
zM315 716q-73 -2 -91 -8v-326q36 -4 95 -4q83 1 128 44.5t45 129.5q0 82 -41 125t-136 39zM369 -25q47 -11 73 -46.5t26 -73.5q1 -59 -39 -107t-80 -61l-25 23v13q26 12 39 44t13 69q0 28 -18 48t-35 20v24z" />
    <glyph glyph-name="rcommaaccent" unicode="&#x157;" horiz-adv-x="451" 
d="M54 39l81 10v407l-70 35v29l124 35l22 -10v-72q21 29 74.5 56t97.5 27q36 0 48 -3v-92q-45 15 -84 15q-68 0 -124 -37v-389l141 -11v-39h-310v39zM174 -25q47 -11 73 -46.5t26 -73.5q1 -59 -39 -107t-80 -61l-25 23v13q26 12 39 44t13 69q0 28 -18 48t-35 20v24z" />
    <glyph glyph-name="Rcaron" unicode="&#x158;" horiz-adv-x="693" 
d="M178 915l40 23l122 -85l125 85l35 -22l-118 -125h-84zM328 765q122 0 188.5 -45.5t66.5 -157.5q0 -76 -45 -133t-120 -81l8 -3q31 -14 66 -61.5t59.5 -96t50.5 -90t42 -45.5l55 -13v-39h-136q-15 0 -44 53t-57.5 116t-70 114t-79.5 48q-27 -1 -88 -1v-278l103 -13v-39
h-285v39l94 14v648l-82 8v49h126q12 0 61.5 3.5t86.5 3.5zM315 716q-73 -2 -91 -8v-326q36 -4 95 -4q83 1 128 44.5t45 129.5q0 82 -41 125t-136 39z" />
    <glyph glyph-name="rcaron" unicode="&#x159;" horiz-adv-x="451" 
d="M103 845l40 21l137 -136l138 136l35 -21l-130 -193h-86zM54 39l81 10v407l-70 35v29l124 35l22 -10v-72q21 29 74.5 56t97.5 27q36 0 48 -3v-92q-45 15 -84 15q-68 0 -124 -37v-389l141 -11v-39h-310v39z" />
    <glyph glyph-name="Sacute" unicode="&#x15a;" horiz-adv-x="600" 
d="M227 809l148 129l65 -67q-94 -64 -189 -86zM298 -11q-68 0 -133.5 13.5t-89.5 27.5v154h41l28 -98q51 -51 166 -51q64 0 110.5 33.5t46.5 100.5q0 30 -13.5 56t-44.5 50.5t-55 39t-70 39.5l-60.5 33.5t-54 35.5t-47.5 43t-29.5 49.5t-12.5 60.5q0 64 39.5 109t91 62.5
t105.5 17.5q125 0 188 -38v-134h-39l-35 95q-36 32 -121 32q-33 0 -64.5 -11t-57 -42t-25.5 -76q0 -52 43 -89.5t125 -79.5l46 -24.5t42.5 -24.5t43 -28.5t34.5 -30t29.5 -35.5t17 -39.5t7.5 -46.5q0 -103 -71 -153.5t-181 -50.5z" />
    <glyph glyph-name="Scedilla" unicode="&#x15e;" horiz-adv-x="600" 
d="M550 193q0 -99 -65.5 -149.5t-169.5 -54.5q-4 -28 -1 -50q63 1 95 -27t32 -65q0 -47 -34.5 -74.5t-88.5 -29.5q-43 -2 -97 10l1 46q32 -8 58 -8q22 0 36 3t25.5 16.5t11.5 37.5q0 52 -80 52q-5 0 -15 -1t-11 -1q0 39 14 92q-60 4 -113.5 16t-72.5 24v154h41l28 -98
q51 -51 166 -51q64 0 110.5 33.5t46.5 100.5q0 30 -13.5 56t-44.5 50.5t-55 39t-70 39.5l-60.5 33.5t-54 35.5t-47.5 43t-29.5 49.5t-12.5 60.5q0 64 39.5 109t91 62.5t105.5 17.5q125 0 188 -38v-134h-39l-35 95q-36 32 -121 32q-33 0 -64.5 -11t-57 -42t-25.5 -76
q0 -52 43 -89.5t125 -79.5l46 -24.5t42.5 -24.5t43 -28.5t34.5 -30t29.5 -35.5t17 -39.5t7.5 -46.5z" />
    <glyph glyph-name="scedilla" unicode="&#x15f;" horiz-adv-x="512" 
d="M463 152q0 -77 -56.5 -119.5t-146.5 -44.5q-4 -28 -1 -49q63 1 95 -27t32 -65q0 -47 -34.5 -74.5t-88.5 -29.5q-43 -2 -97 10l1 46q32 -8 58 -8q22 0 36 3t25.5 16.5t11.5 37.5q0 52 -80 52q-5 0 -15 -1t-11 -1q0 40 14 93q-70 8 -125 39v110h40l19 -62q46 -39 110 -40
q59 -2 94.5 21.5t35.5 72.5q0 18 -7 32t-24.5 26.5t-29.5 19t-41.5 20l-40.5 18.5q-71 33 -111.5 71.5t-39.5 96.5q1 69 60 107t133 40q91 1 153 -35v-102h-39l-20 56q-31 35 -89 35q-52 0 -83 -21.5t-32 -63.5q0 -10 1.5 -19t7 -17l10 -14.5t14.5 -13.5l16 -11.5
t20.5 -11.5t20.5 -10.5t23 -11t23 -10.5q1 -1 23.5 -11t26 -12t22.5 -12t24 -15t19 -15.5t18.5 -19.5t12 -21t10 -26t2.5 -29z" />
    <glyph glyph-name="Scaron" unicode="&#x160;" horiz-adv-x="600" 
d="M153 915l40 23l122 -85l125 85l35 -22l-118 -125h-84zM298 -11q-68 0 -133.5 13.5t-89.5 27.5v154h41l28 -98q51 -51 166 -51q64 0 110.5 33.5t46.5 100.5q0 30 -13.5 56t-44.5 50.5t-55 39t-70 39.5l-60.5 33.5t-54 35.5t-47.5 43t-29.5 49.5t-12.5 60.5q0 64 39.5 109
t91 62.5t105.5 17.5q125 0 188 -38v-134h-39l-35 95q-36 32 -121 32q-33 0 -64.5 -11t-57 -42t-25.5 -76q0 -52 43 -89.5t125 -79.5l46 -24.5t42.5 -24.5t43 -28.5t34.5 -30t29.5 -35.5t17 -39.5t7.5 -46.5q0 -103 -71 -153.5t-181 -50.5z" />
    <glyph glyph-name="scaron" unicode="&#x161;" horiz-adv-x="499" 
d="M79 845l40 21l137 -136l138 136l35 -21l-130 -193h-85zM79 140h40l18 -62q47 -39 111 -40q58 -2 94 22t36 72q0 18 -7 32t-24.5 26.5t-29.5 19t-41.5 20l-40.5 18.5q-71 33 -112 71.5t-40 96.5q1 69 60.5 107t133.5 40q92 1 153 -35v-102h-39l-20 56q-31 35 -89 35
q-52 0 -83 -21.5t-32 -63.5q0 -9 2 -17.5t4.5 -15t9 -14t11 -12t14.5 -11.5t15.5 -10.5t18.5 -10t19 -9t21.5 -10t20.5 -9.5q81 -38 106 -58q51 -42 51 -103q0 -79 -59 -121.5t-152 -42.5q-97 0 -170 42v110z" />
    <glyph glyph-name="Tcaron" unicode="&#x164;" horiz-adv-x="606" 
d="M154 915l39 23l123 -85l125 85l35 -22l-118 -125h-85zM152 39l122 14v655l-185 -9l-33 -88l-41 -1l12 148h581l-1 -150l-37 -4l-24 95l-184 9v-655l130 -14v-39h-340v39z" />
    <glyph glyph-name="tcaron" unicode="&#x165;" horiz-adv-x="421" 
d="M294 656l-2 13q17 58 17 119q0 42 -7.5 78t-17.5 47l7 21l70 18q14 -13 22.5 -45.5t8.5 -68.5q0 -59 -18.5 -118t-43.5 -81zM215 677v-131h170v-57h-170v-261q0 -112 10 -144t50 -32q26 0 57.5 9t44.5 17l15 -40q-21 -22 -67 -36t-84 -14q-111 0 -111 139v362h-75v34
q10 3 24.5 6t20 4.5t14 4.5t12 6t8 8t8.5 12q6 16 16.5 57t12.5 56h44z" />
    <glyph glyph-name="Umacron" unicode="&#x16a;" horiz-adv-x="770" 
d="M265 908h259v-68h-259v68zM749 758v-45l-76 -8v-373q0 -176 -75.5 -261t-207.5 -85q-159 0 -228.5 82.5t-69.5 252.5q0 65 0.5 193t0.5 192l-77 7v45h252v-45l-87 -8v-387q0 -156 59 -220.5t166 -64.5q199 0 199 299v373l-88 8v45h232z" />
    <glyph glyph-name="umacron" unicode="&#x16b;" horiz-adv-x="631" 
d="M185 777h259v-68h-259v68zM104 483l-50 13v35l120 25l16 -9v-336q0 -88 22 -123.5t87 -35.5q42 0 83.5 20t59.5 38v369l-61 13v38l133 26l13 -8v-508h60v-36q-40 -19 -88 -19q-49 0 -49 40v41q-88 -76 -185 -76q-32 0 -57 6.5t-42 16t-28.5 28t-18 35t-10 44.5t-4.5 49
t-1 56v258z" />
    <glyph glyph-name="Uring" unicode="&#x16e;" horiz-adv-x="770" 
d="M393 938q51 0 87 -33t36 -81q0 -47 -36 -79.5t-87 -32.5t-87 32t-36 80t36 81t87 33zM393 887q-29 0 -49 -18t-20 -45t20 -45.5t49 -18.5q28 0 48.5 18t20.5 45t-20.5 45.5t-48.5 18.5zM749 758v-45l-76 -8v-373q0 -176 -75.5 -261t-207.5 -85q-159 0 -228.5 82.5
t-69.5 252.5q0 65 0.5 193t0.5 192l-77 7v45h252v-45l-87 -8v-387q0 -156 59 -220.5t166 -64.5q199 0 199 299v373l-88 8v45h232z" />
    <glyph glyph-name="uring" unicode="&#x16f;" horiz-adv-x="631" 
d="M309 878q50 0 86 -34t36 -83q0 -48 -36 -82t-86 -34t-86 34t-36 82q0 49 36 83t86 34zM309 828q-28 0 -48 -20t-20 -48t20 -47.5t48 -19.5t48 19.5t20 47.5t-20 48t-48 20zM104 483l-50 13v35l120 25l16 -9v-336q0 -88 22 -123.5t87 -35.5q42 0 83.5 20t59.5 38v369
l-61 13v38l133 26l13 -8v-508h60v-36q-40 -19 -88 -19q-49 0 -49 40v41q-88 -76 -185 -76q-32 0 -57 6.5t-42 16t-28.5 28t-18 35t-10 44.5t-4.5 49t-1 56v258z" />
    <glyph glyph-name="Uhungarumlaut" unicode="&#x170;" horiz-adv-x="770" 
d="M243 797l159 201l57 -53q-29 -38 -86.5 -89t-104.5 -84zM481 797l159 201l57 -53q-29 -38 -87 -89t-105 -84zM749 758v-45l-76 -8v-373q0 -176 -75.5 -261t-207.5 -85q-159 0 -228.5 82.5t-69.5 252.5q0 65 0.5 193t0.5 192l-77 7v45h252v-45l-87 -8v-387
q0 -156 59 -220.5t166 -64.5q199 0 199 299v373l-88 8v45h232z" />
    <glyph glyph-name="uhungarumlaut" unicode="&#x171;" horiz-adv-x="631" 
d="M161 680l159 201l57 -53q-29 -38 -86.5 -89t-104.5 -84zM399 680l159 201l57 -53q-29 -38 -87 -89t-105 -84zM104 483l-50 13v35l120 25l16 -9v-336q0 -88 22 -123.5t87 -35.5q42 0 83.5 20t59.5 38v369l-61 13v38l133 26l13 -8v-508h60v-36q-40 -19 -88 -19
q-49 0 -49 40v41q-88 -76 -185 -76q-32 0 -57 6.5t-42 16t-28.5 28t-18 35t-10 44.5t-4.5 49t-1 56v258z" />
    <glyph glyph-name="Uogonek" unicode="&#x172;" horiz-adv-x="770" 
d="M517 758h232v-45l-76 -8v-373q0 -155 -59 -239t-164 -102q-45 -22 -81.5 -60.5t-36.5 -67.5q0 -31 14 -46.5t49 -15.5t67 17l10 -40q-46 -35 -126 -35q-41 0 -69 26t-28 68q0 37 36 79.5t87 69.5q-149 5 -214.5 87.5t-65.5 247.5q0 65 0.5 193t0.5 192l-77 7v45h252v-45
l-87 -8v-387q0 -156 59 -220.5t166 -64.5q199 0 199 299v373l-88 8v45z" />
    <glyph glyph-name="uogonek" unicode="&#x173;" horiz-adv-x="631" 
d="M509 -15q-43 -25 -77 -60.5t-34 -63.5q0 -32 15.5 -45t49.5 -15q37 -2 106 35l10 -41q-76 -56 -165 -52q-48 2 -72 28.5t-24 63.5q0 44 42.5 90.5t98.5 72.5q-9 9 -9 27v41q-88 -76 -185 -76q-32 0 -57 6.5t-42 16t-28.5 28t-18 35t-10 44.5t-4.5 49t-1 56v258l-50 13v35
l120 25l16 -9v-336q0 -88 22 -123.5t87 -35.5q42 0 83.5 20t59.5 38v369l-61 13v38l133 26l13 -8v-508h60v-36q-33 -16 -78 -19z" />
    <glyph glyph-name="Ydieresis" unicode="&#x178;" horiz-adv-x="660" 
d="M296 812q-24 0 -41 15.5t-17 40.5q0 27 21 46.5t47 19.5q29 0 44 -17q20 17 44 17q28 0 43 -16t15 -40q0 -29 -20.5 -47.5t-47.5 -18.5t-42 17q-20 -17 -46 -17zM433 758h221v-45l-65 -12l-202 -390v-258l104 -14v-39h-292v39l100 14v259l-236 394l-57 7v45h235v-45
l-77 -7l160 -295l25 -51l22 51l145 294l-83 8v45z" />
    <glyph glyph-name="Zacute" unicode="&#x179;" horiz-adv-x="660" 
d="M331 809l148 129l65 -67q-94 -64 -189 -86zM611 758l13 -39l-423 -604l-52 -65l378 18l61 123l45 -10l-35 -181h-539l-13 40l427 606l52 63l-358 -10l-44 -111l-48 8l15 162h521z" />
    <glyph glyph-name="zacute" unicode="&#x17a;" horiz-adv-x="526" 
d="M190 680l147 187l65 -66q-25 -38 -80.5 -78.5t-107.5 -67.5zM479 546l12 -38l-294 -401l-49 -62l274 10l29 84h47l-8 -139h-432l-15 38l35 47l269 370l41 48l-252 -7l-28 -91h-42v141h413z" />
    <glyph glyph-name="Zdotaccent" unicode="&#x17b;" horiz-adv-x="660" 
d="M361 903q27 0 27 -28q0 -14 -10 -23t-23 -9q-10 0 -18.5 7.5t-8.5 19.5q0 14 10 23.5t23 9.5zM611 758l13 -39l-423 -604l-52 -65l378 18l61 123l45 -10l-35 -181h-539l-13 40l427 606l52 63l-358 -10l-44 -111l-48 8l15 162h521z" />
    <glyph glyph-name="zdotaccent" unicode="&#x17c;" horiz-adv-x="526" 
d="M272 793q29 0 43.5 -15.5t14.5 -40.5q0 -28 -21 -47t-48 -19q-23 0 -40 15.5t-17 40.5q0 27 21.5 46.5t46.5 19.5zM479 546l12 -38l-294 -401l-49 -62l274 10l29 84h47l-8 -139h-432l-15 38l35 47l269 370l41 48l-252 -7l-28 -91h-42v141h413z" />
    <glyph glyph-name="Zcaron" unicode="&#x17d;" horiz-adv-x="660" 
d="M198 915l40 23l122 -85l125 85l35 -22l-118 -125h-84zM611 758l13 -39l-423 -604l-52 -65l378 18l61 123l45 -10l-35 -181h-539l-13 40l427 606l52 63l-358 -10l-44 -111l-48 8l15 162h521z" />
    <glyph glyph-name="zcaron" unicode="&#x17e;" horiz-adv-x="526" 
d="M98 845l40 21l137 -136l138 136l35 -21l-130 -193h-86zM479 546l12 -38l-294 -401l-49 -62l274 10l29 84h47l-8 -139h-432l-15 38l35 47l269 370l41 48l-252 -7l-28 -91h-42v141h413z" />
    <glyph glyph-name="florin" unicode="&#x192;" horiz-adv-x="519" 
d="M196 482h-109l3 35l111 26l3 44q8 102 77.5 169.5t138.5 67.5q53 0 69 -9l-5 -77q-23 16 -86 16q-47 0 -73 -25.5t-31 -104.5l-7 -81h151l-4 -61h-151l-50 -656h-87z" />
    <glyph glyph-name="Scommaaccent" unicode="&#x218;" horiz-adv-x="600" 
d="M298 -11q-68 0 -133.5 13.5t-89.5 27.5v154h41l28 -98q51 -51 166 -51q64 0 110.5 33.5t46.5 100.5q0 30 -13.5 56t-44.5 50.5t-55 39t-70 39.5l-60.5 33.5t-54 35.5t-47.5 43t-29.5 49.5t-12.5 60.5q0 64 39.5 109t91 62.5t105.5 17.5q125 0 188 -38v-134h-39l-35 95
q-36 32 -121 32q-33 0 -64.5 -11t-57 -42t-25.5 -76q0 -52 43 -89.5t125 -79.5l46 -24.5t42.5 -24.5t43 -28.5t34.5 -30t29.5 -35.5t17 -39.5t7.5 -46.5q0 -103 -71 -153.5t-181 -50.5zM283 -36q47 -11 73 -46.5t26 -73.5q1 -59 -39 -107t-80 -61l-25 23v13q26 12 39 44
t13 69q0 28 -18 48t-35 20v24z" />
    <glyph glyph-name="scommaaccent" unicode="&#x219;" horiz-adv-x="512" 
d="M81 140h40l19 -62q46 -39 110 -40q59 -2 94.5 21.5t35.5 72.5q0 18 -7 32t-24.5 26.5t-29.5 19t-41.5 20l-40.5 18.5q-71 33 -111.5 71.5t-39.5 96.5q1 69 60 107t133 40q91 1 153 -35v-102h-39l-20 56q-31 35 -89 35q-52 0 -83 -21.5t-32 -63.5q0 -10 1.5 -19t7 -17
l10 -14.5t14.5 -13.5l16 -11.5t20.5 -11.5t20.5 -10.5t23 -11t23 -10.5q1 -1 23.5 -11t26 -12t22.5 -12t24 -15t19 -15.5t18.5 -19.5t12 -21t10 -26t2.5 -29q0 -79 -59.5 -121.5t-152.5 -42.5q-97 0 -170 42v110zM241 -37q47 -11 73 -46.5t26 -73.5q1 -59 -39 -107t-80 -61
l-25 23v13q26 12 39 44t13 69q0 28 -18 48t-35 20v24z" />
    <glyph glyph-name="uni021A" unicode="&#x21a;" horiz-adv-x="620" 
d="M152 39l122 14v655l-185 -9l-33 -88l-41 -1l12 148h581l-1 -150l-37 -4l-24 95l-184 9v-655l130 -14v-39h-340v39zM303 -25q47 -11 73 -46.5t26 -73.5q1 -59 -39 -107t-80 -61l-25 23v13q26 12 39 44t13 69q0 28 -18 48t-35 20v24z" />
    <glyph glyph-name="uni021B" unicode="&#x21b;" horiz-adv-x="421" 
d="M215 677v-131h170v-57h-170v-261q0 -112 10 -144t50 -32q26 0 57.5 9t44.5 17l15 -40q-21 -22 -67 -36t-84 -14q-111 0 -111 139v362h-75v34q10 3 24.5 6t20 4.5t14 4.5t12 6t8 8t8.5 12q6 16 16.5 57t12.5 56h44zM220 -25q47 -11 73 -46.5t26 -73.5q1 -59 -39 -107
t-80 -61l-25 23v13q26 12 39 44t13 69q0 28 -18 48t-35 20v24z" />
    <glyph glyph-name="uni0237" unicode="&#x237;" horiz-adv-x="317" 
d="M138 459l-70 32v28l134 36l21 -10v-553q0 -114 -46.5 -178.5t-127.5 -64.5q-46 0 -53 7v62q12 -5 53 -5q48 0 68.5 40.5t20.5 145.5v460z" />
    <glyph glyph-name="circumflex" unicode="&#x2c6;" horiz-adv-x="519" 
d="M82 673l135 193h85l130 -192l-39 -22l-134 137l-142 -137z" />
    <glyph glyph-name="caron" unicode="&#x2c7;" horiz-adv-x="519" 
d="M82 845l40 21l137 -136l138 136l35 -21l-130 -193h-86z" />
    <glyph glyph-name="breve" unicode="&#x2d8;" horiz-adv-x="519" 
d="M422 831q0 -62 -47 -109t-116 -47q-71 0 -116.5 46.5t-45.5 108.5h43q18 -46 42 -65q31 -24 78 -24q17 0 32 3.5t25.5 8t20 12.5t15 14t11 15.5t7.5 14l5.5 13t3.5 9.5h42z" />
    <glyph glyph-name="dotaccent" unicode="&#x2d9;" horiz-adv-x="270" 
d="M139 793q29 0 43.5 -15.5t14.5 -40.5q0 -28 -21 -47t-48 -19q-23 0 -40 15.5t-17 40.5q0 27 21.5 46.5t46.5 19.5z" />
    <glyph glyph-name="ring" unicode="&#x2da;" horiz-adv-x="279" 
d="M139 878q50 0 86 -34t36 -83q0 -48 -36 -82t-86 -34t-86 34t-36 82q0 49 36 83t86 34zM139 828q-28 0 -48 -20t-20 -48t20 -47.5t48 -19.5t48 19.5t20 47.5t-20 48t-48 20z" />
    <glyph glyph-name="ogonek" unicode="&#x2db;" horiz-adv-x="346" 
d="M154 4l42 -4q-47 -17 -95 -61t-48 -78q0 -32 15.5 -45t49.5 -15q37 -2 106 35l10 -41q-76 -56 -165 -52q-48 2 -72 28.5t-24 63.5q0 44 44.5 92t101.5 73z" />
    <glyph glyph-name="tilde" unicode="&#x2dc;" horiz-adv-x="433" 
d="M27 729q19 34 57.5 59t76.5 25q33 0 70 -34.5t60 -34.5q41 0 91 48l23 -33q-19 -35 -57 -59.5t-76 -24.5q-33 0 -70 34t-60 34q-45 0 -91 -48z" />
    <glyph glyph-name="hungarumlaut" unicode="&#x2dd;" horiz-adv-x="437" 
d="M91 680l159 201l57 -53q-29 -38 -86.5 -89t-104.5 -84zM329 680l159 201l57 -53q-29 -38 -87 -89t-105 -84z" />
    <glyph glyph-name="uni0326" unicode="&#x326;" 
d="M-165 -25q47 -11 73 -46.5t26 -73.5q1 -59 -39 -107t-80 -61l-25 23v13q26 12 39 44t13 69q0 28 -18 48t-35 20v24z" />
    <glyph glyph-name="Omega" unicode="&#x3a9;" horiz-adv-x="951" 
d="M69 172l45 4l16 -94h170q-71 45 -124 131t-52 187q4 174 104.5 266t242.5 92q147 0 237.5 -90.5t87.5 -250.5q-2 -88 -55 -184t-120 -151h174l34 107l44 -3l-21 -186h-326v74q78 47 125 137t47 206q0 146 -67.5 224.5t-166.5 78.5q-110 0 -176.5 -82.5t-66.5 -236.5
q0 -110 56 -198t127 -128v-75h-335v172z" />
    <glyph glyph-name="mu" unicode="&#x3bc;" horiz-adv-x="691" 
d="M214 -186h-85v669l-50 13v35l119 25l16 -9v-335q0 -87 22.5 -123.5t86.5 -36.5q43 0 84.5 20t58.5 38v369l-61 13v38l133 26l14 -8v-508h59v-36q-40 -19 -87 -19q-49 0 -49 40v41q-88 -76 -185 -76q-46 0 -76 12v-188z" />
    <glyph glyph-name="pi" unicode="&#x3c0;" horiz-adv-x="777" 
d="M700 599q-5 -64 -47 -101.5t-107 -39.5l-16 -331q0 -53 24 -53q22 0 44.5 16t31.5 40h50q-12 -47 -55 -94t-95 -47q-29 0 -44 22t-16 53.5t0 67.5q9 152 21 326l-192 1q-1 -36 -5 -126.5t-5 -125.5q-6 -80 -19 -116t-46 -67q-26 -23 -66 -36l-65 63q9 1 31 10t39 22
q38 26 52.5 59.5t17.5 89.5q2 34 6.5 118t5.5 109h-32q-30 0 -55.5 -14t-34.5 -36l-48 5q0 28 10 47q45 85 145 85l325 -1q72 0 98 54h47z" />
    <glyph glyph-name="uni0901" unicode="&#x901;" 
d="M-160 1036l74 -73l-73 -74l-73 74zM-330 913q76 -105 160 -105q60 0 106.5 29t71.5 67l57 -53q-40 -50 -86.5 -77.5t-113.5 -26.5q-74 0 -130.5 45t-93.5 106z" />
    <glyph glyph-name="uni0902" unicode="&#x902;" 
d="M-154 869l74 -73l-73 -74l-73 73z" />
    <glyph glyph-name="uni0903" unicode="&#x903;" horiz-adv-x="307" 
d="M151 507l73 -73l-72 -74l-74 73zM151 171l73 -73l-72 -74l-74 73z" />
    <glyph glyph-name="uni0904" unicode="&#x904;" horiz-adv-x="811" 
d="M811 593v-13h-112v-612h-15l-63 35v253h-1q-31 -18 -69 -18q-58 0 -119 44l-4 -2q32 -48 32 -105q0 -67 -43 -108t-113 -41q-56 0 -106 23.5t-87.5 64.5t-59.5 73.5t-45 74.5l32 21q43 -74 105.5 -130t127.5 -56q52 0 85.5 32t33.5 79q0 68 -56 114q-57 -17 -122 -23
l-31 56l9 22q91 7 130 30q58 35 57 94q-1 35 -32.5 62.5t-68.5 27.5q-68 0 -144 -65l-40 76q28 20 78 40.5t76 20.5q64 -2 127 -65t63 -134t-60 -121q74 -37 137 -37q56 0 108 36v238h-138l-27 51v14h176q7 17 7 33q0 45 -25.5 77t-84.5 32q-21 0 -87.5 -7t-95.5 -7
q-84 0 -148 38t-64 77q0 42 21 92l46 -7q-16 -44 -16 -68q0 -28 23.5 -42.5t63.5 -14.5q19 0 120 7.5t122 7.5q75 0 129 -63q46 -57 46 -104q0 -16 -7 -51h101z" />
    <glyph glyph-name="uni0905" unicode="&#x905;" horiz-adv-x="811" 
d="M811 593v-13h-112v-612h-15l-63 35v253h-1q-31 -18 -69 -18q-58 0 -119 44l-4 -2q32 -48 32 -105q0 -67 -43 -108t-113 -41q-56 0 -106 23.5t-87.5 64.5t-59.5 73.5t-45 74.5l32 21q43 -74 105.5 -130t127.5 -56q52 0 85.5 32t33.5 79q0 68 -56 114q-57 -17 -122 -23
l-31 56l9 22q91 7 130 30q58 35 57 94q-1 35 -32.5 62.5t-68.5 27.5q-68 0 -144 -65l-40 76q28 20 78 40.5t76 20.5q64 -2 127 -65t63 -134t-60 -121q74 -37 137 -37q56 0 108 36v238h-141l-27 51v14h330z" />
    <glyph glyph-name="uni0906" unicode="&#x906;" horiz-adv-x="1111" 
d="M1111 593v-13h-111v-612h-15l-63 35v577h-223v-612h-15l-63 35v253h-1q-31 -18 -69 -18q-58 0 -119 44l-4 -2q32 -48 32 -105q0 -67 -43 -108t-113 -41q-56 0 -106 23.5t-87.5 64.5t-59.5 73.5t-45 74.5l32 21q43 -74 105.5 -130t127.5 -56q52 0 85.5 32t33.5 79
q0 68 -56 114q-57 -17 -122 -23l-31 56l9 22q91 7 130 30q58 35 57 94q-1 35 -32.5 62.5t-68.5 27.5q-68 0 -144 -65l-40 76q28 20 78 40.5t76 20.5q64 -2 127 -65t63 -134t-60 -121q74 -37 137 -37q56 0 108 36v238h-141l-27 51v14h631z" />
    <glyph glyph-name="uni0907" unicode="&#x907;" horiz-adv-x="504" 
d="M194 422q-32 0 -45.5 -21.5t-13.5 -49.5q0 -23 15 -42.5t30 -19.5q27 0 80 14.5t70 14.5q41 0 73 -53t32 -109q0 -54 -57.5 -96t-136.5 -48l90 -136l-59 -29l-81 166q-48 6 -88 24t-40 47q0 30 22.5 51t45.5 21q9 0 15 -2l51 -77q83 4 137.5 30.5t54.5 75.5q0 23 -8.5 44
t-19.5 26q-15 0 -66 -14.5t-78 -14.5q-38 0 -87.5 53t-49.5 99q0 53 24.5 84t67.5 31h146v89h-322l-26 51v14h511l28 -52v-13h-113v-158h-202z" />
    <glyph glyph-name="uni0908" unicode="&#x908;" horiz-adv-x="504" 
d="M377 645h104l28 -52v-13h-113v-158h-202q-32 0 -45.5 -21.5t-13.5 -49.5q0 -23 15 -42.5t30 -19.5q27 0 80 14.5t70 14.5q41 0 73 -53t32 -109q0 -54 -57.5 -96t-136.5 -48l90 -136l-59 -29l-81 166q-48 6 -88 24t-40 47q0 30 22.5 51t45.5 21q9 0 15 -2l51 -77
q83 4 137.5 30.5t54.5 75.5q0 23 -8.5 44t-19.5 26q-15 0 -66 -14.5t-78 -14.5q-38 0 -87.5 53t-49.5 99q0 53 24.5 84t67.5 31h146v89h-322l-26 51v14h344v2q-112 92 -112 187q0 61 48 100t113 39q83 0 154 -69l-25 -39q-58 42 -115 42q-40 0 -67 -25t-27 -71q0 -42 28 -88
t66 -78z" />
    <glyph glyph-name="uni0909" unicode="&#x909;" horiz-adv-x="588" 
d="M588 593v-13h-200q80 -85 80 -144q0 -65 -60 -106q117 -89 117 -177q-1 -59 -45.5 -107t-113.5 -47q-48 0 -95 20t-82.5 48t-69.5 67t-54.5 69t-38.5 61l33 24q43 -78 123 -148t151 -71q54 0 88 33t34 77q1 65 -94 128q-35 -11 -68 -11q-43 0 -81 12l-28 62l7 15
q53 -8 78 -8q64 0 100.5 25t35.5 67q0 54 -83 111h-326l-26 51v14h591z" />
    <glyph glyph-name="uni090A" unicode="&#x90a;" horiz-adv-x="840" 
d="M840 593v-13h-452q80 -85 80 -144q0 -65 -60 -106q28 -21 49 -42q123 100 192 100q50 0 93 -49t43 -117q0 -39 -17 -95t-40 -95l-82 44q90 107 90 170q0 37 -20.5 56t-52.5 19q-61 0 -157 -96q19 -36 19 -72q-1 -59 -45.5 -107t-113.5 -47q-48 0 -95 20t-82.5 48
t-69.5 67t-54.5 69t-38.5 61l33 24q43 -78 123 -148t151 -71q54 0 88 33t34 77q1 65 -94 128q-35 -11 -68 -11q-43 0 -81 12l-28 62l7 15q53 -8 78 -8q64 0 100.5 25t35.5 67q0 54 -83 111h-326l-26 51v14h842z" />
    <glyph glyph-name="uni090B" unicode="&#x90b;" horiz-adv-x="856" 
d="M828 645l28 -52v-13h-383v-248q83 -3 134 33l-33 76q7 7 23 14t31 7q32 0 53.5 -18.5t21.5 -48.5q0 -31 -25 -58l75 -171q-54 -28 -79.5 -52.5t-24.5 -52.5q0 -21 18 -37.5t50 -16.5q49 0 95 26l44 -65q-49 -27 -94 -27q-60 0 -116 45.5t-56 100.5q0 66 90 119l-45 100
q-77 -44 -162 -33v-305h-14l-65 36l3 226l-2 3l-261 -198l-54 60l314 215q-83 76 -178 76q-44 1 -139 -34l-42 75q89 34 148 34q88 -1 213 -97v216h-400l-26 51v14h858z" />
    <glyph glyph-name="uni090C" unicode="&#x90c;" horiz-adv-x="739" 
d="M712 645l27 -52v-13h-190v-155q51 -17 91.5 -58.5t40.5 -90.5q0 -41 -26.5 -84t-58 -72t-58 -62t-26.5 -58q0 -24 17.5 -39t46.5 -15q54 0 123 77l54 -53q-79 -72 -152 -72q-49 0 -105.5 40t-55.5 93q0 26 26 58.5t57.5 60.5t58 70.5t26.5 85.5q0 36 -27 57t-51 21
q-111 0 -161 -221l-77 36q14 63 47 120q-25 26 -58 43.5t-60 17.5q-44 0 -73 -31.5t-29 -81.5q0 -53 19.5 -108t38 -85t47.5 -70l-34 -20q-141 187 -141 317q0 64 40 106.5t99 42.5q46 0 93 -27t82 -68q47 63 108 75v150h-475l-26 51v14h742z" />
    <glyph glyph-name="uni090D" unicode="&#x90d;" horiz-adv-x="582" 
d="M298 747q-74 0 -130.5 45t-93.5 106l30 15q76 -105 159 -105q60 0 106.5 29t71.5 67l57 -53q-40 -50 -86.5 -77.5t-113.5 -26.5zM529 -13q69 -46 92.5 -71.5t22.5 -52.5q-1 -29 -21 -45.5t-50 -16.5q-46 0 -66 45v2l53 58l-361 243q-64 43 -83 68.5t-19 61.5v301h-101
l-26 51v14h584l28 -52v-13h-101v-239q0 -115 -99 -148l-58 39v11q39 17 59.5 35t20.5 48v254h-229v-312q0 -23 10 -39t39 -35z" />
    <glyph glyph-name="uni090E" unicode="&#x90e;" horiz-adv-x="582" 
d="M-59 980l46 -7q-15 -47 -15 -68q0 -28 23.5 -42.5t62.5 -14.5q19 0 120 7.5t122 7.5q76 0 128 -63q48 -55 48 -104q0 -23 -8 -51h86l28 -52v-13h-101v-239q0 -115 -99 -148l-58 39v11q39 17 59.5 35t20.5 48v254h-229v-312q0 -23 10 -39t39 -35l305 -207
q69 -46 92.5 -71.5t22.5 -52.5q-1 -29 -21 -45.5t-50 -16.5q-46 0 -66 45v2l53 58l-361 243q-64 43 -83 68.5t-19 61.5v301h-101l-26 51v14h448q8 16 8 33q0 45 -25.5 77t-85.5 32q-21 0 -87 -7t-95 -7q-84 0 -148.5 38t-64.5 77q0 35 21 92z" />
    <glyph glyph-name="uni090F" unicode="&#x90f;" horiz-adv-x="582" 
d="M529 -13q69 -46 92.5 -71.5t22.5 -52.5q-1 -29 -21 -45.5t-50 -16.5q-46 0 -66 45v2l53 58l-361 243q-64 43 -83 68.5t-19 61.5v301h-101l-26 51v14h584l28 -52v-13h-101v-239q0 -115 -99 -148l-58 39v11q39 17 59.5 35t20.5 48v254h-229v-312q0 -23 10 -39t39 -35z" />
    <glyph glyph-name="uni0910" unicode="&#x910;" horiz-adv-x="582" 
d="M529 -13q69 -46 92.5 -71.5t22.5 -52.5q-1 -29 -21 -45.5t-50 -16.5q-46 0 -66 45v2l53 58l-361 243q-64 43 -83 68.5t-19 61.5v301h-101l-26 51v14h432q-34 79 -52 106q-86 158 -113 172l-117 -35q-34 26 -34 68q0 28 18.5 44t50.5 16q67 0 118 -55.5t106 -161.5
q48 -89 77 -154h98l28 -52v-13h-101v-239q0 -115 -99 -148l-58 39v11q39 17 59.5 35t20.5 48v254h-229v-312q0 -23 10 -39t39 -35z" />
    <glyph glyph-name="uni0911" unicode="&#x911;" horiz-adv-x="1111" 
d="M1123 904l57 -53q-40 -50 -86.5 -77.5t-113.5 -26.5q-74 0 -130.5 45t-93.5 106l29 15q76 -105 160 -105q60 0 106.5 29t71.5 67zM453 645h631l27 -52v-13h-111v-612h-15l-63 35v577h-223v-612h-15l-63 35v253h-1q-31 -18 -69 -18q-58 0 -119 44l-4 -2q32 -48 32 -105
q0 -67 -43 -108t-113 -41q-56 0 -106 23.5t-87.5 64.5t-59.5 73.5t-45 74.5l32 21q43 -74 105.5 -130t127.5 -56q52 0 85.5 32t33.5 79q0 68 -56 114q-57 -17 -122 -23l-31 56l9 22q91 7 130 30q58 35 57 94q-1 35 -32.5 62.5t-68.5 27.5q-68 0 -144 -65l-40 76
q28 20 78 40.5t76 20.5q64 -2 127 -65t63 -134t-60 -121q74 -37 137 -37q56 0 108 36v238h-141l-27 51v14z" />
    <glyph glyph-name="uni0912" unicode="&#x912;" horiz-adv-x="1111" 
d="M455 980l46 -7q-15 -47 -15 -68q0 -28 23.5 -42.5t62.5 -14.5q20 0 120.5 7.5t121.5 7.5q77 0 129 -63q48 -59 48 -104q0 -20 -9 -51h102l27 -52v-13h-112v-612h-14l-63 35l1 577h-224v-612h-15l-63 35v253h-2q-30 -18 -68 -18q-58 0 -119 44l-4 -2q32 -53 32 -105
q0 -67 -43 -108t-113 -41q-56 0 -106 23.5t-87.5 64.5t-59.5 73.5t-45 74.5l32 21q43 -74 105.5 -130t127.5 -56q52 0 85.5 32t33.5 79q0 31 -15.5 62t-40.5 52q-49 -16 -122 -23l-31 56l9 22q91 7 130 30q58 35 57 94q-1 35 -32.5 62.5t-68.5 27.5q-68 0 -144 -65l-40 76
q28 20 78 40.5t76 20.5q64 -2 127 -65t63 -134q0 -35 -17 -67.5t-44 -53.5q76 -37 138 -37q57 0 108 37v237h-141l-27 51v14h479q8 16 8 33q0 45 -25.5 77t-85.5 32q-20 0 -86.5 -7t-95.5 -7q-84 0 -148.5 38t-64.5 77q0 26 21 92z" />
    <glyph glyph-name="uni0913" unicode="&#x913;" horiz-adv-x="1111" 
d="M1111 593v-13h-111v-612h-15l-63 35v577h-223v-612h-15l-63 35v253h-1q-31 -18 -69 -18q-58 0 -119 44l-4 -2q32 -48 32 -105q0 -67 -43 -108t-113 -41q-56 0 -106 23.5t-87.5 64.5t-59.5 73.5t-45 74.5l32 21q43 -74 105.5 -130t127.5 -56q52 0 85.5 32t33.5 79
q0 68 -56 114q-57 -17 -122 -23l-31 56l9 22q91 7 130 30q58 35 57 94q-1 35 -32.5 62.5t-68.5 27.5q-68 0 -144 -65l-40 76q28 20 78 40.5t76 20.5q64 -2 127 -65t63 -134t-60 -121q74 -37 137 -37q56 0 108 36v238h-141l-27 51v14h468q-34 79 -52 106q-86 158 -113 172
l-117 -35q-34 26 -34 68q0 28 18.5 44t50.5 16q67 0 118 -55.5t106 -161.5q48 -89 77 -154h109z" />
    <glyph glyph-name="uni0914" unicode="&#x914;" horiz-adv-x="1111" 
d="M1111 593v-13h-111v-612h-15l-63 35v577h-223v-612h-15l-63 35v253h-1q-31 -18 -69 -18q-58 0 -119 44l-4 -2q32 -48 32 -105q0 -67 -43 -108t-113 -41q-56 0 -106 23.5t-87.5 64.5t-59.5 73.5t-45 74.5l32 21q43 -74 105.5 -130t127.5 -56q52 0 85.5 32t33.5 79
q0 68 -56 114q-57 -17 -122 -23l-31 56l9 22q91 7 130 30q58 35 57 94q-1 35 -32.5 62.5t-68.5 27.5q-68 0 -144 -65l-40 76q28 20 78 40.5t76 20.5q64 -2 127 -65t63 -134t-60 -121q74 -37 137 -37q56 0 108 36v238h-141l-27 51v14h439q-33 44 -68 83.5t-47 45.5l-138 -18
h-2q-27 22 -27 55q0 25 17.5 40.5t45.5 15.5q115 0 255 -222h29q-20 51 -49 112q-82 160 -122 195l-128 -37h-2q-33 27 -33 68q0 28 18.5 44t49.5 16q40 0 75 -18.5t64 -54t50.5 -73.5t45.5 -90q40 -91 66 -162h92z" />
    <glyph glyph-name="uni0915" unicode="&#x915;" horiz-adv-x="841" 
d="M841 580h-362v-225q78 74 146 74q78 0 120.5 -52t42.5 -140q0 -42 -22 -103t-47 -99l-61 63q28 32 54.5 78t26.5 87q0 42 -26.5 71t-64.5 29q-67 0 -169 -96v-299h-15l-65 36l4 193l-1 1q-32 -27 -51 -40.5t-53 -27t-70 -13.5q-74 0 -123.5 47t-49.5 129q0 66 43.5 115.5
t111.5 49.5q110 0 191 -119v241h-405l-26 51v14h843l28 -52v-13zM199 186q102 0 202 96v4q-28 38 -72.5 66t-89.5 28q-52 0 -94.5 -29.5t-42.5 -80.5q0 -38 29.5 -61t67.5 -23z" />
    <glyph glyph-name="uni0916" unicode="&#x916;" horiz-adv-x="839" 
d="M816 645l28 -52v-13h-116v-612h-15l-65 36l3 68q-45 -28 -107 -48.5t-115 -20.5q-128 0 -295 185q-40 44 -56.5 71t-16.5 52q0 21 15 40t32 28l53 -42q27 41 27 110q0 67 -11 133h-180l-27 51v14h846zM428 65q53 0 116 25t108 64l-1 96v1l-48 -38t-47 -26.5t-61 -14.5
q-69 0 -118 46t-49 112q0 71 45.5 115t113.5 44q85 0 161 -83h2v174h-407q17 -90 17 -174q0 -64 -24.5 -106t-67.5 -81q27 -32 59.5 -62t90 -61t110.5 -31zM650 345q-24 34 -62 53.5t-76 19.5q-57 0 -97 -33.5t-40 -80.5q0 -28 25.5 -48t67.5 -20q44 0 94.5 32t87.5 77z" />
    <glyph glyph-name="uni0917" unicode="&#x917;" horiz-adv-x="612" 
d="M584 645l28 -52v-13h-112v-612h-15l-64 35l1 577h-209q12 -182 12 -290q0 -16 -2.5 -31t-9.5 -32.5t-23 -28t-39 -10.5q-51 0 -79 38.5t-28 76.5q0 25 5 37l97 -13l8 253h-158l-26 51v14h614z" />
    <glyph glyph-name="uni0918" unicode="&#x918;" horiz-adv-x="650" 
d="M641 645l28 -52v-13h-111v-612h-15l-64 36l2 184l-3 2q-106 -86 -183 -86q-73 0 -120 37q-74 56 -74 118q0 41 21 79t57 62q-57 26 -85.5 52t-28.5 73q0 25 10 55h-79l-26 51v14h671zM254 170q53 0 119 40.5t107 95.5v274h-312q-31 -28 -31 -73q0 -33 38 -57t71 -25
q3 0 9 0.5t9 0.5q61 0 85 -11l17 -39l-8 -21q-29 8 -66 8q-58 -1 -91.5 -42t-33.5 -88q0 -32 27 -47.5t60 -15.5z" />
    <glyph glyph-name="uni0919" unicode="&#x919;" horiz-adv-x="701" 
d="M673 645l28 -52v-13h-247v-181h-220q-75 0 -75 -77q0 -22 16 -42t33 -20q32 0 98 20.5t98 20.5q41 0 77.5 -54t36.5 -108q0 -69 -39.5 -112t-111.5 -43q-168 0 -337 190l33 30q140 -152 270 -152q55 0 94 27.5t39 79.5q0 23 -11 44t-25 28q-41 0 -95.5 -20t-85.5 -20
q-44 0 -97 52t-53 106q0 55 29.5 87t75.5 32h171v112h-379l-26 51v14h703zM610 420l74 -73l-73 -75l-73 74z" />
    <glyph glyph-name="uni091A" unicode="&#x91a;" horiz-adv-x="658" 
d="M630 645l28 -52v-13h-112v-612h-14l-65 35l2 166l-2 1q-87 -68 -164 -68q-76 0 -122 46q-57 57 -57 119q0 54 40 100h-102l-27 52v14h339l27 -51v-15h-110q-49 -7 -77 -43.5t-28 -81.5q0 -36 26.5 -62.5t59.5 -26.5q46 0 104 38.5t92 82.5v306h-472l-26 51v14h660z" />
    <glyph glyph-name="uni091B" unicode="&#x91b;" horiz-adv-x="788" 
d="M788 580h-213v-111q49 -18 82.5 -59t33.5 -105t-33 -125q51 -28 79 -61.5t29 -83.5q0 -37 -21 -91.5t-47 -96.5l-62 61q79 86 79 141q0 26 -21.5 46.5t-63.5 42.5q-51 -69 -131 -111.5t-164 -43.5q-70 0 -143.5 58.5t-73.5 105.5q0 49 38 89q-52 33 -75.5 58.5
t-23.5 63.5q0 44 38 79.5t92 35.5q52 0 84 -15l30 -71q-45 23 -96 25q-33 0 -58 -19.5t-25 -54.5q0 -27 27 -46.5t55 -22.5q29 13 58 13q46 0 80 -8l19 -43l-7 -20q-27 7 -65 7q-45 0 -71 -30t-26 -66q0 -28 30 -50.5t70 -22.5q80 0 152.5 33t119.5 89l-21 11
q-148 82 -148 195q0 50 29.5 76t72.5 29v98h-501l-26 51v14h790l28 -52v-13zM626 332q0 44 -29 68.5t-68 25.5q-29 -1 -47.5 -18t-18.5 -52q0 -80 113 -135q5 -3 17 -9q33 58 33 120z" />
    <glyph glyph-name="uni091C" unicode="&#x91c;" horiz-adv-x="730" 
d="M730 593v-13h-111v-612h-14l-64 35v368h-212q45 -38 73 -83t28 -83q0 -54 -33.5 -91t-82.5 -37q-140 0 -244 220q-16 34 -48 114l39 17l24 -51.5l29 -57t38 -63t41.5 -51t49.5 -40t52 -13.5q30 0 48 21.5t18 51.5q0 48 -47.5 97t-104.5 81l14 33h318v144h-545l-26 51v14
h733z" />
    <glyph glyph-name="uni091D" unicode="&#x91d;" horiz-adv-x="773" 
d="M746 645l27 -52v-13h-112v-612h-14l-63 35v220h-2q-33 -11 -57 -11q-44 0 -106 28h-3q19 -43 19 -84q0 -54 -57.5 -96t-136.5 -48l90 -136l-59 -29l-81 166q-48 6 -88 24t-40 47q0 30 22.5 51t45.5 21q9 0 15 -2l51 -77q83 4 137.5 30.5t54.5 75.5q0 23 -8.5 44t-19.5 26
q-15 0 -66 -14.5t-78 -14.5q-38 0 -87.5 53t-49.5 99q0 53 24.5 84t67.5 31h146v89h-322l-26 51v14h776zM487 282q56 0 97 26v272h-188v-158h-202q-32 0 -45.5 -21.5t-13.5 -49.5q0 -23 15 -42.5t30 -19.5q27 0 80 14.5t70 14.5q25 0 47 -20q60 -16 110 -16z" />
    <glyph glyph-name="uni091E" unicode="&#x91e;" horiz-adv-x="743" 
d="M743 593v-13h-111v-612h-15l-63 35v252h-1q-18 -11 -36 -11q-17 0 -56 18h-2q-6 -57 -48.5 -96t-102.5 -39q-133 0 -297 202l31 28q74 -80 130 -118.5t110 -37.5q50 0 82.5 29t32.5 70q0 30 -20.5 55t-51.5 25q-39 0 -98 -43l-53 65q66 45 105 45q49 0 104.5 -40.5
t71.5 -95.5q58 -5 99 24l1 245h-559l-26 51v14h746z" />
    <glyph glyph-name="uni091F" unicode="&#x91f;" horiz-adv-x="538" 
d="M518 645l27 -52v-13h-155v-206q-115 -8 -193.5 -48.5t-78.5 -114.5q0 -58 43.5 -86.5t93.5 -28.5q107 0 222 68l37 -73q-114 -63 -231 -63q-92 0 -154 63t-62 149q0 174 245 206v134h-316l-26 51v14h548z" />
    <glyph glyph-name="uni0920" unicode="&#x920;" horiz-adv-x="592" 
d="M592 593v-13h-202q31 -46 31 -83q0 -35 -25 -81q125 -89 125 -198q0 -88 -64.5 -148.5t-174.5 -60.5q-96 0 -160 69t-64 162q0 101 76.5 150t194.5 57q14 32 14 65q0 28 -26 68h-321l-26 51v14h594zM455 251q0 41 -26.5 75.5t-56.5 46.5q-68 -5 -124.5 -22t-97.5 -53
t-41 -86q0 -66 45.5 -101t99.5 -35q100 0 150.5 51t50.5 124z" />
    <glyph glyph-name="uni0921" unicode="&#x921;" horiz-adv-x="586" 
d="M558 645l28 -52v-13h-114v-181h-237q-75 0 -75 -77q0 -22 15.5 -42t32.5 -20q36 0 108 20.5t107 20.5q40 0 77 -54t37 -108q0 -68 -43 -111.5t-120 -43.5q-86 0 -169 44t-174 146l32 30q140 -152 277 -152q57 0 101 27.5t44 79.5q0 23 -11 44t-24 28q-44 0 -105.5 -20
t-95.5 -20q-44 0 -97 52t-53 106q0 55 30 87t76 32h189v112h-398l-26 51v14h588z" />
    <glyph glyph-name="uni0922" unicode="&#x922;" horiz-adv-x="559" 
d="M267 388q-77 0 -122 -36t-45 -101q0 -72 52.5 -122t113.5 -66q-36 54 -35 105q0 61 37.5 90.5t86.5 29.5q60 0 103 -44.5t43 -110.5t-55 -105t-117 -39q-44 0 -91 19t-89.5 53.5t-70 91.5t-27.5 124q0 94 53.5 138.5t142.5 44.5h99v120h-350l-26 51v14h561l28 -52v-13
h-135v-192h-157zM384 230q-35 0 -67.5 -28t-32.5 -75q0 -34 20 -70q64 2 108.5 29.5t44.5 67.5q-1 34 -23.5 55t-49.5 21z" />
    <glyph glyph-name="uni0923" unicode="&#x923;" horiz-adv-x="775" 
d="M775 593v-13h-112v-612h-14l-64 35v577h-164v-268q0 -63 -47 -105.5t-111 -42.5q-52 0 -120 63q-54 51 -54 100v253h-93l-26 51v14h777zM343 331v249h-176v-268q0 -49 23.5 -64t65.5 -15q44 0 65.5 30.5t21.5 67.5z" />
    <glyph glyph-name="uni0924" unicode="&#x924;" horiz-adv-x="605" 
d="M605 593v-13h-112v-612h-14l-63 35v365h-158q-65 0 -95.5 -27t-30.5 -84q0 -104 144 -246l-26 -28q-188 174 -189 307q0 69 39 107.5t133 38.5h183v144h-420l-26 51v14h608z" />
    <glyph glyph-name="uni0925" unicode="&#x925;" horiz-adv-x="672" 
d="M645 645l27 -52v-13h-111v-612h-15l-65 36l3 168l-3 2q-79 -59 -156 -59q-80 0 -133.5 46t-88.5 139q64 14 110 50q-71 32 -118 85t-47 115q0 51 31.5 78.5t79.5 27.5q71 0 129 -46t58 -129q0 -70 -47 -131.5t-119 -96.5q10 -30 39.5 -49t72.5 -19q52 0 105.5 26.5
t85.5 61.5v307h-93l-27 51v14h282zM116 530q0 -43 40.5 -83t91.5 -58q33 49 33 114q-1 37 -27.5 66t-71.5 29q-29 0 -47.5 -17t-18.5 -51z" />
    <glyph glyph-name="uni0926" unicode="&#x926;" horiz-adv-x="565" 
d="M538 645l27 -52v-13h-148v-185h-139q-87 0 -127.5 -37t-40.5 -101q0 -41 21.5 -72t53 -46.5t59 -23t48.5 -7.5q36 0 65 6l-45 106q34 38 83 38q43 0 67 -27t24 -65q0 -60 -64 -97l91 -164l-55 -28l-74 174q-39 -13 -93 -13q-50 0 -101.5 27t-89.5 84.5t-38 129.5
q0 97 48 142t148 45h81v114h-343l-26 51v14h568z" />
    <glyph glyph-name="uni0927" unicode="&#x927;" horiz-adv-x="669" 
d="M669 593v-13h-111v-612h-16l-64 36l2 186l-3 1q-100 -75 -171 -75q-78 0 -130 45q-65 59 -65 110q0 66 57 115q-54 34 -87 82.5t-33 101.5q0 50 31 76.5t79 26.5q47 0 92 -31q54 -39 54 -80q0 -15 -12 -27t-37 -12q-17 0 -25 5v70q-15 17 -47 17q-31 0 -50 -16.5
t-19 -50.5q0 -39 30 -75.5t70 -56.5q24 11 54 11q59 0 84 -12l17 -38l-8 -21q-31 7 -65 7q-52 0 -85 -37.5t-33 -82.5q0 -31 27 -46.5t60 -15.5q52 0 114 37.5t100 84.5v277h-107l-27 51v14h295z" />
    <glyph glyph-name="uni0928" unicode="&#x928;" horiz-adv-x="584" 
d="M557 645l27 -52v-13h-111v-612h-15l-63 35v310l-219 -6l14 -100q-17 -5 -37 -5q-38 0 -76.5 28t-38.5 79q0 74 102 74q52 0 256 -9v206h-400l-26 51v14h587z" />
    <glyph glyph-name="uni0929" unicode="&#x929;" horiz-adv-x="584" 
d="M557 645l27 -52v-13h-111v-612h-15l-63 35v310l-219 -6l14 -100q-17 -5 -37 -5q-38 0 -76.5 28t-38.5 79q0 74 102 74q52 0 256 -9v206h-400l-26 51v14h587zM160 59l72 74l74 -73l-73 -74z" />
    <glyph glyph-name="uni092A" unicode="&#x92a;" horiz-adv-x="581" 
d="M554 645l27 -52v-13h-111v-612h-15l-63 35v215h-2q-67 -42 -127 -42q-56 0 -123 64q-51 49 -51 105v235h-93l-26 51v14h584zM250 249q74 0 142 57v274h-225v-246q0 -85 83 -85z" />
    <glyph glyph-name="uni092B" unicode="&#x92b;" horiz-adv-x="825" 
d="M825 580h-361v-208q83 76 146 76q77 0 119.5 -52.5t42.5 -139.5q0 -41 -22 -102.5t-47 -100.5l-61 63q28 32 54.5 78t26.5 86q0 43 -26.5 72t-63.5 29q-31 0 -64.5 -17.5t-53.5 -34.5t-51 -48v-313h-14l-66 36l2 210h-3q-63 -38 -120 -38q-56 0 -123 64q-51 49 -51 105
v235h-93l-26 51v14h827l28 -52v-13zM250 249q70 0 135 52v279h-218v-246q0 -85 83 -85z" />
    <glyph glyph-name="uni092C" unicode="&#x92c;" horiz-adv-x="655" 
d="M627 645l28 -52v-13h-113v-612h-14l-64 35l3 190l-4 2q-54 -46 -99 -71t-95 -25q-80 0 -141.5 48.5t-61.5 131.5q0 90 57.5 144.5t125.5 54.5q119 0 215 -124h2v226h-470l-26 51v14h657zM353 200q68 37 113 92q-31 43 -80.5 76t-94.5 33q-35 0 -64 -10zM235 164
q41 0 86 20l-127 192q-37 -20 -58.5 -51.5t-21.5 -67.5q0 -40 34 -66.5t87 -26.5z" />
    <glyph glyph-name="uni092D" unicode="&#x92d;" horiz-adv-x="724" 
d="M696 645l28 -52v-13h-112v-612h-15l-62 35v225h-224q-6 -86 -64 -86q-25 0 -47 18t-36 48q-18 42 -14 86h83v79q-185 67 -185 181q0 48 30.5 75t76.5 27q26 0 51 -7t50 -23t40 -48t15 -76v-208h224v286h-158l-27 51v14h346zM116 532q0 -68 123 -110q6 62 6 97t-19.5 58
t-46.5 23q-28 0 -45.5 -17.5t-17.5 -50.5z" />
    <glyph glyph-name="uni092E" unicode="&#x92e;" horiz-adv-x="625" 
d="M597 645l28 -52v-13h-111v-612h-15l-63 35v243h-241q-6 -87 -64 -87q-49 0 -80 62q-21 43 -17 90h84v269h-121l-27 51v14h627zM195 311h241l1 269h-242v-269z" />
    <glyph glyph-name="uni092F" unicode="&#x92f;" horiz-adv-x="623" 
d="M623 593v-13h-111v-612h-15l-64 36l3 166l-4 2q-80 -57 -154 -57q-78 0 -135.5 56.5t-89.5 155.5q58 17 101.5 52.5t43.5 79.5q0 29 -19.5 56.5t-57.5 64.5h-125l-26 51v14h626zM244 185q52 0 104.5 25.5t85.5 60.5l1 309h-247v-2q25 -26 39.5 -43t30.5 -46.5t16 -53.5
q0 -51 -47 -93t-96 -62q3 -39 35.5 -67t77.5 -28z" />
    <glyph glyph-name="uni0930" unicode="&#x930;" horiz-adv-x="411" 
d="M411 593v-13h-162q17 -84 17 -174q0 -106 -93 -187l210 -222l-46 -34l-209 240q-34 40 -48 62t-14 46q0 21 16 39.5t33 28.5l53 -42q27 44 27 110t-13 133h-186l-26 51v14h414z" />
    <glyph glyph-name="uni0931" unicode="&#x931;" horiz-adv-x="412" 
d="M412 593v-13h-163q17 -84 17 -174q0 -106 -93 -187l210 -222l-46 -34l-209 240q-34 40 -48 62t-14 46q0 21 16 39.5t33 28.5l53 -42q27 44 27 110t-13 133h-186l-26 51v14h415zM48 20l73 74l73 -73l-73 -74z" />
    <glyph glyph-name="uni0932" unicode="&#x932;" horiz-adv-x="733" 
d="M733 593v-13h-112v-612h-14l-63 35v344q-27 27 -50 27q-33 0 -62 -35.5t-45 -77.5t-27 -89l-68 40q13 60 39 109q-52 59 -110 59q-44 0 -73 -32t-29 -82q0 -141 159 -284l-29 -30q-39 34 -68.5 65.5t-62.5 76.5t-51 98.5t-18 109.5q0 63 40 105.5t99 42.5q91 0 166 -92
q50 72 115 73q39 0 75 -38v187h-548l-26 51v14h735z" />
    <glyph glyph-name="uni0933" unicode="&#x933;" horiz-adv-x="796" 
d="M796 580h-167v-124q51 -23 82 -74t31 -119q0 -81 -45.5 -131t-107.5 -50q-52 0 -100 32t-81 72q-29 -61 -67.5 -91t-94.5 -30q-77 0 -134.5 59t-57.5 140q0 89 49.5 143.5t113.5 54.5q36 0 75 -19t57.5 -34.5t51.5 -46.5q29 55 64 81.5t86 27.5v109h-555l-26 51v14h798
l28 -52v-13zM689 302q0 43 -28.5 74.5t-71.5 31.5q-26 0 -47.5 -10.5t-35.5 -23t-30.5 -42t-24.5 -47t-25 -59.5q58 -74 133 -74q49 0 89.5 47t40.5 103zM211 130q32 0 56.5 12t45 41.5t32 52t31.5 70.5q4 9 6 14q-58 71 -127 71q-68 0 -106 -47t-38 -112q0 -44 26 -73
t74 -29z" />
    <glyph glyph-name="uni0934" unicode="&#x934;" horiz-adv-x="796" 
d="M796 580h-167v-124q51 -23 82 -74t31 -119q0 -81 -45.5 -131t-107.5 -50q-52 0 -100 32t-81 72q-29 -61 -67.5 -91t-94.5 -30q-77 0 -134.5 59t-57.5 140q0 89 49.5 143.5t113.5 54.5q36 0 75 -19t57.5 -34.5t51.5 -46.5q29 55 64 81.5t86 27.5v109h-555l-26 51v14h798
l28 -52v-13zM689 302q0 43 -28.5 74.5t-71.5 31.5q-26 0 -47.5 -10.5t-35.5 -23t-30.5 -42t-24.5 -47t-25 -59.5q58 -74 133 -74q49 0 89.5 47t40.5 103zM211 130q32 0 56.5 12t45 41.5t32 52t31.5 70.5q4 9 6 14q-58 71 -127 71q-68 0 -106 -47t-38 -112q0 -44 26 -73
t74 -29zM340 -15l73 74l74 -73l-73 -74z" />
    <glyph glyph-name="uni0935" unicode="&#x935;" horiz-adv-x="650" 
d="M623 645l27 -52v-13h-112v-612h-13l-65 36l3 183l-3 1q-110 -89 -194 -89q-80 0 -140 48t-60 132q0 91 56 145t124 54q62 0 117.5 -37t96.5 -88h2v227h-466l-26 51v14h653zM232 164q57 0 121.5 38t108.5 89v1q-31 44 -81 76.5t-94 32.5q-74 0 -123.5 -45t-49.5 -99
q0 -40 33.5 -66.5t84.5 -26.5z" />
    <glyph glyph-name="uni0936" unicode="&#x936;" horiz-adv-x="729" 
d="M729 580h-112v-612h-14l-64 35l1 577h-183q51 -49 51 -126q0 -84 -58 -166.5t-134 -109.5l122 -184l-62 -39l-103 213q-4 -1 -12 -1q-37 0 -77 23t-40 51q0 30 22.5 50.5t45.5 20.5q11 0 15 -2l51 -76q64 26 110 88q-75 30 -127.5 85.5t-52.5 121.5q0 27 11 51h-123
l-26 51v14h731l28 -52v-13zM342 475q0 41 -27.5 72.5t-71.5 31.5q-29 0 -48 -18t-19 -52q0 -44 43 -85t96 -59q27 57 27 110z" />
    <glyph glyph-name="uni0937" unicode="&#x937;" horiz-adv-x="600" 
d="M572 645l28 -52v-13h-112v-612h-14l-63 35v188h-2q-86 -51 -137 -51q-56 0 -132 70q-51 51 -51 102v268h-92l-27 51v14h602zM411 580h-244v-1l244 -258v259zM258 213q64 0 148 63l-239 253v-227q0 -47 27 -68t64 -21z" />
    <glyph glyph-name="uni0938" unicode="&#x938;" horiz-adv-x="682" 
d="M654 645l28 -52v-13h-112v-612h-15l-63 35v230h-2q-48 -21 -101 -21q-74 0 -158 67h-3q-19 -30 -55 -60l204 -222l-46 -34l-203 240q-4 5 -13.5 16t-12.5 15l-10 13t-9.5 13.5l-6.5 11.5t-5.5 12.5t-3 12.5t-1.5 14q0 21 16 39.5t33 28.5l53 -42q27 44 27 110
q0 68 -13 133h-186l-26 51v14h684zM369 283q73 0 123 34v263h-243q17 -85 17 -174q0 -47 -15 -85q57 -38 118 -38z" />
    <glyph glyph-name="uni0939" unicode="&#x939;" horiz-adv-x="564" 
d="M182 411q-59 0 -59 -50q0 -41 45 -86q53 38 124 38q76 0 139.5 -54.5t63.5 -106.5q0 -41 -30 -79t-72 -63l-61 55v2q95 57 95 118q0 29 -31 53t-78 24q-52 0 -94.5 -38t-42.5 -94q0 -66 52.5 -117.5t176.5 -122.5l-21 -31q-60 31 -103.5 58t-89 64.5t-69.5 81.5t-24 91
q0 49 31 88q-70 80 -70 146q0 92 95 92h200v100h-363l-26 51v14h566l28 -52v-13h-127v-169h-255z" />
    <glyph glyph-name="uni093A" unicode="&#x93a;" 
d="M-608 909h78v-279h-78v279z" />
    <glyph glyph-name="uni093B" unicode="&#x93b;" horiz-adv-x="301" 
d="M274 645l27 -52v-13h-111v-612h-15l-64 35v577h-115l-26 51v14h141v264h78v-264h85z" />
    <glyph glyph-name="uni093C" unicode="&#x93c;" 
d="M-153 -65l73 -73l-72 -74l-74 74z" />
    <glyph glyph-name="uni093D" unicode="&#x93d;" horiz-adv-x="511" 
d="M430 645l29 -52v-13h-239q-44 0 -44 -45q0 -28 63 -96l28 -29q48 -51 73.5 -81.5t52.5 -81t27 -93.5q0 -59 -49.5 -99.5t-113.5 -40.5q-97 0 -226 171l29 24q102 -121 180 -121q49 0 79.5 27.5t30.5 64.5q0 68 -107 188l-33 37l-54.5 59t-35.5 48.5t-19 51.5q0 31 27 56
t62 25h240z" />
    <glyph glyph-name="uni093E" unicode="&#x93e;" horiz-adv-x="301" 
d="M274 645l27 -52v-13h-111v-612h-15l-64 35v577h-115l-26 51v14h304z" />
    <glyph glyph-name="uni093F" unicode="&#x93f;" horiz-adv-x="301" 
d="M275 919q-68 0 -111.5 -32.5t-44.5 -92.5q0 -38 16 -80.5t33 -68.5h105l28 -52v-13h-111v-612h-15l-64 35v577h-115l-26 51v14h146q-78 113 -77 189q1 67 57.5 111t146.5 44q55 0 118 -24.5t129.5 -70t116 -86l111.5 -95.5l-25 -32q-135 114 -233.5 176t-184.5 62z" />
    <glyph glyph-name="uni0940" unicode="&#x940;" horiz-adv-x="301" 
d="M273 645l28 -52v-13h-111v-612h-15l-64 35v577h-115l-26 51v14h151l-32.5 76.5t-38.5 78t-46 74t-51 50t-57 21.5q-41 0 -65 -30t-24 -67q0 -66 55 -126v-2l-44 -21q-39 33 -67.5 80t-28.5 100q0 55 42 96t109 41q43 0 82 -24t67.5 -57.5t57 -85.5t45.5 -92l39 -94
q5 -12 7 -18h102z" />
    <glyph glyph-name="uni0941" unicode="&#x941;" 
d="M-498 -62q64 -99 145.5 -164t153.5 -65q53 0 84 23.5t31 60.5q0 21 -19.5 40t-51.5 19q-50 0 -97 -27l-46 68q49 27 96 27q58 0 117.5 -48t59.5 -100q0 -48 -43.5 -89t-112.5 -41q-87 0 -174 62t-184 211z" />
    <glyph glyph-name="uni0942" unicode="&#x942;" 
d="M90 -384q-88 116 -160.5 176t-137.5 60q-48 0 -80.5 -22t-32.5 -57q0 -21 19 -39.5t50 -18.5q50 0 96 27l46 -68q-50 -26 -94 -26q-59 0 -117.5 49.5t-58.5 109.5q0 45 40 78.5t102 33.5q94 0 176 -65.5t188 -214.5z" />
    <glyph glyph-name="uni0943" unicode="&#x943;" 
d="M-112 20l34 -58q-64 0 -106.5 -24.5t-42.5 -60.5q0 -20 17 -37t49 -17q49 0 95 27l46 -67q-49 -27 -94 -27q-61 0 -115 44t-54 99q0 45 51.5 83t119.5 38z" />
    <glyph glyph-name="uni0944" unicode="&#x944;" 
d="M-112 20l34 -58q-64 0 -106.5 -24.5t-42.5 -60.5q0 -20 17 -37t49 -17q49 0 95 27l46 -67q-49 -27 -97 -27q-39 -27 -39 -61q1 -21 18 -38t48 -17q45 0 95 27l46 -67q-54 -27 -94 -27q-61 0 -115 44t-54 98q0 30 22 61q-41 20 -67 53t-26 70q0 45 51.5 83t119.5 38z" />
    <glyph glyph-name="uni0945" unicode="&#x945;" 
d="M65 851q-40 -50 -86.5 -77.5t-113.5 -26.5q-74 0 -130.5 45t-93.5 106l29 15q76 -105 160 -105q60 0 106.5 29t71.5 67z" />
    <glyph glyph-name="uni0946" unicode="&#x946;" 
d="M-647 980l47 -7q-16 -44 -16 -68q0 -28 24 -42.5t63 -14.5q19 0 119.5 7.5t121.5 7.5q77 0 129 -63q48 -57 48 -104q0 -26 -10 -56l-51 1q10 17 10 37q0 45 -25.5 77t-84.5 32q-21 0 -87.5 -7t-95.5 -7q-84 0 -148.5 38t-64.5 77q0 26 21 92z" />
    <glyph glyph-name="uni0947" unicode="&#x947;" 
d="M-443 1016q67 0 118 -55.5t106 -161.5q56 -106 78 -156h-54q-34 81 -53 108q-86 158 -113 172l-117 -35q-34 26 -34 68q0 28 18.5 44t50.5 16z" />
    <glyph glyph-name="uni0948" unicode="&#x948;" 
d="M-421 1043q40 0 75 -18.5t64 -54t50.5 -73.5t45.5 -90q42 -93 69 -169h-35q-28 71 -52 119q-82 160 -122 195l-128 -37h-2q-33 27 -33 68q0 28 18.5 44t49.5 16zM-439 867q116 0 261 -232l-33 -1q-97 127 -124 140l-138 -18h-2q-27 22 -27 55q0 25 17.5 40.5t45.5 15.5z
" />
    <glyph glyph-name="uni0949" unicode="&#x949;" horiz-adv-x="301" 
d="M369 851q-40 -50 -86.5 -77.5t-113.5 -26.5q-74 0 -130.5 45t-93.5 106l29 15q76 -105 160 -105q60 0 106.5 29t71.5 67zM274 645l27 -52v-13h-111v-612h-15l-64 35v577h-115l-26 51v14h304z" />
    <glyph glyph-name="uni094A" unicode="&#x94a;" horiz-adv-x="301" 
d="M-350 980l46 -7q-15 -47 -15 -68q0 -28 23.5 -42.5t62.5 -14.5q19 0 120 7.5t123 7.5q73 0 129 -63q46 -57 46 -104q0 -23 -8 -51h96l28 -52v-13h-111v-612h-15l-64 35v577h-115l-26 51v14h157q8 16 8 33q0 45 -26 77t-84 32q-21 0 -87.5 -7t-95.5 -7q-84 0 -148 38
t-64 77q0 38 20 92z" />
    <glyph glyph-name="uni094B" unicode="&#x94b;" horiz-adv-x="301" 
d="M273 645l28 -52v-13h-111v-612h-15l-64 35v577h-115l-26 51v14h152q-36 81 -52 106q-86 158 -113 172l-117 -35q-34 26 -34 68q0 28 18.5 44t50.5 16q67 0 118 -55.5t106 -161.5q53 -99 76 -154h98z" />
    <glyph glyph-name="uni094C" unicode="&#x94c;" horiz-adv-x="301" 
d="M273 645l28 -52v-13h-111v-612h-15l-64 35v577h-115l-26 51v14h113q-93 118 -115 129l-138 -18h-2q-28 24 -28 55q0 25 17.5 40.5t46.5 15.5q112 0 255 -222h29q-34 80 -50 112q-35 69 -69 124.5t-52 70.5l-128 -37h-1q-34 26 -34 68q0 28 18 44t50 16q75 0 128.5 -62
t105.5 -174q38 -78 66 -162h91z" />
    <glyph glyph-name="uni094D" unicode="&#x94d;" 
d="M37 -304q-66 60 -116.5 90t-109.5 49l-130 -40q-32 25 -32 66q0 28 18 44t50 16q54 0 152.5 -56t192.5 -147z" />
    <glyph glyph-name="uni0950" unicode="&#x950;" horiz-adv-x="1138" 
d="M670 818l73 -74l-73 -74l-72 74zM500 695q75 -106 159 -106q61 0 107.5 29t71.5 68l56 -54q-81 -104 -200 -104q-73 0 -130 45t-94 106zM246 663q63 0 126.5 -64t63.5 -135q0 -35 -17.5 -68t-44.5 -53q17 -14 39 -39q3 -3 24 -27l28 -32t27 -26.5t32.5 -26t31 -14.5
t36.5 -7q32 0 62.5 31.5t56.5 76.5l53.5 90t64 76.5t76.5 31.5q59 0 112 -56q54 -57 54 -139q0 -68 -42.5 -109.5t-104.5 -41.5q-43 0 -86 31t-72 75q-41 -68 -72 -102t-66 -34q-31 0 -61 14t-45 27t-37.5 37.5t-24.5 26.5l-3 -2q3 -13 3 -29q0 -67 -43 -108t-113 -41
q-56 0 -106 23.5t-87.5 64.5t-59.5 73.5t-45 74.5l32 21q43 -74 105.5 -130t127.5 -56q52 0 85.5 32t33.5 79q0 31 -15.5 62t-40.5 52q-49 -16 -122 -23l-31 56l9 22q91 7 130 30q58 35 57 94q-1 35 -32.5 62.5t-68.5 27.5q-68 0 -144 -65l-40 76q28 20 78 40.5t76 20.5z
M936 412q-50 0 -108 -79q-26 -37 -38 -58q16 -35 41.5 -57t52.5 -22q50 0 87.5 35.5t37.5 78.5q0 46 -20 74t-53 28z" />
    <glyph glyph-name="uni0951" unicode="&#x951;" 
d="M-186 1002h65v-263h-65v263z" />
    <glyph glyph-name="uni0952" unicode="&#x952;" 
d="M-385 -249v54h462v-54h-462z" />
    <glyph glyph-name="uni0953" unicode="&#x953;" 
d="M-381 969v7l70 23l161 -229v-7l-48 -24z" />
    <glyph glyph-name="uni0954" unicode="&#x954;" 
d="M-31 999l70 -23v-7l-183 -230l-49 24v7z" />
    <glyph glyph-name="uni0956" unicode="&#x956;" 
d="M-225 -150q113 0 180 89l36 -30q-31 -53 -90 -88t-126 -35q-68 0 -127 35t-90 88l37 30q67 -89 180 -89z" />
    <glyph glyph-name="uni0957" unicode="&#x957;" 
d="M-225 -150q113 0 180 89l36 -30q-31 -53 -90 -88t-126 -35q-68 0 -127 35t-90 88l37 30q67 -89 180 -89zM-225 -316q113 0 180 89l36 -30q-31 -53 -90 -88t-126 -35q-68 0 -127 35t-90 88l37 30q67 -89 180 -89z" />
    <glyph glyph-name="uni0958" unicode="&#x958;" horiz-adv-x="841" 
d="M841 580h-362v-225q78 74 146 74q78 0 120.5 -52t42.5 -140q0 -42 -22 -103t-47 -99l-61 63q28 32 54.5 78t26.5 87q0 42 -26.5 71t-64.5 29q-67 0 -169 -96v-299h-15l-65 36l4 193l-1 1q-32 -27 -51 -40.5t-53 -27t-70 -13.5q-74 0 -123.5 47t-49.5 129q0 66 43.5 115.5
t111.5 49.5q110 0 191 -119v241h-405l-26 51v14h843l28 -52v-13zM199 186q102 0 202 96v4q-28 38 -72.5 66t-89.5 28q-52 0 -94.5 -29.5t-42.5 -80.5q0 -38 29.5 -61t67.5 -23zM152 0l73 73l73 -73l-72 -74z" />
    <glyph glyph-name="uni0959" unicode="&#x959;" horiz-adv-x="839" 
d="M816 645l28 -52v-13h-116v-612h-15l-65 36l3 68q-45 -28 -107 -48.5t-115 -20.5q-128 0 -295 185q-40 44 -56.5 71t-16.5 52q0 21 15 40t32 28l53 -42q27 41 27 110q0 67 -11 133h-180l-27 51v14h846zM428 65q53 0 116 25t108 64l-1 96v1l-48 -38t-47 -26.5t-61 -14.5
q-69 0 -118 46t-49 112q0 71 45.5 115t113.5 44q85 0 161 -83h2v174h-407q17 -90 17 -174q0 -64 -24.5 -106t-67.5 -81q27 -32 59.5 -62t90 -61t110.5 -31zM650 345q-24 34 -62 53.5t-76 19.5q-57 0 -97 -33.5t-40 -80.5q0 -28 25.5 -48t67.5 -20q44 0 94.5 32t87.5 77z
M54 0l73 73l73 -73l-72 -74z" />
    <glyph glyph-name="uni095A" unicode="&#x95a;" horiz-adv-x="612" 
d="M584 645l28 -52v-13h-112v-612h-15l-64 35l1 577h-209q12 -182 12 -290q0 -16 -2.5 -31t-9.5 -32.5t-23 -28t-39 -10.5q-51 0 -79 38.5t-28 76.5q0 25 5 37l97 -13l8 253h-158l-26 51v14h614zM82 57l73 73l73 -73l-72 -74z" />
    <glyph glyph-name="uni095B" unicode="&#x95b;" horiz-adv-x="730" 
d="M730 593v-13h-111v-612h-14l-64 35v368h-212q45 -38 73 -83t28 -83q0 -54 -33.5 -91t-82.5 -37q-140 0 -244 220q-16 34 -48 114l39 17l24 -51.5l29 -57t38 -63t41.5 -51t49.5 -40t52 -13.5q30 0 48 21.5t18 51.5q0 48 -47.5 97t-104.5 81l14 33h318v144h-545l-26 51v14
h733zM22 10l73 73l73 -73l-72 -74z" />
    <glyph glyph-name="uni095C" unicode="&#x95c;" horiz-adv-x="586" 
d="M558 645l28 -52v-13h-114v-181h-237q-75 0 -75 -77q0 -22 15.5 -42t32.5 -20q36 0 108 20.5t107 20.5q40 0 77 -54t37 -108q0 -68 -43 -111.5t-120 -43.5q-86 0 -169 44t-174 146l32 30q140 -152 277 -152q57 0 101 27.5t44 79.5q0 23 -11 44t-24 28q-44 0 -105.5 -20
t-95.5 -20q-44 0 -97 52t-53 106q0 55 30 87t76 32h189v112h-398l-26 51v14h588zM364 -70l73 -73l-72 -74l-74 74z" />
    <glyph glyph-name="uni095D" unicode="&#x95d;" horiz-adv-x="559" 
d="M267 388q-77 0 -122 -36t-45 -101q0 -72 52.5 -122t113.5 -66q-36 54 -35 105q0 61 37.5 90.5t86.5 29.5q60 0 103 -44.5t43 -110.5t-55 -105t-117 -39q-44 0 -91 19t-89.5 53.5t-70 91.5t-27.5 124q0 94 53.5 138.5t142.5 44.5h99v120h-350l-26 51v14h561l28 -52v-13
h-135v-192h-157zM384 230q-35 0 -67.5 -28t-32.5 -75q0 -34 20 -70q64 2 108.5 29.5t44.5 67.5q-1 34 -23.5 55t-49.5 21zM252 -136l73 73l73 -73l-72 -74z" />
    <glyph glyph-name="uni095E" unicode="&#x95e;" horiz-adv-x="825" 
d="M825 580h-361v-208q83 76 146 76q77 0 119.5 -52.5t42.5 -139.5q0 -41 -22 -102.5t-47 -100.5l-61 63q28 32 54.5 78t26.5 86q0 43 -26.5 72t-63.5 29q-31 0 -64.5 -17.5t-53.5 -34.5t-51 -48v-313h-14l-66 36l2 210h-3q-63 -38 -120 -38q-56 0 -123 64q-51 49 -51 105
v235h-93l-26 51v14h827l28 -52v-13zM250 249q70 0 135 52v279h-218v-246q0 -85 83 -85zM50 77l73 73l73 -73l-72 -74z" />
    <glyph glyph-name="uni095F" unicode="&#x95f;" horiz-adv-x="623" 
d="M623 593v-13h-111v-612h-15l-64 36l3 166l-4 2q-80 -57 -154 -57q-78 0 -135.5 56.5t-89.5 155.5q58 17 101.5 52.5t43.5 79.5q0 29 -19.5 56.5t-57.5 64.5h-125l-26 51v14h626zM244 185q52 0 104.5 25.5t85.5 60.5l1 309h-247v-2q25 -26 39.5 -43t30.5 -46.5t16 -53.5
q0 -51 -47 -93t-96 -62q3 -39 35.5 -67t77.5 -28zM73 135l73 -73l-72 -74l-74 74z" />
    <glyph glyph-name="uni0960" unicode="&#x960;" horiz-adv-x="856" 
d="M828 645l28 -52v-13h-383v-248q83 -3 133 34l-32 75q7 7 23 14t31 7q32 0 52.5 -18.5t20.5 -48.5q0 -33 -24 -57l76 -172q-54 -28 -79.5 -52.5t-24.5 -52.5q0 -46 58 -46q53 0 95 26l45 -65q-49 -25 -97 -27q-33 -25 -33 -66q0 -20 16.5 -37t48.5 -17q49 0 95 27l45 -65
q-49 -27 -95 -27q-61 0 -113.5 42.5t-52.5 96.5q0 37 17 66q-40 18 -64 49.5t-24 68.5q0 66 90 119l-45 100q-36 -20 -80 -29t-82 -4v-305h-14l-65 36l3 226l-2 3l-261 -198l-54 60l314 215q-83 76 -178 76q-44 1 -139 -34l-42 75q89 34 148 34q88 -1 213 -97v216h-400
l-26 51v14h858z" />
    <glyph glyph-name="uni0961" unicode="&#x961;" horiz-adv-x="739" 
d="M712 645l27 -52v-13h-190v-155q51 -17 91.5 -58t40.5 -91q0 -41 -26.5 -84t-58 -72t-58 -62t-26.5 -58q0 -24 17.5 -39t46.5 -15q54 0 123 77l54 -53q-44 -39 -86 -59q-30 -28 -30 -54q0 -25 17 -40t47 -15q54 0 122 78l55 -55q-83 -72 -152 -72q-52 0 -103.5 30
t-51.5 80q0 17 10 36q-50 10 -96 47.5t-45 84.5q0 26 26 58.5t57.5 60.5t58 70.5t26.5 85.5q0 36 -27 57t-51 21q-111 0 -161 -221l-77 36q14 63 47 120q-24 26 -57.5 43.5t-60.5 17.5q-44 0 -73 -31.5t-29 -81.5q0 -53 19.5 -108t38 -85t47.5 -70l-34 -20
q-141 187 -141 317q0 64 40 106.5t99 42.5q46 0 93 -27t82 -68q49 63 108 75v150h-475l-26 51v14h742z" />
    <glyph glyph-name="uni0962" unicode="&#x962;" 
d="M-122 23v-124q65 -35 65 -76q0 -29 -35.5 -70.5t-35.5 -57.5q0 -12 8.5 -19t21.5 -7q20 0 40.5 14t32.5 34l38 -48q-46 -35 -98 -35q-34 0 -67 19t-33 57q0 15 17.5 35t35 44.5t17.5 51.5q0 16 -12.5 26t-23.5 10q-55 0 -86 -118l-59 17q11 42 25 69q-30 28 -57 28
q-23 0 -40 -15t-17 -38q0 -62 71 -147l-23 -19q-45 38 -77 83.5t-32 85.5q1 45 35 71.5t66 26.5q40 0 92 -46q30 35 76 39v109h55z" />
    <glyph glyph-name="uni0963" unicode="&#x963;" 
d="M-122 23v-124q65 -35 65 -76q0 -29 -35.5 -70.5t-35.5 -57.5q0 -12 8.5 -19t21.5 -7q19 0 39.5 14t33.5 34l38 -48q-22 -16 -44 -23q-18 -15 -18 -35q0 -10 13 -17t27 -7q19 0 40 14t33 30l47 -42q-52 -41 -108 -41q-34 0 -70.5 20t-36.5 51q0 9 5 17q-34 4 -60.5 22
t-26.5 52q0 15 17.5 35t35 44.5t17.5 51.5q0 16 -12 26t-24 10q-54 0 -85 -118l-59 17q11 42 25 69q-30 28 -58 28q-23 0 -39.5 -15t-16.5 -38q0 -61 70 -147l-23 -19q-45 38 -76.5 83.5t-31.5 85.5q1 45 34.5 71.5t65.5 26.5q40 0 93 -47q31 36 76 40v109h55z" />
    <glyph glyph-name="uni0964" unicode="&#x964;" horiz-adv-x="501" 
d="M282 667l63 -36v-663h-14l-64 35v664h15z" />
    <glyph glyph-name="uni0965" unicode="&#x965;" horiz-adv-x="765" 
d="M282 667l63 -36v-663h-14l-64 35v664h15zM546 667l63 -36v-663h-15l-63 35v664h15z" />
    <glyph glyph-name="uni0966" unicode="&#x966;" horiz-adv-x="631" 
d="M107 276q0 83 70 154t146 71q82 0 142 -62t60 -156q0 -89 -71.5 -160t-145.5 -71q-86 0 -143.5 64.5t-57.5 159.5zM182 313q0 -87 50.5 -140.5t100.5 -53.5q46 0 81 35t35 86q0 77 -47 135.5t-104 58.5q-46 0 -81 -34.5t-35 -86.5z" />
    <glyph glyph-name="uni0967" unicode="&#x967;" horiz-adv-x="631" 
d="M300 675q64 0 123.5 -53t59.5 -123q0 -85 -131 -234l-74 -84l139 -145q5 -6 20 -22.5l21 -23t17.5 -20.5t16.5 -21.5t11 -18t8.5 -19t2.5 -16.5q0 -30 -20 -47.5t-49 -17.5q-49 0 -74 56v2l59 49q-18 25 -39.5 50t-51 55l-48 47.5l-58.5 55l-53 49.5v1l132 144
q-43 26 -61.5 38.5t-49 38t-43.5 52t-13 57.5q0 64 45.5 107t109.5 43zM323 619q-41 0 -69.5 -34t-28.5 -80q0 -33 36 -69.5t81 -56.5q64 86 64 148q0 37 -24 64.5t-59 27.5z" />
    <glyph glyph-name="uni0968" unicode="&#x968;" horiz-adv-x="631" 
d="M311 670q78 0 144.5 -80.5t66.5 -162.5q0 -90 -70.5 -164.5t-165.5 -83.5l187 -283l-74 -46l-164 329q-51 6 -89 25t-38 46q0 31 22.5 51.5t46.5 20.5q9 0 15 -2l51 -77q89 21 148 80t59 140q0 54 -27.5 91.5t-77.5 37.5q-78 0 -193 -67l-57 84q138 61 216 61z" />
    <glyph glyph-name="uni0969" unicode="&#x969;" horiz-adv-x="631" 
d="M571 226q0 -71 -82.5 -136.5t-184.5 -66.5l41 -31l59 -117l-67 38l-49 110q-45 4 -86 21.5t-41 45.5q0 30 22.5 51t45.5 21q10 0 16 -2l51 -77q85 21 144 70.5t59 107.5q0 39 -29.5 61.5t-72.5 22.5q-5 0 -13 -0.5t-11 -0.5q-85 -41 -176 -41q-19 0 -33 18.5t-14 46.5
q0 10 24.5 20.5t71.5 19t102 10.5q57 36 57 90q0 38 -26 61t-70 23q-21 0 -50 -4.5t-50 -9t-53.5 -13t-43.5 -10.5l-45 88q116 22 207 22q68 0 135.5 -68t67.5 -126q0 -47 -39 -84q133 -78 133 -161z" />
    <glyph glyph-name="uni096A" unicode="&#x96a;" horiz-adv-x="631" 
d="M367 373q81 -77 117 -126t36 -88q0 -61 -59.5 -97t-131.5 -36q-67 0 -125 44.5t-58 112.5q0 45 28.5 90.5t101.5 118.5q-39 36 -87.5 73l-102.5 75t-73 53l43 51l253 -218l261 256l36 -87q-194 -178 -239 -222zM298 82q49 0 88 37t39 84q0 42 -79 121l-14 14
q-68 -71 -92 -109t-24 -74q0 -31 24 -52t58 -21z" />
    <glyph glyph-name="uni096B" unicode="&#x96b;" horiz-adv-x="631" 
d="M647 -124l-59 -29l-150 314q-61 -47 -119 -47q-72 0 -138 49.5t-66 123.5q0 67 30.5 170.5t72.5 197.5l76 -61q-111 -228 -111 -332q0 -34 25 -62.5t58 -28.5q56 0 137 66l-44 90q25 18 59 18q38 0 65.5 -19.5t27.5 -51.5q0 -38 -40 -83z" />
    <glyph glyph-name="uni096C" unicode="&#x96c;" horiz-adv-x="631" 
d="M267 665q32 0 44 -1l44 -82q-28 5 -51 5q-45 0 -76.5 -4.5t-58.5 -16.5t-40 -35.5t-13 -58.5q0 -33 25 -62.5t55 -42.5q42 26 95.5 41t96.5 15q19 0 32.5 -18.5t13.5 -46.5q0 -15 -57 -31t-126 -18q-65 -39 -65 -101q0 -44 40 -81t87 -37q53 0 124 27l-34 63q29 20 63 20
q30 0 52 -15t22 -41q0 -37 -39 -73l125 -186l-53 -26l-101 191q-55 -34 -125 -34q-72 0 -152.5 81t-80.5 147q0 52 45 95q-49 32 -82 79t-33 90q0 74 56 115.5t167 41.5z" />
    <glyph glyph-name="uni096D" unicode="&#x96d;" horiz-adv-x="631" 
d="M79 665q13 -127 36.5 -227.5t52.5 -165t64 -107t69 -60t69 -17.5q90 0 132 60t45 156q-44 -33 -92 -33q-75 0 -132 54q-71 65 -71 167q0 56 44 100t94 44q86 0 138 -74q35 -45 54 -119.5t19 -147.5q0 -131 -65 -206t-149 -75q-140 0 -234 168.5t-119 468.5zM433 568
q-49 0 -81 -36t-32 -83q0 -109 105 -109q27 0 60 14.5t58 39.5q-11 76 -42 125t-68 49z" />
    <glyph glyph-name="uni096E" unicode="&#x96e;" horiz-adv-x="631" 
d="M470 725l26 -86l-215 -243q-80 -91 -107 -145t-27 -102q0 -40 36.5 -80.5t95.5 -40.5q53 0 108 39.5t126 111.5l63 -60q-75 -79 -136.5 -109t-135.5 -30q-88 0 -159 62.5t-71 138.5q0 93 105 212z" />
    <glyph glyph-name="uni096F" unicode="&#x96f;" horiz-adv-x="631" 
d="M218 691q63 0 128.5 -60.5t65.5 -132.5q0 -64 -55 -111.5t-129 -57.5l279 -267q98 -94 98 -141q1 -30 -19 -47t-49 -17q-26 0 -45.5 16.5t-28.5 39.5v2l58 48q-70 99 -374 369q-61 55 -82 94.5t-21 96.5q0 68 48.5 118t125.5 50zM257 620q-64 0 -104 -40.5t-40 -89.5
q0 -56 43 -106q73 9 126 53t53 88q0 40 -21.5 67.5t-56.5 27.5z" />
    <glyph glyph-name="uni0970" unicode="&#x970;" horiz-adv-x="447" 
d="M69 275q0 63 55 112.5t104 49.5q60 0 105 -42.5t45 -113.5q0 -68 -55.5 -116.5t-103.5 -48.5q-61 0 -105.5 44.5t-44.5 114.5zM136 301q0 -54 34 -88.5t65 -34.5q29 0 53 21.5t24 54.5q0 47 -32 84.5t-66 37.5q-29 0 -53.5 -21t-24.5 -54z" />
    <glyph glyph-name="uni0971" unicode="&#x971;" horiz-adv-x="301" 
d="M141 683l73 -73l-72 -74l-74 73z" />
    <glyph glyph-name="uni0972" unicode="&#x972;" horiz-adv-x="811" 
d="M822 904l57 -53q-40 -50 -86.5 -77.5t-113.5 -26.5q-74 0 -130.5 45t-93.5 106l29 15q76 -105 160 -105q60 0 106.5 29t71.5 67zM453 645h330l28 -52v-13h-112v-612h-15l-63 35v253h-1q-31 -18 -69 -18q-58 0 -119 44l-4 -2q32 -48 32 -105q0 -67 -43 -108t-113 -41
q-56 0 -106 23.5t-87.5 64.5t-59.5 73.5t-45 74.5l32 21q43 -74 105.5 -130t127.5 -56q52 0 85.5 32t33.5 79q0 68 -56 114q-57 -17 -122 -23l-31 56l9 22q91 7 130 30q58 35 57 94q-1 35 -32.5 62.5t-68.5 27.5q-68 0 -144 -65l-40 76q28 20 78 40.5t76 20.5q64 -2 127 -65
t63 -134t-60 -121q74 -37 137 -37q56 0 108 36v238h-141l-27 51v14z" />
    <glyph glyph-name="uni0973" unicode="&#x973;" horiz-adv-x="811" 
d="M811 593v-13h-112v-612h-15l-63 35v253h-1q-31 -18 -69 -18q-58 0 -119 44l-4 -2q32 -48 32 -105q0 -67 -43 -108t-113 -41q-56 0 -106 23.5t-87.5 64.5t-59.5 73.5t-45 74.5l32 21q43 -74 105.5 -130t127.5 -56q52 0 85.5 32t33.5 79q0 68 -56 114q-57 -17 -122 -23
l-31 56l9 22q91 7 130 30q58 35 57 94q-1 35 -32.5 62.5t-68.5 27.5q-68 0 -144 -65l-40 76q28 20 78 40.5t76 20.5q64 -2 127 -65t63 -134t-60 -121q74 -37 137 -37q56 0 108 36v238h-141l-27 51v14h168v264h78v-264h84z" />
    <glyph glyph-name="uni0974" unicode="&#x974;" horiz-adv-x="1111" 
d="M1111 593v-13h-111v-612h-15l-63 35v577h-223v-612h-15l-63 35v253h-1q-31 -18 -69 -18q-58 0 -119 44l-4 -2q32 -48 32 -105q0 -67 -43 -108t-113 -41q-56 0 -106 23.5t-87.5 64.5t-59.5 73.5t-45 74.5l32 21q43 -74 105.5 -130t127.5 -56q52 0 85.5 32t33.5 79
q0 68 -56 114q-57 -17 -122 -23l-31 56l9 22q91 7 130 30q58 35 57 94q-1 35 -32.5 62.5t-68.5 27.5q-68 0 -144 -65l-40 76q28 20 78 40.5t76 20.5q64 -2 127 -65t63 -134t-60 -121q74 -37 137 -37q56 0 108 36v238h-141l-27 51v14h469v264h78v-264h84z" />
    <glyph glyph-name="uni0976" unicode="&#x976;" horiz-adv-x="811" 
d="M811 593v-13h-112v-612h-15l-63 35v253h-1q-31 -18 -69 -18q-58 0 -119 44l-4 -2q32 -48 32 -105q0 -67 -43 -108t-113 -41q-56 0 -106 23.5t-87.5 64.5t-59.5 73.5t-45 74.5l32 21q43 -74 105.5 -130t127.5 -56q52 0 85.5 32t33.5 79q0 68 -56 114q-57 -17 -122 -23
l-31 56l9 22q91 7 130 30q58 35 57 94q-1 35 -32.5 62.5t-68.5 27.5q-68 0 -144 -65l-40 76q28 20 78 40.5t76 20.5q64 -2 127 -65t63 -134t-60 -121q74 -37 137 -37q56 0 108 36v238h-141l-27 51v14h330zM395 -150q113 0 180 89l36 -30q-31 -53 -90 -88t-126 -35
q-69 0 -127.5 35t-89.5 88l37 30q67 -89 180 -89z" />
    <glyph glyph-name="uni0977" unicode="&#x977;" horiz-adv-x="811" 
d="M811 593v-13h-112v-612h-15l-63 35v253h-1q-31 -18 -69 -18q-58 0 -119 44l-4 -2q32 -48 32 -105q0 -67 -43 -108t-113 -41q-56 0 -106 23.5t-87.5 64.5t-59.5 73.5t-45 74.5l32 21q43 -74 105.5 -130t127.5 -56q52 0 85.5 32t33.5 79q0 68 -56 114q-57 -17 -122 -23
l-31 56l9 22q91 7 130 30q58 35 57 94q-1 35 -32.5 62.5t-68.5 27.5q-68 0 -144 -65l-40 76q28 20 78 40.5t76 20.5q64 -2 127 -65t63 -134t-60 -121q74 -37 137 -37q56 0 108 36v238h-141l-27 51v14h330zM395 -150q113 0 180 89l36 -30q-31 -53 -90 -88t-126 -35
q-69 0 -127.5 35t-89.5 88l37 30q67 -89 180 -89zM395 -316q113 0 180 89l36 -30q-31 -53 -90 -88t-126 -35q-69 0 -127.5 35t-89.5 88l37 30q67 -89 180 -89z" />
    <glyph glyph-name="uni0979" unicode="&#x979;" horiz-adv-x="730" 
d="M730 593v-13h-111v-612h-14l-64 35v368h-212q45 -38 73 -83t28 -83q0 -54 -33.5 -91t-82.5 -37q-140 0 -244 220q-16 34 -48 114l39 17l24 -51.5l29 -57t38 -63t41.5 -51t49.5 -40t52 -13.5q30 0 48 21.5t18 51.5q0 48 -47.5 97t-104.5 81l14 33h318v144h-545l-26 51v14
h733zM194 42l73 -73l-73 -74l-73 74zM330 -31l73 73l73 -73l-73 -74zM226 -138l73 73l73 -73l-72 -74z" />
    <glyph glyph-name="uni097A" unicode="&#x97a;" horiz-adv-x="623" 
d="M596 645l27 -52v-13h-111v-612h-15l-64 36l3 166l-4 2q-80 -57 -154 -57q-78 0 -135.5 56.5t-89.5 155.5q58 17 101.5 52.5t43.5 79.5q0 29 -19.5 56.5t-57.5 64.5h-125l-26 51v14h626zM188 580v-2q35 -38 43 -48l203 -235l1 285h-247zM244 185q47 0 94.5 21t81.5 51
l-146 170q-5 -48 -50.5 -87.5t-92.5 -59.5q3 -39 35.5 -67t77.5 -28z" />
    <glyph glyph-name="uni097B" unicode="&#x97b;" horiz-adv-x="612" 
d="M584 645l28 -52v-13h-112v-619h-445l-23 43v13h389l1 563h-208q15 -176 15 -289q0 -16 -3 -31.5t-10 -33t-24 -28t-41 -10.5q-51 0 -79 38.5t-28 76.5q0 25 5 37l97 -13v253h-150l-26 51v14h614z" />
    <glyph glyph-name="uni097C" unicode="&#x97c;" horiz-adv-x="730" 
d="M703 645l27 -52v-13h-111v-619h-564l-23 43v13h509v354h-212q101 -90 101 -166q0 -54 -33.5 -91t-82.5 -37q-140 0 -244 220q-16 34 -48 114l39 17l24 -51.5l29 -57t38 -63t41.5 -51t49.5 -40t52 -13.5q30 0 48 21.5t18 51.5q0 48 -47.5 97t-104.5 81l14 33h318v144h-545
l-26 51v14h733z" />
    <glyph glyph-name="uni097D" unicode="&#x97d;" horiz-adv-x="548" 
d="M253 663q68 0 138.5 -77t70.5 -162q0 -47 -27.5 -83.5t-66.5 -56.5q-37 -19 -104 -33v-283h-14l-64 35v309l9 15q91 7 135 32q74 43 74 102q-1 48 -41 89t-80 41q-68 0 -143 -65l-41 76q28 20 78 40.5t76 20.5z" />
    <glyph glyph-name="uni097E" unicode="&#x97e;" horiz-adv-x="586" 
d="M558 645l28 -52v-13h-114v-181h-237q-75 0 -75 -77q0 -22 15.5 -42t32.5 -20q36 0 108 20.5t107 20.5q40 0 77 -54t37 -108q0 -68 -43 -111.5t-120 -43.5q-86 0 -169 44t-174 146l32 30q140 -152 277 -152q57 0 101 27.5t44 79.5q0 23 -11 44t-24 28q-44 0 -105.5 -20
t-95.5 -20q-44 0 -97 52t-53 106q0 55 30 87t76 32h189v112h-398l-26 51v14h588zM531 -104l23 -41v-15h-499l-23 43v13h499z" />
    <glyph glyph-name="uni097F" unicode="&#x97f;" horiz-adv-x="655" 
d="M627 645l28 -52v-13h-113v-619h-487l-23 43v13h432l3 176l-3 2q-57 -47 -101.5 -71.5t-93.5 -24.5q-80 0 -141.5 48.5t-61.5 131.5q0 90 57.5 144.5t125.5 54.5t124 -39t91 -85h2v226h-470l-26 51v14h657zM291 401q-32 0 -64 -10l126 -191q68 36 112 92v1
q-26 39 -77 73.5t-97 34.5zM193 377q-37 -21 -58 -53.5t-21 -66.5q0 -40 34 -66.5t87 -26.5q40 0 86 19z" />
    <glyph glyph-name="uni2000" unicode="&#x2000;" horiz-adv-x="500" 
 />
    <glyph glyph-name="uni2001" unicode="&#x2001;" horiz-adv-x="1000" 
 />
    <glyph glyph-name="uni2002" unicode="&#x2002;" horiz-adv-x="500" 
 />
    <glyph glyph-name="uni2003" unicode="&#x2003;" horiz-adv-x="1000" 
 />
    <glyph glyph-name="uni2004" unicode="&#x2004;" horiz-adv-x="333" 
 />
    <glyph glyph-name="uni2005" unicode="&#x2005;" horiz-adv-x="250" 
 />
    <glyph glyph-name="uni2006" unicode="&#x2006;" horiz-adv-x="167" 
 />
    <glyph glyph-name="uni2007" unicode="&#x2007;" horiz-adv-x="629" 
 />
    <glyph glyph-name="uni2008" unicode="&#x2008;" horiz-adv-x="353" 
 />
    <glyph glyph-name="uni2009" unicode="&#x2009;" horiz-adv-x="200" 
 />
    <glyph glyph-name="uni200A" unicode="&#x200a;" horiz-adv-x="100" 
 />
    <glyph glyph-name="uni200C" unicode="&#x200c;" 
 />
    <glyph glyph-name="uni200D" unicode="&#x200d;" 
 />
    <glyph glyph-name="endash" unicode="&#x2013;" horiz-adv-x="678" 
d="M86 424h506v-67h-506v67z" />
    <glyph glyph-name="emdash" unicode="&#x2014;" horiz-adv-x="1172" 
d="M86 424h1000v-67h-1000v67z" />
    <glyph glyph-name="quoteleft" unicode="&#x2018;" horiz-adv-x="378" 
d="M204 461q-52 13 -78 60t-26 95q-1 78 44.5 136.5t108.5 83.5l21 -26v-13q-35 -12 -63 -55t-28 -91q0 -38 21.5 -69.5t48.5 -35.5v-20z" />
    <glyph glyph-name="quoteright" unicode="&#x2019;" horiz-adv-x="378" 
d="M97 496v13q36 11 63.5 54t27.5 92q0 39 -21 70t-49 35v21l50 64q51 -12 77.5 -59t26.5 -96q1 -77 -45 -136t-108 -84z" />
    <glyph glyph-name="quotesinglbase" unicode="&#x201a;" horiz-adv-x="375" 
d="M118 62l50 65q51 -13 77.5 -60t26.5 -95q1 -78 -45 -137t-108 -85l-22 28v12q36 12 63.5 55t27.5 92q0 39 -21 70t-49 34v21z" />
    <glyph glyph-name="quotedblleft" unicode="&#x201c;" horiz-adv-x="635" 
d="M204 461q-52 13 -78 60t-26 95q-1 78 44.5 136.5t108.5 83.5l21 -26v-13q-35 -12 -63 -55t-28 -91q0 -38 21.5 -69.5t48.5 -35.5v-20zM461 461q-51 13 -77.5 60t-26.5 95q-1 78 45 136.5t109 83.5l21 -26v-13q-36 -11 -63.5 -54t-27.5 -92q0 -39 21 -70t49 -35v-20z" />
    <glyph glyph-name="quotedblright" unicode="&#x201d;" horiz-adv-x="647" 
d="M104 496v13q35 12 63 55t28 91q0 39 -21 70t-49 35v21l49 64q51 -12 77.5 -59t26.5 -96q1 -77 -45 -136t-108 -84zM373 496v13q35 12 63 55t28 91q0 39 -21 70t-49 35v21l49 64q52 -12 78 -59t26 -96q1 -77 -45 -136t-108 -84z" />
    <glyph glyph-name="quotedblbase" unicode="&#x201e;" horiz-adv-x="645" 
d="M129 63l49 65q51 -13 78 -60t27 -95q0 -78 -46 -137t-108 -84l-21 27v12q36 12 63.5 55.5t27.5 91.5q0 39 -21 70t-49 34v21zM398 63l50 65q51 -13 77.5 -60t26.5 -95q0 -78 -46 -137t-108 -84l-21 27v12q36 12 63.5 55.5t27.5 91.5q0 39 -21 70t-49 34v21z" />
    <glyph glyph-name="dagger" unicode="&#x2020;" horiz-adv-x="451" 
d="M185 489l2 68l-142 -2v67l149 -2l-9 100l-2 85h85l-2 -85l-10 -100l150 2v-67l-142 2l2 -68l-18 -351h-45z" />
    <glyph glyph-name="daggerdbl" unicode="&#x2021;" horiz-adv-x="451" 
d="M268 805l-2 -85l-10 -100l150 2v-67l-143 2l3 -69l-10 -181l150 2v-66l-143 2l3 -74l-20 -350h-41l-20 350l2 74l-143 -2l1 66l149 -2l-9 181l2 69l-143 -2l1 67l149 -2l-9 100l-2 85h85z" />
    <glyph glyph-name="bullet" unicode="&#x2022;" horiz-adv-x="411" 
d="M202 258q-38 0 -64.5 29t-24.5 69q3 41 31.5 69.5t66.5 28.5t65 -28.5t25 -69.5q-3 -41 -32 -69.5t-67 -28.5z" />
    <glyph glyph-name="ellipsis" unicode="&#x2026;" horiz-adv-x="1034" 
d="M173 111q29 0 43.5 -15.5t14.5 -40.5q0 -29 -20.5 -47.5t-47.5 -18.5q-24 0 -41 15.5t-17 40.5q0 27 21.5 46.5t46.5 19.5zM517 111q29 0 43.5 -15.5t14.5 -40.5q0 -29 -20.5 -47.5t-47.5 -18.5q-24 0 -40.5 15.5t-16.5 40.5q0 27 21 46.5t46 19.5zM862 111
q29 0 43.5 -15.5t14.5 -40.5q0 -29 -20.5 -47.5t-47.5 -18.5q-24 0 -41 15.5t-17 40.5q0 27 21.5 46.5t46.5 19.5z" />
    <glyph glyph-name="perthousand" unicode="&#x2030;" horiz-adv-x="1245" 
d="M601 782l-271 -782h-71l270 782h72zM207 697q73 3 110 -48t37 -130q0 -84 -46.5 -131.5t-114.5 -49.5q-66 -2 -107 50t-41 126q0 84 47 132.5t115 50.5zM201 650q-39 0 -61 -35.5t-22 -96.5q0 -59 21 -96t59 -37q40 0 62.5 34.5t22.5 95.5q0 62 -21.5 98.5t-60.5 36.5z
M671 439q73 3 110 -48t37 -130q0 -83 -46.5 -131t-114.5 -50q-67 -1 -107.5 50.5t-40.5 125.5q0 84 47 132.5t115 50.5zM1053 439q73 3 110 -48t37 -130q0 -83 -46.5 -131t-114.5 -50q-67 -1 -107.5 50.5t-40.5 125.5q0 84 47 132.5t115 50.5zM666 392q-40 0 -62.5 -35.5
t-22.5 -96.5q0 -58 22 -95.5t60 -37.5q40 0 62 34.5t22 95.5q0 62 -21.5 98.5t-59.5 36.5zM1047 392q-39 0 -61.5 -35.5t-22.5 -96.5q0 -58 21.5 -95.5t59.5 -37.5q40 0 62.5 34.5t22.5 95.5q0 62 -21.5 98.5t-60.5 36.5z" />
    <glyph glyph-name="guilsinglleft" unicode="&#x2039;" horiz-adv-x="581" 
d="M120 336l316 189l23 -39l-256 -186l256 -179l-23 -41l-316 181v75z" />
    <glyph glyph-name="guilsinglright" unicode="&#x203a;" horiz-adv-x="581" 
d="M122 118l255 186l-255 179l23 42l316 -181v-76l-316 -188z" />
    <glyph glyph-name="fraction" unicode="&#x2044;" horiz-adv-x="432" 
d="M367 918l58 -16l-370 -1069l-60 13z" />
    <glyph glyph-name="Euro" unicode="&#x20ac;" horiz-adv-x="679" 
d="M417 764q32 0 67 -4.5t51.5 -8t50 -13t34.5 -9.5l-8 -137h-39l-24 82q-55 38 -160 38q-84 0 -138 -54.5t-73 -157.5h285v-58h-292q-3 -30 -3 -60q0 -32 1 -48h280v-57h-275q30 -243 221 -243q103 1 164 48l20 85h41v-136q-4 0 -84.5 -22.5t-162.5 -22.5q-128 0 -202 77.5
t-90 213.5h-100v57h95v20q0 46 6 88h-86v58h97q32 126 116.5 195t207.5 69z" />
    <glyph glyph-name="uni20B9" unicode="&#x20b9;" horiz-adv-x="631" 
d="M552 580h-192q38 -40 48 -85h171v-14l-27 -51h-143q-20 -109 -180 -162l252 -255l-66 -50l-213 244q-39 43 -45 86l5 4q43 10 99.5 45.5t68.5 87.5h-197v14l27 51h162q-16 40 -65 85h-124v13l27 52h419v-14z" />
    <glyph glyph-name="trademark" unicode="&#x2122;" horiz-adv-x="1077" 
d="M155 415l60 7v293l-82 -5l-20 -65h-30l9 113h330v-113l-28 -2l-13 67l-86 6v-294l65 -7v-36h-205v36zM468 415l54 7l15 293l-52 5v38h165l81 -220l20 -70l95 290h144v-38l-48 -5l29 -293l47 -7v-36h-165v36l45 7l-15 187l-5 107l-11 -38l-103 -303h-49l-105 270l-28 73
l-2 -79l-10 -217l48 -7v-36h-150v36z" />
    <glyph glyph-name="partialdiff" unicode="&#x2202;" horiz-adv-x="606" 
d="M282 832q79 0 136.5 -28.5t89 -80t46 -114t14.5 -139.5q0 -67 -9 -131t-31.5 -129t-57 -113t-91 -78.5t-127.5 -30.5q-96 0 -158.5 59.5t-62.5 152.5q0 128 99 212.5t233 84.5q63 0 123 -21q-3 65 -15 115.5t-37.5 94.5t-72.5 67.5t-113 23.5q-87 0 -154 -43l-28 37
q90 61 216 61zM331 442q-89 0 -152.5 -57t-63.5 -159q0 -77 49 -130t123 -53q49 0 85.5 24t58 66t33.5 86t17 97q3 26 5 77q-70 49 -155 49z" />
    <glyph glyph-name="uni2206" unicode="&#x2206;" horiz-adv-x="864" 
d="M408 735h16l366 -722l-8 -13h-703l-7 11zM670 55l-270 544l-251 -544h521z" />
    <glyph glyph-name="product" unicode="&#x220f;" horiz-adv-x="691" 
d="M98 -34v740l-81 8v44h649v-44l-81 -8v-740l84 -14v-38h-256v38l84 14v744h-311v-744l85 -14v-38h-256v38z" />
    <glyph glyph-name="summation" unicode="&#x2211;" horiz-adv-x="777" 
d="M375 332l-273 389l3 37h524l16 -156h-47l-27 103l-371 6l267 -365l-271 -388l380 14l47 105l44 -11l-22 -154l-536 1l-7 15z" />
    <glyph glyph-name="minus" unicode="&#x2212;" horiz-adv-x="604" 
d="M86 424h432v-67h-432v67z" />
    <glyph glyph-name="radical" unicode="&#x221a;" horiz-adv-x="864" 
d="M88 283l86 63h78l164 -426h4l311 1018h74l-349 -1111h-81l-189 450l-63 -47z" />
    <glyph glyph-name="infinity" unicode="&#x221e;" horiz-adv-x="864" 
d="M629 482q85 1 130.5 -49t45.5 -122q0 -80 -55.5 -135.5t-131.5 -55.5q-58 0 -103.5 34.5t-96.5 96.5q-33 -43 -53 -65.5t-54 -43.5t-70 -22q-87 -1 -136 50t-49 122q0 80 55.5 135t131.5 55q58 0 103.5 -34.5t96.5 -96.5q48 62 91 96t95 35zM230 427q-46 0 -70 -34
t-24 -84q0 -55 32.5 -95.5t81.5 -40.5q39 0 72.5 30t71.5 83q-4 5 -22 29l-25.5 33.5t-25 28.5t-29.5 27t-29 15.5t-33 7.5zM620 425q-67 0 -152 -109q24 -33 37.5 -49.5t38.5 -43.5t48.5 -39.5t47.5 -12.5q85 0 85 123q0 54 -28.5 92.5t-76.5 38.5z" />
    <glyph glyph-name="integral" unicode="&#x222b;" horiz-adv-x="519" 
d="M378 833q100 0 129 -67l-59 -42q-5 21 -30 38t-54 17q-65 0 -87 -39t-22 -126q0 -98 38 -297.5t38 -296.5q0 -103 -55.5 -175t-146.5 -72q-100 0 -129 68l59 41q5 -21 30 -37.5t54 -16.5q65 0 87 38.5t22 127.5q0 94 -38 294.5t-38 297.5q0 103 55.5 175t146.5 72z" />
    <glyph glyph-name="approxequal" unicode="&#x2248;" horiz-adv-x="625" 
d="M74 480q23 38 68 64.5t96 26.5q32 0 61 -21t54 -42t49 -21q51 0 106 53l32 -41q-24 -38 -68.5 -65t-95.5 -27q-33 0 -61.5 21.5t-53.5 42.5t-49 21q-51 0 -106 -53zM81 289q22 38 67.5 64.5t96.5 26.5q32 0 61 -21t54 -41.5t49 -20.5q52 0 106 52l32 -40
q-24 -39 -68.5 -66t-95.5 -27q-33 0 -61.5 21t-53.5 42.5t-49 21.5q-53 0 -106 -53z" />
    <glyph glyph-name="notequal" unicode="&#x2260;" horiz-adv-x="604" 
d="M226 258h-140v66h160l35 126h-195v67h215l26 88h78l-26 -88h139v-67h-158l-35 -126h193v-66h-213l-25 -85h-78z" />
    <glyph glyph-name="lessequal" unicode="&#x2264;" horiz-adv-x="644" 
d="M86 497l473 208v-78l-366 -150l366 -151v-78l-473 211v38zM86 153h473v-67h-473v67z" />
    <glyph glyph-name="greaterequal" unicode="&#x2265;" horiz-adv-x="644" 
d="M86 326l365 151l-365 150v78l473 -208v-38l-473 -211v78zM86 153h473v-67h-473v67z" />
    <glyph glyph-name="lozenge" unicode="&#x25ca;" horiz-adv-x="691" 
d="M92 337v25l209 329h85l206 -337v-25l-210 -329h-85zM515 333l-177 301l-169 -276l176 -301z" />
    <glyph glyph-name="uni25CC" unicode="&#x25cc;" horiz-adv-x="769" 
d="M345 575q0 16 12 28.5t29 12.5q16 0 28.5 -12.5t12.5 -28.5q0 -17 -12.5 -29t-28.5 -12q-17 0 -29 12t-12 29zM218 543q0 17 12 29t28 12t28.5 -12t12.5 -29t-12.5 -29t-28.5 -12t-28 12t-12 29zM469 543q0 17 12.5 29t28.5 12q17 0 29 -12t12 -29t-12 -29t-29 -12
q-16 0 -28.5 12t-12.5 29zM124 450q0 17 12 29t29 12t29 -12.5t12 -28.5q0 -17 -12 -29t-29 -12t-29 12t-12 29zM564 450q0 16 12 28.5t29 12.5t29 -12t12 -29t-12 -29t-29 -12t-29 12t-12 29zM93 323q0 17 12 29t29 12t29 -12t12 -29t-12.5 -29t-28.5 -12q-17 0 -29 12
t-12 29zM596 323q0 17 12 29t28 12q17 0 29 -12t12 -29t-12 -29t-29 -12q-16 0 -28 12.5t-12 28.5zM124 197q0 17 12 28.5t29 11.5t29 -12t12 -28q0 -17 -12 -29t-29 -12t-29 12t-12 29zM564 197q0 16 12 28t29 12t29 -11.5t12 -28.5t-12 -29t-29 -12t-29 12t-12 29z
M218 102q0 16 12 28t28 12q17 0 29 -12t12 -28t-12.5 -28.5t-28.5 -12.5t-28 12t-12 29zM469 102q0 16 12 28t29 12t29 -11.5t12 -28.5t-12 -29t-29 -12q-16 0 -28.5 12.5t-12.5 28.5zM345 71q0 17 12 29t29 12q16 0 28.5 -12t12.5 -29q0 -16 -12.5 -28.5t-28.5 -12.5
q-17 0 -29 12t-12 29z" />
    <glyph glyph-name="uni093F0902" horiz-adv-x="301" 
d="M39 834q1 67 57.5 111t146.5 44q55 0 118 -24.5t129.5 -70t116 -86l111.5 -95.5l-25 -32q-135 114 -233.5 176t-184.5 62q-68 0 -111.5 -32.5t-44.5 -92.5q0 -38 16 -80.5t33 -68.5h105l28 -52v-13h-111v-612h-15l-64 35v577h-115l-26 51v14h146q-78 113 -77 189z
M779 847l-73 -74l-73 73l72 74z" />
    <glyph glyph-name="uni093F0930094D" horiz-adv-x="301" 
d="M699 1046q89 0 164 -77l-25 -37q-59 48 -124 48q-40 0 -67 -25.5t-27 -72.5q0 -67 64 -138l10.5 -11t12.5 -12.5t10 -9.5l-24 -30q-86 74 -145.5 118.5t-135.5 82t-136 37.5q-68 0 -111.5 -32.5t-44.5 -92.5q-1 -38 15 -81t33 -68h105l28 -52v-13h-111v-612h-15l-64 35
v577h-115l-26 51v14h147q-78 114 -78 189q1 67 57.5 111t147.5 44q129 0 324 -151l2 2q-24 37 -24 75q0 61 47 96t106 35z" />
    <glyph glyph-name="uni093F0930094D0902" horiz-adv-x="301" 
d="M699 1046q89 0 164 -77l-25 -37q-59 48 -124 48q-40 0 -67 -25.5t-27 -72.5q0 -67 64 -138l10.5 -11t12.5 -12.5t10 -9.5l-24 -30q-86 74 -145.5 118.5t-135.5 82t-136 37.5q-68 0 -111.5 -32.5t-44.5 -92.5q-1 -38 15 -81t33 -68h105l28 -52v-13h-111v-612h-15l-64 35
v577h-115l-26 51v14h147q-78 114 -78 189q1 67 57.5 111t147.5 44q129 0 324 -151l2 2q-24 37 -24 75q0 61 47 96t106 35zM748 916l68 -68l-68 -70l-67 69z" />
    <glyph glyph-name="uni09400902" horiz-adv-x="301" 
d="M171 645h102l28 -52v-13h-111v-612h-15l-64 35v577h-115l-26 51v14h151l-32.5 76.5t-38.5 78t-46 74t-51 50t-57 21.5q-41 0 -65 -30t-24 -67q0 -66 55 -126v-2l-44 -21q-39 33 -67.5 80t-28.5 100q0 55 42 96t109 41q43 0 82 -24t67.5 -57.5t57 -85.5t45.5 -92l39 -94
q5 -12 7 -18zM341 796l-73 -74l-73 73l72 74z" />
    <glyph glyph-name="uni09400930094D" horiz-adv-x="301" 
d="M-127 1016q97 0 179 -136q15 43 56.5 71.5t89.5 28.5q85 0 155 -70l-25 -39q-56 42 -114 42q-40 0 -66 -25t-26 -71q0 -26 8.5 -57t16.5 -50t29 -65h97l28 -52v-13h-111v-612h-15l-64 35v577h-115l-26 51v14h140q-17 43 -31 74.5t-37.5 77.5t-45 75t-49 51t-54.5 22
q-39 0 -62.5 -30t-23.5 -67q0 -66 55 -126v-2l-44 -21q-39 33 -67.5 80t-28.5 100q0 55 42 96t109 41z" />
    <glyph glyph-name="uni09400930094D0902" horiz-adv-x="301" 
d="M-127 1016q97 0 179 -136q15 43 56.5 71.5t89.5 28.5q85 0 155 -70l-25 -39q-56 42 -114 42q-40 0 -66 -25t-26 -71q0 -26 8.5 -57t16.5 -50t29 -65h97l28 -52v-13h-111v-612h-15l-64 35v577h-115l-26 51v14h140q-17 43 -31 74.5t-37.5 77.5t-45 75t-49 51t-54.5 22
q-39 0 -62.5 -30t-23.5 -67q0 -66 55 -126v-2l-44 -21q-39 33 -67.5 80t-28.5 100q0 55 42 96t109 41zM248 843l68 -68l-68 -68l-68 68z" />
    <glyph glyph-name="uni094B0902" horiz-adv-x="301" 
d="M175 645h98l28 -52v-13h-111v-612h-15l-64 35v577h-115l-26 51v14h152q-36 81 -52 106q-86 158 -113 172l-117 -35q-34 26 -34 68q0 28 18.5 44t50.5 16q67 0 118 -55.5t106 -161.5q53 -99 76 -154zM310 795l-73 -74l-73 74l72 74z" />
    <glyph glyph-name="uni094B0930094D" horiz-adv-x="301" 
d="M210 913q-41 0 -68 -25t-27 -71q0 -8 1 -17t2 -16t4 -17t4.5 -15.5t6.5 -17l7 -16l8 -17.5t8.5 -17.5t10 -19.5l9.5 -19h97l28 -52v-13h-111v-612h-15l-64 35v577h-115l-26 51v14h139q-26 62 -51 106q-37 66 -73 114.5t-53 57.5l-118 -35q-33 27 -33 68q0 28 18.5 44
t49.5 16q56 0 103 -39.5t93 -112.5q9 49 52.5 82.5t96.5 33.5q86 0 156 -70l-25 -39q-58 42 -115 42z" />
    <glyph glyph-name="uni094B0930094D0902" horiz-adv-x="301" 
d="M210 913q-41 0 -68 -25t-27 -71q0 -8 1 -17t2 -16t4 -17t4.5 -15.5t6.5 -17l7 -16l8 -17.5t8.5 -17.5t10 -19.5l9.5 -19h97l28 -52v-13h-111v-612h-15l-64 35v577h-115l-26 51v14h139q-26 62 -51 106q-37 66 -73 114.5t-53 57.5l-118 -35q-33 27 -33 68q0 28 18.5 44
t49.5 16q56 0 103 -39.5t93 -112.5q9 49 52.5 82.5t96.5 33.5q86 0 156 -70l-25 -39q-58 42 -115 42zM244 843l68 -68l-67 -68l-69 68z" />
    <glyph glyph-name="uni094C0902" horiz-adv-x="301" 
d="M182 645h91l28 -52v-13h-111v-612h-15l-64 35v577h-115l-26 51v14h113q-93 118 -115 129l-138 -18h-2q-28 24 -28 55q0 25 17.5 40.5t46.5 15.5q112 0 255 -222h29q-34 80 -50 112q-35 69 -69 124.5t-52 70.5l-128 -37h-1q-34 26 -34 68q0 28 18 44t50 16q75 0 128.5 -62
t105.5 -174q38 -78 66 -162zM320 796l-73 -74l-73 73l72 74z" />
    <glyph glyph-name="uni094C0930094D" horiz-adv-x="301" 
d="M-135 1043q61 0 106.5 -44t93.5 -131q11 48 53.5 80t93.5 32q86 0 156 -70l-25 -39q-56 42 -115 42q-39 0 -65.5 -25t-27.5 -71q0 -9 1 -18t2.5 -16.5t4.5 -17.5t4.5 -16t6.5 -17.5t6.5 -16t8 -18t8 -17t9 -18t8.5 -17.5h79l28 -52v-13h-111v-612h-15l-64 35v577h-115
l-26 51v14h104q-93 120 -114 129l-139 -18q-30 23 -30 55q0 25 18 40.5t47 15.5q113 0 254 -222h27q-36 77 -66 128q-86 155 -116 179l-126 -36q-34 26 -34 68q0 28 19 43.5t51 15.5z" />
    <glyph glyph-name="uni094C0930094D0902" horiz-adv-x="301" 
d="M-135 1043q61 0 106.5 -44t93.5 -131q11 48 53.5 80t93.5 32q86 0 156 -70l-25 -39q-56 42 -115 42q-39 0 -65.5 -25t-27.5 -71q0 -9 1 -18t2.5 -16.5t4.5 -17.5t4.5 -16t6.5 -17.5t6.5 -16t8 -18t8 -17t9 -18t8.5 -17.5h79l28 -52v-13h-111v-612h-15l-64 35v577h-115
l-26 51v14h104q-93 120 -114 129l-139 -18q-30 23 -30 55q0 25 18 40.5t47 15.5q113 0 254 -222h27q-36 77 -66 128q-86 155 -116 179l-126 -36q-34 26 -34 68q0 28 19 43.5t51 15.5zM263 843l69 -68l-68 -68l-69 68z" />
    <glyph glyph-name="uni093F.0" horiz-adv-x="301" 
d="M189 976q59 0 122.5 -44t108 -99t87.5 -125l-33 -19q-144 217 -253 217q-45 0 -73 -28.5t-29 -77.5q0 -40 16 -84.5t33 -70.5h105l28 -52v-13h-111v-612h-15l-64 35v577h-115l-26 51v14h147q-79 114 -78 195q1 59 43 97.5t107 38.5z" />
    <glyph glyph-name="uni093F0902.0" horiz-adv-x="301" 
d="M189 976q59 0 122.5 -44t108 -99t87.5 -125l-33 -19q-144 217 -253 217q-45 0 -73 -28.5t-29 -77.5q0 -40 16 -84.5t33 -70.5h105l28 -52v-13h-111v-612h-15l-64 35v577h-115l-26 51v14h147q-79 114 -78 195q1 59 43 97.5t107 38.5zM566 887l72 -73l-72 -74l-74 73z" />
    <glyph glyph-name="uni093F0930094D.0" horiz-adv-x="301" 
d="M500 1049q86 0 155 -69l-24 -40q-53 42 -115 42q-40 0 -67 -23.5t-27 -65.5q0 -50 32 -102q3 -5 52 -80l-34 -19q-73 102 -132.5 158t-118.5 56q-45 0 -73 -28.5t-29 -77.5q0 -40 16 -84.5t33 -70.5h105l28 -52v-13h-111v-612h-15l-64 35v577h-115l-26 51v14h147
q-79 114 -78 195q1 59 43 97.5t107 38.5q77 0 166 -82l3 2q-5 15 -5 33q0 54 45 87t102 33z" />
    <glyph glyph-name="uni093F0930094D0902.0" horiz-adv-x="301" 
d="M500 1049q86 0 155 -69l-24 -40q-53 42 -115 42q-40 0 -67 -23.5t-27 -65.5q0 -50 32 -102q3 -5 52 -80l-34 -19q-73 102 -132.5 158t-118.5 56q-45 0 -73 -28.5t-29 -77.5q0 -40 16 -84.5t33 -70.5h105l28 -52v-13h-111v-612h-15l-64 35v577h-115l-26 51v14h147
q-79 114 -78 195q1 59 43 97.5t107 38.5q77 0 166 -82l3 2q-5 15 -5 33q0 54 45 87t102 33zM556 920l74 -73l-74 -74l-73 73z" />
    <glyph glyph-name="uni093F.05" horiz-adv-x="301" 
d="M294 989q213 0 586 -276l-25 -32q-336 238 -529 238q-94 0 -145 -39.5t-52 -104.5q0 -73 39 -130h105l28 -52v-13h-111v-612h-15l-64 35v577h-115l-26 51v14h146q-68 97 -67 170t65 123.5t180 50.5z" />
    <glyph glyph-name="uni093F.10" horiz-adv-x="301" 
d="M301 989q92 0 212.5 -46.5t214 -103t190.5 -126.5l-25 -32q-344 238 -560 238q-98 0 -150.5 -39.5t-53.5 -104.5q0 -73 39 -130h105l28 -52v-13h-111v-612h-15l-64 35v577h-115l-26 51v14h146q-68 97 -67 170t66 123.5t186 50.5z" />
    <glyph glyph-name="uni093F0902.05" horiz-adv-x="301" 
d="M294 989q213 0 586 -276l-25 -32q-336 238 -529 238q-94 0 -145 -39.5t-52 -104.5q0 -73 39 -130h105l28 -52v-13h-111v-612h-15l-64 35v577h-115l-26 51v14h146q-68 97 -67 170t65 123.5t180 50.5zM918 885l72 -73l-72 -74l-73 73z" />
    <glyph glyph-name="uni093F0902.10" horiz-adv-x="301" 
d="M301 989q92 0 212.5 -46.5t214 -103t190.5 -126.5l-25 -32q-344 238 -560 238q-98 0 -150.5 -39.5t-53.5 -104.5q0 -73 39 -130h105l28 -52v-13h-111v-612h-15l-64 35v577h-115l-26 51v14h146q-68 97 -67 170t66 123.5t186 50.5zM955 885l72 -73l-72 -74l-73 73z" />
    <glyph glyph-name="uni093F0930094D.05" horiz-adv-x="301" 
d="M861 1048q92 0 164 -77l-25 -37q-59 48 -124 48q-40 0 -67 -25.5t-27 -71.5q0 -73 75 -150q8 -7 23 -22l-25 -32q-336 238 -529 238q-94 0 -145 -39.5t-52 -104.5q0 -73 39 -130h105l28 -52v-13h-111v-612h-15l-64 35v577h-115l-26 51v14h146q-68 97 -67 170t65 123.5
t180 50.5q169 0 448 -180l1 1q-34 51 -34 107q0 60 46.5 95.5t105.5 35.5z" />
    <glyph glyph-name="uni093F0930094D.10" horiz-adv-x="301" 
d="M913 982q-40 0 -67 -25.5t-27 -71.5q0 -78 82 -156q6 -5 17 -16l-25 -32q-344 238 -560 238q-98 0 -150.5 -39.5t-53.5 -104.5q0 -73 39 -130h105l28 -52v-13h-111v-612h-15l-64 35v577h-115l-26 51v14h146q-68 97 -67 170t66 123.5t186 50.5q193 0 482 -186l1 1
q-38 56 -38 113q0 61 47 96t106 35q91 0 163 -77l-25 -37q-59 48 -124 48z" />
    <glyph glyph-name="uni093F0930094D0902.05" horiz-adv-x="301" 
d="M861 1048q92 0 164 -77l-25 -37q-59 48 -124 48q-40 0 -67 -25.5t-27 -71.5q0 -73 75 -150q8 -7 23 -22l-25 -32q-336 238 -529 238q-94 0 -145 -39.5t-52 -104.5q0 -73 39 -130h105l28 -52v-13h-111v-612h-15l-64 35v577h-115l-26 51v14h146q-68 97 -67 170t65 123.5
t180 50.5q169 0 448 -180l1 1q-34 51 -34 107q0 60 46.5 95.5t105.5 35.5zM911 919l68 -69l-68 -69l-68 69z" />
    <glyph glyph-name="uni093F0930094D0902.10" horiz-adv-x="301" 
d="M913 982q-40 0 -67 -25.5t-27 -71.5q0 -78 82 -156q6 -5 17 -16l-25 -32q-344 238 -560 238q-98 0 -150.5 -39.5t-53.5 -104.5q0 -73 39 -130h105l28 -52v-13h-111v-612h-15l-64 35v577h-115l-26 51v14h146q-68 97 -67 170t66 123.5t186 50.5q193 0 482 -186l1 1
q-38 56 -38 113q0 61 47 96t106 35q91 0 163 -77l-25 -37q-59 48 -124 48zM948 919l68 -69l-68 -69l-67 69z" />
    <glyph glyph-name="uni0940.02" horiz-adv-x="301" 
d="M-357 1022q66 0 142 -37t148 -99t127.5 -119.5t107.5 -121.5h105l28 -52v-13h-111v-612h-15l-64 35v577h-115l-26 51v14h138q-58 69 -127.5 133t-156 115.5t-150.5 51.5q-53 0 -86.5 -28t-33.5 -71q0 -34 17 -68.5t37 -55.5v-2l-44 -22q-39 32 -67 79.5t-28 100.5
q0 60 44 102t130 42z" />
    <glyph glyph-name="uni09400902.02" horiz-adv-x="301" 
d="M-357 1022q66 0 142 -37t148 -99t127.5 -119.5t107.5 -121.5h105l28 -52v-13h-111v-612h-15l-64 35v577h-115l-26 51v14h138q-58 69 -127.5 133t-156 115.5t-150.5 51.5q-53 0 -86.5 -28t-33.5 -71q0 -34 17 -68.5t37 -55.5v-2l-44 -22q-39 32 -67 79.5t-28 100.5
q0 60 44 102t130 42zM208 869l74 -74l-73 -74l-73 74z" />
    <glyph glyph-name="uni09400930094D.02" horiz-adv-x="301" 
d="M-357 1022q168 0 408 -244q-10 27 -10 61q0 61 46.5 101t106.5 40q86 0 156 -70l-26 -39q-54 42 -114 42q-41 0 -67 -24.5t-26 -72.5q0 -70 58 -171h98l28 -52v-13h-111v-612h-15l-64 35v577h-115l-26 51v14h138q-58 69 -127.5 133t-156 115.5t-150.5 51.5
q-53 0 -86.5 -28t-33.5 -71q0 -34 17 -68.5t37 -55.5v-2l-44 -22q-39 32 -67 79.5t-28 100.5q0 60 44 102t130 42z" />
    <glyph glyph-name="uni09400930094D0902.02" horiz-adv-x="301" 
d="M-357 1022q168 0 408 -244q-10 27 -10 61q0 61 46.5 101t106.5 40q86 0 156 -70l-26 -39q-54 42 -114 42q-41 0 -67 -24.5t-26 -72.5q0 -70 58 -171h98l28 -52v-13h-111v-612h-15l-64 35v577h-115l-26 51v14h138q-58 69 -127.5 133t-156 115.5t-150.5 51.5
q-53 0 -86.5 -28t-33.5 -71q0 -34 17 -68.5t37 -55.5v-2l-44 -22q-39 32 -67 79.5t-28 100.5q0 60 44 102t130 42zM248 843l68 -68l-68 -68l-68 68z" />
    <glyph glyph-name="uni0932.loclMAR" horiz-adv-x="723" 
d="M696 645l27 -52v-13h-191v-150q50 -12 89.5 -53t39.5 -94q0 -48 -23 -98.5t-48 -81t-62 -69.5l-68 49q135 125 135 223q0 36 -23 57t-45 21q-34 0 -63.5 -21.5t-49 -56.5t-32 -68.5t-20.5 -68.5l-70 43q16 64 41 106q-50 62 -112 62q-44 0 -73 -32t-29 -82
q0 -141 159 -284l-29 -30q-39 34 -68.5 65.5t-62.5 76.5t-51 98.5t-18 109.5q0 63 40 105.5t99 42.5q93 0 168 -95q44 57 99 71v154h-459l-26 51v14h726z" />
    <glyph glyph-name="uni0936.loclMAR" horiz-adv-x="735" 
d="M720 645l28 -51v-14h-111v-612h-15l-63 35v577h-274v-80q59 -16 105 -73t46 -113q0 -54 -53 -106.5t-121 -70.5l112 -169l-60 -38l-97 201h-3q-43 0 -85.5 22t-42.5 53t22.5 51t46.5 20q9 0 15 -2l51 -77q69 16 109.5 58t40.5 95q0 36 -24.5 62.5t-63.5 26.5
q-71 0 -186 -50l-37 71q79 32 147 41v78h-211l-26 51v14h750z" />
    <glyph glyph-name="uni091D.loclNEP" horiz-adv-x="974" 
d="M155 656q26 0 51 -7t50 -23t40 -48t15 -76v-208h224v286h-158l-27 51v14h597l27 -52v-13h-362v-216q79 74 147 74q77 0 119.5 -52.5t42.5 -139.5q0 -42 -22 -103.5t-48 -98.5l-60 63q28 32 54.5 77.5t26.5 86.5q0 43 -26.5 71.5t-64.5 28.5q-74 0 -169 -97v-306h-14
l-63 36v224h-224q-6 -86 -64 -86q-44 0 -75 51q-27 44 -22 101h83v79q-86 32 -135.5 74.5t-49.5 106.5q0 48 30.5 75t76.5 27zM179 600q-28 0 -45.5 -17.5t-17.5 -50.5q0 -70 123 -109q6 56 6 96q0 35 -19.5 58t-46.5 23z" />
    <glyph glyph-name="uni0979.loclNEP" horiz-adv-x="705" 
d="M677 645l28 -52v-13h-442q46 -70 67 -131q44 13 86 13q98 0 159.5 -70t61.5 -161q1 -71 -36 -119t-93 -62l97 -145l-59 -30l-84 171q-39 2 -70 12q-56 20 -56 57q0 30 22.5 50.5t45.5 20.5q11 0 15 -2l51 -76q54 15 86 53t32 93q0 62 -42.5 100t-99.5 38q-56 0 -97 -26
v-15q0 -70 -44 -121.5t-118 -51.5q-75 0 -132 46l-19 54l14 16q44 -47 113 -47q45 0 78 27t33 91q0 50 -26 112t-64 103h-187l-27 51v14h707z" />
    <glyph glyph-name="uni0928.post" 
d="M-148 351v-52l-269 -156l56 -83q-35 -33 -84 -33q-36 0 -64 22.5t-28 59.5q0 45 78 91q38 22 87.5 46l128 60.5z" />
    <glyph glyph-name="uni092F.post" horiz-adv-x="811" 
d="M784 645l27 -52v-13h-111v-612h-15l-64 36l2 113l-4 2q-81 -56 -154 -56q-79 0 -136 53t-90 142q136 38 136 90q0 51 -75 51h-209v69h169q68 0 124.5 -46t56.5 -101q0 -26 -21 -48.5t-44.5 -34.5t-58.5 -26q31 -79 113 -79q54 0 107.5 26.5t84.5 61.5v359h-626l-26 51v14
h814z" />
    <glyph glyph-name="uni0930.post" horiz-adv-x="185" 
d="M-152 339l1 -75l-300 -255l-53 60z" />
    <glyph glyph-name="uni0935.post" 
d="M-111 35v-467h-15l-63 36l1 96l-3 2q-82 -63 -150 -63q-60 0 -110.5 41.5t-50.5 106.5q0 61 45 108.5t97 47.5q87 0 170 -91h1v183h78zM-326 -130q-51 0 -90.5 -32t-39.5 -74q0 -29 21.5 -45t59.5 -16q100 0 186 90v1q-55 76 -137 76z" />
    <glyph glyph-name="uni0915094D0915" horiz-adv-x="1440" 
d="M1440 580h-362v-224q79 73 146 73q78 0 120.5 -52t42.5 -140q0 -42 -22 -103t-47 -99l-61 63q28 32 54.5 78t26.5 87q0 42 -26.5 71t-64.5 29q-67 0 -169 -96v-299h-15l-65 36l4 193l-1 1q-31 -26 -50.5 -40.5t-53.5 -27.5t-70 -13q-74 0 -123.5 47t-49.5 129q0 8 2 24
q-20 12 -43 12q-58 0 -134 -64v-297h-15l-65 36l4 191l-2 1v1q-30 -26 -50.5 -40t-53.5 -27t-69 -13q-74 0 -123.5 47t-49.5 129q0 66 43.5 115.5t111.5 49.5q110 0 191 -119v241h-405l-26 51v14h629h813l28 -52v-13zM590 396q48 0 84 -22q44 84 135 84q109 0 191 -118v240
h-373h-148v-229q61 45 111 45zM798 186q103 0 202 97v3q-28 38 -72.5 66t-89.5 28q-52 0 -94.5 -29.5t-42.5 -80.5q0 -38 29.5 -61t67.5 -23zM199 186q102 0 202 96v4q-28 38 -72.5 66t-89.5 28q-52 0 -94.5 -29.5t-42.5 -80.5q0 -38 29.5 -61t67.5 -23z" />
    <glyph glyph-name="uni0915094D0924" horiz-adv-x="943" 
d="M582 580v-225q76 74 146 74q78 0 120.5 -52t42.5 -140q0 -42 -22.5 -103.5t-47.5 -98.5l-60 63q28 32 54.5 78t26.5 87q0 42 -26.5 71t-65.5 29q-71 0 -168 -97v-298h-14l-64 35v351h-176q-55 0 -88 -33t-32 -80q0 -112 154 -230l-26 -28q-90 69 -144 138.5t-54 148.5
q-2 48 29 84h-120l-26 52v14h483v160h-507l-27 51v14h947l27 -52v-13h-362z" />
    <glyph glyph-name="uni0915094D0930" horiz-adv-x="841" 
d="M841 580h-362v-225q78 74 146 74q78 0 120.5 -52t42.5 -140q0 -42 -22 -103t-47 -99l-61 63q28 32 54.5 78t26.5 87q0 42 -26.5 71t-64.5 29q-67 0 -169 -96v-299h-15l-65 36l4 195l-2 1l-296 -248l-55 60l164 113q-69 4 -114 48.5t-45 119.5q0 66 43.5 115.5t111.5 49.5
q110 0 191 -119v241h-405l-26 51v14h843l28 -52v-13zM102 270q0 -38 29.5 -61t67.5 -23q102 0 202 96v4q-28 38 -72.5 66t-89.5 28q-52 0 -94.5 -29.5t-42.5 -80.5z" />
    <glyph glyph-name="uni0915094D0932" horiz-adv-x="1332" 
d="M1332 593v-13h-112v-612h-14l-63 35v344q-27 27 -50 27q-33 0 -62 -35.5t-45 -77.5t-27 -89l-68 40q14 61 39 109q-54 59 -110 59q-44 0 -73 -32t-29 -82q0 -141 159 -284l-29 -30q-39 34 -68.5 65.5t-62.5 76.5t-51 98.5t-18 109.5q0 13 1 19q-18 8 -36 8
q-58 0 -134 -64v-297h-15l-65 36l4 191l-2 1v1q-30 -26 -50.5 -40t-53.5 -27t-69 -13q-74 0 -123.5 47t-49.5 129q0 66 43.5 115.5t111.5 49.5q110 0 191 -119v241h-405l-26 51v14h629h705zM1143 392v188h-516h-148v-229q61 45 111 45q44 0 77 -18q18 33 49.5 52.5
t70.5 19.5q91 0 166 -92q50 72 115 73q38 0 75 -39zM199 186q102 0 202 96v4q-28 38 -72.5 66t-89.5 28q-52 0 -94.5 -29.5t-42.5 -80.5q0 -38 29.5 -61t67.5 -23z" />
    <glyph glyph-name="uni0915094D0935" horiz-adv-x="1249" 
d="M1222 645l27 -52v-13h-112v-612h-13l-65 36l3 183l-3 2q-113 -90 -194 -90q-80 0 -140 48t-60 132q0 12 2 30q-23 20 -54 20q-58 0 -134 -64v-297h-15l-65 36l4 191l-2 1v1q-30 -26 -50.5 -40t-53.5 -27t-69 -13q-74 0 -123.5 47t-49.5 129q0 66 43.5 115.5t111.5 49.5
q110 0 191 -119v241h-405l-26 51v14h629h623zM590 396q56 0 93 -28q23 52 68.5 81t93.5 29q62 0 118 -36.5t96 -88.5h2v227h-434h-148v-229q61 45 111 45zM831 164q57 0 122 38t108 89v1q-31 44 -81 76.5t-94 32.5q-74 0 -123.5 -45t-49.5 -99q0 -40 33.5 -66.5t84.5 -26.5z
M199 186q102 0 202 96v4q-28 38 -72.5 66t-89.5 28q-52 0 -94.5 -29.5t-42.5 -80.5q0 -38 29.5 -61t67.5 -23z" />
    <glyph glyph-name="uni0915094D0937" horiz-adv-x="803" 
d="M803 580h-112v-612h-14l-62 35l-1 280h-1q-57 -24 -114 -24q-111 0 -207 62q-14 -8 -44.5 -23.5t-46 -25t-34.5 -24t-27.5 -31t-8.5 -36.5q-1 -42 28 -75.5t73 -33.5q40 0 88 17l-34 78q34 27 71 27q38 0 58 -21t20 -52q0 -54 -52 -84l81 -141l-49 -25l-65 151
q-36 -12 -75 -12q-65 0 -143.5 65.5t-77.5 145.5q0 9 2.5 18t6 16.5t11.5 16l13.5 14t17.5 13.5l19 13t22 13l22 11.5l24 12.5l23 12q-60 34 -96.5 75.5t-36.5 81.5q0 67 48 105.5t113 38.5q49 0 111 -60t62 -112q0 -87 -86 -146q61 -17 133 -17q81 0 152 44v209h-150
l-27 51v14h338l27 -52v-13zM159 498q0 -26 28 -60t67 -55q102 60 102 130q0 26 -29.5 52t-56.5 26q-44 0 -77.5 -24t-33.5 -69z" />
    <glyph glyph-name="uni0915094D0937094D" horiz-adv-x="511" 
d="M243 662q49 0 111 -60t62 -112q0 -90 -94 -151q77 -29 141 -29q67 0 137 33l18 -73q-59 -28 -119 -28q-97 0 -211 76l-38 -19t-38 -20t-30.5 -19.5t-27.5 -22.5t-16 -25t-7 -31q-1 -42 28 -75.5t73 -33.5q40 0 88 17l-34 78q34 27 71 27q38 0 58 -21t20 -52
q0 -54 -52 -84l81 -141l-49 -25l-65 151q-36 -12 -75 -12q-65 0 -143.5 65.5t-77.5 145.5q0 9 2.5 18.5t6 17t11.5 15.5l14 14t18 14l18.5 12.5t21.5 13t22 12l24 12l23 11.5q-60 34 -96.5 75.5t-36.5 81.5q0 67 48 105.5t113 38.5zM565 645l28 -52v-13h-128l-27 51v14h127z
M270 591q-44 0 -77.5 -24t-33.5 -69q0 -26 28.5 -60.5t66.5 -54.5q102 60 102 130q0 26 -29.5 52t-56.5 26z" />
    <glyph glyph-name="uni0915094D0937094D0930" horiz-adv-x="922" 
d="M243 662q49 0 111 -60t62 -112q0 -87 -85 -145q88 -25 184 -25q105 0 217 62v198h-192l-27 51v14h381l28 -52v-13h-112v-612h-15l-64 36l3 144l-4 2l-179 -137l-50 54l231 163v59h-2q-92 -37 -179 -37q-141 0 -258 69q-14 -8 -45 -23.5t-46.5 -25t-34.5 -24t-27.5 -31
t-8.5 -36.5q-1 -42 28 -75.5t73 -33.5q40 0 88 17l-34 78q34 27 71 27q38 0 58 -21t20 -52q0 -54 -52 -84l81 -141l-49 -25l-65 151q-36 -12 -75 -12q-65 0 -143.5 65.5t-77.5 145.5q0 9 2.5 18.5t6 17t11.5 15.5l14 14t18 14l18.5 12.5t21.5 13t22 12l24 12l23 11.5
q-60 34 -96.5 75.5t-36.5 81.5q0 67 48 105.5t113 38.5zM270 591q-44 0 -77.5 -24t-33.5 -69q0 -26 28.5 -60.5t66.5 -54.5q102 60 102 130q0 26 -29.5 52t-56.5 26z" />
    <glyph glyph-name="uni0915094D0072" horiz-adv-x="599" 
d="M599 645l28 -52v-13h-148v-229q63 46 111 46q80 0 124 -58l-34 -42q-26 33 -66 33q-59 0 -135 -65v-297h-15l-65 36l4 196l-2 1l-296 -249l-55 60l164 113q-69 4 -114.5 49t-45.5 119q0 66 43.5 115.5t112.5 49.5q36 0 67 -11t55 -31.5t38 -36.5t30 -38h1v239h-405
l-26 52v13h629zM239 381q-54 -1 -95.5 -30.5t-41.5 -80.5q0 -38 29 -60.5t67 -22.5q101 0 203 97v1q-27 37 -71.5 66.5t-90.5 29.5z" />
    <glyph glyph-name="uni0916094D0930" horiz-adv-x="844" 
d="M816 645l28 -52v-13h-116v-612h-15l-65 36l4 62l-4 3l-363 -178l-53 59l141 63q-111 31 -239 175q-40 44 -56.5 71t-16.5 52q0 21 15 40t32 28l53 -42q27 41 27 110q0 56 -11 133h-180l-27 51v14h846zM650 580h-407q17 -91 17 -174q0 -64 -24.5 -106t-67.5 -81
q27 -32 59.5 -62t90 -61t110.5 -31t116.5 25.5t107.5 62.5l-1 95l-2 1q-33 -26 -49 -37.5t-46.5 -25.5t-58.5 -14q-69 0 -118 46t-49 112q0 71 45.5 115t113.5 44q81 0 160 -82h3v173zM512 418q-57 0 -97 -33.5t-40 -80.5q0 -28 25.5 -48t67.5 -20q43 0 93 31t89 77v1
q-26 35 -63 54t-75 19z" />
    <glyph glyph-name="uni0916094D0072" horiz-adv-x="580" 
d="M580 645l27 -52v-13h-364q17 -90 17 -173q0 -64 -25 -107t-68 -81q134 -154 261 -154q47 0 104 21t106 57l32 -63l-384 -189l-54 59l142 63q-109 30 -240 176q-41 46 -57 71.5t-16 51.5q0 40 48 68l52 -42q27 41 27 110q0 62 -12 132h-179l-27 52v13h610zM489 496
q75 0 129 -47t54 -120q0 -54 -54.5 -100.5t-122.5 -46.5q-69 0 -118 46t-49 112q0 68 46 112t115 44zM517 429q-62 0 -102 -33.5t-40 -80.5q0 -28 25.5 -48t69.5 -20q59 0 106.5 33t47.5 75q0 30 -31.5 51.5t-75.5 22.5z" />
    <glyph glyph-name="uni0917094D0928" horiz-adv-x="612" 
d="M584 645l28 -52v-13h-112v-612h-15l-65 36l1 200l-183 -148l58 -69q-38 -41 -91 -41q-39 0 -63.5 26.5t-24.5 56.5q0 42 67 88q75 54 237 159l1 304h-208q15 -157 15 -229q0 -16 -3 -31t-10 -32.5t-24 -28t-41 -10.5q-51 0 -79 38.5t-28 76.5q0 25 5 37l97 -14v193h-150
l-26 51v14h614z" />
    <glyph glyph-name="uni0917094D0930" horiz-adv-x="612" 
d="M584 645l28 -52v-13h-112v-612h-15l-65 36l2 184l-3 1l-245 -206l-52 60l299 233l1 304h-206q9 -142 9 -242q0 -23 -4.5 -43t-22 -39.5t-47.5 -19.5q-51 0 -79 38.5t-28 76.5q0 25 5 37l97 -14l6 206h-156l-26 51v14h614z" />
    <glyph glyph-name="uni0917094D0072" horiz-adv-x="289" 
d="M225 290q0 -16 -2.5 -31t-9.5 -32.5t-23 -28t-39 -10.5q-51 0 -79 38.5t-28 76.5q0 25 5 37l97 -13l8 253h-158l-26 51v14h319l28 -52v-13h-104q12 -182 12 -290zM381 245l34 -60l-241 -202l-51 60z" />
    <glyph glyph-name="uni0918094D0930" horiz-adv-x="650" 
d="M641 645l28 -52v-13h-111v-612h-15l-64 36l2 193h-2l-273 -249l-55 59l128 99q-60 2 -104 35q-74 56 -74 118q0 41 21 79t57 62q-57 26 -85.5 52t-28.5 73q0 23 9 55h-78l-26 51v14h671zM480 580h-311q-32 -27 -32 -73q0 -33 38 -57t71 -25q3 0 9 0.5t9 0.5q61 0 85 -11
l17 -39l-8 -21q-29 8 -66 8q-58 -1 -91.5 -42t-33.5 -88q0 -32 27 -47.5t60 -15.5q54 0 121 41.5t105 93.5v275z" />
    <glyph glyph-name="uni0918094D0072" horiz-adv-x="422" 
d="M422 645l27 -52v-13h-280q-32 -29 -32 -73q0 -33 38 -57t71 -25q3 0 9 0.5t9 0.5q61 0 85 -11l17 -39l-8 -21q-29 8 -66 8q-58 -1 -91.5 -41.5t-33.5 -87.5q0 -33 26 -52t59 -19q129 0 253 122l38 -67l-338 -269l-54 58l145 98q-74 1 -121 36q-75 58 -75 118
q0 41 21.5 79t57.5 62q-57 26 -85.5 52t-28.5 73q0 21 9 55h-78l-26 51v14h452z" />
    <glyph glyph-name="uni0919094D0915" horiz-adv-x="692" 
d="M370 -226l-56 30v99l-1 1q-72 -47 -132 -47q-58 0 -97 36t-39 101q0 47 36.5 83t78.5 36q45 0 85.5 -25t67.5 -61l1 106q-152 19 -291 172l33 34q70 -82 134 -115.5t135 -33.5q51 0 84 19t33 51q0 15 -9 28t-19 18q-32 0 -83.5 -15t-69.5 -15q-36 0 -87 48t-51 85
q0 39 25.5 61t67.5 22h149v88h-369l-26 51v14h693l29 -52v-13h-248v-150h-198q-25 0 -37 -15t-12 -34q0 -18 12 -30.5t25 -12.5q10 0 68 13.5t79 13.5q41 0 83.5 -44.5t42.5 -81.5q0 -39 -31 -69.5t-92 -37.5v-90q62 52 108 52q47 0 86 -39t39 -97q0 -45 -63 -149l-60 57
q22 23 33.5 36.5t26.5 40t15 47.5q0 25 -13 39t-35 14q-53 0 -137 -80v-189h-14zM601 319l-73 74l72 74l74 -73zM158 -92q70 0 155 71q-20 27 -53 46.5t-70 19.5q-41 0 -70.5 -21.5t-29.5 -57.5q0 -26 19.5 -42t48.5 -16z" />
    <glyph glyph-name="uni0919094D0915094D" horiz-adv-x="692" 
d="M663 645l29 -52v-13h-248v-150h-198q-25 0 -37 -15t-12 -34q0 -18 12 -30.5t25 -12.5q10 0 68 13.5t79 13.5q41 0 83.5 -44.5t42.5 -81.5q0 -39 -31 -69.5t-92 -37.5v-92q57 47 105 47q73 0 116 -52l-33 -38q-24 29 -61 29q-33 0 -61 -15t-66 -48v-189h-14l-56 30v99
l-1 1q-72 -47 -132 -47q-58 0 -97 36t-39 101q0 47 36.5 83t78.5 36q45 0 85 -25t68 -61l1 106q-150 18 -291 172l33 34q70 -82 134 -115.5t135 -33.5q51 0 84 19t33 51q0 15 -9 28t-19 18q-32 0 -83.5 -15t-69.5 -15q-36 0 -87 48t-51 85q0 39 25.5 61t67.5 22h149v88h-369
l-26 51v14h693zM601 319l-73 74l72 74l74 -73zM158 -92q68 0 155 71q-21 27 -54 46.5t-69 19.5q-41 0 -70.5 -21.5t-29.5 -57.5q0 -26 19.5 -42t48.5 -16z" />
    <glyph glyph-name="uni0919094D0915094D0937" horiz-adv-x="692" 
d="M663 645l29 -52v-13h-248v-150h-198q-25 0 -37 -15t-12 -34q0 -18 12 -30.5t25 -12.5q10 0 68 13.5t79 13.5q41 0 83.5 -44.5t42.5 -81.5q0 -30 -19 -55v-411h-14l-56 31v171q-44 -28 -93 -28q-68 0 -165 45q-23 -10 -35 -16t-28 -17t-23 -24.5t-7 -31.5q0 -19 20.5 -35
t49.5 -16q30 0 61 11l-18 41q24 18 52 18q57 -1 61 -53q0 -28 -37 -49l56 -87l-48 -24l-42 97q-27 -9 -52 -9q-46 0 -107 42.5t-61 92.5q0 16 8 29.5t25.5 25t31 18t39.5 17.5q-87 56 -87 106q0 32 30.5 58t67.5 31q-46 36 -94 88l33 34q70 -82 134 -115.5t135 -33.5
q51 0 84 19t33 51q0 15 -9 28t-19 18q-32 0 -83.5 -15t-69.5 -15q-36 0 -87 48t-51 85q0 39 25.5 61t67.5 22h149v88h-369l-26 51v14h693zM528 393l72 74l74 -73l-73 -75zM142 39q64 31 64 75q0 24 -16 36.5t-36 13.5q-27 2 -49.5 -13.5t-22.5 -38.5q0 -41 60 -73zM418 50
v89q-28 -9 -67 -9q-57 2 -111 20q22 -30 22 -53q0 -49 -56 -82q39 -12 82 -12q65 0 130 47z" />
    <glyph glyph-name="uni0919094D0916" horiz-adv-x="692" 
d="M663 645l29 -52v-13h-248v-150h-198q-25 0 -37 -15t-12 -34q0 -18 12 -30.5t25 -12.5q10 0 68 13.5t79 13.5q41 0 83.5 -44.5t42.5 -81.5q0 -21 -11 -43v-422h-15l-55 30v24q-75 -35 -132 -35q-92 0 -203 117q-22 23 -30 32.5t-18.5 28t-10.5 34.5q0 32 30 54h2l46 -36
q16 22 20 35.5t4 35.5q0 61 -16 127q-41 30 -95 84l33 34q70 -82 134 -115.5t135 -33.5q51 0 84 19t33 51q0 15 -9 28t-19 18q-32 0 -83.5 -15t-69.5 -15q-36 0 -87 48t-51 85q0 39 25.5 61t67.5 22h149v88h-369l-26 51v14h693zM600 467l74 -73l-73 -75l-73 74zM180 179
q11 -62 11 -109q0 -28 -13 -55.5t-24 -41.5t-32 -36q89 -91 167 -91q67 0 137 47v50q-47 -43 -89 -43q-40 0 -76.5 33.5t-36.5 75.5q0 41 32 70.5t75 29.5q38 0 95 -43v75q-33 -11 -75 -11q-90 2 -171 49zM357 54q-42 0 -64.5 -21t-22.5 -48q0 -12 10.5 -20.5t27.5 -8.5
q56 0 118 56v3q-33 39 -69 39z" />
    <glyph glyph-name="uni0919094D0917" horiz-adv-x="692" 
d="M663 645l29 -52v-13h-248v-150h-198q-25 0 -37 -15t-12 -34q0 -18 12 -30.5t25 -12.5q10 0 68 13.5t79 13.5q41 0 83.5 -44.5t42.5 -81.5q0 -55 -52 -85v-380h-14l-57 30l1 328q-11 -2 -34 -2q-55 2 -104 17q7 -80 7 -149q0 -95 -67 -95q-41 0 -64 32.5t-23 63.5
q0 24 4 37l78 -14v153q-79 42 -159 130l33 34q70 -82 134 -115.5t135 -33.5q51 0 84 19t33 51q0 15 -9 28t-19 18q-32 0 -83.5 -15t-69.5 -15q-36 0 -87 48t-51 85q0 39 25.5 61t67.5 22h149v88h-369l-26 51v14h693zM528 393l72 74l74 -73l-73 -75z" />
    <glyph glyph-name="uni0919094D0918" horiz-adv-x="692" 
d="M663 645l29 -52v-13h-248v-150h-198q-25 0 -37 -15t-12 -34q0 -18 12 -30.5t25 -12.5q10 0 68 13.5t79 13.5q41 0 83.5 -44.5t42.5 -81.5q0 -38 -27 -65v-400h-15l-56 30v66q-72 -56 -137 -56q-48 0 -97 35q-71 50 -71 98q0 29 18.5 53t49.5 39q-105 44 -105 106
q0 45 37 83q-39 30 -81 77l33 34q70 -82 134 -115.5t135 -33.5q51 0 84 19t33 51q0 15 -9 28t-19 18q-32 0 -83.5 -15t-69.5 -15q-36 0 -87 48t-51 85q0 39 25.5 61t67.5 22h149v88h-369l-26 51v14h693zM600 467l74 -73l-73 -75l-73 74zM167 183q-28 -25 -28 -57
q0 -28 31 -47t59 -16q12 2 23 2q27 0 63 -13l16 -39l-8 -20q-45 7 -58 7q-40 0 -67.5 -26t-27.5 -52q0 -22 18 -33t42 -11q40 0 90 25t90 64v170q-24 -7 -59 -7q-94 2 -184 53z" />
    <glyph glyph-name="uni0919094D092E" horiz-adv-x="928" 
d="M899 645l29 -52v-13h-111v-806h-15l-63 35v175h-277q-4 -86 -63 -86q-27 0 -49.5 19.5t-35.5 51.5q-16 39 -12 81h83v82q-20 -2 -34 -2q-174 5 -328 175l33 34q70 -82 134 -115.5t135 -33.5q51 0 84 19t33 51q0 15 -9 28t-19 18q-32 0 -83.5 -15t-69.5 -15q-36 0 -87 48
t-51 85q0 39 25.5 61t67.5 22h149v88h-369l-26 51v14h929zM739 580h-295v-150h-198q-25 0 -37 -15t-12 -34q0 -18 12 -30.5t25 -12.5q10 0 68 13.5t79 13.5q41 0 83.5 -44.5t42.5 -81.5q0 -49 -44 -80v-109h276v530zM600 467l74 -73l-73 -75l-73 74z" />
    <glyph glyph-name="uni0919094D0930" horiz-adv-x="701" 
d="M673 645l28 -52v-13h-247v-181h-220q-75 0 -75 -77q0 -22 16 -42t33 -20q32 0 98 20.5t98 20.5q41 0 77.5 -54t36.5 -108q0 -69 -39.5 -112t-111.5 -43h-20l132 -128l-43 -33l-146 146l-182 -140l-63 57l195 124q-103 43 -210 164l33 30q140 -152 270 -152q55 0 94 27.5
t39 79.5q0 23 -11 44t-25 28q-41 0 -95.5 -20t-85.5 -20q-44 0 -97 52t-53 106q0 55 29.5 87t75.5 32h171v112h-379l-26 51v14h703zM538 346l72 74l74 -73l-73 -75z" />
    <glyph glyph-name="uni091A094D091A" horiz-adv-x="953" 
d="M925 645l28 -51v-14h-112v-612h-14l-65 36l3 165l-3 2q-86 -69 -164 -69q-73 0 -121 46q-9 8 -19 21q-88 -67 -165 -67q-73 0 -121 46q-57 59 -57 119q0 53 40 100v1h-102l-27 51v15h643l28 -52v-14h-107q-49 -5 -79 -41.5t-30 -83.5q0 -36 26 -62t60 -26q46 0 105 39
t92 81v305h-768l-26 51v14h955zM459 368h-174q-49 -5 -79 -41.5t-30 -83.5q0 -36 26.5 -62t60.5 -26q33 0 76.5 23t83.5 59q-3 13 -3 30q0 54 39 100v1z" />
    <glyph glyph-name="uni091A094D0930" horiz-adv-x="658" 
d="M630 645l28 -52v-13h-112v-612h-14l-65 35l2 166l-2 1l-279 -207l-55 60l124 86q-45 9 -76 38q-56 58 -56 120q0 52 39 100v1h-102l-27 50v15h339l27 -51v-14h-107q-48 -5 -78 -42t-30 -84q0 -36 26.5 -62t59.5 -26q47 0 106 39.5t90 81.5v305h-472l-26 51v14h660z" />
    <glyph glyph-name="uni091B094D0930" horiz-adv-x="788" 
d="M788 580h-213v-111q49 -18 82.5 -59t33.5 -105t-33 -125q51 -28 79 -61.5t29 -83.5q0 -37 -21 -91.5t-47 -96.5l-62 61q79 86 79 141q0 26 -21.5 46.5t-63.5 42.5q-47 -63 -119 -104.5t-150 -48.5l177 -172l-44 -33l-145 146l-182 -140l-63 57l222 141q-69 4 -138.5 60.5
t-69.5 102.5q0 49 38 89q-52 33 -75.5 58.5t-23.5 63.5q0 44 38 79.5t92 35.5q52 0 84 -15l30 -71q-45 23 -96 25q-33 0 -58 -19.5t-25 -54.5q0 -27 27 -46.5t55 -22.5q29 13 58 13q46 0 80 -8l19 -43l-7 -20q-27 7 -65 7q-45 0 -71 -30t-26 -66q0 -28 30 -50.5t70 -22.5
q80 0 152.5 33t119.5 89l-21 11q-148 82 -148 195q0 50 29.5 76t72.5 29v98h-501l-26 51v14h790l28 -52v-13zM626 332q0 44 -29 68.5t-68 25.5q-29 -1 -47.5 -18t-18.5 -52q0 -80 113 -135q5 -3 17 -9q33 58 33 120z" />
    <glyph glyph-name="uni091B094D0935" horiz-adv-x="738" 
d="M710 645l28 -52v-13h-176v-73q46 -26 71 -61.5t25 -95.5q0 -44 -32 -87q45 -20 68.5 -45.5t24.5 -74.5q0 -72 -43 -139l-57 56q50 50 49 97q0 26 -19 40t-58 29q-17 -15 -36 -27v-425h-15l-55 30l1 101q-72 -48 -133 -48q-58 0 -97 36t-39 101q0 47 36.5 83t78.5 36
q45 0 85.5 -25t67.5 -61v135q-80 -34 -167 -34q-66 0 -132.5 48t-66.5 93q0 25 16 49q-78 53 -78 109q0 36 35.5 62.5t86.5 26.5q49 0 77 -15l30 -71q-42 23 -89 25q-31 0 -52.5 -12t-21.5 -36q0 -30 43 -59q38 27 88 27q46 0 74 -7l19 -43l-8 -21q-24 7 -57 7
q-42 0 -65.5 -19t-23.5 -48q0 -24 27.5 -37.5t68.5 -13.5q144 0 232 64q-56 31 -95 74.5t-38 91.5q1 45 27 72t70 30v55h-489l-26 51v14h740zM513 469q-24 0 -40.5 -17t-16.5 -46q0 -33 31 -63.5t73 -50.5q33 39 33 86q0 43 -24 66.5t-56 24.5zM362 45q-41 0 -70.5 -21.5
t-29.5 -57.5q0 -26 19.5 -42t48.5 -16q68 0 155 71q-19 27 -52.5 46.5t-70.5 19.5z" />
    <glyph glyph-name="uni091C094D091E094D" horiz-adv-x="500" 
d="M506 593v-13h-510l-26 51v14h508zM194 422q-32 0 -45.5 -21.5t-13.5 -49.5q0 -23 15 -42.5t30 -19.5q27 0 80 14.5t70 14.5q41 0 73 -53t32 -109q0 -54 -57.5 -96t-136.5 -48l90 -136l-59 -29l-81 166q-48 6 -88 24t-40 47q0 30 22.5 51t45.5 21q9 0 15 -2l51 -77
q83 4 137.5 30.5t54.5 75.5q0 23 -8.5 44t-19.5 26q-15 0 -66 -14.5t-78 -14.5q-38 0 -87.5 53t-49.5 99q0 53 24.5 84t67.5 31h431v-69h-409z" />
    <glyph glyph-name="uni091C094D091C" horiz-adv-x="989" 
d="M960 645l29 -52v-13h-112v-612h-15l-63 35v368h-210q100 -89 100 -166q0 -56 -37 -96.5t-87 -40.5q-89 0 -159 89q-36 -45 -99 -45q-166 0 -285 299l39 18q104 -242 227 -242q32 0 51.5 15.5t19.5 44.5q0 41 -31.5 82.5t-79.5 73.5l13 32h538v145h-803l-26 51v14h990z
M518 371h-168q65 -65 74 -126q4 -20 4 -28q56 -74 119 -74q31 0 51.5 24.5t20.5 57.5q0 69 -101 146z" />
    <glyph glyph-name="uni091C094D091C094D" horiz-adv-x="742" 
d="M742 645l29 -52v-13h-775l-26 51v14h772zM61 407q105 -242 227 -242q32 0 51.5 16t19.5 44q0 20 -8 37.5t-27.5 37.5t-32.5 31t-44 35l13 29h644l-36 -60h-279q100 -89 100 -165q0 -52 -35 -88t-89 -36q-89 0 -159 89q-36 -45 -99 -45q-166 0 -285 299zM518 335h-166
q68 -55 74 -119q2 -14 2 -21q58 -74 119 -74q34 0 53 20t19 49q0 70 -101 145z" />
    <glyph glyph-name="uni091C094D091E" horiz-adv-x="682" 
d="M682 593v-13h-111v-612h-15l-63 35v392h-269v-2q39 -27 59.5 -43.5t47.5 -43.5t39 -56.5t12 -63.5q0 -49 -44.5 -93t-116.5 -51l90 -136l-59 -29l-80 165q-49 5 -89 24.5t-40 47.5q0 30 22.5 51t45.5 21q9 0 15 -2l51 -77q57 1 93.5 28.5t36.5 72.5q0 95 -212 219l7 33
h391l1 120h-498l-26 51v14h685z" />
    <glyph glyph-name="uni091C094D091E094D.1" horiz-adv-x="424" 
d="M452 593v-13h-456l-26 51v14h454zM559 395h-335v-2q39 -27 59.5 -43.5t47.5 -43.5t39 -56.5t12 -63.5q0 -49 -44.5 -93t-116.5 -51l90 -136l-59 -29l-80 165q-49 5 -89 24.5t-40 47.5q0 30 22.5 51t45.5 21q9 0 15 -2l51 -77q57 1 93.5 28.5t36.5 72.5q0 95 -212 219
l7 33h457v-65z" />
    <glyph glyph-name="uni091C094D091E094D0930" horiz-adv-x="753" 
d="M726 645l27 -52v-13h-111v-612h-15l-63 35v84l-126 -111l-41 48l167 132v266h-370q-32 0 -45.5 -21.5t-13.5 -49.5q0 -23 15 -42.5t30 -19.5q27 0 80 14.5t70 14.5q41 0 73 -53t32 -109q0 -54 -57.5 -96t-136.5 -48l90 -136l-59 -29l-81 166q-48 6 -88 24t-40 47
q0 30 22.5 51t45.5 21q9 0 15 -2l51 -77q83 4 137.5 30.5t54.5 75.5q0 23 -8.5 44t-19.5 26q-15 0 -66 -14.5t-78 -14.5q-38 0 -87.5 53t-49.5 99q0 53 24.5 84t67.5 31h392v89h-568l-26 51v14h756z" />
    <glyph glyph-name="uni091C094D0930" horiz-adv-x="745" 
d="M717 645l28 -52v-13h-111v-612h-15l-65 36l2 177l-2 2l-243 -243l-54 58l298 277v129h-183q52 -50 52 -105t-34.5 -88t-85.5 -33q-156 0 -270 258l40 19q102 -203 211 -203q31 0 50 18t19 47q0 30 -24.5 61t-56.5 52l13 33h269v117h-559l-26 51v14h747z" />
    <glyph glyph-name="uni091D094D0930" horiz-adv-x="907" 
d="M879 645l28 -51v-14h-112v-612h-14l-65 36l3 100l-4 3l-175 -141l-52 55l229 164v59q-73 -40 -143 -40q-82 0 -154 31h-1q16 -40 16 -79q0 -54 -57.5 -96t-136.5 -48l90 -136l-59 -29l-81 166q-49 5 -88.5 23.5t-39.5 47.5q0 30 22.5 51t45.5 21q9 0 15 -2l51 -77
q83 4 137.5 30.5t54.5 75.5q0 23 -8 44t-19 27q-15 0 -67 -15t-78 -15q-38 0 -87.5 53t-49.5 100q0 53 24.5 83.5t67.5 30.5h146v89h-322l-26 51v14h909zM717 580h-321v-158h-202q-31 0 -45.5 -21.5t-14.5 -48.5q0 -23 15 -42.5t31 -19.5q27 0 80 14.5t70 14.5q29 0 53 -27
q60 -19 153 -19q47 0 98 17.5t83 41.5v248z" />
    <glyph glyph-name="uni091E094D091A" horiz-adv-x="732" 
d="M704 645l28 -52v-13h-112v-612h-14l-64 35v88l-2 1q-41 -59 -106 -100t-113 -41q-53 0 -101.5 25t-48.5 65q0 29 18 67l-86 -24l-40 43l-3 13l281 77l40 -43l4 -14l-72 -19q-32 -11 -54 -45t-22 -64q0 -35 56 -35q51 0 133 77t116 149v119q-26 -3 -52 -3q-9 0 -26 2
t-18 2h-3q-11 -41 -48.5 -66.5t-93.5 -25.5q-71 0 -137 39.5t-139 119.5l32 28q65 -63 115 -88.5t103 -25.5q51 0 80.5 21.5t29.5 49.5q0 24 -19.5 43.5t-49.5 19.5q-42 0 -89 -33l-52 64q55 36 95 36q45 0 98.5 -34.5t71.5 -82.5q13 -1 38 -1q31 0 64 6v167h-546l-26 51v14
h734z" />
    <glyph glyph-name="uni091E094D091C" horiz-adv-x="732" 
d="M704 645l28 -52v-13h-112v-612h-14l-64 35v196l-211 -55q32 -16 50.5 -41t18.5 -51q0 -45 -41.5 -70.5t-92.5 -25.5q-112 0 -245 144l35 27q99 -102 182 -102q31 0 58 12t27 38q0 17 -10 30t-30.5 22.5t-31.5 13t-34 9.5l4 32l321 85v75q-21 -3 -45 -3q-11 0 -29.5 2
t-21.5 2h-3q-11 -41 -48.5 -66.5t-93.5 -25.5q-71 0 -137 39.5t-139 119.5l32 28q65 -63 115 -88.5t103 -25.5q51 0 80.5 21.5t29.5 49.5q0 24 -19.5 43.5t-49.5 19.5q-42 0 -89 -33l-52 64q55 36 95 36q45 0 98.5 -34.5t71.5 -82.5q13 -1 40 -1q30 0 62 6v167h-545l-27 51
v14h734z" />
    <glyph glyph-name="uni091E094D0930" horiz-adv-x="743" 
d="M716 645l27 -52v-13h-111v-612h-15l-63 35v141l-1 1l-256 -176l-52 61l309 194v87h-1q-17 -11 -36 -11q-10 0 -57 18h-1q-2 -60 -43 -100.5t-108 -40.5q-73 0 -146 50.5t-151 141.5l31 27q73 -74 129.5 -110t110.5 -36q51 1 83 27.5t32 62.5q0 29 -20.5 54t-51.5 25
q-37 0 -98 -42l-53 64q66 45 105 45q45 0 96.5 -33t71.5 -85q6 -1 19 -1q53 0 88 24l1 189h-559l-26 51v14h746z" />
    <glyph glyph-name="uni091F094D091F" horiz-adv-x="538" 
d="M390 425q-74 -2 -132 -15t-99 -44t-41 -76q0 -47 43 -72t101 -25q104 0 215 61l37 -72q-68 -34 -127 -47v-132q-111 -3 -190 -36t-79 -98q0 -47 43 -72t101 -25q106 0 215 60l37 -72q-113 -57 -224 -57q-100 0 -161.5 58.5t-61.5 136.5q0 45 23 79.5t61 54.5t79 30.5
t86 13.5v50q-9 -1 -26 -1q-100 0 -161.5 58.5t-61.5 135.5q0 45 23 79.5t60.5 54.5t78 30.5t83.5 13.5v83h-316l-26 51v14h547l28 -52v-13h-155v-155z" />
    <glyph glyph-name="uni091F094D0920" horiz-adv-x="538" 
d="M390 425q-74 -2 -132 -15t-99 -44t-41 -76q0 -47 43 -72t101 -25q104 0 215 61l37 -72q-68 -34 -127 -47v-93q61 -39 94 -76t33 -88q0 -73 -64.5 -124t-174.5 -51q-90 0 -150 59.5t-60 137.5q0 57 35 94t86.5 53t129.5 25v54q-9 -1 -26 -1q-100 0 -161.5 58.5
t-61.5 135.5q0 45 23 79.5t60.5 54.5t78 30.5t83.5 13.5v83h-316l-26 51v14h547l28 -52v-13h-155v-155zM449 -96q0 32 -30 59.5t-63 38.5q-43 -3 -81.5 -11t-76.5 -22.5t-60.5 -39.5t-22.5 -57q0 -48 42.5 -75t90.5 -27q100 0 150.5 38.5t50.5 95.5z" />
    <glyph glyph-name="uni091F094D092F" horiz-adv-x="1100" 
d="M1073 645l27 -52v-13h-112v-612h-14l-64 36l2 120l-3 2q-77 -57 -154 -57q-78 0 -135.5 53.5t-90.5 142.5q58 14 100 37t42 50q0 58 -103 58h-105q-345 -4 -345 -179q0 -58 43.5 -86.5t93.5 -28.5q98 0 197 53l37 -71q-102 -51 -206 -51q-92 0 -154 65.5t-62 152.5
q0 197 319 211v104h-390l-26 51v14h1103zM912 580h-449v-103h68q83 0 144 -49t61 -102q0 -59 -128 -108q31 -79 112 -79q52 0 105.5 26t85.5 60z" />
    <glyph glyph-name="uni091F094D0930" horiz-adv-x="538" 
d="M518 645l27 -52v-13h-155v-206q-115 -8 -193.5 -48.5t-78.5 -114.5q0 -58 43.5 -86.5t93.5 -28.5q107 0 222 68l37 -73q-114 -63 -231 -63q-92 0 -154 63t-62 149q0 174 245 206v134h-316l-26 51v14h548zM291 -2l190 -185l-43 -33l-145 145l-183 -139l-63 57z" />
    <glyph glyph-name="uni091F094D0935" horiz-adv-x="545" 
d="M517 645l28 -52v-13h-155v-152q-74 -2 -132.5 -15.5t-99 -44.5t-40.5 -76q0 -48 42.5 -73.5t100.5 -25.5q110 0 214 63l38 -70q-36 -19 -62 -30v-382h-15l-55 30v100q-72 -47 -131 -47q-58 0 -97.5 36t-39.5 101q0 47 36.5 83t78.5 36q45 0 85.5 -25t67.5 -61v109
q-37 -8 -91 -8q-100 0 -161.5 58t-61.5 134q0 45 23 80t60.5 55.5t78 31t83.5 13.5v80h-316l-26 51v14h547zM258 45q-41 0 -70.5 -21.5t-29.5 -57.5q0 -26 19.5 -42t48.5 -16q71 0 155 71q-19 27 -52.5 46.5t-70.5 19.5z" />
    <glyph glyph-name="uni0920094D0920" horiz-adv-x="545" 
d="M517 645l28 -52v-13h-155v-118q59 -37 91.5 -74.5t32.5 -87.5q0 -51 -33.5 -94t-93.5 -64v-100q61 -39 94 -76t33 -88q0 -73 -64.5 -124t-174.5 -51q-90 0 -150 59.5t-60 137.5q0 83 67.5 121.5t183.5 50.5v55q-13 -2 -41 -2q-90 0 -150 59.5t-60 137.5q0 45 19.5 77.5
t56 51.5t77 29.5t94.5 16.5v83h-316l-26 51v14h547zM356 424q-43 -3 -81.5 -11t-76.5 -22.5t-60.5 -39.5t-22.5 -57q0 -49 42.5 -75.5t90.5 -26.5q100 0 150.5 38.5t50.5 95.5q0 32 -30 59.5t-63 38.5zM356 2q-43 -3 -81.5 -11t-76.5 -22.5t-60.5 -39.5t-22.5 -57
q0 -48 42.5 -75t90.5 -27q100 0 150.5 38.5t50.5 95.5q0 32 -30 59.5t-63 38.5z" />
    <glyph glyph-name="uni0920094D092F" horiz-adv-x="1182" 
d="M1155 645l27 -52v-13h-111v-612h-15l-64 36l1 133l-2 2q-82 -58 -153 -58q-79 0 -136 54.5t-90 145.5q58 14 100 36t42 48q0 21 -19.5 34t-55.5 15q-144 12 -241 8q83 -75 83 -164q0 -88 -64.5 -148.5t-174.5 -60.5q-96 0 -160 69t-64 162q0 95 68.5 147.5t218.5 63.5
q8 22 8 48q0 19 -11 41h-346l-26 51v14h1185zM993 580h-577q16 -30 16 -56q0 -12 -5 -29q92 0 196 -10q79 -8 138 -54t59 -92q0 -57 -131 -105q34 -83 115 -83q51 0 103.5 26.5t85.5 60.5v342zM366 416q-257 -28 -257 -164q0 -66 45.5 -101t99.5 -35q100 0 150.5 51
t50.5 124q0 40 -26.5 74.5t-62.5 50.5z" />
    <glyph glyph-name="uni0920094D0930" horiz-adv-x="592" 
d="M592 593v-13h-202q31 -46 31 -83q0 -35 -25 -81q125 -89 125 -198q0 -88 -64.5 -148.5t-174.5 -60.5q-96 0 -160 69t-64 162q0 101 76.5 150t194.5 57q14 32 14 65q0 28 -26 68h-321l-26 51v14h594zM455 251q0 41 -26.5 75.5t-56.5 46.5q-68 -5 -124.5 -22t-97.5 -53
t-41 -86q0 -66 45.5 -101t99.5 -35q100 0 150.5 51t50.5 124zM48 -176l244 155l191 -184l-44 -33l-145 146l-183 -140z" />
    <glyph glyph-name="uni0920094D0072" horiz-adv-x="592" 
d="M343 512q0 28 -26 68h-321l-26 51v14h594l28 -52v-13h-202q31 -46 31 -83q0 -35 -25 -81q125 -89 125 -198q0 -88 -64.5 -148.5t-174.5 -60.5q-96 0 -160 69t-64 162q0 101 76.5 150t194.5 57q14 32 14 65zM455 251q0 41 -26.5 75.5t-56.5 46.5q-68 -5 -124.5 -22
t-97.5 -53t-41 -86q0 -66 45.5 -101t99.5 -35q100 0 150.5 51t50.5 124zM439 -238l-145 146l-183 -140l-63 56l244 155l191 -184zM264 -236q54 0 152.5 -56t193.5 -147l-24 -23q-66 60 -116.5 90.5t-110.5 49.5l-130 -40q-33 26 -33 66q0 28 18.5 44t49.5 16z" />
    <glyph glyph-name="uni0921094D0921" horiz-adv-x="595" 
d="M244 430q-24 0 -35.5 -16.5t-11.5 -38.5q0 -17 16 -32t33 -15q24 0 82.5 14t81.5 14q42 0 84 -47.5t42 -85.5q0 -50 -41 -84.5t-121 -34.5q-59 0 -116 18q-61 -23 -61 -69q0 -17 16 -32.5t33 -15.5q24 0 82.5 14.5t81.5 14.5q42 0 84 -47t42 -86q0 -51 -41 -84.5
t-116 -33.5q-79 0 -170.5 35.5t-172.5 122.5l34 35q118 -133 275 -133q54 0 90 21t36 57q0 15 -7.5 30.5t-18.5 22.5q-33 0 -85 -14t-74 -14q-46 0 -104.5 49t-58.5 89q0 52 52 75q-77 43 -151 123l33 34q76 -85 142.5 -118.5t145.5 -33.5q54 0 90 21.5t36 58.5
q0 14 -7.5 30t-18.5 22q-33 0 -85 -14t-74 -14q-46 0 -104.5 49t-58.5 89q0 42 25 64t67 22h159v88h-378l-26 51v14h594l28 -52v-13h-139v-150h-209z" />
    <glyph glyph-name="uni0921094D0922" horiz-adv-x="595" 
d="M244 430q-24 0 -35.5 -16.5t-11.5 -38.5q0 -17 16 -32t33 -15q24 0 82.5 14t81.5 14q42 0 84 -47.5t42 -85.5q0 -50 -41 -84.5t-121 -34.5q-51 0 -104 14q-34 -19 -56.5 -52.5t-22.5 -76.5q0 -54 39 -88.5t87 -47.5q-26 41 -26 81q0 45 37.5 73t80.5 28q59 0 100.5 -38.5
t41.5 -92.5q0 -43 -49 -82t-113 -39q-95 0 -180.5 73.5t-85.5 164.5q1 91 65 130q-85 47 -164 131l33 34q76 -85 142.5 -118.5t145.5 -33.5q54 0 90 21.5t36 58.5q0 14 -7.5 30t-18.5 22q-33 0 -85 -14t-74 -14q-46 0 -104.5 49t-58.5 89q0 42 25 64t67 22h159v88h-378
l-26 51v14h594l28 -52v-13h-139v-150h-209zM438 -18q-35 0 -61.5 -25.5t-26.5 -59.5q0 -29 13 -51q62 1 97 25t35 58q-1 23 -17 38t-40 15z" />
    <glyph glyph-name="uni0921094D092F" horiz-adv-x="1184" 
d="M1156 645l28 -52v-13h-112v-612h-14l-64 36l1 113l-4 2q-79 -56 -154 -56q-78 0 -135.5 53t-90.5 142q57 16 97 39.5t40 50.5q0 51 -75 51h-438q-75 0 -75 -77q0 -22 15.5 -42t32.5 -20q36 0 108 20.5t107 20.5q40 0 77 -54t37 -108q0 -68 -43 -111.5t-120 -43.5
q-86 0 -169 44t-174 146l32 30q140 -152 277 -152q57 0 101 27.5t44 79.5q0 23 -11 44t-24 28q-44 0 -105.5 -20t-95.5 -20q-44 0 -97 52t-53 106q0 55 30 87t76 32h189v112h-398l-26 51v14h1186zM995 580h-523v-112h160q68 0 125 -46t57 -101q0 -26 -21 -48.5t-44.5 -34.5
t-59.5 -26q31 -79 114 -79q53 0 106.5 26.5t85.5 61.5v359z" />
    <glyph glyph-name="uni0921094D0930" horiz-adv-x="586" 
d="M558 645l28 -52v-13h-114v-181h-237q-75 0 -75 -77q0 -22 15.5 -42t32.5 -20q36 0 108 20.5t107 20.5q40 0 77 -54t37 -108q0 -68 -43 -111.5t-120 -43.5q-16 0 -24 1l134 -129l-43 -34l-145 147l-183 -141l-63 56l196 125q-106 42 -215 165l32 30q140 -152 277 -152
q57 0 101 27.5t44 79.5q0 23 -11 44t-24 28q-44 0 -105.5 -20t-95.5 -20q-44 0 -97 52t-53 106q0 55 30 87t76 32h189v112h-398l-26 51v14h588z" />
    <glyph glyph-name="uni0921094D0072" horiz-adv-x="586" 
d="M558 645l28 -52v-13h-114v-181h-237q-75 0 -75 -77q0 -22 15.5 -42t32.5 -20q36 0 108 20.5t107 20.5q40 0 77 -54t37 -108q0 -68 -43 -111.5t-120 -43.5q-16 0 -24 1l134 -129l-43 -34l-145 147l-183 -141l-63 56l196 125q-106 42 -215 165l32 30q140 -152 277 -152
q57 0 101 27.5t44 79.5q0 23 -11 44t-24 28q-44 0 -105.5 -20t-95.5 -20q-44 0 -97 52t-53 106q0 55 30 87t76 32h189v112h-398l-26 51v14h588zM586 -398q-66 61 -116.5 91t-109.5 48l-131 -39q-13 10 -22.5 28.5t-9.5 36.5q0 29 18 45t50 16q54 0 152.5 -56t193.5 -147z
" />
    <glyph glyph-name="uni0922094D0922" horiz-adv-x="583" 
d="M556 645l28 -52v-13h-144v-153h-150q-63 0 -100.5 -25.5t-37.5 -77.5q0 -53 44.5 -88t99.5 -49q-26 42 -26 81q1 42 38.5 68t80.5 26q60 0 101 -38t41 -86q0 -44 -49 -82.5t-113 -38.5q-43 0 -89 16q-46 -13 -78 -53.5t-32 -90.5q0 -54 39 -88.5t87 -47.5q-26 43 -26 81
q1 45 38.5 73t79.5 28q59 0 101 -38.5t42 -92.5q0 -43 -49 -82t-114 -39q-95 0 -180.5 73.5t-85.5 164.5q0 53 27.5 92.5t68.5 59.5q-52 34 -83 81t-31 96q0 73 52 108t134 35h93v87h-367l-26 51v14h586zM418 309q-34 0 -61 -23.5t-27 -55.5q0 -28 13 -51q62 1 97 23.5
t34 53.5q0 23 -16 38t-40 15zM417 -18q-35 0 -61.5 -25.5t-26.5 -59.5q0 -28 14 -51q62 1 97 25t34 58q0 23 -16 38t-41 15z" />
    </font>
</defs>
</svg>
