<?xml version="1.0" standalone="no"?>
<!DOCTYPE svg PUBLIC "-//W3C//DTD SVG 1.1//EN" "http://www.w3.org/Graphics/SVG/1.1/DTD/svg11.dtd" >
<svg>
<metadata>
Created by FontForge 20120731 at Wed Nov 19 10:47:04 2014
 By Orthosie Webhosting
(c) 1988, 1990, 1994, 2002 Adobe Systems Incorporated. All rights reserved.
</metadata>
<defs>
<font id="FrutigerLTStd75Black" horiz-adv-x="611" >
  <font-face 
    font-family="FrutigerLTStd75Black"
    font-weight="850"
    font-stretch="normal"
    units-per-em="1000"
    panose-1="2 11 8 3 3 5 4 3 2 4"
    ascent="750"
    descent="-250"
    x-height="521"
    cap-height="698"
    bbox="-164 -250 1000 954"
    underline-thickness="50"
    underline-position="-50"
    unicode-range="U+0020-FB02"
  />
<missing-glyph horiz-adv-x="500" 
d="M0 0v700h500v-700h-500zM250 395l170 255h-340zM280 350l170 -255v510zM80 50h340l-170 255zM50 605v-510l170 255z" />
    <glyph glyph-name="f_i" unicode="fi" horiz-adv-x="778" 
d="M119 0v395h-106v126h109v32q0 113 53 161t164 48q34 0 92 -10l-11 -124q-24 8 -57 8q-64 0 -64 -83v-32h128v-126h-128v-395h-180zM521 0v521h180v-521h-180zM701 738v-132h-180v132h180z" />
    <glyph glyph-name="f_l" unicode="fl" horiz-adv-x="778" 
d="M119 0v395h-106v126h109v32q0 113 53 161t164 48q34 0 92 -10l-11 -124q-24 8 -57 8q-64 0 -64 -83v-32h128v-126h-128v-395h-180zM521 0v750h180v-750h-180z" />
    <glyph glyph-name=".notdef" horiz-adv-x="500" 
d="M0 0v700h500v-700h-500zM250 395l170 255h-340zM280 350l170 -255v510zM80 50h340l-170 255zM50 605v-510l170 255z" />
    <glyph glyph-name=".null" horiz-adv-x="0" 
 />
    <glyph glyph-name="nonmarkingreturn" horiz-adv-x="333" 
 />
    <glyph glyph-name="space" unicode=" " horiz-adv-x="306" 
 />
    <glyph glyph-name="exclam" unicode="!" horiz-adv-x="444" 
d="M315 698l-26 -461h-134l-26 461h186zM138 0v162h168v-162h-168z" />
    <glyph glyph-name="quotedbl" unicode="&#x22;" 
d="M337 427v271h132v-271h-132zM142 427v271h132v-271h-132z" />
    <glyph glyph-name="numbersign" unicode="#" horiz-adv-x="612" 
d="M58 187v108h99l15 110h-84v108h99l26 185h106l-26 -185h87l25 185h105l-25 -185h69v-108h-84l-15 -110h69v-108h-84l-26 -187h-105l26 187h-87l-26 -187h-106l26 187h-84zM350 295l15 110h-87l-15 -110h87z" />
    <glyph glyph-name="dollar" unicode="$" horiz-adv-x="612" 
d="M266 120v169q-94 14 -161 68t-67 143q0 101 67 153t174 57v85h60v-85q120 0 185 -31l-12 -135q-82 40 -173 40v-151q44 -10 74 -19.5t63 -27t53 -40.5t33 -59t13 -83q0 -70 -37.5 -120t-92 -72.5t-119.5 -23.5v-86h-60v86q-51 0 -112 7.5t-90 18.5l13 142q89 -36 189 -36
zM279 445v139q-34 -2 -56.5 -21t-22.5 -47q0 -31 22.5 -49t56.5 -22zM326 280v-160q87 8 87 86q0 59 -87 74z" />
    <glyph glyph-name="percent" unicode="%" horiz-adv-x="1000" 
d="M602 195q0 94 41.5 150.5t133.5 56.5t133.5 -56.5t41.5 -150.5q0 -207 -175 -207t-175 207zM728 195q0 -26 1 -41t5 -35.5t15 -30.5t28 -10t28 10t15 30.5t5 35.5t1 41t-1 40.5t-5 35.5t-15 31t-28 10t-28 -10t-15 -31t-5 -35.5t-1 -40.5zM48 503q0 94 41.5 150.5
t133.5 56.5t133.5 -56.5t41.5 -150.5q0 -207 -175 -207t-175 207zM174 503q0 -26 1 -41t5 -35.5t15 -30.5t28 -10t28 10t15 30.5t5 35.5t1 41t-1 40.5t-5 35.5t-15 31t-28 10t-28 -10t-15 -31t-5 -35.5t-1 -40.5zM253 -22l382 742h109l-381 -742h-110z" />
    <glyph glyph-name="ampersand" unicode="&#x26;" horiz-adv-x="778" 
d="M587 377h162q-6 -140 -107 -239l124 -138h-199q-28 38 -42 53q-75 -65 -217 -65q-69 0 -127.5 22t-97.5 71.5t-39 118.5q0 70 34.5 114t102.5 76q-84 66 -84 153q0 58 36 97t86.5 54.5t109.5 15.5q104 0 173 -41t69 -131q0 -31 -11.5 -57.5t-37 -48.5t-45.5 -35.5
t-56 -34.5q61 -54 120 -111q42 46 46 126zM214 204q0 -43 33.5 -69.5t78.5 -26.5q55 0 106 38q-61 67 -155 154q-32 -17 -47.5 -39t-15.5 -57zM257 534q0 -41 67 -94q27 16 39.5 24t29 28.5t16.5 41.5q0 30 -22 46t-56 16q-32 0 -53 -18t-21 -44z" />
    <glyph glyph-name="quotesingle" unicode="'" horiz-adv-x="333" 
d="M101 427v271h132v-271h-132z" />
    <glyph glyph-name="parenleft" unicode="(" horiz-adv-x="389" 
d="M228 756h147q-144 -225 -144 -448q0 -216 137 -448h-142q-157 211 -157 448q0 218 159 448z" />
    <glyph glyph-name="parenright" unicode=")" horiz-adv-x="389" 
d="M161 -140h-147q144 226 144 448q0 224 -144 448h147q159 -207 159 -448q0 -220 -159 -448z" />
    <glyph glyph-name="asterisk" unicode="*" 
d="M135 372l103 103l-142 27l38 116l133 -66l-21 146h122l-20 -144l130 64l37 -117l-144 -25l102 -103l-101 -73l-67 129l-72 -128z" />
    <glyph glyph-name="plus" unicode="+" horiz-adv-x="600" 
d="M47 190v126h190v190h126v-190h190v-126h-190v-190h-126v190h-190z" />
    <glyph glyph-name="comma" unicode="," horiz-adv-x="306" 
d="M2 -109l67 271h168l-98 -271h-137z" />
    <glyph glyph-name="hyphen" unicode="-" horiz-adv-x="333" 
d="M31 203v132h271v-132h-271z" />
    <glyph glyph-name="period" unicode="." horiz-adv-x="306" 
d="M69 0v162h168v-162h-168z" />
    <glyph glyph-name="slash" unicode="/" horiz-adv-x="278" 
d="M-21 -12l194 722h126l-194 -722h-126z" />
    <glyph glyph-name="zero" unicode="0" horiz-adv-x="612" 
d="M306 -12q-67 0 -116.5 21t-78.5 53.5t-46.5 81.5t-23.5 97t-6 108t6 108t23.5 97t46.5 81.5t78.5 53.5t116.5 21t116.5 -21t78.5 -53.5t46.5 -81.5t23.5 -97t6 -108t-6 -108t-23.5 -97t-46.5 -81.5t-78.5 -53.5t-116.5 -21zM306 114q30 0 49.5 19.5t28 57.5t11 73t2.5 85
t-2.5 85t-11 73t-28 57.5t-49.5 19.5t-49.5 -19.5t-28 -57.5t-11 -73t-2.5 -85t2.5 -85t11 -73t28 -57.5t49.5 -19.5z" />
    <glyph glyph-name="one" unicode="1" horiz-adv-x="612" 
d="M280 0v512l-132 -94l-83 126l237 154h164v-698h-186z" />
    <glyph glyph-name="two" unicode="2" horiz-adv-x="612" 
d="M42 0v133q158 137 204 184q102 105 102 167q0 44 -27 66t-72 22q-44 0 -97 -14.5t-86 -33.5l-7 145q114 41 207 41q122 0 195 -52t73 -153q0 -146 -213 -330l-50 -43h276v-132h-505z" />
    <glyph glyph-name="three" unicode="3" horiz-adv-x="612" 
d="M72 544l-9 137q98 29 203 29q53 0 98.5 -9t86.5 -29t65 -59.5t24 -93.5q0 -58 -34 -97.5t-94 -55.5v-2q65 -13 102 -54t37 -105q0 -50 -19 -88.5t-49 -62.5t-71 -39t-81.5 -21t-84.5 -6q-137 0 -204 24l9 147q57 -33 173 -33q33 0 62 6.5t54 28t25 54.5q0 80 -127 80
q-34 0 -78 -2v124q21 -2 80 -2q40 0 77 19.5t37 57.5q0 80 -120 80q-100 0 -162 -28z" />
    <glyph glyph-name="four" unicode="4" horiz-adv-x="612" 
d="M320 0v133h-312v148l280 417h206v-439h99v-126h-99v-133h-174zM332 259v295h-2l-190 -295h192z" />
    <glyph glyph-name="five" unicode="5" horiz-adv-x="612" 
d="M75 323l5 375h455v-126h-295v-116q52 4 55 4q116 0 191.5 -53.5t75.5 -162.5q0 -70 -25.5 -121.5t-70 -80t-97 -41.5t-114.5 -13q-85 0 -187 25l3 151q77 -38 170 -38q60 0 100.5 25.5t40.5 86.5q0 37 -24 61t-57 32.5t-74 8.5q-87 0 -152 -17z" />
    <glyph glyph-name="six" unicode="6" horiz-adv-x="612" 
d="M530 678l-11 -137q-55 37 -147 37q-88 0 -125 -53t-38 -152h2q50 71 151 71q94 0 151.5 -62t57.5 -158q0 -98 -74 -167t-188 -69q-72 0 -125.5 26.5t-83.5 74t-44.5 104.5t-14.5 126q0 84 16 152t51 123t96 85.5t145 30.5q100 0 181 -32zM217 215q0 -45 24 -76t67 -31
q42 0 65.5 28.5t23.5 70.5q0 48 -21.5 79.5t-67.5 31.5q-43 0 -67 -30t-24 -73z" />
    <glyph glyph-name="seven" unicode="7" horiz-adv-x="612" 
d="M102 0l260 566h-312v132h502v-151l-250 -547h-200z" />
    <glyph glyph-name="eight" unicode="8" horiz-adv-x="612" 
d="M171 359v1q-51 17 -85.5 58t-34.5 91q0 104 73.5 152.5t188.5 48.5q109 0 174.5 -45t65.5 -134q0 -60 -32.5 -100.5t-82.5 -59.5v-2q66 -21 103.5 -60t37.5 -112q0 -106 -77.5 -157.5t-196.5 -51.5q-121 0 -196.5 48.5t-75.5 150.5q0 132 138 172zM219 508
q0 -25 14.5 -44t29.5 -27t43 -21q41 23 60 45t19 55q0 35 -25 54.5t-59 19.5t-58 -23.5t-24 -58.5zM213 201q0 -37 26.5 -62t63.5 -25q41 0 68.5 24.5t27.5 65.5q0 70 -105 101q-81 -38 -81 -104z" />
    <glyph glyph-name="nine" unicode="9" horiz-adv-x="612" 
d="M82 20l11 137q55 -37 147 -37q88 0 125 53t38 152h-2q-50 -71 -151 -71q-94 0 -151.5 62t-57.5 158q0 98 74 167t188 69q72 0 125.5 -26.5t83.5 -74t44.5 -104.5t14.5 -126q0 -84 -16 -152t-51 -123t-96 -85.5t-145 -30.5q-100 0 -181 32zM395 483q0 45 -24 76t-67 31
q-42 0 -65.5 -28.5t-23.5 -70.5q0 -48 21.5 -79.5t67.5 -31.5q43 0 67 30t24 73z" />
    <glyph glyph-name="colon" unicode=":" horiz-adv-x="306" 
d="M69 359v162h168v-162h-168zM69 0v162h168v-162h-168z" />
    <glyph glyph-name="semicolon" unicode=";" horiz-adv-x="306" 
d="M2 -109l67 271h168l-98 -271h-137zM69 359v162h168v-162h-168z" />
    <glyph glyph-name="less" unicode="&#x3c;" horiz-adv-x="600" 
d="M553 514v-122l-341 -139l341 -139v-122l-506 208v106z" />
    <glyph glyph-name="equal" unicode="=" horiz-adv-x="600" 
d="M47 305v126h506v-126h-506zM47 75v126h506v-126h-506z" />
    <glyph glyph-name="greater" unicode="&#x3e;" horiz-adv-x="600" 
d="M47 -8v122l341 139l-341 139v122l506 -208v-106z" />
    <glyph glyph-name="question" unicode="?" horiz-adv-x="556" 
d="M69 541l-4 140q94 29 210 29q60 0 112 -15t90.5 -54.5t38.5 -98.5q0 -38 -15.5 -70.5t-38.5 -58t-46.5 -50t-41.5 -57.5t-21 -69h-146q0 35 13.5 68t32.5 57t37.5 47t32 48t13.5 49q0 35 -34 53.5t-76 18.5q-84 0 -157 -37zM196 0v162h168v-162h-168z" />
    <glyph glyph-name="at" unicode="@" horiz-adv-x="800" 
d="M392 235q43 0 68 30.5t25 78.5q0 41 -23 67t-60 26q-42 0 -68 -32t-26 -74t22 -69t62 -27zM613 137h102q-108 -149 -291 -149q-165 0 -276 102t-111 259q0 155 107.5 258t273.5 103q144 0 244.5 -81t100.5 -211q0 -63 -21.5 -113.5t-52 -80.5t-67.5 -50t-65.5 -27.5
t-48.5 -7.5q-21 0 -35.5 12.5t-15.5 36.5h-2q-44 -49 -101 -49q-63 0 -108.5 55t-45.5 138q0 81 53.5 141t136.5 60q79 0 120 -57l9 47h94l-34 -209q-10 -52 -10 -55q0 -19 13 -19q32 0 58 37.5t27 109.5q1 110 -62.5 168.5t-194.5 58.5q-116 0 -187.5 -75t-71.5 -192
q0 -125 74 -194t197 -69q115 0 191 53z" />
    <glyph glyph-name="A" unicode="A" horiz-adv-x="778" 
d="M8 0l265 698h228l269 -698h-204l-52 149h-262l-55 -149h-189zM470 281l-83 273h-2l-90 -273h175z" />
    <glyph glyph-name="B" unicode="B" horiz-adv-x="667" 
d="M60 0v698h321q102 0 164.5 -45t62.5 -132q0 -122 -123 -163v-2q141 -29 141 -154q0 -60 -24 -101.5t-66 -62.5t-86 -29.5t-96 -8.5h-294zM246 296v-164h55q29 0 51 3t43.5 11t33 25t11.5 42q0 27 -11.5 45t-33.5 25.5t-42.5 10t-49.5 2.5h-57zM246 566v-144h52
q124 0 124 74q0 43 -32 56.5t-90 13.5h-54z" />
    <glyph glyph-name="C" unicode="C" horiz-adv-x="667" 
d="M638 162l9 -146q-114 -28 -207 -28q-58 0 -113 11.5t-108 38.5t-92.5 67.5t-63.5 102.5t-24 138q0 176 110.5 270t289.5 94q86 0 207 -36l-15 -151q-89 49 -182 49q-98 0 -158 -63.5t-60 -162.5q0 -101 64.5 -160.5t168.5 -59.5q82 0 174 36z" />
    <glyph glyph-name="D" unicode="D" horiz-adv-x="778" 
d="M65 0v698h254q96 0 168 -16.5t129 -55t86.5 -107t29.5 -167.5q0 -95 -30.5 -164.5t-87.5 -110t-129.5 -59t-165.5 -18.5h-254zM251 560v-422h72q105 0 161 53.5t56 157.5q0 103 -57 157t-160 54h-72z" />
    <glyph glyph-name="E" unicode="E" 
d="M60 0v698h492v-132h-306v-144h289v-132h-289v-158h317v-132h-503z" />
    <glyph glyph-name="F" unicode="F" horiz-adv-x="556" 
d="M60 0v698h467v-132h-281v-153h269v-132h-269v-281h-186z" />
    <glyph glyph-name="G" unicode="G" horiz-adv-x="778" 
d="M710 408v-388q-126 -32 -270 -32q-58 0 -113 11.5t-108 38.5t-92.5 67.5t-63.5 102.5t-24 138q0 188 118.5 276t322.5 88q130 0 211 -31l-15 -152q-77 45 -170 45q-79 0 -139 -21.5t-98 -74t-38 -130.5q0 -101 64.5 -160.5t168.5 -59.5q40 0 66 12v138h-109v132h289z" />
    <glyph glyph-name="H" unicode="H" horiz-adv-x="722" 
d="M65 0v698h186v-267h220v267h186v-698h-186v299h-220v-299h-186z" />
    <glyph glyph-name="I" unicode="I" horiz-adv-x="334" 
d="M74 0v698h186v-698h-186z" />
    <glyph glyph-name="J" unicode="J" horiz-adv-x="444" 
d="M14 7v154q36 -17 84 -17q95 0 95 153v401h186v-457q0 -121 -57.5 -187t-192.5 -66q-39 0 -115 19z" />
    <glyph glyph-name="K" unicode="K" horiz-adv-x="722" 
d="M65 0v698h186v-285h2l210 285h224l-258 -325l278 -373h-237l-217 317h-2v-317h-186z" />
    <glyph glyph-name="L" unicode="L" horiz-adv-x="556" 
d="M65 0v698h186v-560h288v-138h-474z" />
    <glyph glyph-name="M" unicode="M" horiz-adv-x="1000" 
d="M60 0v698h293l148 -464h2l155 464h282v-698h-182l3 536h-2l-178 -536h-171l-170 536h-2l4 -536h-182z" />
    <glyph glyph-name="N" unicode="N" horiz-adv-x="778" 
d="M68 0v698h237l236 -474h2l-3 474h170v-698h-231l-244 477h-2l6 -477h-171z" />
    <glyph glyph-name="O" unicode="O" horiz-adv-x="778" 
d="M39 349q0 170 90 265.5t260 95.5t260 -95.5t90 -265.5q0 -169 -90.5 -265t-259.5 -96t-259.5 96t-90.5 265zM231 349q0 -95 39.5 -159t118.5 -64t118.5 64t39.5 159q0 98 -39 160.5t-119 62.5t-119 -62.5t-39 -160.5z" />
    <glyph glyph-name="P" unicode="P" 
d="M55 0v698h222q160 0 236.5 -55.5t76.5 -173.5q0 -106 -73.5 -165.5t-203.5 -59.5h-72v-244h-186zM241 566v-190h48q115 0 115 96q0 94 -115 94h-48z" />
    <glyph glyph-name="Q" unicode="Q" horiz-adv-x="778" 
d="M231 349q0 -95 39.5 -159t118.5 -64t118.5 64t39.5 159q0 98 -39 160.5t-119 62.5t-119 -62.5t-39 -160.5zM516 -132l-117 120h-10q-169 0 -259.5 96t-90.5 265q0 170 90 265.5t260 95.5t260 -95.5t90 -265.5q0 -119 -45.5 -203t-132.5 -123l165 -155h-210z" />
    <glyph glyph-name="R" unicode="R" horiz-adv-x="667" 
d="M60 0v698h332q99 0 162 -45t63 -131q0 -145 -134 -176v-2q17 -5 29.5 -13.5t21.5 -24.5t14.5 -29t15.5 -41t18 -46l68 -190h-194l-40 126q-29 91 -54.5 120.5t-76.5 29.5h-39v-276h-186zM246 566v-158h49q30 0 48 2t41.5 9t35 24.5t11.5 45.5q0 31 -20.5 48.5t-48 23
t-67.5 5.5h-49z" />
    <glyph glyph-name="S" unicode="S" 
d="M51 18l16 154q85 -46 192 -46q115 0 115 68q0 30 -24.5 50t-61 29.5t-79.5 25t-79.5 35t-61 61t-24.5 101.5q0 49 18.5 87t48 61.5t70.5 38.5t81.5 21t85.5 6q104 0 180 -26l-12 -144q-70 32 -155 32q-125 0 -125 -65q0 -26 24.5 -43.5t61 -25.5t79.5 -23.5t79.5 -34.5
t61 -61t24.5 -101q0 -53 -17.5 -93.5t-46 -66t-69 -41.5t-83 -22.5t-91.5 -6.5q-115 0 -208 30z" />
    <glyph glyph-name="T" unicode="T" horiz-adv-x="556" 
d="M185 0v560h-172v138h530v-138h-172v-560h-186z" />
    <glyph glyph-name="U" unicode="U" horiz-adv-x="722" 
d="M667 698v-433q0 -139 -82 -208t-224 -69t-224 69t-82 208v433h186v-402q0 -170 120 -170t120 170v402h186z" />
    <glyph glyph-name="V" unicode="V" horiz-adv-x="722" 
d="M244 0l-234 698h198l155 -548h2l156 548h191l-238 -698h-230z" />
    <glyph glyph-name="W" unicode="W" horiz-adv-x="1000" 
d="M163 0l-155 698h190l90 -536h2l94 536h236l98 -536h2l91 536h181l-156 -698h-239l-99 536h-2l-92 -536h-241z" />
    <glyph glyph-name="X" unicode="X" horiz-adv-x="722" 
d="M10 0l226 367l-202 331h217l117 -230l120 230h204l-204 -331l224 -367h-222l-135 257l-134 -257h-211z" />
    <glyph glyph-name="Y" unicode="Y" horiz-adv-x="722" 
d="M269 0v263l-258 435h214l137 -280l135 280h214l-256 -435v-263h-186z" />
    <glyph glyph-name="Z" unicode="Z" 
d="M570 698v-148l-342 -412h344v-138h-546v148l332 412h-323v138h535z" />
    <glyph glyph-name="bracketleft" unicode="[" horiz-adv-x="389" 
d="M352 756v-114h-114v-668h114v-114h-264v896h264z" />
    <glyph glyph-name="backslash" unicode="\" horiz-adv-x="278" 
d="M173 -12l-194 722h126l194 -722h-126z" />
    <glyph glyph-name="bracketright" unicode="]" horiz-adv-x="389" 
d="M37 -140v114h114v668h-114v114h264v-896h-264z" />
    <glyph glyph-name="asciicircum" unicode="^" horiz-adv-x="600" 
d="M70 333l174 365h112l174 -365h-122l-108 227l-108 -227h-122z" />
    <glyph glyph-name="underscore" unicode="_" horiz-adv-x="500" 
d="M0 -75h500v-50h-500v50z" />
    <glyph glyph-name="grave" unicode="`" horiz-adv-x="333" 
d="M246 585h-126l-129 144h187z" />
    <glyph glyph-name="a" unicode="a" 
d="M562 0h-165q0 10 -2 38.5t-2 43.5h-2q-59 -94 -165 -94q-83 0 -139 42t-56 122q0 45 19.5 79t47 52.5t67 29.5t70.5 14t65 3q44 0 84 -7q-1 90 -119 90q-96 0 -166 -39l-3 122q91 37 208 37q110 0 179 -52t69 -164v-194q0 -72 10 -123zM199 165q0 -26 21 -41.5t53 -15.5
q49 0 80 37.5t31 85.5q-69 3 -76 3q-109 0 -109 -69z" />
    <glyph glyph-name="b" unicode="b" horiz-adv-x="668" 
d="M52 0v750h181v-296h2q63 79 179 79q102 0 162.5 -80t60.5 -183q0 -121 -63 -201.5t-175 -80.5q-61 0 -111 30.5t-68 74.5h-2v-93h-166zM451 266q0 54 -29 91.5t-80 37.5q-49 0 -79.5 -38.5t-30.5 -97.5q0 -56 32 -94.5t78 -38.5q50 0 79.5 38.5t29.5 101.5z" />
    <glyph glyph-name="c" unicode="c" horiz-adv-x="500" 
d="M477 504l-13 -132q-48 29 -109 29q-60 0 -99 -39t-39 -105q0 -60 43.5 -98.5t104.5 -38.5q65 0 112 25l4 -134q-69 -23 -147 -23q-133 0 -218 73t-85 199q0 127 85 200t218 73q84 0 143 -29z" />
    <glyph glyph-name="d" unicode="d" horiz-adv-x="668" 
d="M616 750v-750h-166v93h-2q-18 -44 -68 -74.5t-111 -30.5q-112 0 -175 80.5t-63 201.5q0 104 60.5 183.5t162.5 79.5q118 0 179 -79h2v296h181zM217 266q0 -63 29.5 -101.5t79.5 -38.5q46 0 78 38.5t32 94.5q0 60 -30.5 98t-79.5 38q-51 0 -80 -37.5t-29 -91.5z" />
    <glyph glyph-name="e" unicode="e" 
d="M573 208h-360q14 -100 153 -100q85 0 159 40v-127q-83 -33 -191 -33q-132 0 -217.5 73.5t-85.5 199.5q0 127 77.5 199.5t201.5 72.5q70 0 122 -23.5t82 -65t44.5 -92t14.5 -111.5v-33zM211 310h200q0 49 -24.5 79t-75.5 30q-46 0 -71.5 -30.5t-28.5 -78.5z" />
    <glyph glyph-name="f" unicode="f" horiz-adv-x="444" 
d="M119 0v395h-106v126h109v32q0 113 53 161t164 48q34 0 92 -10l-11 -124q-24 8 -57 8q-64 0 -64 -83v-32h128v-126h-128v-395h-180z" />
    <glyph glyph-name="g" unicode="g" horiz-adv-x="668" 
d="M608 521v-460q0 -156 -75.5 -219.5t-238.5 -63.5q-107 0 -199 33l9 142q88 -43 176 -43q160 0 160 151v28h-2q-63 -89 -175 -89q-106 0 -169 72.5t-63 189.5q0 122 59 196.5t176 74.5q114 0 177 -106h2v94h163zM217 265q0 -58 29.5 -92.5t72.5 -34.5q49 0 82 37.5
t33 96.5q0 49 -29.5 86t-85.5 37q-48 0 -75 -37t-27 -93z" />
    <glyph glyph-name="h" unicode="h" horiz-adv-x="667" 
d="M56 0v750h180v-306h2q64 89 174 89q100 0 149.5 -59.5t49.5 -148.5v-325h-180v252q0 131 -83 131q-112 0 -112 -163v-220h-180z" />
    <glyph glyph-name="i" unicode="i" horiz-adv-x="334" 
d="M77 0v521h180v-521h-180zM257 738v-132h-180v132h180z" />
    <glyph glyph-name="j" unicode="j" horiz-adv-x="334" 
d="M-25 -213l4 114q13 -3 38 -3q20 0 33 8t18.5 24.5t7 31.5t1.5 38v521h180v-526q0 -105 -41 -161t-140 -56q-60 0 -101 9zM257 738v-132h-180v132h180z" />
    <glyph glyph-name="k" unicode="k" 
d="M56 0v750h180v-448h2l150 219h197l-181 -239l196 -282h-218l-144 258h-2v-258h-180z" />
    <glyph glyph-name="l" unicode="l" horiz-adv-x="334" 
d="M77 0v750h180v-750h-180z" />
    <glyph glyph-name="m" unicode="m" horiz-adv-x="1000" 
d="M56 0v521h164v-96h2q52 108 190 108q122 0 163 -100q60 100 185 100q106 0 145 -55.5t39 -170.5v-307h-180v280q0 103 -72 103q-102 0 -102 -163v-220h-180v280q0 103 -72 103q-102 0 -102 -163v-220h-180z" />
    <glyph glyph-name="n" unicode="n" horiz-adv-x="667" 
d="M56 0v521h164v-96h2q52 108 190 108q100 0 149.5 -59.5t49.5 -148.5v-325h-180v252q0 131 -83 131q-112 0 -112 -163v-220h-180z" />
    <glyph glyph-name="o" unicode="o" horiz-adv-x="668" 
d="M334 -12q-133 0 -218 73t-85 199q0 127 85 200t218 73t218 -73t85 -200q0 -126 -85 -199t-218 -73zM334 114q59 0 88 41.5t29 104.5q0 64 -29 105.5t-88 41.5t-88 -41.5t-29 -105.5q0 -63 29 -104.5t88 -41.5z" />
    <glyph glyph-name="p" unicode="p" horiz-adv-x="668" 
d="M52 -210v731h166v-94h2q26 53 78 79.5t116 26.5q102 0 162.5 -80t60.5 -183q0 -121 -63 -201.5t-175 -80.5q-118 0 -165 85h-2v-283h-180zM451 266q0 54 -29 91.5t-80 37.5q-49 0 -79.5 -38.5t-30.5 -97.5q0 -56 32 -94.5t78 -38.5q50 0 79.5 38.5t29.5 101.5z" />
    <glyph glyph-name="q" unicode="q" horiz-adv-x="668" 
d="M616 521v-731h-180v283h-2q-47 -85 -165 -85q-112 0 -175 80.5t-63 201.5q0 104 60.5 183.5t162.5 79.5q65 0 116.5 -26.5t77.5 -79.5h2v94h166zM217 266q0 -63 29.5 -101.5t79.5 -38.5q46 0 78 38.5t32 94.5q0 60 -30.5 98t-79.5 38q-51 0 -80 -37.5t-29 -91.5z" />
    <glyph glyph-name="r" unicode="r" horiz-adv-x="444" 
d="M437 527l-9 -150q-20 6 -61 6q-63 0 -97 -43t-34 -120v-220h-180v521h164v-96h2q51 108 154 108q25 0 61 -6z" />
    <glyph glyph-name="s" unicode="s" horiz-adv-x="500" 
d="M36 13l10 131q84 -36 169 -36q73 0 73 42q0 24 -26.5 37.5t-64 22.5t-75 22.5t-64 46.5t-26.5 85q0 83 67 126t155 43q107 0 183 -30l-14 -125q-58 35 -140 35q-83 0 -83 -36q0 -22 27.5 -34t67 -20.5t79 -22t67 -48.5t27.5 -90q0 -50 -20.5 -85.5t-57 -54t-77 -26.5
t-88.5 -8q-111 0 -189 25z" />
    <glyph glyph-name="t" unicode="t" horiz-adv-x="444" 
d="M10 395v126h106v117l177 55v-172h126v-126h-126v-192q0 -50 15.5 -72.5t56.5 -22.5q13 0 55 7l6 -117q-85 -10 -113 -10q-115 0 -157.5 47.5t-42.5 147.5v212h-103z" />
    <glyph glyph-name="u" unicode="u" horiz-adv-x="667" 
d="M611 521v-521h-164v96h-2q-52 -108 -190 -108q-100 0 -149.5 59.5t-49.5 148.5v325h180v-252q0 -131 83 -131q112 0 112 163v220h180z" />
    <glyph glyph-name="v" unicode="v" 
d="M203 0l-193 521h193l108 -371h2l109 371h179l-193 -521h-205z" />
    <glyph glyph-name="w" unicode="w" horiz-adv-x="944" 
d="M169 0l-160 521h188l84 -375h2l90 375h216l88 -375h2l82 375h174l-159 -521h-209l-88 377h-2l-99 -377h-209z" />
    <glyph glyph-name="x" unicode="x" 
d="M9 0l177 265l-163 256h213l77 -156l81 156h197l-163 -254l174 -267h-217l-87 162l-86 -162h-203z" />
    <glyph glyph-name="y" unicode="y" 
d="M45 -210l12 137q33 -11 71 -11q33 0 57 19t34 53l-211 533h194l112 -340h2l107 340h180l-191 -485q-45 -116 -67 -152q-61 -99 -171 -106h-17q-57 0 -112 12z" />
    <glyph glyph-name="z" unicode="z" horiz-adv-x="500" 
d="M26 0v144l238 245h-233v132h439v-144l-238 -245h242v-132h-448z" />
    <glyph glyph-name="braceleft" unicode="{" horiz-adv-x="389" 
d="M359 756v-90h-47q-58 0 -58 -64v-183q-1 -102 -116 -110v-2q22 -2 37 -5t35.5 -14t32 -35.5t11.5 -62.5v-176q0 -64 58 -64h47v-90h-100q-59 0 -101 35t-42 102v193q0 23 -9.5 39t-25 22.5t-27.5 9t-24 2.5v90q12 0 24 2t27.5 8t25 20.5t9.5 35.5v200q0 67 42 102t101 35
h100z" />
    <glyph glyph-name="bar" unicode="|" horiz-adv-x="222" 
d="M48 750h126v-1000h-126v1000z" />
    <glyph glyph-name="braceright" unicode="}" horiz-adv-x="389" 
d="M30 -140v90h47q58 0 58 64v183q1 102 116 110v2q-22 2 -37 5t-35.5 14t-32 35.5t-11.5 62.5v176q0 64 -58 64h-47v90h100q59 0 101 -35t42 -102v-193q0 -23 9.5 -39t25 -22.5t27.5 -9t24 -2.5v-90q-12 0 -24 -2t-27.5 -8t-25 -20.5t-9.5 -35.5v-200q0 -67 -42 -102
t-101 -35h-100z" />
    <glyph glyph-name="asciitilde" unicode="~" horiz-adv-x="600" 
d="M495 353l36 -109q-45 -86 -125 -86q-43 0 -113.5 32t-99.5 32q-19 0 -36 -11.5t-27 -23.5t-25 -34l-36 109q45 86 125 86q43 0 113.5 -32t99.5 -32q19 0 36 11.5t27 23.5t25 34z" />
    <glyph glyph-name="uni00A0" unicode="&#xa0;" horiz-adv-x="306" 
 />
    <glyph glyph-name="exclamdown" unicode="&#xa1;" horiz-adv-x="444" 
d="M129 -177l26 461h134l26 -461h-186zM306 521v-162h-168v162h168z" />
    <glyph glyph-name="cent" unicode="&#xa2;" horiz-adv-x="612" 
d="M314 150l75 251q-57 -2 -93.5 -41t-36.5 -103q0 -69 55 -107zM226 -140l43 143q-90 25 -143 92t-53 165q0 127 85 200t218 73q26 0 52 -3l36 117h59l-39 -129q13 -4 35 -14l-13 -132q-32 19 -59 25l-81 -271q21 -6 41 -6q65 0 112 25l4 -134q-69 -23 -147 -23
q-26 0 -50 3l-40 -131h-60z" />
    <glyph glyph-name="sterling" unicode="&#xa3;" horiz-adv-x="612" 
d="M53 0v132h92v190h-84v90h86v53q0 123 73.5 184t208.5 61q63 0 135 -18l-8 -132q-35 12 -83 12q-79 0 -110.5 -31.5t-31.5 -95.5v-33h152v-90h-152v-190h225v-132h-503z" />
    <glyph glyph-name="currency" unicode="&#xa4;" horiz-adv-x="612" 
d="M46 151l58 57q-46 46 -46 141t46 141l-58 57l63 62l57 -54q25 20 64.5 31t75.5 11t75.5 -11t64.5 -31l57 54l63 -62l-58 -57q46 -46 46 -141t-46 -141l58 -57l-63 -62l-57 54q-25 -20 -64.5 -31t-75.5 -11t-75.5 11t-64.5 31l-57 -54zM306 227q50 0 83 34.5t33 87.5
t-33 87.5t-83 34.5t-83 -34.5t-33 -87.5t33 -87.5t83 -34.5z" />
    <glyph glyph-name="yen" unicode="&#xa5;" horiz-adv-x="612" 
d="M216 0v136h-148v84h148v43l-9 19h-139v84h97l-165 332h186l120 -282l118 282h188l-165 -332h97v-84h-138l-10 -19v-43h148v-84h-148v-136h-180z" />
    <glyph glyph-name="brokenbar" unicode="&#xa6;" horiz-adv-x="222" 
d="M48 675h126v-350h-126v350zM48 175h126v-350h-126v350z" />
    <glyph glyph-name="section" unicode="&#xa7;" 
d="M84 -109l9 131q87 -40 178 -40q88 0 88 52q0 23 -31 42t-74.5 35t-87.5 36t-75 56t-31 84q0 45 22.5 76.5t67.5 59.5q-34 15 -56.5 47.5t-22.5 68.5q0 171 260 171q69 0 162 -25l-8 -124q-73 29 -155 29q-79 0 -79 -46q0 -21 31 -38.5t75 -32.5t88 -35.5t75 -58.5t31 -90
q0 -78 -82 -136q31 -16 50.5 -50.5t19.5 -70.5q0 -45 -25 -79t-65 -53t-83.5 -28.5t-87.5 -9.5q-88 0 -194 29zM243 382q-33 -39 -33 -70q0 -25 17 -41q13 -12 31.5 -22.5t32 -16.5t41.5 -16.5t39 -14.5q30 35 30 76q0 27 -32 46q-34 21 -126 59z" />
    <glyph glyph-name="dieresis" unicode="&#xa8;" horiz-adv-x="333" 
d="M209 585v144h144v-144h-144zM-19 585v144h144v-144h-144z" />
    <glyph glyph-name="copyright" unicode="&#xa9;" horiz-adv-x="800" 
d="M477 292h96q-2 -71 -46 -111t-122 -40q-89 0 -141.5 58.5t-52.5 149.5t52.5 149t141.5 58q78 0 122 -40t46 -111h-96q-9 29 -24.5 42t-47.5 13q-37 0 -58.5 -30t-21.5 -81t21.5 -81.5t58.5 -30.5q32 0 47.5 13t24.5 42zM39 349q0 149 106 255t255 106t255 -106t106 -255
t-106 -255t-255 -106t-255 106t-106 255zM153 349q0 -110 72 -184.5t175 -74.5t175 74.5t72 184.5t-72 184.5t-175 74.5t-175 -74.5t-72 -184.5z" />
    <glyph glyph-name="ordfeminine" unicode="&#xaa;" horiz-adv-x="397" 
d="M63 615v73q60 22 135 22q37 0 64 -4t53.5 -15.5t40.5 -36t14 -61.5v-144q2 -32 6 -61h-118l-6 47h-2q-33 -55 -103 -55q-54 0 -90 25t-36 75q0 34 17.5 57t45 33t50.5 14t45 4q11 0 71 -4q0 56 -77 56q-63 0 -110 -25zM250 524h-43q-66 0 -66 -36q0 -38 43 -38
q28 0 47 22t19 52z" />
    <glyph glyph-name="guillemotleft" unicode="&#xab;" 
d="M166 65l-119 204l119 204h148l-110 -204l110 -204h-148zM404 65l-119 204l119 204h148l-110 -204l110 -204h-148z" />
    <glyph glyph-name="logicalnot" unicode="&#xac;" horiz-adv-x="600" 
d="M47 305v126h506v-323h-126v197h-380z" />
    <glyph glyph-name="uni00AD" unicode="&#xad;" horiz-adv-x="333" 
d="M31 203v132h271v-132h-271z" />
    <glyph glyph-name="registered" unicode="&#xae;" horiz-adv-x="800" 
d="M400 -12q-149 0 -255 106t-106 255t106 255t255 106t255 -106t106 -255t-106 -255t-255 -106zM400 90q103 0 175 74.5t72 184.5t-72 184.5t-175 74.5t-175 -74.5t-72 -184.5t72 -184.5t175 -74.5zM257 154v393h160q77 0 114 -25.5t37 -89.5q0 -53 -30 -79.5t-80 -28.5
l94 -170h-96l-86 164h-17v-164h-96zM353 471v-77h58q61 0 61 43q0 34 -69 34h-50z" />
    <glyph glyph-name="macron" unicode="&#xaf;" horiz-adv-x="333" 
d="M-21 623v84h375v-84h-375z" />
    <glyph glyph-name="degree" unicode="&#xb0;" horiz-adv-x="400" 
d="M53 563q0 61 43 104t104 43t104 -43t43 -104t-43 -104t-104 -43t-104 43t-43 104zM129 563q0 -29 21 -50t50 -21t50 21t21 50t-21 50t-50 21t-50 -21t-21 -50z" />
    <glyph glyph-name="plusminus" unicode="&#xb1;" horiz-adv-x="600" 
d="M47 268v126h190v112h126v-112h190v-126h-190v-112h-126v112h-190zM47 0v126h506v-126h-506z" />
    <glyph glyph-name="twosuperior" unicode="&#xb2;" horiz-adv-x="398" 
d="M30 282v90q194 132 194 198q0 21 -17.5 32.5t-43.5 11.5q-63 0 -116 -24l-5 96q77 24 167 24q66 0 112.5 -32.5t46.5 -90.5q0 -22 -9 -45t-19 -39.5t-33.5 -41t-36 -35.5t-42.5 -38l-18 -16h150v-90h-330z" />
    <glyph glyph-name="threesuperior" unicode="&#xb3;" horiz-adv-x="398" 
d="M49 594l-6 98q63 18 140 18q76 0 128 -26.5t52 -89.5q0 -71 -85 -92v-2q43 -7 67.5 -32t24.5 -63q0 -37 -18 -64t-48 -41t-63 -20t-71 -6q-99 0 -142 14l6 104q44 -22 110 -22q40 0 64 11t24 30q0 38 -79 38q-23 0 -51 -2v89q14 -3 55 -3q32 0 50 12t18 32t-23 28.5
t-52 8.5q-54 0 -101 -20z" />
    <glyph glyph-name="acute" unicode="&#xb4;" horiz-adv-x="333" 
d="M99 585l68 144h187l-129 -144h-126z" />
    <glyph glyph-name="mu" unicode="&#xb5;" horiz-adv-x="667" 
d="M611 521v-521h-164v96h-2q-52 -108 -190 -108h-17v-198h-182v731h180v-252q0 -131 83 -131q112 0 112 163v220h180z" />
    <glyph glyph-name="paragraph" unicode="&#xb6;" horiz-adv-x="620" 
d="M241 -126v474q-223 0 -223 175t223 175h337v-824h-120v734h-97v-734h-120z" />
    <glyph glyph-name="periodcentered" unicode="&#xb7;" horiz-adv-x="306" 
d="M60 272q0 38 27.5 65.5t65.5 27.5t65.5 -27.5t27.5 -65.5t-27.5 -65.5t-65.5 -27.5t-65.5 27.5t-27.5 65.5z" />
    <glyph glyph-name="cedilla" unicode="&#xb8;" horiz-adv-x="333" 
d="M147 0h66l-27 -65q23 5 48 5q32 0 55 -21.5t23 -65.5q0 -75 -132 -75q-68 0 -125 23l17 46q47 -21 87 -21q51 0 51 31q0 35 -38 35q-13 0 -28 -6l-39 24z" />
    <glyph glyph-name="onesuperior" unicode="&#xb9;" horiz-adv-x="398" 
d="M163 282v288l-79 -48l-54 87l152 93h113v-420h-132z" />
    <glyph glyph-name="ordmasculine" unicode="&#xba;" horiz-adv-x="434" 
d="M17 545q0 76 56 120.5t144 44.5t144 -44.5t56 -120.5t-56 -120.5t-144 -44.5t-144 44.5t-56 120.5zM143 545q0 -34 18.5 -57.5t55.5 -23.5t55.5 23.5t18.5 57.5q0 33 -19 57t-55 24t-55 -24t-19 -57z" />
    <glyph glyph-name="guillemotright" unicode="&#xbb;" 
d="M207 473l119 -204l-119 -204h-148l110 204l-110 204h148zM445 473l119 -204l-119 -204h-148l110 204l-110 204h148z" />
    <glyph glyph-name="onequarter" unicode="&#xbc;" horiz-adv-x="916" 
d="M714 0v71h-210v101l179 248h151v-259h60v-90h-60v-71h-120zM714 161v172h-2l-121 -172h123zM209 -22l387 742h109l-387 -742h-109zM163 284v288l-79 -48l-54 87l152 93h113v-420h-132z" />
    <glyph glyph-name="onehalf" unicode="&#xbd;" horiz-adv-x="916" 
d="M201 -22l387 742h109l-387 -742h-109zM155 282v288l-79 -48l-54 87l152 93h113v-420h-132zM556 0v90q194 132 194 198q0 21 -17.5 32.5t-43.5 11.5q-63 0 -116 -24l-5 96q77 24 167 24q66 0 112.5 -32.5t46.5 -90.5q0 -22 -9 -45t-19 -39.5t-33.5 -41t-36 -35.5
t-42.5 -38l-18 -16h150v-90h-330z" />
    <glyph glyph-name="threequarters" unicode="&#xbe;" horiz-adv-x="916" 
d="M714 0v71h-210v101l179 248h151v-259h60v-90h-60v-71h-120zM714 161v172h-2l-121 -172h123zM209 -22l387 742h109l-387 -742h-109zM49 594l-6 98q63 18 140 18q76 0 128 -26.5t52 -89.5q0 -71 -85 -92v-2q43 -7 67.5 -32t24.5 -63q0 -37 -18 -64t-48 -41t-63 -20t-71 -6
q-99 0 -142 14l6 104q44 -22 110 -22q40 0 64 11t24 30q0 38 -79 38q-23 0 -51 -2v89q14 -3 55 -3q32 0 50 12t18 32t-23 28.5t-52 8.5q-54 0 -101 -20z" />
    <glyph glyph-name="questiondown" unicode="&#xbf;" horiz-adv-x="556" 
d="M487 -20l4 -140q-94 -29 -210 -29q-60 0 -112 15t-90.5 54.5t-38.5 98.5q0 38 15.5 70.5t38.5 58t46.5 50t41.5 57.5t21 69h146q0 -35 -13.5 -68t-32.5 -57t-37.5 -47t-32 -48t-13.5 -49q0 -35 34 -53.5t76 -18.5q84 0 157 37zM360 521v-162h-168v162h168z" />
    <glyph glyph-name="Agrave" unicode="&#xc0;" horiz-adv-x="778" 
d="M8 0l265 698h228l269 -698h-204l-52 149h-262l-55 -149h-189zM470 281l-83 273h-2l-90 -273h175zM469 735h-126l-129 144h187z" />
    <glyph glyph-name="Aacute" unicode="&#xc1;" horiz-adv-x="778" 
d="M8 0l265 698h228l269 -698h-204l-52 149h-262l-55 -149h-189zM470 281l-83 273h-2l-90 -273h175zM308 735l68 144h187l-129 -144h-126z" />
    <glyph glyph-name="Acircumflex" unicode="&#xc2;" horiz-adv-x="778" 
d="M8 0l265 698h228l269 -698h-204l-52 149h-262l-55 -149h-189zM470 281l-83 273h-2l-90 -273h175zM197 735l113 144h162l109 -144h-125l-65 78l-69 -78h-125z" />
    <glyph glyph-name="Atilde" unicode="&#xc3;" horiz-adv-x="778" 
d="M8 0l265 698h228l269 -698h-204l-52 149h-262l-55 -149h-189zM470 281l-83 273h-2l-90 -273h175zM514 879h72q-7 -62 -39 -101.5t-90 -39.5q-28 0 -78 18t-64 18q-40 0 -49 -39h-72q7 59 39 100t88 41q29 0 78 -18t65 -18q43 0 50 39z" />
    <glyph glyph-name="Adieresis" unicode="&#xc4;" horiz-adv-x="778" 
d="M8 0l265 698h228l269 -698h-204l-52 149h-262l-55 -149h-189zM470 281l-83 273h-2l-90 -273h175zM432 735v144h144v-144h-144zM204 735v144h144v-144h-144z" />
    <glyph glyph-name="Aring" unicode="&#xc5;" horiz-adv-x="778" 
d="M8 0l265 698h228l269 -698h-204l-52 149h-262l-55 -149h-189zM470 281l-83 273h-2l-90 -273h175zM278 842q0 46 33 79t79 33t79 -33t33 -79t-33 -79t-79 -33t-79 33t-33 79zM342 842q0 -20 14 -34t34 -14t34 14t14 34t-14 34t-34 14t-34 -14t-14 -34z" />
    <glyph glyph-name="AE" unicode="&#xc6;" horiz-adv-x="1000" 
d="M-4 0l365 698h588v-132h-286v-144h268v-132h-268v-158h298v-132h-484v149h-213l-73 -149h-195zM477 281v285h-9l-139 -285h148z" />
    <glyph glyph-name="Ccedilla" unicode="&#xc7;" horiz-adv-x="667" 
d="M638 162l9 -146q-114 -28 -207 -28h-11l-22 -53q23 5 48 5q32 0 55 -21.5t23 -65.5q0 -75 -132 -75q-68 0 -125 23l17 46q47 -21 87 -21q51 0 51 31q0 35 -38 35q-13 0 -28 -6l-39 24l39 84q-65 9 -121 33t-103.5 65.5t-74.5 106.5t-27 147q0 176 110.5 270t289.5 94
q86 0 207 -36l-15 -151q-89 49 -182 49q-98 0 -158 -63.5t-60 -162.5q0 -101 64.5 -160.5t168.5 -59.5q82 0 174 36z" />
    <glyph glyph-name="Egrave" unicode="&#xc8;" 
d="M60 0v698h492v-132h-306v-144h289v-132h-289v-158h317v-132h-503zM385 735h-126l-129 144h187z" />
    <glyph glyph-name="Eacute" unicode="&#xc9;" 
d="M60 0v698h492v-132h-306v-144h289v-132h-289v-158h317v-132h-503zM224 735l68 144h187l-129 -144h-126z" />
    <glyph glyph-name="Ecircumflex" unicode="&#xca;" 
d="M60 0v698h492v-132h-306v-144h289v-132h-289v-158h317v-132h-503zM113 735l113 144h162l109 -144h-125l-65 78l-69 -78h-125z" />
    <glyph glyph-name="Edieresis" unicode="&#xcb;" 
d="M60 0v698h492v-132h-306v-144h289v-132h-289v-158h317v-132h-503zM348 735v144h144v-144h-144zM120 735v144h144v-144h-144z" />
    <glyph glyph-name="Igrave" unicode="&#xcc;" horiz-adv-x="334" 
d="M74 0v698h186v-698h-186zM247 735h-126l-129 144h187z" />
    <glyph glyph-name="Iacute" unicode="&#xcd;" horiz-adv-x="334" 
d="M74 0v698h186v-698h-186zM85 735l68 144h187l-129 -144h-126z" />
    <glyph glyph-name="Icircumflex" unicode="&#xce;" horiz-adv-x="334" 
d="M74 0v698h186v-698h-186zM-25 735l113 144h162l109 -144h-125l-65 78l-69 -78h-125z" />
    <glyph glyph-name="Idieresis" unicode="&#xcf;" horiz-adv-x="334" 
d="M74 0v698h186v-698h-186zM210 735v144h144v-144h-144zM-18 735v144h144v-144h-144z" />
    <glyph glyph-name="Eth" unicode="&#xd0;" horiz-adv-x="778" 
d="M251 560v-146h167v-102h-167v-174h72q105 0 161 53.5t56 157.5q0 103 -57 157t-160 54h-72zM65 0v312h-67v102h67v284h254q96 0 168 -16.5t129 -55t86.5 -107t29.5 -167.5q0 -95 -30.5 -164.5t-87.5 -110t-129.5 -59t-165.5 -18.5h-254z" />
    <glyph glyph-name="Ntilde" unicode="&#xd1;" horiz-adv-x="778" 
d="M68 0v698h237l236 -474h2l-3 474h170v-698h-231l-244 477h-2l6 -477h-171zM514 879h72q-7 -62 -39 -101.5t-90 -39.5q-28 0 -78 18t-64 18q-40 0 -49 -39h-72q7 59 39 100t88 41q29 0 78 -18t65 -18q43 0 50 39z" />
    <glyph glyph-name="Ograve" unicode="&#xd2;" horiz-adv-x="778" 
d="M39 349q0 170 90 265.5t260 95.5t260 -95.5t90 -265.5q0 -169 -90.5 -265t-259.5 -96t-259.5 96t-90.5 265zM231 349q0 -95 39.5 -159t118.5 -64t118.5 64t39.5 159q0 98 -39 160.5t-119 62.5t-119 -62.5t-39 -160.5zM469 735h-126l-129 144h187z" />
    <glyph glyph-name="Oacute" unicode="&#xd3;" horiz-adv-x="778" 
d="M39 349q0 170 90 265.5t260 95.5t260 -95.5t90 -265.5q0 -169 -90.5 -265t-259.5 -96t-259.5 96t-90.5 265zM231 349q0 -95 39.5 -159t118.5 -64t118.5 64t39.5 159q0 98 -39 160.5t-119 62.5t-119 -62.5t-39 -160.5zM308 735l68 144h187l-129 -144h-126z" />
    <glyph glyph-name="Ocircumflex" unicode="&#xd4;" horiz-adv-x="778" 
d="M39 349q0 170 90 265.5t260 95.5t260 -95.5t90 -265.5q0 -169 -90.5 -265t-259.5 -96t-259.5 96t-90.5 265zM231 349q0 -95 39.5 -159t118.5 -64t118.5 64t39.5 159q0 98 -39 160.5t-119 62.5t-119 -62.5t-39 -160.5zM197 735l113 144h162l109 -144h-125l-65 78l-69 -78
h-125z" />
    <glyph glyph-name="Otilde" unicode="&#xd5;" horiz-adv-x="778" 
d="M39 349q0 170 90 265.5t260 95.5t260 -95.5t90 -265.5q0 -169 -90.5 -265t-259.5 -96t-259.5 96t-90.5 265zM231 349q0 -95 39.5 -159t118.5 -64t118.5 64t39.5 159q0 98 -39 160.5t-119 62.5t-119 -62.5t-39 -160.5zM514 879h72q-7 -62 -39 -101.5t-90 -39.5
q-28 0 -78 18t-64 18q-40 0 -49 -39h-72q7 59 39 100t88 41q29 0 78 -18t65 -18q43 0 50 39z" />
    <glyph glyph-name="Odieresis" unicode="&#xd6;" horiz-adv-x="778" 
d="M39 349q0 170 90 265.5t260 95.5t260 -95.5t90 -265.5q0 -169 -90.5 -265t-259.5 -96t-259.5 96t-90.5 265zM231 349q0 -95 39.5 -159t118.5 -64t118.5 64t39.5 159q0 98 -39 160.5t-119 62.5t-119 -62.5t-39 -160.5zM432 735v144h144v-144h-144zM204 735v144h144v-144
h-144z" />
    <glyph glyph-name="multiply" unicode="&#xd7;" horiz-adv-x="600" 
d="M214 253l-152 152l86 86l152 -152l152 152l86 -86l-153 -152l153 -152l-86 -86l-152 153l-152 -153l-86 86z" />
    <glyph glyph-name="Oslash" unicode="&#xd8;" horiz-adv-x="778" 
d="M242 260l250 269q-40 43 -103 43q-80 0 -119 -62.5t-39 -160.5q0 -52 11 -89zM535 447l-253 -272q39 -49 107 -49q79 0 118.5 64t39.5 159q0 55 -12 98zM15 17l91 97q-67 90 -67 235q0 170 90 265.5t260 95.5q131 0 216 -59l84 91l64 -60l-84 -91q70 -93 70 -242
q0 -169 -90.5 -265t-259.5 -96q-137 0 -222 64l-88 -95z" />
    <glyph glyph-name="Ugrave" unicode="&#xd9;" horiz-adv-x="722" 
d="M667 698v-433q0 -139 -82 -208t-224 -69t-224 69t-82 208v433h186v-402q0 -170 120 -170t120 170v402h186zM441 735h-126l-129 144h187z" />
    <glyph glyph-name="Uacute" unicode="&#xda;" horiz-adv-x="722" 
d="M667 698v-433q0 -139 -82 -208t-224 -69t-224 69t-82 208v433h186v-402q0 -170 120 -170t120 170v402h186zM280 735l68 144h187l-129 -144h-126z" />
    <glyph glyph-name="Ucircumflex" unicode="&#xdb;" horiz-adv-x="722" 
d="M667 698v-433q0 -139 -82 -208t-224 -69t-224 69t-82 208v433h186v-402q0 -170 120 -170t120 170v402h186zM169 735l113 144h162l109 -144h-125l-65 78l-69 -78h-125z" />
    <glyph glyph-name="Udieresis" unicode="&#xdc;" horiz-adv-x="722" 
d="M667 698v-433q0 -139 -82 -208t-224 -69t-224 69t-82 208v433h186v-402q0 -170 120 -170t120 170v402h186zM404 735v144h144v-144h-144zM176 735v144h144v-144h-144z" />
    <glyph glyph-name="Yacute" unicode="&#xdd;" horiz-adv-x="722" 
d="M269 0v263l-258 435h214l137 -280l135 280h214l-256 -435v-263h-186zM294 735l68 144h187l-129 -144h-126z" />
    <glyph glyph-name="Thorn" unicode="&#xde;" 
d="M55 0v698h186v-87h36q163 0 238 -52.5t75 -176.5q0 -113 -72 -169t-205 -56h-72v-157h-186zM241 479v-190h48q115 0 115 96q0 94 -115 94h-48z" />
    <glyph glyph-name="germandbls" unicode="&#xdf;" horiz-adv-x="667" 
d="M56 0v494q0 65 17.5 114t45 77.5t67 46.5t76 24t78.5 6q52 0 96 -10.5t82.5 -33t60.5 -64t22 -98.5q0 -67 -30.5 -107t-94.5 -62v-2q152 -24 152 -174q0 -62 -22 -106t-60.5 -67.5t-81 -33.5t-92.5 -10q-43 0 -89 6l5 131q33 -5 65 -5q95 0 95 103q0 46 -25.5 72
t-65.5 26q-33 0 -49 -2v128h25q38 0 63 26.5t25 68.5q0 46 -22.5 70t-63.5 24q-53 0 -76 -38t-23 -97v-507h-180z" />
    <glyph glyph-name="agrave" unicode="&#xe0;" 
d="M562 0h-165q0 10 -2 38.5t-2 43.5h-2q-59 -94 -165 -94q-83 0 -139 42t-56 122q0 45 19.5 79t47 52.5t67 29.5t70.5 14t65 3q44 0 84 -7q-1 90 -119 90q-96 0 -166 -39l-3 122q91 37 208 37q110 0 179 -52t69 -164v-194q0 -72 10 -123zM199 165q0 -26 21 -41.5t53 -15.5
q49 0 80 37.5t31 85.5q-69 3 -76 3q-109 0 -109 -69zM385 585h-126l-129 144h187z" />
    <glyph glyph-name="aacute" unicode="&#xe1;" 
d="M562 0h-165q0 10 -2 38.5t-2 43.5h-2q-59 -94 -165 -94q-83 0 -139 42t-56 122q0 45 19.5 79t47 52.5t67 29.5t70.5 14t65 3q44 0 84 -7q-1 90 -119 90q-96 0 -166 -39l-3 122q91 37 208 37q110 0 179 -52t69 -164v-194q0 -72 10 -123zM199 165q0 -26 21 -41.5t53 -15.5
q49 0 80 37.5t31 85.5q-69 3 -76 3q-109 0 -109 -69zM238 585l68 144h187l-129 -144h-126z" />
    <glyph glyph-name="acircumflex" unicode="&#xe2;" 
d="M562 0h-165q0 10 -2 38.5t-2 43.5h-2q-59 -94 -165 -94q-83 0 -139 42t-56 122q0 45 19.5 79t47 52.5t67 29.5t70.5 14t65 3q44 0 84 -7q-1 90 -119 90q-96 0 -166 -39l-3 122q91 37 208 37q110 0 179 -52t69 -164v-194q0 -72 10 -123zM199 165q0 -26 21 -41.5t53 -15.5
q49 0 80 37.5t31 85.5q-69 3 -76 3q-109 0 -109 -69zM113 585l113 144h162l109 -144h-125l-65 78l-69 -78h-125z" />
    <glyph glyph-name="atilde" unicode="&#xe3;" 
d="M562 0h-165q0 10 -2 38.5t-2 43.5h-2q-59 -94 -165 -94q-83 0 -139 42t-56 122q0 45 19.5 79t47 52.5t67 29.5t70.5 14t65 3q44 0 84 -7q-1 90 -119 90q-96 0 -166 -39l-3 122q91 37 208 37q110 0 179 -52t69 -164v-194q0 -72 10 -123zM199 165q0 -26 21 -41.5t53 -15.5
q49 0 80 37.5t31 85.5q-69 3 -76 3q-109 0 -109 -69zM430 729h72q-7 -62 -39 -101.5t-90 -39.5q-28 0 -78 18t-64 18q-40 0 -49 -39h-72q7 59 39 100t88 41q29 0 78 -18t65 -18q43 0 50 39z" />
    <glyph glyph-name="adieresis" unicode="&#xe4;" 
d="M562 0h-165q0 10 -2 38.5t-2 43.5h-2q-59 -94 -165 -94q-83 0 -139 42t-56 122q0 45 19.5 79t47 52.5t67 29.5t70.5 14t65 3q44 0 84 -7q-1 90 -119 90q-96 0 -166 -39l-3 122q91 37 208 37q110 0 179 -52t69 -164v-194q0 -72 10 -123zM199 165q0 -26 21 -41.5t53 -15.5
q49 0 80 37.5t31 85.5q-69 3 -76 3q-109 0 -109 -69zM348 585v144h144v-144h-144zM120 585v144h144v-144h-144z" />
    <glyph glyph-name="aring" unicode="&#xe5;" 
d="M562 0h-165q0 10 -2 38.5t-2 43.5h-2q-59 -94 -165 -94q-83 0 -139 42t-56 122q0 45 19.5 79t47 52.5t67 29.5t70.5 14t65 3q44 0 84 -7q-1 90 -119 90q-96 0 -166 -39l-3 122q91 37 208 37q110 0 179 -52t69 -164v-194q0 -72 10 -123zM199 165q0 -26 21 -41.5t53 -15.5
q49 0 80 37.5t31 85.5q-69 3 -76 3q-109 0 -109 -69zM194 678q0 46 33 79t79 33t79 -33t33 -79t-33 -79t-79 -33t-79 33t-33 79zM258 678q0 -20 14 -34t34 -14t34 14t14 34t-14 34t-34 14t-34 -14t-14 -34z" />
    <glyph glyph-name="ae" unicode="&#xe6;" horiz-adv-x="944" 
d="M869 148v-127q-83 -33 -191 -33q-81 0 -140.5 24t-96.5 93q-36 -65 -91.5 -91t-132.5 -26q-83 0 -139 42t-56 123q0 45 19.5 79t47 52t67 29t70.5 14t65 3q27 0 84 -5q-1 88 -119 88q-96 0 -166 -39l-3 123q92 36 208 36q124 -4 175 -64q80 64 184 64q70 0 122 -23.5
t82 -65t44.5 -92t14.5 -111.5v-33h-360q14 -100 153 -100q85 0 159 40zM190 166q0 -27 21 -42.5t53 -15.5q49 0 80 38.5t31 87.5h-69q-116 0 -116 -68zM555 310h200q0 49 -24.5 79t-75.5 30q-46 0 -71.5 -30.5t-28.5 -78.5z" />
    <glyph glyph-name="ccedilla" unicode="&#xe7;" horiz-adv-x="500" 
d="M477 504l-13 -132q-48 29 -109 29q-60 0 -99 -39t-39 -105q0 -60 43.5 -98.5t104.5 -38.5q65 0 112 25l4 -134q-69 -23 -147 -23q-11 0 -15 1l-22 -54q23 5 48 5q32 0 55 -21.5t23 -65.5q0 -75 -132 -75q-67 0 -125 23l17 46q47 -21 87 -21q51 0 51 31q0 35 -38 35
q-13 0 -28 -6l-39 24l40 87q-102 19 -163.5 88t-61.5 175q0 127 85 200t218 73q84 0 143 -29z" />
    <glyph glyph-name="egrave" unicode="&#xe8;" 
d="M573 208h-360q14 -100 153 -100q85 0 159 40v-127q-83 -33 -191 -33q-132 0 -217.5 73.5t-85.5 199.5q0 127 77.5 199.5t201.5 72.5q70 0 122 -23.5t82 -65t44.5 -92t14.5 -111.5v-33zM211 310h200q0 49 -24.5 79t-75.5 30q-46 0 -71.5 -30.5t-28.5 -78.5zM385 585h-126
l-129 144h187z" />
    <glyph glyph-name="eacute" unicode="&#xe9;" 
d="M573 208h-360q14 -100 153 -100q85 0 159 40v-127q-83 -33 -191 -33q-132 0 -217.5 73.5t-85.5 199.5q0 127 77.5 199.5t201.5 72.5q70 0 122 -23.5t82 -65t44.5 -92t14.5 -111.5v-33zM211 310h200q0 49 -24.5 79t-75.5 30q-46 0 -71.5 -30.5t-28.5 -78.5zM238 585
l68 144h187l-129 -144h-126z" />
    <glyph glyph-name="ecircumflex" unicode="&#xea;" 
d="M573 208h-360q14 -100 153 -100q85 0 159 40v-127q-83 -33 -191 -33q-132 0 -217.5 73.5t-85.5 199.5q0 127 77.5 199.5t201.5 72.5q70 0 122 -23.5t82 -65t44.5 -92t14.5 -111.5v-33zM211 310h200q0 49 -24.5 79t-75.5 30q-46 0 -71.5 -30.5t-28.5 -78.5zM113 585
l113 144h162l109 -144h-125l-65 78l-69 -78h-125z" />
    <glyph glyph-name="edieresis" unicode="&#xeb;" 
d="M573 208h-360q14 -100 153 -100q85 0 159 40v-127q-83 -33 -191 -33q-132 0 -217.5 73.5t-85.5 199.5q0 127 77.5 199.5t201.5 72.5q70 0 122 -23.5t82 -65t44.5 -92t14.5 -111.5v-33zM211 310h200q0 49 -24.5 79t-75.5 30q-46 0 -71.5 -30.5t-28.5 -78.5zM348 585v144
h144v-144h-144zM120 585v144h144v-144h-144z" />
    <glyph glyph-name="igrave" unicode="&#xec;" horiz-adv-x="334" 
d="M77 0v521h180v-521h-180zM247 585h-126l-129 144h187z" />
    <glyph glyph-name="iacute" unicode="&#xed;" horiz-adv-x="334" 
d="M77 0v521h180v-521h-180zM100 585l68 144h187l-129 -144h-126z" />
    <glyph glyph-name="icircumflex" unicode="&#xee;" horiz-adv-x="334" 
d="M77 0v521h180v-521h-180zM-25 585l113 144h162l109 -144h-125l-65 78l-69 -78h-125z" />
    <glyph glyph-name="idieresis" unicode="&#xef;" horiz-adv-x="334" 
d="M77 0v521h180v-521h-180zM210 585v144h144v-144h-144zM-18 585v144h144v-144h-144z" />
    <glyph glyph-name="eth" unicode="&#xf0;" horiz-adv-x="668" 
d="M217 249q0 -56 28 -95.5t85 -39.5q61 0 91 40t30 96q0 55 -30 93t-91 38q-57 0 -85 -38t-28 -94zM81 594l107 49q-21 9 -89 34l104 109q84 -29 155 -66l146 66l62 -64l-120 -54q191 -135 191 -366q0 -146 -81.5 -230t-229.5 -84q-142 0 -218.5 65.5t-76.5 195.5
q0 107 69.5 182.5t174.5 75.5q125 0 160 -81l2 2q-30 94 -152 167l-144 -66z" />
    <glyph glyph-name="ntilde" unicode="&#xf1;" horiz-adv-x="667" 
d="M56 0v521h164v-96h2q52 108 190 108q100 0 149.5 -59.5t49.5 -148.5v-325h-180v252q0 131 -83 131q-112 0 -112 -163v-220h-180zM458 729h72q-7 -62 -39 -101.5t-90 -39.5q-28 0 -78 18t-64 18q-40 0 -49 -39h-72q7 59 39 100t88 41q29 0 78 -18t65 -18q43 0 50 39z" />
    <glyph glyph-name="ograve" unicode="&#xf2;" horiz-adv-x="668" 
d="M334 -12q-133 0 -218 73t-85 199q0 127 85 200t218 73t218 -73t85 -200q0 -126 -85 -199t-218 -73zM334 114q59 0 88 41.5t29 104.5q0 64 -29 105.5t-88 41.5t-88 -41.5t-29 -105.5q0 -63 29 -104.5t88 -41.5zM414 585h-126l-129 144h187z" />
    <glyph glyph-name="oacute" unicode="&#xf3;" horiz-adv-x="668" 
d="M334 -12q-133 0 -218 73t-85 199q0 127 85 200t218 73t218 -73t85 -200q0 -126 -85 -199t-218 -73zM334 114q59 0 88 41.5t29 104.5q0 64 -29 105.5t-88 41.5t-88 -41.5t-29 -105.5q0 -63 29 -104.5t88 -41.5zM267 585l68 144h187l-129 -144h-126z" />
    <glyph glyph-name="ocircumflex" unicode="&#xf4;" horiz-adv-x="668" 
d="M334 -12q-133 0 -218 73t-85 199q0 127 85 200t218 73t218 -73t85 -200q0 -126 -85 -199t-218 -73zM334 114q59 0 88 41.5t29 104.5q0 64 -29 105.5t-88 41.5t-88 -41.5t-29 -105.5q0 -63 29 -104.5t88 -41.5zM142 585l113 144h162l109 -144h-125l-65 78l-69 -78h-125z
" />
    <glyph glyph-name="otilde" unicode="&#xf5;" horiz-adv-x="668" 
d="M334 -12q-133 0 -218 73t-85 199q0 127 85 200t218 73t218 -73t85 -200q0 -126 -85 -199t-218 -73zM334 114q59 0 88 41.5t29 104.5q0 64 -29 105.5t-88 41.5t-88 -41.5t-29 -105.5q0 -63 29 -104.5t88 -41.5zM459 729h72q-7 -62 -39 -101.5t-90 -39.5q-28 0 -78 18
t-64 18q-40 0 -49 -39h-72q7 59 39 100t88 41q29 0 78 -18t65 -18q43 0 50 39z" />
    <glyph glyph-name="odieresis" unicode="&#xf6;" horiz-adv-x="668" 
d="M334 -12q-133 0 -218 73t-85 199q0 127 85 200t218 73t218 -73t85 -200q0 -126 -85 -199t-218 -73zM334 114q59 0 88 41.5t29 104.5q0 64 -29 105.5t-88 41.5t-88 -41.5t-29 -105.5q0 -63 29 -104.5t88 -41.5zM377 585v144h144v-144h-144zM149 585v144h144v-144h-144z
" />
    <glyph glyph-name="divide" unicode="&#xf7;" horiz-adv-x="600" 
d="M47 190v126h506v-126h-506zM206 461q0 38 27.5 65.5t65.5 27.5t65.5 -27.5t27.5 -65.5t-27.5 -65.5t-65.5 -27.5t-65.5 27.5t-27.5 65.5zM206 45q0 38 27.5 65.5t65.5 27.5t65.5 -27.5t27.5 -65.5t-27.5 -65.5t-65.5 -27.5t-65.5 27.5t-27.5 65.5z" />
    <glyph glyph-name="oslash" unicode="&#xf8;" horiz-adv-x="668" 
d="M445 314l-175 -181q25 -19 64 -19q59 0 88 41.5t29 104.5q0 28 -6 54zM223 205l176 183q-27 19 -65 19q-59 0 -88 -41.5t-29 -105.5q0 -30 6 -55zM32 7l68 70q-69 72 -69 183q0 127 85 200t218 73q96 0 167 -39l75 78l61 -58l-68 -71q68 -73 68 -183q0 -126 -85 -199
t-218 -73q-94 0 -166 39l-75 -78z" />
    <glyph glyph-name="ugrave" unicode="&#xf9;" horiz-adv-x="667" 
d="M611 521v-521h-164v96h-2q-52 -108 -190 -108q-100 0 -149.5 59.5t-49.5 148.5v325h180v-252q0 -131 83 -131q112 0 112 163v220h180zM413 585h-126l-129 144h187z" />
    <glyph glyph-name="uacute" unicode="&#xfa;" horiz-adv-x="667" 
d="M611 521v-521h-164v96h-2q-52 -108 -190 -108q-100 0 -149.5 59.5t-49.5 148.5v325h180v-252q0 -131 83 -131q112 0 112 163v220h180zM266 585l68 144h187l-129 -144h-126z" />
    <glyph glyph-name="ucircumflex" unicode="&#xfb;" horiz-adv-x="667" 
d="M611 521v-521h-164v96h-2q-52 -108 -190 -108q-100 0 -149.5 59.5t-49.5 148.5v325h180v-252q0 -131 83 -131q112 0 112 163v220h180zM141 585l113 144h162l109 -144h-125l-65 78l-69 -78h-125z" />
    <glyph glyph-name="udieresis" unicode="&#xfc;" horiz-adv-x="667" 
d="M611 521v-521h-164v96h-2q-52 -108 -190 -108q-100 0 -149.5 59.5t-49.5 148.5v325h180v-252q0 -131 83 -131q112 0 112 163v220h180zM376 585v144h144v-144h-144zM148 585v144h144v-144h-144z" />
    <glyph glyph-name="yacute" unicode="&#xfd;" 
d="M45 -210l12 137q33 -11 71 -11q33 0 57 19t34 53l-211 533h194l112 -340h2l107 340h180l-191 -485q-45 -116 -67 -152q-61 -99 -171 -106h-17q-57 0 -112 12zM238 585l68 144h187l-129 -144h-126z" />
    <glyph glyph-name="thorn" unicode="&#xfe;" horiz-adv-x="668" 
d="M52 -210v960h181v-296h2q63 79 179 79q102 0 162.5 -80t60.5 -183q0 -121 -63 -201.5t-175 -80.5q-118 0 -165 85h-2v-283h-180zM451 266q0 54 -29 91.5t-80 37.5q-49 0 -79.5 -38.5t-30.5 -97.5q0 -56 32 -94.5t78 -38.5q50 0 79.5 38.5t29.5 101.5z" />
    <glyph glyph-name="ydieresis" unicode="&#xff;" 
d="M45 -210l12 137q33 -11 71 -11q33 0 57 19t34 53l-211 533h194l112 -340h2l107 340h180l-191 -485q-45 -116 -67 -152q-61 -99 -171 -106h-17q-57 0 -112 12zM348 585v144h144v-144h-144zM120 585v144h144v-144h-144z" />
    <glyph glyph-name="dotlessi" unicode="&#x131;" horiz-adv-x="334" 
d="M77 0v521h180v-521h-180z" />
    <glyph glyph-name="Lslash" unicode="&#x141;" horiz-adv-x="556" 
d="M65 0v208l-65 -38v109l65 38v381h186v-271l183 108v-109l-183 -108v-180h288v-138h-474z" />
    <glyph glyph-name="lslash" unicode="&#x142;" horiz-adv-x="334" 
d="M77 0v276l-77 -46v100l77 46v374h180v-268l77 45v-100l-77 -45v-382h-180z" />
    <glyph glyph-name="OE" unicode="&#x152;" horiz-adv-x="1000" 
d="M971 698v-132h-290v-144h271v-132h-268v-158h298v-132h-416q-48 0 -98 -3q-99 -3 -100 -3q-168 0 -259 95.5t-91 259.5q0 166 90 260.5t260 94.5q70 0 139 -3q16 0 44 -1t51 -1.5t43 -0.5h326zM492 136v426q-18 0 -60 2t-64 2q-89 0 -123.5 -59t-34.5 -158
q0 -90 45 -153.5t131 -63.5q22 0 58.5 2t47.5 2z" />
    <glyph glyph-name="oe" unicode="&#x153;" horiz-adv-x="1000" 
d="M27 260q0 131 81 202t202 71q71 0 120.5 -17.5t85.5 -61.5q70 79 194 79q70 0 122 -23.5t82 -65t44.5 -92t14.5 -111.5v-33h-360q14 -100 153 -100q85 0 159 40v-127q-83 -33 -191 -33q-151 0 -216 84q-62 -84 -214 -84q-122 0 -199.5 71t-77.5 201zM213 260
q0 -62 28 -107t81 -45t81 45t28 107q0 63 -28 108t-81 45t-81 -45t-28 -108zM611 310h200q0 49 -24.5 79t-75.5 30q-46 0 -71.5 -30.5t-28.5 -78.5z" />
    <glyph glyph-name="Scaron" unicode="&#x160;" 
d="M51 18l16 154q85 -46 192 -46q115 0 115 68q0 30 -24.5 50t-61 29.5t-79.5 25t-79.5 35t-61 61t-24.5 101.5q0 49 18.5 87t48 61.5t70.5 38.5t81.5 21t85.5 6q104 0 180 -26l-12 -144q-70 32 -155 32q-125 0 -125 -65q0 -26 24.5 -43.5t61 -25.5t79.5 -23.5t79.5 -34.5
t61 -61t24.5 -101q0 -53 -17.5 -93.5t-46 -66t-69 -41.5t-83 -22.5t-91.5 -6.5q-115 0 -208 30zM498 879l-113 -144h-162l-109 144h111l79 -78l83 78h111z" />
    <glyph glyph-name="scaron" unicode="&#x161;" horiz-adv-x="500" 
d="M36 13l10 131q84 -36 169 -36q73 0 73 42q0 24 -26.5 37.5t-64 22.5t-75 22.5t-64 46.5t-26.5 85q0 83 67 126t155 43q107 0 183 -30l-14 -125q-58 35 -140 35q-83 0 -83 -36q0 -22 27.5 -34t67 -20.5t79 -22t67 -48.5t27.5 -90q0 -50 -20.5 -85.5t-57 -54t-77 -26.5
t-88.5 -8q-111 0 -189 25zM443 729l-113 -144h-162l-109 144h111l79 -78l83 78h111z" />
    <glyph glyph-name="Ydieresis" unicode="&#x178;" horiz-adv-x="722" 
d="M269 0v263l-258 435h214l137 -280l135 280h214l-256 -435v-263h-186zM404 735v144h144v-144h-144zM176 735v144h144v-144h-144z" />
    <glyph glyph-name="Zcaron" unicode="&#x17d;" 
d="M570 698v-148l-342 -412h344v-138h-546v148l332 412h-323v138h535zM498 879l-113 -144h-162l-109 144h111l79 -78l83 78h111z" />
    <glyph glyph-name="zcaron" unicode="&#x17e;" horiz-adv-x="500" 
d="M26 0v144l238 245h-233v132h439v-144l-238 -245h242v-132h-448zM443 729l-113 -144h-162l-109 144h111l79 -78l83 78h111z" />
    <glyph glyph-name="florin" unicode="&#x192;" horiz-adv-x="612" 
d="M103 314v108h128l23 108q18 87 62 133.5t129 46.5q73 0 127 -26l-21 -126q-24 26 -58 26q-20 0 -33 -13t-18 -27.5t-10 -38.5l-18 -83h99v-108h-124l-72 -336q-26 -120 -74.5 -160t-128.5 -40q-62 0 -114 26l21 120q20 -20 51 -20q48 0 59 48l77 362h-105z" />
    <glyph glyph-name="circumflex" unicode="&#x2c6;" horiz-adv-x="333" 
d="M-26 585l113 144h162l109 -144h-125l-65 78l-69 -78h-125z" />
    <glyph glyph-name="caron" unicode="&#x2c7;" horiz-adv-x="333" 
d="M359 729l-113 -144h-162l-109 144h111l79 -78l83 78h111z" />
    <glyph glyph-name="uni02C9" unicode="&#x2c9;" horiz-adv-x="333" 
d="M-21 623v84h375v-84h-375z" />
    <glyph glyph-name="breve" unicode="&#x2d8;" horiz-adv-x="333" 
d="M-22 729h76q17 -73 113 -73t113 73h76q-8 -74 -55 -115.5t-134 -41.5t-134 41.5t-55 115.5z" />
    <glyph glyph-name="dotaccent" unicode="&#x2d9;" horiz-adv-x="333" 
d="M95 585v144h144v-144h-144z" />
    <glyph glyph-name="ring" unicode="&#x2da;" horiz-adv-x="333" 
d="M55 678q0 46 33 79t79 33t79 -33t33 -79t-33 -79t-79 -33t-79 33t-33 79zM119 678q0 -20 14 -34t34 -14t34 14t14 34t-14 34t-34 14t-34 -14t-14 -34z" />
    <glyph glyph-name="ogonek" unicode="&#x2db;" horiz-adv-x="333" 
d="M167 0h69q-86 -67 -86 -115q0 -18 13 -29.5t30 -11.5q34 0 62 28l38 -17q-28 -43 -61.5 -60t-86.5 -17q-46 0 -71.5 23t-25.5 65t32.5 73t86.5 61z" />
    <glyph glyph-name="tilde" unicode="&#x2dc;" horiz-adv-x="333" 
d="M291 729h72q-7 -62 -39 -101.5t-90 -39.5q-28 0 -78 18t-64 18q-40 0 -49 -39h-72q7 59 39 100t88 41q29 0 78 -18t65 -18q43 0 50 39z" />
    <glyph glyph-name="hungarumlaut" unicode="&#x2dd;" horiz-adv-x="333" 
d="M-25 585l68 144h187l-129 -144h-126zM223 585l68 144h187l-129 -144h-126z" />
    <glyph glyph-name="uni03A9" unicode="&#x3a9;" horiz-adv-x="778" 
d="M185 117v3q-56 45 -94 113.5t-38 155.5q0 132 94.5 225t243.5 93q102 0 179.5 -48t114.5 -118t37 -147q0 -167 -134 -274v-3h148v-117h-299v88q132 79 132 276q0 94 -48 159t-130 65t-133 -64.5t-51 -165.5q0 -98 37.5 -169t94.5 -101v-88h-300v117h146z" />
    <glyph glyph-name="uni03BC" unicode="&#x3bc;" horiz-adv-x="667" 
d="M611 521v-521h-164v96h-2q-52 -108 -190 -108h-17v-198h-182v731h180v-252q0 -131 83 -131q112 0 112 163v220h180z" />
    <glyph glyph-name="pi" unicode="&#x3c0;" horiz-adv-x="659" 
d="M634 402h-73v-245q0 -96 13 -157h-147q-19 31 -19 148v254h-136q-4 -93 -22.5 -214.5t-43.5 -187.5h-147q25 83 43.5 202.5t19.5 199.5q-68 0 -104 -10l-16 96q46 36 183 36h461z" />
    <glyph glyph-name="uni2010" unicode="&#x2010;" horiz-adv-x="333" 
d="M31 203v132h271v-132h-271z" />
    <glyph glyph-name="endash" unicode="&#x2013;" horiz-adv-x="500" 
d="M0 206v126h500v-126h-500z" />
    <glyph glyph-name="emdash" unicode="&#x2014;" horiz-adv-x="1000" 
d="M0 206v126h1000v-126h-1000z" />
    <glyph glyph-name="quoteleft" unicode="&#x2018;" horiz-adv-x="333" 
d="M284 698l-67 -271h-168l98 271h137z" />
    <glyph glyph-name="quoteright" unicode="&#x2019;" horiz-adv-x="333" 
d="M49 427l67 271h168l-98 -271h-137z" />
    <glyph glyph-name="quotesinglbase" unicode="&#x201a;" horiz-adv-x="333" 
d="M49 -109l67 271h168l-98 -271h-137z" />
    <glyph glyph-name="quotedblleft" unicode="&#x201c;" 
d="M308 698l-67 -271h-168l98 271h137zM538 698l-67 -271h-168l98 271h137z" />
    <glyph glyph-name="quotedblright" unicode="&#x201d;" 
d="M73 427l67 271h168l-98 -271h-137zM303 427l67 271h168l-98 -271h-137z" />
    <glyph glyph-name="quotedblbase" unicode="&#x201e;" 
d="M73 -109l67 271h169l-98 -271h-138zM302 -109l67 271h169l-98 -271h-138z" />
    <glyph glyph-name="dagger" unicode="&#x2020;" 
d="M225 0v399h-173v132h173v167h162v-167h173v-132h-173v-399h-162z" />
    <glyph glyph-name="daggerdbl" unicode="&#x2021;" 
d="M225 0v135h-173v120h173v187h-173v120h173v136h162v-136h173v-120h-173v-187h173v-120h-173v-135h-162z" />
    <glyph glyph-name="bullet" unicode="&#x2022;" horiz-adv-x="500" 
d="M76 349q0 72 51 123t123 51t123.5 -51t51.5 -123t-51.5 -123.5t-123.5 -51.5t-123 51.5t-51 123.5z" />
    <glyph glyph-name="ellipsis" unicode="&#x2026;" horiz-adv-x="1000" 
d="M83 0v162h168v-162h-168zM416 0v162h168v-162h-168zM749 0v162h168v-162h-168z" />
    <glyph glyph-name="perthousand" unicode="&#x2030;" horiz-adv-x="1000" 
d="M505 72q14 0 23.5 10t12.5 29.5t4 32.5t1 34t-1 34t-4 32.5t-12.5 29.5t-23.5 10t-23.5 -10t-12.5 -29.5t-4 -32.5t-1 -34t1 -34t4 -32.5t12.5 -29.5t23.5 -10zM505 -12q-155 0 -155 196t155 196t155 -196t-155 -196zM844 -12q-155 0 -155 196t155 196t155 -196
t-155 -196zM844 72q14 0 23.5 10t12.5 29.5t4 32.5t1 34t-1 34t-4 32.5t-12.5 29.5t-23.5 10t-23.5 -10t-12.5 -29.5t-4 -32.5t-1 -34t1 -34t4 -32.5t12.5 -29.5t23.5 -10zM156 318q-155 0 -155 196t155 196t155 -196t-155 -196zM156 408q14 0 23.5 10t12.5 29.5t4 32.5
t1 34t-1 34t-4 32.5t-12.5 29.5t-23.5 10t-23.5 -10t-12.5 -29.5t-4 -32.5t-1 -34t1 -34t4 -32.5t12.5 -29.5t23.5 -10zM97 -22l387 742h80l-389 -742h-78z" />
    <glyph glyph-name="guilsinglleft" unicode="&#x2039;" horiz-adv-x="333" 
d="M147 65l-119 204l119 204h148l-110 -204l110 -204h-148z" />
    <glyph glyph-name="guilsinglright" unicode="&#x203a;" horiz-adv-x="333" 
d="M186 473l119 -204l-119 -204h-148l110 204l-110 204h148z" />
    <glyph glyph-name="fraction" unicode="&#x2044;" horiz-adv-x="167" 
d="M-164 -22l387 742h109l-387 -742h-109z" />
    <glyph glyph-name="Euro" unicode="&#x20ac;" horiz-adv-x="612" 
d="M630 682l-33 -128q-46 20 -110 20q-62 0 -109 -32t-70 -89h264l-17 -69h-267q-5 -35 0 -70h250l-18 -69h-212q23 -55 70.5 -86.5t107.5 -31.5q62 0 111 20l6 -140q-62 -19 -147 -19q-131 0 -226 66.5t-124 190.5h-104l17 69h77q-3 35 0 70h-94l17 69h88
q30 118 125.5 187.5t218.5 69.5q94 0 179 -28z" />
    <glyph glyph-name="afii61289" unicode="&#x2113;" horiz-adv-x="570" 
d="M488 201l61 -63q-81 -147 -236 -147q-87 0 -135 42.5t-61 113.5q-1 3 -1 9q-9 -6 -26.5 -19t-26.5 -19l-38 77q14 11 44 33.5t45 34.5v235q0 133 54.5 200t144.5 67q79 0 119.5 -51.5t40.5 -131.5q0 -85 -54 -167.5t-160 -175.5v-36q2 -43 27 -68t63 -25q76 0 139 91z
M259 514v-145q115 123 115 217q0 77 -53 77q-62 0 -62 -149z" />
    <glyph glyph-name="trademark" unicode="&#x2122;" horiz-adv-x="1000" 
d="M155 282v326h-118v90h344v-90h-118v-326h-108zM477 282v416h154l89 -242l89 242h154v-416h-108v272h-2l-89 -272h-88l-89 272h-2v-272h-108z" />
    <glyph glyph-name="Omega" unicode="&#x2126;" horiz-adv-x="778" 
d="M185 117v3q-56 45 -94 113.5t-38 155.5q0 132 94.5 225t243.5 93q102 0 179.5 -48t114.5 -118t37 -147q0 -167 -134 -274v-3h148v-117h-299v88q132 79 132 276q0 94 -48 159t-130 65t-133 -64.5t-51 -165.5q0 -98 37.5 -169t94.5 -101v-88h-300v117h146z" />
    <glyph glyph-name="estimated" unicode="&#x212e;" horiz-adv-x="870" 
d="M836 339h-650q-5 0 -5 -4v-197q0 -13 9 -22q104 -107 245 -107q76 0 143 32t116 87h57q-54 -64 -138 -101.5t-179 -37.5q-166 0 -283 105.5t-117 254.5t117 255t283 106t284 -106t118 -255v-10zM688 365v197q0 14 -9 24q-104 102 -244 102t-244 -106q-10 -9 -10 -24v-193
q0 -7 5 -7h498q4 0 4 7z" />
    <glyph glyph-name="partialdiff" unicode="&#x2202;" horiz-adv-x="627" 
d="M108 620l-42 106q87 60 206 60q131 0 218.5 -102.5t87.5 -280.5q0 -185 -84.5 -298t-226.5 -113q-56 0 -102 22.5t-73 59t-41.5 77t-14.5 80.5q0 117 66 189.5t168 72.5q58 0 99.5 -27t60.5 -56h1v29q0 93 -49 160.5t-130 67.5t-144 -47zM282 111h1q52 0 88.5 57
t44.5 127q-8 28 -39 55.5t-74 27.5q-51 0 -84.5 -44.5t-33.5 -105.5q0 -49 27.5 -83t69.5 -34z" />
    <glyph glyph-name="uni2206" unicode="&#x2206;" horiz-adv-x="715" 
d="M26 0v81l243 629h181l237 -627v-83h-661zM184 117h337l-110 279q-5 16 -27.5 81t-28.5 90h-4q-5 -17 -24.5 -74t-27.5 -82z" />
    <glyph glyph-name="product" unicode="&#x220f;" horiz-adv-x="780" 
d="M756 565h-110v-661h-148v661h-218v-661h-147v661h-110v130h733v-130z" />
    <glyph glyph-name="summation" unicode="&#x2211;" horiz-adv-x="606" 
d="M587 -96h-564v89l253 306l-243 296v100h535v-124h-331v-3l208 -248l-231 -281v-3h373v-132z" />
    <glyph glyph-name="minus" unicode="&#x2212;" horiz-adv-x="600" 
d="M47 190v126h506v-126h-506z" />
    <glyph glyph-name="uni2215" unicode="&#x2215;" horiz-adv-x="167" 
d="M-164 -22l387 742h109l-387 -742h-109z" />
    <glyph glyph-name="uni2219" unicode="&#x2219;" horiz-adv-x="306" 
d="M60 272q0 38 27.5 65.5t65.5 27.5t65.5 -27.5t27.5 -65.5t-27.5 -65.5t-65.5 -27.5t-65.5 27.5t-27.5 65.5z" />
    <glyph glyph-name="radical" unicode="&#x221a;" horiz-adv-x="642" 
d="M658 834l-246 -975h-118l-160 430l-78 -31l-25 78l190 77l110 -313q16 -62 23 -86l1 -1q2 9 8 41.5t10 52.5l180 727h105z" />
    <glyph glyph-name="infinity" unicode="&#x221e;" horiz-adv-x="807" 
d="M758 288v-1q0 -83 -50.5 -133t-118.5 -50q-99 0 -185 116q-46 -57 -89.5 -86.5t-100.5 -29.5q-67 0 -116.5 50t-49.5 127q0 79 50 129.5t125 50.5q100 0 186 -112q1 1 13.5 15.5t16 17.5t16 16t18.5 17.5t18.5 14t22.5 13.5t23.5 9.5t27.5 7t29 1.5q70 0 117 -48t47 -125
zM223 182h2q26 0 53 16.5t42.5 33t40.5 46.5q-47 65 -71 83q-32 24 -70 24q-41 0 -66.5 -29t-25.5 -75q0 -41 27.5 -70t67.5 -29zM587 385h-2q-11 0 -22 -3t-20 -7t-19.5 -12t-17 -13.5t-17 -16.5t-14.5 -16t-14.5 -17.5t-12.5 -14.5q46 -59 76.5 -81t66.5 -22q39 0 63 31
t24 68q0 46 -25 75t-66 29z" />
    <glyph glyph-name="integral" unicode="&#x222b;" horiz-adv-x="419" 
d="M400 851l-14 -97q-22 8 -39 8q-35 0 -54 -26q-27 -36 -27 -164q0 -79 8.5 -228.5t8.5 -242.5q0 -130 -37 -197q-43 -80 -143 -80q-54 0 -86 17l18 101q22 -11 46 -11q31 0 47 20q29 37 29 150q0 94 -8.5 247.5t-8.5 237.5q0 88 15 141t50 88q47 48 129 48q37 0 66 -12z
" />
    <glyph glyph-name="approxequal" unicode="&#x2248;" horiz-adv-x="585" 
d="M494 462l51 -50q-62 -106 -147 -106q-31 0 -56 9t-63 32q-55 34 -90 34q-21 0 -41.5 -12.5t-30 -23.5t-29.5 -37l-52 50q25 45 68 75t91 30q50 0 111 -37q3 -2 13.5 -8t13 -7.5t10.5 -6t11 -5.5t10 -4t11 -3.5t10 -1.5t12 -1q28 0 50 18t47 55zM494 265l51 -50
q-62 -106 -148 -106q-47 0 -118 41q-55 34 -89 34q-22 0 -42.5 -12t-30.5 -24.5t-29 -37.5l-52 51q25 45 68 75t91 30q49 0 110 -36q6 -3 22 -13t23.5 -13.5t20.5 -7.5t25 -4q28 0 49.5 17.5t48.5 55.5z" />
    <glyph glyph-name="notequal" unicode="&#x2260;" horiz-adv-x="585" 
d="M433 521l-39 -88h141v-83h-174l-60 -135h234v-83h-267l-53 -118l-66 28l41 90h-140v83h173l59 135h-232v83h265l52 115z" />
    <glyph glyph-name="lessequal" unicode="&#x2264;" horiz-adv-x="585" 
d="M532 105l-478 226v90l478 227v-95l-393 -175v-2l393 -176v-95zM535 -17h-484v85h484v-85z" />
    <glyph glyph-name="greaterequal" unicode="&#x2265;" horiz-adv-x="585" 
d="M56 648l478 -227v-90l-478 -226v95l393 176v2l-393 175v95zM533 -17h-481v85h481v-85z" />
    <glyph glyph-name="lozenge" unicode="&#x25ca;" horiz-adv-x="642" 
d="M591 347l-215 -398h-116l-209 398l213 398h117zM461 344l-120 232q-13 32 -19 55h-3q-11 -34 -20 -55l-119 -226l120 -236q11 -26 18 -52h4q11 35 18 51z" />
    <glyph glyph-name="fi" unicode="&#xfb01;" horiz-adv-x="778" 
d="M119 0v395h-106v126h109v32q0 113 53 161t164 48q34 0 92 -10l-11 -124q-24 8 -57 8q-64 0 -64 -83v-32h128v-126h-128v-395h-180zM521 0v521h180v-521h-180zM701 738v-132h-180v132h180z" />
    <glyph glyph-name="fl" unicode="&#xfb02;" horiz-adv-x="778" 
d="M119 0v395h-106v126h109v32q0 113 53 161t164 48q34 0 92 -10l-11 -124q-24 8 -57 8q-64 0 -64 -83v-32h128v-126h-128v-395h-180zM521 0v750h180v-750h-180z" />
    <glyph glyph-name="a.superior" horiz-adv-x="397" 
d="M63 615v73q60 22 135 22q37 0 64 -4t53.5 -15.5t40.5 -36t14 -61.5v-144q2 -32 6 -61h-118l-6 47h-2q-33 -55 -103 -55q-54 0 -90 25t-36 75q0 34 17.5 57t45 33t50.5 14t45 4q11 0 71 -4q0 56 -77 56q-63 0 -110 -25zM250 524h-43q-66 0 -66 -36q0 -38 43 -38
q28 0 47 22t19 52z" />
    <glyph glyph-name="o.superior" horiz-adv-x="434" 
d="M17 545q0 76 56 120.5t144 44.5t144 -44.5t56 -120.5t-56 -120.5t-144 -44.5t-144 44.5t-56 120.5zM143 545q0 -34 18.5 -57.5t55.5 -23.5t55.5 23.5t18.5 57.5q0 33 -19 57t-55 24t-55 -24t-19 -57z" />
    <glyph glyph-name="one.superior" horiz-adv-x="398" 
d="M163 282v288l-79 -48l-54 87l152 93h113v-420h-132z" />
    <glyph glyph-name="two.superior" horiz-adv-x="398" 
d="M30 282v90q194 132 194 198q0 21 -17.5 32.5t-43.5 11.5q-63 0 -116 -24l-5 96q77 24 167 24q66 0 112.5 -32.5t46.5 -90.5q0 -22 -9 -45t-19 -39.5t-33.5 -41t-36 -35.5t-42.5 -38l-18 -16h150v-90h-330z" />
    <glyph glyph-name="three.superior" horiz-adv-x="398" 
d="M49 594l-6 98q63 18 140 18q76 0 128 -26.5t52 -89.5q0 -71 -85 -92v-2q43 -7 67.5 -32t24.5 -63q0 -37 -18 -64t-48 -41t-63 -20t-71 -6q-99 0 -142 14l6 104q44 -22 110 -22q40 0 64 11t24 30q0 38 -79 38q-23 0 -51 -2v89q14 -3 55 -3q32 0 50 12t18 32t-23 28.5
t-52 8.5q-54 0 -101 -20z" />
    </font>
</defs>
</svg>
