<?xml version="1.0" standalone="no"?>
<!DOCTYPE svg PUBLIC "-//W3C//DTD SVG 1.1//EN" "http://www.w3.org/Graphics/SVG/1.1/DTD/svg11.dtd" >
<svg>
<metadata>
Created by FontForge 20120731 at Wed Nov 19 10:46:44 2014
 By Orthosie Webhosting
Copyright (c) 1988, 1990, 1994 Adobe Systems Incorporated.  All Rights Reserved.Frutiger is a trademark of Linotype-Hell AG and/or its subsidiaries.
</metadata>
<defs>
<font id="FrutigerLT55RomanRegular" horiz-adv-x="556" >
  <font-face 
    font-family="FrutigerLT55RomanRegular"
    font-weight="400"
    font-stretch="normal"
    units-per-em="1000"
    panose-1="2 0 5 3 4 0 0 2 0 4"
    ascent="800"
    descent="-200"
    x-height="510"
    cap-height="698"
    bbox="-169 -250 1000 935"
    underline-thickness="50"
    underline-position="-75"
    unicode-range="U+0020-2122"
  />
<missing-glyph horiz-adv-x="500" 
d="M442 8v496h-384v-496h384zM50 512h400v-512h-400v512z" />
    <glyph glyph-name=".notdef" horiz-adv-x="500" 
d="M442 8v496h-384v-496h384zM50 512h400v-512h-400v512z" />
    <glyph glyph-name=".null" horiz-adv-x="0" 
 />
    <glyph glyph-name="nonmarkingreturn" horiz-adv-x="278" 
 />
    <glyph glyph-name="space" unicode=" " horiz-adv-x="278" 
 />
    <glyph glyph-name="exclam" unicode="!" horiz-adv-x="389" 
d="M139 112h112v-112h-112v112zM238 196h-86l-13 502h112z" />
    <glyph glyph-name="quotedbl" unicode="&#x22;" 
d="M159 698h88v-245h-88v245zM309 698h88v-245h-88v245z" />
    <glyph glyph-name="numbersign" unicode="#" 
d="M346 414h-118l-18 -130h118zM123 208h-95v76h106l18 130h-96v76h107l29 208h76l-29 -208h118l29 208h76l-29 -208h95v-76h-106l-18 -130h95v-76h-106l-29 -208h-76l29 208h-118l-29 -208h-76z" />
    <glyph glyph-name="dollar" unicode="$" 
d="M247 -12h-12q-44 0 -80.5 7.5t-71.5 21.5l12 96q28 -20 61 -28.5t77 -8.5h14v243l-34 17q-29 15 -54.5 32t-44 38.5t-29 49.5t-10.5 64q0 38 13.5 69.5t36.5 55.5t54.5 39.5t67.5 21.5v100h58v-96q76 -2 143 -25l-14 -92q-49 29 -119 29h-10v-217l58 -32q28 -15 50 -32
t37 -38t23 -47.5t8 -60.5q0 -41 -12.5 -75t-35.5 -60t-55.5 -43t-72.5 -23v-100h-58v94zM305 87q32 10 51 39t19 63q0 41 -20 63t-50 38v-203zM247 614q-32 -12 -49 -32.5t-17 -58.5q0 -32 21 -52.5t45 -35.5v179z" />
    <glyph glyph-name="percent" unicode="%" horiz-adv-x="1000" 
d="M260 380q22 0 34.5 14.5t18.5 35t7.5 43t1.5 37.5q0 17 -0.5 39.5t-6 42.5t-18 34t-37.5 14q-23 0 -35.5 -14.5t-18.5 -35t-7 -42.5t-1 -38q0 -15 1 -37.5t7 -43t18.5 -35t35.5 -14.5zM740 -12q-43 0 -72 17t-46 45t-24.5 64t-7.5 74q0 40 6.5 76.5t23 64t45.5 43.5
t75 16q45 0 74.5 -16.5t46 -44t23 -63.5t6.5 -76q0 -38 -7.5 -74t-24.5 -64t-46 -45t-72 -17zM680 720h72l-433 -742h-72zM740 58q22 0 34.5 14.5t18.5 35t7.5 43t1.5 37.5q0 17 -0.5 39.5t-6 42.5t-18 34t-37.5 14q-23 0 -35.5 -14.5t-18.5 -35t-7 -42.5t-1 -38
q0 -15 1 -37.5t7 -43t18.5 -35t35.5 -14.5zM260 310q-43 0 -72 17t-46 45t-24.5 64t-7.5 74q0 40 6.5 76.5t23 64t45.5 43.5t75 16q45 0 74.5 -16.5t46 -44t23 -63.5t6.5 -76q0 -38 -7.5 -74t-24.5 -64t-46 -45t-72 -17z" />
    <glyph glyph-name="ampersand" unicode="&#x26;" horiz-adv-x="722" 
d="M261 544q0 -35 19.5 -64t42.5 -54q16 7 34 19t34 27.5t26.5 34.5t10.5 41q0 48 -23.5 67t-59.5 19q-35 0 -59.5 -22.5t-24.5 -67.5zM189 190q0 -29 11.5 -52t30 -39.5t43.5 -25.5t52 -9q24 0 44.5 7t36.5 17t28 22t20 21l-168 197q-20 -14 -37.5 -27.5t-31 -29.5
t-21.5 -35.5t-8 -45.5zM648 377q-3 -42 -10.5 -76.5t-18 -63t-23.5 -52.5t-28 -47l122 -138h-125l-57 68q-38 -43 -85.5 -61.5t-114.5 -18.5q-52 0 -93.5 14t-71 39.5t-45 61.5t-15.5 80q0 79 42.5 127t113.5 77q-28 34 -50 71.5t-22 87.5q0 42 14.5 73t39 51t57.5 30t71 10
q34 0 65.5 -9t55.5 -28.5t38 -49.5t14 -71q0 -33 -13.5 -61t-35.5 -51t-49 -40.5t-55 -29.5l142 -162q20 32 29.5 70.5t13.5 98.5h94z" />
    <glyph glyph-name="quotesingle" unicode="'" horiz-adv-x="278" 
d="M95 698h88v-245h-88v245z" />
    <glyph glyph-name="parenleft" unicode="(" horiz-adv-x="333" 
d="M229 -140q-34 51 -64 103.5t-52 108t-35 114.5t-13 122q0 64 13 122.5t35.5 113.5t52 107.5t63.5 104.5h90q-29 -51 -56.5 -105t-49.5 -110t-35 -114.5t-13 -118.5t13 -118.5t34 -115t49 -110t58 -104.5h-90z" />
    <glyph glyph-name="parenright" unicode=")" horiz-adv-x="333" 
d="M104 756q34 -51 64 -104t52 -108.5t35 -114t13 -121.5q0 -64 -13 -122.5t-35.5 -113.5t-52 -107.5t-63.5 -104.5h-90q29 51 56.5 105t49.5 110t35 114.5t13 118.5t-13 118.5t-34 115t-49 110t-58 104.5h90z" />
    <glyph glyph-name="asterisk" unicode="*" 
d="M278 448l-82 -138l-74 50l110 123l-160 33l28 85l151 -62l-16 159h91l-15 -159l146 62l27 -85l-157 -33l107 -123l-75 -50z" />
    <glyph glyph-name="plus" unicode="+" horiz-adv-x="600" 
d="M47 297h209v209h88v-209h209v-88h-209v-209h-88v209h-209v88z" />
    <glyph glyph-name="comma" unicode="," horiz-adv-x="278" 
d="M83 112h112l-85 -245h-90z" />
    <glyph glyph-name="hyphenminus" unicode="-" horiz-adv-x="333" 
d="M38 307h257v-76h-257v76z" />
    <glyph glyph-name="period" unicode="." horiz-adv-x="278" 
d="M83 112h112v-112h-112v112z" />
    <glyph glyph-name="slash" unicode="/" horiz-adv-x="278" 
d="M215 710h88l-240 -722h-88z" />
    <glyph glyph-name="zero" unicode="0" 
d="M147 349q0 -22 1.5 -51t6 -60t13 -61t23 -54t36 -38.5t51.5 -14.5t51.5 14.5t36 38.5t23 54t13 61t6 60t1.5 51q0 33 -4.5 80.5t-18 92t-39.5 75.5t-69 31t-69 -31t-39.5 -75.5t-18 -92t-4.5 -80.5zM41 349q0 57 10 121t36 117t72.5 88t118.5 35t118.5 -35t72.5 -88
t36 -117t10 -121t-10 -121t-36 -117t-72.5 -88t-118.5 -35t-118.5 35t-72.5 88t-36 117t-10 121z" />
    <glyph glyph-name="one" unicode="1" 
d="M269 583l-107 -92l-53 67l171 140h89v-698h-100v583z" />
    <glyph glyph-name="two" unicode="2" 
d="M50 107q27 24 59.5 52.5t65.5 59.5q29 27 64 61t65.5 72.5t51 80.5t20.5 84q0 24 -10.5 44.5t-28.5 35.5t-42.5 23t-52.5 8q-47 0 -89 -14.5t-71 -30.5l-10 86q44 19 89.5 30t93.5 11q47 0 88.5 -12.5t72 -37.5t48.5 -62.5t18 -86.5q0 -44 -20.5 -88t-51.5 -85t-66 -78
t-64 -66t-63 -59t-60 -53h335v-82h-442v107z" />
    <glyph glyph-name="three" unicode="3" 
d="M145 404h56q27 0 57.5 5.5t56 18.5t42.5 35t17 55q0 30 -11 51t-30 34t-44 19t-52 6q-48 0 -85.5 -11t-69.5 -27l-6 89q35 13 82.5 22t92.5 9q46 0 87.5 -11t73 -34.5t50 -59.5t18.5 -85q0 -33 -12 -60t-33 -47t-48 -33t-57 -19v-2q70 -14 113 -56t43 -117
q0 -60 -23.5 -98.5t-62 -60.5t-88 -30.5t-101.5 -8.5q-42 0 -84.5 8.5t-75.5 18.5l6 93q27 -14 67.5 -26t85.5 -12q28 0 58.5 6t55 20t40.5 37t16 56q0 39 -14.5 64.5t-38.5 41t-55.5 21.5t-65.5 6h-61v82z" />
    <glyph glyph-name="four" unicode="4" 
d="M344 159h-325v82l282 457h143v-457h88v-82h-88v-159h-100v159zM344 616h-2l-218 -375h220v375z" />
    <glyph glyph-name="five" unicode="5" 
d="M478 616h-290l-6 -187q14 4 37 7t53 3q46 0 87 -16.5t72 -45t49 -68.5t18 -86q0 -57 -21.5 -101t-58 -74t-85 -45t-102.5 -15q-57 0 -94 8t-56 15l3 94q32 -18 65.5 -26.5t79.5 -8.5q31 0 60.5 9t52 26.5t36.5 43.5t14 59q0 37 -13 65t-36 47t-54 28t-66 9q-45 0 -76 -7
t-59 -19l6 367h384v-82z" />
    <glyph glyph-name="six" unicode="6" 
d="M405 217q0 24 -7 49t-21.5 45.5t-36.5 33t-52 12.5q-31 0 -55.5 -11t-41 -30t-25 -44.5t-8.5 -54.5q0 -25 7.5 -51t23 -47.5t38.5 -35t54 -13.5t54.5 12.5t39 33t23 47t7.5 54.5zM465 599q-55 29 -124 29q-49 0 -85 -21t-60.5 -56t-36.5 -81t-13 -96l2 1q35 35 72 49.5
t81 14.5q51 0 90 -17t65.5 -46.5t40.5 -69.5t14 -87q0 -54 -17 -97t-47 -72.5t-71 -45.5t-89 -16q-73 0 -119 30t-71.5 78t-35 107.5t-9.5 119.5q0 71 13 140.5t45.5 124t87 88.5t137.5 34q18 0 39 -2t41.5 -5t37.5 -7t26 -8z" />
    <glyph glyph-name="seven" unicode="7" 
d="M491 616l-258 -616h-110l266 616h-340v82h442v-82z" />
    <glyph glyph-name="eight" unicode="8" 
d="M155 529q0 -36 36.5 -64t107.5 -63q31 24 49 41.5t27.5 33t12.5 30.5t3 33q0 25 -11.5 41.5t-29 27t-38 15t-39.5 4.5q-17 0 -37.5 -6t-38.5 -18.5t-30 -31t-12 -43.5zM412 180q1 37 -12 60t-35 38.5t-49.5 26.5t-55.5 25q-21 -15 -42 -27.5t-37.5 -27.5t-26.5 -35
t-10 -51q0 -29 12 -51t32 -37t45.5 -23t51.5 -8q51 0 88 28.5t39 81.5zM276 -12q-44 0 -87 12.5t-76.5 37t-54 61t-20.5 84.5q0 70 42.5 116t105.5 68v2q-38 13 -63.5 33t-40.5 43t-21 48t-6 50q0 33 15.5 63.5t44.5 53.5t71 36.5t95 13.5q52 0 92 -13.5t67.5 -36t42 -50.5
t14.5 -57t-6.5 -54t-21.5 -46.5t-39 -41t-59 -38.5q63 -22 105 -68.5t42 -116.5q0 -53 -19.5 -90.5t-52.5 -62t-77 -36t-93 -11.5z" />
    <glyph glyph-name="nine" unicode="9" 
d="M151 481q0 -24 7 -49t21.5 -45.5t36.5 -33t52 -12.5q31 0 55.5 11t41 30t25 44.5t8.5 54.5q0 25 -7.5 51t-23 47.5t-38.5 35t-54 13.5q-32 0 -55 -12.5t-38.5 -33t-23 -47t-7.5 -54.5zM91 99q55 -29 124 -29q49 0 85 21t60.5 56t36.5 81t13 96l-2 -1q-35 -35 -72 -49.5
t-81 -14.5q-51 0 -90 17t-65.5 46.5t-40.5 69.5t-14 87q0 54 17 97t47 72.5t71 45.5t89 16q73 0 119 -30t71.5 -78t35 -107.5t9.5 -119.5q0 -71 -13 -140.5t-45.5 -124t-87 -88.5t-137.5 -34q-18 0 -39 2t-41.5 5t-37.5 7t-26 8z" />
    <glyph glyph-name="colon" unicode=":" horiz-adv-x="278" 
d="M83 112h112v-112h-112v112zM195 398h-112v112h112v-112z" />
    <glyph glyph-name="semicolon" unicode=";" horiz-adv-x="278" 
d="M195 398h-112v112h112v-112zM83 112h112l-85 -245h-90z" />
    <glyph glyph-name="less" unicode="&#x3c;" horiz-adv-x="600" 
d="M554 426l-394 -173l394 -173v-88l-508 223v76l508 223v-88z" />
    <glyph glyph-name="equal" unicode="=" horiz-adv-x="600" 
d="M47 192h506v-88h-506v88zM47 402h506v-88h-506v88z" />
    <glyph glyph-name="greater" unicode="&#x3e;" horiz-adv-x="600" 
d="M46 80l394 173l-394 173v88l508 -223v-76l-508 -223v88z" />
    <glyph glyph-name="question" unicode="?" horiz-adv-x="500" 
d="M195 112h112v-112h-112v112zM204 217q0 24 3 42.5t10.5 35.5t19 33.5t29.5 37.5q13 16 28 33t27.5 36t20.5 40.5t8 45.5q0 26 -10 45t-27 31.5t-38.5 18.5t-45.5 6q-50 0 -86.5 -11t-61.5 -29l-7 95q33 14 74 23.5t92 9.5q41 0 80 -11.5t69 -34.5t48.5 -57t18.5 -79
q0 -39 -14 -70.5t-34.5 -59t-44.5 -54.5t-44 -57q-12 -18 -16.5 -35t-4.5 -38v-18h-94v21z" />
    <glyph glyph-name="at" unicode="@" horiz-adv-x="800" 
d="M548 278q-3 -11 -5.5 -22t-2.5 -20q1 -11 4 -18t14 -7q22 0 43.5 15t39 40.5t28.5 59.5t11 72q0 58 -21 103.5t-57 76t-84 46.5t-103 16q-63 0 -115.5 -22.5t-89.5 -62.5t-57.5 -93.5t-20.5 -114.5q0 -71 22 -125t61 -90.5t93 -55t117 -18.5t120.5 23.5t96.5 65.5h76
q-49 -75 -127.5 -117t-169.5 -42q-77 0 -145 24t-118 70.5t-79 113.5t-29 153q0 82 29 148.5t79 113.5t116.5 73t141.5 26q66 0 126.5 -21.5t106.5 -60.5t73.5 -94t27.5 -121q0 -71 -26.5 -123.5t-63.5 -87t-78 -51t-69 -16.5q-23 0 -39.5 14t-18.5 42h-2q-20 -21 -49 -38.5
t-60 -17.5t-58 13t-47 34.5t-31.5 50.5t-11.5 62q0 47 15.5 92t43.5 80.5t67.5 57t88.5 21.5q35 0 63.5 -15.5t50.5 -50.5l15 52h75zM366 217q28 0 51.5 15.5t40.5 39.5t26.5 53t9.5 55q0 36 -22.5 60t-54.5 24q-30 0 -54.5 -14.5t-42 -37.5t-27 -50.5t-9.5 -53.5
q0 -40 22 -65.5t60 -25.5z" />
    <glyph glyph-name="A" unicode="A" horiz-adv-x="722" 
d="M359 604l-139 -346h278zM310 698h105l295 -698h-109l-71 176h-342l-71 -176h-105z" />
    <glyph glyph-name="B" unicode="B" horiz-adv-x="611" 
d="M183 400h55q36 0 68.5 3t57 14.5t39 33.5t14.5 61q0 31 -12 51t-31 32t-41.5 16.5t-44.5 4.5h-105v-216zM183 82h75q34 0 65 4.5t54.5 17t37.5 34.5t14 57q0 40 -16 64.5t-42 37.5t-58.5 17t-64.5 4h-65v-236zM83 698h189q54 0 99.5 -9.5t77.5 -30.5t50 -54.5t18 -81.5
q0 -72 -39 -110.5t-105 -55.5v-2q36 -3 65.5 -16t51 -34.5t33.5 -51t12 -66.5q0 -56 -21.5 -92t-58 -57t-85 -29t-101.5 -8h-186v698z" />
    <glyph glyph-name="C" unicode="C" horiz-adv-x="611" 
d="M571 583q-66 39 -144 39q-60 0 -109.5 -20.5t-85 -57t-54.5 -86.5t-19 -109q0 -62 20.5 -112t56.5 -86t84 -55.5t102 -19.5q19 0 40 2.5t41.5 7t39 10.5t31.5 14l6 -97q-40 -17 -84 -21t-75 -4q-83 0 -151 25.5t-116 73t-74.5 115t-26.5 150.5q0 81 27.5 147t77 113
t117 72.5t147.5 25.5q41 0 80 -6.5t77 -23.5z" />
    <glyph glyph-name="D" unicode="D" horiz-adv-x="722" 
d="M183 88h105q129 0 198 64t69 199q0 61 -19.5 109t-54 81.5t-81 51t-100.5 17.5h-117v-522zM83 698h206q78 0 145.5 -23.5t118 -67.5t79.5 -107.5t29 -144.5q0 -88 -26 -154.5t-74 -111t-117 -67t-155 -22.5h-206v698z" />
    <glyph glyph-name="E" unicode="E" 
d="M94 698h391v-88h-291v-204h265v-88h-265v-230h291v-88h-391v698z" />
    <glyph glyph-name="F" unicode="F" horiz-adv-x="500" 
d="M83 698h371v-88h-271v-204h259v-88h-259v-318h-100v698z" />
    <glyph glyph-name="G" unicode="G" horiz-adv-x="722" 
d="M619 574q-37 24 -80.5 36t-111.5 12q-60 0 -109.5 -20.5t-85 -57.5t-54.5 -87t-19 -108q0 -62 20.5 -112t56.5 -86t84 -55.5t102 -19.5q26 0 43 1t29.5 3t21.5 4l18 4v212h-147v82h247v-363q-29 -10 -80 -20.5t-133 -10.5q-83 0 -151 25.5t-116 73t-74.5 115t-26.5 150.5
q0 81 27.5 147t77 113t117 72.5t147.5 25.5q38 0 67 -2.5t52 -7.5t43.5 -11.5t42.5 -13.5z" />
    <glyph glyph-name="H" unicode="H" horiz-adv-x="722" 
d="M94 698h100v-292h334v292h100v-698h-100v318h-334v-318h-100v698z" />
    <glyph glyph-name="I" unicode="I" horiz-adv-x="278" 
d="M89 698h100v-698h-100v698z" />
    <glyph glyph-name="J" unicode="J" horiz-adv-x="389" 
d="M21 86q17 -6 33 -8t30 -2q34 0 56 9.5t35 27t18 42.5t5 57v486h100v-518q0 -37 -9.5 -71.5t-32 -61.5t-60 -43t-94.5 -16q-50 0 -81 12v86z" />
    <glyph glyph-name="K" unicode="K" horiz-adv-x="667" 
d="M94 698h100v-307l298 307h133l-328 -330l354 -368h-146l-311 342v-342h-100v698z" />
    <glyph glyph-name="L" unicode="L" horiz-adv-x="500" 
d="M88 698h100v-610h292v-88h-392v698z" />
    <glyph glyph-name="M" unicode="M" horiz-adv-x="944" 
d="M90 698h165l219 -580l215 580h165v-698h-100v604h-2l-231 -604h-98l-231 604h-2v-604h-100v698z" />
    <glyph glyph-name="N" unicode="N" horiz-adv-x="722" 
d="M88 698h136l308 -562h2v562h100v-698h-128l-316 574h-2v-574h-100v698z" />
    <glyph glyph-name="O" unicode="O" horiz-adv-x="778" 
d="M53 349q0 78 22.5 144t66 114t105.5 75.5t142 27.5q79 0 141.5 -27.5t106 -75.5t66 -114t22.5 -144q0 -80 -22.5 -146t-65.5 -114t-105.5 -74.5t-142.5 -26.5t-142.5 26.5t-105.5 74.5t-65.5 114t-22.5 146zM159 349q0 -52 13.5 -101t41.5 -87.5t71.5 -61.5t103.5 -23
t103.5 23t71.5 61.5t41.5 87.5t13.5 101q0 53 -14.5 102.5t-43 87.5t-71.5 60.5t-101 22.5t-101 -22.5t-71.5 -60.5t-43 -87.5t-14.5 -102.5z" />
    <glyph glyph-name="P" unicode="P" 
d="M83 698h183q54 0 101.5 -10.5t83 -34.5t56.5 -64t21 -100q0 -58 -21 -98t-55.5 -65t-79 -36t-91.5 -11h-98v-279h-100v698zM183 367h99q23 0 48 6.5t45.5 20.5t33.5 37.5t13 58.5q0 33 -15.5 56t-38.5 37t-50 20.5t-50 6.5h-85v-243z" />
    <glyph glyph-name="Q" unicode="Q" horiz-adv-x="778" 
d="M445 -8q-14 -2 -27.5 -3t-28.5 -1q-80 0 -142.5 26.5t-105.5 74.5t-65.5 114t-22.5 146q0 78 22.5 144t66 114t105.5 75.5t142 27.5q79 0 141.5 -27.5t106 -75.5t66 -114t22.5 -144q0 -118 -48.5 -204.5t-139.5 -126.5l162 -147h-124zM159 349q0 -52 13.5 -101
t41.5 -87.5t71.5 -61.5t103.5 -23t103.5 23t71.5 61.5t41.5 87.5t13.5 101q0 53 -14.5 102.5t-43 87.5t-71.5 60.5t-101 22.5t-101 -22.5t-71.5 -60.5t-43 -87.5t-14.5 -102.5z" />
    <glyph glyph-name="R" unicode="R" horiz-adv-x="611" 
d="M183 398h85q72 0 111.5 29t39.5 80q0 48 -35.5 75.5t-104.5 27.5h-96v-212zM83 698h171q52 0 100.5 -6t86.5 -26t61 -57t23 -100q0 -32 -11 -59t-30.5 -47.5t-46 -34t-56.5 -18.5v-2q23 -9 37 -23.5t31 -46.5l132 -278h-114l-107 242q-12 25 -24 39t-26 20.5t-30.5 7.5
t-36.5 1h-60v-310h-100v698z" />
    <glyph glyph-name="S" unicode="S" horiz-adv-x="500" 
d="M406 593q-19 7 -34.5 12.5t-30.5 9.5t-31 5.5t-35 1.5q-21 0 -42.5 -4.5t-39.5 -15t-29 -28.5t-11 -45q0 -34 22 -55.5t55.5 -39.5t72.5 -35.5t72.5 -43.5t55.5 -64t22 -95q0 -56 -20 -95.5t-55 -64.5t-81.5 -36.5t-98.5 -11.5q-37 0 -72.5 9t-70.5 20l10 93
q13 -5 30 -11t36 -11t39.5 -8.5t39.5 -3.5q21 0 45.5 6.5t44.5 20t33.5 35t13.5 52.5q0 39 -22 63.5t-55.5 43t-72.5 35.5t-72.5 40.5t-55.5 58.5t-22 89q0 46 17.5 81.5t47.5 59.5t71 36.5t88 12.5q35 0 74 -6t75 -19z" />
    <glyph glyph-name="T" unicode="T" 
d="M228 610h-217v88h534v-88h-217v-610h-100v610z" />
    <glyph glyph-name="U" unicode="U" horiz-adv-x="722" 
d="M632 289q0 -148 -70.5 -224.5t-200.5 -76.5t-200.5 76.5t-70.5 224.5v409h100v-396q0 -50 8.5 -91.5t28.5 -71.5t53 -46.5t81 -16.5t81 16.5t53 46.5t28.5 71.5t8.5 91.5v396h100v-409z" />
    <glyph glyph-name="V" unicode="V" horiz-adv-x="667" 
d="M394 0h-125l-263 698h112l215 -610h2l221 610h105z" />
    <glyph glyph-name="W" unicode="W" horiz-adv-x="1000" 
d="M2 698h110l167 -598h2l149 598h142l151 -598h2l167 598h106l-215 -698h-129l-152 610h-2l-153 -610h-134z" />
    <glyph glyph-name="X" unicode="X" horiz-adv-x="667" 
d="M265 363l-234 335h120l186 -268l185 268h114l-235 -333l258 -365h-126l-206 296l-199 -296h-120z" />
    <glyph glyph-name="Y" unicode="Y" horiz-adv-x="667" 
d="M284 292l-273 406h117l208 -313l203 313h117l-272 -406v-292h-100v292z" />
    <glyph glyph-name="Z" unicode="Z" 
d="M32 90l362 520h-350v88h465v-90l-361 -520h367v-88h-483v90z" />
    <glyph glyph-name="bracketleft" unicode="[" horiz-adv-x="333" 
d="M95 756h189v-70h-101v-756h101v-70h-189v896z" />
    <glyph glyph-name="backslash" unicode="\" horiz-adv-x="278" 
d="M-25 710h88l240 -722h-88z" />
    <glyph glyph-name="bracketright" unicode="]" horiz-adv-x="333" 
d="M238 -140h-189v70h101v756h-101v70h189v-896z" />
    <glyph glyph-name="asciicircum" unicode="^" horiz-adv-x="600" 
d="M259 698h82l199 -404h-90l-150 312l-150 -312h-90z" />
    <glyph glyph-name="underscore" unicode="_" horiz-adv-x="500" 
d="M500 -75v-50h-500v50h500z" />
    <glyph glyph-name="grave" unicode="`" horiz-adv-x="278" 
d="M205 581h-67l-131 144h109z" />
    <glyph glyph-name="a" unicode="a" 
d="M383 243q-15 0 -30 1t-30 1q-19 0 -49 -2.5t-58.5 -12.5t-49 -29.5t-20.5 -53.5q0 -20 9 -35.5t22.5 -26t30.5 -16t33 -5.5q70 0 106 38.5t36 95.5v45zM104 474q35 21 77 34.5t91 13.5q110 0 157.5 -53t47.5 -158v-211q0 -44 1 -66.5t3 -33.5h-88v66h-2q-8 -12 -22 -25.5
t-33.5 -25t-45 -19.5t-57.5 -8q-41 0 -75.5 9t-59.5 28.5t-38.5 49.5t-13.5 72q0 48 23.5 80t58.5 51.5t77 28t78 8.5h50t50 -2q0 66 -27.5 99.5t-98.5 33.5q-40 0 -79.5 -14t-68.5 -38z" />
    <glyph glyph-name="b" unicode="b" horiz-adv-x="611" 
d="M465 257q1 34 -6.5 68t-24.5 61t-44 43.5t-65 16.5t-66.5 -16.5t-47.5 -43.5t-28 -61.5t-9 -70.5q0 -32 8.5 -65.5t26.5 -61.5t46.5 -45.5t68.5 -17.5q38 0 65 19t44 47.5t25 62.5t7 64zM80 750h94v-310h2q22 35 62 58.5t107 23.5q55 0 96.5 -21t69 -56.5t41 -82.5
t13.5 -98q0 -53 -12.5 -102.5t-39 -88t-68 -62t-99.5 -23.5q-34 0 -62 8t-50 20t-37.5 27t-24.5 29h-2v-72h-90v750z" />
    <glyph glyph-name="c" unicode="c" horiz-adv-x="444" 
d="M404 424q-27 11 -53 16.5t-49 5.5q-39 0 -69.5 -16t-51.5 -43t-32 -61.5t-11 -70.5q0 -34 9.5 -68t30 -61.5t53 -44.5t77.5 -17q24 0 51.5 7.5t49.5 21.5l7 -84q-29 -14 -60.5 -17.5t-57.5 -3.5q-58 0 -105.5 21t-82 57.5t-53.5 85t-19 103.5q0 58 18.5 107t53 84.5
t82 55.5t106.5 20q29 0 61.5 -6t52.5 -14z" />
    <glyph glyph-name="d" unicode="d" horiz-adv-x="611" 
d="M146 257q-1 -30 7 -64t25 -62.5t44 -47.5t65 -19q40 0 68.5 17.5t46.5 45.5t26.5 61.5t8.5 65.5q0 36 -9.5 70.5t-28 61.5t-47 43.5t-66.5 16.5t-65 -16.5t-44 -43t-24.5 -60.5t-6.5 -69zM441 72h-2q-9 -14 -25 -29t-37.5 -27t-49.5 -20t-62 -8q-58 0 -99.5 23.5
t-68 62.5t-39 88.5t-12.5 101.5q0 51 13.5 98t41 82.5t68.5 56.5t97 21q67 0 107 -23.5t62 -58.5h2v310h94v-750h-90v72z" />
    <glyph glyph-name="e" unicode="e" 
d="M410 304q0 29 -8.5 55t-24.5 45.5t-40 30.5t-54 11q-35 0 -59.5 -13t-41 -33.5t-25 -45.5t-11.5 -50h264zM471 21q-14 -5 -29 -10.5t-33.5 -10.5t-43 -8.5t-55.5 -3.5q-68 0 -117.5 20t-82 56t-48.5 87t-16 113q0 57 17 104t48.5 81.5t75.5 53.5t98 19q64 0 107 -22
t69 -60.5t37.5 -91.5t11.5 -114h-364q0 -38 13.5 -69t37 -53.5t54 -35t63.5 -12.5q23 0 47.5 5.5t46 13t38 16.5t25.5 16v-94z" />
    <glyph glyph-name="f" unicode="f" horiz-adv-x="389" 
d="M141 434h-120v76h120v47q0 46 7 84t26 65t52.5 41.5t85.5 14.5q18 0 33.5 -2t29.5 -4l-4 -76q-8 3 -20.5 4.5t-24.5 1.5q-30 0 -48 -9t-27.5 -25.5t-12.5 -38.5t-3 -48v-55h135v-76h-135v-434h-94v434z" />
    <glyph glyph-name="g" unicode="g" horiz-adv-x="611" 
d="M288 76q33 0 60.5 13.5t47 37t30.5 55t11 67.5q0 40 -9 75.5t-28 62.5t-47 43t-65 16q-36 0 -62.5 -17.5t-44 -45t-26.5 -61t-9 -66.5q0 -36 10 -68.5t28 -57.5t44.5 -39.5t59.5 -14.5zM531 22q0 -116 -63 -180t-200 -64q-20 0 -39.5 1.5t-41.5 5.5t-46.5 10.5
t-55.5 17.5l10 87q27 -12 49.5 -21t43.5 -14.5t43 -8t48 -2.5q75 0 116.5 47t41.5 128v50h-2q-30 -40 -76 -59.5t-95 -19.5q-55 0 -96 20.5t-68 55.5t-40.5 80t-13.5 95q0 49 14 97.5t42.5 87t71 62.5t100.5 24q68 0 107.5 -23t60.5 -65h2v76h87v-488z" />
    <glyph glyph-name="h" unicode="h" horiz-adv-x="611" 
d="M80 750h94v-313h2q26 41 68 63t96 22q99 0 145 -58t46 -161v-303h-94v264q0 90 -23 134t-85 48q-40 0 -69.5 -15.5t-48.5 -43t-28 -66.5t-9 -85v-236h-94v750z" />
    <glyph glyph-name="i" unicode="i" horiz-adv-x="278" 
d="M192 624h-106v106h106v-106zM92 510h94v-510h-94v510z" />
    <glyph glyph-name="j" unicode="j" horiz-adv-x="278" 
d="M192 624h-106v106h106v-106zM-13 -137q9 -2 16.5 -2.5t21.5 -0.5q33 0 50 29t17 79v542h94v-528q0 -28 -2.5 -63t-16.5 -66.5t-43 -53t-82 -21.5q-15 0 -31.5 1t-26.5 3z" />
    <glyph glyph-name="k" unicode="k" 
d="M80 750h94v-447l205 207h128l-237 -226l267 -284h-135l-228 262v-262h-94v750z" />
    <glyph glyph-name="l" unicode="l" horiz-adv-x="278" 
d="M92 750h94v-750h-94v750z" />
    <glyph glyph-name="m" unicode="m" horiz-adv-x="889" 
d="M79 510h88v-74h2q27 45 66 65.5t96 20.5q44 0 84.5 -23.5t60.5 -75.5q13 27 33 46t42 31t44 17t39 5q49 0 82.5 -15t54.5 -41t30.5 -61.5t9.5 -77.5v-327h-94v304q0 24 -3.5 49t-13.5 45.5t-28 34t-46 13.5q-36 0 -61.5 -16t-41.5 -42.5t-23.5 -60.5t-7.5 -70v-257h-94
v304q0 24 -3.5 49t-13.5 45.5t-28 34t-46 13.5q-36 0 -61.5 -16t-41.5 -42.5t-23.5 -60.5t-7.5 -70v-257h-94v510z" />
    <glyph glyph-name="n" unicode="n" horiz-adv-x="611" 
d="M80 510h91v-81h2q21 44 67 68.5t100 24.5q99 0 145 -58t46 -161v-303h-94v264q0 90 -23 134t-85 48q-40 0 -69.5 -15.5t-48.5 -43t-28 -66.5t-9 -85v-236h-94v510z" />
    <glyph glyph-name="o" unicode="o" horiz-adv-x="611" 
d="M146 255q0 -34 9.5 -68t29 -61.5t49.5 -44.5t72 -17q41 0 71 17t49.5 44.5t29 61.5t9.5 68q0 36 -11 70.5t-31 61.5t-50 43t-67 16q-38 0 -67.5 -16t-50 -43t-31.5 -61.5t-11 -70.5zM46 255q0 58 18.5 107t53 84.5t82 55.5t106.5 20q58 0 106 -20t82 -55.5t52.5 -84.5
t18.5 -107q0 -55 -19 -103.5t-53 -85t-82 -57.5t-105 -21q-58 0 -105.5 21t-82 57.5t-53.5 85t-19 103.5z" />
    <glyph glyph-name="p" unicode="p" horiz-adv-x="611" 
d="M465 257q1 34 -6.5 68t-24.5 61t-44 43.5t-65 16.5t-66.5 -16.5t-47.5 -43.5t-28 -61.5t-9 -70.5q0 -32 8.5 -65.5t26.5 -61.5t46.5 -45.5t68.5 -17.5q38 0 65 19t44 47.5t25 62.5t7 64zM80 510h90v-72h2q9 14 24.5 29t37.5 27t49.5 20t61.5 8q55 0 96.5 -21t69 -56.5
t41 -82.5t13.5 -98q0 -53 -12.5 -102.5t-39 -88t-68 -62t-99.5 -23.5q-68 0 -108 23.5t-62 58.5h-2v-280h-94v720z" />
    <glyph glyph-name="q" unicode="q" horiz-adv-x="611" 
d="M146 257q-1 -30 7 -64t25 -62.5t44 -47.5t65 -19q40 0 68.5 17.5t46.5 45.5t26.5 61.5t8.5 65.5q0 36 -9.5 70.5t-28 61.5t-47 43.5t-66.5 16.5t-65 -16.5t-44 -43t-24.5 -60.5t-6.5 -69zM531 -210h-94v277h-2q-22 -36 -67.5 -57.5t-102.5 -21.5q-58 0 -99.5 23.5
t-68 62.5t-39 88.5t-12.5 101.5q0 51 13.5 98t41 82.5t68.5 56.5t97 21q34 0 61.5 -8t49.5 -20t37.5 -27t24.5 -30h2v73h90v-720z" />
    <glyph glyph-name="r" unicode="r" horiz-adv-x="389" 
d="M80 510h88v-79h2q19 40 55.5 65.5t77.5 25.5q21 0 34 -2t28 -5v-84q-13 5 -26.5 7t-25.5 2q-63 0 -101 -56t-38 -152v-232h-94v510z" />
    <glyph glyph-name="s" unicode="s" horiz-adv-x="389" 
d="M42 100q14 -9 30 -16t32 -11.5t30.5 -6.5t24.5 -2q16 0 33 3.5t31 12t23 22.5t9 35q0 23 -16.5 39t-41 29.5t-53 26.5t-53 31t-41 42t-16.5 60q0 40 14 69.5t38 49t57 29t71 9.5q33 0 61 -6t56 -14l-8 -82q-8 5 -21.5 9.5t-28 8.5t-28 6t-21.5 2q-36 0 -63 -15t-27 -47
q0 -26 16.5 -42.5t41 -29t53 -25t53 -30t41 -43.5t16.5 -67t-15 -71t-40 -49.5t-57 -29t-66 -9.5q-36 0 -72 5.5t-68 22.5z" />
    <glyph glyph-name="t" unicode="t" horiz-adv-x="389" 
d="M351 434h-135v-279q0 -45 23.5 -68t55.5 -23q22 0 37.5 5.5t26.5 12.5v-80q-16 -5 -36.5 -9.5t-43.5 -4.5q-73 0 -115 35.5t-42 112.5v298h-115v76h115v118l94 30v-148h135v-76z" />
    <glyph glyph-name="u" unicode="u" horiz-adv-x="611" 
d="M531 0h-91v81h-2q-21 -44 -67 -68.5t-100 -24.5q-99 0 -145 58t-46 161v303h94v-264q0 -90 23 -134t85 -48q40 0 69.5 15.5t48.5 43t28 66t9 85.5v236h94v-510z" />
    <glyph glyph-name="v" unicode="v" horiz-adv-x="500" 
d="M306 0h-112l-183 510h103l138 -416h2l141 416h94z" />
    <glyph glyph-name="w" unicode="w" horiz-adv-x="833" 
d="M657 0h-109l-132 428h-2l-129 -428h-109l-164 510h103l117 -422h2l130 422h111l128 -422h2l124 422h92z" />
    <glyph glyph-name="x" unicode="x" horiz-adv-x="500" 
d="M194 267l-166 243h117l111 -182l113 182h105l-164 -243l180 -267h-116l-126 200l-126 -200h-112z" />
    <glyph glyph-name="y" unicode="y" horiz-adv-x="500" 
d="M42 -138q9 -3 20.5 -5.5t23.5 -2.5q31 0 52.5 18.5t35 41t19 42.5t5.5 24q0 8 -6.5 24.5t-11.5 29.5l-173 476h103l137 -422h2l140 422h95l-188 -521q-13 -37 -28 -74.5t-36.5 -68t-53.5 -49.5t-78 -19q-23 0 -37 2.5t-27 4.5z" />
    <glyph glyph-name="z" unicode="z" horiz-adv-x="500" 
d="M43 82l294 352h-280v76h389v-82l-294 -352h305v-76h-414v82z" />
    <glyph glyph-name="braceleft" unicode="{" horiz-adv-x="333" 
d="M314 686h-53q-15 0 -25 -6.5t-15.5 -17.5t-7.5 -24.5t-2 -27.5v-181q0 -33 -10.5 -55t-25.5 -36t-30.5 -20.5t-25.5 -8.5v-2q10 -1 25.5 -7t30.5 -19.5t25.5 -37t10.5 -59.5v-178q0 -14 2 -27.5t7.5 -24.5t15.5 -17.5t25 -6.5h53v-70h-78q-18 0 -38 8t-36.5 24
t-27.5 39.5t-11 54.5v182q0 25 -8 45t-20 33t-27.5 20t-30.5 7v70q15 0 30.5 7t27.5 19.5t20 31t8 42.5v187q0 31 11 54.5t27.5 39.5t36.5 24t38 8h78v-70z" />
    <glyph glyph-name="bar" unicode="|" horiz-adv-x="222" 
d="M155 750v-1000h-88v1000h88z" />
    <glyph glyph-name="braceright" unicode="}" horiz-adv-x="333" 
d="M19 -70h53q15 0 25 6.5t15.5 17.5t7.5 24.5t2 27.5v181q0 33 10.5 55t25.5 36t30.5 20.5t25.5 8.5v2q-10 1 -25.5 7t-30.5 19.5t-25.5 37t-10.5 59.5v178q0 14 -2 27.5t-7.5 24.5t-15.5 17.5t-25 6.5h-53v70h78q18 0 38 -8t36.5 -24t27.5 -39.5t11 -54.5v-182
q0 -26 8 -45.5t20 -32.5t27.5 -20t30.5 -7v-70q-15 0 -30.5 -7t-27.5 -19.5t-20 -31t-8 -42.5v-187q0 -31 -11 -54.5t-27.5 -39.5t-36.5 -24t-38 -8h-78v70z" />
    <glyph glyph-name="asciitilde" unicode="~" horiz-adv-x="600" 
d="M531 263q-8 -16 -19.5 -31t-26.5 -27t-34.5 -19.5t-44.5 -7.5q-26 0 -54 9t-57 22q-28 12 -55 24.5t-47 12.5q-15 0 -27.5 -6.5t-23 -17t-19.5 -23.5l-18 -26l-36 70q8 16 19.5 31t26.5 27t34.5 19.5t44.5 7.5q26 0 54 -9t57 -22q28 -12 55 -24.5t47 -12.5q15 0 27.5 6.5
t23 17t19.5 23.5l18 26z" />
    <glyph glyph-name="Euro" 
d="M562 601q-24 13 -60.5 20t-63.5 7q-88 0 -146 -50.5t-80 -132.5h318l-13 -54h-317q-5 -42 0 -84h299l-12 -54h-275q22 -82 79.5 -131.5t145.5 -49.5q30 0 64 6t61 19l6 -87q-31 -12 -68.5 -17t-70.5 -5q-64 0 -118.5 18t-96.5 52t-71 83.5t-42 111.5h-95l13 54h75
q-3 42 0 84h-88l13 54h83q13 60 42.5 109t72 83.5t96.5 53.5t116 19q38 0 78 -6t75 -20z" />
    <glyph glyph-name="Euro" unicode="&#x20ac;" 
d="M562 601q-24 13 -60.5 20t-63.5 7q-88 0 -146 -50.5t-80 -132.5h318l-13 -54h-317q-5 -42 0 -84h299l-12 -54h-275q22 -82 79.5 -131.5t145.5 -49.5q30 0 64 6t61 19l6 -87q-31 -12 -68.5 -17t-70.5 -5q-64 0 -118.5 18t-96.5 52t-71 83.5t-42 111.5h-95l13 54h75
q-3 42 0 84h-88l13 54h83q13 60 42.5 109t72 83.5t96.5 53.5t116 19q38 0 78 -6t75 -20z" />
    <glyph glyph-name="Zcaron" 
d="M32 90l362 520h-350v88h465v-90l-361 -520h367v-88h-483v90zM324 749h-91l-100 144h80l66 -98l65 98h79z" />
    <glyph glyph-name="Zcaron" unicode="&#x17d;" 
d="M32 90l362 520h-350v88h465v-90l-361 -520h367v-88h-483v90zM324 749h-91l-100 144h80l66 -98l65 98h79z" />
    <glyph glyph-name="zcaron" horiz-adv-x="500" 
d="M43 82l294 352h-280v76h389v-82l-294 -352h305v-76h-414v82zM296 581h-91l-100 144h80l66 -98l65 98h79z" />
    <glyph glyph-name="zcaron" unicode="&#x17e;" horiz-adv-x="500" 
d="M43 82l294 352h-280v76h389v-82l-294 -352h305v-76h-414v82zM296 581h-91l-100 144h80l66 -98l65 98h79z" />
    <glyph glyph-name="nonbreakingspace" unicode="&#xa0;" horiz-adv-x="278" 
 />
    <glyph glyph-name="exclamdown" unicode="&#xa1;" horiz-adv-x="389" 
d="M139 510h112v-112h-112v112zM251 -188h-112l13 502h86z" />
    <glyph glyph-name="cent" unicode="&#xa2;" 
d="M219 23q-62 35 -96 96t-34 136q0 58 18.5 107t53 84.5t82 55.5t106.5 20h6q4 0 8 -1l33 113h57l-35 -119q14 -3 25.5 -6t19.5 -7l-8 -78q-30 13 -58 17l-105 -365q14 -5 31 -8.5t36 -3.5q24 0 51.5 7.5t49.5 21.5l7 -84q-29 -14 -60.5 -17.5t-57.5 -3.5q-43 0 -79 12
l-39 -133h-57zM341 445q-37 -3 -65 -20t-47.5 -43t-29.5 -59t-10 -68q0 -39 13 -78t42 -68z" />
    <glyph glyph-name="sterling" unicode="&#xa3;" 
d="M59 88h91v260h-79v58h79v56q0 54 15.5 99.5t46 78.5t76 51.5t104.5 18.5q38 0 66.5 -5.5t51.5 -13.5l-8 -93q-20 9 -44.5 16.5t-55.5 7.5q-78 0 -115 -44.5t-37 -122.5v-49h161v-58h-161v-260h247v-88h-438v88z" />
    <glyph glyph-name="currency" unicode="&#xa4;" 
d="M118 349q0 -35 12.5 -65t34.5 -52.5t51 -35.5t62 -13q34 0 63.5 13.5t51 36.5t33.5 53t12 63t-12 63t-33.5 53t-51 36.5t-63.5 13.5q-33 0 -62.5 -13t-51 -35.5t-34 -53t-12.5 -64.5zM80 203q-25 29 -37.5 66.5t-12.5 79.5q0 41 12 80t38 68l-56 54l51 52l55 -55
q29 23 68.5 36t79.5 13q42 0 81 -13t69 -36l54 55l50 -52l-54 -54q24 -27 36 -66.5t12 -81.5q0 -41 -12 -79t-36 -67l54 -57l-50 -51l-54 57q-29 -25 -68 -38t-82 -13q-42 0 -80.5 12.5t-67.5 38.5l-55 -57l-51 51z" />
    <glyph glyph-name="yen" unicode="&#xa5;" 
d="M229 162h-141v58h141v72l-8 16h-133v58h101l-183 332h111l164 -313l158 313h111l-181 -332h101v-58h-133l-8 -16v-72h141v-58h-141v-162h-100v162z" />
    <glyph glyph-name="brokenbar" unicode="&#xa6;" horiz-adv-x="222" 
d="M155 175v-350h-88v350h88zM155 675v-350h-88v350h88z" />
    <glyph glyph-name="section" unicode="&#xa7;" 
d="M172 324q0 -30 22 -50t52 -34t61.5 -23.5t51.5 -18.5q14 17 25 34t11 41q0 31 -21.5 51t-51.5 33.5t-61.5 23.5t-51.5 21q-37 -28 -37 -78zM98 -7q36 -19 78.5 -27t86.5 -8q21 0 42.5 5.5t38.5 16.5t27.5 28t10.5 41q0 26 -22 42.5t-55 29t-72 25.5t-72 32.5t-55 49.5
t-22 77q0 43 18.5 72.5t54.5 51.5q-34 19 -51.5 49.5t-17.5 69.5q0 42 19 72.5t49.5 50.5t68 29.5t73.5 9.5q37 0 72.5 -5t71.5 -14l-9 -91q-27 12 -60 20t-62 8q-18 0 -40.5 -3t-42 -11t-33 -23t-13.5 -39q0 -30 22.5 -48t55.5 -31.5t72.5 -26t72.5 -31.5t55.5 -48
t22.5 -75q0 -45 -19 -72t-52 -54q29 -19 46.5 -49t17.5 -65q0 -48 -21.5 -81.5t-54.5 -54.5t-73 -30.5t-77 -9.5q-39 0 -79 5t-82 20z" />
    <glyph glyph-name="dieresis" unicode="&#xa8;" horiz-adv-x="278" 
d="M174 688h94v-100h-94v100zM10 688h94v-100h-94v100z" />
    <glyph glyph-name="copyright" unicode="&#xa9;" horiz-adv-x="800" 
d="M127 349q0 -63 21.5 -116.5t58.5 -92.5t86.5 -60.5t106.5 -21.5t106.5 21.5t86.5 60.5t58.5 92.5t21.5 116.5t-21.5 116.5t-58.5 92.5t-86.5 60.5t-106.5 21.5t-106.5 -21.5t-86.5 -60.5t-58.5 -92.5t-21.5 -116.5zM39 349q0 75 28.5 140.5t77.5 114.5t114.5 77.5
t140.5 28.5t140.5 -28.5t114.5 -77.5t77.5 -114.5t28.5 -140.5t-28.5 -140.5t-77.5 -114.5t-114.5 -77.5t-140.5 -28.5t-140.5 28.5t-114.5 77.5t-77.5 114.5t-28.5 140.5zM582 285q-12 -75 -60.5 -115.5t-112.5 -40.5q-47 0 -85 17t-64.5 46.5t-41 69.5t-14.5 87t13.5 87
t39.5 69t63.5 45.5t85.5 16.5q33 0 63 -10t53.5 -29t39 -47t20.5 -64h-73q-8 37 -35.5 58.5t-66.5 21.5q-32 0 -55.5 -11t-39.5 -30.5t-24 -46.5t-8 -58q0 -33 9 -60.5t25.5 -48t40.5 -32t54 -11.5q41 0 68 22.5t32 63.5h73z" />
    <glyph glyph-name="ordfeminine" unicode="&#xaa;" horiz-adv-x="361" 
d="M212 535q-15 0 -33.5 -1.5t-35 -7.5t-27.5 -16.5t-11 -28.5t19 -26.5t40 -8.5q42 0 65 14t23 46v27q-7 0 -16.5 1t-23.5 1zM63 682q29 15 58.5 21.5t58.5 6.5q35 0 63.5 -5t48.5 -19.5t31 -39t11 -63.5v-128q0 -26 2 -39.5t1 -19.5h-84v38h-2q-17 -26 -42.5 -36
t-55.5 -10q-19 0 -41.5 4.5t-42 15t-33 29t-13.5 47.5q0 32 18 52t44 31.5t55 15.5t51 4h32t29 -2q0 20 -6 33t-16.5 20.5t-25 10.5t-30.5 3q-31 0 -57 -7.5t-51 -25.5z" />
    <glyph glyph-name="guillemotleft" unicode="&#xab;" 
d="M253 269l143 202h88l-130 -202l130 -202h-88zM51 269l143 202h88l-130 -202l130 -202h-88z" />
    <glyph glyph-name="logicalnot" unicode="&#xac;" horiz-adv-x="600" 
d="M47 402h506v-298h-88v210h-418v88z" />
    <glyph glyph-name="hyphen" unicode="&#xad;" horiz-adv-x="333" 
d="M38 307h257v-76h-257v76z" />
    <glyph glyph-name="hyphen" unicode="&#x2010;" horiz-adv-x="333" 
d="M38 307h257v-76h-257v76z" />
    <glyph glyph-name="registered" unicode="&#xae;" horiz-adv-x="800" 
d="M337 380h67q17 0 32 2t26.5 8t18.5 18t7 33q0 18 -7.5 29t-19.5 17t-26.5 8t-29.5 2h-68v-117zM261 555h152q74 0 112.5 -27.5t38.5 -92.5q0 -53 -28 -79t-79 -31l110 -179h-78l-106 176h-46v-176h-76v409zM400 58q57 0 106.5 21.5t86.5 60.5t58.5 92.5t21.5 116.5
t-21.5 116.5t-58.5 92.5t-86.5 60.5t-106.5 21.5t-106.5 -21.5t-86.5 -60.5t-58.5 -92.5t-21.5 -116.5t21.5 -116.5t58.5 -92.5t86.5 -60.5t106.5 -21.5zM400 -12q-75 0 -140.5 28.5t-114.5 77.5t-77.5 114.5t-28.5 140.5t28.5 140.5t77.5 114.5t114.5 77.5t140.5 28.5
t140.5 -28.5t114.5 -77.5t77.5 -114.5t28.5 -140.5t-28.5 -140.5t-77.5 -114.5t-114.5 -77.5t-140.5 -28.5z" />
    <glyph glyph-name="macron" unicode="&#xaf;" horiz-adv-x="278" 
d="M-9 673h296v-58h-296v58z" />
    <glyph glyph-name="degree" unicode="&#xb0;" horiz-adv-x="400" 
d="M121 567q0 -33 23 -56t56 -23t56 23t23 56t-23 56t-56 23t-56 -23t-23 -56zM57 567q0 30 11 56t30.5 45.5t45.5 30.5t56 11t56 -11t45.5 -30.5t30.5 -45.5t11 -56t-11 -56t-30.5 -45.5t-45.5 -30.5t-56 -11t-56 11t-45.5 30.5t-30.5 45.5t-11 56z" />
    <glyph glyph-name="plusminus" unicode="&#xb1;" horiz-adv-x="600" 
d="M47 88h506v-88h-506v88zM47 359h209v147h88v-147h209v-88h-209v-147h-88v147h-209v88z" />
    <glyph glyph-name="twosuperior" unicode="&#xb2;" horiz-adv-x="361" 
d="M31 358q10 8 29 23t42 34.5t46.5 41t42.5 44t31.5 44t12.5 40.5q0 15 -8 25.5t-20 17t-26 9.5t-26 3q-26 0 -53.5 -7.5t-50.5 -21.5l-6 74q59 25 125 25q29 0 56.5 -6.5t49 -21t34.5 -37.5t13 -56q0 -31 -23.5 -68t-55 -71t-63.5 -60.5t-50 -35.5v-2h199v-70h-299v76z
" />
    <glyph glyph-name="threesuperior" unicode="&#xb3;" horiz-adv-x="361" 
d="M93 536h46q14 0 31 3.5t32 10t25.5 17.5t10.5 26q0 14 -9 23t-22.5 14.5t-29 7.5t-28.5 2q-28 0 -52 -6.5t-45 -15.5l-4 72q23 8 55.5 14t67.5 6q30 0 57.5 -6.5t49.5 -20t35 -35t13 -51.5q0 -21 -8.5 -37t-23 -28t-32.5 -19.5t-36 -10.5v-2q45 -6 74.5 -32t29.5 -73
q0 -38 -16.5 -61.5t-43 -36t-59.5 -17t-66 -4.5q-34 0 -62.5 5t-50.5 11l10 76q4 -4 14 -8t22.5 -7t27.5 -5t30 -2q14 0 32 2t34.5 8t28 16.5t11.5 26.5q0 17 -9.5 29.5t-24.5 21t-32.5 12.5t-33.5 4h-49v70z" />
    <glyph glyph-name="acute" unicode="&#xb4;" horiz-adv-x="278" 
d="M162 725h109l-131 -144h-67z" />
    <glyph glyph-name="mu" unicode="&#xb5;" horiz-adv-x="611" 
d="M531 0h-91v81h-2q-21 -44 -67 -68.5t-100 -24.5q-29 0 -53 4.5t-44 15.5v-218h-94v720h94v-264q0 -90 23 -134t85 -48q40 0 69.5 15.5t48.5 43t28 66t9 85.5v236h94v-510z" />
    <glyph glyph-name="paragraph" unicode="&#xb6;" horiz-adv-x="600" 
d="M236 333q-50 0 -90 13t-68 37t-43 57t-15 72q0 51 17 86.5t48.5 57.5t74.5 32t96 10h271v-810h-88v740h-115v-740h-88v445z" />
    <glyph glyph-name="periodcentered" unicode="&#xb7;" horiz-adv-x="278" 
d="M80 304q1 24 18.5 41t41.5 17t41.5 -17t16.5 -41q1 -24 -16.5 -42t-41.5 -18t-41.5 18t-18.5 42z" />
    <glyph glyph-name="periodcentered" unicode="&#x22c5;" horiz-adv-x="278" 
d="M80 304q1 24 18.5 41t41.5 17t41.5 -17t16.5 -41q1 -24 -16.5 -42t-41.5 -18t-41.5 18t-18.5 42z" />
    <glyph glyph-name="periodcentered" unicode="&#x2219;" horiz-adv-x="278" 
d="M80 304q1 24 18.5 41t41.5 17t41.5 -17t16.5 -41q1 -24 -16.5 -42t-41.5 -18t-41.5 18t-18.5 42z" />
    <glyph glyph-name="cedilla" unicode="&#xb8;" horiz-adv-x="278" 
d="M247 0l-46 -60l2 -2q13 5 30 5q34 0 58.5 -19t24.5 -54q0 -25 -12 -42.5t-31 -28.5t-42.5 -16t-45.5 -5t-43.5 5t-40.5 16l18 34q17 -7 31 -11t34 -4q19 0 37.5 9.5t18.5 36.5q0 20 -14 29.5t-32 9.5q-11 0 -22 -2.5t-19 -5.5l-17 19l64 86h47z" />
    <glyph glyph-name="onesuperior" unicode="&#xb9;" horiz-adv-x="361" 
d="M154 628l-70 -55l-34 46l111 85h81v-422h-88v346z" />
    <glyph glyph-name="ordmasculine" unicode="&#xba;" horiz-adv-x="397" 
d="M108 549q0 -20 4.5 -38.5t15 -33t27.5 -23t43 -8.5t43.5 8.5t28 23t14.5 33t4 38.5q0 42 -21.5 72.5t-68.5 30.5t-68.5 -30.5t-21.5 -72.5zM198 388q-39 0 -70.5 13t-54 34.5t-35 51t-12.5 62.5q0 35 12 64.5t34.5 51t54.5 33.5t71 12t71 -12t54.5 -33.5t34.5 -51
t12 -64.5q0 -33 -12.5 -62.5t-35 -51t-54 -34.5t-70.5 -13z" />
    <glyph glyph-name="guillemotright" unicode="&#xbb;" 
d="M303 269l-143 -202h-88l130 202l-130 202h88zM505 269l-143 -202h-88l130 202l-130 202h88z" />
    <glyph glyph-name="onequarter" unicode="&#xbc;" horiz-adv-x="834" 
d="M661 83h-212v61l184 278h116v-269h52v-70h-52v-83h-88v83zM661 352h-2l-128 -199h130v199zM137 628l-70 -55l-34 46l111 85h81v-422h-88v346zM576 720h72l-433 -742h-72z" />
    <glyph glyph-name="onehalf" unicode="&#xbd;" horiz-adv-x="834" 
d="M502 76q10 8 29 23t42 34.5t46.5 41t42.5 44t31.5 44t12.5 40.5q0 15 -8 25.5t-20 17t-26 9.5t-26 3q-26 0 -53.5 -7.5t-50.5 -21.5l-6 74q59 25 125 25q29 0 56.5 -6.5t49 -21t34.5 -37.5t13 -56q0 -31 -23.5 -68t-55 -71t-63.5 -60.5t-50 -35.5v-2h199v-70h-299v76z
M137 628l-70 -55l-34 46l111 85h81v-422h-88v346zM545 720h72l-433 -742h-72z" />
    <glyph glyph-name="threequarters" unicode="&#xbe;" horiz-adv-x="834" 
d="M661 83h-212v61l184 278h116v-269h52v-70h-52v-83h-88v83zM661 352h-2l-128 -199h130v199zM93 536h46q14 0 31 3.5t32 10t25.5 17.5t10.5 26q0 14 -9 23t-22.5 14.5t-29 7.5t-28.5 2q-28 0 -52 -6.5t-45 -15.5l-4 72q23 8 55.5 14t67.5 6q30 0 57.5 -6.5t49.5 -20t35 -35
t13 -51.5q0 -21 -8.5 -37t-23 -28t-32.5 -19.5t-36 -10.5v-2q45 -6 74.5 -32t29.5 -73q0 -38 -16.5 -61.5t-43 -36t-59.5 -17t-66 -4.5q-34 0 -62.5 5t-50.5 11l10 76q4 -4 14 -8t22.5 -7t27.5 -5t30 -2q14 0 32 2t34.5 8t28 16.5t11.5 26.5q0 17 -9.5 29.5t-24.5 21
t-32.5 12.5t-33.5 4h-49v70zM619 720h72l-433 -742h-72z" />
    <glyph glyph-name="questiondown" unicode="&#xbf;" horiz-adv-x="500" 
d="M305 398h-112v112h112v-112zM296 293q0 -24 -3 -42.5t-10.5 -35.5t-19 -33.5t-29.5 -37.5q-14 -16 -28.5 -33t-27 -36t-20.5 -40.5t-8 -45.5q0 -26 10 -45t27 -31.5t38.5 -18.5t45.5 -6q50 0 86.5 11t61.5 29l7 -95q-33 -14 -74 -23.5t-92 -9.5q-41 0 -80 11.5t-69 34.5
t-48.5 57t-18.5 79q0 39 14 70.5t34.5 59t44.5 54.5t44 57q12 18 16.5 35t4.5 38v18h94v-21z" />
    <glyph glyph-name="Agrave" unicode="&#xc0;" horiz-adv-x="722" 
d="M359 604l-139 -346h278zM310 698h105l295 -698h-109l-71 176h-342l-71 -176h-105zM427 749h-67l-131 144h109z" />
    <glyph glyph-name="Aacute" unicode="&#xc1;" horiz-adv-x="722" 
d="M359 604l-139 -346h278zM310 698h105l295 -698h-109l-71 176h-342l-71 -176h-105zM384 893h109l-131 -144h-67z" />
    <glyph glyph-name="Acircumflex" unicode="&#xc2;" horiz-adv-x="722" 
d="M359 604l-139 -346h278zM310 698h105l295 -698h-109l-71 176h-342l-71 -176h-105zM315 893h91l100 -144h-80l-66 98l-65 -98h-79z" />
    <glyph glyph-name="Atilde" unicode="&#xc3;" horiz-adv-x="722" 
d="M359 604l-139 -346h278zM310 698h105l295 -698h-109l-71 176h-342l-71 -176h-105zM191 754q2 16 7.5 35.5t16 36.5t27.5 28.5t43 11.5q19 0 40 -7.5t41 -16t38.5 -15.5t34.5 -7q23 -2 33.5 13.5t12.5 32.5h46q-2 -16 -7.5 -35.5t-16 -36.5t-28 -28.5t-42.5 -11.5
q-20 0 -40.5 7.5t-40.5 16t-38.5 15.5t-34.5 7q-23 2 -33.5 -13.5t-12.5 -32.5h-46z" />
    <glyph glyph-name="Adieresis" unicode="&#xc4;" horiz-adv-x="722" 
d="M359 604l-139 -346h278zM310 698h105l295 -698h-109l-71 176h-342l-71 -176h-105zM396 856h94v-100h-94v100zM232 856h94v-100h-94v100z" />
    <glyph glyph-name="Aring" unicode="&#xc5;" horiz-adv-x="722" 
d="M359 604l-139 -346h278zM310 698h105l295 -698h-109l-71 176h-342l-71 -176h-105zM361 895q-25 0 -43.5 -18.5t-18.5 -43.5t18.5 -43.5t43.5 -18.5q24 0 43 19t19 43q0 25 -18.5 43.5t-43.5 18.5zM361 935q21 0 39.5 -8t32.5 -22t22 -32.5t8 -39.5t-8 -39.5t-22 -32.5
t-32.5 -22t-39.5 -8t-39.5 8t-32.5 22t-22 32.5t-8 39.5t8 39.5t22 32.5t32.5 22t39.5 8z" />
    <glyph glyph-name="AE" unicode="&#xc6;" horiz-adv-x="944" 
d="M488 628h-2l-220 -370h244zM424 698h61h96h282v-88h-277l13 -204h246v-88h-241l14 -230h255v-88h-249h-98l-11 176h-297l-105 -176h-111z" />
    <glyph glyph-name="Ccedilla" unicode="&#xc7;" horiz-adv-x="611" 
d="M571 583q-66 39 -144 39q-60 0 -109.5 -20.5t-85 -57t-54.5 -86.5t-19 -109q0 -62 20.5 -112t56.5 -86t84 -55.5t102 -19.5q19 0 40 2.5t41.5 7t39 10.5t31.5 14l6 -97q-40 -17 -84 -21t-75 -4h-12q-5 0 -11 2l-38 -50l2 -2q13 5 30 5q34 0 58.5 -19t24.5 -54
q0 -25 -12 -42.5t-31 -28.5t-42.5 -16t-45.5 -5t-43.5 5t-40.5 16l18 34q17 -7 31 -11t34 -4q19 0 37.5 9.5t18.5 36.5q0 20 -14 29.5t-32 9.5q-11 0 -22 -2.5t-19 -5.5l-17 19l58 79q-69 10 -124.5 39.5t-94.5 76t-60 108t-21 135.5q0 81 27.5 147t77 113t117 72.5
t147.5 25.5q41 0 80 -6.5t77 -23.5z" />
    <glyph glyph-name="Egrave" unicode="&#xc8;" 
d="M94 698h391v-88h-291v-204h265v-88h-265v-230h291v-88h-391v698zM344 749h-67l-131 144h109z" />
    <glyph glyph-name="Eacute" unicode="&#xc9;" 
d="M94 698h391v-88h-291v-204h265v-88h-265v-230h291v-88h-391v698zM301 893h109l-131 -144h-67z" />
    <glyph glyph-name="Ecircumflex" unicode="&#xca;" 
d="M94 698h391v-88h-291v-204h265v-88h-265v-230h291v-88h-391v698zM232 893h91l100 -144h-80l-66 98l-65 -98h-79z" />
    <glyph glyph-name="Edieresis" unicode="&#xcb;" 
d="M94 698h391v-88h-291v-204h265v-88h-265v-230h291v-88h-391v698zM313 856h94v-100h-94v100zM149 856h94v-100h-94v100z" />
    <glyph glyph-name="Igrave" unicode="&#xcc;" horiz-adv-x="278" 
d="M89 698h100v-698h-100v698zM205 749h-67l-131 144h109z" />
    <glyph glyph-name="Iacute" unicode="&#xcd;" horiz-adv-x="278" 
d="M89 698h100v-698h-100v698zM162 893h109l-131 -144h-67z" />
    <glyph glyph-name="Icircumflex" unicode="&#xce;" horiz-adv-x="278" 
d="M89 698h100v-698h-100v698zM93 893h91l100 -144h-80l-66 98l-65 -98h-79z" />
    <glyph glyph-name="Idieresis" unicode="&#xcf;" horiz-adv-x="278" 
d="M89 698h100v-698h-100v698zM174 856h94v-100h-94v100zM10 856h94v-100h-94v100z" />
    <glyph glyph-name="Eth" unicode="&#xd0;" horiz-adv-x="722" 
d="M83 342h-68v64h68v292h206q78 0 145.5 -23.5t118 -67.5t79.5 -107.5t29 -144.5q0 -88 -26 -154.5t-74 -111t-117 -67t-155 -22.5h-206v342zM183 406h183v-64h-183v-254h105q129 0 198 64t69 199q0 56 -18.5 103.5t-52.5 82t-81 54t-105 19.5h-115v-204z" />
    <glyph glyph-name="Ntilde" unicode="&#xd1;" horiz-adv-x="722" 
d="M88 698h136l308 -562h2v562h100v-698h-128l-316 574h-2v-574h-100v698zM191 754q2 16 7.5 35.5t16 36.5t27.5 28.5t43 11.5q19 0 40 -7.5t41 -16t38.5 -15.5t34.5 -7q23 -2 33.5 13.5t12.5 32.5h46q-2 -16 -7.5 -35.5t-16 -36.5t-28 -28.5t-42.5 -11.5q-20 0 -40.5 7.5
t-40.5 16t-38.5 15.5t-34.5 7q-23 2 -33.5 -13.5t-12.5 -32.5h-46z" />
    <glyph glyph-name="Ograve" unicode="&#xd2;" horiz-adv-x="778" 
d="M53 349q0 78 22.5 144t66 114t105.5 75.5t142 27.5q79 0 141.5 -27.5t106 -75.5t66 -114t22.5 -144q0 -80 -22.5 -146t-65.5 -114t-105.5 -74.5t-142.5 -26.5t-142.5 26.5t-105.5 74.5t-65.5 114t-22.5 146zM159 349q0 -52 13.5 -101t41.5 -87.5t71.5 -61.5t103.5 -23
t103.5 23t71.5 61.5t41.5 87.5t13.5 101q0 53 -14.5 102.5t-43 87.5t-71.5 60.5t-101 22.5t-101 -22.5t-71.5 -60.5t-43 -87.5t-14.5 -102.5zM455 749h-67l-131 144h109z" />
    <glyph glyph-name="Oacute" unicode="&#xd3;" horiz-adv-x="778" 
d="M53 349q0 78 22.5 144t66 114t105.5 75.5t142 27.5q79 0 141.5 -27.5t106 -75.5t66 -114t22.5 -144q0 -80 -22.5 -146t-65.5 -114t-105.5 -74.5t-142.5 -26.5t-142.5 26.5t-105.5 74.5t-65.5 114t-22.5 146zM159 349q0 -52 13.5 -101t41.5 -87.5t71.5 -61.5t103.5 -23
t103.5 23t71.5 61.5t41.5 87.5t13.5 101q0 53 -14.5 102.5t-43 87.5t-71.5 60.5t-101 22.5t-101 -22.5t-71.5 -60.5t-43 -87.5t-14.5 -102.5zM412 893h109l-131 -144h-67z" />
    <glyph glyph-name="Ocircumflex" unicode="&#xd4;" horiz-adv-x="778" 
d="M53 349q0 78 22.5 144t66 114t105.5 75.5t142 27.5q79 0 141.5 -27.5t106 -75.5t66 -114t22.5 -144q0 -80 -22.5 -146t-65.5 -114t-105.5 -74.5t-142.5 -26.5t-142.5 26.5t-105.5 74.5t-65.5 114t-22.5 146zM159 349q0 -52 13.5 -101t41.5 -87.5t71.5 -61.5t103.5 -23
t103.5 23t71.5 61.5t41.5 87.5t13.5 101q0 53 -14.5 102.5t-43 87.5t-71.5 60.5t-101 22.5t-101 -22.5t-71.5 -60.5t-43 -87.5t-14.5 -102.5zM343 893h91l100 -144h-80l-66 98l-65 -98h-79z" />
    <glyph glyph-name="Otilde" unicode="&#xd5;" horiz-adv-x="778" 
d="M53 349q0 78 22.5 144t66 114t105.5 75.5t142 27.5q79 0 141.5 -27.5t106 -75.5t66 -114t22.5 -144q0 -80 -22.5 -146t-65.5 -114t-105.5 -74.5t-142.5 -26.5t-142.5 26.5t-105.5 74.5t-65.5 114t-22.5 146zM159 349q0 -52 13.5 -101t41.5 -87.5t71.5 -61.5t103.5 -23
t103.5 23t71.5 61.5t41.5 87.5t13.5 101q0 53 -14.5 102.5t-43 87.5t-71.5 60.5t-101 22.5t-101 -22.5t-71.5 -60.5t-43 -87.5t-14.5 -102.5zM219 754q2 16 7.5 35.5t16 36.5t27.5 28.5t43 11.5q19 0 40 -7.5t41 -16t38.5 -15.5t34.5 -7q23 -2 33.5 13.5t12.5 32.5h46
q-2 -16 -7.5 -35.5t-16 -36.5t-28 -28.5t-42.5 -11.5q-20 0 -40.5 7.5t-40.5 16t-38.5 15.5t-34.5 7q-23 2 -33.5 -13.5t-12.5 -32.5h-46z" />
    <glyph glyph-name="Odieresis" unicode="&#xd6;" horiz-adv-x="778" 
d="M53 349q0 78 22.5 144t66 114t105.5 75.5t142 27.5q79 0 141.5 -27.5t106 -75.5t66 -114t22.5 -144q0 -80 -22.5 -146t-65.5 -114t-105.5 -74.5t-142.5 -26.5t-142.5 26.5t-105.5 74.5t-65.5 114t-22.5 146zM159 349q0 -52 13.5 -101t41.5 -87.5t71.5 -61.5t103.5 -23
t103.5 23t71.5 61.5t41.5 87.5t13.5 101q0 53 -14.5 102.5t-43 87.5t-71.5 60.5t-101 22.5t-101 -22.5t-71.5 -60.5t-43 -87.5t-14.5 -102.5zM424 856h94v-100h-94v100zM260 856h94v-100h-94v100z" />
    <glyph glyph-name="multiply" unicode="&#xd7;" horiz-adv-x="600" 
d="M68 423l62 62l170 -171l170 171l62 -62l-171 -170l171 -170l-62 -62l-170 171l-170 -171l-62 62l170 170z" />
    <glyph glyph-name="Oslash" unicode="&#xd8;" horiz-adv-x="778" 
d="M246 126q26 -23 62 -36.5t81 -13.5q60 0 103.5 23t71.5 61.5t41.5 87.5t13.5 101q0 53 -14 101.5t-42 86.5zM151 79q-48 48 -73 116.5t-25 153.5q0 78 22.5 144t66 114t105.5 75.5t142 27.5q60 0 110.5 -16.5t91.5 -45.5l53 69l36 -28l-54 -71q49 -50 74 -118.5
t25 -150.5q0 -80 -22.5 -146t-65.5 -114t-105.5 -74.5t-142.5 -26.5q-121 0 -203 61l-54 -70l-38 26zM532 572q-27 23 -62.5 37t-80.5 13q-58 0 -101 -22.5t-71.5 -60.5t-43 -87.5t-14.5 -102.5q0 -52 13 -101.5t42 -87.5z" />
    <glyph glyph-name="Ugrave" unicode="&#xd9;" horiz-adv-x="722" 
d="M632 289q0 -148 -70.5 -224.5t-200.5 -76.5t-200.5 76.5t-70.5 224.5v409h100v-396q0 -50 8.5 -91.5t28.5 -71.5t53 -46.5t81 -16.5t81 16.5t53 46.5t28.5 71.5t8.5 91.5v396h100v-409zM427 749h-67l-131 144h109z" />
    <glyph glyph-name="Uacute" unicode="&#xda;" horiz-adv-x="722" 
d="M632 289q0 -148 -70.5 -224.5t-200.5 -76.5t-200.5 76.5t-70.5 224.5v409h100v-396q0 -50 8.5 -91.5t28.5 -71.5t53 -46.5t81 -16.5t81 16.5t53 46.5t28.5 71.5t8.5 91.5v396h100v-409zM384 893h109l-131 -144h-67z" />
    <glyph glyph-name="Ucircumflex" unicode="&#xdb;" horiz-adv-x="722" 
d="M632 289q0 -148 -70.5 -224.5t-200.5 -76.5t-200.5 76.5t-70.5 224.5v409h100v-396q0 -50 8.5 -91.5t28.5 -71.5t53 -46.5t81 -16.5t81 16.5t53 46.5t28.5 71.5t8.5 91.5v396h100v-409zM315 893h91l100 -144h-80l-66 98l-65 -98h-79z" />
    <glyph glyph-name="Udieresis" unicode="&#xdc;" horiz-adv-x="722" 
d="M632 289q0 -148 -70.5 -224.5t-200.5 -76.5t-200.5 76.5t-70.5 224.5v409h100v-396q0 -50 8.5 -91.5t28.5 -71.5t53 -46.5t81 -16.5t81 16.5t53 46.5t28.5 71.5t8.5 91.5v396h100v-409zM396 856h94v-100h-94v100zM232 856h94v-100h-94v100z" />
    <glyph glyph-name="Yacute" unicode="&#xdd;" horiz-adv-x="667" 
d="M284 292l-273 406h117l208 -313l203 313h117l-272 -406v-292h-100v292zM357 893h109l-131 -144h-67z" />
    <glyph glyph-name="Thorn" unicode="&#xde;" 
d="M183 265h99q23 0 48 6.5t45.5 20.5t33.5 37.5t13 58.5q0 33 -15.5 56t-38.5 37t-50 20.5t-50 6.5h-85v-243zM83 698h100v-102h83q54 0 101.5 -10.5t83 -34.5t56.5 -64t21 -100q0 -58 -21 -98t-55.5 -65t-79 -36t-91.5 -11h-98v-177h-100v698z" />
    <glyph glyph-name="germandbls" unicode="&#xdf;" horiz-adv-x="611" 
d="M80 0v474q0 68 13 121.5t42 90.5t75.5 56.5t114.5 19.5q36 0 72 -12t65.5 -36.5t47.5 -61.5t18 -86q0 -127 -117 -163v-2q36 -4 63.5 -21t46.5 -42.5t29 -56.5t10 -64q0 -46 -14.5 -86.5t-43 -71t-69.5 -48t-94 -17.5q-25 0 -48 3t-49 11v79q39 -17 79 -17q28 0 53.5 9.5
t44.5 27.5t30 44.5t11 61.5q0 43 -14 71t-39 44.5t-59.5 22.5t-75.5 6v76q35 0 64 6t49.5 21t31.5 40t11 63q0 24 -7.5 46t-21.5 39.5t-35 27.5t-48 10q-42 0 -69.5 -18t-43.5 -46.5t-22.5 -63.5t-6.5 -69v-489h-94z" />
    <glyph glyph-name="agrave" unicode="&#xe0;" 
d="M383 243q-15 0 -30 1t-30 1q-19 0 -49 -2.5t-58.5 -12.5t-49 -29.5t-20.5 -53.5q0 -20 9 -35.5t22.5 -26t30.5 -16t33 -5.5q70 0 106 38.5t36 95.5v45zM104 474q35 21 77 34.5t91 13.5q110 0 157.5 -53t47.5 -158v-211q0 -44 1 -66.5t3 -33.5h-88v66h-2q-8 -12 -22 -25.5
t-33.5 -25t-45 -19.5t-57.5 -8q-41 0 -75.5 9t-59.5 28.5t-38.5 49.5t-13.5 72q0 48 23.5 80t58.5 51.5t77 28t78 8.5h50t50 -2q0 66 -27.5 99.5t-98.5 33.5q-40 0 -79.5 -14t-68.5 -38zM344 581h-67l-131 144h109z" />
    <glyph glyph-name="aacute" unicode="&#xe1;" 
d="M383 243q-15 0 -30 1t-30 1q-19 0 -49 -2.5t-58.5 -12.5t-49 -29.5t-20.5 -53.5q0 -20 9 -35.5t22.5 -26t30.5 -16t33 -5.5q70 0 106 38.5t36 95.5v45zM104 474q35 21 77 34.5t91 13.5q110 0 157.5 -53t47.5 -158v-211q0 -44 1 -66.5t3 -33.5h-88v66h-2q-8 -12 -22 -25.5
t-33.5 -25t-45 -19.5t-57.5 -8q-41 0 -75.5 9t-59.5 28.5t-38.5 49.5t-13.5 72q0 48 23.5 80t58.5 51.5t77 28t78 8.5h50t50 -2q0 66 -27.5 99.5t-98.5 33.5q-40 0 -79.5 -14t-68.5 -38zM301 725h109l-131 -144h-67z" />
    <glyph glyph-name="acircumflex" unicode="&#xe2;" 
d="M383 243q-15 0 -30 1t-30 1q-19 0 -49 -2.5t-58.5 -12.5t-49 -29.5t-20.5 -53.5q0 -20 9 -35.5t22.5 -26t30.5 -16t33 -5.5q70 0 106 38.5t36 95.5v45zM104 474q35 21 77 34.5t91 13.5q110 0 157.5 -53t47.5 -158v-211q0 -44 1 -66.5t3 -33.5h-88v66h-2q-8 -12 -22 -25.5
t-33.5 -25t-45 -19.5t-57.5 -8q-41 0 -75.5 9t-59.5 28.5t-38.5 49.5t-13.5 72q0 48 23.5 80t58.5 51.5t77 28t78 8.5h50t50 -2q0 66 -27.5 99.5t-98.5 33.5q-40 0 -79.5 -14t-68.5 -38zM232 725h91l100 -144h-80l-66 98l-65 -98h-79z" />
    <glyph glyph-name="atilde" unicode="&#xe3;" 
d="M383 243q-15 0 -30 1t-30 1q-19 0 -49 -2.5t-58.5 -12.5t-49 -29.5t-20.5 -53.5q0 -20 9 -35.5t22.5 -26t30.5 -16t33 -5.5q70 0 106 38.5t36 95.5v45zM104 474q35 21 77 34.5t91 13.5q110 0 157.5 -53t47.5 -158v-211q0 -44 1 -66.5t3 -33.5h-88v66h-2q-8 -12 -22 -25.5
t-33.5 -25t-45 -19.5t-57.5 -8q-41 0 -75.5 9t-59.5 28.5t-38.5 49.5t-13.5 72q0 48 23.5 80t58.5 51.5t77 28t78 8.5h50t50 -2q0 66 -27.5 99.5t-98.5 33.5q-40 0 -79.5 -14t-68.5 -38zM108 586q2 16 7.5 35.5t16 36.5t27.5 28.5t43 11.5q19 0 40 -7.5t41 -16t38.5 -15.5
t34.5 -7q23 -2 33.5 13.5t12.5 32.5h46q-2 -16 -7.5 -35.5t-16 -36.5t-28 -28.5t-42.5 -11.5q-20 0 -40.5 7.5t-40.5 16t-38.5 15.5t-34.5 7q-23 2 -33.5 -13.5t-12.5 -32.5h-46z" />
    <glyph glyph-name="adieresis" unicode="&#xe4;" 
d="M383 243q-15 0 -30 1t-30 1q-19 0 -49 -2.5t-58.5 -12.5t-49 -29.5t-20.5 -53.5q0 -20 9 -35.5t22.5 -26t30.5 -16t33 -5.5q70 0 106 38.5t36 95.5v45zM104 474q35 21 77 34.5t91 13.5q110 0 157.5 -53t47.5 -158v-211q0 -44 1 -66.5t3 -33.5h-88v66h-2q-8 -12 -22 -25.5
t-33.5 -25t-45 -19.5t-57.5 -8q-41 0 -75.5 9t-59.5 28.5t-38.5 49.5t-13.5 72q0 48 23.5 80t58.5 51.5t77 28t78 8.5h50t50 -2q0 66 -27.5 99.5t-98.5 33.5q-40 0 -79.5 -14t-68.5 -38zM313 688h94v-100h-94v100zM149 688h94v-100h-94v100z" />
    <glyph glyph-name="aring" unicode="&#xe5;" 
d="M383 243q-15 0 -30 1t-30 1q-19 0 -49 -2.5t-58.5 -12.5t-49 -29.5t-20.5 -53.5q0 -20 9 -35.5t22.5 -26t30.5 -16t33 -5.5q70 0 106 38.5t36 95.5v45zM104 474q35 21 77 34.5t91 13.5q110 0 157.5 -53t47.5 -158v-211q0 -44 1 -66.5t3 -33.5h-88v66h-2q-8 -12 -22 -25.5
t-33.5 -25t-45 -19.5t-57.5 -8q-41 0 -75.5 9t-59.5 28.5t-38.5 49.5t-13.5 72q0 48 23.5 80t58.5 51.5t77 28t78 8.5h50t50 -2q0 66 -27.5 99.5t-98.5 33.5q-40 0 -79.5 -14t-68.5 -38zM278 727q-25 0 -43.5 -18.5t-18.5 -43.5t18.5 -43.5t43.5 -18.5q24 0 43 19t19 43
q0 25 -18.5 43.5t-43.5 18.5zM278 767q21 0 39.5 -8t32.5 -22t22 -32.5t8 -39.5t-8 -39.5t-22 -32.5t-32.5 -22t-39.5 -8t-39.5 8t-32.5 22t-22 32.5t-8 39.5t8 39.5t22 32.5t32.5 22t39.5 8z" />
    <glyph glyph-name="ae" unicode="&#xe6;" horiz-adv-x="889" 
d="M748 304q0 25 -8.5 50.5t-25 45.5t-39.5 33t-52 13q-31 0 -56 -11t-43 -30.5t-27.5 -45t-9.5 -55.5h261zM141 148q0 -21 8.5 -37t22.5 -26.5t32 -15.5t37 -5q34 0 62 14.5t48 39t31 56.5t11 68q-11 0 -33.5 1.5t-56.5 1.5q-20 0 -47.5 -3t-53 -13t-43.5 -29.5t-18 -51.5z
M102 473q33 21 76 35t93 14q25 0 51 -5t49.5 -15.5t43 -27.5t32.5 -41q27 48 75 68.5t102 20.5q65 0 108 -24t69 -64t36.5 -92t10.5 -108h-361q0 -35 12.5 -66t34.5 -54t53 -36.5t67 -13.5q38 0 76 15.5t65 37.5v-95q-33 -15 -70.5 -24.5t-75.5 -9.5q-33 0 -66.5 6
t-63.5 19.5t-54 36.5t-36 57h-2q-8 -30 -27 -52.5t-44.5 -37.5t-56 -22t-61.5 -7q-36 0 -71 11t-63 31.5t-45.5 51t-17.5 69.5q0 53 26 85t64 49.5t80.5 23.5t75.5 6q41 0 66.5 -3t39.5 -2q0 37 -11.5 63t-31 42t-45.5 23.5t-56 7.5q-37 0 -75 -15.5t-67 -36.5z" />
    <glyph glyph-name="ccedilla" unicode="&#xe7;" horiz-adv-x="444" 
d="M404 424q-27 11 -53 16.5t-49 5.5q-39 0 -69.5 -16t-51.5 -43t-32 -61.5t-11 -70.5q0 -34 9.5 -68t30 -61.5t53 -44.5t77.5 -17q24 0 51.5 7.5t49.5 21.5l7 -84q-29 -14 -60.5 -17.5t-57.5 -3.5h-4l-37 -48l2 -2q13 5 30 5q34 0 58.5 -19t24.5 -54q0 -25 -12 -42.5
t-31 -28.5t-42.5 -16t-45.5 -5t-43.5 5t-40.5 16l18 34q17 -7 31 -11t34 -4q19 0 37.5 9.5t18.5 36.5q0 20 -14 29.5t-32 9.5q-11 0 -22 -2.5t-19 -5.5l-17 19l59 79q-48 8 -87.5 31.5t-67 58.5t-43 79t-15.5 93q0 58 18.5 107t53 84.5t82 55.5t106.5 20q29 0 61.5 -6
t52.5 -14z" />
    <glyph glyph-name="egrave" unicode="&#xe8;" 
d="M410 304q0 29 -8.5 55t-24.5 45.5t-40 30.5t-54 11q-35 0 -59.5 -13t-41 -33.5t-25 -45.5t-11.5 -50h264zM471 21q-14 -5 -29 -10.5t-33.5 -10.5t-43 -8.5t-55.5 -3.5q-68 0 -117.5 20t-82 56t-48.5 87t-16 113q0 57 17 104t48.5 81.5t75.5 53.5t98 19q64 0 107 -22
t69 -60.5t37.5 -91.5t11.5 -114h-364q0 -38 13.5 -69t37 -53.5t54 -35t63.5 -12.5q23 0 47.5 5.5t46 13t38 16.5t25.5 16v-94zM344 581h-67l-131 144h109z" />
    <glyph glyph-name="eacute" unicode="&#xe9;" 
d="M410 304q0 29 -8.5 55t-24.5 45.5t-40 30.5t-54 11q-35 0 -59.5 -13t-41 -33.5t-25 -45.5t-11.5 -50h264zM471 21q-14 -5 -29 -10.5t-33.5 -10.5t-43 -8.5t-55.5 -3.5q-68 0 -117.5 20t-82 56t-48.5 87t-16 113q0 57 17 104t48.5 81.5t75.5 53.5t98 19q64 0 107 -22
t69 -60.5t37.5 -91.5t11.5 -114h-364q0 -38 13.5 -69t37 -53.5t54 -35t63.5 -12.5q23 0 47.5 5.5t46 13t38 16.5t25.5 16v-94zM301 725h109l-131 -144h-67z" />
    <glyph glyph-name="ecircumflex" unicode="&#xea;" 
d="M410 304q0 29 -8.5 55t-24.5 45.5t-40 30.5t-54 11q-35 0 -59.5 -13t-41 -33.5t-25 -45.5t-11.5 -50h264zM471 21q-14 -5 -29 -10.5t-33.5 -10.5t-43 -8.5t-55.5 -3.5q-68 0 -117.5 20t-82 56t-48.5 87t-16 113q0 57 17 104t48.5 81.5t75.5 53.5t98 19q64 0 107 -22
t69 -60.5t37.5 -91.5t11.5 -114h-364q0 -38 13.5 -69t37 -53.5t54 -35t63.5 -12.5q23 0 47.5 5.5t46 13t38 16.5t25.5 16v-94zM232 725h91l100 -144h-80l-66 98l-65 -98h-79z" />
    <glyph glyph-name="edieresis" unicode="&#xeb;" 
d="M410 304q0 29 -8.5 55t-24.5 45.5t-40 30.5t-54 11q-35 0 -59.5 -13t-41 -33.5t-25 -45.5t-11.5 -50h264zM471 21q-14 -5 -29 -10.5t-33.5 -10.5t-43 -8.5t-55.5 -3.5q-68 0 -117.5 20t-82 56t-48.5 87t-16 113q0 57 17 104t48.5 81.5t75.5 53.5t98 19q64 0 107 -22
t69 -60.5t37.5 -91.5t11.5 -114h-364q0 -38 13.5 -69t37 -53.5t54 -35t63.5 -12.5q23 0 47.5 5.5t46 13t38 16.5t25.5 16v-94zM313 688h94v-100h-94v100zM149 688h94v-100h-94v100z" />
    <glyph glyph-name="igrave" unicode="&#xec;" horiz-adv-x="278" 
d="M92 510h94v-510h-94v510zM205 581h-67l-131 144h109z" />
    <glyph glyph-name="iacute" unicode="&#xed;" horiz-adv-x="278" 
d="M92 510h94v-510h-94v510zM162 725h109l-131 -144h-67z" />
    <glyph glyph-name="icircumflex" unicode="&#xee;" horiz-adv-x="278" 
d="M92 510h94v-510h-94v510zM93 725h91l100 -144h-80l-66 98l-65 -98h-79z" />
    <glyph glyph-name="idieresis" unicode="&#xef;" horiz-adv-x="278" 
d="M92 510h94v-510h-94v510zM174 688h94v-100h-94v100zM10 688h94v-100h-94v100z" />
    <glyph glyph-name="eth" unicode="&#xf0;" horiz-adv-x="611" 
d="M218 651q-31 19 -63 33t-62 25l72 53q35 -13 70 -29.5t67 -36.5l122 66l46 -53l-104 -56q42 -32 78 -73t63 -91.5t42.5 -109t15.5 -124.5q0 -55 -19 -103.5t-53 -85t-82 -57.5t-105 -21q-58 0 -105.5 21t-82 57.5t-53.5 85t-19 103.5q0 58 18.5 107t53 84.5t82 55.5
t106.5 20q26 0 47.5 -6.5t36.5 -15.5h2q-47 63 -109 108l-129 -69l-46 53zM146 255q0 -34 9.5 -68t29 -61.5t49.5 -44.5t72 -17q41 0 71 17t49.5 44.5t29 61.5t9.5 68q0 36 -11 70.5t-31 61.5t-50 43t-67 16q-38 0 -67.5 -16t-50 -43t-31.5 -61.5t-11 -70.5z" />
    <glyph glyph-name="ntilde" unicode="&#xf1;" horiz-adv-x="611" 
d="M80 510h91v-81h2q21 44 67 68.5t100 24.5q99 0 145 -58t46 -161v-303h-94v264q0 90 -23 134t-85 48q-40 0 -69.5 -15.5t-48.5 -43t-28 -66.5t-9 -85v-236h-94v510zM136 586q2 16 7.5 35.5t16 36.5t27.5 28.5t43 11.5q19 0 40 -7.5t41 -16t38.5 -15.5t34.5 -7
q23 -2 33.5 13.5t12.5 32.5h46q-2 -16 -7.5 -35.5t-16 -36.5t-28 -28.5t-42.5 -11.5q-20 0 -40.5 7.5t-40.5 16t-38.5 15.5t-34.5 7q-23 2 -33.5 -13.5t-12.5 -32.5h-46z" />
    <glyph glyph-name="ograve" unicode="&#xf2;" horiz-adv-x="611" 
d="M146 255q0 -34 9.5 -68t29 -61.5t49.5 -44.5t72 -17q41 0 71 17t49.5 44.5t29 61.5t9.5 68q0 36 -11 70.5t-31 61.5t-50 43t-67 16q-38 0 -67.5 -16t-50 -43t-31.5 -61.5t-11 -70.5zM46 255q0 58 18.5 107t53 84.5t82 55.5t106.5 20q58 0 106 -20t82 -55.5t52.5 -84.5
t18.5 -107q0 -55 -19 -103.5t-53 -85t-82 -57.5t-105 -21q-58 0 -105.5 21t-82 57.5t-53.5 85t-19 103.5zM372 581h-67l-131 144h109z" />
    <glyph glyph-name="oacute" unicode="&#xf3;" horiz-adv-x="611" 
d="M146 255q0 -34 9.5 -68t29 -61.5t49.5 -44.5t72 -17q41 0 71 17t49.5 44.5t29 61.5t9.5 68q0 36 -11 70.5t-31 61.5t-50 43t-67 16q-38 0 -67.5 -16t-50 -43t-31.5 -61.5t-11 -70.5zM46 255q0 58 18.5 107t53 84.5t82 55.5t106.5 20q58 0 106 -20t82 -55.5t52.5 -84.5
t18.5 -107q0 -55 -19 -103.5t-53 -85t-82 -57.5t-105 -21q-58 0 -105.5 21t-82 57.5t-53.5 85t-19 103.5zM329 725h109l-131 -144h-67z" />
    <glyph glyph-name="ocircumflex" unicode="&#xf4;" horiz-adv-x="611" 
d="M146 255q0 -34 9.5 -68t29 -61.5t49.5 -44.5t72 -17q41 0 71 17t49.5 44.5t29 61.5t9.5 68q0 36 -11 70.5t-31 61.5t-50 43t-67 16q-38 0 -67.5 -16t-50 -43t-31.5 -61.5t-11 -70.5zM46 255q0 58 18.5 107t53 84.5t82 55.5t106.5 20q58 0 106 -20t82 -55.5t52.5 -84.5
t18.5 -107q0 -55 -19 -103.5t-53 -85t-82 -57.5t-105 -21q-58 0 -105.5 21t-82 57.5t-53.5 85t-19 103.5zM260 725h91l100 -144h-80l-66 98l-65 -98h-79z" />
    <glyph glyph-name="otilde" unicode="&#xf5;" horiz-adv-x="611" 
d="M146 255q0 -34 9.5 -68t29 -61.5t49.5 -44.5t72 -17q41 0 71 17t49.5 44.5t29 61.5t9.5 68q0 36 -11 70.5t-31 61.5t-50 43t-67 16q-38 0 -67.5 -16t-50 -43t-31.5 -61.5t-11 -70.5zM46 255q0 58 18.5 107t53 84.5t82 55.5t106.5 20q58 0 106 -20t82 -55.5t52.5 -84.5
t18.5 -107q0 -55 -19 -103.5t-53 -85t-82 -57.5t-105 -21q-58 0 -105.5 21t-82 57.5t-53.5 85t-19 103.5zM136 586q2 16 7.5 35.5t16 36.5t27.5 28.5t43 11.5q19 0 40 -7.5t41 -16t38.5 -15.5t34.5 -7q23 -2 33.5 13.5t12.5 32.5h46q-2 -16 -7.5 -35.5t-16 -36.5t-28 -28.5
t-42.5 -11.5q-20 0 -40.5 7.5t-40.5 16t-38.5 15.5t-34.5 7q-23 2 -33.5 -13.5t-12.5 -32.5h-46z" />
    <glyph glyph-name="odieresis" unicode="&#xf6;" horiz-adv-x="611" 
d="M146 255q0 -34 9.5 -68t29 -61.5t49.5 -44.5t72 -17q41 0 71 17t49.5 44.5t29 61.5t9.5 68q0 36 -11 70.5t-31 61.5t-50 43t-67 16q-38 0 -67.5 -16t-50 -43t-31.5 -61.5t-11 -70.5zM46 255q0 58 18.5 107t53 84.5t82 55.5t106.5 20q58 0 106 -20t82 -55.5t52.5 -84.5
t18.5 -107q0 -55 -19 -103.5t-53 -85t-82 -57.5t-105 -21q-58 0 -105.5 21t-82 57.5t-53.5 85t-19 103.5zM341 688h94v-100h-94v100zM177 688h94v-100h-94v100z" />
    <glyph glyph-name="divide" unicode="&#xf7;" horiz-adv-x="600" 
d="M224 46q0 32 22.5 54t54.5 22q30 0 53 -22.5t23 -53.5q0 -14 -6 -28t-16.5 -25t-24 -17.5t-28.5 -6.5q-16 0 -30.5 6.5t-25 17t-16.5 24.5t-6 29zM224 460q0 32 22.5 54.5t54.5 22.5q15 0 28.5 -6.5t24 -17t17 -24.5t6.5 -29q0 -14 -6 -28t-16.5 -24.5t-24 -17
t-28.5 -6.5q-16 0 -30.5 6t-25 16.5t-16.5 24.5t-6 29zM47 297h506v-88h-506v88z" />
    <glyph glyph-name="oslash" unicode="&#xf8;" horiz-adv-x="611" 
d="M121 65q-36 37 -55.5 85.5t-19.5 104.5q0 58 18.5 107t53 84.5t82 55.5t106.5 20q90 0 153 -46l53 65l30 -25l-53 -65q37 -36 56.5 -86t19.5 -110q0 -55 -19 -103.5t-53 -85t-82 -57.5t-105 -21q-46 0 -85 13.5t-70 36.5l-57 -69l-30 25zM204 103q19 -18 44.5 -28.5
t57.5 -10.5q41 0 71 17t49.5 44.5t29 61.5t9.5 68q0 70 -36 123zM403 408q-19 18 -43 28t-54 10q-38 0 -67.5 -16t-50 -43t-31.5 -61.5t-11 -70.5q0 -31 8 -62.5t25 -57.5z" />
    <glyph glyph-name="ugrave" unicode="&#xf9;" horiz-adv-x="611" 
d="M531 0h-91v81h-2q-21 -44 -67 -68.5t-100 -24.5q-99 0 -145 58t-46 161v303h94v-264q0 -90 23 -134t85 -48q40 0 69.5 15.5t48.5 43t28 66t9 85.5v236h94v-510zM372 581h-67l-131 144h109z" />
    <glyph glyph-name="uacute" unicode="&#xfa;" horiz-adv-x="611" 
d="M531 0h-91v81h-2q-21 -44 -67 -68.5t-100 -24.5q-99 0 -145 58t-46 161v303h94v-264q0 -90 23 -134t85 -48q40 0 69.5 15.5t48.5 43t28 66t9 85.5v236h94v-510zM329 725h109l-131 -144h-67z" />
    <glyph glyph-name="ucircumflex" unicode="&#xfb;" horiz-adv-x="611" 
d="M531 0h-91v81h-2q-21 -44 -67 -68.5t-100 -24.5q-99 0 -145 58t-46 161v303h94v-264q0 -90 23 -134t85 -48q40 0 69.5 15.5t48.5 43t28 66t9 85.5v236h94v-510zM260 725h91l100 -144h-80l-66 98l-65 -98h-79z" />
    <glyph glyph-name="udieresis" unicode="&#xfc;" horiz-adv-x="611" 
d="M531 0h-91v81h-2q-21 -44 -67 -68.5t-100 -24.5q-99 0 -145 58t-46 161v303h94v-264q0 -90 23 -134t85 -48q40 0 69.5 15.5t48.5 43t28 66t9 85.5v236h94v-510zM341 688h94v-100h-94v100zM177 688h94v-100h-94v100z" />
    <glyph glyph-name="yacute" unicode="&#xfd;" horiz-adv-x="500" 
d="M42 -138q9 -3 20.5 -5.5t23.5 -2.5q31 0 52.5 18.5t35 41t19 42.5t5.5 24q0 8 -6.5 24.5t-11.5 29.5l-173 476h103l137 -422h2l140 422h95l-188 -521q-13 -37 -28 -74.5t-36.5 -68t-53.5 -49.5t-78 -19q-23 0 -37 2.5t-27 4.5zM273 725h109l-131 -144h-67z" />
    <glyph glyph-name="thorn" unicode="&#xfe;" horiz-adv-x="611" 
d="M465 257q1 34 -6.5 68t-24.5 61t-44 43.5t-65 16.5t-66.5 -16.5t-47.5 -43.5t-28 -61.5t-9 -70.5q0 -32 8.5 -65.5t26.5 -61.5t46.5 -45.5t68.5 -17.5q38 0 65 19t44 47.5t25 62.5t7 64zM80 750h94v-310h2q22 35 62 58.5t107 23.5q55 0 96.5 -21t69 -56.5t41 -82.5
t13.5 -98q0 -53 -12.5 -102.5t-39 -88t-68 -62t-99.5 -23.5q-68 0 -108 23.5t-62 58.5h-2v-280h-94v960z" />
    <glyph glyph-name="ydieresis" unicode="&#xff;" horiz-adv-x="500" 
d="M42 -138q9 -3 20.5 -5.5t23.5 -2.5q31 0 52.5 18.5t35 41t19 42.5t5.5 24q0 8 -6.5 24.5t-11.5 29.5l-173 476h103l137 -422h2l140 422h95l-188 -521q-13 -37 -28 -74.5t-36.5 -68t-53.5 -49.5t-78 -19q-23 0 -37 2.5t-27 4.5zM285 688h94v-100h-94v100zM121 688h94v-100
h-94v100z" />
    <glyph glyph-name="OE" unicode="&#x152;" horiz-adv-x="944" 
d="M875 610h-282v-204h262v-88h-262v-230h289v-88h-290q-39 0 -78 -3t-78 -3q-83 0 -153.5 24.5t-121.5 71t-79.5 114.5t-28.5 154q0 79 28 143t79 109t121.5 69.5t156.5 24.5q37 0 73.5 -3t72.5 -3h291v-88zM493 610q-15 2 -30.5 4t-30.5 2q-63 0 -113.5 -17t-86 -49.5
t-54.5 -80.5t-19 -111q0 -66 20 -117.5t56.5 -86.5t87 -53.5t110.5 -18.5q15 0 30 1t30 5v522z" />
    <glyph glyph-name="oe" unicode="&#x153;" horiz-adv-x="944" 
d="M803 304q0 25 -8.5 50.5t-25 45.5t-39.5 33t-52 13q-31 0 -56 -11t-43 -30.5t-27.5 -45t-9.5 -55.5h261zM141 255q0 -37 8 -71.5t27 -61t48 -42.5t71 -16q37 0 65.5 17t48 44.5t29.5 61.5t10 68q0 31 -9 65t-28 62t-47.5 46t-68.5 18t-69.5 -18t-48 -46t-27.5 -62t-9 -65
zM850 22q-33 -15 -70.5 -24.5t-75.5 -9.5q-73 0 -128.5 26.5t-81.5 83.5q-14 -30 -36.5 -51t-49.5 -34t-56.5 -19t-57.5 -6q-59 0 -106 20t-79.5 56t-50 85t-17.5 106q0 51 17.5 99.5t50 85.5t79.5 59.5t106 22.5q70 0 123 -25t80 -75q24 51 72 75.5t110 24.5q65 0 108 -24
t69 -64t36.5 -92t10.5 -108h-361q0 -35 12.5 -66t34.5 -54t53 -36.5t67 -13.5q38 0 76 15.5t65 37.5v-95z" />
    <glyph glyph-name="Scaron" unicode="&#x160;" horiz-adv-x="500" 
d="M406 593q-19 7 -34.5 12.5t-30.5 9.5t-31 5.5t-35 1.5q-21 0 -42.5 -4.5t-39.5 -15t-29 -28.5t-11 -45q0 -34 22 -55.5t55.5 -39.5t72.5 -35.5t72.5 -43.5t55.5 -64t22 -95q0 -56 -20 -95.5t-55 -64.5t-81.5 -36.5t-98.5 -11.5q-37 0 -72.5 9t-70.5 20l10 93
q13 -5 30 -11t36 -11t39.5 -8.5t39.5 -3.5q21 0 45.5 6.5t44.5 20t33.5 35t13.5 52.5q0 39 -22 63.5t-55.5 43t-72.5 35.5t-72.5 40.5t-55.5 58.5t-22 89q0 46 17.5 81.5t47.5 59.5t71 36.5t88 12.5q35 0 74 -6t75 -19zM296 749h-91l-100 144h80l66 -98l65 98h79z" />
    <glyph glyph-name="scaron" unicode="&#x161;" horiz-adv-x="389" 
d="M42 100q14 -9 30 -16t32 -11.5t30.5 -6.5t24.5 -2q16 0 33 3.5t31 12t23 22.5t9 35q0 23 -16.5 39t-41 29.5t-53 26.5t-53 31t-41 42t-16.5 60q0 40 14 69.5t38 49t57 29t71 9.5q33 0 61 -6t56 -14l-8 -82q-8 5 -21.5 9.5t-28 8.5t-28 6t-21.5 2q-36 0 -63 -15t-27 -47
q0 -26 16.5 -42.5t41 -29t53 -25t53 -30t41 -43.5t16.5 -67t-15 -71t-40 -49.5t-57 -29t-66 -9.5q-36 0 -72 5.5t-68 22.5zM241 581h-91l-100 144h80l66 -98l65 98h79z" />
    <glyph glyph-name="Ydieresis" unicode="&#x178;" horiz-adv-x="667" 
d="M369 856h94v-100h-94v100zM205 856h94v-100h-94v100zM284 292l-273 406h117l208 -313l203 313h117l-272 -406v-292h-100v292z" />
    <glyph glyph-name="florin" unicode="&#x192;" 
d="M461 344h-126l-69 -368q-8 -43 -18 -79t-29.5 -62.5t-51.5 -41.5t-83 -15q-18 0 -29 1.5t-22 3.5l16 81q7 -2 13 -3t17 -1q24 0 39 9t24.5 24t14.5 34t9 39l71 378h-112l13 70h112l21 109q7 37 18 70.5t31 59.5t51 41.5t79 15.5q19 0 37 -3t36 -5l-14 -80q-11 2 -20.5 4
t-20.5 2q-28 0 -44.5 -8t-27 -23t-16 -35t-10.5 -44l-21 -104h126z" />
    <glyph glyph-name="circumflex" unicode="&#x2c6;" horiz-adv-x="278" 
d="M93 725h91l100 -144h-80l-66 98l-65 -98h-79z" />
    <glyph glyph-name="tilde" unicode="&#x2dc;" horiz-adv-x="278" 
d="M-31 586q2 16 7.5 35.5t16 36.5t27.5 28.5t43 11.5q19 0 40 -7.5t41 -16t38.5 -15.5t34.5 -7q23 -2 33.5 13.5t12.5 32.5h46q-2 -16 -7.5 -35.5t-16 -36.5t-28 -28.5t-42.5 -11.5q-20 0 -40.5 7.5t-40.5 16t-38.5 15.5t-34.5 7q-23 2 -33.5 -13.5t-12.5 -32.5h-46z" />
    <glyph glyph-name="endash" unicode="&#x2013;" horiz-adv-x="500" 
d="M0 304h500v-70h-500v70z" />
    <glyph glyph-name="emdash" unicode="&#x2014;" horiz-adv-x="1000" 
d="M0 304h1000v-70h-1000v70z" />
    <glyph glyph-name="quoteleft" unicode="&#x2018;" horiz-adv-x="278" 
d="M163 453h-111l85 245h89z" />
    <glyph glyph-name="quoteright" unicode="&#x2019;" horiz-adv-x="278" 
d="M114 698h112l-88 -245h-86z" />
    <glyph glyph-name="quotesinglbase" unicode="&#x201a;" horiz-adv-x="278" 
d="M115 112h111l-85 -245h-89z" />
    <glyph glyph-name="quotedblleft" unicode="&#x201c;" 
d="M396 453h-110l84 245h90zM208 453h-112l86 245h88z" />
    <glyph glyph-name="quotedblright" unicode="&#x201d;" 
d="M349 698h111l-85 -245h-89zM159 698h111l-85 -245h-89z" />
    <glyph glyph-name="quotedblbase" unicode="&#x201e;" 
d="M349 112h111l-85 -245h-89zM159 112h111l-85 -245h-89z" />
    <glyph glyph-name="dagger" unicode="&#x2020;" 
d="M234 453h-167v70h167v175h88v-175h167v-70h-167v-453h-88v453z" />
    <glyph glyph-name="daggerdbl" unicode="&#x2021;" 
d="M322 162v-162h-88v162h-167v70h167v234h-167v70h167v162h88v-162h167v-70h-167v-234h167v-70h-167z" />
    <glyph glyph-name="bullet" unicode="&#x2022;" horiz-adv-x="500" 
d="M76 349q0 36 13.5 68t37 55.5t55.5 37t68 13.5t68 -13.5t56 -37t37.5 -55.5t13.5 -68q0 -37 -13.5 -69t-37.5 -55.5t-56 -37t-68 -13.5t-68 13.5t-55.5 37t-37 55.5t-13.5 69z" />
    <glyph glyph-name="ellipsis" unicode="&#x2026;" horiz-adv-x="1000" 
d="M777 112h112v-112h-112v112zM444 112h112v-112h-112v112zM111 112h112v-112h-112v112z" />
    <glyph glyph-name="perthousand" unicode="&#x2030;" horiz-adv-x="1000" 
d="M153 380q22 0 34.5 14.5t18.5 35t7.5 43t1.5 37.5q0 17 -0.5 39.5t-6 42.5t-18 34t-37.5 14q-23 0 -35.5 -14.5t-18.5 -35t-7 -42.5t-1 -38q0 -15 1 -37.5t7 -43t18.5 -35t35.5 -14.5zM847 -12q-43 0 -72 17t-46 45t-24.5 64t-7.5 74q0 40 6.5 76.5t23 64t45.5 43.5
t75 16q45 0 74.5 -16.5t46 -44t23 -63.5t6.5 -76q0 -38 -7.5 -74t-24.5 -64t-46 -45t-72 -17zM847 58q22 0 34.5 14.5t18.5 35t7.5 43t1.5 37.5q0 17 -0.5 39.5t-6 42.5t-18 34t-37.5 14q-23 0 -35.5 -14.5t-18.5 -35t-7 -42.5t-1 -38q0 -15 1 -37.5t7 -43t18.5 -35
t35.5 -14.5zM509 -12q-43 0 -72 17t-46 45t-24.5 64t-7.5 74q0 40 6.5 76.5t23 64t45.5 43.5t75 16q45 0 74.5 -16.5t46 -44t23 -63.5t6.5 -76q0 -38 -7.5 -74t-24.5 -64t-46 -45t-72 -17zM509 58q22 0 34.5 14.5t18.5 35t7.5 43t1.5 37.5q0 17 -0.5 39.5t-6 42.5t-18 34
t-37.5 14q-23 0 -35.5 -14.5t-18.5 -35t-7 -42.5t-1 -38q0 -15 1 -37.5t7 -43t18.5 -35t35.5 -14.5zM511 720h72l-433 -742h-72zM153 310q-43 0 -72 17t-46 45t-24.5 64t-7.5 74q0 40 6.5 76.5t23 64t45.5 43.5t75 16q45 0 74.5 -16.5t46 -44t23 -63.5t6.5 -76
q0 -38 -7.5 -74t-24.5 -64t-46 -45t-72 -17z" />
    <glyph glyph-name="guilsinglleft" unicode="&#x2039;" horiz-adv-x="278" 
d="M20 269l143 202h88l-130 -202l130 -202h-88z" />
    <glyph glyph-name="guilsinglright" unicode="&#x203a;" horiz-adv-x="278" 
d="M258 269l-143 -202h-88l130 202l-130 202h88z" />
    <glyph glyph-name="trademark" unicode="&#x2122;" horiz-adv-x="990" 
d="M484 698h118l109 -281l107 281h118v-416h-76v318h-2l-117 -318h-62l-117 318h-2v-318h-76v416zM182 628h-128v70h332v-70h-128v-346h-76v346z" />
    <glyph glyph-name="glyph4" horiz-adv-x="500" 
 />
    <glyph glyph-name="fraction" horiz-adv-x="167" 
d="M264 720h72l-433 -742h-72z" />
    <glyph glyph-name="fi" horiz-adv-x="667" 
d="M141 434h-120v76h120v47q0 46 7 84t26 65t52.5 41.5t85.5 14.5q18 0 33.5 -2t29.5 -4l-4 -76q-8 3 -20.5 4.5t-24.5 1.5q-30 0 -48 -9t-27.5 -25.5t-12.5 -38.5t-3 -48v-55h135v-76h-135v-434h-94v434zM581 624h-106v106h106v-106zM481 510h94v-510h-94v510z" />
    <glyph glyph-name="fl" horiz-adv-x="667" 
d="M141 434h-120v76h120v47q0 46 7 84t26 65t52.5 41.5t85.5 14.5q18 0 33.5 -2t29.5 -4l-4 -76q-8 3 -20.5 4.5t-24.5 1.5q-30 0 -48 -9t-27.5 -25.5t-12.5 -38.5t-3 -48v-55h135v-76h-135v-434h-94v434zM481 750h94v-750h-94v750z" />
    <glyph glyph-name="breve" horiz-adv-x="278" 
d="M34 722q8 -42 36 -60t69 -18t69 18t36 60h49q-7 -65 -47.5 -100.5t-106.5 -35.5t-106.5 35.5t-47.5 100.5h49z" />
    <glyph glyph-name="dotaccent" horiz-adv-x="278" 
d="M92 688h94v-100h-94v100z" />
    <glyph glyph-name="ring" horiz-adv-x="278" 
d="M139 727q-25 0 -43.5 -18.5t-18.5 -43.5t18.5 -43.5t43.5 -18.5q24 0 43 19t19 43q0 25 -18.5 43.5t-43.5 18.5zM139 767q21 0 39.5 -8t32.5 -22t22 -32.5t8 -39.5t-8 -39.5t-22 -32.5t-32.5 -22t-39.5 -8t-39.5 8t-32.5 22t-22 32.5t-8 39.5t8 39.5t22 32.5t32.5 22
t39.5 8z" />
    <glyph glyph-name="hungarumlaut" horiz-adv-x="278" 
d="M253 725h109l-131 -144h-67zM72 725h109l-131 -144h-67z" />
    <glyph glyph-name="ogonek" horiz-adv-x="278" 
d="M230 0q-26 -21 -43 -38t-26.5 -32t-13 -28t-3.5 -26q0 -24 9.5 -35t23.5 -11q33 0 56 29l31 -8q-22 -32 -48 -46.5t-66 -14.5q-9 0 -23 1.5t-27 9t-22.5 24t-9.5 47.5q0 7 3.5 19.5t15.5 29.5t34.5 37t60.5 42h48z" />
    <glyph glyph-name="caron" horiz-adv-x="278" 
d="M185 581h-91l-100 144h80l66 -98l65 98h79z" />
    <glyph glyph-name="Lslash" horiz-adv-x="500" 
d="M88 236l-64 -38v72l64 38v390h100v-332l196 115v-72l-196 -115v-206h292v-88h-392v236z" />
    <glyph glyph-name="dotlessi" horiz-adv-x="278" 
d="M92 510h94v-510h-94v510z" />
    <glyph glyph-name="lslash" horiz-adv-x="278" 
d="M92 340l-64 -51v71l64 51v339h94v-265l64 51v-71l-64 -51v-414h-94v340z" />
    <glyph glyph-name="minus" horiz-adv-x="600" 
d="M47 297h506v-88h-506v88z" />
    </font>
</defs>
</svg>
