<?xml version="1.0" standalone="no"?>
<!DOCTYPE svg PUBLIC "-//W3C//DTD SVG 1.1//EN" "http://www.w3.org/Graphics/SVG/1.1/DTD/svg11.dtd" >
<svg xmlns="http://www.w3.org/2000/svg" xmlns:xlink="http://www.w3.org/1999/xlink" version="1.1">
<metadata>
Created by FontForge 20161003 at Wed Jun  6 17:04:24 2018
 By www-data
Converted by ALLTYPE
</metadata>
<defs>
<font id="GILLSANS" horiz-adv-x="278" >
  <font-face 
    font-family="GILLSANS"
    font-weight="5"
    font-stretch="normal"
    units-per-em="1000"
    panose-1="0 0 0 0 0 0 0 0 0 0"
    ascent="800"
    descent="-200"
    x-height="449"
    cap-height="682"
    bbox="-162 -230 1041 911"
    underline-thickness="50"
    underline-position="-155"
    unicode-range="U+0020-F002"
  />
<missing-glyph 
 />
    <glyph glyph-name=".notdef" 
 />
    <glyph glyph-name="glyph1" horiz-adv-x="0" 
 />
    <glyph glyph-name="glyph2" 
 />
    <glyph glyph-name="space" unicode=" " 
 />
    <glyph glyph-name="space" unicode="&#xa0;" 
 />
    <glyph glyph-name="exclam" unicode="!" horiz-adv-x="271" 
d="M136 111q25 -1 42.5 -18.5t17.5 -42.5t-17.5 -42t-42.5 -17t-42.5 17t-17.5 42t17.5 42.5t42.5 17.5v1zM79 543q0 73 14 110t42 37q29 0 42.5 -37t13.5 -111q0 -33 -1.5 -60t-4.5 -47l-25 -171q-4 -34 -9.5 -49t-15.5 -15t-15 15t-10 48l-25 173q-3 19 -4.5 46t-1.5 60v1
z" />
    <glyph glyph-name="quotedbl" unicode="&#x22;" horiz-adv-x="354" 
d="M71 462l-23 137v117h88v-117l-23 -137h-42v0zM241 462l-23 137v117h88v-117l-23 -137h-42v0z" />
    <glyph glyph-name="numbersign" unicode="#" horiz-adv-x="584" 
d="M196 617h72l-41 -195h194l41 195h72l-41 -195h91v-69h-105l-36 -170h141v-69h-155l-41 -195h-72l41 195h-194l-41 -195h-72l41 195h-90v69h104l36 170h-140v69h154l41 195v0zM213 353l-36 -170h194l36 170h-194v0z" />
    <glyph glyph-name="dollar" unicode="$" horiz-adv-x="542" 
d="M470 596v-108q-19 18 -47 35t-58 29q-11 5 -22 8.5t-22 5.5v-197q86 -24 133.5 -75t47.5 -119q0 -10 -1 -19.5t-4 -19.5q-12 -51 -55.5 -94t-120.5 -51v-109h-82v109q-37 2 -70.5 13t-67.5 28q-12 7 -24.5 14t-25.5 14v122q17 -16 32 -28t29 -22q27 -18 56 -30t71 -22
v217q-82 21 -127 60.5t-56 83.5q-2 7 -3 15t-1 15q0 73 50 121.5t137 61.5v37h82v-36q14 -2 31 -6t34 -10q23 -8 45.5 -19.5t38.5 -24.5v1zM321 262v-180q42 9 63.5 30t21.5 55q0 31 -19 53t-66 41v1zM239 396v171q-39 -6 -64 -29t-25 -54q0 -29 21.5 -51t67.5 -38v1z" />
    <glyph glyph-name="percent" unicode="%" horiz-adv-x="680" 
d="M602 691l-449 -701h-75l449 701h75v0zM502 296q62 -1 107.5 -46t45.5 -108t-45.5 -107.5t-107.5 -44.5q-63 0 -108 44t-45 108q0 63 45 108t108 45v1zM502 222q-32 -1 -55.5 -24.5t-23.5 -55.5q0 -33 23.5 -56t55.5 -23q33 0 56 23t23 56q0 32 -23 55.5t-56 23.5v1z
M178 690q62 -1 107.5 -46t45.5 -108t-45.5 -108t-107.5 -45q-63 0 -108 44.5t-45 108.5q0 63 45 108t108 45v1zM178 616q-32 -1 -55.5 -24.5t-23.5 -55.5q0 -33 23.5 -56t55.5 -23q33 0 56 23t23 56q0 32 -23 55.5t-56 23.5v1z" />
    <glyph glyph-name="ampersand" unicode="&#x26;" horiz-adv-x="625" 
d="M495 339h98q-8 -23 -20.5 -48t-28.5 -50q-13 -21 -29 -42t-33 -40l138 -159h-126l-78 93q-64 -59 -116.5 -80.5t-99.5 -21.5q-70 0 -121 46.5t-51 114.5q0 62 45 111t116 90q-30 32 -53.5 73.5t-23.5 84.5q0 71 48 114t127 43q72 0 118 -43t46 -105q0 -30 -10.5 -57
t-32.5 -53q-15 -18 -35.5 -35.5t-46.5 -36.5l96 -109q2 1 4.5 4t5.5 6q10 11 19.5 24.5t18.5 27.5q8 13 14 25l11 22v1zM356 161l-111 128q-24 -16 -43.5 -29.5t-33.5 -27.5q-21 -18 -31.5 -37.5t-10.5 -42.5q2 -29 26.5 -50.5t57.5 -21.5q38 0 74.5 22.5t71.5 57.5v1z
M208 521q0 -7 1 -12.5t2 -11.5q6 -22 19.5 -43.5t29.5 -37.5q3 -3 5.5 -6t5.5 -6q42 26 61 46.5t25 40.5q2 6 2.5 12t0.5 12q0 30 -22 50t-56 20q-31 0 -52.5 -18.5t-21.5 -46.5v1z" />
    <glyph glyph-name="quotesingle" unicode="'" horiz-adv-x="188" 
d="M73 462l-23 137v117h88v-117l-23 -137h-42v0z" />
    <glyph glyph-name="parenleft" unicode="(" horiz-adv-x="323" 
d="M167 232q0 -137 35.5 -251t108.5 -211h-53q-78 78 -128.5 183t-62.5 217q-1 15 -2 30.5t-1 30.5t1 30.5t2 30.5q12 112 62.5 217.5t128.5 183.5l53 1q-73 -98 -108.5 -212.5t-35.5 -250.5v1z" />
    <glyph glyph-name="parenright" unicode=")" horiz-adv-x="323" 
d="M156 232q0 135 -35.5 249.5t-108.5 211.5l53 1q78 -79 128.5 -184.5t62.5 -217.5q1 -15 2 -30.5t1 -30.5t-1 -30.5t-2 -30.5q-12 -112 -62.5 -217t-128.5 -183h-53q73 97 108.5 211t35.5 250v1z" />
    <glyph glyph-name="asterisk" unicode="*" horiz-adv-x="417" 
d="M177 513l-128 44q-1 -1 -2.5 -0.5t-2.5 1.5q-12 5 -22.5 15t-10.5 24q0 4 1.5 8.5t3.5 8.5q5 9 12.5 13t15.5 4q2 0 4.5 -0.5t5.5 -0.5q7 -2 14.5 -6.5t13.5 -10.5l100 -86q2 1 4 2.5t5 2.5q3 2 6 3.5t5 1.5l-25 131q-1 3 -1.5 6.5t-0.5 7.5v1.5v1.5q1 15 9 27.5t26 12.5
q19 0 26.5 -12.5t7.5 -28.5q0 -4 -0.5 -8.5t-1.5 -8.5l-25 -129q6 -2 11 -5t9 -8l100 88q6 5 14.5 9.5t17.5 5.5q2 1 3.5 1h3.5q8 0 15 -4t12 -13q3 -4 4 -8.5t1 -9.5q0 -13 -11.5 -22.5t-24.5 -15.5q-1 0 -1.5 -0.5t-1.5 -0.5l-125 -42q1 -3 1 -5.5v-4.5v-6.5t-1 -7.5
l125 -42q1 -1 2.5 -1.5t2.5 -1.5q12 -5 22.5 -15t10.5 -24q0 -4 -1.5 -8t-3.5 -9q-5 -9 -12 -12.5t-15 -3.5q-3 0 -6.5 0.5t-6.5 1.5q-7 2 -13.5 6t-12.5 9l-100 88q-3 -3 -5.5 -4.5t-4.5 -2.5t-4.5 -2t-5.5 -2l25 -130q1 -5 1.5 -8.5t0.5 -7.5q-1 -16 -8 -29t-27 -14
q-19 1 -26.5 13t-7.5 28q0 4 0.5 8.5t1.5 8.5l25 132q-5 1 -10 4t-9 7l-101 -87q-5 -6 -12 -9.5t-15 -5.5q-2 -1 -5 -1.5t-6 -0.5q-8 0 -15.5 3.5t-12.5 12.5q-3 5 -4 9.5t-1 8.5q0 13 11.5 22.5t24.5 15.5q1 0 1.5 0.5t1.5 0.5l127 45l-0.5 1.5t-0.5 2.5q-1 1 -1 2.5v2.5
q0 2 1 5l2 6v1z" />
    <glyph glyph-name="plus" unicode="+" horiz-adv-x="584" 
d="M251 589h82v-195h195v-82h-195v-195h-82v195h-195v82h195v195v0z" />
    <glyph glyph-name="comma" unicode="," horiz-adv-x="219" 
d="M59 -118v19q16 11 25.5 29.5t12.5 38.5q0 4 0.5 8.5t0.5 8.5q0 6 -0.5 11.5t-2.5 11.5q-22 1 -35.5 16t-13.5 40t17 41t42 16q32 0 51.5 -26.5t19.5 -70.5q0 -7 -0.5 -13.5t-2.5 -12.5q-7 -37 -35.5 -70t-78.5 -47v0z" />
    <glyph glyph-name="hyphen" unicode="-" horiz-adv-x="323" 
d="M283 267v-93h-243v93h243v0z" />
    <glyph glyph-name="period" unicode="." horiz-adv-x="219" 
d="M109 111q25 -1 42.5 -18.5t17.5 -42.5t-17.5 -42t-42.5 -17t-42.5 17t-17.5 42t17.5 42.5t42.5 17.5v1z" />
    <glyph glyph-name="slash" unicode="/" horiz-adv-x="281" 
d="M8 -9l196 700h70l-196 -700h-70v0z" />
    <glyph glyph-name="zero" unicode="0" horiz-adv-x="500" 
d="M470 341q0 -158 -60.5 -254t-159.5 -96t-159.5 96t-60.5 253q0 158 60.5 254t159.5 96t159.5 -96t60.5 -254v1zM372 341q0 119 -32.5 187.5t-89.5 68.5t-89.5 -68.5t-32.5 -188.5t32.5 -188.5t89.5 -68.5t89.5 68.5t32.5 188.5v1z" />
    <glyph glyph-name="one" unicode="1" horiz-adv-x="500" 
d="M300 682v-682h-98v682h98v0z" />
    <glyph glyph-name="two" unicode="2" horiz-adv-x="500" 
d="M466 93v-93h-432v7q22 25 46.5 55t49.5 61q11 15 23 30t23 30q27 35 51.5 70t43.5 67q11 20 20 36.5t15 32.5q6 18 9.5 36.5t3.5 40.5q0 56 -33.5 92t-83.5 36q-37 0 -75 -19.5t-79 -72.5v124q21 16 41 28t40 20q19 8 39 12t41 4q92 0 150 -59t58 -154q0 -14 -1.5 -28
t-3.5 -28q-14 -67 -63 -141.5t-144 -187.5l261 1v0z" />
    <glyph glyph-name="three" unicode="3" horiz-adv-x="500" 
d="M81 569v93q4 1 8.5 3t8.5 4q27 11 54 16t60 5q92 0 146.5 -48.5t54.5 -129.5q0 -57 -20 -92t-67 -61q50 -15 73.5 -60.5t24.5 -97.5v-2v-2q0 -91 -60 -148.5t-155 -57.5q-35 0 -71.5 9.5t-73.5 28.5v107q39 -27 77 -40t75 -13q50 0 80 30t30 79q0 48 -33.5 81.5
t-100.5 32.5h-6h-6v91q68 -1 101.5 25.5t33.5 72.5q0 47 -32 74.5t-86 27.5q-7 0 -13.5 -0.5t-13.5 -1.5q-20 -2 -41.5 -8.5t-47.5 -18.5v1z" />
    <glyph glyph-name="four" unicode="4" horiz-adv-x="500" 
d="M398 691v-379h73v-88h-73v-224h-98v224h-289v45l345 422h42v0zM298 506l-156 -194h158v194h-2v0z" />
    <glyph glyph-name="five" unicode="5" horiz-adv-x="500" 
d="M404 682v-88h-214v-171q3 -1 5.5 -1t4.5 1h5.5h4.5q107 -1 167.5 -63t60.5 -152q0 -94 -63 -155.5t-160 -61.5q-22 0 -42.5 2.5t-39.5 6.5q-20 5 -40.5 13t-42.5 19v102q37 -26 74.5 -38.5t74.5 -12.5q58 0 99.5 36.5t41.5 86.5q0 53 -42.5 91.5t-120.5 38.5
q-17 0 -36 -2.5t-40 -7.5v356h303v0z" />
    <glyph glyph-name="six" unicode="6" horiz-adv-x="500" 
d="M317 691l59 -75q-66 -39 -120.5 -100t-80.5 -127l-4 -12l-4 -12q20 11 46.5 19.5t60.5 8.5q82 0 136.5 -57t54.5 -142q0 -83 -59.5 -143t-141.5 -60q-98 0 -159 66.5t-61 174.5q0 128 70 249t203 209v1zM146 265q-3 -14 -4.5 -26t-1.5 -23q1 -62 37 -97.5t81 -35.5
q49 0 79 31t30 81q0 45 -32 75t-81 30q-15 0 -27.5 -1.5t-24.5 -5.5q-13 -4 -26 -11t-30 -18v1z" />
    <glyph glyph-name="seven" unicode="7" horiz-adv-x="500" 
d="M490 682l-309 -691l-87 38l250 560h-295v93h441v0z" />
    <glyph glyph-name="eight" unicode="8" horiz-adv-x="500" 
d="M468 184q0 -83 -62 -138t-154 -55q-93 0 -156.5 55.5t-63.5 137.5q0 54 24 94.5t73 68.5q-38 28 -59.5 66t-21.5 81q0 84 60 140t149 56q86 0 143.5 -56.5t57.5 -141.5q0 -8 -1 -16.5t-3 -17.5q-7 -30 -27 -59.5t-54 -51.5q47 -25 71 -68.5t24 -95.5v1zM370 192
q0 46 -33 76.5t-85 30.5q-55 0 -88.5 -30t-33.5 -78q0 -47 34 -77.5t86 -30.5q59 0 89.5 32.5t30.5 75.5v1zM360 495q0 43 -29.5 72.5t-75.5 29.5q-49 0 -79 -27.5t-30 -73.5q0 -42 32 -73t75 -31q44 0 75.5 30.5t31.5 71.5v1z" />
    <glyph glyph-name="nine" unicode="9" horiz-adv-x="500" 
d="M187 -9l-60 72q59 38 103.5 82.5t71.5 90.5q12 21 20.5 41.5t12.5 40.5q-16 -10 -35.5 -16.5t-38.5 -9.5q-8 -2 -16 -2.5t-16 -0.5q-81 0 -137 58t-56 141q0 76 57 139t151 63q95 0 156 -71t61 -178q0 -25 -3.5 -51t-10.5 -52q-26 -101 -95 -195t-165 -152v0zM134 490
q0 -45 34 -76.5t82 -31.5q18 0 40.5 6t45.5 19q5 3 9.5 6t9.5 6q3 14 4 24t1 20v5v6q0 50 -33.5 86.5t-80.5 36.5q-49 0 -80.5 -30.5t-31.5 -77.5v1z" />
    <glyph glyph-name="colon" unicode=":" horiz-adv-x="219" 
d="M109 111q25 -1 42.5 -18.5t17.5 -42.5t-17.5 -42t-42.5 -17t-42.5 17t-17.5 42t17.5 42.5t42.5 17.5v1zM109 458q25 -1 42.5 -18.5t17.5 -42.5t-17.5 -42.5t-42.5 -17.5t-42.5 17.5t-17.5 42.5t17.5 42.5t42.5 17.5v1z" />
    <glyph glyph-name="semicolon" unicode=";" horiz-adv-x="219" 
d="M61 -115v19q7 6 13 12t10 13q11 15 14.5 30.5t3.5 32.5v4.5v3.5q-1 2 -1 4.5v5.5q-24 3 -38.5 19t-14.5 40q0 30 17.5 45.5t42.5 15.5q31 0 49 -27.5t18 -65.5q0 -55 -29 -95.5t-85 -56.5v0zM169 398q0 -26 -17.5 -43.5t-42.5 -17.5t-42.5 17.5t-17.5 42.5t17.5 42.5
t42.5 17.5t42.5 -17.5t17.5 -42.5v1z" />
    <glyph glyph-name="less" unicode="&#x3c;" horiz-adv-x="584" 
d="M55 313v82l474 202v-87l-376 -156l376 -156v-87l-474 202v0z" />
    <glyph glyph-name="equal" unicode="=" horiz-adv-x="584" 
d="M56 285h472v-82h-472v82v0zM56 503h472v-82h-472v82v0z" />
    <glyph glyph-name="greater" unicode="&#x3e;" horiz-adv-x="584" 
d="M529 313l-474 -202v87l376 156l-376 156v87l474 -202v-82v0z" />
    <glyph glyph-name="question" unicode="?" horiz-adv-x="333" 
d="M154 111q25 -1 42.5 -18.5t17.5 -42.5t-17.5 -42t-42.5 -17t-42.5 17t-17.5 42t17.5 42.5t42.5 17.5v1zM82 595l47 96q71 0 108 -34t48 -74q3 -10 4 -19.5t1 -18.5q0 -54 -23.5 -103t-52.5 -93q-28 -44 -52 -84.5t-24 -78.5v-6t1 -6q-31 16 -45 37t-14 55q0 40 17.5 74
t38.5 65q6 8 11 16.5t11 16.5q14 23 24 46.5t10 48.5q0 30 -18 48.5t-48 18.5q-10 0 -18 -1t-14 -3q-3 0 -6 -0.5t-6 -1.5v1z" />
    <glyph glyph-name="at" unicode="@" horiz-adv-x="1010" 
d="M891 9h90q-65 -107 -173 -163t-260 -56q-230 0 -362 116.5t-132 321.5q0 34 4.5 69.5t14.5 72.5q35 134 145.5 246t318.5 112q182 0 300.5 -107.5t118.5 -273.5q0 -133 -90 -241t-202 -108q-48 0 -72.5 20t-24.5 61q-21 -25 -45.5 -42.5t-49.5 -27.5q-13 -5 -26.5 -7.5
t-26.5 -2.5q-77 0 -128 62t-51 158q0 117 79 213t175 96q45 0 83 -23t64 -67l17 77h88l-82 -377q-1 -7 -2 -12.5t-1 -10.5q1 -18 9.5 -28t25.5 -10q13 0 37.5 12t51.5 36q36 33 67 88.5t31 134.5q0 133 -99.5 221t-250.5 88q-175 0 -290.5 -119.5t-115.5 -301.5
q0 -178 111 -276t311 -98q125 0 211.5 42t130.5 104v1zM331 213q0 -65 30 -104t78 -39q65 0 119.5 76.5t54.5 168.5q0 65 -30.5 103.5t-82.5 38.5q-64 0 -116.5 -75.5t-52.5 -169.5v1z" />
    <glyph glyph-name="A" unicode="A" horiz-adv-x="667" 
d="M362 686l305 -686h-100l-91 201h-290l-86 -201h-100l293 686h69v0zM326 536l-102 -247h212l-110 247v0z" />
    <glyph glyph-name="B" unicode="B" horiz-adv-x="563" 
d="M75 0v682h198q108 -1 158 -53.5t52 -115.5v-3.5v-2.5q0 -53 -25.5 -88.5t-78.5 -57.5v-1q77 -15 120.5 -62.5t43.5 -116.5q0 -8 -0.5 -16t-2.5 -16q-11 -56 -65 -102.5t-166 -46.5h-234v0zM173 302v-214h123q78 -1 109.5 28t35.5 64q1 4 1 7.5v7.5q0 47 -37 76.5
t-114 29.5l-118 1v0zM173 594v-204h65q73 -1 108.5 26t35.5 82q0 38 -25.5 66.5t-93.5 28.5l-90 1v0z" />
    <glyph glyph-name="C" unicode="C" horiz-adv-x="708" 
d="M656 635v-105q-40 22 -76.5 37.5t-73.5 23.5q-21 4 -42 6.5t-43 2.5q-117 0 -194.5 -74t-77.5 -187q0 -115 76.5 -187t199.5 -72q29 0 59 5t60 15t60 24t59 33v-106q-50 -27 -108.5 -43.5t-138.5 -16.5q-151 0 -237 75.5t-115 166.5q-8 25 -12 49.5t-4 47.5
q0 156 105.5 258t268.5 102q53 0 108.5 -13.5t125.5 -42.5v1z" />
    <glyph glyph-name="D" unicode="D" horiz-adv-x="750" 
d="M76 0v682h265q171 -1 258 -93t102 -203q1 -11 2 -22.5t1 -23.5q0 -131 -96.5 -235.5t-265.5 -104.5h-266v0zM174 594v-506h156q111 -1 169.5 46t81.5 103q12 28 17 55t5 48q0 103 -67.5 178t-210.5 75l-151 1v0z" />
    <glyph glyph-name="E" unicode="E" horiz-adv-x="500" 
d="M462 682v-88h-289v-206h279v-88h-279v-212h298v-88h-396v682h387v0z" />
    <glyph glyph-name="F" unicode="F" horiz-adv-x="469" 
d="M440 682v-88h-266v-189h266v-88h-266v-317h-98v682h364v0z" />
    <glyph glyph-name="G" unicode="G" horiz-adv-x="740" 
d="M673 336v-289q-31 -14 -59 -24t-56 -17q-35 -7 -70.5 -11t-74.5 -4q-157 0 -260 97.5t-103 247.5q0 151 105 252.5t261 101.5q19 0 37 -1t35 -4q37 -5 76.5 -17.5t94.5 -35.5v-98q-45 24 -91 39.5t-92 22.5q-16 2 -31.5 3t-30.5 1q-111 0 -187 -75t-76 -186
q0 -114 77.5 -186.5t198.5 -72.5q40 0 76.5 8t71.5 19v141h-131v88h229v0z" />
    <glyph glyph-name="H" unicode="H" horiz-adv-x="729" 
d="M653 682v-682h-98v297h-382v-297h-98v682h98v-297h382v297h98v0z" />
    <glyph glyph-name="I" unicode="I" horiz-adv-x="250" 
d="M174 682v-682h-98v682h98v0z" />
    <glyph glyph-name="J" unicode="J" horiz-adv-x="250" 
d="M174 682v-690q0 -95 -42.5 -158.5t-144.5 -63.5q-6 0 -11 0.5t-9 0.5q-3 0 -5.5 0.5t-4.5 0.5l-19 91h25q78 0 95.5 39t17.5 118v662h98v0z" />
    <glyph glyph-name="K" unicode="K" horiz-adv-x="656" 
d="M285 359l370 -359h-135l-347 337v-337h-98v682h98v-312l287 312h122l-297 -323v0z" />
    <glyph glyph-name="L" unicode="L" horiz-adv-x="490" 
d="M172 682v-594h308v-88h-406v682h98v0z" />
    <glyph glyph-name="M" unicode="M" horiz-adv-x="781" 
d="M709 682v-682h-98v531h-2l-210 -264h-16l-210 264h-2v-531h-98v682h92l226 -280l227 280h91v0z" />
    <glyph glyph-name="N" unicode="N" horiz-adv-x="781" 
d="M706 682v-682h-84l-456 525v-525h-92v682h78l462 -528v528h92v0z" />
    <glyph glyph-name="O" unicode="O" horiz-adv-x="823" 
d="M45 341q0 141 100 245t266 104q169 0 268 -103.5t99 -246.5q0 -138 -98 -243.5t-271 -105.5q-167 0 -265.5 105t-98.5 244v1zM146 341q0 -113 75.5 -187t189.5 -74q115 0 190.5 74t75.5 186q0 113 -75.5 186.5t-190.5 73.5q-114 0 -189.5 -73.5t-75.5 -186.5v1z" />
    <glyph glyph-name="P" unicode="P" horiz-adv-x="510" 
d="M70 682h213q112 -1 164.5 -58.5t52.5 -138.5q0 -80 -55.5 -135.5t-174.5 -55.5l-102 1v-295h-98v682v0zM168 594v-211h111q55 -1 87.5 27t32.5 79v5.5v4.5q-3 35 -28.5 64.5t-87.5 29.5l-115 1v0z" />
    <glyph glyph-name="Q" unicode="Q" horiz-adv-x="823" 
d="M496 0v1v-2q66 -28 113.5 -42t86.5 -14q14 0 28 2t27 6l3 -3l-88 -87q-99 7 -181.5 46.5t-153.5 92.5q-127 23 -206.5 118t-79.5 222q0 155 105 252.5t271 97.5q153 0 256 -101t103 -251q0 -124 -80 -219.5t-204 -118.5v0zM417 601q-113 -1 -174 -55.5t-82 -119.5
q-8 -23 -11.5 -45t-3.5 -42q0 -103 68.5 -181t204.5 -78q114 0 187 76.5t73 180.5q0 112 -74.5 187.5t-187.5 75.5v1z" />
    <glyph glyph-name="R" unicode="R" horiz-adv-x="604" 
d="M77 682h172q104 -1 164 -52t60 -140q0 -59 -29.5 -102t-84.5 -65q29 -19 52.5 -45t45.5 -59q13 -19 26.5 -40.5t27.5 -44.5q6 -10 11.5 -19t11.5 -17q1 -2 2.5 -4.5t3.5 -4.5q12 -18 27 -38.5t37 -50.5h-117l-90 140q-57 88 -92 118.5t-66 34.5q-6 1 -11.5 1.5t-11.5 0.5
l-41 1v-296h-98v682v0zM175 598v-214h63q78 -1 106 32.5t28 75.5v0.5v0.5v0.5v0.5q-1 48 -32 75.5t-102 27.5l-63 1v0z" />
    <glyph glyph-name="S" unicode="S" horiz-adv-x="458" 
d="M399 643v-111q-43 40 -84 55t-76 15q-47 0 -77.5 -22.5t-30.5 -58.5q0 -37 27.5 -62.5t67.5 -48.5q12 -7 25.5 -14.5t27.5 -15.5q55 -32 101 -78t46 -127q0 -80 -54 -132t-137 -52q-55 0 -101.5 15t-89.5 47v125q38 -49 84 -74.5t96 -25.5q47 0 73.5 20.5t34.5 45.5l2 10
t1 10q0 45 -34 75.5t-79 58.5q-9 5 -17.5 10.5t-16.5 10.5q-56 34 -102 76.5t-46 112.5q0 83 56.5 132.5t150.5 49.5q39 0 77.5 -12t74.5 -36v1z" />
    <glyph glyph-name="T" unicode="T" horiz-adv-x="604" 
d="M587 682v-88h-236v-594h-98v594h-236v88h570v0z" />
    <glyph glyph-name="U" unicode="U" horiz-adv-x="708" 
d="M648 682v-414q0 -126 -75.5 -201.5t-227.5 -75.5q-108 0 -196 63.5t-88 202.5v425h98v-403q0 -59 9 -88.5t32 -52.5q29 -29 66 -43.5t81 -14.5q56 0 96.5 16t63.5 39q26 26 34.5 63.5t8.5 85.5v398h98v0z" />
    <glyph glyph-name="V" unicode="V" horiz-adv-x="604" 
d="M604 682l-289 -688h-20l-295 688h98l205 -479l204 479h97v0z" />
    <glyph glyph-name="W" unicode="W" horiz-adv-x="1042" 
d="M1041 682l-277 -688h-19l-224 558l-226 -558h-19l-276 688h98l188 -470l189 470h93l190 -470l186 470h97v0z" />
    <glyph glyph-name="X" unicode="X" horiz-adv-x="708" 
d="M687 682l-272 -329l291 -353h-118l-232 282l-235 -282h-119l294 353l-273 329h119l214 -260l213 260h118v0z" />
    <glyph glyph-name="Y" unicode="Y" horiz-adv-x="604" 
d="M301 447l185 235h118l-253 -322v-360h-98v361l-253 321h118l183 -235v0z" />
    <glyph glyph-name="Z" unicode="Z" horiz-adv-x="646" 
d="M450 594h-407v88h588l-434 -594h434v-88h-615l434 594v0z" />
    <glyph glyph-name="bracketleft" unicode="[" horiz-adv-x="333" 
d="M319 682v-80h-137v-743h137v-80h-233v903h233v0z" />
    <glyph glyph-name="backslash" unicode="\" horiz-adv-x="281" 
d="M274 -9h-70l-196 700h70l196 -700v0z" />
    <glyph glyph-name="bracketright" unicode="]" horiz-adv-x="333" 
d="M14 -221v80h137v743h-137v80h233v-903h-233v0z" />
    <glyph glyph-name="asciicircum" unicode="^" horiz-adv-x="469" 
d="M116 291h-90l173 391h71l173 -391h-89l-120 292l-118 -292v0z" />
    <glyph glyph-name="underscore" unicode="_" horiz-adv-x="500" 
d="M-6 -75h512v-50h-512v50v0z" />
    <glyph glyph-name="grave" unicode="`" horiz-adv-x="333" 
d="M160 654l67 -147h-55l-112 147h100v0z" />
    <glyph glyph-name="a" unicode="a" horiz-adv-x="427" 
d="M411 80v-54q-21 -15 -35 -22t-27 -10q-6 -2 -11.5 -2.5t-12.5 -0.5q-29 0 -45.5 10.5t-22.5 34.5q-29 -23 -59.5 -34t-61.5 -11q-49 0 -79.5 33t-30.5 76q0 60 41 88t90 46q6 2 11.5 4t10.5 4l79 29v24q0 41 -20 59.5t-61 18.5q-5 0 -9.5 -0.5t-8.5 -0.5
q-33 -4 -64.5 -22t-59.5 -51v98q26 30 63 45t86 15q68 0 115.5 -35.5t47.5 -112.5v-230q0 -14 4.5 -19t12.5 -5q7 0 19.5 6.5t27.5 17.5v1zM258 91v131q-57 -20 -99.5 -43t-42.5 -63q0 -28 18 -45.5t46 -17.5q21 0 40.5 10t37.5 27v1z" />
    <glyph glyph-name="b" unicode="b" horiz-adv-x="500" 
d="M148 682v-265q29 20 59.5 30t64.5 10q84 0 139 -63.5t55 -160.5q0 -114 -63.5 -178t-176.5 -64q-9 0 -18 0.5t-18 1.5q-36 3 -70.5 10.5t-60.5 20.5v658h89v0zM148 332v-243q10 -4 21.5 -6.5t23.5 -4.5t23.5 -3t21.5 -1q60 0 98.5 41t38.5 105q0 71 -34.5 114t-90.5 43
q-13 0 -25 -2t-23 -7q-13 -6 -26 -15t-28 -22v1z" />
    <glyph glyph-name="c" unicode="c" horiz-adv-x="438" 
d="M393 427v-95q-30 19 -53 28.5t-45 12.5q-6 1 -12.5 1.5t-13.5 0.5q-61 0 -99 -42t-38 -110q0 -70 41.5 -109.5t110.5 -39.5h10t11 1q23 2 46.5 9.5t51.5 19.5v-87q-16 -9 -41.5 -14.5t-52.5 -9.5q-11 -1 -20.5 -1.5t-19.5 -0.5q-100 0 -164 62.5t-64 161.5
q0 111 60 176.5t162 65.5q27 0 48.5 -4t41.5 -11q10 -3 20 -7t20 -9v1z" />
    <glyph glyph-name="d" unicode="d" horiz-adv-x="510" 
d="M451 682v-682h-189q-100 0 -159 63t-59 171q0 98 63 160.5t161 62.5h9t9 -1q18 -1 36 -5t40 -12v243h89v0zM362 75v286q-11 4 -21.5 7t-19.5 5q-10 2 -20.5 3t-21.5 1q-64 0 -104 -42.5t-40 -113.5q0 -63 30 -105t107 -42l90 1v0z" />
    <glyph glyph-name="e" unicode="e" horiz-adv-x="479" 
d="M438 130v-86q-6 -5 -12.5 -9t-12.5 -7q-34 -20 -70 -28.5t-84 -8.5q-105 0 -161.5 72.5t-56.5 165.5q0 102 58.5 165t151.5 63q89 0 142 -61t53 -186l-316 1q11 -68 49 -102t102 -34q30 0 59.5 8t58.5 23q10 5 19.5 11t19.5 12v1zM132 270h226q-2 50 -30 80t-75 30
q-51 0 -81.5 -29t-39.5 -82v1z" />
    <glyph glyph-name="f" unicode="f" horiz-adv-x="250" 
d="M296 682v-87q-5 1 -9.5 2.5t-8.5 2.5q-5 1 -10.5 1.5t-11.5 0.5q-54 0 -74.5 -29.5t-20.5 -81.5v-42h81v-80h-81v-369h-89v369h-63v80h63v33q0 65 15 101.5t42 63.5q20 20 45.5 32t59.5 12q14 -1 29.5 -3t32.5 -7v1z" />
    <glyph glyph-name="g" unicode="g" horiz-adv-x="427" 
d="M421 449v-69h-92q11 -12 19.5 -22.5t14.5 -20.5q7 -13 10 -26.5t3 -29.5q0 -6 -0.5 -12t-2.5 -12q-4 -23 -15.5 -44t-23.5 -33q-15 -16 -34.5 -25t-40.5 -14q-11 -3 -23 -5t-22 -4q-26 -4 -44 -11t-18 -26q0 -14 20.5 -25t61.5 -21q12 -3 25.5 -6t29.5 -6
q72 -14 101 -47.5t29 -76.5q0 -67 -56 -105t-156 -38q-91 0 -149 38.5t-58 97.5q0 49 27.5 79t85.5 44q-8 5 -14 9.5t-11 9.5q-10 9 -15 18.5t-5 19.5q0 22 19.5 39.5t51.5 24.5v3q-25 10 -43.5 24t-31.5 32q-12 17 -18 38t-6 46q0 72 52.5 113.5t143.5 41.5l185 1v0z
M333 -94q0 30 -29 46t-65 22q-14 2 -27.5 3t-25.5 1q-45 0 -73.5 -19t-28.5 -49q0 -34 32 -51.5t93 -17.5q59 0 91.5 17t32.5 48v0zM296 293q0 31 -26 54.5t-61 23.5q-37 0 -63 -24t-26 -57q0 -37 25 -59.5t65 -22.5q38 0 62 23.5t24 60.5v1z" />
    <glyph glyph-name="h" unicode="h" horiz-adv-x="500" 
d="M150 682v-292h2q26 31 61.5 49t72.5 18q66 0 109.5 -45.5t43.5 -137.5v-274h-89v278q0 49 -23.5 78.5t-64.5 29.5q-12 0 -23.5 -2.5t-22.5 -7.5q-16 -8 -32 -21.5t-34 -33.5v-321h-89v682h89v0z" />
    <glyph glyph-name="i" unicode="i" horiz-adv-x="219" 
d="M154 449v-449h-89v449h89v0zM163 585q0 -23 -15.5 -38.5t-37.5 -15.5t-37.5 15.5t-15.5 37.5t15.5 37.5t37.5 15.5t37.5 -15.5t15.5 -37.5v1z" />
    <glyph glyph-name="j" unicode="j" horiz-adv-x="219" 
d="M150 449v-508q0 -72 -22.5 -109.5t-66.5 -61.5l-67 66q29 12 48 36t19 62v515h89v0zM159 585q0 -23 -15.5 -38.5t-37.5 -15.5t-37.5 15.5t-15.5 37.5t15.5 37.5t37.5 15.5t37.5 -15.5t15.5 -37.5v1z" />
    <glyph glyph-name="k" unicode="k" horiz-adv-x="479" 
d="M151 682v-682h-89v682h89v0zM460 449l-192 -220l232 -229h-120l-225 229l199 220h106v0z" />
    <glyph glyph-name="l" unicode="l" horiz-adv-x="219" 
d="M154 682v-682h-89v682h89v0z" />
    <glyph glyph-name="m" unicode="m" horiz-adv-x="771" 
d="M59 449h89v-59q35 34 67.5 50.5t63.5 16.5q43 0 77.5 -20.5t56.5 -60.5q29 33 65.5 57t84.5 24q68 0 108.5 -48t40.5 -128v-281h-89v278q0 50 -27.5 77t-65.5 27h-0.5h-0.5h-0.5h-0.5q-12 0 -26 -5.5t-29 -15.5q-11 -7 -22 -16t-21 -20v-325h-89v279q0 54 -24 78.5
t-57 24.5q-23 0 -41.5 -5.5t-36.5 -18.5q-8 -6 -16.5 -14.5t-17.5 -18.5v-325h-89v449v0z" />
    <glyph glyph-name="n" unicode="n" horiz-adv-x="500" 
d="M150 449v-59h2q26 31 61.5 49t72.5 18q64 0 108.5 -44.5t44.5 -136.5v-276h-89v278q0 49 -23.5 78.5t-64.5 29.5q-12 0 -23.5 -2.5t-22.5 -7.5q-16 -8 -32 -21.5t-34 -33.5v-321h-89v449h89v0z" />
    <glyph glyph-name="o" unicode="o" horiz-adv-x="552" 
d="M273 458q106 -1 174.5 -65.5t68.5 -164.5q0 -106 -67.5 -171.5t-175.5 -65.5q-103 0 -170 67t-67 170q0 97 68.5 163t168.5 66v1zM272 378q-63 -1 -104 -43t-41 -107q0 -71 40.5 -114.5t104.5 -43.5q71 0 112 42t41 115q0 65 -43 107.5t-110 42.5v1z" />
    <glyph glyph-name="p" unicode="p" horiz-adv-x="500" 
d="M146 11v-241h-89v679h154q123 -1 188 -59.5t65 -169.5q0 -101 -64 -165t-164 -64h-9.5t-9.5 1q-17 2 -34 6t-37 12v1zM146 369v-278q14 -7 28 -11.5t28 -7.5q7 -1 14 -1.5t14 -0.5q62 0 102.5 43t40.5 108q0 70 -36.5 108.5t-109.5 38.5l-81 1v0z" />
    <glyph glyph-name="q" unicode="q" horiz-adv-x="500" 
d="M354 -230v237q-25 -8 -48 -12t-42 -4q-100 0 -164 64t-64 165q0 19 4 44.5t15 51.5q20 50 71.5 91t152.5 41l164 1v-679h-89v0zM354 369h-81q-3 -1 -5.5 -1h-5.5q-51 -4 -93 -39t-42 -108q0 -65 40.5 -110.5t102.5 -45.5q7 0 14 0.5t14 1.5q14 3 28.5 7.5t27.5 10.5v284
v0z" />
    <glyph glyph-name="r" unicode="r" horiz-adv-x="396" 
d="M69 449h89v-103h2q34 58 66.5 84.5t63.5 26.5q11 0 21.5 -2t21.5 -6q15 -6 31 -17t33 -27l-47 -76q-7 6 -15 12.5t-17 11.5q-14 9 -27.5 14t-23.5 5q-46 0 -77.5 -40t-31.5 -98v-234h-89v449v0z" />
    <glyph glyph-name="s" unicode="s" horiz-adv-x="385" 
d="M324 421v-88q-37 24 -71 35t-59 11q-27 0 -43 -11.5t-16 -29.5q0 -15 25 -35t84 -55q30 -20 50.5 -36.5t31.5 -32.5q10 -14 14.5 -27.5t4.5 -29.5q0 -59 -42 -95t-106 -36q-18 0 -35 1.5t-34 5.5q-20 4 -41.5 12.5t-45.5 20.5v97q44 -31 82 -45.5t65 -14.5
q27 2 46.5 14.5t19.5 36.5q0 12 -9 22t-23 21q-15 10 -34 20.5t-39 22.5q-39 23 -72 54t-33 76q0 57 40.5 89.5t107.5 32.5q32 0 64.5 -9t67.5 -28v1z" />
    <glyph glyph-name="t" unicode="t" horiz-adv-x="333" 
d="M167 542v-93h142v-80h-142v-230q0 -31 13.5 -46t30.5 -20q5 -2 10 -2.5t10 -0.5q24 0 49 8.5t52 24.5v-82q-11 -7 -24.5 -12t-26.5 -9q-16 -4 -31 -6.5t-26 -2.5q-73 0 -109.5 39.5t-36.5 100.5v238h-78v10l167 163v0z" />
    <glyph glyph-name="u" unicode="u" horiz-adv-x="500" 
d="M437 0h-89v57q-18 -21 -40 -35.5t-45 -21.5q-12 -4 -24.5 -6.5t-23.5 -2.5q-68 0 -111.5 46.5t-43.5 131.5v280h89v-285q0 -48 23 -74t69 -26q30 0 57.5 16t49.5 47v322h89v-449v0z" />
    <glyph glyph-name="v" unicode="v" horiz-adv-x="438" 
d="M206 -9l-203 458h97l121 -276l118 276h95l-198 -458h-30v0z" />
    <glyph glyph-name="w" unicode="w" horiz-adv-x="719" 
d="M393 449l114 -272l117 272h95l-198 -458h-28l-133 314l-132 -314h-28l-200 458h95l118 -272l114 272h66v0z" />
    <glyph glyph-name="x" unicode="x" horiz-adv-x="500" 
d="M487 449l-185 -221l198 -228h-114l-141 161l-133 -161h-112l189 228l-189 221h112l133 -154l128 154h114v0z" />
    <glyph glyph-name="y" unicode="y" horiz-adv-x="438" 
d="M438 449l-318 -679h-99l153 326l-174 353h101l121 -253l116 253h100v0z" />
    <glyph glyph-name="z" unicode="z" horiz-adv-x="417" 
d="M404 449l-239 -369h240v-80h-394l238 369h-228v80h383v0z" />
    <glyph glyph-name="braceleft" unicode="{" horiz-adv-x="333" 
d="M28 219v80q62 -1 81.5 42.5t19.5 119.5v89q0 86 31 131.5t111 45.5l39 1v-76h-15q-52 -1 -68 -20.5t-16 -81.5v-71q0 -102 -23 -149.5t-79 -71.5q56 -24 79 -71.5t23 -148.5v-71q0 -62 16 -81.5t68 -19.5h15v-76h-39q-80 0 -111 45.5t-31 132.5v88q0 76 -19.5 119
t-81.5 43v1z" />
    <glyph glyph-name="bar" unicode="|" horiz-adv-x="260" 
d="M92 -230v912h76v-912h-76v0z" />
    <glyph glyph-name="braceright" unicode="}" horiz-adv-x="333" 
d="M305 299v-80q-61 -1 -81 -44t-20 -120v-87q0 -87 -31 -132.5t-111 -45.5h-39v76h15q53 0 68.5 19.5t15.5 81.5v72q0 100 23 147.5t79 71.5q-56 24 -79 71.5t-23 148.5v73q0 61 -15.5 80.5t-68.5 19.5l-15 1v76h39q80 -1 111 -46.5t31 -132.5v-87q0 -77 20 -120.5
t81 -43.5v1z" />
    <glyph glyph-name="asciitilde" unicode="~" horiz-adv-x="584" 
d="M25 198v83q32 26 70.5 44.5t78.5 18.5q21 0 42 -5.5t42 -14.5q10 -4 21 -8.5t21 -9.5q32 -14 62 -26t58 -12q16 0 32.5 5t34.5 13q19 10 37.5 22.5t35.5 26.5v-82q-28 -25 -63 -43.5t-71 -20.5q-3 -1 -6 -1h-6q-21 0 -43.5 6.5t-45.5 15.5l-18 8l-18 8q-32 14 -63 26
t-59 12q-21 0 -41 -7t-40 -18q-15 -9 -30.5 -19.5t-30.5 -22.5v1z" />
    <glyph glyph-name="glyph98" unicode="&#xa1;" horiz-adv-x="271" 
d="M136 -192q-28 0 -42 37t-14 111q0 33 1.5 59.5t4.5 46.5l25 173q5 32 10 47t15 15t15.5 -15t9.5 -48l25 -171q3 -21 4.5 -47.5t1.5 -59.5q0 -74 -13.5 -111t-42.5 -37v0zM135 388q-25 -1 -42.5 16.5t-17.5 42.5t17.5 42.5t42.5 17.5t42.5 -17.5t17.5 -42.5t-17.5 -42.5
t-42.5 -17.5v1z" />
    <glyph glyph-name="cent" unicode="&#xa2;" horiz-adv-x="438" 
d="M408 620l-63 -175q4 -3 9.5 -5t11.5 -4q2 -1 4 -1.5t3 -1.5q5 -2 9.5 -4t7.5 -4v-93q-10 7 -22 14t-24 12q-7 3 -14 5t-13 4l-102 -280q12 -6 25 -9t26 -4q4 -1 8.5 -1h8.5h5.5h5.5q28 2 56 10.5t50 20.5v-85q-28 -11 -54 -17t-52 -9q-8 -1 -16.5 -1.5t-17.5 -0.5
q-18 0 -36.5 2t-38.5 7l-69 -190h-47l77 209q-49 27 -78.5 80t-29.5 116q0 105 58.5 173.5t166.5 68.5q10 0 20 -0.5t20 -2.5l59 166h46v0zM178 109l96 266q-3 -1 -6 -1h-6q-63 0 -98 -47.5t-35 -106.5q0 -34 12.5 -62.5t36.5 -49.5v1z" />
    <glyph glyph-name="sterling" unicode="&#xa3;" horiz-adv-x="531" 
d="M333 374v-88h-102l-50 -189h7.5t6.5 1h10.5h15.5q34 0 57 -2t42 -5q8 -1 15.5 -2.5t15.5 -2.5q10 -1 21 -2t23 -1q32 0 57.5 5t43.5 15v-94q-6 -3 -12.5 -5t-12.5 -4q-6 0 -12.5 -1.5t-12.5 -2.5q-13 -2 -26.5 -3.5t-28.5 -1.5q-17 0 -37.5 2.5t-43.5 5.5l-22 2l-22 2
q-12 1 -23 1.5t-22 0.5q-39 0 -71 -2.5t-62 -6.5q-7 -1 -14.5 -2.5t-14.5 -2.5l79 295h-72v88h95q35 118 93.5 217t158.5 99q8 0 17 -1t19 -3l52 -97h-11q-16 5 -28.5 6.5t-24.5 1.5q-61 0 -103.5 -52.5t-76.5 -171.5l76 1v0z" />
    <glyph glyph-name="Idieresis" unicode="&#xa4;" horiz-adv-x="552" 
d="M448 226l67 -67l-57 -57l-67 67q-22 -16 -51.5 -26t-63.5 -10q-36 0 -65 10.5t-50 24.5l-67 -66l-57 57l67 67q-14 19 -24.5 49.5t-10.5 64.5q0 35 11 65t24 50l-67 68l57 57l67 -67q19 13 50 23.5t65 10.5q33 0 62 -9.5t53 -25.5l67 68l57 -57l-67 -67q9 -13 15 -27
t11 -29q4 -16 6.5 -32t2.5 -28q0 -8 -1 -16.5t-2 -16.5q-4 -23 -12.5 -45t-19.5 -37v1zM276 468q-52 -1 -89.5 -38t-37.5 -90q0 -52 37.5 -89.5t89.5 -37.5q53 0 90 37.5t37 89.5q0 53 -37 90t-90 37v1z" />
    <glyph glyph-name="ae" unicode="&#xa5;" horiz-adv-x="552" 
d="M233 0v159h-203v67h203v70h-203v73h167l-198 347h98l180 -322l173 322h103l-196 -347h165v-73h-200v-70h200v-67h-200v-159h-89v0z" />
    <glyph glyph-name="brokenbar" unicode="&#xa6;" 
 />
    <glyph glyph-name="section" unicode="&#xa7;" horiz-adv-x="406" 
d="M150 559q0 -37 19.5 -67t48.5 -58q10 -11 21.5 -21.5t22.5 -21.5q42 -40 77 -89t35 -120q0 -24 -5.5 -45.5t-18.5 -42.5q-9 -16 -21.5 -31.5t-28.5 -31.5q17 -25 26 -53t9 -59q0 -63 -45.5 -106t-113.5 -43q-48 0 -80.5 26t-32.5 65q0 25 16.5 42.5t39.5 17.5
q21 0 34 -14t13 -33q0 -2 -1 -5t-1 -6q-1 -2 -1.5 -4t-0.5 -5q-1 -1 -1 -2.5v-2.5q0 -6 5 -10.5t19 -4.5q29 0 50.5 21t21.5 50q0 28 -13.5 53.5t-34.5 49.5q-14 17 -31 34t-33 34q-43 44 -78 96.5t-35 122.5q0 44 16 78.5t50 65.5q-9 15 -15.5 32.5t-9.5 35.5q-2 7 -2.5 15
t-0.5 15q0 13 3 29t10 33q15 34 48 62.5t92 28.5q51 0 84 -24t33 -61q0 -24 -14.5 -39.5t-37.5 -15.5q-15 0 -25 9t-13 20q-1 3 -1.5 5.5t-0.5 4.5q0 17 -3.5 27t-25.5 10q-32 0 -50.5 -18t-18.5 -50v1zM140 384q-9 -10 -15.5 -21t-11.5 -23q-2 -8 -3.5 -15t-1.5 -14
q0 -35 16 -64.5t42 -58.5q16 -18 34 -36.5t37 -38.5q6 -6 11.5 -12t10.5 -12q12 12 20 25.5t12 27.5q3 8 4 16t1 16q0 41 -23 73t-55 62q-8 7 -17 15t-17 16q-11 10 -22.5 21t-21.5 22v1z" />
    <glyph glyph-name="dieresis" unicode="&#xa8;" horiz-adv-x="333" 
d="M74 628q20 -1 33 -14t13 -33q0 -19 -13 -33t-33 -14q-19 0 -33 14t-14 33q0 20 14 33t33 13v1zM260 628q20 -1 33 -14t13 -33q0 -19 -13 -33t-33 -14q-19 0 -33 14t-14 33q0 20 14 33t33 13v1z" />
    <glyph glyph-name="copyright" unicode="&#xa9;" horiz-adv-x="740" 
d="M738 360q0 -154 -108 -261.5t-261 -107.5t-260.5 107.5t-107.5 260.5t107.5 260.5t260.5 107.5t261 -107.5t108 -260.5v1zM677 360q0 127 -90 216.5t-218 89.5q-127 0 -217 -89.5t-90 -217.5q0 -127 90 -217.5t217 -90.5q128 0 218 90.5t90 217.5v1zM488 300l60 -18
q-15 -65 -63 -99.5t-119 -34.5q-87 0 -138 58t-51 158q0 92 54 146.5t143 54.5q64 0 107.5 -29.5t59.5 -85.5l-58 -13q-15 37 -43.5 55.5t-70.5 18.5q-57 0 -91 -43t-34 -114q0 -70 33.5 -109.5t92.5 -39.5q43 0 75.5 25.5t42.5 68.5v1z" />
    <glyph glyph-name="ellipsis" unicode="&#xaa;" horiz-adv-x="281" 
d="M273 474v-42q-14 -10 -24.5 -15t-19.5 -7q-4 -1 -9 -1.5t-10 -0.5q-18 0 -30 6t-17 17q-10 -7 -22 -12t-24 -8q-7 -1 -13.5 -2t-13.5 -1q-31 0 -53 20t-22 49q0 42 42 63t106 37q0 32 -8 44.5t-37 12.5q-10 0 -19.5 -2t-18.5 -5q-14 -6 -28.5 -17t-31.5 -28v70
q19 19 44 28.5t59 9.5q41 0 74.5 -20.5t33.5 -68.5v-125q0 -15 1 -19t4 -4q4 0 12.5 4.5t24.5 15.5v1zM163 543q-12 -5 -22.5 -9t-18.5 -7q-19 -8 -28.5 -17t-9.5 -24q0 -16 9.5 -25t25.5 -9q5 0 9.5 0.5t8.5 2.5q6 2 12 5.5t14 9.5v73v0z" />
    <glyph glyph-name="ydieresis" unicode="&#xab;" horiz-adv-x="490" 
d="M117 225l148 -225h-88l-147 225l147 225h88l-148 -225v0zM320 225l148 -225h-88l-147 225l147 225h88l-148 -225v0z" />
    <glyph glyph-name="emdash" unicode="&#xac;" 
 />
    <glyph glyph-name="uni00AD" unicode="&#xad;" horiz-adv-x="500" 
 />
    <glyph glyph-name="registered" unicode="&#xae;" horiz-adv-x="740" 
d="M738 360q0 -154 -108 -261.5t-261 -107.5t-260.5 107.5t-107.5 260.5t107.5 260.5t260.5 107.5t261 -107.5t108 -260.5v1zM677 360q0 127 -90 216.5t-218 89.5q-127 0 -217 -89.5t-90 -217.5q0 -127 90 -217.5t217 -90.5q128 0 218 90.5t90 217.5v1zM208 156v396h175
q57 -1 86.5 -23.5t38.5 -50.5q3 -8 4.5 -16t1.5 -15q0 -48 -31.5 -79.5t-81.5 -34.5v-1q14 -6 25.5 -15t23.5 -23q10 -12 20.5 -27.5t22.5 -34.5l48 -76h-78l-35 62q-19 33 -33 54t-27 32t-26.5 15t-31.5 4l-38 1v-168h-64v0zM272 379h92q37 -1 59.5 13.5t22.5 45.5
q0 27 -19.5 43t-51.5 16l-103 1v-119v0z" />
    <glyph glyph-name="glyph263" unicode="&#xaf;" 
 />
    <glyph glyph-name="glyph264" unicode="&#xb0;" 
 />
    <glyph glyph-name="mu" unicode="&#xb1;" horiz-adv-x="584" 
d="M56 82h472v-82h-472v82v0zM251 589h82v-195h195v-82h-195v-195h-82v195h-195v82h195v195v0z" />
    <glyph glyph-name="uni00B2" unicode="&#xb2;" 
 />
    <glyph glyph-name="uni00B3" unicode="&#xb3;" 
 />
    <glyph glyph-name="acute" unicode="&#xb4;" horiz-adv-x="333" 
d="M178 654h100l-112 -147h-55l67 147v0z" />
    <glyph glyph-name="oslash" unicode="&#xb5;" horiz-adv-x="552" 
d="M469 449v-449h-82v53h-2q-19 -34 -43 -48t-62 -14q-33 0 -57.5 12t-44.5 41l-2 1v-217h-89v621h89v-248q0 -74 28 -109t71 -35q50 0 77.5 37t27.5 104v251h89v0z" />
    <glyph glyph-name="paragraph" unicode="&#xb6;" horiz-adv-x="542" 
d="M198 -199v510q-92 4 -144.5 58.5t-52.5 143.5q0 97 60 149.5t170 52.5l309 1v-80h-70v-835h-83v835h-109v-835h-80v0z" />
    <glyph glyph-name="glyph265" unicode="&#xb7;" 
 />
    <glyph glyph-name="glyph121" unicode="&#xb8;" horiz-adv-x="333" 
d="M209 8l-7 -24q25 -7 39.5 -23.5t14.5 -39.5q0 -47 -32.5 -69.5t-82.5 -22.5q-10 0 -19.5 0.5t-20.5 2.5v55q8 -2 15 -2h14q24 0 39.5 7t15.5 21q0 11 -11 18.5t-34 7.5h-3t-3 -1h-3.5h-3.5l25 70h57v0z" />
    <glyph glyph-name="uni00B9" unicode="&#xb9;" 
 />
    <glyph glyph-name="Agrave" unicode="&#xba;" horiz-adv-x="365" 
d="M342 550q0 -62 -45.5 -102t-114.5 -40q-68 0 -113.5 40t-45.5 101t45.5 101t113.5 40q69 0 114.5 -40t45.5 -101v1zM273 550q0 38 -24.5 62t-65.5 24t-66 -24t-25 -63t25 -63t66 -24t65.5 24t24.5 63v1z" />
    <glyph glyph-name="Ydieresis" unicode="&#xbb;" horiz-adv-x="490" 
d="M170 225l-148 225h88l147 -225l-147 -225h-88l148 225v0zM373 225l-148 225h88l147 -225l-147 -225h-88l148 225v0z" />
    <glyph glyph-name="onequarter" unicode="&#xbc;" 
 />
    <glyph glyph-name="glyph243" unicode="&#xbd;" horiz-adv-x="844" 
d="M605 691l-455 -718h-67l455 718h67v0zM732 54v-54h-267v7q80 82 124 137.5t44 97.5q0 27 -17.5 43.5t-46.5 16.5q-27 0 -52.5 -16t-42.5 -42v79q11 7 21.5 13t21.5 11q14 5 28 8t29 3q57 0 93 -31t36 -81q0 -40 -30.5 -86.5t-91.5 -106.5l151 1v0zM195 687v-355h-69v355
h69v0z" />
    <glyph glyph-name="threequarters" unicode="&#xbe;" 
 />
    <glyph glyph-name="oe" unicode="&#xbf;" horiz-adv-x="333" 
d="M251 -97l-47 -96q-71 -1 -108 33t-48 74q-3 10 -4 19.5t-1 18.5q0 53 24 102t52 93q29 44 52.5 85t23.5 78v6t-1 6q32 -16 45.5 -37t13.5 -55q0 -40 -17.5 -74t-38.5 -65q-6 -8 -11 -16.5t-11 -16.5q-14 -23 -24 -46t-10 -48q0 -30 18 -48.5t48 -18.5q10 0 18 1t14 3
q3 0 6 0.5t6 1.5v0zM179 387q-25 -1 -42.5 16.5t-17.5 42.5t17.5 42.5t42.5 17.5t42.5 -17.5t17.5 -42.5t-17.5 -42.5t-42.5 -17.5v1z" />
    <glyph glyph-name="currency" unicode="&#xc0;" horiz-adv-x="667" 
d="M362 686l305 -686h-100l-91 201h-290l-86 -201h-100l293 686h69v0zM326 536l-102 -247h212l-110 247v0zM327 874l67 -147h-55l-112 147h100v0z" />
    <glyph glyph-name="breve" unicode="&#xc1;" horiz-adv-x="667" 
d="M362 686l305 -686h-100l-91 201h-290l-86 -201h-100l293 686h69v0zM326 536l-102 -247h212l-110 247v0zM345 874h100l-112 -147h-55l67 147v0z" />
    <glyph glyph-name="tilde" unicode="&#xc2;" horiz-adv-x="667" 
d="M362 686l305 -686h-100l-91 201h-290l-86 -201h-100l293 686h69v0zM326 536l-102 -247h212l-110 247v0zM379 877l94 -151h-55l-87 87l-83 -87h-53l91 151h93v0z" />
    <glyph glyph-name="guilsinglleft" unicode="&#xc3;" horiz-adv-x="667" 
d="M362 686l305 -686h-100l-91 201h-290l-86 -201h-100l293 686h69v0zM326 536l-102 -247h212l-110 247v0zM442 863h38q0 -54 -22 -86.5t-57 -32.5q-21 0 -38.5 5.5t-33.5 12.5q-5 1 -10 3t-9 4q-12 4 -23.5 7t-24.5 3q-15 0 -23.5 -9t-10.5 -26l-41 1q4 54 24 84t54 30
q10 0 20.5 -1.5t21.5 -4.5q9 -3 18 -5.5t18 -5.5q19 -7 35.5 -12.5t27.5 -5.5q15 0 24 9t12 29v1z" />
    <glyph glyph-name="Adieresis" unicode="&#xc4;" horiz-adv-x="667" 
d="M362 686l305 -686h-100l-91 201h-290l-86 -201h-100l293 686h69v0zM326 536l-102 -247h212l-110 247v0zM241 848q20 -1 33 -14t13 -33q0 -19 -13 -33t-33 -14q-19 0 -33 14t-14 33q0 20 14 33t33 13v1zM427 848q20 -1 33 -14t13 -33q0 -19 -13 -33t-33 -14q-19 0 -33 14
t-14 33q0 20 14 33t33 13v1z" />
    <glyph glyph-name="Aring" unicode="&#xc5;" horiz-adv-x="667" 
d="M362 686l305 -686h-100l-91 201h-290l-86 -201h-100l293 686h69v0zM326 536l-102 -247h212l-110 247v0zM334 911q38 -1 65.5 -28.5t27.5 -65.5t-27.5 -65.5t-65.5 -27.5t-65.5 27.5t-27.5 65.5t27.5 65.5t65.5 27.5v1zM334 873q-22 -1 -38.5 -17t-16.5 -39
q0 -22 16.5 -38.5t38.5 -16.5q23 0 39 16.5t16 38.5q0 23 -16 39t-39 16v1z" />
    <glyph glyph-name="Oslash" unicode="&#xc6;" horiz-adv-x="896" 
d="M851 682v-88h-280v-205h271v-88h-271v-213h291v-88h-389v301h-191l-179 -301h-101l404 682h445v0zM471 622l-139 -233h141v233h-2v0z" />
    <glyph glyph-name="Ccedilla" unicode="&#xc7;" horiz-adv-x="708" 
d="M663 158v-107q-1 -2 -2.5 -2.5t-3.5 -1.5q-48 -25 -105.5 -40.5t-155.5 -15.5l-4 -14q25 -7 39.5 -23.5t14.5 -39.5q0 -47 -32.5 -69.5t-82.5 -22.5q-10 0 -19.5 0.5t-20.5 2.5v55q8 -2 15 -2h14q24 0 39.5 7t15.5 21q0 11 -11 18.5t-34 7.5h-3t-3 -1h-3.5h-3.5l24 67
q-116 18 -184 87t-93 148q-8 25 -12 49.5t-4 47.5q0 156 105.5 258t268.5 102q53 0 108.5 -13.5t125.5 -42.5v-104q-40 22 -76.5 37.5t-73.5 23.5q-21 4 -42 6.5t-43 2.5q-117 0 -194.5 -74t-77.5 -187q0 -115 76.5 -187t199.5 -72q29 0 59 5t60 15t60 24t59 33v1z" />
    <glyph glyph-name="ring" unicode="&#xc8;" horiz-adv-x="500" 
d="M462 682v-88h-289v-206h279v-88h-279v-212h298v-88h-396v682h387v0zM244 874l67 -147h-55l-112 147h100v0z" />
    <glyph glyph-name="Eacute" unicode="&#xc9;" horiz-adv-x="500" 
d="M462 682v-88h-289v-206h279v-88h-279v-212h298v-88h-396v682h387v0zM262 874h100l-112 -147h-55l67 147v0z" />
    <glyph glyph-name="macron" unicode="&#xca;" horiz-adv-x="500" 
d="M462 682v-88h-289v-206h279v-88h-279v-212h298v-88h-396v682h387v0zM296 877l94 -151h-55l-87 87l-83 -87h-53l91 151h93v0z" />
    <glyph glyph-name="dotaccent" unicode="&#xcb;" horiz-adv-x="500" 
d="M462 682v-88h-289v-206h279v-88h-279v-212h298v-88h-396v682h387v0zM158 848q20 -1 33 -14t13 -33q0 -19 -13 -33t-33 -14q-19 0 -33 14t-14 33q0 20 14 33t33 13v1zM344 848q20 -1 33 -14t13 -33q0 -19 -13 -33t-33 -14q-19 0 -33 14t-14 33q0 20 14 33t33 13v1z" />
    <glyph glyph-name="caron" unicode="&#xcc;" horiz-adv-x="250" 
d="M174 682v-682h-98v682h98v0zM119 874l67 -147h-55l-112 147h100v0z" />
    <glyph glyph-name="cedilla" unicode="&#xcd;" horiz-adv-x="250" 
d="M174 682v-682h-98v682h98v0zM137 874h100l-112 -147h-55l67 147v0z" />
    <glyph glyph-name="hungarumlaut" unicode="&#xce;" horiz-adv-x="250" 
d="M174 682v-682h-98v682h98v0zM171 877l94 -151h-55l-87 87l-83 -87h-53l91 151h93v0z" />
    <glyph glyph-name="ogonek" unicode="&#xcf;" horiz-adv-x="250" 
d="M174 682v-682h-98v682h98v0zM33 848q20 -1 33 -14t13 -33q0 -19 -13 -33t-33 -14q-19 0 -32.5 14t-13.5 33q0 20 13.5 33t32.5 13v1zM219 848q20 -1 33 -14t13 -33q0 -19 -13 -33t-33 -14q-19 0 -33 14t-14 33q0 20 14 33t33 13v1z" />
    <glyph glyph-name="glyph232" unicode="&#xd0;" horiz-adv-x="750" 
d="M76 0v297h-80v88h80v297h265q171 -1 267 -106.5t96 -235.5q0 -133 -96.5 -236.5t-265.5 -103.5h-266v0zM174 88h158q114 -1 192.5 64.5t78.5 187.5q0 103 -67.5 178t-210.5 75l-151 1v-209h193v-88h-193v-209v0z" />
    <glyph glyph-name="Ntilde" unicode="&#xd1;" horiz-adv-x="781" 
d="M706 682v-682h-84l-456 525v-525h-92v682h78l462 -528v528h92v0zM499 863h38q0 -54 -22 -86.5t-57 -32.5q-21 0 -38.5 5.5t-33.5 12.5q-5 1 -10 3t-9 4q-12 4 -23.5 7t-24.5 3q-15 0 -23.5 -9t-10.5 -26l-41 1q4 54 24 84t54 30q10 0 20.5 -1.5t21.5 -4.5q9 -3 18 -5.5
t18 -5.5q19 -7 35.5 -12.5t27.5 -5.5q15 0 24 9t12 29v1z" />
    <glyph glyph-name="scaron" unicode="&#xd2;" 
 />
    <glyph glyph-name="Lslash" unicode="&#xd3;" horiz-adv-x="823" 
d="M45 341q0 141 100 245t266 104q169 0 268 -103.5t99 -246.5q0 -138 -98 -243.5t-271 -105.5q-167 0 -265.5 105t-98.5 244v1zM146 341q0 -113 75.5 -187t189.5 -74q115 0 190.5 74t75.5 186q0 113 -75.5 186.5t-190.5 73.5q-114 0 -189.5 -73.5t-75.5 -186.5v1zM423 874
h100l-112 -147h-55l67 147v0z" />
    <glyph glyph-name="lslash" unicode="&#xd4;" horiz-adv-x="823" 
d="M45 341q0 141 100 245t266 104q169 0 268 -103.5t99 -246.5q0 -138 -98 -243.5t-271 -105.5q-167 0 -265.5 105t-98.5 244v1zM146 341q0 -113 75.5 -187t189.5 -74q115 0 190.5 74t75.5 186q0 113 -75.5 186.5t-190.5 73.5q-114 0 -189.5 -73.5t-75.5 -186.5v1zM457 877
l94 -151h-55l-87 87l-83 -87h-53l91 151h93v0z" />
    <glyph glyph-name="guilsinglright" unicode="&#xd5;" horiz-adv-x="823" 
d="M45 341q0 141 100 245t266 104q169 0 268 -103.5t99 -246.5q0 -138 -98 -243.5t-271 -105.5q-167 0 -265.5 105t-98.5 244v1zM146 341q0 -113 75.5 -187t189.5 -74q115 0 190.5 74t75.5 186q0 113 -75.5 186.5t-190.5 73.5q-114 0 -189.5 -73.5t-75.5 -186.5v1zM520 863
h38q0 -54 -22 -86.5t-57 -32.5q-21 0 -38.5 5.5t-33.5 12.5q-5 1 -10 3t-9 4q-12 4 -23.5 7t-24.5 3q-15 0 -23.5 -9t-10.5 -26l-41 1q4 54 24 84t54 30q10 0 20.5 -1.5t21.5 -4.5q9 -3 18 -5.5t18 -5.5q19 -7 35.5 -12.5t27.5 -5.5q15 0 24 9t12 29v1z" />
    <glyph glyph-name="Odieresis" unicode="&#xd6;" horiz-adv-x="823" 
d="M45 341q0 141 100 245t266 104q169 0 268 -103.5t99 -246.5q0 -138 -98 -243.5t-271 -105.5q-167 0 -265.5 105t-98.5 244v1zM146 341q0 -113 75.5 -187t189.5 -74q115 0 190.5 74t75.5 186q0 113 -75.5 186.5t-190.5 73.5q-114 0 -189.5 -73.5t-75.5 -186.5v1zM319 848
q20 -1 33 -14t13 -33q0 -19 -13 -33t-33 -14q-19 0 -33 14t-14 33q0 20 14 33t33 13v1zM505 848q20 -1 33 -14t13 -33q0 -19 -13 -33t-33 -14q-19 0 -33 14t-14 33q0 20 14 33t33 13v1z" />
    <glyph glyph-name="multiply" unicode="&#xd7;" 
 />
    <glyph glyph-name="plusminus" unicode="&#xd8;" horiz-adv-x="823" 
d="M198 51l-47 -55l-47 33l49 57q-52 51 -80 115t-28 139q0 142 100 246t266 104q62 0 113.5 -14t95.5 -43l51 60l46 -40l-48 -56q47 -43 75 -104t33 -125q0 -7 0.5 -14t0.5 -14q0 -138 -98 -243.5t-271 -105.5q-8 0 -16.5 0.5t-16.5 0.5q-48 4 -94 18.5t-84 39.5v1z
M605 523l-344 -399q31 -20 67.5 -32t82.5 -12q115 0 190.5 74t75.5 186q0 56 -19.5 102t-52.5 80v1zM216 160l342 401q-2 0 -3.5 1t-3.5 2q-31 17 -64 26.5t-76 9.5q-114 0 -189.5 -73.5t-75.5 -186.5q0 -55 18.5 -99t51.5 -82v1z" />
    <glyph glyph-name="Thorn" unicode="&#xd9;" horiz-adv-x="708" 
d="M648 682v-414q0 -126 -75.5 -201.5t-227.5 -75.5q-108 0 -196 63.5t-88 202.5v425h98v-403q0 -59 9 -88.5t32 -52.5q29 -29 66 -43.5t81 -14.5q56 0 96.5 16t63.5 39q26 26 34.5 63.5t8.5 85.5v398h98v0zM348 874l67 -147h-55l-112 147h100v0z" />
    <glyph glyph-name="Eth" unicode="&#xda;" horiz-adv-x="708" 
d="M648 682v-414q0 -126 -75.5 -201.5t-227.5 -75.5q-108 0 -196 63.5t-88 202.5v425h98v-403q0 -59 9 -88.5t32 -52.5q29 -29 66 -43.5t81 -14.5q56 0 96.5 16t63.5 39q26 26 34.5 63.5t8.5 85.5v398h98v0zM366 874h100l-112 -147h-55l67 147v0z" />
    <glyph glyph-name="eth" unicode="&#xdb;" horiz-adv-x="708" 
d="M648 682v-414q0 -126 -75.5 -201.5t-227.5 -75.5q-108 0 -196 63.5t-88 202.5v425h98v-403q0 -59 9 -88.5t32 -52.5q29 -29 66 -43.5t81 -14.5q56 0 96.5 16t63.5 39q26 26 34.5 63.5t8.5 85.5v398h98v0zM400 877l94 -151h-55l-87 87l-83 -87h-53l91 151h93v0z" />
    <glyph glyph-name="Udieresis" unicode="&#xdc;" horiz-adv-x="708" 
d="M648 682v-414q0 -126 -75.5 -201.5t-227.5 -75.5q-108 0 -196 63.5t-88 202.5v425h98v-403q0 -59 9 -88.5t32 -52.5q29 -29 66 -43.5t81 -14.5q56 0 96.5 16t63.5 39q26 26 34.5 63.5t8.5 85.5v398h98v0zM262 848q20 -1 33 -14t13 -33q0 -19 -13 -33t-33 -14
q-19 0 -33 14t-14 33q0 20 14 33t33 13v1zM448 848q20 -1 33 -14t13 -33q0 -19 -13 -33t-33 -14q-19 0 -33 14t-14 33q0 20 14 33t33 13v1z" />
    <glyph glyph-name="Yacute" unicode="&#xdd;" 
 />
    <glyph glyph-name="glyph236" unicode="&#xde;" horiz-adv-x="510" 
d="M70 682h98v-148h115q112 -1 164.5 -58.5t52.5 -138.5q0 -80 -55.5 -135.5t-174.5 -55.5l-102 1v-147h-98v682v0zM168 446v-211h111q55 -1 87.5 27t32.5 79v5.5v4.5q-3 35 -28.5 64.5t-87.5 29.5l-115 1v0z" />
    <glyph glyph-name="germandbls" unicode="&#xdf;" horiz-adv-x="500" 
d="M59 0v517q0 83 53 128t137 45q89 0 139.5 -44t50.5 -121q0 -51 -26.5 -90.5t-72.5 -58.5v-1q60 -16 93.5 -63t33.5 -117q0 -92 -49.5 -148t-130.5 -56h-9.5t-8.5 1q-10 1 -20 2.5t-26 5.5v87q8 -4 13.5 -6.5t10.5 -3.5t11 -1.5t13 -0.5q47 0 76 33.5t29 88.5
q0 51 -27.5 92.5t-110.5 41.5h-3.5h-3.5v81q2 -1 3.5 -1h2.5q55 0 83 27.5t28 76.5q0 45 -28 75.5t-70 30.5q-43 0 -72.5 -25t-29.5 -91v-505h-89v0z" />
    <glyph glyph-name="agrave" unicode="&#xe0;" horiz-adv-x="427" 
d="M411 80v-54q-21 -15 -35 -22t-27 -10q-6 -2 -11.5 -2.5t-12.5 -0.5q-29 0 -45.5 10.5t-22.5 34.5q-29 -23 -59.5 -34t-61.5 -11q-49 0 -79.5 33t-30.5 76q0 60 41 88t90 46q6 2 11.5 4t10.5 4l79 29v24q0 41 -20 59.5t-61 18.5q-5 0 -9.5 -0.5t-8.5 -0.5
q-33 -4 -64.5 -22t-59.5 -51v98q26 30 63 45t86 15q68 0 115.5 -35.5t47.5 -112.5v-230q0 -14 4.5 -19t12.5 -5q7 0 19.5 6.5t27.5 17.5v1zM258 91v131q-57 -20 -99.5 -43t-42.5 -63q0 -28 18 -45.5t46 -17.5q21 0 40.5 10t37.5 27v1zM187 654l67 -147h-55l-112 147h100v0z
" />
    <glyph glyph-name="aacute" unicode="&#xe1;" horiz-adv-x="427" 
d="M411 80v-54q-21 -15 -35 -22t-27 -10q-6 -2 -11.5 -2.5t-12.5 -0.5q-29 0 -45.5 10.5t-22.5 34.5q-29 -23 -59.5 -34t-61.5 -11q-49 0 -79.5 33t-30.5 76q0 60 41 88t90 46q6 2 11.5 4t10.5 4l79 29v24q0 41 -20 59.5t-61 18.5q-5 0 -9.5 -0.5t-8.5 -0.5
q-33 -4 -64.5 -22t-59.5 -51v98q26 30 63 45t86 15q68 0 115.5 -35.5t47.5 -112.5v-230q0 -14 4.5 -19t12.5 -5q7 0 19.5 6.5t27.5 17.5v1zM258 91v131q-57 -20 -99.5 -43t-42.5 -63q0 -28 18 -45.5t46 -17.5q21 0 40.5 10t37.5 27v1zM225 654h100l-112 -147h-55l67 147v0z
" />
    <glyph glyph-name="acircumflex" unicode="&#xe2;" horiz-adv-x="427" 
d="M411 80v-54q-21 -15 -35 -22t-27 -10q-6 -2 -11.5 -2.5t-12.5 -0.5q-29 0 -45.5 10.5t-22.5 34.5q-29 -23 -59.5 -34t-61.5 -11q-49 0 -79.5 33t-30.5 76q0 60 41 88t90 46q6 2 11.5 4t10.5 4l79 29v24q0 41 -20 59.5t-61 18.5q-5 0 -9.5 -0.5t-8.5 -0.5
q-33 -4 -64.5 -22t-59.5 -51v98q26 30 63 45t86 15q68 0 115.5 -35.5t47.5 -112.5v-230q0 -14 4.5 -19t12.5 -5q7 0 19.5 6.5t27.5 17.5v1zM258 91v131q-57 -20 -99.5 -43t-42.5 -63q0 -28 18 -45.5t46 -17.5q21 0 40.5 10t37.5 27v1zM239 657l94 -151h-55l-87 87l-83 -87
h-53l91 151h93v0z" />
    <glyph glyph-name="atilde" unicode="&#xe3;" horiz-adv-x="427" 
d="M411 80v-54q-21 -15 -35 -22t-27 -10q-6 -2 -11.5 -2.5t-12.5 -0.5q-29 0 -45.5 10.5t-22.5 34.5q-29 -23 -59.5 -34t-61.5 -11q-49 0 -79.5 33t-30.5 76q0 60 41 88t90 46q6 2 11.5 4t10.5 4l79 29v24q0 41 -20 59.5t-61 18.5q-5 0 -9.5 -0.5t-8.5 -0.5
q-33 -4 -64.5 -22t-59.5 -51v98q26 30 63 45t86 15q68 0 115.5 -35.5t47.5 -112.5v-230q0 -14 4.5 -19t12.5 -5q7 0 19.5 6.5t27.5 17.5v1zM258 91v131q-57 -20 -99.5 -43t-42.5 -63q0 -28 18 -45.5t46 -17.5q21 0 40.5 10t37.5 27v1zM302 643h38q0 -54 -22 -86.5t-57 -32.5
q-21 0 -38.5 5.5t-33.5 12.5q-5 1 -10 3t-9 4q-12 4 -23.5 7t-24.5 3q-15 0 -23.5 -9t-10.5 -26l-41 1q4 54 24 84t54 30q10 0 20.5 -1.5t21.5 -4.5q9 -3 18 -5.5t18 -5.5q19 -7 35.5 -12.5t27.5 -5.5q15 0 24 9t12 29v1z" />
    <glyph glyph-name="adieresis" unicode="&#xe4;" horiz-adv-x="427" 
d="M411 80v-54q-21 -15 -35 -22t-27 -10q-6 -2 -11.5 -2.5t-12.5 -0.5q-29 0 -45.5 10.5t-22.5 34.5q-29 -23 -59.5 -34t-61.5 -11q-49 0 -79.5 33t-30.5 76q0 60 41 88t90 46q6 2 11.5 4t10.5 4l79 29v24q0 41 -20 59.5t-61 18.5q-5 0 -9.5 -0.5t-8.5 -0.5
q-33 -4 -64.5 -22t-59.5 -51v98q26 30 63 45t86 15q68 0 115.5 -35.5t47.5 -112.5v-230q0 -14 4.5 -19t12.5 -5q7 0 19.5 6.5t27.5 17.5v1zM258 91v131q-57 -20 -99.5 -43t-42.5 -63q0 -28 18 -45.5t46 -17.5q21 0 40.5 10t37.5 27v1zM101 628q20 -1 33 -14t13 -33
q0 -19 -13 -33t-33 -14q-19 0 -33 14t-14 33q0 20 14 33t33 13v1zM287 628q20 -1 33 -14t13 -33q0 -19 -13 -33t-33 -14q-19 0 -33 14t-14 33q0 20 14 33t33 13v1z" />
    <glyph glyph-name="aring" unicode="&#xe5;" horiz-adv-x="427" 
d="M411 80v-54q-21 -15 -35 -22t-27 -10q-6 -2 -11.5 -2.5t-12.5 -0.5q-29 0 -45.5 10.5t-22.5 34.5q-29 -23 -59.5 -34t-61.5 -11q-49 0 -79.5 33t-30.5 76q0 60 41 88t90 46q6 2 11.5 4t10.5 4l79 29v24q0 41 -20 59.5t-61 18.5q-5 0 -9.5 -0.5t-8.5 -0.5
q-33 -4 -64.5 -22t-59.5 -51v98q26 30 63 45t86 15q68 0 115.5 -35.5t47.5 -112.5v-230q0 -14 4.5 -19t12.5 -5q7 0 19.5 6.5t27.5 17.5v1zM258 91v131q-57 -20 -99.5 -43t-42.5 -63q0 -28 18 -45.5t46 -17.5q21 0 40.5 10t37.5 27v1zM194 691q38 -1 65.5 -28.5t27.5 -65.5
t-27.5 -65.5t-65.5 -27.5t-65.5 27.5t-27.5 65.5t27.5 65.5t65.5 27.5v1zM194 653q-22 -1 -38.5 -17t-16.5 -39q0 -22 16.5 -38.5t38.5 -16.5q23 0 39 16.5t16 38.5q0 23 -16 39t-39 16v1z" />
    <glyph glyph-name="Otilde" unicode="&#xe6;" horiz-adv-x="667" 
d="M629 128v-89q-30 -23 -68.5 -35.5t-82.5 -12.5q-49 0 -91 19t-63 50q-43 -35 -86.5 -52t-85.5 -17q-51 0 -84 32t-33 82q0 58 46 90.5t141 60.5q9 3 19 5.5t21 5.5q1 5 1 10.5v10.5q0 44 -17 66.5t-55 22.5q-35 0 -64.5 -12.5t-57.5 -38.5q-6 -6 -12 -12.5t-12 -13.5v108
q26 21 63 35t82 14q41 0 76.5 -15.5t57.5 -42.5q19 18 42.5 31.5t48.5 20.5q11 3 21 4.5t20 1.5q75 0 123.5 -53t47.5 -147v-7.5v-7.5l-276 1q0 -88 42 -130.5t97 -42.5q11 0 21.5 1.5t20.5 3.5q23 6 46.5 19t50.5 33v1zM262 224q-21 -9 -39.5 -16.5t-33.5 -14.5
q-31 -15 -47 -31.5t-16 -38.5q0 -30 18 -51t43 -21h9.5t8.5 1q10 2 22.5 7.5t34.5 18.5v146v0zM362 302h177q-5 38 -25.5 56.5t-61.5 18.5q-31 0 -54.5 -20.5t-35.5 -55.5v1z" />
    <glyph glyph-name="ccedilla" unicode="&#xe7;" horiz-adv-x="438" 
d="M403 105v-88q-21 -11 -56.5 -18t-74.5 -8h-5h-6l-4 -14q25 -7 39.5 -23.5t14.5 -39.5q0 -47 -32.5 -69.5t-82.5 -22.5q-10 0 -19.5 0.5t-20.5 2.5v55q8 -2 15 -2h14q24 0 39.5 7t15.5 21q0 11 -11 18.5t-34 7.5h-3t-3 -1h-3.5h-3.5l24 68q-74 17 -119.5 75.5t-45.5 140.5
q0 111 60 176.5t162 65.5q27 0 48.5 -4t41.5 -11q10 -3 20 -7t20 -9v-94q-30 19 -53 28.5t-45 12.5q-6 1 -12.5 1.5t-13.5 0.5q-61 0 -99 -42t-38 -110q0 -70 41.5 -109.5t110.5 -39.5h10t11 1q23 2 46.5 9.5t51.5 19.5v1z" />
    <glyph glyph-name="egrave" unicode="&#xe8;" horiz-adv-x="479" 
d="M438 130v-86q-6 -5 -12.5 -9t-12.5 -7q-34 -20 -70 -28.5t-84 -8.5q-105 0 -161.5 72.5t-56.5 165.5q0 102 58.5 165t151.5 63q89 0 142 -61t53 -186l-316 1q11 -68 49 -102t102 -34q30 0 59.5 8t58.5 23q10 5 19.5 11t19.5 12v1zM132 270h226q-2 50 -30 80t-75 30
q-51 0 -81.5 -29t-39.5 -82v1zM233 654l67 -147h-55l-112 147h100v0z" />
    <glyph glyph-name="eacute" unicode="&#xe9;" horiz-adv-x="479" 
d="M438 130v-86q-6 -5 -12.5 -9t-12.5 -7q-34 -20 -70 -28.5t-84 -8.5q-105 0 -161.5 72.5t-56.5 165.5q0 102 58.5 165t151.5 63q89 0 142 -61t53 -186l-316 1q11 -68 49 -102t102 -34q30 0 59.5 8t58.5 23q10 5 19.5 11t19.5 12v1zM132 270h226q-2 50 -30 80t-75 30
q-51 0 -81.5 -29t-39.5 -82v1zM251 654h100l-112 -147h-55l67 147v0z" />
    <glyph glyph-name="ecircumflex" unicode="&#xea;" horiz-adv-x="479" 
d="M438 130v-86q-6 -5 -12.5 -9t-12.5 -7q-34 -20 -70 -28.5t-84 -8.5q-105 0 -161.5 72.5t-56.5 165.5q0 102 58.5 165t151.5 63q89 0 142 -61t53 -186l-316 1q11 -68 49 -102t102 -34q30 0 59.5 8t58.5 23q10 5 19.5 11t19.5 12v1zM132 270h226q-2 50 -30 80t-75 30
q-51 0 -81.5 -29t-39.5 -82v1zM285 657l94 -151h-55l-87 87l-83 -87h-53l91 151h93v0z" />
    <glyph glyph-name="edieresis" unicode="&#xeb;" horiz-adv-x="479" 
d="M438 130v-86q-6 -5 -12.5 -9t-12.5 -7q-34 -20 -70 -28.5t-84 -8.5q-105 0 -161.5 72.5t-56.5 165.5q0 102 58.5 165t151.5 63q89 0 142 -61t53 -186l-316 1q11 -68 49 -102t102 -34q30 0 59.5 8t58.5 23q10 5 19.5 11t19.5 12v1zM132 270h226q-2 50 -30 80t-75 30
q-51 0 -81.5 -29t-39.5 -82v1zM147 628q20 -1 33 -14t13 -33q0 -19 -13 -33t-33 -14q-19 0 -33 14t-14 33q0 20 14 33t33 13v1zM333 628q20 -1 33 -14t13 -33q0 -19 -13 -33t-33 -14q-19 0 -33 14t-14 33q0 20 14 33t33 13v1z" />
    <glyph glyph-name="igrave" unicode="&#xec;" horiz-adv-x="219" 
d="M154 449v-449h-89v449h89v0zM103 654l67 -147h-55l-112 147h100v0z" />
    <glyph glyph-name="iacute" unicode="&#xed;" horiz-adv-x="219" 
d="M154 449v-449h-89v449h89v0zM121 654h100l-112 -147h-55l67 147v0z" />
    <glyph glyph-name="icircumflex" unicode="&#xee;" horiz-adv-x="219" 
d="M154 449v-449h-89v449h89v0zM155 657l94 -151h-55l-87 87l-83 -87h-53l91 151h93v0z" />
    <glyph glyph-name="idieresis" unicode="&#xef;" horiz-adv-x="219" 
d="M154 449v-449h-89v449h89v0zM17 628q20 -1 33 -14t13 -33q0 -19 -13 -33t-33 -14q-19 0 -32.5 14t-13.5 33q0 20 13.5 33t32.5 13v1zM203 628q20 -1 33 -14t13 -33q0 -19 -13 -33t-33 -14q-19 0 -33 14t-14 33q0 20 14 33t33 13v1z" />
    <glyph glyph-name="glyph233" unicode="&#xf0;" horiz-adv-x="563" 
d="M502 637l-103 -49q32 -37 54.5 -77.5t36.5 -81.5q13 -39 19.5 -76.5t6.5 -71.5q0 -144 -64 -217t-179 -73q-103 0 -170 67t-67 170q0 97 68.5 163t168.5 66q15 0 37.5 -3t46.5 -12q11 -5 22.5 -11.5t21.5 -15.5l2 3q-7 19 -21 42t-32 47q-8 10 -17 20l-18 20l-133 -62
l-28 53l113 53q-16 11 -32.5 21t-34.5 18l61 60q26 -12 49 -27t43 -32l121 59l28 -53v0zM127 229q0 -72 40.5 -115.5t104.5 -43.5q71 0 112 42t41 115q0 65 -43 107.5t-110 42.5q-63 0 -104 -42t-41 -107v1z" />
    <glyph glyph-name="ntilde" unicode="&#xf1;" horiz-adv-x="500" 
d="M150 449v-59h2q26 31 61.5 49t72.5 18q64 0 108.5 -44.5t44.5 -136.5v-276h-89v278q0 49 -23.5 78.5t-64.5 29.5q-12 0 -23.5 -2.5t-22.5 -7.5q-16 -8 -32 -21.5t-34 -33.5v-321h-89v449h89v0zM359 643h38q0 -54 -22 -86.5t-57 -32.5q-21 0 -38.5 5.5t-33.5 12.5
q-5 1 -10 3t-9 4q-12 4 -23.5 7t-24.5 3q-15 0 -23.5 -9t-10.5 -26l-41 1q4 54 24 84t54 30q10 0 20.5 -1.5t21.5 -4.5q9 -3 18 -5.5t18 -5.5q19 -7 35.5 -12.5t27.5 -5.5q15 0 24 9t12 29v1z" />
    <glyph glyph-name="ograve" unicode="&#xf2;" horiz-adv-x="552" 
d="M273 458q106 -1 174.5 -65.5t68.5 -164.5q0 -106 -67.5 -171.5t-175.5 -65.5q-103 0 -170 67t-67 170q0 97 68.5 163t168.5 66v1zM272 378q-63 -1 -104 -43t-41 -107q0 -71 40.5 -114.5t104.5 -43.5q71 0 112 42t41 115q0 65 -43 107.5t-110 42.5v1zM270 654l67 -147h-55
l-112 147h100v0z" />
    <glyph glyph-name="oacute" unicode="&#xf3;" horiz-adv-x="552" 
d="M273 458q106 -1 174.5 -65.5t68.5 -164.5q0 -106 -67.5 -171.5t-175.5 -65.5q-103 0 -170 67t-67 170q0 97 68.5 163t168.5 66v1zM272 378q-63 -1 -104 -43t-41 -107q0 -71 40.5 -114.5t104.5 -43.5q71 0 112 42t41 115q0 65 -43 107.5t-110 42.5v1zM288 654h100
l-112 -147h-55l67 147v0z" />
    <glyph glyph-name="ocircumflex" unicode="&#xf4;" horiz-adv-x="552" 
d="M273 458q106 -1 174.5 -65.5t68.5 -164.5q0 -106 -67.5 -171.5t-175.5 -65.5q-103 0 -170 67t-67 170q0 97 68.5 163t168.5 66v1zM272 378q-63 -1 -104 -43t-41 -107q0 -71 40.5 -114.5t104.5 -43.5q71 0 112 42t41 115q0 65 -43 107.5t-110 42.5v1zM322 657l94 -151h-55
l-87 87l-83 -87h-53l91 151h93v0z" />
    <glyph glyph-name="otilde" unicode="&#xf5;" horiz-adv-x="552" 
d="M273 458q106 -1 174.5 -65.5t68.5 -164.5q0 -106 -67.5 -171.5t-175.5 -65.5q-103 0 -170 67t-67 170q0 97 68.5 163t168.5 66v1zM272 378q-63 -1 -104 -43t-41 -107q0 -71 40.5 -114.5t104.5 -43.5q71 0 112 42t41 115q0 65 -43 107.5t-110 42.5v1zM385 643h38
q0 -54 -22 -86.5t-57 -32.5q-21 0 -38.5 5.5t-33.5 12.5q-5 1 -10 3t-9 4q-12 4 -23.5 7t-24.5 3q-15 0 -23.5 -9t-10.5 -26l-41 1q4 54 24 84t54 30q10 0 20.5 -1.5t21.5 -4.5q9 -3 18 -5.5t18 -5.5q19 -7 35.5 -12.5t27.5 -5.5q15 0 24 9t12 29v1z" />
    <glyph glyph-name="odieresis" unicode="&#xf6;" horiz-adv-x="552" 
d="M273 458q106 -1 174.5 -65.5t68.5 -164.5q0 -106 -67.5 -171.5t-175.5 -65.5q-103 0 -170 67t-67 170q0 97 68.5 163t168.5 66v1zM272 378q-63 -1 -104 -43t-41 -107q0 -71 40.5 -114.5t104.5 -43.5q71 0 112 42t41 115q0 65 -43 107.5t-110 42.5v1zM184 628
q20 -1 33 -14t13 -33q0 -19 -13 -33t-33 -14q-19 0 -33 14t-14 33q0 20 14 33t33 13v1zM370 628q20 -1 33 -14t13 -33q0 -19 -13 -33t-33 -14q-19 0 -33 14t-14 33q0 20 14 33t33 13v1z" />
    <glyph glyph-name="Aacute" unicode="&#xf7;" 
 />
    <glyph glyph-name="OE" unicode="&#xf8;" horiz-adv-x="552" 
d="M138 29l-56 -66l-33 30l55 64q-31 31 -49.5 75t-18.5 96q0 97 68.5 163t168.5 66q42 0 78.5 -10.5t61.5 -28.5l47 55l33 -30l-44 -51q33 -34 50 -75t17 -89q0 -106 -67.5 -171.5t-175.5 -65.5q-40 0 -74.5 10.5t-60.5 26.5v1zM392 325l-199 -232q17 -11 35.5 -17t43.5 -6
q71 0 112 42t41 115q0 10 -2 22t-5 25q-4 13 -10.5 26t-15.5 24v1zM160 123l199 232q-1 0 -2 0.5l-3 1.5q-14 7 -35 13.5t-47 6.5q-63 0 -104 -42t-41 -107q0 -8 0.5 -16.5t2.5 -16.5q3 -20 10.5 -39t19.5 -34v1z" />
    <glyph glyph-name="ugrave" unicode="&#xf9;" horiz-adv-x="500" 
d="M437 0h-89v57q-18 -21 -40 -35.5t-45 -21.5q-12 -4 -24.5 -6.5t-23.5 -2.5q-68 0 -111.5 46.5t-43.5 131.5v280h89v-285q0 -48 23 -74t69 -26q30 0 57.5 16t49.5 47v322h89v-449v0zM244 654l67 -147h-55l-112 147h100v0z" />
    <glyph glyph-name="uacute" unicode="&#xfa;" horiz-adv-x="500" 
d="M437 0h-89v57q-18 -21 -40 -35.5t-45 -21.5q-12 -4 -24.5 -6.5t-23.5 -2.5q-68 0 -111.5 46.5t-43.5 131.5v280h89v-285q0 -48 23 -74t69 -26q30 0 57.5 16t49.5 47v322h89v-449v0zM262 654h100l-112 -147h-55l67 147v0z" />
    <glyph glyph-name="ucircumflex" unicode="&#xfb;" horiz-adv-x="500" 
d="M437 0h-89v57q-18 -21 -40 -35.5t-45 -21.5q-12 -4 -24.5 -6.5t-23.5 -2.5q-68 0 -111.5 46.5t-43.5 131.5v280h89v-285q0 -48 23 -74t69 -26q30 0 57.5 16t49.5 47v322h89v-449v0zM296 657l94 -151h-55l-87 87l-83 -87h-53l91 151h93v0z" />
    <glyph glyph-name="udieresis" unicode="&#xfc;" horiz-adv-x="500" 
d="M437 0h-89v57q-18 -21 -40 -35.5t-45 -21.5q-12 -4 -24.5 -6.5t-23.5 -2.5q-68 0 -111.5 46.5t-43.5 131.5v280h89v-285q0 -48 23 -74t69 -26q30 0 57.5 16t49.5 47v322h89v-449v0zM158 628q20 -1 33 -14t13 -33q0 -19 -13 -33t-33 -14q-19 0 -33 14t-14 33q0 20 14 33
t33 13v1zM344 628q20 -1 33 -14t13 -33q0 -19 -13 -33t-33 -14q-19 0 -33 14t-14 33q0 20 14 33t33 13v1z" />
    <glyph glyph-name="yacute" unicode="&#xfd;" 
 />
    <glyph glyph-name="glyph237" unicode="&#xfe;" horiz-adv-x="500" 
d="M146 11v-241h-89v912h89v-233h65q123 -1 188 -59.5t65 -169.5q0 -101 -64 -165t-164 -64h-9.5t-9.5 1q-17 2 -34 6t-37 12v1zM146 369v-278q14 -7 28 -11.5t28 -7.5q7 -1 14 -1.5t14 -0.5q62 0 102.5 43t40.5 108q0 70 -36.5 108.5t-109.5 38.5l-81 1v0z" />
    <glyph glyph-name="Egrave" unicode="&#xff;" horiz-adv-x="438" 
d="M438 449l-318 -679h-99l153 326l-174 353h101l121 -253l116 253h100v0zM127 628q20 -1 33 -14t13 -33q0 -19 -13 -33t-33 -14q-19 0 -33 14t-14 33q0 20 14 33t33 13v1zM313 628q20 -1 33 -14t13 -33q0 -19 -13 -33t-33 -14q-19 0 -33 14t-14 33q0 20 14 33t33 13v1z" />
    <glyph glyph-name="Abreve" unicode="&#x102;" 
 />
    <glyph glyph-name="abreve" unicode="&#x103;" 
 />
    <glyph glyph-name="Aogonek" unicode="&#x104;" 
 />
    <glyph glyph-name="aogonek" unicode="&#x105;" 
 />
    <glyph glyph-name="Cacute" unicode="&#x106;" 
 />
    <glyph glyph-name="cacute" unicode="&#x107;" 
 />
    <glyph glyph-name="Ccaron" unicode="&#x10c;" 
 />
    <glyph glyph-name="ccaron" unicode="&#x10d;" 
 />
    <glyph glyph-name="Dcaron" unicode="&#x10e;" 
 />
    <glyph glyph-name="dcaron" unicode="&#x10f;" 
 />
    <glyph glyph-name="Dcroat" unicode="&#x110;" 
 />
    <glyph glyph-name="dcroat" unicode="&#x111;" 
 />
    <glyph glyph-name="Eogonek" unicode="&#x118;" 
 />
    <glyph glyph-name="eogonek" unicode="&#x119;" 
 />
    <glyph glyph-name="Ecaron" unicode="&#x11a;" 
 />
    <glyph glyph-name="ecaron" unicode="&#x11b;" 
 />
    <glyph glyph-name="Gbreve" unicode="&#x11e;" 
 />
    <glyph glyph-name="gbreve" unicode="&#x11f;" 
 />
    <glyph glyph-name="Idotaccent" unicode="&#x130;" 
 />
    <glyph glyph-name="thorn" unicode="&#x131;" horiz-adv-x="219" 
d="M154 449v-449h-89v449h89v0z" />
    <glyph glyph-name="Lacute" unicode="&#x139;" 
 />
    <glyph glyph-name="lacute" unicode="&#x13a;" 
 />
    <glyph glyph-name="Lcaron" unicode="&#x13d;" 
 />
    <glyph glyph-name="lcaron" unicode="&#x13e;" 
 />
    <glyph glyph-name="Ldot" unicode="&#x13f;" 
 />
    <glyph glyph-name="ldot" unicode="&#x140;" 
 />
    <glyph glyph-name="glyph225" unicode="&#x141;" horiz-adv-x="490" 
d="M310 536v-88l-138 -114v-246h308v-88h-406v263l-89 -73v88l89 73v331h98v-260l138 114v0z" />
    <glyph glyph-name="glyph226" unicode="&#x142;" horiz-adv-x="219" 
d="M233 482v-78l-79 -64v-340h-89v276l-79 -64v78l79 64v328h89v-264l79 64v0z" />
    <glyph glyph-name="Nacute" unicode="&#x143;" 
 />
    <glyph glyph-name="nacute" unicode="&#x144;" 
 />
    <glyph glyph-name="Ncaron" unicode="&#x147;" 
 />
    <glyph glyph-name="ncaron" unicode="&#x148;" 
 />
    <glyph glyph-name="Ohungarumlaut" unicode="&#x150;" 
 />
    <glyph glyph-name="ohungarumlaut" unicode="&#x151;" 
 />
    <glyph glyph-name="fi" unicode="&#x152;" horiz-adv-x="917" 
d="M875 682v-88h-279v-205h269v-88h-269v-213h290v-88h-444q-166 0 -280.5 91.5t-114.5 247.5q0 152 107.5 247t278.5 95l442 1v0zM498 85v512h-57q-145 -1 -219 -79.5t-74 -177.5q0 -109 81 -182.5t201 -73.5l68 1v0z" />
    <glyph glyph-name="fl" unicode="&#x153;" horiz-adv-x="833" 
d="M798 129v-90q-28 -19 -64 -33.5t-98 -14.5q-55 0 -98 22.5t-69 65.5q-35 -43 -85 -65.5t-110 -22.5q-98 0 -168.5 65.5t-70.5 156.5q0 108 68 176t177 68q61 0 106.5 -22.5t82.5 -70.5q27 46 69 69.5t92 23.5q65 0 116 -50t50 -149v-4v-4v-4v-4l-280 1v-5.5v-4.5
q-1 -3 -1 -5.5v-4.5q1 -70 40.5 -111.5t99.5 -41.5q17 0 32.5 2.5t31.5 8.5q19 7 38.5 18.5t40.5 28.5v1zM278 378q-67 -1 -109.5 -47t-42.5 -114q0 -59 43.5 -103t105.5 -44q68 0 108 44t40 112q0 61 -41.5 106t-103.5 45v1zM525 302h183q-4 36 -24.5 55.5t-58.5 19.5
q-37 0 -62.5 -19t-37.5 -57v1z" />
    <glyph glyph-name="Racute" unicode="&#x154;" 
 />
    <glyph glyph-name="racute" unicode="&#x155;" 
 />
    <glyph glyph-name="Rcaron" unicode="&#x158;" 
 />
    <glyph glyph-name="rcaron" unicode="&#x159;" 
 />
    <glyph glyph-name="Sacute" unicode="&#x15a;" 
 />
    <glyph glyph-name="sacute" unicode="&#x15b;" 
 />
    <glyph glyph-name="Scedilla" unicode="&#x15e;" 
 />
    <glyph glyph-name="scedilla" unicode="&#x15f;" 
 />
    <glyph glyph-name="glyph227" unicode="&#x160;" horiz-adv-x="458" 
d="M399 643v-111q-43 40 -84 55t-76 15q-47 0 -77.5 -22.5t-30.5 -58.5q0 -37 27.5 -62.5t67.5 -48.5q12 -7 25.5 -14.5t27.5 -15.5q55 -32 101 -78t46 -127q0 -80 -54 -132t-137 -52q-55 0 -101.5 15t-89.5 47v125q38 -49 84 -74.5t96 -25.5q47 0 73.5 20.5t34.5 45.5l2 10
t1 10q0 45 -34 75.5t-79 58.5q-9 5 -17.5 10.5t-16.5 10.5q-56 34 -102 76.5t-46 112.5q0 83 56.5 132.5t150.5 49.5q39 0 77.5 -12t74.5 -36v1zM275 727h-93l-91 151h53l83 -87l87 87h55l-94 -151v0z" />
    <glyph glyph-name="glyph228" unicode="&#x161;" horiz-adv-x="385" 
d="M324 421v-88q-37 24 -71 35t-59 11q-27 0 -43 -11.5t-16 -29.5q0 -15 25 -35t84 -55q30 -20 50.5 -36.5t31.5 -32.5q10 -14 14.5 -27.5t4.5 -29.5q0 -59 -42 -95t-106 -36q-18 0 -35 1.5t-34 5.5q-20 4 -41.5 12.5t-45.5 20.5v97q44 -31 82 -45.5t65 -14.5
q27 2 46.5 14.5t19.5 36.5q0 12 -9 22t-23 21q-15 10 -34 20.5t-39 22.5q-39 23 -72 54t-33 76q0 57 40.5 89.5t107.5 32.5q32 0 64.5 -9t67.5 -28v1zM238 507h-93l-91 151h53l83 -87l87 87h55l-94 -151v0z" />
    <glyph glyph-name="uni0162" unicode="&#x162;" 
 />
    <glyph glyph-name="uni0163" unicode="&#x163;" 
 />
    <glyph glyph-name="Tcaron" unicode="&#x164;" 
 />
    <glyph glyph-name="tcaron" unicode="&#x165;" 
 />
    <glyph glyph-name="Uring" unicode="&#x16e;" 
 />
    <glyph glyph-name="uring" unicode="&#x16f;" 
 />
    <glyph glyph-name="Uhungarumlaut" unicode="&#x170;" 
 />
    <glyph glyph-name="uhungarumlaut" unicode="&#x171;" 
 />
    <glyph glyph-name="Iacute" unicode="&#x178;" horiz-adv-x="604" 
d="M301 447l185 235h118l-253 -322v-360h-98v361l-253 321h118l183 -235v0zM210 848q20 -1 33 -14t13 -33q0 -19 -13 -33t-33 -14q-19 0 -33 14t-14 33q0 20 14 33t33 13v1zM396 848q20 -1 33 -14t13 -33q0 -19 -13 -33t-33 -14q-19 0 -33 14t-14 33q0 20 14 33t33 13v1z
" />
    <glyph glyph-name="Zacute" unicode="&#x179;" 
 />
    <glyph glyph-name="zacute" unicode="&#x17a;" 
 />
    <glyph glyph-name="Zdotaccent" unicode="&#x17b;" 
 />
    <glyph glyph-name="zdotaccent" unicode="&#x17c;" 
 />
    <glyph glyph-name="Zcaron" unicode="&#x17d;" 
 />
    <glyph glyph-name="zcaron" unicode="&#x17e;" 
 />
    <glyph glyph-name="quotedblright" unicode="&#x192;" horiz-adv-x="552" 
d="M23 -198l17 76q26 -6 43.5 -8.5t31.5 -2.5q25 0 39 14t19 45l90 524h-98l11 68h99l14 85q11 66 46 95.5t94 29.5q21 0 44.5 -4.5t56.5 -14.5l-17 -74q-23 5 -36.5 8t-25.5 4q-4 1 -8 1h-8q-30 0 -42 -19.5t-19 -60.5l-9 -50h99l-12 -68h-100l-93 -533
q-12 -70 -41.5 -98.5t-88.5 -28.5q-19 0 -44.5 2.5t-53.5 7.5q-2 1 -4 1.5t-4 0.5v0z" />
    <glyph glyph-name="uni02BA" unicode="&#x2ba;" horiz-adv-x="333" 
d="M69 654h100l-112 -147h-55l67 147v0zM229 654h100l-112 -147h-55l67 147v0z" />
    <glyph glyph-name="arrowright" unicode="&#x2c6;" horiz-adv-x="333" 
d="M275 643h38q0 -54 -22 -86.5t-57 -32.5q-21 0 -38.5 5.5t-33.5 12.5q-5 1 -10 3t-9 4q-12 4 -23.5 7t-24.5 3q-15 0 -23.5 -9t-10.5 -26l-41 1q4 54 24 84t54 30q10 0 20.5 -1.5t21.5 -4.5q9 -3 18 -5.5t18 -5.5q19 -7 35.5 -12.5t27.5 -5.5q15 0 24 9t12 29v1z" />
    <glyph glyph-name="glyph224" unicode="&#x2c7;" horiz-adv-x="333" 
d="M212 507h-93l-91 151h53l83 -87l87 87h55l-94 -151v0z" />
    <glyph glyph-name="house" unicode="&#x2c9;" horiz-adv-x="333" 
d="M332 615v-73h-331v73h331v0z" />
    <glyph glyph-name="endash" unicode="&#x2d8;" horiz-adv-x="333" 
d="M240 643h68q-11 -63 -47.5 -96.5t-92.5 -33.5q-58 0 -95 33.5t-48 95.5l67 1q8 -32 27 -47.5t50 -15.5q29 0 46.5 15t24.5 47v1z" />
    <glyph glyph-name="sfthyphen" unicode="&#x2d9;" horiz-adv-x="333" 
d="M167 628q20 -1 33 -14t13 -33q0 -19 -13 -33t-33 -14q-19 0 -33 14t-14 33q0 20 14 33t33 13v1z" />
    <glyph glyph-name="filledbox" unicode="&#x2da;" horiz-adv-x="333" 
d="M167 691q38 -1 65.5 -28.5t27.5 -65.5t-27.5 -65.5t-65.5 -27.5t-65.5 27.5t-27.5 65.5t27.5 65.5t65.5 27.5v1zM167 653q-22 -1 -38.5 -17t-16.5 -39q0 -22 16.5 -38.5t38.5 -16.5q23 0 39 16.5t16 38.5q0 23 -16 39t-39 16v1z" />
    <glyph glyph-name="glyph223" unicode="&#x2db;" horiz-adv-x="333" 
d="M266 -96v-67l-17.5 -7t-14.5 -4q-8 -2 -17.5 -3t-23.5 -1q-44 0 -72.5 26.5t-28.5 67.5q0 16 4.5 31.5t14.5 30.5q5 8 11.5 15t13.5 15l67 1q-2 -3 -4 -5.5t-3 -4.5q-14 -18 -21 -34.5t-7 -25.5q0 -19 15 -32.5t36 -13.5q4 0 14 2.5t21 5.5q1 0 2 0.5t2 0.5q2 0 4 0.5
t4 1.5v0z" />
    <glyph glyph-name="onehalf" unicode="&#x2dc;" horiz-adv-x="333" 
d="M212 657l94 -151h-55l-87 87l-83 -87h-53l91 151h93v0z" />
    <glyph glyph-name="Gamma" unicode="&#x393;" 
 />
    <glyph glyph-name="Theta" unicode="&#x398;" 
 />
    <glyph glyph-name="exclamdown" unicode="&#x3a3;" 
 />
    <glyph glyph-name="Phi" unicode="&#x3a6;" 
 />
    <glyph glyph-name="Atilde" unicode="&#x3a9;" 
 />
    <glyph glyph-name="alpha" unicode="&#x3b1;" 
 />
    <glyph glyph-name="delta" unicode="&#x3b4;" 
 />
    <glyph glyph-name="epsilon" unicode="&#x3b5;" 
 />
    <glyph glyph-name="guillemotleft" unicode="&#x3c0;" 
 />
    <glyph glyph-name="sigma" unicode="&#x3c3;" 
 />
    <glyph glyph-name="tau" unicode="&#x3c4;" 
 />
    <glyph glyph-name="phi" unicode="&#x3c6;" 
 />
    <glyph glyph-name="glyph259" unicode="&#x2013;" horiz-adv-x="500" 
d="M509 285v-64h-518v64h518v0z" />
    <glyph glyph-name="periodcentered" unicode="&#x2014;" horiz-adv-x="1000" 
d="M1009 285v-64h-1018v64h1018v0z" />
    <glyph glyph-name="underscoredbl" unicode="&#x2017;" 
 />
    <glyph glyph-name="Acircumflex" unicode="&#x2018;" horiz-adv-x="219" 
d="M160 691v-19l-13 -13t-10 -13q-11 -15 -14.5 -30.5t-3.5 -32.5v-4.5t1 -4.5v-4.5v-5.5q24 -3 38.5 -19t14.5 -40q0 -30 -17 -45.5t-43 -15.5q-31 0 -49 27.5t-18 65.5q0 56 29.5 96.5t84.5 56.5v1z" />
    <glyph glyph-name="Ecircumflex" unicode="&#x2019;" horiz-adv-x="219" 
d="M59 445v19q7 5 13 11t10 13q11 15 14.5 30.5t3.5 32.5v4.5v4.5q-1 2 -1 4.5v5.5q-24 3 -38.5 19t-14.5 40q0 30 17.5 45.5t42.5 15.5q31 0 49 -27.5t18 -65.5q0 -55 -29 -95.5t-85 -57.5v1z" />
    <glyph glyph-name="Ugrave" unicode="&#x201a;" 
 />
    <glyph glyph-name="quotedblbase" unicode="&#x201c;" horiz-adv-x="427" 
d="M155 691v-19l-13 -13t-10 -13q-11 -15 -14.5 -30.5t-3.5 -32.5v-4.5t1 -4.5v-4.5v-5.5q24 -3 38.5 -19t14.5 -40q0 -30 -17 -45.5t-43 -15.5q-31 0 -49 27.5t-18 65.5q0 56 29.5 96.5t84.5 56.5v1zM373 691v-19l-13 -13t-10 -13q-11 -15 -14.5 -30.5t-3.5 -32.5v-4.5
t1 -4.5v-4.5v-5.5q24 -3 38.5 -19t14.5 -40q0 -30 -17 -45.5t-43 -15.5q-31 0 -49 27.5t-18 65.5q0 56 29.5 96.5t84.5 56.5v1z" />
    <glyph glyph-name="perthousand" unicode="&#x201d;" horiz-adv-x="427" 
d="M54 445v19q7 5 13 11t10 13q11 15 14.5 30.5t3.5 32.5v4.5v4.5q-1 2 -1 4.5v5.5q-24 3 -38.5 19t-14.5 40q0 30 17.5 45.5t42.5 15.5q31 0 49 -27.5t18 -65.5q0 -55 -29 -95.5t-85 -57.5v1zM272 445v19q7 5 13 11t10 13q11 15 14.5 30.5t3.5 32.5v4.5v4.5q-1 2 -1 4.5
v5.5q-24 3 -38.5 19t-14.5 40q0 30 17.5 45.5t42.5 15.5q31 0 49 -27.5t18 -65.5q0 -55 -29 -95.5t-85 -57.5v1z" />
    <glyph glyph-name="dotlessi" unicode="&#x201e;" horiz-adv-x="427" 
d="M64 -115v19q7 6 13 12t10 13q11 15 14.5 30.5t3.5 32.5v4.5v3.5q-1 2 -1 4.5v5.5q-24 3 -38.5 19t-14.5 40q0 30 17.5 45.5t42.5 15.5q31 0 49 -27.5t18 -65.5q0 -55 -29 -95.5t-85 -56.5v0zM283 -115v19q7 6 13 12t10 13q11 15 14.5 30.5t3.5 32.5v4.5v3.5q-1 2 -1 4.5
v5.5q-24 3 -38.5 19t-14.5 40q0 30 17.5 45.5t42.5 15.5q31 0 49 -27.5t18 -65.5q0 -55 -29 -95.5t-85 -56.5v0z" />
    <glyph glyph-name="dagger" unicode="&#x2020;" horiz-adv-x="490" 
d="M249 691q22 -1 33.5 -25.5t11.5 -69.5q0 -19 -3 -42.5t-8 -47.5q-1 -8 -2.5 -15.5t-3.5 -15.5q-3 -17 -6.5 -33t-5.5 -29q35 12 66 19t61 7q4 0 8.5 -0.5t9.5 -0.5q20 -3 36.5 -13.5t16.5 -29.5q0 -22 -18.5 -33t-40.5 -13h-4h-4q-14 0 -30.5 2.5t-34.5 6.5q-8 2 -16.5 4
t-16.5 4q-9 2 -17.5 4.5t-16.5 4.5q3 -31 6.5 -69.5t7.5 -80.5q1 -18 2.5 -36t3.5 -36q5 -62 8.5 -120t3.5 -101q0 -66 -9 -114t-43 -48t-43.5 37.5t-9.5 105.5q0 39 3.5 101t9.5 129q1 21 3 42.5t4 41.5q4 45 7.5 83.5t6.5 64.5q-3 -1 -7 -2t-7 -3q-13 -3 -26.5 -7
t-27.5 -7q-15 -3 -30 -5t-29 -2h-7.5t-7.5 1q-21 2 -38.5 12t-17.5 30q0 18 15.5 32.5t57.5 14.5q13 0 28 -2t31 -5q17 -4 34.5 -9t31.5 -10l-4 18l-4 18q-2 10 -3.5 20t-3.5 20q-6 29 -9.5 57t-3.5 49q0 44 12 69.5t40 25.5v1z" />
    <glyph glyph-name="Uacute" unicode="&#x2021;" horiz-adv-x="490" 
d="M244 691q26 -1 36.5 -23.5t11.5 -49.5q1 -5 1 -9.5v-8.5q0 -16 -3 -37.5t-7 -44.5q-2 -8 -4 -16.5t-3 -16.5q-4 -14 -7 -27t-5 -23q3 1 6.5 2t7.5 3q12 4 26 8t29 7q16 3 32 5.5t30 2.5q26 0 47 -10.5t21 -36.5q0 -19 -16.5 -29t-36.5 -13q-5 0 -9.5 -0.5t-9.5 -0.5
q-14 0 -29.5 2.5t-31.5 5.5q-9 2 -18 4.5t-18 4.5q-8 2 -15.5 4t-14.5 4q0 -17 2.5 -38.5t5.5 -44.5q3 -22 5.5 -44t2.5 -40q0 -19 -2.5 -41t-5.5 -44q-3 -23 -5.5 -45t-2.5 -41l6 2t7 3q11 3 24.5 6.5t27.5 6.5q18 4 34.5 6t28.5 2q4 0 8.5 -0.5t9.5 -0.5q20 -3 36.5 -13.5
t16.5 -29.5q0 -27 -21.5 -36t-48.5 -9q-13 0 -29 2t-33 5q-14 4 -28 7.5t-26 7.5q-3 2 -6.5 3t-6.5 2q2 -8 5 -18.5t5 -22.5q3 -9 5 -19.5t4 -20.5q4 -23 7 -44.5t3 -36.5v-11.5t-1 -11.5q-2 -26 -12.5 -47.5t-34.5 -21.5t-34.5 21t-12.5 46q-1 6 -1 11.5v10.5q0 18 2.5 38
t6.5 40q3 17 6.5 33t7.5 30q1 6 2.5 12t3.5 12q-3 -1 -6.5 -2t-7.5 -3q-12 -4 -26.5 -8t-28.5 -7q-17 -3 -33 -5t-30 -2q-26 0 -46.5 9.5t-20.5 35.5q0 20 17 30t38 13q5 0 9.5 0.5t8.5 0.5q11 0 28 -2.5t34 -6.5q8 -1 15 -3t14 -3q10 -3 19 -5.5t16 -4.5q-1 11 -3.5 35
t-5.5 51q0 5 -0.5 10.5t-1.5 10.5q-2 21 -3.5 39t-1.5 26q0 17 2.5 38.5t5.5 44.5v1v2q3 22 5.5 42.5t2.5 36.5q-5 -1 -10 -2.5t-11 -3.5q-11 -3 -23 -6l-24 -6q-16 -3 -31 -5t-29 -2q-4 0 -8.5 0.5t-9.5 0.5q-20 3 -36.5 13t-16.5 29q0 28 21.5 37.5t49.5 9.5q11 0 28 -2.5
t35 -6.5q14 -3 27 -6.5t23 -7.5q5 -1 9 -2.5t7 -3.5q-1 4 -2.5 7.5t-2.5 8.5q-4 15 -8 34l-8 38q-4 24 -6.5 46.5t-2.5 38.5q0 5 0.5 10.5t0.5 10.5q3 23 13.5 42.5t32.5 19.5v1z" />
    <glyph glyph-name="glyph262" unicode="&#x2022;" horiz-adv-x="354" 
d="M177 465q51 -1 87.5 -37.5t36.5 -87.5t-36.5 -87.5t-87.5 -36.5t-87.5 36.5t-36.5 87.5t36.5 87.5t87.5 36.5v1z" />
    <glyph glyph-name="fraction" unicode="&#x2026;" horiz-adv-x="1000" 
d="M166 111q25 -1 42.5 -18.5t17.5 -42.5t-17.5 -42t-42.5 -17t-42.5 17t-17.5 42t17.5 42.5t42.5 17.5v1zM500 111q25 -1 42.5 -18.5t17.5 -42.5t-17.5 -42t-42.5 -17t-42.5 17t-17.5 42t17.5 42.5t42.5 17.5v1zM834 111q25 -1 42.5 -18.5t17.5 -42.5t-17.5 -42t-42.5 -17
t-42.5 17t-17.5 42t17.5 42.5t42.5 17.5v1z" />
    <glyph glyph-name="circumflex" unicode="&#x2030;" horiz-adv-x="1010" 
d="M585 691l-449 -701h-75l449 701h75v0zM482 296q62 -1 107.5 -46t45.5 -108t-45.5 -107.5t-107.5 -44.5q-63 0 -108 44t-45 108q0 63 45 108t108 45v1zM482 222q-32 -1 -55.5 -24.5t-23.5 -55.5q0 -33 23.5 -56t55.5 -23q33 0 56 23t23 56q0 32 -23 55.5t-56 23.5v1z
M845 296q62 -1 107.5 -46t45.5 -108t-45.5 -107.5t-107.5 -44.5q-63 0 -108 44t-45 108q0 63 45 108t108 45v1zM845 222q-32 -1 -55.5 -24.5t-23.5 -55.5q0 -33 23.5 -56t55.5 -23q33 0 56 23t23 56q0 32 -23 55.5t-56 23.5v1zM166 690q62 -1 107.5 -46t45.5 -108
t-45.5 -108t-107.5 -45q-63 0 -108 44.5t-45 108.5q0 63 45 108t108 45v1zM166 616q-32 -1 -55.5 -24.5t-23.5 -55.5q0 -33 23.5 -56t55.5 -23q33 0 56 23t23 56q0 32 -23 55.5t-56 23.5v1z" />
    <glyph glyph-name="Igrave" unicode="&#x2039;" horiz-adv-x="313" 
d="M123 225l148 -225h-88l-147 225l147 225h88l-148 -225v0z" />
    <glyph glyph-name="Oacute" unicode="&#x203a;" horiz-adv-x="313" 
d="M190 225l-148 225h88l147 -225l-147 -225h-88l148 225v0z" />
    <glyph glyph-name="exclamdbl" unicode="&#x203c;" 
 />
    <glyph glyph-name="uni207F" unicode="&#x207f;" 
 />
    <glyph glyph-name="franc" unicode="&#x20a3;" 
 />
    <glyph glyph-name="peseta" unicode="&#x20a7;" 
 />
    <glyph glyph-name="trademark" unicode="&#x2122;" horiz-adv-x="1000" 
d="M239 318v339h-129v59h325v-59h-130v-339h-66v0zM480 318v398h98l99 -318h2l96 318h96v-398h-61v334h-2l-100 -334h-60l-105 339h-2v-339h-61v0z" />
    <glyph glyph-name="arrowleft" unicode="&#x2190;" 
 />
    <glyph glyph-name="arrowup" unicode="&#x2191;" 
 />
    <glyph glyph-name="glyph257" unicode="&#x2192;" horiz-adv-x="500" 
 />
    <glyph glyph-name="arrowdown" unicode="&#x2193;" 
 />
    <glyph glyph-name="arrowboth" unicode="&#x2194;" 
 />
    <glyph glyph-name="arrowupdn" unicode="&#x2195;" 
 />
    <glyph glyph-name="arrowupdnbse" unicode="&#x21a8;" 
 />
    <glyph glyph-name="questiondown" unicode="&#x2202;" 
 />
    <glyph glyph-name="quoteright" unicode="&#x2206;" 
 />
    <glyph glyph-name="florin" unicode="&#x220f;" 
 />
    <glyph glyph-name="minus" unicode="&#x2212;" 
 />
    <glyph glyph-name="Icircumflex" unicode="&#x2215;" horiz-adv-x="198" 
d="M360 691l-455 -718h-67l455 718h67v0z" />
    <glyph glyph-name="Ucircumflex" unicode="&#x2219;" horiz-adv-x="260" 
d="M130 405q25 -1 42.5 -18.5t17.5 -42.5t-17.5 -42.5t-42.5 -17.5t-42.5 17.5t-17.5 42.5t17.5 42.5t42.5 17.5v1z" />
    <glyph glyph-name="quotedblleft" unicode="&#x221a;" 
 />
    <glyph glyph-name="yen" unicode="&#x221e;" 
 />
    <glyph glyph-name="orthogonal" unicode="&#x221f;" 
 />
    <glyph glyph-name="intersection" unicode="&#x2229;" 
 />
    <glyph glyph-name="guillemotright" unicode="&#x222b;" 
 />
    <glyph glyph-name="quoteleft" unicode="&#x2248;" 
 />
    <glyph glyph-name="AE" unicode="&#x2260;" 
 />
    <glyph glyph-name="equivalence" unicode="&#x2261;" 
 />
    <glyph glyph-name="ordfeminine" unicode="&#x2264;" 
 />
    <glyph glyph-name="ordmasculine" unicode="&#x2265;" 
 />
    <glyph glyph-name="glyph258" unicode="&#x2302;" 
 />
    <glyph glyph-name="revlogicalnot" unicode="&#x2310;" 
 />
    <glyph glyph-name="integraltp" unicode="&#x2320;" 
 />
    <glyph glyph-name="integralbt" unicode="&#x2321;" 
 />
    <glyph glyph-name="SF100000" unicode="&#x2500;" 
 />
    <glyph glyph-name="SF110000" unicode="&#x2502;" 
 />
    <glyph glyph-name="SF010000" unicode="&#x250c;" 
 />
    <glyph glyph-name="SF030000" unicode="&#x2510;" 
 />
    <glyph glyph-name="SF020000" unicode="&#x2514;" 
 />
    <glyph glyph-name="SF040000" unicode="&#x2518;" 
 />
    <glyph glyph-name="SF080000" unicode="&#x251c;" 
 />
    <glyph glyph-name="SF090000" unicode="&#x2524;" 
 />
    <glyph glyph-name="SF060000" unicode="&#x252c;" 
 />
    <glyph glyph-name="SF070000" unicode="&#x2534;" 
 />
    <glyph glyph-name="SF050000" unicode="&#x253c;" 
 />
    <glyph glyph-name="SF430000" unicode="&#x2550;" 
 />
    <glyph glyph-name="SF240000" unicode="&#x2551;" 
 />
    <glyph glyph-name="SF510000" unicode="&#x2552;" 
 />
    <glyph glyph-name="SF520000" unicode="&#x2553;" 
 />
    <glyph glyph-name="SF390000" unicode="&#x2554;" 
 />
    <glyph glyph-name="SF220000" unicode="&#x2555;" 
 />
    <glyph glyph-name="SF210000" unicode="&#x2556;" 
 />
    <glyph glyph-name="SF250000" unicode="&#x2557;" 
 />
    <glyph glyph-name="SF500000" unicode="&#x2558;" 
 />
    <glyph glyph-name="SF490000" unicode="&#x2559;" 
 />
    <glyph glyph-name="SF380000" unicode="&#x255a;" 
 />
    <glyph glyph-name="SF280000" unicode="&#x255b;" 
 />
    <glyph glyph-name="SF270000" unicode="&#x255c;" 
 />
    <glyph glyph-name="SF260000" unicode="&#x255d;" 
 />
    <glyph glyph-name="SF360000" unicode="&#x255e;" 
 />
    <glyph glyph-name="SF370000" unicode="&#x255f;" 
 />
    <glyph glyph-name="SF420000" unicode="&#x2560;" 
 />
    <glyph glyph-name="SF190000" unicode="&#x2561;" 
 />
    <glyph glyph-name="SF200000" unicode="&#x2562;" 
 />
    <glyph glyph-name="SF230000" unicode="&#x2563;" 
 />
    <glyph glyph-name="SF470000" unicode="&#x2564;" 
 />
    <glyph glyph-name="SF480000" unicode="&#x2565;" 
 />
    <glyph glyph-name="SF410000" unicode="&#x2566;" 
 />
    <glyph glyph-name="SF450000" unicode="&#x2567;" 
 />
    <glyph glyph-name="SF460000" unicode="&#x2568;" 
 />
    <glyph glyph-name="SF400000" unicode="&#x2569;" 
 />
    <glyph glyph-name="SF540000" unicode="&#x256a;" 
 />
    <glyph glyph-name="SF530000" unicode="&#x256b;" 
 />
    <glyph glyph-name="SF440000" unicode="&#x256c;" 
 />
    <glyph glyph-name="upblock" unicode="&#x2580;" 
 />
    <glyph glyph-name="dnblock" unicode="&#x2584;" 
 />
    <glyph glyph-name="block" unicode="&#x2588;" 
 />
    <glyph glyph-name="lfblock" unicode="&#x258c;" 
 />
    <glyph glyph-name="rtblock" unicode="&#x2590;" 
 />
    <glyph glyph-name="ltshade" unicode="&#x2591;" 
 />
    <glyph glyph-name="shade" unicode="&#x2592;" 
 />
    <glyph glyph-name="dkshade" unicode="&#x2593;" 
 />
    <glyph glyph-name="glyph261" unicode="&#x25a0;" horiz-adv-x="500" 
 />
    <glyph glyph-name="filledrect" unicode="&#x25ac;" 
 />
    <glyph glyph-name="triagup" unicode="&#x25b2;" 
 />
    <glyph glyph-name="triagrt" unicode="&#x25ba;" 
 />
    <glyph glyph-name="triagdn" unicode="&#x25bc;" 
 />
    <glyph glyph-name="triaglf" unicode="&#x25c4;" 
 />
    <glyph glyph-name="Edieresis" unicode="&#x25ca;" 
 />
    <glyph glyph-name="circle" unicode="&#x25cb;" 
 />
    <glyph glyph-name="invbullet" unicode="&#x25d8;" 
 />
    <glyph glyph-name="invcircle" unicode="&#x25d9;" 
 />
    <glyph glyph-name="smileface" unicode="&#x263a;" 
 />
    <glyph glyph-name="invsmileface" unicode="&#x263b;" 
 />
    <glyph glyph-name="sun" unicode="&#x263c;" 
 />
    <glyph glyph-name="female" unicode="&#x2640;" 
 />
    <glyph glyph-name="male" unicode="&#x2642;" 
 />
    <glyph glyph-name="spade" unicode="&#x2660;" 
 />
    <glyph glyph-name="club" unicode="&#x2663;" 
 />
    <glyph glyph-name="heart" unicode="&#x2665;" 
 />
    <glyph glyph-name="diamond" unicode="&#x2666;" 
 />
    <glyph glyph-name="musicalnote" unicode="&#x266a;" 
 />
    <glyph glyph-name="musicalnotedbl" unicode="&#x266b;" 
 />
    <glyph glyph-name="Scaron" unicode="&#xf000;" 
 />
    <glyph glyph-name="Ocircumflex" unicode="&#xf001;" horiz-adv-x="500" 
d="M269 449v-75h-100v-374h-89v374h-67v75h67q-2 123 48.5 182t141.5 59q75 0 120.5 -39t47.5 -104l-89 1q-12 32 -31 47t-50 15q-49 0 -74.5 -34t-25.5 -102v-12.5t1 -13.5l100 1v0zM438 449v-449h-89v449h89v0z" />
    <glyph glyph-name="Ograve" unicode="&#xf002;" horiz-adv-x="500" 
d="M303 682v-82q-5 4 -16 7t-23 3q-53 0 -75 -31t-22 -85v-45h100v-75h-100v-374h-89v374h-69v75h69v33q0 65 15.5 101t42.5 63q22 22 49 33t59 11q14 0 28.5 -2t30.5 -7v1zM436 682v-682h-89v682h89v0z" />
    <glyph glyph-name="degree" horiz-adv-x="396" 
d="M197 728q56 -1 95.5 -40.5t39.5 -95.5t-39.5 -95.5t-95.5 -39.5t-95.5 39.5t-39.5 95.5t39.5 95.5t95.5 39.5v1zM197 675q-34 -1 -58 -24.5t-24 -58.5q0 -34 24 -58.5t58 -24.5q35 0 59 24.5t24 58.5q0 35 -24 58.5t-59 23.5v1z" />
    <glyph glyph-name="bullet" horiz-adv-x="354" 
d="M177 465q51 -1 87.5 -37.5t36.5 -87.5t-36.5 -87.5t-87.5 -36.5t-87.5 36.5t-36.5 87.5t36.5 87.5t87.5 36.5v1z" />
    <glyph glyph-name="daggerdbl" horiz-adv-x="500" 
d="M509 285v-64h-518v64h518v0z" />
    </font>
</defs>
</svg>
