<?xml version="1.0" standalone="no"?>
<!DOCTYPE svg PUBLIC "-//W3C//DTD SVG 1.1//EN" "http://www.w3.org/Graphics/SVG/1.1/DTD/svg11.dtd" >
<svg>
<metadata>
Created by FontForge 20090622 at Fri May  5 17:25:38 2017
 By deploy user
Copyright (c) 1988, 1990, 1993, 1996 Adobe Systems Incorporated.  All Rights Reserved.Helvetica is a trademark of Linotype-Hell AG and/or its subsidiaries.
</metadata>
<defs>
<font id="HelveticaNeueCE-Bold" horiz-adv-x="611" >
  <font-face 
    font-family="Helvetica CE 55 Roman"
    font-weight="700"
    font-stretch="normal"
    units-per-em="1000"
    panose-1="2 0 8 3 5 0 0 2 0 4"
    ascent="800"
    descent="-200"
    x-height="517"
    cap-height="714"
    bbox="-166 -289 1078 975"
    underline-thickness="50"
    underline-position="-75"
    unicode-range="U+0020-U+FB02"
  />
<missing-glyph horiz-adv-x="278" 
 />
    <glyph glyph-name=".notdef" horiz-adv-x="278" 
 />
    <glyph glyph-name="exclam" unicode="!" horiz-adv-x="278" 
d="M213 714h-148v-192l38 -308h71l39 308v192zM61 0h157v154h-157v-154z" />
    <glyph glyph-name="quotedbl" unicode="&#x22;" horiz-adv-x="463" 
d="M271 393h107v321h-107v-321zM85 393h107v321h-107v-321z" />
    <glyph glyph-name="numbersign" unicode="#" horiz-adv-x="556" 
d="M88 0h97l28 198h96l-27 -198h97l27 198h87v90h-74l17 124h87v90h-74l27 198h-97l-27 -198h-97l28 198h-97l-28 -198h-95v-90h83l-18 -124h-95v-90h83zM339 412l-17 -124h-97l18 124h96z" />
    <glyph glyph-name="dollar" unicode="$" horiz-adv-x="556" 
d="M248 451q-48 11 -69 29t-21 51q0 21 7.5 36.5t20.5 26t29 15.5t33 5v-163zM307 292q30 -8 50.5 -16.5t33 -19t18.5 -24.5t6 -34q0 -24 -10 -41.5t-25.5 -29.5t-35 -18.5t-37.5 -8.5v192zM-1 232q11 -118 74 -179.5t175 -69.5v-85h59v85q75 5 123 30t76.5 58t39.5 66.5
t11 54.5q0 25 -3.5 57t-22.5 64t-59.5 61.5t-113.5 49.5q-14 4 -26.5 7l-24.5 6v177q34 0 58 -28t25 -68h142q-3 52 -22 90t-49 63.5t-69.5 40t-84.5 19.5v77h-59v-77q-45 -3 -87 -17.5t-74 -41t-51.5 -65.5t-19.5 -90q0 -50 17 -83.5t45.5 -56t64 -36t73.5 -23.5
q10 -2 18.5 -4.5t13.5 -4.5v-209q-46 9 -77 42.5t-30 89.5h-142z" />
    <glyph glyph-name="percent" unicode="%" horiz-adv-x="1000" 
d="M75 516q0 -41 8.5 -76.5t28 -61t51 -40t77.5 -14.5q44 0 76 14t52.5 39t30.5 59.5t10 75.5t-8 78t-27.5 64.5t-51 43.5t-77.5 16q-44 0 -76 -15.5t-53 -42.5t-31 -63t-10 -77zM177 514q0 17 1.5 39t8.5 41t20.5 32t37.5 13q22 0 34.5 -14t18.5 -34t7.5 -41.5t1.5 -36.5
q0 -16 -1.5 -35.5t-8 -37t-20 -29.5t-36.5 -12q-24 0 -37 12t-19 29.5t-7 37.5t-1 36zM591 183q0 -41 8.5 -77t28 -62.5t51 -42t77.5 -15.5q44 0 76 15t52.5 41t30.5 61t10 76t-8 77t-27.5 62.5t-51 42t-77.5 15.5q-44 0 -76 -15t-53 -41t-31 -61t-10 -76zM693 182
q0 17 1.5 38t8.5 39t20.5 30t37.5 12q22 0 34.5 -13.5t18.5 -32t7.5 -39t1.5 -35.5q0 -16 -1.5 -36.5t-8 -39t-20 -31.5t-36.5 -13q-24 0 -37 13t-19 31.5t-7 39.5t-1 37zM254 -22h87l412 744h-85z" />
    <glyph glyph-name="ampersand" unicode="&#x26;" horiz-adv-x="685" 
d="M382 559q0 -39 -21.5 -61t-51.5 -41l-38 49t-18 58q0 28 19 45.5t45 17.5t45.5 -20t19.5 -48zM389 166q-25 -28 -53.5 -45.5t-66.5 -17.5q-20 0 -38.5 7.5t-32.5 20t-22.5 29.5t-8.5 37q0 22 8.5 40t22.5 32.5t32 26t37 19.5zM522 0h174l-145 169q30 38 47 83t22 93h-123
q-3 -22 -9 -43.5t-17 -41.5l-92 113q54 29 90.5 72t36.5 106q0 42 -15.5 74t-42 53.5t-62.5 32.5t-76 11q-36 0 -69.5 -11.5t-59.5 -33t-41.5 -51.5t-15.5 -67q0 -47 19.5 -82t48.5 -70q-32 -15 -60.5 -35t-51 -45.5t-35.5 -57.5t-13 -69q0 -51 18 -90.5t49 -67t73.5 -42
t90.5 -14.5q61 0 109.5 21.5t91.5 63.5z" />
    <glyph glyph-name="quotesingle" unicode="'" horiz-adv-x="278" 
d="M86 393h107v321h-107v-321z" />
    <glyph glyph-name="parenleft" unicode="(" horiz-adv-x="296" 
d="M184 731q-33 -48 -58 -105t-41.5 -118t-24.5 -122.5t-8 -117.5q0 -118 35 -232.5t97 -217.5h118q-56 109 -82 225t-26 235q0 117 26.5 232t82.5 221h-119z" />
    <glyph glyph-name="parenright" unicode=")" horiz-adv-x="296" 
d="M112 -182q33 47 57.5 104.5t41 118t25 122t8.5 117.5q0 118 -35 233t-97 218h-118q56 -109 82 -225.5t26 -235.5q0 -117 -26.5 -231.5t-82.5 -220.5h119z" />
    <glyph glyph-name="asterisk" unicode="*" horiz-adv-x="407" 
d="M242 714h-80v-125l-113 44l-27 -77l116 -39l-74 -98l67 -49l70 103l74 -103l66 49l-74 98l118 39l-27 77l-116 -44v125z" />
    <glyph glyph-name="plus" unicode="+" horiz-adv-x="600" 
d="M354 505h-107v-199h-199v-107h199v-199h107v199h199v107h-199v199z" />
    <glyph glyph-name="comma" unicode="," horiz-adv-x="278" 
d="M61 0h72q1 -17 -4 -32.5t-15 -28.5t-23 -21.5t-29 -11.5v-72q32 5 60.5 18.5t49.5 35t33.5 49.5t12.5 63v154h-157v-154z" />
    <glyph glyph-name="hyphen" unicode="-" horiz-adv-x="407" 
d="M53 212h301v122h-301v-122z" />
    <glyph glyph-name="hyphen" unicode="&#xad;" horiz-adv-x="407" 
d="M53 212h301v122h-301v-122z" />
    <glyph glyph-name="period" unicode="." horiz-adv-x="278" 
d="M60 0h157v154h-157v-154z" />
    <glyph glyph-name="slash" unicode="/" horiz-adv-x="371" 
d="M-11 -17h114l279 748h-114z" />
    <glyph glyph-name="zero" unicode="0" horiz-adv-x="556" 
d="M21 353q0 -105 20.5 -175t55.5 -113t81.5 -61t98.5 -18t99 18t82.5 61t56 113t20.5 175q0 102 -20.5 171.5t-56 111.5t-82.5 60t-99 18t-98.5 -18t-81.5 -60t-55.5 -111.5t-20.5 -171.5zM163 353q0 18 0.5 43.5t3.5 52.5t10 53.5t19.5 47.5t32.5 34t48 13q29 0 49 -13
t33 -34t19.5 -47.5t10 -53.5t4 -52.5t0.5 -43.5q0 -30 -2 -72.5t-12.5 -82t-34.5 -67.5t-67 -28t-66 28t-33.5 67.5t-12.5 82t-2 72.5z" />
    <glyph glyph-name="one" unicode="1" horiz-adv-x="556" 
d="M392 700h-113q-6 -40 -24.5 -67t-46.5 -43.5t-62.5 -23t-71.5 -5.5v-107h176v-454h142v700z" />
    <glyph glyph-name="two" unicode="2" horiz-adv-x="556" 
d="M173 431q0 28 5.5 56.5t18.5 51.5t34 38t53 15q46 0 75.5 -29t29.5 -79q0 -32 -14.5 -57t-36 -45t-47.5 -36.5l-49 -32.5l-85.5 -61t-70.5 -65.5t-47.5 -80.5t-17.5 -106h514v122h-331q19 27 43.5 48.5t51 40.5t54 36.5l53.5 35.5t48.5 39t39.5 46t27 56.5t10 70.5
q0 51 -19.5 92t-52.5 69t-76.5 43t-91.5 15q-63 0 -111.5 -21.5t-80.5 -60t-48 -90t-14 -111.5h136z" />
    <glyph glyph-name="three" unicode="3" horiz-adv-x="556" 
d="M228 317q26 0 54.5 -1.5t52.5 -11t39.5 -30.5t15.5 -61q0 -50 -33 -80t-81 -30q-31 0 -53.5 11t-37.5 29.5t-23 43.5t-9 54h-135q-1 -60 17.5 -107.5t52.5 -80.5t82.5 -50t107.5 -17q51 0 98 15.5t83 44.5t57.5 72t21.5 98q0 59 -33 102.5t-91 56.5v2q49 14 73.5 53.5
t24.5 89.5q0 47 -21 83t-54.5 61t-75.5 37.5t-84 12.5q-54 0 -98 -17.5t-75.5 -49.5t-49 -76.5t-19.5 -98.5h135q-1 54 26.5 89.5t81.5 35.5q39 0 69 -24t30 -69q0 -30 -14.5 -48t-37 -27.5t-48.5 -11.5t-49 0v-100z" />
    <glyph glyph-name="four" unicode="4" horiz-adv-x="556" 
d="M312 0h135v162h93v117h-93v421h-127l-304 -408v-130h296v-162zM312 279h-184l181 243h3v-243z" />
    <glyph glyph-name="five" unicode="5" horiz-adv-x="556" 
d="M500 700h-391l-69 -387h128q21 29 45 42.5t62 13.5q28 0 50.5 -10t38.5 -28t24 -42t8 -51q0 -26 -8.5 -50.5t-24.5 -43.5t-38 -30t-50 -11q-47 0 -78.5 29t-36.5 76h-142q1 -55 22.5 -96.5t57.5 -69.5t82.5 -42t97.5 -14q53 -1 100 18t82.5 53t56.5 80.5t21 100.5
q0 49 -14.5 92.5t-42 75.5t-67.5 51t-92 19q-42 0 -75 -12.5t-62 -41.5l-2 2l28 159h289v117z" />
    <glyph glyph-name="six" unicode="6" horiz-adv-x="556" 
d="M523 520q-12 93 -74 143.5t-153 50.5q-75 0 -127 -33t-85 -85.5t-48 -118t-15 -129.5q0 -66 12 -131t43 -116.5t82.5 -83t131.5 -31.5q55 0 100 20t77 54.5t50 81t18 100.5q0 42 -13 83t-41 73q-30 33 -73 52.5t-88 19.5q-51 0 -90 -18t-68 -60l-2 2q1 29 8 66t22 69.5
t40 55t64 22.5q37 0 62 -26t32 -61h135zM286 363q27 0 47.5 -11.5t33.5 -30t19.5 -42t6.5 -48.5q0 -24 -7 -47t-21 -41t-34 -29t-45 -11q-27 0 -48 11t-35.5 29.5t-22 42t-7.5 47.5q0 26 7 49.5t21 41.5t35 28.5t50 10.5z" />
    <glyph glyph-name="seven" unicode="7" horiz-adv-x="556" 
d="M517 700h-478v-132h332q-100 -121 -161.5 -266.5t-73.5 -301.5h152q1 70 16 151t44 160t71.5 149t97.5 118v122z" />
    <glyph glyph-name="eight" unicode="8" horiz-adv-x="556" 
d="M156 212q0 54 36 82.5t88 28.5q25 0 46.5 -8t38 -23t26 -35.5t9.5 -45.5q0 -26 -9 -48t-25.5 -37.5t-38.5 -24t-47 -8.5q-26 0 -48.5 8.5t-39 24t-26.5 37.5t-10 49zM43 523q0 -52 26 -91t77 -53v-2q-62 -15 -97 -60t-35 -112q0 -57 22.5 -98t60 -68t85 -40t98.5 -13
q49 0 96 13.5t84 41t59.5 69t22.5 96.5q0 66 -34 111.5t-97 59.5v2q50 17 76 56t26 91q0 25 -12 58t-39.5 61.5t-72.5 48.5t-110 20q-43 0 -85 -12t-75.5 -36t-54.5 -60t-21 -83zM172 510q0 47 32 72t75 25q33 0 53.5 -10t32 -25t15.5 -32t4 -30q0 -45 -30.5 -68.5
t-74.5 -23.5q-21 0 -40.5 6t-34.5 17.5t-23.5 28.5t-8.5 40z" />
    <glyph glyph-name="nine" unicode="9" horiz-adv-x="556" 
d="M33 180q12 -93 74 -143.5t153 -50.5q75 0 127 33t85 85.5t48 118t15 129.5q0 66 -12 131t-43 116.5t-83 83t-131 31.5q-55 0 -100 -20t-77.5 -54.5t-50 -81t-17.5 -100.5q0 -42 13 -83t41 -73q30 -33 73 -52.5t88 -19.5q51 0 90 18t68 60l2 -2q-2 -29 -8.5 -66
t-21.5 -69.5t-40 -55t-64 -22.5q-37 0 -62 26t-32 61h-135zM270 337q-27 0 -47.5 11.5t-33.5 30t-19.5 42t-6.5 48.5q0 24 7 47t21 41t33.5 29t45.5 11q27 0 48 -11t35.5 -29.5t22 -42t7.5 -47.5q0 -26 -7 -49.5t-21 -41.5t-35.5 -28.5t-49.5 -10.5z" />
    <glyph glyph-name="colon" unicode=":" horiz-adv-x="278" 
d="M61 0h157v154h-157v-154zM218 508h-157v-154h157v154z" />
    <glyph glyph-name="semicolon" unicode=";" horiz-adv-x="278" 
d="M61 0h72q1 -17 -4 -32.5t-15 -28.5t-23 -21.5t-29 -11.5v-72q32 5 60.5 18.5t49.5 35t33.5 49.5t12.5 63v154h-157v-154zM218 508h-157v-154h157v154z" />
    <glyph glyph-name="semicolon" unicode="&#x37e;" horiz-adv-x="278" 
d="M61 0h72q1 -17 -4 -32.5t-15 -28.5t-23 -21.5t-29 -11.5v-72q32 5 60.5 18.5t49.5 35t33.5 49.5t12.5 63v154h-157v-154zM218 508h-157v-154h157v154z" />
    <glyph glyph-name="less" unicode="&#x3c;" horiz-adv-x="600" 
d="M554 514l-508 -202v-118l508 -202v115l-367 146l367 146v115z" />
    <glyph glyph-name="equal" unicode="=" horiz-adv-x="600" 
d="M553 413h-505v-107h505v107zM553 199h-505v-107h505v107z" />
    <glyph glyph-name="greater" unicode="&#x3e;" horiz-adv-x="600" 
d="M46 -8l508 202v118l-508 202v-115l367 -146l-367 -146v-115z" />
    <glyph glyph-name="question" unicode="?" horiz-adv-x="556" 
d="M179 484q0 27 6 50.5t18.5 41t32 28t46.5 10.5q40 0 62.5 -22t22.5 -68q0 -20 -6 -35t-16 -27.5t-23 -23l-28 -22.5t-29.5 -25.5t-26.5 -32t-20.5 -42.5t-10.5 -57v-45h135v38q3 22 13 38.5t23.5 30t29.5 25l32 23.5t31 26.5t27 34t19 46t7 62.5q0 29 -12.5 62.5
t-41.5 62.5t-76.5 48.5t-118.5 19.5q-55 0 -99.5 -18.5t-76 -51.5t-49 -78t-18.5 -99h147zM193 0h157v154h-157v-154z" />
    <glyph glyph-name="at" unicode="@" horiz-adv-x="800" 
d="M291 319q0 25 9 51t25.5 47.5t39.5 35t50 13.5q32 0 54.5 -24t22.5 -61q0 -26 -9 -53t-25.5 -48.5t-39 -35.5t-49.5 -14q-35 0 -56.5 24.5t-21.5 64.5zM622 545h-82l-16 -54q-17 39 -51 54.5t-66 15.5q-50 0 -90 -22t-68.5 -58t-44 -82t-15.5 -93q0 -35 12.5 -66
t34 -54.5t50 -37t60.5 -13.5t61 14t47 44h2q2 -25 21.5 -41t51.5 -16q24 0 63.5 16.5t78 51.5t66 90t27.5 132q0 69 -29 125.5t-77 96t-111 61.5t-131 22q-78 0 -147 -29t-121 -79t-82 -118.5t-30 -147.5q0 -80 30 -148.5t82.5 -118.5t122.5 -78.5t150 -28.5q94 0 174 42
t131 120h-84q-39 -39 -95.5 -60.5t-119.5 -21.5q-65 0 -119 21t-93 59.5t-61 92t-22 119.5q0 63 20 117.5t57 94t89 62t117 22.5q57 0 106.5 -16t86 -47.5t57.5 -77t21 -105.5q0 -40 -10.5 -74t-27 -58.5t-38 -38t-42.5 -13.5q-9 0 -13 6.5t-4 16.5t2.5 21.5t5.5 21.5z" />
    <glyph glyph-name="A" unicode="A" horiz-adv-x="685" 
d="M-7 0h159l56 159h267l54 -159h163l-267 714h-161zM342 538h2l90 -262h-185z" />
    <glyph glyph-name="B" unicode="B" horiz-adv-x="704" 
d="M226 318h171q51 0 82 -23.5t31 -78.5q0 -28 -9.5 -46t-25.5 -28.5t-37 -15t-44 -4.5h-168v196zM69 0h346q48 0 93.5 12t81 37t56.5 64.5t21 93.5q0 67 -32.5 114.5t-98.5 66.5q47 23 72 59.5t25 89.5q0 50 -16.5 84t-46.5 54.5t-72 29.5t-93 9h-336v-714zM226 592h147
q21 0 40.5 -3.5t34.5 -12.5t24 -25t9 -41q0 -45 -27 -65t-69 -20h-159v167z" />
    <glyph glyph-name="C" unicode="C" horiz-adv-x="741" 
d="M697 474q-7 62 -34 110t-68.5 80.5t-94 49.5t-111.5 17q-83 0 -148 -29t-110 -80t-69 -120t-24 -148q0 -77 24 -145t69 -118t110 -79t148 -29q66 0 121 20.5t96 58.5t66 92t31 121h-152q-9 -71 -49.5 -115.5t-112.5 -44.5q-53 0 -90 20.5t-60 54.5t-33.5 76.5t-10.5 87.5
q0 47 10.5 91t33.5 78.5t60 55t90 20.5q29 0 55.5 -9.5t47.5 -26.5t35 -39.5t18 -49.5h152z" />
    <glyph glyph-name="D" unicode="D" horiz-adv-x="741" 
d="M69 0h308q82 0 142.5 27.5t101 75.5t60.5 114t20 144q0 89 -24.5 155t-68 110t-103 66t-128.5 22h-308v-714zM226 582h112q58 0 97.5 -16.5t63.5 -47.5t34.5 -74.5t10.5 -97.5q0 -59 -15 -100t-40 -66.5t-57 -36.5t-66 -11h-140v450z" />
    <glyph glyph-name="E" unicode="E" horiz-adv-x="648" 
d="M69 0h542v132h-385v175h346v122h-346v153h377v132h-534v-714z" />
    <glyph glyph-name="F" unicode="F" horiz-adv-x="593" 
d="M69 0h157v295h299v122h-299v165h345v132h-502v-714z" />
    <glyph glyph-name="G" unicode="G" horiz-adv-x="759" 
d="M601 0h100v386h-300v-117h158q-7 -75 -50 -114.5t-120 -39.5q-53 0 -90 20.5t-60 54.5t-33.5 76.5t-10.5 87.5q0 47 10.5 91t33.5 78.5t60 55t90 20.5q56 0 96.5 -30t54.5 -90h150q-6 61 -33.5 108t-68.5 79t-92.5 48.5t-106.5 16.5q-83 0 -148 -29t-110 -80t-69 -120
t-24 -148q0 -77 24 -145t69 -118t110 -79t148 -29q52 0 103 22t93 76z" />
    <glyph glyph-name="H" unicode="H" horiz-adv-x="741" 
d="M69 0h157v308h289v-308h157v714h-157v-274h-289v274h-157v-714z" />
    <glyph glyph-name="I" unicode="I" horiz-adv-x="295" 
d="M69 0h157v714h-157v-714z" />
    <glyph glyph-name="J" unicode="J" horiz-adv-x="556" 
d="M487 714h-157v-482q0 -19 -1.5 -39.5t-9 -38t-24.5 -28.5t-48 -11q-28 0 -45.5 9t-27.5 24.5t-14 37.5t-4 48v32h-142v-62q0 -59 20 -100.5t53 -68.5t75 -39.5t87 -12.5q53 0 91.5 11.5t65 31t42.5 44t24.5 51.5t11.5 54t3 50v489z" />
    <glyph glyph-name="K" unicode="K" horiz-adv-x="722" 
d="M69 0h157v230l90 91l215 -321h197l-306 432l279 282h-196l-279 -296v296h-157v-714z" />
    <glyph glyph-name="L" unicode="L" horiz-adv-x="593" 
d="M69 0h505v132h-348v582h-157v-714z" />
    <glyph glyph-name="M" unicode="M" horiz-adv-x="907" 
d="M69 0h147v501h2l175 -501h121l175 506h2v-506h147v714h-221l-158 -491h-2l-167 491h-221v-714z" />
    <glyph glyph-name="N" unicode="N" horiz-adv-x="741" 
d="M69 0h147v478h2l297 -478h157v714h-147v-479h-2l-298 479h-156v-714z" />
    <glyph glyph-name="O" unicode="O" horiz-adv-x="778" 
d="M38 354q0 -77 24 -145t69 -118t110 -79t148 -29t148 29t110 79t69 118t24 145q0 79 -24 148t-69 120t-110 80t-148 29t-148 -29t-110 -80t-69 -120t-24 -148zM195 354q0 47 10.5 91t33.5 78.5t60 55t90 20.5t90 -20.5t60 -55t33.5 -78.5t10.5 -91q0 -45 -10.5 -87.5
t-33.5 -76.5t-60 -54.5t-90 -20.5t-90 20.5t-60 54.5t-33.5 76.5t-10.5 87.5z" />
    <glyph glyph-name="P" unicode="P" horiz-adv-x="667" 
d="M69 0h157v256h165q67 0 114 19.5t76.5 51.5t43 73t13.5 85q0 43 -13.5 84.5t-43 73.5t-76.5 51.5t-114 19.5h-322v-714zM226 592h122q27 0 52 -4t44 -15.5t30.5 -32.5t11.5 -55t-11.5 -55t-30.5 -32.5t-44 -15.5t-52 -4h-122v214z" />
    <glyph glyph-name="Q" unicode="Q" horiz-adv-x="778" 
d="M736 10l-89 81q45 51 69 118t24 145q0 79 -24 148t-69 120t-110 80t-148 29t-148 -29t-110 -80t-69 -120t-24 -148q0 -77 24 -145t69 -118t110 -79t148 -29q51 0 94.5 11t78.5 31l101 -92zM385 186l67 -61q-8 -8 -27 -9t-36 -1q-53 0 -90 20.5t-60 54.5t-33.5 76.5
t-10.5 87.5q0 47 10.5 91t33.5 78.5t60 55t90 20.5t90 -20.5t60 -55t33.5 -78.5t10.5 -91q0 -56 -12 -96.5t-32 -67.5l-81 74z" />
    <glyph glyph-name="R" unicode="R" horiz-adv-x="722" 
d="M69 0h157v279h157q59 0 85 -26t34 -82q3 -21 4.5 -44.5t4 -46t6 -43t10.5 -37.5h157q-11 15 -16.5 37t-8 45.5t-3.5 46.5t-2 40q-2 27 -7.5 53.5t-17.5 49.5t-31 39.5t-48 24.5v2q60 24 86.5 70t26.5 109q0 40 -14.5 76t-42 63t-66 42.5t-86.5 15.5h-385v-714zM226 592
h172q53 0 80.5 -23.5t27.5 -75.5q0 -54 -27.5 -78t-80.5 -24h-172v201z" />
    <glyph glyph-name="S" unicode="S" horiz-adv-x="649" 
d="M24 237q-1 -66 24.5 -114t67.5 -79t97.5 -46t114.5 -15q73 0 128.5 17.5t93 48t56.5 72.5t19 91q0 40 -12 70.5t-31.5 52.5t-43 37t-47 24.5t-44.5 15t-34 8.5q-67 17 -108.5 28.5t-65 22t-31.5 23.5t-8 34q0 22 10 37.5t25.5 25.5t34.5 14t38 4q28 0 53 -5t44 -17
t30.5 -33t13.5 -53h152q0 62 -23.5 105.5t-63.5 71.5t-91.5 40.5t-107.5 12.5q-48 0 -96 -13t-86 -40t-61.5 -67.5t-23.5 -95.5q0 -50 18.5 -84t48.5 -57t68 -37.5t78 -24.5q39 -11 77 -19.5t68 -21t48.5 -30.5t18.5 -47q0 -27 -14 -44.5t-35 -27.5t-45 -13.5t-45 -3.5
q-32 0 -60.5 7.5t-50 23t-34.5 40.5t-13 61h-152z" />
    <glyph glyph-name="T" unicode="T" 
d="M227 0h157v582h214v132h-585v-132h214v-582z" />
    <glyph glyph-name="U" unicode="U" horiz-adv-x="741" 
d="M675 714h-157v-444q0 -80 -32 -117.5t-116 -37.5q-48 0 -76.5 13t-44.5 35t-21 50t-5 57v444h-157v-444q0 -146 79.5 -216.5t224.5 -70.5q143 0 224 71t81 216v444z" />
    <glyph glyph-name="V" unicode="V" horiz-adv-x="630" 
d="M638 714h-162l-161 -502h-2l-159 502h-162l232 -714h177z" />
    <glyph glyph-name="W" unicode="W" horiz-adv-x="944" 
d="M941 714h-154l-117 -492h-2l-122 492h-147l-124 -486h-2l-113 486h-157l189 -714h159l119 486h2l121 -486h156z" />
    <glyph glyph-name="X" unicode="X" horiz-adv-x="667" 
d="M-6 0h177l159 247l156 -247h187l-249 373l229 341h-172l-145 -228l-140 228h-182l230 -340z" />
    <glyph glyph-name="Y" unicode="Y" horiz-adv-x="667" 
d="M254 0h157v274l265 440h-175l-166 -282l-167 282h-177l263 -436v-278z" />
    <glyph glyph-name="Z" unicode="Z" horiz-adv-x="648" 
d="M23 0h602v132h-393l383 458v124h-562v-132h353l-383 -458v-124z" />
    <glyph glyph-name="bracketleft" unicode="[" horiz-adv-x="333" 
d="M68 -182h264v112h-122v689h122v112h-264v-913z" />
    <glyph glyph-name="backslash" unicode="\" horiz-adv-x="371" 
d="M103 731h-114l279 -748h114z" />
    <glyph glyph-name="bracketright" unicode="]" horiz-adv-x="333" 
d="M265 731h-264v-112h122v-689h-122v-112h264v913z" />
    <glyph glyph-name="asciicircum" unicode="^" horiz-adv-x="600" 
d="M61 315h117l122 275l122 -275h117l-172 385h-134z" />
    <glyph glyph-name="underscore" unicode="_" horiz-adv-x="500" 
d="M0 -125h500v50h-500v-50z" />
    <glyph glyph-name="grave" unicode="`" horiz-adv-x="259" 
d="M106 581h99l-96 142h-157z" />
    <glyph glyph-name="a" unicode="a" horiz-adv-x="574" 
d="M376 200q0 -12 -2.5 -32t-13.5 -39.5t-34 -33.5t-65 -14q-17 0 -33 3t-28 10.5t-19 20t-7 32.5q0 19 7 32.5t18.5 22t26.5 13.5t32 8q16 3 33.5 5t33 5t29 7.5t22.5 12.5v-53zM190 358q4 42 28.5 60t65.5 18q19 0 35.5 -2.5t29 -10t20 -21t7.5 -36.5q0 -22 -14 -33.5
t-37.5 -17.5t-53.5 -9t-63 -8t-64.5 -13.5t-56.5 -25.5t-40 -45.5t-15 -72.5q0 -40 13.5 -69t37.5 -48t56 -28.5t69 -9.5q48 0 94 14.5t80 49.5q1 -13 3.5 -25.5t6.5 -24.5h144q-10 16 -14 48t-4 67v269q0 46 -21 75t-54 45t-73 21.5t-79 5.5q-44 0 -86 -8.5t-76 -28.5
t-56 -53t-25 -83h142z" />
    <glyph glyph-name="b" unicode="b" 
d="M54 0h135v66h2q23 -43 68 -61.5t102 -18.5q39 0 77 16t68.5 49.5t49.5 85t19 122.5t-19 122.5t-49.5 84.5t-68.5 49t-77 16q-48 0 -92.5 -18.5t-70.5 -58.5h-2v260h-142v-714zM433 258q0 -32 -7 -62t-22 -53t-38 -36.5t-54 -13.5q-32 0 -54.5 13.5t-37.5 36.5t-22 53
t-7 62q0 33 7 63t22 53t37.5 36.5t54.5 13.5q31 0 54 -13.5t38 -36.5t22 -53t7 -63z" />
    <glyph glyph-name="c" unicode="c" horiz-adv-x="574" 
d="M545 335q-3 49 -24.5 86t-54.5 61.5t-75.5 36.5t-88.5 12q-63 0 -112 -21t-83 -58.5t-51.5 -89t-17.5 -111.5q0 -58 19 -106.5t53 -84t82 -55t107 -19.5q103 0 169 54.5t80 157.5h-137q-7 -48 -35 -76.5t-78 -28.5q-33 0 -56 15t-36.5 38.5t-19.5 52.5t-6 57t6 58
t20.5 54.5t37.5 40t57 15.5q91 0 105 -89h139z" />
    <glyph glyph-name="d" unicode="d" 
d="M423 0h135v714h-142v-260h-2q-24 38 -65.5 57.5t-87.5 19.5q-57 0 -100 -22.5t-71.5 -59.5t-43 -85.5t-14.5 -100.5q0 -54 14.5 -104t43 -88.5t72 -61.5t102.5 -23q50 0 91 19t66 61h2v-66zM421 260q0 -32 -6 -62t-20 -53.5t-37.5 -37.5t-58.5 -14q-33 0 -56.5 14.5
t-39 38t-22.5 53.5t-7 60q0 32 6.5 61.5t21 52.5t38.5 37t59 14q34 0 57.5 -14t38 -36.5t20.5 -52.5t6 -61z" />
    <glyph glyph-name="e" unicode="e" horiz-adv-x="574" 
d="M544 224q4 60 -10 115t-45.5 98t-80.5 68.5t-115 25.5q-59 0 -107.5 -21t-83.5 -57.5t-54 -86.5t-19 -108q0 -60 18.5 -110t52.5 -86t83 -56t110 -20q88 0 150 41t92 133h-125q-7 -24 -38 -45.5t-74 -21.5q-60 0 -92 31.5t-35 99.5h373zM171 314q1 15 6.5 34t19 36
t36 28.5t56.5 11.5q52 0 77.5 -28t35.5 -82h-231z" />
    <glyph glyph-name="f" unicode="f" horiz-adv-x="333" 
d="M85 0h142v422h98v95h-98v31q0 32 12.5 45.5t41.5 13.5q26 0 52 -3v106q-18 1 -37 2.5t-38 1.5q-44 0 -76 -11.5t-54 -32.5t-32.5 -50t-10.5 -63v-40h-85v-95h85v-422z" />
    <glyph glyph-name="g" unicode="g" 
d="M551 517h-135v-69h-2q-26 45 -64.5 64t-89.5 19q-54 0 -95.5 -21t-69.5 -56.5t-42.5 -82t-14.5 -96.5q0 -53 12.5 -100.5t39.5 -83t69 -56t100 -20.5q47 0 89.5 19.5t65.5 60.5h2v-68q1 -56 -27 -92t-87 -36q-38 0 -67 15.5t-39 55.5h-141q3 -44 24.5 -75.5t54 -51.5
t72 -29.5t77.5 -9.5q59 0 102 11t73 29.5t48 42t28 49t13.5 51t3.5 46.5v484zM295 122q-33 0 -55 14t-35.5 36t-19 49.5t-5.5 55.5q0 29 6.5 55.5t21 47t36 32.5t51.5 12q34 0 57.5 -13t37.5 -35t20 -51t6 -60q0 -28 -7.5 -53.5t-22.5 -45.5t-38 -32t-53 -12z" />
    <glyph glyph-name="h" unicode="h" horiz-adv-x="593" 
d="M54 0h142v271q0 79 26 113.5t84 34.5q50 0 70.5 -31.5t20.5 -95.5v-292h142v318q0 48 -8.5 87.5t-29.5 67t-57.5 43t-93.5 15.5q-40 0 -82 -21t-69 -65h-3v269h-142v-714z" />
    <glyph glyph-name="i" unicode="i" horiz-adv-x="258" 
d="M58 0h142v517h-142v-517zM200 714h-142v-117h142v117z" />
    <glyph glyph-name="j" unicode="j" horiz-adv-x="278" 
d="M-19 -178q11 -2 23 -3t23 -1q54 0 89 9.5t55.5 29t29 48.5t8.5 69v543h-142v-536q0 -29 -16.5 -37.5t-38.5 -8.5q-19 0 -31 4v-117zM209 714h-142v-117h142v117z" />
    <glyph glyph-name="k" unicode="k" horiz-adv-x="574" 
d="M67 0h142v178l55 53l142 -231h172l-217 327l195 190h-168l-179 -186v383h-142v-714z" />
    <glyph glyph-name="l" unicode="l" horiz-adv-x="258" 
d="M58 0h142v714h-142v-714z" />
    <glyph glyph-name="m" unicode="m" horiz-adv-x="906" 
d="M58 0h142v300q0 38 11 61.5t26.5 36t31.5 17t27 4.5q34 0 51.5 -11.5t25 -30.5t8.5 -42t1 -45v-290h142v288q0 24 3.5 47.5t14 42t29 30t48.5 11.5t47.5 -10t26.5 -27t11 -40t2 -49v-293h142v346q0 50 -14 85.5t-39 57.5t-60 32t-76 10q-54 0 -93.5 -26t-62.5 -60
q-21 47 -61.5 66.5t-89.5 19.5q-51 0 -90.5 -22t-67.5 -62h-2v70h-134v-517z" />
    <glyph glyph-name="n" unicode="n" horiz-adv-x="593" 
d="M54 0h142v271q0 79 26 113.5t84 34.5q50 0 70.5 -31.5t20.5 -95.5v-292h142v318q0 48 -8.5 87.5t-29.5 67t-57.5 43t-93.5 15.5q-45 0 -88 -21t-70 -65h-3v72h-135v-517z" />
    <glyph glyph-name="o" unicode="o" 
d="M38 258q0 -62 19 -112t54 -85.5t84 -55t110 -19.5t110.5 19.5t84.5 55t54 85.5t19 112t-19 112.5t-54 86t-84.5 55t-110.5 19.5t-110 -19.5t-84 -55t-54 -86t-19 -112.5zM180 258q0 31 6 61t20.5 53t38.5 37.5t60 14.5t60.5 -14.5t39 -37.5t20.5 -53t6 -61t-6 -60.5
t-20.5 -53t-39 -37.5t-60.5 -14t-60 14t-38.5 37.5t-20.5 53t-6 60.5z" />
    <glyph glyph-name="p" unicode="p" 
d="M54 -182h142v246h2q26 -38 67 -58t88 -20q57 0 99.5 22.5t71 59.5t42.5 85t14 100q0 55 -14 105.5t-43 88.5t-73 61t-105 23q-48 0 -88 -19t-66 -61h-2v66h-135v-699zM315 93q-35 0 -58.5 14t-38 36.5t-21 52t-6.5 61.5q0 31 6 61.5t20.5 53.5t38 37.5t58.5 14.5
q34 0 57.5 -14.5t38.5 -38t21.5 -53.5t6.5 -61q0 -32 -6 -61.5t-20.5 -52t-38 -36.5t-58.5 -14z" />
    <glyph glyph-name="q" unicode="q" 
d="M558 517h-135v-66h-2q-24 43 -66.5 61.5t-90.5 18.5q-59 0 -102.5 -23t-72.5 -61.5t-43 -88.5t-14 -103q0 -75 21 -126.5t53 -83t70.5 -45.5t74.5 -14q47 0 92.5 18.5t70.5 60.5h2v-247h142v699zM174 258q0 31 6.5 61t21.5 53.5t39 37.5t59 14q33 0 56.5 -15t37.5 -39
t20.5 -54t6.5 -60q0 -32 -6.5 -61.5t-21 -52t-38.5 -36t-58 -13.5q-35 0 -58.5 14t-38 37.5t-20.5 53t-6 60.5z" />
    <glyph glyph-name="r" unicode="r" horiz-adv-x="389" 
d="M54 0h142v233q0 34 7 64.5t23.5 53t43.5 35.5t66 13q13 0 27 -1.5t24 -3.5v132q-15 5 -31 5q-26 0 -51.5 -8t-47.5 -22.5t-39 -35t-27 -44.5h-2v96h-135v-517z" />
    <glyph glyph-name="s" unicode="s" horiz-adv-x="537" 
d="M29 168q2 -51 23.5 -86t55 -56.5t76.5 -30.5t88 -9q44 0 86.5 9t75.5 30t53.5 55.5t20.5 85.5q0 36 -14 60.5t-37 41t-52.5 26.5t-60.5 17q-30 7 -59 13t-51.5 13.5t-36.5 19.5t-14 31q0 16 8 25.5t19.5 14.5t25.5 6.5t26 1.5q38 0 66 -14.5t31 -55.5h135
q-4 48 -24.5 79.5t-51.5 50.5t-70.5 27t-81.5 8t-82 -7.5t-72 -26t-51.5 -51t-19.5 -81.5q0 -34 14 -57.5t37 -39t52.5 -25t60.5 -16.5q38 -8 68 -15.5t50.5 -16.5t31.5 -20.5t11 -27.5q0 -19 -9 -31.5t-22.5 -20t-30 -11t-31.5 -3.5q-21 0 -40.5 5t-34.5 15.5t-24.5 27
t-9.5 39.5h-135z" />
    <glyph glyph-name="t" unicode="t" horiz-adv-x="352" 
d="M234 672h-142v-155h-86v-95h86v-305q0 -39 13 -63t35.5 -37.5t52 -18t62.5 -4.5q21 0 43 1t40 4v111q-20 -4 -44 -4q-36 0 -48 12t-12 48v256h104v95h-104v155z" />
    <glyph glyph-name="u" unicode="u" horiz-adv-x="593" 
d="M539 517h-142v-271q0 -79 -26 -113.5t-84 -34.5q-50 0 -70.5 31.5t-20.5 95.5v292h-142v-318q0 -48 8.5 -87.5t29.5 -67t57.5 -43t93.5 -15.5q45 0 88 21t70 65h3v-72h135v517z" />
    <glyph glyph-name="v" unicode="v" horiz-adv-x="520" 
d="M515 517h-141l-109 -353h-2l-109 353h-149l177 -517h158z" />
    <glyph glyph-name="w" unicode="w" horiz-adv-x="814" 
d="M808 517h-146l-95 -350h-2l-88 350h-138l-86 -351h-2l-95 351h-150l164 -517h147l88 347h2l92 -347h146z" />
    <glyph glyph-name="x" unicode="x" horiz-adv-x="537" 
d="M0 0h159l108 163l108 -163h162l-191 275l170 242h-157l-90 -135l-91 135h-162l170 -245z" />
    <glyph glyph-name="y" unicode="y" horiz-adv-x="519" 
d="M525 517h-147l-113 -354h-2l-117 354h-152l182 -485q6 -15 6 -32q0 -16 -6 -30t-18.5 -23.5t-30.5 -11.5q-21 -1 -42 1l-41 4v-117q22 -2 43.5 -3.5t43.5 -1.5q73 0 114 27.5t64 89.5z" />
    <glyph glyph-name="z" unicode="z" horiz-adv-x="519" 
d="M22 0h475v107h-288l269 303v107h-436v-107h249l-269 -303v-107z" />
    <glyph glyph-name="braceleft" unicode="{" horiz-adv-x="333" 
d="M333 731h-127q-17 0 -38.5 -8.5t-40 -25t-31.5 -42t-13 -59.5v-188q0 -25 -10 -42.5t-24 -28t-30 -15t-28 -4.5v-87q12 0 28 -4.5t30 -14t24 -25.5t10 -39v-195q0 -34 13 -59.5t31.5 -42t40 -25t38.5 -8.5h127v112h-54q-18 0 -28.5 7t-16.5 17.5t-7.5 23.5t-1.5 25v160
q0 31 -11.5 52t-27 33.5t-32.5 18t-28 6.5v3q11 1 28 6t32.5 17.5t27 35t11.5 59.5v152q0 12 1.5 25t7.5 23.5t16.5 17.5t28.5 7h54v112z" />
    <glyph glyph-name="bar" unicode="|" horiz-adv-x="223" 
d="M58 -214h107v1000h-107v-1000z" />
    <glyph glyph-name="braceright" unicode="}" horiz-adv-x="333" 
d="M0 -182h127q17 0 38.5 8.5t40 25t31.5 42t13 59.5v195q0 23 10 39t24 25.5t30 14t28 4.5v87q-12 0 -28 4.5t-30 15t-24 28t-10 42.5v188q0 34 -13 59.5t-31.5 42t-40 25t-38.5 8.5h-127v-112h54q18 0 28.5 -7t16.5 -17.5t7.5 -23.5t1.5 -25v-152q0 -37 11 -59.5t27 -35
t33 -17.5t28 -6v-3q-11 -1 -28 -6.5t-33 -18t-27 -33.5t-11 -52v-160q0 -12 -1.5 -25t-7.5 -23.5t-16.5 -17.5t-28.5 -7h-54v-112z" />
    <glyph glyph-name="asciitilde" unicode="~" horiz-adv-x="600" 
d="M493 344l-18 -26t-19.5 -23t-23 -16.5t-27.5 -6.5q-20 0 -47 12l-55 24q-29 13 -57 22.5t-54 9.5q-25 0 -44.5 -7.5t-34.5 -19.5t-26.5 -27.5t-19.5 -31.5l40 -93q6 13 13.5 26t18 23t23 16.5t29.5 6.5q35 0 63 -10.5t52 -24.5q25 -14 49.5 -23.5t52.5 -9.5
q23 0 41.5 7.5t33 19.5t27 27.5t23.5 31.5z" />
    <glyph glyph-name="quotesinglbase" horiz-adv-x="278" 
d="M68 0h66q0 -37 -14 -62.5t-52 -38.5v-66q31 4 57.5 18.5t45.5 36.5t29.5 51t9.5 62v153h-142v-154z" />
    <glyph glyph-name="quotesinglbase" unicode="&#x201a;" horiz-adv-x="278" 
d="M68 0h66q0 -37 -14 -62.5t-52 -38.5v-66q31 4 57.5 18.5t45.5 36.5t29.5 51t9.5 62v153h-142v-154z" />
    <glyph glyph-name="quotedblbase" horiz-adv-x="463" 
d="M267 0h66q0 -37 -14 -62.5t-52 -38.5v-66q31 4 57.5 18.5t45.5 36.5t29.5 51t9.5 62v153h-142v-154zM54 0h66q0 -37 -14 -62.5t-52 -38.5v-66q31 4 57.5 18.5t45.5 36.5t29.5 51t9.5 62v153h-142v-154z" />
    <glyph glyph-name="quotedblbase" unicode="&#x201e;" horiz-adv-x="463" 
d="M267 0h66q0 -37 -14 -62.5t-52 -38.5v-66q31 4 57.5 18.5t45.5 36.5t29.5 51t9.5 62v153h-142v-154zM54 0h66q0 -37 -14 -62.5t-52 -38.5v-66q31 4 57.5 18.5t45.5 36.5t29.5 51t9.5 62v153h-142v-154z" />
    <glyph glyph-name="ellipsis" unicode="&#x85;" horiz-adv-x="1000" 
d="M88 0h157v154h-157v-154zM421 0h157v154h-157v-154zM754 0h157v154h-157v-154z" />
    <glyph glyph-name="ellipsis" unicode="&#x2026;" horiz-adv-x="1000" 
d="M88 0h157v154h-157v-154zM421 0h157v154h-157v-154zM754 0h157v154h-157v-154z" />
    <glyph glyph-name="dagger" horiz-adv-x="556" 
d="M210 -166h135v566h187v117h-187v197h-135v-197h-186v-117h186v-566z" />
    <glyph glyph-name="dagger" unicode="&#x2020;" horiz-adv-x="556" 
d="M210 -166h135v566h187v117h-187v197h-135v-197h-186v-117h186v-566z" />
    <glyph glyph-name="daggerdbl" horiz-adv-x="556" 
d="M210 -166h135v193h187v117h-187v256h187v117h-187v197h-135v-197h-186v-117h186v-256h-186v-117h186v-193z" />
    <glyph glyph-name="daggerdbl" unicode="&#x2021;" horiz-adv-x="556" 
d="M210 -166h135v193h187v117h-187v256h187v117h-187v197h-135v-197h-186v-117h186v-256h-186v-117h186v-193z" />
    <glyph glyph-name="perthousand" horiz-adv-x="1147" 
d="M530 172q0 14 1 30.5t7 30.5t17.5 23t32.5 9q20 0 31 -9.5t16 -24.5t6 -34.5t1 -38.5q0 -18 -0.5 -37t-6 -34.5t-17 -25.5t-32.5 -10q-20 0 -31 11t-16.5 28t-7 39t-1.5 43zM440 155q0 -75 38 -122t108 -47q39 0 66.5 13t45 35.5t26 54t8.5 67.5t-7.5 68t-24.5 55.5
t-44.5 37t-68.5 13.5q-39 0 -67 -14t-45.5 -38t-26 -56t-8.5 -67zM786 155q0 -75 38 -122t108 -47q39 0 66.5 13t45 35.5t26 54t8.5 67.5t-7.5 68t-24.5 55.5t-44.5 37t-68.5 13.5q-39 0 -67 -14t-45.5 -38t-26 -56t-8.5 -67zM876 172q0 14 1 30.5t7 30.5t17.5 23t32.5 9
q20 0 31 -9.5t16 -24.5t6 -34.5t1 -38.5q0 -18 -0.5 -37t-6 -34.5t-17 -25.5t-32.5 -10q-20 0 -31 11t-16.5 28t-7 39t-1.5 43zM69 539q0 -75 38 -122t108 -47q39 0 66.5 13t45 35.5t26 54t8.5 67.5t-7.5 68t-24.5 55.5t-44.5 37t-68.5 13.5q-39 0 -67 -14t-45.5 -38
t-26 -56t-8.5 -67zM159 556q0 14 1 30.5t7 30.5t17.5 23t32.5 9q20 0 31 -9.5t16 -24.5t6 -34.5t1 -38.5q0 -18 -0.5 -37t-6 -34.5t-17 -25.5t-32.5 -10q-20 0 -31 11t-16.5 28t-7 39t-1.5 43zM150 -22h87l412 744h-85z" />
    <glyph glyph-name="perthousand" unicode="&#x2030;" horiz-adv-x="1147" 
d="M530 172q0 14 1 30.5t7 30.5t17.5 23t32.5 9q20 0 31 -9.5t16 -24.5t6 -34.5t1 -38.5q0 -18 -0.5 -37t-6 -34.5t-17 -25.5t-32.5 -10q-20 0 -31 11t-16.5 28t-7 39t-1.5 43zM440 155q0 -75 38 -122t108 -47q39 0 66.5 13t45 35.5t26 54t8.5 67.5t-7.5 68t-24.5 55.5
t-44.5 37t-68.5 13.5q-39 0 -67 -14t-45.5 -38t-26 -56t-8.5 -67zM786 155q0 -75 38 -122t108 -47q39 0 66.5 13t45 35.5t26 54t8.5 67.5t-7.5 68t-24.5 55.5t-44.5 37t-68.5 13.5q-39 0 -67 -14t-45.5 -38t-26 -56t-8.5 -67zM876 172q0 14 1 30.5t7 30.5t17.5 23t32.5 9
q20 0 31 -9.5t16 -24.5t6 -34.5t1 -38.5q0 -18 -0.5 -37t-6 -34.5t-17 -25.5t-32.5 -10q-20 0 -31 11t-16.5 28t-7 39t-1.5 43zM69 539q0 -75 38 -122t108 -47q39 0 66.5 13t45 35.5t26 54t8.5 67.5t-7.5 68t-24.5 55.5t-44.5 37t-68.5 13.5q-39 0 -67 -14t-45.5 -38
t-26 -56t-8.5 -67zM159 556q0 14 1 30.5t7 30.5t17.5 23t32.5 9q20 0 31 -9.5t16 -24.5t6 -34.5t1 -38.5q0 -18 -0.5 -37t-6 -34.5t-17 -25.5t-32.5 -10q-20 0 -31 11t-16.5 28t-7 39t-1.5 43zM150 -22h87l412 744h-85z" />
    <glyph glyph-name="guilsinglleft" horiz-adv-x="241" 
d="M199 80v120l-90 72l90 71v120l-157 -123v-135z" />
    <glyph glyph-name="guilsinglleft" unicode="&#x2039;" horiz-adv-x="241" 
d="M199 80v120l-90 72l90 71v120l-157 -123v-135z" />
    <glyph glyph-name="quoteleft" horiz-adv-x="278" 
d="M210 547h-66q0 37 14 62.5t52 38.5v66q-31 -4 -57.5 -18.5t-45.5 -36.5t-29.5 -51t-9.5 -62v-153h142v154z" />
    <glyph glyph-name="quoteleft" unicode="&#x2018;" horiz-adv-x="278" 
d="M210 547h-66q0 37 14 62.5t52 38.5v66q-31 -4 -57.5 -18.5t-45.5 -36.5t-29.5 -51t-9.5 -62v-153h142v154z" />
    <glyph glyph-name="quoteright" horiz-adv-x="278" 
d="M68 560h66q0 -37 -14 -62.5t-52 -38.5v-66q31 4 57.5 18.5t45.5 36.5t29.5 51t9.5 62v153h-142v-154z" />
    <glyph glyph-name="quoteright" unicode="&#x2019;" horiz-adv-x="278" 
d="M68 560h66q0 -37 -14 -62.5t-52 -38.5v-66q31 4 57.5 18.5t45.5 36.5t29.5 51t9.5 62v153h-142v-154z" />
    <glyph glyph-name="quotedblleft" horiz-adv-x="463" 
d="M409 547h-66q0 37 14 62.5t52 38.5v66q-31 -4 -57.5 -18.5t-45.5 -36.5t-29.5 -51t-9.5 -62v-153h142v154zM196 547h-66q0 37 14 62.5t52 38.5v66q-31 -4 -57.5 -18.5t-45.5 -36.5t-29.5 -51t-9.5 -62v-153h142v154z" />
    <glyph glyph-name="quotedblleft" unicode="&#x201c;" horiz-adv-x="463" 
d="M409 547h-66q0 37 14 62.5t52 38.5v66q-31 -4 -57.5 -18.5t-45.5 -36.5t-29.5 -51t-9.5 -62v-153h142v154zM196 547h-66q0 37 14 62.5t52 38.5v66q-31 -4 -57.5 -18.5t-45.5 -36.5t-29.5 -51t-9.5 -62v-153h142v154z" />
    <glyph glyph-name="quotedblright" horiz-adv-x="463" 
d="M267 560h66q0 -37 -14 -62.5t-52 -38.5v-66q31 4 57.5 18.5t45.5 36.5t29.5 51t9.5 62v153h-142v-154zM54 560h66q0 -37 -14 -62.5t-52 -38.5v-66q31 4 57.5 18.5t45.5 36.5t29.5 51t9.5 62v153h-142v-154z" />
    <glyph glyph-name="quotedblright" unicode="&#x201d;" horiz-adv-x="463" 
d="M267 560h66q0 -37 -14 -62.5t-52 -38.5v-66q31 4 57.5 18.5t45.5 36.5t29.5 51t9.5 62v153h-142v-154zM54 560h66q0 -37 -14 -62.5t-52 -38.5v-66q31 4 57.5 18.5t45.5 36.5t29.5 51t9.5 62v153h-142v-154z" />
    <glyph glyph-name="bullet" horiz-adv-x="501" 
d="M72 357q0 -37 14 -69.5t38 -57t56.5 -38.5t69.5 -14t69.5 14t57 38.5t38.5 57t14 69.5t-14 69.5t-38.5 56.5t-57 38t-69.5 14t-69.5 -14t-56.5 -38t-38 -56.5t-14 -69.5z" />
    <glyph glyph-name="bullet" unicode="&#x2022;" horiz-adv-x="501" 
d="M72 357q0 -37 14 -69.5t38 -57t56.5 -38.5t69.5 -14t69.5 14t57 38.5t38.5 57t14 69.5t-14 69.5t-38.5 56.5t-57 38t-69.5 14t-69.5 -14t-56.5 -38t-38 -56.5t-14 -69.5z" />
    <glyph glyph-name="endash" horiz-adv-x="500" 
d="M0 212h500v122h-500v-122z" />
    <glyph glyph-name="endash" unicode="&#x2013;" horiz-adv-x="500" 
d="M0 212h500v122h-500v-122z" />
    <glyph glyph-name="emdash" horiz-adv-x="1000" 
d="M130 212h740v122h-740v-122z" />
    <glyph glyph-name="emdash" unicode="&#x2014;" horiz-adv-x="1000" 
d="M130 212h740v122h-740v-122z" />
    <glyph glyph-name="trademark" horiz-adv-x="1000" 
d="M928 714h-135l-103 -271l-103 271h-136v-412h96v292h2l106 -292h69l106 292h2v-292h96v412zM398 714h-336v-80h117v-332h102v332h117v80z" />
    <glyph glyph-name="trademark" unicode="&#x2122;" horiz-adv-x="1000" 
d="M928 714h-135l-103 -271l-103 271h-136v-412h96v292h2l106 -292h69l106 292h2v-292h96v412zM398 714h-336v-80h117v-332h102v332h117v80z" />
    <glyph glyph-name="guilsinglright" horiz-adv-x="241" 
d="M42 463v-120l90 -71l-90 -72v-120l157 125v135z" />
    <glyph glyph-name="guilsinglright" unicode="&#x203a;" horiz-adv-x="241" 
d="M42 463v-120l90 -71l-90 -72v-120l157 125v135z" />
    <glyph glyph-name="caron" unicode="&#xa1;" horiz-adv-x="259" 
d="M305 723h-110l-65 -81l-64 81h-112l111 -142h130z" />
    <glyph glyph-name="caron" unicode="&#x2c7;" horiz-adv-x="259" 
d="M305 723h-110l-65 -81l-64 81h-112l111 -142h130z" />
    <glyph glyph-name="breve" unicode="&#xa2;" horiz-adv-x="259" 
d="M-39 727q6 -72 46.5 -109t112.5 -37q74 0 121 34.5t57 111.5h-63q-9 -38 -37 -54.5t-73 -16.5q-15 0 -31 3.5t-30.5 11.5t-24.5 22t-13 34h-65z" />
    <glyph glyph-name="breve" unicode="&#x2d8;" horiz-adv-x="259" 
d="M-39 727q6 -72 46.5 -109t112.5 -37q74 0 121 34.5t57 111.5h-63q-9 -38 -37 -54.5t-73 -16.5q-15 0 -31 3.5t-30.5 11.5t-24.5 22t-13 34h-65z" />
    <glyph glyph-name="currency" unicode="&#xa4;" horiz-adv-x="556" 
d="M20 149l56 -56l56 58q26 -24 64.5 -36.5t82.5 -12.5q42 0 80 13t63 37l57 -58l55 55l-55 56q23 28 34.5 66t11.5 80t-11.5 80.5t-33.5 62.5l56 55l-61 61l-58 -57q-23 20 -60 32.5t-77 12.5q-42 0 -81.5 -12.5t-64.5 -33.5l-57 56l-57 -57l57 -58q-25 -25 -36.5 -63.5
t-11.5 -80.5t12.5 -78.5t35.5 -63.5zM280 491q30 0 53 -12t38 -31.5t22.5 -45t7.5 -51.5q0 -27 -7.5 -52.5t-22.5 -45.5t-38 -32t-54 -12t-54.5 11.5t-39.5 31t-24 45t-8 52.5q0 28 8 53.5t24 45t39.5 31.5t55.5 12z" />
    <glyph glyph-name="section" unicode="&#xa7;" horiz-adv-x="556" 
d="M377 287q18 -10 31.5 -25t13.5 -38q0 -8 -3.5 -18t-9.5 -18t-14.5 -13.5t-18.5 -5.5q-9 0 -17 2.5t-13 4.5l-180 98q-17 9 -24.5 22t-7.5 27q0 11 4 22.5t10.5 21t16 16t20.5 7.5q8 1 14.5 -3t12.5 -7zM494 538q0 46 -16.5 82t-45 61t-67 37.5t-82.5 12.5
q-38 0 -75.5 -11t-67 -33t-48 -54.5t-18.5 -74.5q0 -32 11 -55t32 -46q-51 -18 -79 -55t-28 -91q0 -37 15 -65.5t40 -51t56 -40.5t64 -33l63.5 -29t54.5 -29t38 -32.5t14 -39.5q0 -33 -21.5 -49.5t-52.5 -16.5q-45 0 -70.5 21.5t-27.5 65.5h-124q0 -51 17 -87.5t47.5 -60.5
t71.5 -35t89 -11q38 0 76 10.5t68.5 31.5t49.5 52.5t19 73.5q0 36 -13 66t-42 52q47 17 75.5 56.5t28.5 89.5q0 36 -14.5 63.5t-37.5 49t-53.5 39t-61.5 32.5l-61.5 28.5t-54.5 28.5t-39 31.5t-15 37.5q0 30 24.5 47t51.5 17q40 0 62.5 -24.5t22.5 -61.5h124z" />
    <glyph glyph-name="dieresis" unicode="&#xa8;" horiz-adv-x="259" 
d="M165 597h135v117h-135v-117zM-41 597h135v117h-135v-117z" />
    <glyph glyph-name="copyright" unicode="&#xa9;" horiz-adv-x="800" 
d="M16 357q0 -85 31.5 -154t84.5 -118t122.5 -75.5t145.5 -26.5t145.5 26.5t122.5 75.5t84.5 118t31.5 154t-31.5 154.5t-84.5 118t-122.5 75t-145.5 26.5t-145.5 -26.5t-122.5 -75t-84.5 -118t-31.5 -154.5zM118 357q0 64 22 118t60 93t89.5 61t110.5 22q58 0 109.5 -22
t89.5 -61t60.5 -93t22.5 -118t-22.5 -118t-60.5 -93t-89.5 -61t-109.5 -22q-59 0 -110.5 22t-89.5 61t-60 93t-22 118zM515 295q-5 -36 -32 -57t-69 -21q-27 0 -49 11.5t-37.5 31t-24 46t-8.5 55.5q0 62 30 102t87 40q39 0 67 -20t36 -55h78q-5 38 -21 67t-40 48.5t-55 29.5
t-65 10q-50 0 -89.5 -17t-67 -47t-42 -71t-14.5 -89q0 -47 15.5 -87.5t43.5 -70.5t67.5 -47t88.5 -17q33 0 63.5 10.5t55 31t41 49.5t22.5 67h-81z" />
    <glyph glyph-name="guillemotleft" unicode="&#xab;" horiz-adv-x="444" 
d="M402 80v120l-90 72l90 71v120l-157 -123v-135zM199 80v120l-90 72l90 71v120l-157 -123v-135z" />
    <glyph glyph-name="logicalnot" horiz-adv-x="600" 
d="M552 406h-504v-107h397v-200h107v307z" />
    <glyph glyph-name="registered" unicode="&#xae;" horiz-adv-x="800" 
d="M208 545q0 -43 16 -77.5t42.5 -59t61 -38t72.5 -13.5t73 13.5t61.5 38t42 59t15.5 77.5q0 42 -15.5 76.5t-42 59t-61.5 37.5t-73 13t-72.5 -13t-61 -37.5t-42.5 -59t-16 -76.5zM259 545q0 32 11 58.5t30 46t45 30.5t55 11t55 -11t45 -30.5t30 -46t11 -58.5t-11 -59.5
t-30 -47t-45 -30.5t-55 -11t-55 11t-45 30.5t-30 47t-11 59.5zM326 440h41v90h26l51 -90h44l-56 92q23 2 39 14.5t16 41.5q0 34 -21.5 48t-60.5 14h-79v-210zM367 617h35q14 0 28.5 -4.5t14.5 -21.5q0 -19 -11.5 -24t-29.5 -5h-37v55z" />
    <glyph glyph-name="degree" unicode="&#xb0;" horiz-adv-x="400" 
d="M52 566q0 -31 11.5 -58t31.5 -47t47 -31.5t58 -11.5t58 11.5t47 31.5t31.5 47t11.5 58t-11.5 58t-31.5 47t-47 31.5t-58 11.5t-58 -11.5t-47 -31.5t-31.5 -47t-11.5 -58zM117 566q0 18 7 34t18.5 28t26.5 19t31 7t31 -7t26.5 -19t18.5 -28t7 -34t-7 -34t-18.5 -28
t-26.5 -19t-31 -7t-31 7t-26.5 19t-18.5 28t-7 34z" />
    <glyph glyph-name="plusminus" unicode="&#xb1;" horiz-adv-x="600" 
d="M354 506h-107v-131h-199v-107h199v-131h107v131h199v107h-199v131zM48 0h505v107h-505v-107z" />
    <glyph glyph-name="ogonek" unicode="&#xb2;" horiz-adv-x="259" 
d="M202 -128q-14 -19 -28 -24.5t-30 -5.5q-15 0 -27 9.5t-12 24.5q0 26 17.5 54.5t65.5 72.5h-65q-42 -25 -65 -46t-34 -37.5t-13 -28.5t-2 -19q0 -32 13 -50t31 -27t36 -11t27 -2q34 0 69 15t65 53z" />
    <glyph glyph-name="ogonek" unicode="&#x2db;" horiz-adv-x="259" 
d="M202 -128q-14 -19 -28 -24.5t-30 -5.5q-15 0 -27 9.5t-12 24.5q0 26 17.5 54.5t65.5 72.5h-65q-42 -25 -65 -46t-34 -37.5t-13 -28.5t-2 -19q0 -32 13 -50t31 -27t36 -11t27 -2q34 0 69 15t65 53z" />
    <glyph glyph-name="acute" unicode="&#xb4;" horiz-adv-x="259" 
d="M307 723h-157l-96 -142h99z" />
    <glyph glyph-name="mu" unicode="&#xb5;" horiz-adv-x="593" 
d="M539 517h-142v-271q0 -79 -26 -113.5t-84 -34.5q-50 0 -70.5 31.5t-20.5 95.5v292h-142v-699h142v192q9 -10 27 -17t48 -7q12 0 28.5 5.5t34.5 16t35.5 26.5t31.5 38h3v-72h135v517z" />
    <glyph glyph-name="mu" unicode="&#x3bc;" horiz-adv-x="593" 
d="M539 517h-142v-271q0 -79 -26 -113.5t-84 -34.5q-50 0 -70.5 31.5t-20.5 95.5v292h-142v-699h142v192q9 -10 27 -17t48 -7q12 0 28.5 5.5t34.5 16t35.5 26.5t31.5 38h3v-72h135v517z" />
    <glyph glyph-name="paragraph" unicode="&#xb6;" horiz-adv-x="620" 
d="M221 -166h102v800h110v-800h102v880h-293q-52 0 -96 -9t-76 -30t-50 -56t-18 -87q0 -80 57 -127.5t162 -47.5v-523z" />
    <glyph glyph-name="periodcentered" unicode="&#xb7;" horiz-adv-x="278" 
d="M55 287q0 -17 7 -32.5t18.5 -27t27 -18t33.5 -6.5q16 0 31.5 7t26.5 19t18 27t7 31q0 35 -25 60t-59 25q-17 0 -32.5 -6.5t-27 -18t-18.5 -27t-7 -33.5z" />
    <glyph glyph-name="periodcentered" unicode="&#x22c5;" horiz-adv-x="278" 
d="M55 287q0 -17 7 -32.5t18.5 -27t27 -18t33.5 -6.5q16 0 31.5 7t26.5 19t18 27t7 31q0 35 -25 60t-59 25q-17 0 -32.5 -6.5t-27 -18t-18.5 -27t-7 -33.5z" />
    <glyph glyph-name="cedilla" unicode="&#xb8;" horiz-adv-x="259" 
d="M12 -196q14 -5 26.5 -9t26 -7t30.5 -4.5t41 -1.5q22 0 43 4.5t37.5 16t26.5 31t10 48.5q0 18 -8 31.5t-21 22t-29.5 12.5t-33.5 4q-24 0 -34 -5h-2l39 55h-49l-59 -85l21 -24q19 7 40 7q17 0 28.5 -6.5t11.5 -25.5q0 -18 -11 -26t-29 -8q-26 0 -47 5.5t-37 12.5z" />
    <glyph glyph-name="guillemotright" unicode="&#xbb;" horiz-adv-x="444" 
d="M245 463v-120l90 -71l-90 -72v-120l157 125v135zM42 463v-120l90 -71l-90 -72v-120l157 125v135z" />
    <glyph glyph-name="hungarumlaut" unicode="&#xbd;" horiz-adv-x="259" 
d="M192 723h-157l-91 -142h99zM399 723h-157l-91 -142h99z" />
    <glyph glyph-name="hungarumlaut" unicode="&#x2dd;" horiz-adv-x="259" 
d="M192 723h-157l-91 -142h99zM399 723h-157l-91 -142h99z" />
    <glyph glyph-name="Aacute" unicode="&#xc1;" horiz-adv-x="685" 
d="M267 778h99l154 142h-157zM-7 0h157l58 159h267l54 -159h163l-267 714h-161zM249 276l93 262h2l90 -262h-185z" />
    <glyph glyph-name="Acircumflex" unicode="&#xc2;" horiz-adv-x="685" 
d="M-7 0h157l58 159h267l54 -159h163l-267 714h-161zM249 276l93 262h2l90 -262h-185zM167 778h107l68 82l59 -82h116l-110 142h-129z" />
    <glyph glyph-name="Adieresis" unicode="&#xc4;" horiz-adv-x="685" 
d="M-7 0h157l58 159h267l54 -159h163l-267 714h-161zM249 276l93 262h2l90 -262h-185zM378 794h135v117h-135v-117zM172 794h135v117h-135v-117z" />
    <glyph glyph-name="Ccedilla" unicode="&#xc7;" horiz-adv-x="741" 
d="M697 474q-7 62 -34 110t-68.5 80.5t-94 49.5t-111.5 17q-83 0 -148 -29t-110 -80t-69 -120t-24 -148q0 -72 20.5 -135.5t60 -113t96.5 -81t130 -38.5l-48 -69l21 -24q19 7 40 7q17 0 28.5 -6.5t11.5 -25.5q0 -18 -11 -26t-29 -8q-26 0 -47 5.5t-37 12.5l-21 -48
q14 -5 26.5 -9t26 -7t30.5 -4.5t41 -1.5q22 0 43 4.5t37.5 16t26.5 31t10 48.5q0 18 -8 31.5t-21 22t-29.5 12.5t-33.5 4q-24 0 -34 -5h-2l26 36q65 1 119.5 21.5t95 58.5t65.5 92t31 120h-152q-9 -71 -49.5 -115.5t-112.5 -44.5q-53 0 -90 20.5t-60 54.5t-33.5 76.5
t-10.5 87.5q0 47 10.5 91t33.5 78.5t60 55t90 20.5q29 0 55.5 -9.5t47.5 -26.5t35 -39.5t18 -49.5h152z" />
    <glyph glyph-name="Eacute" unicode="&#xc9;" horiz-adv-x="648" 
d="M69 0h542v132h-385v175h346v122h-346v153h377v132h-534v-714zM249 778h99l154 142h-157z" />
    <glyph glyph-name="Edieresis" unicode="&#xcb;" horiz-adv-x="648" 
d="M69 0h542v132h-385v175h346v122h-346v153h377v132h-534v-714zM360 794h135v117h-135v-117zM154 794h135v117h-135v-117z" />
    <glyph glyph-name="Iacute" unicode="&#xcd;" horiz-adv-x="295" 
d="M69 0h157v714h-157v-714zM325 920h-157l-96 -142h99z" />
    <glyph glyph-name="Icircumflex" unicode="&#xce;" horiz-adv-x="295" 
d="M69 0h157v714h-157v-714zM-28 778h107l68 82l59 -82h116l-110 142h-129z" />
    <glyph glyph-name="Oacute" unicode="&#xd3;" horiz-adv-x="778" 
d="M38 354q0 -77 24 -145t69 -118t110 -79t148 -29t148 29t110 79t69 118t24 145q0 79 -24 148t-69 120t-110 80t-148 29t-148 -29t-110 -80t-69 -120t-24 -148zM195 354q0 47 10.5 91t33.5 78.5t60 55t90 20.5t90 -20.5t60 -55t33.5 -78.5t10.5 -91q0 -45 -10.5 -87.5
t-33.5 -76.5t-60 -54.5t-90 -20.5t-90 20.5t-60 54.5t-33.5 76.5t-10.5 87.5zM314 778h99l154 142h-157z" />
    <glyph glyph-name="Ocircumflex" unicode="&#xd4;" horiz-adv-x="778" 
d="M38 354q0 -77 24 -145t69 -118t110 -79t148 -29t148 29t110 79t69 118t24 145q0 79 -24 148t-69 120t-110 80t-148 29t-148 -29t-110 -80t-69 -120t-24 -148zM195 354q0 47 10.5 91t33.5 78.5t60 55t90 20.5t90 -20.5t60 -55t33.5 -78.5t10.5 -91q0 -45 -10.5 -87.5
t-33.5 -76.5t-60 -54.5t-90 -20.5t-90 20.5t-60 54.5t-33.5 76.5t-10.5 87.5zM214 778h107l68 82l59 -82h116l-110 142h-129z" />
    <glyph glyph-name="Odieresis" unicode="&#xd6;" horiz-adv-x="778" 
d="M38 354q0 -77 24 -145t69 -118t110 -79t148 -29t148 29t110 79t69 118t24 145q0 79 -24 148t-69 120t-110 80t-148 29t-148 -29t-110 -80t-69 -120t-24 -148zM195 354q0 47 10.5 91t33.5 78.5t60 55t90 20.5t90 -20.5t60 -55t33.5 -78.5t10.5 -91q0 -45 -10.5 -87.5
t-33.5 -76.5t-60 -54.5t-90 -20.5t-90 20.5t-60 54.5t-33.5 76.5t-10.5 87.5zM425 794h135v117h-135v-117zM219 794h135v117h-135v-117z" />
    <glyph glyph-name="Uacute" unicode="&#xda;" horiz-adv-x="741" 
d="M66 270q0 -146 79.5 -216.5t224.5 -70.5q143 0 224 71t81 216v444h-157v-444q0 -80 -32 -117.5t-116 -37.5q-48 0 -76.5 13t-44.5 35t-21 50t-5 57v444h-157v-444zM295 778h99l154 142h-157z" />
    <glyph glyph-name="Udieresis" unicode="&#xdc;" horiz-adv-x="741" 
d="M66 270q0 -146 79.5 -216.5t224.5 -70.5q143 0 224 71t81 216v444h-157v-444q0 -80 -32 -117.5t-116 -37.5q-48 0 -76.5 13t-44.5 35t-21 50t-5 57v444h-157v-444zM406 794h135v117h-135v-117zM200 794h135v117h-135v-117z" />
    <glyph glyph-name="germandbls" unicode="&#xdf;" 
d="M56 0h142v516q0 45 23 71.5t66 26.5q11 0 27.5 -2t31.5 -11t26 -27t11 -49q0 -23 -9 -40t-23.5 -28t-33.5 -16t-39 -5q-5 0 -10.5 0.5t-11.5 1.5v-94q9 1 18 1.5t17 0.5q63 0 92.5 -34t29.5 -88q0 -25 -8.5 -47t-24 -38.5t-37 -26t-46.5 -9.5q-11 0 -21 1t-20 4v-116
q40 -6 82 -6q48 0 87.5 19t68.5 51t45 74t16 89q0 32 -8 61.5t-24.5 53t-40.5 40.5t-57 24v2q42 13 67.5 52.5t25.5 86.5q0 49 -18.5 85.5t-50 60t-72.5 35t-86 11.5q-75 0 -121 -22t-71.5 -56.5t-34 -77t-8.5 -84.5v-491z" />
    <glyph glyph-name="aacute" unicode="&#xe1;" horiz-adv-x="574" 
d="M376 200q0 -12 -2.5 -32t-13.5 -39.5t-34 -33.5t-65 -14q-17 0 -33 3t-28 10.5t-19 20t-7 32.5q0 19 7 32.5t18.5 22t26.5 13.5t32 8q16 3 33.5 5t33 5t29 7.5t22.5 12.5v-53zM190 358q4 42 28.5 60t65.5 18q19 0 35.5 -2.5t29 -10t20 -21t7.5 -36.5q0 -22 -14 -33.5
t-37.5 -17.5t-53.5 -9t-63 -8t-64.5 -13.5t-56.5 -25.5t-40 -45.5t-15 -72.5q0 -40 13.5 -69t37.5 -48t56 -28.5t69 -9.5q48 0 94 14.5t80 49.5q2 -26 12 -50h142q-10 16 -14 48t-4 67v269q0 46 -21 75t-54 45t-73 21.5t-79 5.5q-44 0 -86 -8.5t-76 -28.5t-56 -53t-25 -83
h142zM212 581h99l154 142h-157z" />
    <glyph glyph-name="acircumflex" unicode="&#xe2;" horiz-adv-x="574" 
d="M376 200q0 -12 -2.5 -32t-13.5 -39.5t-34 -33.5t-65 -14q-17 0 -33 3t-28 10.5t-19 20t-7 32.5q0 19 7 32.5t18.5 22t26.5 13.5t32 8q16 3 33.5 5t33 5t29 7.5t22.5 12.5v-53zM190 358q4 42 28.5 60t65.5 18q19 0 35.5 -2.5t29 -10t20 -21t7.5 -36.5q0 -22 -14 -33.5
t-37.5 -17.5t-53.5 -9t-63 -8t-64.5 -13.5t-56.5 -25.5t-40 -45.5t-15 -72.5q0 -40 13.5 -69t37.5 -48t56 -28.5t69 -9.5q48 0 94 14.5t80 49.5q2 -26 12 -50h142q-10 16 -14 48t-4 67v269q0 46 -21 75t-54 45t-73 21.5t-79 5.5q-44 0 -86 -8.5t-76 -28.5t-56 -53t-25 -83
h142zM112 581h107l68 82l59 -82h116l-110 142h-129z" />
    <glyph glyph-name="adieresis" unicode="&#xe4;" horiz-adv-x="574" 
d="M376 200q0 -12 -2.5 -32t-13.5 -39.5t-34 -33.5t-65 -14q-17 0 -33 3t-28 10.5t-19 20t-7 32.5q0 19 7 32.5t18.5 22t26.5 13.5t32 8q16 3 33.5 5t33 5t29 7.5t22.5 12.5v-53zM190 358q4 42 28.5 60t65.5 18q19 0 35.5 -2.5t29 -10t20 -21t7.5 -36.5q0 -22 -14 -33.5
t-37.5 -17.5t-53.5 -9t-63 -8t-64.5 -13.5t-56.5 -25.5t-40 -45.5t-15 -72.5q0 -40 13.5 -69t37.5 -48t56 -28.5t69 -9.5q48 0 94 14.5t80 49.5q2 -26 12 -50h142q-10 16 -14 48t-4 67v269q0 46 -21 75t-54 45t-73 21.5t-79 5.5q-44 0 -86 -8.5t-76 -28.5t-56 -53t-25 -83
h142zM323 597h135v117h-135v-117zM117 597h135v117h-135v-117z" />
    <glyph glyph-name="ccedilla" unicode="&#xe7;" horiz-adv-x="574" 
d="M545 335q-3 49 -24.5 86t-54.5 61.5t-75.5 36.5t-88.5 12q-63 0 -112 -21t-83 -58.5t-51.5 -89t-17.5 -111.5q0 -54 16 -99.5t46 -80t71.5 -56t92.5 -26.5l-50 -72l21 -24q19 7 40 7q17 0 28.5 -6.5t11.5 -25.5q0 -18 -11 -26t-29 -8q-26 0 -47 5.5t-37 12.5l-21 -48
q14 -5 26.5 -9t26 -7t30.5 -4.5t41 -1.5q22 0 43 4.5t37.5 16t26.5 31t10 48.5q0 18 -8 31.5t-21 22t-29.5 12.5t-33.5 4q-24 0 -34 -5h-2l28 40q98 3 161 57t76 154h-137q-7 -48 -35 -76.5t-78 -28.5q-33 0 -56 15t-36.5 38.5t-19.5 52.5t-6 57t6 58t20.5 54.5t37.5 40
t57 15.5q91 0 105 -89h139z" />
    <glyph glyph-name="eacute" unicode="&#xe9;" horiz-adv-x="574" 
d="M545 224v45q0 46 -16 93t-47.5 84.5t-79 61t-109.5 23.5q-59 0 -107.5 -21t-83.5 -57.5t-54 -86.5t-19 -108q0 -60 18.5 -110t52.5 -86t83 -56t110 -20q88 0 150 41t92 133h-124q-8 -24 -39 -45.5t-74 -21.5q-60 0 -92 31.5t-35 99.5h374zM171 314q1 15 6.5 34t19 36
t36 28.5t56.5 11.5q52 0 77.5 -28t36.5 -82h-232zM212 581h99l154 142h-157z" />
    <glyph glyph-name="edieresis" unicode="&#xeb;" horiz-adv-x="574" 
d="M545 224v45q0 46 -16 93t-47.5 84.5t-79 61t-109.5 23.5q-59 0 -107.5 -21t-83.5 -57.5t-54 -86.5t-19 -108q0 -60 18.5 -110t52.5 -86t83 -56t110 -20q88 0 150 41t92 133h-124q-8 -24 -39 -45.5t-74 -21.5q-60 0 -92 31.5t-35 99.5h374zM171 314q1 15 6.5 34t19 36
t36 28.5t56.5 11.5q52 0 77.5 -28t36.5 -82h-232zM323 597h135v117h-135v-117zM117 597h135v117h-135v-117z" />
    <glyph glyph-name="iacute" unicode="&#xed;" horiz-adv-x="258" 
d="M58 0h142v517h-142v-517zM54 581h99l154 142h-157z" />
    <glyph glyph-name="icircumflex" unicode="&#xee;" horiz-adv-x="258" 
d="M58 0h142v517h-142v-517zM-46 581h107l68 82l59 -82h116l-110 142h-129z" />
    <glyph glyph-name="oacute" unicode="&#xf3;" 
d="M38 258q0 -62 19 -112t54 -85.5t84 -55t110 -19.5t110.5 19.5t84.5 55t54 85.5t19 112t-19 112.5t-54 86t-84.5 55t-110.5 19.5t-110 -19.5t-84 -55t-54 -86t-19 -112.5zM180 258q0 31 6 61t20.5 53t38.5 37.5t60 14.5t60.5 -14.5t39 -37.5t20.5 -53t6 -61t-6 -60.5
t-20.5 -53t-39 -37.5t-60.5 -14t-60 14t-38.5 37.5t-20.5 53t-6 60.5zM230 581h99l154 142h-157z" />
    <glyph glyph-name="ocircumflex" unicode="&#xf4;" 
d="M38 258q0 -62 19 -112t54 -85.5t84 -55t110 -19.5t110.5 19.5t84.5 55t54 85.5t19 112t-19 112.5t-54 86t-84.5 55t-110.5 19.5t-110 -19.5t-84 -55t-54 -86t-19 -112.5zM180 258q0 31 6 61t20.5 53t38.5 37.5t60 14.5t60.5 -14.5t39 -37.5t20.5 -53t6 -61t-6 -60.5
t-20.5 -53t-39 -37.5t-60.5 -14t-60 14t-38.5 37.5t-20.5 53t-6 60.5zM130 581h107l68 82l59 -82h116l-110 142h-129z" />
    <glyph glyph-name="odieresis" unicode="&#xf6;" 
d="M38 258q0 -62 19 -112t54 -85.5t84 -55t110 -19.5t110.5 19.5t84.5 55t54 85.5t19 112t-19 112.5t-54 86t-84.5 55t-110.5 19.5t-110 -19.5t-84 -55t-54 -86t-19 -112.5zM180 258q0 31 6 61t20.5 53t38.5 37.5t60 14.5t60.5 -14.5t39 -37.5t20.5 -53t6 -61t-6 -60.5
t-20.5 -53t-39 -37.5t-60.5 -14t-60 14t-38.5 37.5t-20.5 53t-6 60.5zM341 597h135v117h-135v-117zM135 597h135v117h-135v-117z" />
    <glyph glyph-name="divide" unicode="&#xf7;" horiz-adv-x="600" 
d="M48 199h505v107h-505v-107zM216 460q0 -17 7 -32.5t18.5 -27t27 -18t33.5 -6.5q16 0 31.5 7t26.5 19t18 27t7 31q0 35 -25 60t-59 25q-17 0 -32.5 -6.5t-27 -18t-18.5 -27t-7 -33.5zM216 45q0 -17 7 -32.5t18.5 -27t27 -18.5t33.5 -7q16 0 31.5 7.5t26.5 19.5t18 27t7 31
q0 35 -25 59.5t-59 24.5q-17 0 -32.5 -6.5t-27 -18t-18.5 -26.5t-7 -33z" />
    <glyph glyph-name="uacute" unicode="&#xfa;" horiz-adv-x="593" 
d="M54 199q0 -48 8.5 -87.5t29.5 -67t57.5 -43t93.5 -15.5q45 0 88 21t70 65h3v-72h135v517h-142v-271q0 -79 -26 -113.5t-84 -34.5q-50 0 -70.5 31.5t-20.5 95.5v292h-142v-318zM221 581h99l154 142h-157z" />
    <glyph glyph-name="udieresis" unicode="&#xfc;" horiz-adv-x="593" 
d="M54 199q0 -48 8.5 -87.5t29.5 -67t57.5 -43t93.5 -15.5q45 0 88 21t70 65h3v-72h135v517h-142v-271q0 -79 -26 -113.5t-84 -34.5q-50 0 -70.5 31.5t-20.5 95.5v292h-142v-318zM332 597h135v117h-135v-117zM126 597h135v117h-135v-117z" />
    <glyph glyph-name="dotaccent" unicode="&#xff;" horiz-adv-x="259" 
d="M62 597h135v117h-135v-117z" />
    <glyph glyph-name="dotaccent" unicode="&#x2d9;" horiz-adv-x="259" 
d="M62 597h135v117h-135v-117z" />
    <glyph glyph-name="ordfeminine" horiz-adv-x="344" 
d="M230 515q0 -12 -2 -25t-9.5 -24t-22 -18.5t-39.5 -7.5q-14 0 -29.5 7.5t-15.5 29.5q0 19 15 27t36 13q15 3 35.5 5.5t31.5 12.5v-20zM122 605q2 23 17 33.5t32 10.5q25 0 42.5 -6.5t17.5 -32.5q0 -12 -8.5 -18.5t-22.5 -10t-34 -5t-42 -4.5q-21 -3 -41.5 -8t-36.5 -15.5
t-26 -28.5t-10 -45q0 -53 32.5 -76.5t79.5 -23.5q27 0 56.5 8.5t51.5 31.5q2 -16 7 -31h101q-6 11 -9 30.5t-3 44.5v166q0 28 -13.5 45.5t-35 27t-48.5 13t-53 3.5q-28 0 -54 -5t-47 -17t-35.5 -33t-19.5 -54h102z" />
    <glyph glyph-name="ugrave" horiz-adv-x="593" 
d="M539 517h-142v-271q0 -79 -26 -113.5t-84 -34.5q-50 0 -70.5 31.5t-20.5 95.5v292h-142v-318q0 -48 8.5 -87.5t29.5 -67t57.5 -43t93.5 -15.5q45 0 88 21t70 65h3v-72h135v517zM273 581h99l-96 142h-157z" />
    <glyph glyph-name="atilde" horiz-adv-x="574" 
d="M376 200q0 -12 -2.5 -32t-13.5 -39.5t-34 -33.5t-65 -14q-17 0 -33 3t-28 10.5t-19 20t-7 32.5q0 19 7 32.5t18.5 22t26.5 13.5t32 8q16 3 33.5 5t33 5t29 7.5t22.5 12.5v-53zM190 358q4 42 28.5 60t65.5 18q19 0 35.5 -2.5t29 -10t20 -21t7.5 -36.5q0 -22 -14 -33.5
t-37.5 -17.5t-53.5 -9t-63 -8t-64.5 -13.5t-56.5 -25.5t-40 -45.5t-15 -72.5q0 -40 13.5 -69t37.5 -48t56 -28.5t69 -9.5q48 0 94 14.5t80 49.5q1 -13 3.5 -25.5t6.5 -24.5h144q-10 16 -14 48t-4 67v269q0 46 -21 75t-54 45t-73 21.5t-79 5.5q-44 0 -86 -8.5t-76 -28.5
t-56 -53t-25 -83h142zM402 714q1 -14 -9 -24.5t-33 -10.5q-17 0 -33.5 5.5t-32.5 12.5l-31.5 11.5t-32.5 5.5q-33 0 -55 -11t-36 -28.5t-22 -39t-13 -43.5h61q5 19 13.5 30.5t28.5 11.5q17 0 34 -5t36 -12q19 -6 39 -11.5t43 -5.5q31 0 50 11.5t31 28.5t19 37t12 37h-69z
" />
    <glyph glyph-name="igrave" horiz-adv-x="258" 
d="M58 0h142v517h-142v-517zM106 581h99l-96 142h-158z" />
    <glyph glyph-name="Idieresis" horiz-adv-x="295" 
d="M69 0h157v714h-157v-714zM183 794h135v117h-135v-117zM-23 794h135v117h-135v-117z" />
    <glyph glyph-name="dotlessi" unicode="&#x131;" horiz-adv-x="258" 
d="M58 0h142v517h-142v-517z" />
    <glyph glyph-name="ydieresis" horiz-adv-x="519" 
d="M525 517h-147l-113 -354h-2l-117 354h-152l182 -485q6 -15 6 -32q0 -16 -6 -30t-18.5 -23.5t-30.5 -11.5q-21 -1 -42 1l-41 4v-117q22 -2 43.5 -3.5t43.5 -1.5q73 0 114 27.5t64 89.5zM295 597h135v117h-135v-117zM89 597h135v117h-135v-117z" />
    <glyph glyph-name="sterling" horiz-adv-x="556" 
d="M88 -17q29 23 58.5 30.5t56.5 7.5q33 0 55 -6t44 -14q21 -8 46 -13t63 -5t79 14.5t77 49.5l-60 101q-27 -29 -47.5 -36t-40.5 -7t-39 3.5t-39 8.5q-20 4 -39.5 7.5t-39.5 3.5q-14 0 -29 -4t-39 -19l-2 2q33 26 57.5 59.5t24.5 80.5q0 17 -1.5 32t-6.5 30h105v85h-133
q-15 27 -23.5 46t-12 33.5t-4.5 25.5t-1 23q0 42 27 67t71 25q38 0 59.5 -15.5t32 -36.5t13.5 -43.5t4 -37.5h135q0 61 -16.5 107.5t-48 78t-76.5 48t-102 16.5q-63 0 -111 -16t-80 -43.5t-48.5 -63.5t-16.5 -76q0 -45 15 -82t30 -56h-64v-85h99q8 -17 13.5 -33.5t5.5 -33.5
q0 -27 -10 -51.5t-25.5 -45.5t-36 -38.5t-41.5 -30.5z" />
    <glyph glyph-name="ae" horiz-adv-x="907" 
d="M385 188q0 -29 -11 -49t-28 -33t-38 -19t-40 -6q-16 0 -32 3t-28.5 11t-20 20.5t-7.5 32.5q0 19 7 31.5t18.5 20.5t26.5 12.5t31 7.5t33.5 5.5t34 5.5t30.5 8t24 13v-64zM878 224q0 60 -13 115.5t-41.5 98t-73.5 68t-110 25.5q-62 0 -102.5 -17.5t-70.5 -52.5
q-14 20 -33.5 33.5t-43 21.5t-48 11.5t-46.5 3.5q-45 0 -88.5 -9t-77 -29.5t-55 -54t-23.5 -82.5h142q2 45 30 62.5t69 17.5q17 0 33.5 -2.5t29.5 -10t21 -20.5t8 -33t-10 -31t-31.5 -18t-54.5 -11.5t-78 -11.5q-32 -5 -63 -13.5t-55.5 -26t-39.5 -46t-15 -72.5
q0 -43 16.5 -72.5t43.5 -47.5t61.5 -26t71.5 -8q29 0 59 5t57.5 15.5t52 27t42.5 40.5q33 -47 85 -67.5t108 -20.5q42 0 80.5 12t70 34.5t54 55.5t33.5 74h-138q-7 -38 -31.5 -59.5t-71.5 -21.5q-30 0 -53 13t-39 33t-24 45.5t-7 51.5h369zM509 314q0 24 8 46t23 39t36.5 27
t48.5 10t47.5 -10t35 -27t21.5 -39t7 -46h-227z" />
    <glyph glyph-name="radical" unicode="&#x221a;" horiz-adv-x="531" 
d="M544 786h-110l-171 -835l-132 281l-143 -65l40 -85l49 23l154 -319h101z" />
    <glyph glyph-name="Aring" horiz-adv-x="685" 
d="M-7 0h159l56 159h267l54 -159h163l-267 714h-161zM342 538h2l90 -262h-185zM279 853q0 29 17 49.5t46 20.5t46.5 -20.5t17.5 -49.5t-17.5 -49.5t-46.5 -20.5t-46 20.5t-17 49.5zM220 853q0 -25 9.5 -47.5t26 -39t39 -26t47.5 -9.5t47.5 9.5t39.5 26t26.5 39t9.5 47.5
t-9.5 47.5t-26.5 39t-39.5 26t-47.5 9.5t-47.5 -9.5t-39 -26t-26 -39t-9.5 -47.5z" />
    <glyph glyph-name="ring" unicode="&#x2da;" horiz-adv-x="259" 
d="M66 656q0 29 17 49.5t46 20.5t46.5 -20.5t17.5 -49.5t-17.5 -49.5t-46.5 -20.5t-46 20.5t-17 49.5zM7 656q0 -25 9.5 -47.5t26 -39t39 -26t47.5 -9.5t47.5 9.5t39.5 26t26.5 39t9.5 47.5t-9.5 47.5t-26.5 39t-39.5 26t-47.5 9.5t-47.5 -9.5t-39 -26t-26 -39t-9.5 -47.5z
" />
    <glyph glyph-name="tilde" unicode="&#x2dc;" horiz-adv-x="259" 
d="M244 714q1 -14 -9 -24.5t-33 -10.5q-17 0 -33.5 5.5t-32.5 12.5l-31.5 11.5t-32.5 5.5q-33 0 -55 -11t-36 -28.5t-22 -39t-13 -43.5h61q5 19 13.5 30.5t28.5 11.5q17 0 34 -5t36 -12q19 -6 39 -11.5t43 -5.5q31 0 50 11.5t31 28.5t19 37t12 37h-69z" />
    <glyph glyph-name="ecircumflex" horiz-adv-x="574" 
d="M544 224q4 60 -10 115t-45.5 98t-80.5 68.5t-115 25.5q-59 0 -107.5 -21t-83.5 -57.5t-54 -86.5t-19 -108q0 -60 18.5 -110t52.5 -86t83 -56t110 -20q88 0 150 41t92 133h-125q-7 -24 -38 -45.5t-74 -21.5q-60 0 -92 31.5t-35 99.5h373zM171 314q1 15 6.5 34t19 36
t36 28.5t56.5 11.5q52 0 77.5 -28t35.5 -82h-231zM112 581h108l64 81l62 -81h117l-110 142h-130z" />
    <glyph glyph-name="ucircumflex" horiz-adv-x="593" 
d="M539 517h-142v-271q0 -79 -26 -113.5t-84 -34.5q-50 0 -70.5 31.5t-20.5 95.5v292h-142v-318q0 -48 8.5 -87.5t29.5 -67t57.5 -43t93.5 -15.5q45 0 88 21t70 65h3v-72h135v517zM121 581h108l64 81l62 -81h117l-110 142h-130z" />
    <glyph glyph-name="Ecircumflex" horiz-adv-x="648" 
d="M69 0h542v132h-385v175h346v122h-346v153h377v132h-534v-714zM149 778h108l64 81l62 -81h117l-110 142h-130z" />
    <glyph glyph-name="aring" horiz-adv-x="574" 
d="M376 200q0 -12 -2.5 -32t-13.5 -39.5t-34 -33.5t-65 -14q-17 0 -33 3t-28 10.5t-19 20t-7 32.5q0 19 7 32.5t18.5 22t26.5 13.5t32 8q16 3 33.5 5t33 5t29 7.5t22.5 12.5v-53zM190 358q4 42 28.5 60t65.5 18q19 0 35.5 -2.5t29 -10t20 -21t7.5 -36.5q0 -22 -14 -33.5
t-37.5 -17.5t-53.5 -9t-63 -8t-64.5 -13.5t-56.5 -25.5t-40 -45.5t-15 -72.5q0 -40 13.5 -69t37.5 -48t56 -28.5t69 -9.5q48 0 94 14.5t80 49.5q1 -13 3.5 -25.5t6.5 -24.5h144q-10 16 -14 48t-4 67v269q0 46 -21 75t-54 45t-73 21.5t-79 5.5q-44 0 -86 -8.5t-76 -28.5
t-56 -53t-25 -83h142zM224 680q0 29 17 49.5t46 20.5t46.5 -20.5t17.5 -49.5t-17.5 -49.5t-46.5 -20.5t-46 20.5t-17 49.5zM165 680q0 -25 9.5 -47.5t26 -39t39 -26t47.5 -9.5t47.5 9.5t39.5 26t26.5 39t9.5 47.5t-9.5 47.5t-26.5 39t-39.5 26t-47.5 9.5t-47.5 -9.5t-39 -26
t-26 -39t-9.5 -47.5z" />
    <glyph glyph-name="lessequal" unicode="&#x2264;" horiz-adv-x="600" 
d="M553 100v113l-348 111l348 117v113l-505 -179v-102zM48 -41h505v107h-505v-107z" />
    <glyph glyph-name="agrave" horiz-adv-x="574" 
d="M376 200q0 -12 -2.5 -32t-13.5 -39.5t-34 -33.5t-65 -14q-17 0 -33 3t-28 10.5t-19 20t-7 32.5q0 19 7 32.5t18.5 22t26.5 13.5t32 8q16 3 33.5 5t33 5t29 7.5t22.5 12.5v-53zM190 358q4 42 28.5 60t65.5 18q19 0 35.5 -2.5t29 -10t20 -21t7.5 -36.5q0 -22 -14 -33.5
t-37.5 -17.5t-53.5 -9t-63 -8t-64.5 -13.5t-56.5 -25.5t-40 -45.5t-15 -72.5q0 -40 13.5 -69t37.5 -48t56 -28.5t69 -9.5q48 0 94 14.5t80 49.5q1 -13 3.5 -25.5t6.5 -24.5h144q-10 16 -14 48t-4 67v269q0 46 -21 75t-54 45t-73 21.5t-79 5.5q-44 0 -86 -8.5t-76 -28.5
t-56 -53t-25 -83h142zM264 581h99l-96 142h-157z" />
    <glyph glyph-name="Ugrave" horiz-adv-x="741" 
d="M675 714h-157v-444q0 -80 -32 -117.5t-116 -37.5q-48 0 -76.5 13t-44.5 35t-21 50t-5 57v444h-157v-444q0 -146 79.5 -216.5t224.5 -70.5q143 0 224 71t81 216v444zM347 778h99l-96 142h-157z" />
    <glyph glyph-name="questiondown" horiz-adv-x="556" 
d="M375 51q0 -27 -6 -50.5t-18.5 -41t-31.5 -28t-45 -10.5q-40 0 -62.5 22t-22.5 68q0 20 6 35t16 27.5t23 23l28 22.5t29.5 25.5t26.5 32t20.5 42.5t10.5 57v45h-135v-38q-3 -22 -13 -38.5t-23.5 -30t-29.5 -25l-32 -23.5t-31 -26.5t-27 -34t-19 -46t-7 -62.5
q0 -29 12.5 -62.5t41.5 -62.5t76.5 -48.5t118.5 -19.5q54 0 98 18.5t75.5 51.5t49 78t18.5 99h-147zM363 531h-157v-154h157v154z" />
    <glyph glyph-name="cent" horiz-adv-x="556" 
d="M260 93q-28 9 -46.5 26.5t-30 41t-16 50t-4.5 53.5q0 26 5 51.5t16.5 47t30 37.5t45.5 23v-330zM260 -115h59v101q46 4 85.5 20.5t69.5 44t48.5 66t22.5 86.5h-139q0 -19 -7 -37.5t-18.5 -33.5t-27.5 -25.5t-34 -13.5v331q34 -3 58 -28.5t27 -61.5h139q-2 45 -21.5 81.5
t-51 62t-71 39.5t-80.5 14v85h-59v-85q-58 -5 -102.5 -28t-75 -60.5t-46 -86.5t-15.5 -106q0 -53 17 -100t48.5 -82t75.5 -57t98 -25v-101z" />
    <glyph glyph-name="fi" unicode="&#xfb01;" 
d="M553 714h-142v-117h142v117zM411 0h142v517h-142v-517zM85 0h142v422h98v95h-98v31q0 32 12.5 45.5t41.5 13.5q26 0 52 -3v106q-18 1 -37 2.5t-38 1.5q-44 0 -76 -11.5t-54 -32.5t-32.5 -50t-10.5 -63v-40h-85v-95h85v-422z" />
    <glyph glyph-name="oslash" 
d="M195 172q-8 19 -11.5 41t-3.5 45q0 31 6 61t20.5 53t38.5 37.5t60 14.5q53 0 83 -32zM415 349q8 -20 12 -43.5t4 -47.5q0 -31 -6 -60.5t-20.5 -53t-39 -37.5t-60.5 -14q-29 0 -50 9t-35 25zM44 1l37 -32l59 67q68 -50 165 -50q61 0 110.5 19.5t84.5 55t54 85.5t19 112
q0 60 -18 109t-51 84l54 61l-37 32l-53 -61q-68 48 -163 48q-61 0 -110 -19.5t-84 -55t-54 -86t-19 -112.5q0 -117 66 -189z" />
    <glyph glyph-name="Ograve" horiz-adv-x="778" 
d="M38 354q0 -77 24 -145t69 -118t110 -79t148 -29t148 29t110 79t69 118t24 145q0 79 -24 148t-69 120t-110 80t-148 29t-148 -29t-110 -80t-69 -120t-24 -148zM195 354q0 47 10.5 91t33.5 78.5t60 55t90 20.5t90 -20.5t60 -55t33.5 -78.5t10.5 -91q0 -45 -10.5 -87.5
t-33.5 -76.5t-60 -54.5t-90 -20.5t-90 20.5t-60 54.5t-33.5 76.5t-10.5 87.5zM366 778h99l-96 142h-157z" />
    <glyph glyph-name="Otilde" horiz-adv-x="778" 
d="M38 354q0 -77 24 -145t69 -118t110 -79t148 -29t148 29t110 79t69 118t24 145q0 79 -24 148t-69 120t-110 80t-148 29t-148 -29t-110 -80t-69 -120t-24 -148zM195 354q0 47 10.5 91t33.5 78.5t60 55t90 20.5t90 -20.5t60 -55t33.5 -78.5t10.5 -91q0 -45 -10.5 -87.5
t-33.5 -76.5t-60 -54.5t-90 -20.5t-90 20.5t-60 54.5t-33.5 76.5t-10.5 87.5zM504 911q1 -14 -9 -24.5t-33 -10.5q-17 0 -33.5 5.5t-32.5 12.5l-31.5 11.5t-32.5 5.5q-33 0 -55 -11t-36 -28.5t-22 -39t-13 -43.5h61q5 19 13.5 30.5t28.5 11.5q17 0 34 -5t36 -12
q19 -6 39 -11.5t43 -5.5q31 0 50 11.5t31 28.5t19 37t12 37h-69z" />
    <glyph glyph-name="fl" unicode="&#xfb02;" 
d="M411 0h142v714h-142v-714zM85 0h142v422h98v95h-98v31q0 32 12.5 45.5t41.5 13.5q26 0 52 -3v106q-18 1 -37 2.5t-38 1.5q-44 0 -76 -11.5t-54 -32.5t-32.5 -50t-10.5 -63v-40h-85v-95h85v-422z" />
    <glyph glyph-name="ntilde" horiz-adv-x="593" 
d="M54 0h142v271q0 79 26 113.5t84 34.5q50 0 70.5 -31.5t20.5 -95.5v-292h142v318q0 48 -8.5 87.5t-29.5 67t-57.5 43t-93.5 15.5q-45 0 -88 -21t-70 -65h-3v72h-135v-517zM411 714q1 -14 -9 -24.5t-33 -10.5q-17 0 -33.5 5.5t-32.5 12.5l-31.5 11.5t-32.5 5.5
q-33 0 -55 -11t-36 -28.5t-22 -39t-13 -43.5h61q5 19 13.5 30.5t28.5 11.5q17 0 34 -5t36 -12q19 -6 39 -11.5t43 -5.5q31 0 50 11.5t31 28.5t19 37t12 37h-69z" />
    <glyph glyph-name="AE" horiz-adv-x="981" 
d="M418 582h34v-306h-172zM-11 0h167l72 159h224v-159h492v132h-340v175h312v122h-312v153h332v132h-606z" />
    <glyph glyph-name="circumflex" unicode="&#x2c6;" horiz-adv-x="259" 
d="M-46 581h108l64 81l62 -81h117l-110 142h-130z" />
    <glyph glyph-name="Ucircumflex" horiz-adv-x="741" 
d="M675 714h-157v-444q0 -80 -32 -117.5t-116 -37.5q-48 0 -76.5 13t-44.5 35t-21 50t-5 57v444h-157v-444q0 -146 79.5 -216.5t224.5 -70.5q143 0 224 71t81 216v444zM195 778h108l64 81l62 -81h117l-110 142h-130z" />
    <glyph glyph-name="notequal" unicode="&#x2260;" horiz-adv-x="600" 
d="M48 92h106l-48 -95l95 -48l72 143h280v107h-226l54 107h172v107h-117l48 95l-95 48l-72 -143h-269v-107h215l-55 -107h-160v-107z" />
    <glyph glyph-name="summation" unicode="&#x2211;" horiz-adv-x="643" 
d="M606 786h-568v-84l293 -411l-306 -420v-85h593v97h-456l298 409l-279 396h425v98z" />
    <glyph glyph-name="ordmasculine" horiz-adv-x="367" 
d="M12 544q0 -79 46.5 -124t124.5 -45t125 45t47 124t-47 124.5t-125 45.5t-124.5 -45.5t-46.5 -124.5zM119 544q0 17 3.5 34t11.5 30.5t20 22t29 8.5t29.5 -8.5t20.5 -22t11.5 -30.5t3.5 -34t-3.5 -33.5t-11.5 -30t-20.5 -22t-29.5 -8.5t-29 8.5t-20 22t-11.5 30t-3.5 33.5
z" />
    <glyph glyph-name="partialdiff" unicode="&#x2202;" horiz-adv-x="548" 
d="M145 590q9 7 20.5 15t26.5 15.5t33 12.5t39 5q9 0 26 -2.5t36.5 -12t38.5 -30t33 -56.5q5 -14 14.5 -53.5t7.5 -107.5q-22 20 -43 31.5t-40 17.5t-35 7.5t-28 1.5q-48 0 -87.5 -16.5t-67.5 -46t-43.5 -69.5t-15.5 -87q0 -40 13 -80.5t39.5 -73t67.5 -53t97 -20.5
q59 0 100.5 20t69.5 52t44 72.5t24.5 82t10.5 79.5t2 65q0 22 -1.5 50.5t-7 59.5t-14.5 62.5t-24 58.5q-32 57 -87.5 94t-133.5 37q-31 0 -56.5 -6t-46.5 -15.5t-37.5 -21t-30.5 -22.5zM164 210q0 27 7.5 53t22.5 46.5t38.5 32.5t56.5 12q27 0 48 -7.5t36.5 -18.5
t26.5 -22.5l18 -18.5q1 -40 -6.5 -79.5t-24.5 -70.5t-43.5 -50t-62.5 -19q-22 0 -43 8t-37.5 25t-26.5 44t-10 65z" />
    <glyph glyph-name="Egrave" horiz-adv-x="648" 
d="M69 0h542v132h-385v175h346v122h-346v153h377v132h-534v-714zM301 778h99l-96 142h-157z" />
    <glyph glyph-name="florin" unicode="&#x192;" horiz-adv-x="556" 
d="M-5 -167q21 -2 38 -2.5t36 -0.5q55 0 91.5 12t59.5 36.5t36 61.5t22 87l56 310h100l16 95h-98l25 130q6 32 21.5 47t54.5 15q10 0 19.5 -1t20.5 -6l18 107q-35 7 -75 7q-49 0 -84 -9t-59 -29.5t-39 -53.5t-24 -80l-24 -127h-91l-18 -95h92l-63 -329q-6 -35 -20 -53.5
t-52 -17.5q-21 0 -40 3z" />
    <glyph glyph-name="ograve" 
d="M38 258q0 -62 19 -112t54 -85.5t84 -55t110 -19.5t110.5 19.5t84.5 55t54 85.5t19 112t-19 112.5t-54 86t-84.5 55t-110.5 19.5t-110 -19.5t-84 -55t-54 -86t-19 -112.5zM180 258q0 31 6 61t20.5 53t38.5 37.5t60 14.5t60.5 -14.5t39 -37.5t20.5 -53t6 -61t-6 -60.5
t-20.5 -53t-39 -37.5t-60.5 -14t-60 14t-38.5 37.5t-20.5 53t-6 60.5zM282 581h99l-96 142h-157z" />
    <glyph glyph-name="egrave" horiz-adv-x="574" 
d="M544 224q4 60 -10 115t-45.5 98t-80.5 68.5t-115 25.5q-59 0 -107.5 -21t-83.5 -57.5t-54 -86.5t-19 -108q0 -60 18.5 -110t52.5 -86t83 -56t110 -20q88 0 150 41t92 133h-125q-7 -24 -38 -45.5t-74 -21.5q-60 0 -92 31.5t-35 99.5h373zM171 314q1 15 6.5 34t19 36
t36 28.5t56.5 11.5q52 0 77.5 -28t35.5 -82h-231zM264 581h99l-96 142h-157z" />
    <glyph glyph-name="Igrave" horiz-adv-x="295" 
d="M69 0h157v714h-157v-714zM124 778h99l-96 142h-157z" />
    <glyph glyph-name="Ntilde" horiz-adv-x="741" 
d="M69 0h147v478h2l297 -478h157v714h-147v-479h-2l-298 479h-156v-714zM485 892q1 -14 -9 -24.5t-33 -10.5q-17 0 -33.5 5.5t-32.5 12.5l-31.5 11.5t-32.5 5.5q-33 0 -55 -11t-36 -28.5t-22 -39t-13 -43.5h61q5 19 13.5 30.5t28.5 11.5q17 0 34 -5t36 -12q19 -6 39 -11.5
t43 -5.5q31 0 50 11.5t31 28.5t19 37t12 37h-69z" />
    <glyph glyph-name="greaterequal" unicode="&#x2265;" horiz-adv-x="600" 
d="M553 273v102l-505 179v-113l348 -117l-348 -111v-113zM553 66h-505v-107h505v107z" />
    <glyph glyph-name="Oslash" horiz-adv-x="778" 
d="M34 10l49 -43l83 92q42 -35 98 -55.5t125 -20.5q83 0 148 29t110 79t69 118t24 145q0 74 -20.5 138t-59.5 114l84 93l-50 44l-80 -89q-43 37 -99.5 57t-125.5 20q-83 0 -148 -29t-110 -80t-69 -120t-24 -148q0 -72 20.5 -135.5t61.5 -113.5zM223 219q-15 31 -21.5 65.5
t-6.5 69.5q0 47 10.5 91t33.5 78.5t60 55t90 20.5q43 0 75 -14t55 -37zM556 490q14 -31 20.5 -65.5t6.5 -70.5q0 -45 -10.5 -87.5t-33.5 -76.5t-60 -54.5t-90 -20.5q-42 0 -73.5 13t-54.5 36z" />
    <glyph glyph-name="idieresis" horiz-adv-x="258" 
d="M58 0h142v517h-142v-517zM165 597h135v117h-135v-117zM-42 597h136v117h-136v-117z" />
    <glyph glyph-name="yen" horiz-adv-x="556" 
d="M359 0v138h158v95h-158v46l15 29h143v95h-95l155 311h-162l-129 -311l-132 311h-163l154 -311h-95v-95h143l14 -29v-46h-157v-95h157v-138h152z" />
    <glyph glyph-name="Atilde" horiz-adv-x="685" 
d="M-7 0h159l56 159h267l54 -159h163l-267 714h-161zM342 538h2l90 -262h-185zM457 892q1 -14 -9 -24.5t-33 -10.5q-17 0 -33.5 5.5t-32.5 12.5l-31.5 11.5t-32.5 5.5q-33 0 -55 -11t-36 -28.5t-22 -39t-13 -43.5h61q5 19 13.5 30.5t28.5 11.5q17 0 34 -5t36 -12
q19 -6 39 -11.5t43 -5.5q31 0 50 11.5t31 28.5t19 37t12 37h-69z" />
    <glyph glyph-name="macron" unicode="&#x2c9;" horiz-adv-x="259" 
d="M-57 616h373v75h-373v-75z" />
    <glyph glyph-name="lozenge" unicode="&#x25ca;" horiz-adv-x="600" 
d="M348 747h-96l-176 -391l176 -391h96l176 391zM421 356l-121 -291l-120 291l120 290z" />
    <glyph glyph-name="exclamdown" horiz-adv-x="278" 
d="M218 531h-157v-154h157v154zM65 -183h148v192l-38 308h-71l-39 -308v-192z" />
    <glyph glyph-name="Agrave" horiz-adv-x="685" 
d="M-7 0h159l56 159h267l54 -159h163l-267 714h-161zM342 538h2l90 -262h-185zM319 778h99l-96 142h-157z" />
    <glyph glyph-name="otilde" 
d="M38 258q0 -62 19 -112t54 -85.5t84 -55t110 -19.5t110.5 19.5t84.5 55t54 85.5t19 112t-19 112.5t-54 86t-84.5 55t-110.5 19.5t-110 -19.5t-84 -55t-54 -86t-19 -112.5zM180 258q0 31 6 61t20.5 53t38.5 37.5t60 14.5t60.5 -14.5t39 -37.5t20.5 -53t6 -61t-6 -60.5
t-20.5 -53t-39 -37.5t-60.5 -14t-60 14t-38.5 37.5t-20.5 53t-6 60.5zM420 714q1 -14 -9 -24.5t-33 -10.5q-17 0 -33.5 5.5t-32.5 12.5l-31.5 11.5t-32.5 5.5q-33 0 -55 -11t-36 -28.5t-22 -39t-13 -43.5h61q5 19 13.5 30.5t28.5 11.5q17 0 34 -5t36 -12q19 -6 39 -11.5
t43 -5.5q31 0 50 11.5t31 28.5t19 37t12 37h-69z" />
    <glyph glyph-name="space" unicode=" " horiz-adv-x="278" 
 />
    <glyph glyph-name="space" unicode="&#xa0;" horiz-adv-x="278" 
 />
    <glyph glyph-name="OE" unicode="&#x152;" horiz-adv-x="649" 
d="M24 237q0 -66 25.5 -114t67.5 -79t97 -46t114 -15q73 0 128.5 17.5t93 48t56.5 72.5t19 91q0 45 -14.5 79t-41 58t-63.5 40.5t-81 27.5l-120.5 31t-68 23.5t-30 24t-6.5 32.5q0 22 10 37.5t25.5 25.5t34.5 14t38 4q28 0 53 -5t44 -17t30.5 -33t13.5 -53h152
q0 62 -23.5 105.5t-63.5 71.5t-91.5 40.5t-107.5 12.5q-48 0 -96 -13t-86 -40t-61.5 -67.5t-23.5 -95.5q0 -50 18.5 -84.5t50 -58.5t74 -39t89.5 -26q54 -13 90.5 -24t59.5 -23.5t33 -28t10 -37.5q0 -27 -14 -44.5t-35 -27.5t-45 -13.5t-45 -3.5q-32 0 -60.5 7.5t-50 23
t-34.5 40.5t-13 61h-152zM249 778h99l154 142h-157z" />
    <glyph glyph-name="oe" unicode="&#x153;" horiz-adv-x="537" 
d="M29 168q2 -51 23.5 -86t55 -56.5t76.5 -30.5t88 -9q44 0 86.5 9t75.5 30t53.5 55.5t20.5 85.5q0 35 -13.5 59.5t-38 42t-60 29t-78.5 20.5q-72 14 -103.5 28t-31.5 43q0 28 22 38t57 10q38 0 66 -14.5t31 -55.5h135q-4 48 -24.5 79.5t-51.5 50.5t-70.5 27t-81.5 8
t-82 -7.5t-72 -26t-51.5 -51t-19.5 -81.5q0 -34 14 -57.5t37 -39t52.5 -25t60.5 -16.5q38 -8 68 -15.5t50.5 -16.5t31.5 -20.5t11 -27.5q0 -19 -9 -31.5t-22.5 -20t-30 -11t-31.5 -3.5q-21 0 -40.5 5t-34.5 15.5t-24.5 27t-9.5 39.5h-135zM193 581h99l154 142h-157z" />
    <glyph glyph-name="Ydieresis" unicode="&#x178;" horiz-adv-x="519" 
d="M22 0h475v107h-288l269 303v107h-436v-107h249l-269 -303v-107zM184 581h99l154 142h-157z" />
    <glyph glyph-name="Scaron" horiz-adv-x="649" 
d="M24 237q0 -66 25.5 -114t67.5 -79t97 -46t114 -15q73 0 128.5 17.5t93 48t56.5 72.5t19 91q0 45 -14.5 79t-41 58t-63.5 40.5t-81 27.5l-120.5 31t-68 23.5t-30 24t-6.5 32.5q0 22 10 37.5t25.5 25.5t34.5 14t38 4q28 0 53 -5t44 -17t30.5 -33t13.5 -53h152
q0 62 -23.5 105.5t-63.5 71.5t-91.5 40.5t-107.5 12.5q-48 0 -96 -13t-86 -40t-61.5 -67.5t-23.5 -95.5q0 -50 18.5 -84.5t50 -58.5t74 -39t89.5 -26q54 -13 90.5 -24t59.5 -23.5t33 -28t10 -37.5q0 -27 -14 -44.5t-35 -27.5t-45 -13.5t-45 -3.5q-32 0 -60.5 7.5t-50 23
t-34.5 40.5t-13 61h-152zM261 778h129l110 142h-111l-64 -82l-64 82h-112z" />
    <glyph glyph-name="Scaron" unicode="&#x160;" horiz-adv-x="649" 
d="M24 237q0 -66 25.5 -114t67.5 -79t97 -46t114 -15q73 0 128.5 17.5t93 48t56.5 72.5t19 91q0 45 -14.5 79t-41 58t-63.5 40.5t-81 27.5l-120.5 31t-68 23.5t-30 24t-6.5 32.5q0 22 10 37.5t25.5 25.5t34.5 14t38 4q28 0 53 -5t44 -17t30.5 -33t13.5 -53h152
q0 62 -23.5 105.5t-63.5 71.5t-91.5 40.5t-107.5 12.5q-48 0 -96 -13t-86 -40t-61.5 -67.5t-23.5 -95.5q0 -50 18.5 -84.5t50 -58.5t74 -39t89.5 -26q54 -13 90.5 -24t59.5 -23.5t33 -28t10 -37.5q0 -27 -14 -44.5t-35 -27.5t-45 -13.5t-45 -3.5q-32 0 -60.5 7.5t-50 23
t-34.5 40.5t-13 61h-152zM261 778h129l110 142h-111l-64 -82l-64 82h-112z" />
    <glyph glyph-name="Sacute" horiz-adv-x="649" 
d="M24 237q0 -66 25.5 -114t67.5 -79t97 -46t114 -15q73 0 128.5 17.5t93 48t56.5 72.5t19 91q0 45 -14.5 79t-41 58t-63.5 40.5t-81 27.5l-120.5 31t-68 23.5t-30 24t-6.5 32.5q0 22 10 37.5t25.5 25.5t34.5 14t38 4q28 0 53 -5t44 -17t30.5 -33t13.5 -53h152
q0 62 -23.5 105.5t-63.5 71.5t-91.5 40.5t-107.5 12.5q-48 0 -96 -13t-86 -40t-61.5 -67.5t-23.5 -95.5q0 -50 18.5 -84.5t50 -58.5t74 -39t89.5 -26q54 -13 90.5 -24t59.5 -23.5t33 -28t10 -37.5q0 -27 -14 -44.5t-35 -27.5t-45 -13.5t-45 -3.5q-32 0 -60.5 7.5t-50 23
t-34.5 40.5t-13 61h-152zM249 778h99l154 142h-157z" />
    <glyph glyph-name="Sacute" unicode="&#x15a;" horiz-adv-x="649" 
d="M24 237q0 -66 25.5 -114t67.5 -79t97 -46t114 -15q73 0 128.5 17.5t93 48t56.5 72.5t19 91q0 45 -14.5 79t-41 58t-63.5 40.5t-81 27.5l-120.5 31t-68 23.5t-30 24t-6.5 32.5q0 22 10 37.5t25.5 25.5t34.5 14t38 4q28 0 53 -5t44 -17t30.5 -33t13.5 -53h152
q0 62 -23.5 105.5t-63.5 71.5t-91.5 40.5t-107.5 12.5q-48 0 -96 -13t-86 -40t-61.5 -67.5t-23.5 -95.5q0 -50 18.5 -84.5t50 -58.5t74 -39t89.5 -26q54 -13 90.5 -24t59.5 -23.5t33 -28t10 -37.5q0 -27 -14 -44.5t-35 -27.5t-45 -13.5t-45 -3.5q-32 0 -60.5 7.5t-50 23
t-34.5 40.5t-13 61h-152zM249 778h99l154 142h-157z" />
    <glyph glyph-name="Tcaron" 
d="M227 0h157v582h214v132h-585v-132h214v-582zM242 778h129l110 142h-111l-64 -82l-64 82h-112z" />
    <glyph glyph-name="Tcaron" unicode="&#x164;" 
d="M227 0h157v582h214v132h-585v-132h214v-582zM242 778h129l110 142h-111l-64 -82l-64 82h-112z" />
    <glyph glyph-name="Zcaron" horiz-adv-x="648" 
d="M23 0h602v132h-393l383 458v124h-562v-132h353l-383 -458v-124zM261 778h129l110 142h-111l-64 -82l-64 82h-112z" />
    <glyph glyph-name="Zcaron" unicode="&#x17d;" horiz-adv-x="648" 
d="M23 0h602v132h-393l383 458v124h-562v-132h353l-383 -458v-124zM261 778h129l110 142h-111l-64 -82l-64 82h-112z" />
    <glyph glyph-name="Zacute" horiz-adv-x="648" 
d="M23 0h602v132h-393l383 458v124h-562v-132h353l-383 -458v-124zM249 778h99l154 142h-157z" />
    <glyph glyph-name="Zacute" unicode="&#x179;" horiz-adv-x="648" 
d="M23 0h602v132h-393l383 458v124h-562v-132h353l-383 -458v-124zM249 778h99l154 142h-157z" />
    <glyph glyph-name="scaron" horiz-adv-x="537" 
d="M29 168q2 -51 23.5 -86t55 -56.5t76.5 -30.5t88 -9q44 0 86.5 9t75.5 30t53.5 55.5t20.5 85.5q0 35 -13.5 59.5t-38 42t-60 29t-78.5 20.5q-72 14 -103.5 28t-31.5 43q0 28 22 38t57 10q38 0 66 -14.5t31 -55.5h135q-4 48 -24.5 79.5t-51.5 50.5t-70.5 27t-81.5 8
t-82 -7.5t-72 -26t-51.5 -51t-19.5 -81.5q0 -34 14 -57.5t37 -39t52.5 -25t60.5 -16.5q38 -8 68 -15.5t50.5 -16.5t31.5 -20.5t11 -27.5q0 -19 -9 -31.5t-22.5 -20t-30 -11t-31.5 -3.5q-21 0 -40.5 5t-34.5 15.5t-24.5 27t-9.5 39.5h-135zM205 581h129l110 142h-111l-64 -82
l-64 82h-112z" />
    <glyph glyph-name="scaron" unicode="&#x161;" horiz-adv-x="537" 
d="M29 168q2 -51 23.5 -86t55 -56.5t76.5 -30.5t88 -9q44 0 86.5 9t75.5 30t53.5 55.5t20.5 85.5q0 35 -13.5 59.5t-38 42t-60 29t-78.5 20.5q-72 14 -103.5 28t-31.5 43q0 28 22 38t57 10q38 0 66 -14.5t31 -55.5h135q-4 48 -24.5 79.5t-51.5 50.5t-70.5 27t-81.5 8
t-82 -7.5t-72 -26t-51.5 -51t-19.5 -81.5q0 -34 14 -57.5t37 -39t52.5 -25t60.5 -16.5q38 -8 68 -15.5t50.5 -16.5t31.5 -20.5t11 -27.5q0 -19 -9 -31.5t-22.5 -20t-30 -11t-31.5 -3.5q-21 0 -40.5 5t-34.5 15.5t-24.5 27t-9.5 39.5h-135zM205 581h129l110 142h-111l-64 -82
l-64 82h-112z" />
    <glyph glyph-name="sacute" horiz-adv-x="537" 
d="M29 168q2 -51 23.5 -86t55 -56.5t76.5 -30.5t88 -9q44 0 86.5 9t75.5 30t53.5 55.5t20.5 85.5q0 35 -13.5 59.5t-38 42t-60 29t-78.5 20.5q-72 14 -103.5 28t-31.5 43q0 28 22 38t57 10q38 0 66 -14.5t31 -55.5h135q-4 48 -24.5 79.5t-51.5 50.5t-70.5 27t-81.5 8
t-82 -7.5t-72 -26t-51.5 -51t-19.5 -81.5q0 -34 14 -57.5t37 -39t52.5 -25t60.5 -16.5q38 -8 68 -15.5t50.5 -16.5t31.5 -20.5t11 -27.5q0 -19 -9 -31.5t-22.5 -20t-30 -11t-31.5 -3.5q-21 0 -40.5 5t-34.5 15.5t-24.5 27t-9.5 39.5h-135zM193 581h99l154 142h-157z" />
    <glyph glyph-name="sacute" unicode="&#x15b;" horiz-adv-x="537" 
d="M29 168q2 -51 23.5 -86t55 -56.5t76.5 -30.5t88 -9q44 0 86.5 9t75.5 30t53.5 55.5t20.5 85.5q0 35 -13.5 59.5t-38 42t-60 29t-78.5 20.5q-72 14 -103.5 28t-31.5 43q0 28 22 38t57 10q38 0 66 -14.5t31 -55.5h135q-4 48 -24.5 79.5t-51.5 50.5t-70.5 27t-81.5 8
t-82 -7.5t-72 -26t-51.5 -51t-19.5 -81.5q0 -34 14 -57.5t37 -39t52.5 -25t60.5 -16.5q38 -8 68 -15.5t50.5 -16.5t31.5 -20.5t11 -27.5q0 -19 -9 -31.5t-22.5 -20t-30 -11t-31.5 -3.5q-21 0 -40.5 5t-34.5 15.5t-24.5 27t-9.5 39.5h-135zM193 581h99l154 142h-157z" />
    <glyph glyph-name="tcaron" horiz-adv-x="408" 
d="M92 117q0 -39 13 -63t35.5 -37.5t52 -18t62.5 -4.5q21 0 43 1t40 5v110q-20 -4 -44 -4q-36 0 -48 12t-12 48v256h104v95h-104v155h-142v-155h-86v-95h86v-305zM302 673h56q-1 -41 -14.5 -57t-41.5 -23v-52q36 5 59 18t36 32.5t18 44t5 51.5v103h-118v-117z" />
    <glyph glyph-name="tcaron" unicode="&#x165;" horiz-adv-x="408" 
d="M92 117q0 -39 13 -63t35.5 -37.5t52 -18t62.5 -4.5q21 0 43 1t40 5v110q-20 -4 -44 -4q-36 0 -48 12t-12 48v256h104v95h-104v155h-142v-155h-86v-95h86v-305zM302 673h56q-1 -41 -14.5 -57t-41.5 -23v-52q36 5 59 18t36 32.5t18 44t5 51.5v103h-118v-117z" />
    <glyph glyph-name="zcaron" horiz-adv-x="519" 
d="M22 0h475v107h-288l269 303v107h-436v-107h249l-269 -303v-107zM196 581h129l110 142h-111l-64 -82l-64 82h-112z" />
    <glyph glyph-name="zcaron" unicode="&#x17e;" horiz-adv-x="519" 
d="M22 0h475v107h-288l269 303v107h-436v-107h249l-269 -303v-107zM196 581h129l110 142h-111l-64 -82l-64 82h-112z" />
    <glyph glyph-name="zacute" horiz-adv-x="519" 
d="M22 0h475v107h-288l269 303v107h-436v-107h249l-269 -303v-107zM184 581h99l154 142h-157z" />
    <glyph glyph-name="zacute" unicode="&#x17a;" horiz-adv-x="519" 
d="M22 0h475v107h-288l269 303v107h-436v-107h249l-269 -303v-107zM184 581h99l154 142h-157z" />
    <glyph glyph-name="Lslash" unicode="&#xa3;" horiz-adv-x="593" 
d="M69 0h505v132h-348v192l211 148v112l-211 -148v278h-157v-388l-80 -56v-112l80 56v-214z" />
    <glyph glyph-name="Lslash" unicode="&#x141;" horiz-adv-x="593" 
d="M69 0h505v132h-348v192l211 148v112l-211 -148v278h-157v-388l-80 -56v-112l80 56v-214z" />
    <glyph glyph-name="Aogonek" unicode="&#xa5;" horiz-adv-x="685" 
d="M342 538h2l90 -262h-185zM-7 0h159l56 159h267l54 -159h49q-40 -24 -62 -44.5t-32.5 -37t-12.5 -28t-2 -18.5q0 -32 13 -50t31 -27t36 -11t27 -2q34 0 69 15t65 53l-48 22q-14 -19 -28 -24.5t-30 -5.5q-15 0 -27 9.5t-12 24.5q0 12 4 25t13 28t24.5 32.5t38.5 38.5h47
l-267 714h-161z" />
    <glyph glyph-name="Aogonek" unicode="&#x104;" horiz-adv-x="685" 
d="M342 538h2l90 -262h-185zM-7 0h159l56 159h267l54 -159h49q-40 -24 -62 -44.5t-32.5 -37t-12.5 -28t-2 -18.5q0 -32 13 -50t31 -27t36 -11t27 -2q34 0 69 15t65 53l-48 22q-14 -19 -28 -24.5t-30 -5.5q-15 0 -27 9.5t-12 24.5q0 12 4 25t13 28t24.5 32.5t38.5 38.5h47
l-267 714h-161z" />
    <glyph glyph-name="brokenbar" unicode="&#xa6;" horiz-adv-x="223" 
d="M58 -89h107v250h-107v-250zM165 661h-107v-250h107v250z" />
    <glyph glyph-name="Scommaaccent" horiz-adv-x="649" 
d="M24 237q0 -66 25.5 -114t67.5 -79t97 -46t114 -15q73 0 128.5 17.5t93 48t56.5 72.5t19 91q0 45 -14.5 79t-41 58t-63.5 40.5t-81 27.5l-120.5 31t-68 23.5t-30 24t-6.5 32.5q0 22 10 37.5t25.5 25.5t34.5 14t38 4q28 0 53 -5t44 -17t30.5 -33t13.5 -53h152
q0 62 -23.5 105.5t-63.5 71.5t-91.5 40.5t-107.5 12.5q-48 0 -96 -13t-86 -40t-61.5 -67.5t-23.5 -95.5q0 -50 18.5 -84.5t50 -58.5t74 -39t89.5 -26q54 -13 90.5 -24t59.5 -23.5t33 -28t10 -37.5q0 -27 -14 -44.5t-35 -27.5t-45 -13.5t-45 -3.5q-32 0 -60.5 7.5t-50 23
t-34.5 40.5t-13 61h-152zM266 -157h56q-1 -41 -14.5 -57t-41.5 -23v-52q36 5 59 18t36 32.5t18 44t5 51.5v103h-118v-117z" />
    <glyph glyph-name="Zdotaccent" unicode="&#xaf;" horiz-adv-x="648" 
d="M23 0h602v132h-393l383 458v124h-562v-132h353l-383 -458v-124zM257 794h135v117h-135v-117z" />
    <glyph glyph-name="Zdotaccent" unicode="&#x17b;" horiz-adv-x="648" 
d="M23 0h602v132h-393l383 458v124h-562v-132h353l-383 -458v-124zM257 794h135v117h-135v-117z" />
    <glyph glyph-name="lslash" unicode="&#xb3;" horiz-adv-x="258" 
d="M58 0h142v398l67 53v102l-67 -53v214h-142v-326l-67 -53v-102l67 53v-286z" />
    <glyph glyph-name="lslash" unicode="&#x142;" horiz-adv-x="258" 
d="M58 0h142v398l67 53v102l-67 -53v214h-142v-326l-67 -53v-102l67 53v-286z" />
    <glyph glyph-name="aogonek" unicode="&#xb9;" horiz-adv-x="574" 
d="M376 200q0 -12 -2.5 -32t-13.5 -39.5t-34 -33.5t-65 -14q-17 0 -33 3t-28 10.5t-19 20t-7 32.5q0 19 7 32.5t18.5 22t26.5 13.5t32 8q16 3 33.5 5t33 5t29 7.5t22.5 12.5v-53zM190 358q4 42 28.5 60t65.5 18q19 0 35.5 -2.5t29 -10t20 -21t7.5 -36.5q0 -22 -14 -33.5
t-37.5 -17.5t-53.5 -9t-63 -8t-64.5 -13.5t-56.5 -25.5t-40 -45.5t-15 -72.5q0 -40 13.5 -69t37.5 -48t56 -28.5t69 -9.5q48 0 94 14.5t80 49.5q1 -13 3.5 -25.5t6.5 -24.5h38q-40 -24 -62 -44.5t-32.5 -37t-12.5 -28t-2 -18.5q0 -32 13 -50t31 -27t36 -11t27 -2q34 0 69 15
t65 53l-48 22q-14 -19 -28 -24.5t-30 -5.5q-15 0 -27 9.5t-12 24.5q0 12 4 25t13 28t24.5 32.5t38.5 38.5h39q-10 16 -14 48t-4 67v269q0 46 -21 75t-54 45t-73 21.5t-79 5.5q-44 0 -86 -8.5t-76 -28.5t-56 -53t-25 -83h142z" />
    <glyph glyph-name="aogonek" unicode="&#x105;" horiz-adv-x="574" 
d="M376 200q0 -12 -2.5 -32t-13.5 -39.5t-34 -33.5t-65 -14q-17 0 -33 3t-28 10.5t-19 20t-7 32.5q0 19 7 32.5t18.5 22t26.5 13.5t32 8q16 3 33.5 5t33 5t29 7.5t22.5 12.5v-53zM190 358q4 42 28.5 60t65.5 18q19 0 35.5 -2.5t29 -10t20 -21t7.5 -36.5q0 -22 -14 -33.5
t-37.5 -17.5t-53.5 -9t-63 -8t-64.5 -13.5t-56.5 -25.5t-40 -45.5t-15 -72.5q0 -40 13.5 -69t37.5 -48t56 -28.5t69 -9.5q48 0 94 14.5t80 49.5q1 -13 3.5 -25.5t6.5 -24.5h38q-40 -24 -62 -44.5t-32.5 -37t-12.5 -28t-2 -18.5q0 -32 13 -50t31 -27t36 -11t27 -2q34 0 69 15
t65 53l-48 22q-14 -19 -28 -24.5t-30 -5.5q-15 0 -27 9.5t-12 24.5q0 12 4 25t13 28t24.5 32.5t38.5 38.5h39q-10 16 -14 48t-4 67v269q0 46 -21 75t-54 45t-73 21.5t-79 5.5q-44 0 -86 -8.5t-76 -28.5t-56 -53t-25 -83h142z" />
    <glyph glyph-name="scommaaccent" horiz-adv-x="537" 
d="M29 168q2 -51 23.5 -86t55 -56.5t76.5 -30.5t88 -9q44 0 86.5 9t75.5 30t53.5 55.5t20.5 85.5q0 35 -13.5 59.5t-38 42t-60 29t-78.5 20.5q-72 14 -103.5 28t-31.5 43q0 28 22 38t57 10q38 0 66 -14.5t31 -55.5h135q-4 48 -24.5 79.5t-51.5 50.5t-70.5 27t-81.5 8
t-82 -7.5t-72 -26t-51.5 -51t-19.5 -81.5q0 -34 14 -57.5t37 -39t52.5 -25t60.5 -16.5q38 -8 68 -15.5t50.5 -16.5t31.5 -20.5t11 -27.5q0 -19 -9 -31.5t-22.5 -20t-30 -11t-31.5 -3.5q-21 0 -40.5 5t-34.5 15.5t-24.5 27t-9.5 39.5h-135zM210 -157h56q-1 -41 -14.5 -57
t-41.5 -23v-52q36 5 59 18t36 32.5t18 44t5 51.5v103h-118v-117z" />
    <glyph glyph-name="Lcaron" unicode="&#xbc;" horiz-adv-x="593" 
d="M69 0h505v132h-348v582h-157v-714zM294 597h56q-1 -41 -14.5 -57t-41.5 -23v-52q36 5 59 18t36 32.5t18 44t5 51.5v103h-118v-117z" />
    <glyph glyph-name="Lcaron" unicode="&#x13d;" horiz-adv-x="593" 
d="M69 0h505v132h-348v582h-157v-714zM294 597h56q-1 -41 -14.5 -57t-41.5 -23v-52q36 5 59 18t36 32.5t18 44t5 51.5v103h-118v-117z" />
    <glyph glyph-name="lcaron" unicode="&#xbe;" horiz-adv-x="389" 
d="M58 0h142v714h-142v-714zM269 597h56q-1 -41 -14.5 -57t-41.5 -23v-52q36 5 59 18t36 32.5t18 44t5 51.5v103h-118v-117z" />
    <glyph glyph-name="lcaron" unicode="&#x13e;" horiz-adv-x="389" 
d="M58 0h142v714h-142v-714zM269 597h56q-1 -41 -14.5 -57t-41.5 -23v-52q36 5 59 18t36 32.5t18 44t5 51.5v103h-118v-117z" />
    <glyph glyph-name="zdotaccent" unicode="&#xbf;" horiz-adv-x="519" 
d="M22 0h475v107h-288l269 303v107h-436v-107h249l-269 -303v-107zM192 597h135v117h-135v-117z" />
    <glyph glyph-name="zdotaccent" unicode="&#x17c;" horiz-adv-x="519" 
d="M22 0h475v107h-288l269 303v107h-436v-107h249l-269 -303v-107zM192 597h135v117h-135v-117z" />
    <glyph glyph-name="Racute" unicode="&#xc0;" horiz-adv-x="722" 
d="M69 0h157v280h158q34 0 57 -10.5t37 -28.5t20.5 -43t7.5 -54q2 -48 6.5 -84t14.5 -60h157q-16 25 -22 64t-8 105q0 22 -5.5 47.5t-17.5 49.5t-31.5 43t-49.5 27v2q60 24 86.5 70t26.5 109q0 40 -14.5 76t-42 63t-66 42.5t-86.5 15.5h-385v-714zM226 592h172
q53 0 80.5 -23.5t27.5 -75.5q0 -54 -27.5 -77.5t-80.5 -23.5h-172v200zM286 778h99l154 142h-157z" />
    <glyph glyph-name="Racute" unicode="&#x154;" horiz-adv-x="722" 
d="M69 0h157v280h158q34 0 57 -10.5t37 -28.5t20.5 -43t7.5 -54q2 -48 6.5 -84t14.5 -60h157q-16 25 -22 64t-8 105q0 22 -5.5 47.5t-17.5 49.5t-31.5 43t-49.5 27v2q60 24 86.5 70t26.5 109q0 40 -14.5 76t-42 63t-66 42.5t-86.5 15.5h-385v-714zM226 592h172
q53 0 80.5 -23.5t27.5 -75.5q0 -54 -27.5 -77.5t-80.5 -23.5h-172v200zM286 778h99l154 142h-157z" />
    <glyph glyph-name="Abreve" unicode="&#xc3;" horiz-adv-x="685" 
d="M-7 0h157l58 159h267l54 -159h163l-267 714h-161zM249 276l93 262h2l90 -262h-185zM174 924q6 -72 46.5 -109t112.5 -37q76 0 121 35q48 37 57 111h-65q-9 -38 -37 -54.5t-71 -16.5q-36 0 -64 17q-29 18 -35 54h-65z" />
    <glyph glyph-name="Abreve" unicode="&#x102;" horiz-adv-x="685" 
d="M-7 0h157l58 159h267l54 -159h163l-267 714h-161zM249 276l93 262h2l90 -262h-185zM174 924q6 -72 46.5 -109t112.5 -37q76 0 121 35q48 37 57 111h-65q-9 -38 -37 -54.5t-71 -16.5q-36 0 -64 17q-29 18 -35 54h-65z" />
    <glyph glyph-name="Lacute" unicode="&#xc5;" horiz-adv-x="593" 
d="M69 0h505v132h-348v582h-157v-714zM325 920h-157l-96 -142h99z" />
    <glyph glyph-name="Lacute" unicode="&#x139;" horiz-adv-x="593" 
d="M69 0h505v132h-348v582h-157v-714zM325 920h-157l-96 -142h99z" />
    <glyph glyph-name="Cacute" unicode="&#xc6;" horiz-adv-x="741" 
d="M697 474q-7 62 -34 110t-68.5 80.5t-94 49.5t-111.5 17q-83 0 -148 -29t-110 -80t-69 -120t-24 -148q0 -77 24 -145t69 -118t110 -79t148 -29q66 0 121 20.5t96 58.5t66 92t31 121h-152q-9 -71 -49.5 -115.5t-112.5 -44.5q-53 0 -90 20.5t-60 54.5t-33.5 76.5t-10.5 87.5
q0 47 10.5 91t33.5 78.5t60 55t90 20.5q29 0 55.5 -9.5t47.5 -26.5t35 -39.5t18 -49.5h152zM548 920h-157l-96 -142h99z" />
    <glyph glyph-name="Cacute" unicode="&#x106;" horiz-adv-x="741" 
d="M697 474q-7 62 -34 110t-68.5 80.5t-94 49.5t-111.5 17q-83 0 -148 -29t-110 -80t-69 -120t-24 -148q0 -77 24 -145t69 -118t110 -79t148 -29q66 0 121 20.5t96 58.5t66 92t31 121h-152q-9 -71 -49.5 -115.5t-112.5 -44.5q-53 0 -90 20.5t-60 54.5t-33.5 76.5t-10.5 87.5
q0 47 10.5 91t33.5 78.5t60 55t90 20.5q29 0 55.5 -9.5t47.5 -26.5t35 -39.5t18 -49.5h152zM548 920h-157l-96 -142h99z" />
    <glyph glyph-name="Ccaron" unicode="&#xc8;" horiz-adv-x="741" 
d="M697 474q-7 62 -34 110t-68.5 80.5t-94 49.5t-111.5 17q-83 0 -148 -29t-110 -80t-69 -120t-24 -148q0 -77 24 -145t69 -118t110 -79t148 -29q66 0 121 20.5t96 58.5t66 92t31 121h-152q-9 -71 -49.5 -115.5t-112.5 -44.5q-53 0 -90 20.5t-60 54.5t-33.5 76.5t-10.5 87.5
q0 47 10.5 91t33.5 78.5t60 55t90 20.5q29 0 55.5 -9.5t47.5 -26.5t35 -39.5t18 -49.5h152zM307 778h129l110 142h-111l-64 -82l-64 82h-112z" />
    <glyph glyph-name="Ccaron" unicode="&#x10c;" horiz-adv-x="741" 
d="M697 474q-7 62 -34 110t-68.5 80.5t-94 49.5t-111.5 17q-83 0 -148 -29t-110 -80t-69 -120t-24 -148q0 -77 24 -145t69 -118t110 -79t148 -29q66 0 121 20.5t96 58.5t66 92t31 121h-152q-9 -71 -49.5 -115.5t-112.5 -44.5q-53 0 -90 20.5t-60 54.5t-33.5 76.5t-10.5 87.5
q0 47 10.5 91t33.5 78.5t60 55t90 20.5q29 0 55.5 -9.5t47.5 -26.5t35 -39.5t18 -49.5h152zM307 778h129l110 142h-111l-64 -82l-64 82h-112z" />
    <glyph glyph-name="Eogonek" unicode="&#xca;" horiz-adv-x="648" 
d="M69 0h475q-57 -32 -83 -65.5t-26 -62.5q0 -43 28 -66.5t79 -23.5q34 0 69 15t65 53l-48 22q-14 -19 -28 -24.5t-30 -5.5q-15 0 -27 9.5t-12 24.5q0 12 4 25t13 28t24.5 32.5t38.5 38.5v132h-385v175h346v122h-346v153h377v132h-534v-714z" />
    <glyph glyph-name="Eogonek" unicode="&#x118;" horiz-adv-x="648" 
d="M69 0h475q-57 -32 -83 -65.5t-26 -62.5q0 -43 28 -66.5t79 -23.5q34 0 69 15t65 53l-48 22q-14 -19 -28 -24.5t-30 -5.5q-15 0 -27 9.5t-12 24.5q0 12 4 25t13 28t24.5 32.5t38.5 38.5v132h-385v175h346v122h-346v153h377v132h-534v-714z" />
    <glyph glyph-name="Ecaron" unicode="&#xcc;" horiz-adv-x="648" 
d="M69 0h542v132h-385v175h346v122h-346v153h377v132h-534v-714zM261 778h129l110 142h-111l-64 -82l-64 82h-112z" />
    <glyph glyph-name="Ecaron" unicode="&#x11a;" horiz-adv-x="648" 
d="M69 0h542v132h-385v175h346v122h-346v153h377v132h-534v-714zM261 778h129l110 142h-111l-64 -82l-64 82h-112z" />
    <glyph glyph-name="Dcaron" unicode="&#xcf;" horiz-adv-x="741" 
d="M69 0h308q82 0 142.5 27.5t101 75.5t60.5 114t20 144q0 89 -24.5 155t-68 110t-103 66t-128.5 22h-308v-714zM226 582h112q58 0 97.5 -16.5t63.5 -47.5t34.5 -74.5t10.5 -97.5q0 -59 -15 -100t-40 -66.5t-57 -36.5t-66 -11h-140v450zM307 778h129l110 142h-111l-64 -82
l-64 82h-112z" />
    <glyph glyph-name="Dcaron" unicode="&#x10e;" horiz-adv-x="741" 
d="M69 0h308q82 0 142.5 27.5t101 75.5t60.5 114t20 144q0 89 -24.5 155t-68 110t-103 66t-128.5 22h-308v-714zM226 582h112q58 0 97.5 -16.5t63.5 -47.5t34.5 -74.5t10.5 -97.5q0 -59 -15 -100t-40 -66.5t-57 -36.5t-66 -11h-140v450zM307 778h129l110 142h-111l-64 -82
l-64 82h-112z" />
    <glyph glyph-name="Dcroat" unicode="&#xd0;" horiz-adv-x="741" 
d="M69 0h308q82 0 142.5 27.5t101 75.5t60.5 114t20 144q0 89 -24.5 155t-68 110t-103 66t-128.5 22h-308v-287h-66v-116h66v-311zM226 582h112q58 0 97.5 -16.5t63.5 -47.5t34.5 -74.5t10.5 -97.5q0 -59 -15 -100t-40 -66.5t-57 -36.5t-66 -11h-140v178h160v117h-160v155z
" />
    <glyph glyph-name="Dcroat" unicode="&#x110;" horiz-adv-x="741" 
d="M69 0h308q82 0 142.5 27.5t101 75.5t60.5 114t20 144q0 89 -24.5 155t-68 110t-103 66t-128.5 22h-308v-287h-66v-116h66v-311zM226 582h112q58 0 97.5 -16.5t63.5 -47.5t34.5 -74.5t10.5 -97.5q0 -59 -15 -100t-40 -66.5t-57 -36.5t-66 -11h-140v178h160v117h-160v155z
" />
    <glyph glyph-name="Nacute" unicode="&#xd1;" horiz-adv-x="741" 
d="M69 0h147v478h2l297 -478h157v714h-147v-479h-2l-297 479h-157v-714zM295 778h99l154 142h-157z" />
    <glyph glyph-name="Nacute" unicode="&#x143;" horiz-adv-x="741" 
d="M69 0h147v478h2l297 -478h157v714h-147v-479h-2l-297 479h-157v-714zM295 778h99l154 142h-157z" />
    <glyph glyph-name="Ncaron" unicode="&#xd2;" horiz-adv-x="741" 
d="M69 0h147v478h2l297 -478h157v714h-147v-479h-2l-297 479h-157v-714zM307 778h129l110 142h-111l-64 -82l-64 82h-112z" />
    <glyph glyph-name="Ncaron" unicode="&#x147;" horiz-adv-x="741" 
d="M69 0h147v478h2l297 -478h157v714h-147v-479h-2l-297 479h-157v-714zM307 778h129l110 142h-111l-64 -82l-64 82h-112z" />
    <glyph glyph-name="Ohungarumlaut" unicode="&#xd5;" horiz-adv-x="778" 
d="M38 354q0 -77 24 -145t69 -118t110 -79t148 -29t148 29t110 79t69 118t24 145q0 79 -24 148t-69 120t-110 80t-148 29t-148 -29t-110 -80t-69 -120t-24 -148zM195 354q0 47 10.5 91t33.5 78.5t60 55t90 20.5t90 -20.5t60 -55t33.5 -78.5t10.5 -91q0 -45 -10.5 -87.5
t-33.5 -76.5t-60 -54.5t-90 -20.5t-90 20.5t-60 54.5t-33.5 76.5t-10.5 87.5zM204 778h99l149 142h-157zM411 778h99l149 142h-157z" />
    <glyph glyph-name="Ohungarumlaut" unicode="&#x150;" horiz-adv-x="778" 
d="M38 354q0 -77 24 -145t69 -118t110 -79t148 -29t148 29t110 79t69 118t24 145q0 79 -24 148t-69 120t-110 80t-148 29t-148 -29t-110 -80t-69 -120t-24 -148zM195 354q0 47 10.5 91t33.5 78.5t60 55t90 20.5t90 -20.5t60 -55t33.5 -78.5t10.5 -91q0 -45 -10.5 -87.5
t-33.5 -76.5t-60 -54.5t-90 -20.5t-90 20.5t-60 54.5t-33.5 76.5t-10.5 87.5zM204 778h99l149 142h-157zM411 778h99l149 142h-157z" />
    <glyph glyph-name="multiply" unicode="&#xd7;" horiz-adv-x="600" 
d="M140 17l161 161l160 -161l76 76l-161 160l161 160l-76 76l-160 -160l-159 160l-76 -76l159 -160l-161 -160z" />
    <glyph glyph-name="Rcaron" unicode="&#xd8;" horiz-adv-x="722" 
d="M69 0h157v280h158q34 0 57 -10.5t37 -28.5t20.5 -43t7.5 -54q2 -48 6.5 -84t14.5 -60h157q-16 25 -22 64t-8 105q0 22 -5.5 47.5t-17.5 49.5t-31.5 43t-49.5 27v2q60 24 86.5 70t26.5 109q0 40 -14.5 76t-42 63t-66 42.5t-86.5 15.5h-385v-714zM226 592h172
q53 0 80.5 -23.5t27.5 -75.5q0 -54 -27.5 -77.5t-80.5 -23.5h-172v200zM298 778h129l110 142h-111l-64 -82l-64 82h-112z" />
    <glyph glyph-name="Rcaron" unicode="&#x158;" horiz-adv-x="722" 
d="M69 0h157v280h158q34 0 57 -10.5t37 -28.5t20.5 -43t7.5 -54q2 -48 6.5 -84t14.5 -60h157q-16 25 -22 64t-8 105q0 22 -5.5 47.5t-17.5 49.5t-31.5 43t-49.5 27v2q60 24 86.5 70t26.5 109q0 40 -14.5 76t-42 63t-66 42.5t-86.5 15.5h-385v-714zM226 592h172
q53 0 80.5 -23.5t27.5 -75.5q0 -54 -27.5 -77.5t-80.5 -23.5h-172v200zM298 778h129l110 142h-111l-64 -82l-64 82h-112z" />
    <glyph glyph-name="Uring" unicode="&#xd9;" horiz-adv-x="741" 
d="M66 270q0 -146 79.5 -216.5t224.5 -70.5q143 0 224 71t81 216v444h-157v-444q0 -80 -32 -117.5t-116 -37.5q-48 0 -76.5 13t-44.5 35t-21 50t-5 57v444h-157v-444zM307 853q0 29 17 49.5t46 20.5t46.5 -20.5t17.5 -49.5t-17.5 -49.5t-46.5 -20.5t-46 20.5t-17 49.5z
M248 853q0 -25 9.5 -47.5t26 -39t39 -26t47.5 -9.5t47.5 9.5t39.5 26t26.5 39t9.5 47.5t-9.5 47.5t-26.5 39t-39.5 26t-47.5 9.5t-47.5 -9.5t-39 -26t-26 -39t-9.5 -47.5z" />
    <glyph glyph-name="Uring" unicode="&#x16e;" horiz-adv-x="741" 
d="M66 270q0 -146 79.5 -216.5t224.5 -70.5q143 0 224 71t81 216v444h-157v-444q0 -80 -32 -117.5t-116 -37.5q-48 0 -76.5 13t-44.5 35t-21 50t-5 57v444h-157v-444zM307 853q0 29 17 49.5t46 20.5t46.5 -20.5t17.5 -49.5t-17.5 -49.5t-46.5 -20.5t-46 20.5t-17 49.5z
M248 853q0 -25 9.5 -47.5t26 -39t39 -26t47.5 -9.5t47.5 9.5t39.5 26t26.5 39t9.5 47.5t-9.5 47.5t-26.5 39t-39.5 26t-47.5 9.5t-47.5 -9.5t-39 -26t-26 -39t-9.5 -47.5z" />
    <glyph glyph-name="Uhungarumlaut" unicode="&#xdb;" horiz-adv-x="741" 
d="M66 270q0 -146 79.5 -216.5t224.5 -70.5q143 0 224 71t81 216v444h-157v-444q0 -80 -32 -117.5t-116 -37.5q-48 0 -76.5 13t-44.5 35t-21 50t-5 57v444h-157v-444zM185 778h99l149 142h-157zM392 778h99l149 142h-157z" />
    <glyph glyph-name="Uhungarumlaut" unicode="&#x170;" horiz-adv-x="741" 
d="M66 270q0 -146 79.5 -216.5t224.5 -70.5q143 0 224 71t81 216v444h-157v-444q0 -80 -32 -117.5t-116 -37.5q-48 0 -76.5 13t-44.5 35t-21 50t-5 57v444h-157v-444zM185 778h99l149 142h-157zM392 778h99l149 142h-157z" />
    <glyph glyph-name="Yacute" unicode="&#xdd;" horiz-adv-x="667" 
d="M254 0h157v274l265 440h-177l-164 -282l-167 282h-177l263 -436v-278zM258 778h99l154 142h-157z" />
    <glyph glyph-name="Tcommaaccent" unicode="&#xde;" 
d="M227 0h157v582h214v132h-585v-132h214v-582zM247 -157h56q-1 -41 -14.5 -57t-41.5 -23v-52q36 5 59 18t36 32.5t18 44t5 51.5v103h-118v-117z" />
    <glyph glyph-name="Tcommaaccent" unicode="&#x162;" 
d="M227 0h157v582h214v132h-585v-132h214v-582zM247 -157h56q-1 -41 -14.5 -57t-41.5 -23v-52q36 5 59 18t36 32.5t18 44t5 51.5v103h-118v-117z" />
    <glyph glyph-name="racute" unicode="&#xe0;" horiz-adv-x="389" 
d="M54 0h142v233q0 34 7 64.5t23.5 53t43.5 35.5t66 13q13 0 27 -1.5t24 -3.5v132q-15 5 -31 5q-26 0 -51.5 -8t-47.5 -22.5t-39 -35t-27 -44.5h-2v96h-135v-517zM119 581h99l154 142h-157z" />
    <glyph glyph-name="racute" unicode="&#x155;" horiz-adv-x="389" 
d="M54 0h142v233q0 34 7 64.5t23.5 53t43.5 35.5t66 13q13 0 27 -1.5t24 -3.5v132q-15 5 -31 5q-26 0 -51.5 -8t-47.5 -22.5t-39 -35t-27 -44.5h-2v96h-135v-517zM119 581h99l154 142h-157z" />
    <glyph glyph-name="abreve" unicode="&#xe3;" horiz-adv-x="574" 
d="M376 200q0 -12 -2.5 -32t-13.5 -39.5t-34 -33.5t-65 -14q-17 0 -33 3t-28 10.5t-19 20t-7 32.5q0 19 7 32.5t18.5 22t26.5 13.5t32 8q16 3 33.5 5t33 5t29 7.5t22.5 12.5v-53zM190 358q4 42 28.5 60t65.5 18q19 0 35.5 -2.5t29 -10t20 -21t7.5 -36.5q0 -22 -14 -33.5
t-37.5 -17.5t-53.5 -9t-63 -8t-64.5 -13.5t-56.5 -25.5t-40 -45.5t-15 -72.5q0 -40 13.5 -69t37.5 -48t56 -28.5t69 -9.5q48 0 94 14.5t80 49.5q2 -26 12 -50h142q-10 16 -14 48t-4 67v269q0 46 -21 75t-54 45t-73 21.5t-79 5.5q-44 0 -86 -8.5t-76 -28.5t-56 -53t-25 -83
h142zM119 727q6 -72 46.5 -109t112.5 -37q76 0 121 35q48 37 57 111h-65q-9 -38 -37 -54.5t-71 -16.5q-14 0 -30.5 3.5t-30.5 11.5t-24.5 22t-13.5 34h-65z" />
    <glyph glyph-name="abreve" unicode="&#x103;" horiz-adv-x="574" 
d="M376 200q0 -12 -2.5 -32t-13.5 -39.5t-34 -33.5t-65 -14q-17 0 -33 3t-28 10.5t-19 20t-7 32.5q0 19 7 32.5t18.5 22t26.5 13.5t32 8q16 3 33.5 5t33 5t29 7.5t22.5 12.5v-53zM190 358q4 42 28.5 60t65.5 18q19 0 35.5 -2.5t29 -10t20 -21t7.5 -36.5q0 -22 -14 -33.5
t-37.5 -17.5t-53.5 -9t-63 -8t-64.5 -13.5t-56.5 -25.5t-40 -45.5t-15 -72.5q0 -40 13.5 -69t37.5 -48t56 -28.5t69 -9.5q48 0 94 14.5t80 49.5q2 -26 12 -50h142q-10 16 -14 48t-4 67v269q0 46 -21 75t-54 45t-73 21.5t-79 5.5q-44 0 -86 -8.5t-76 -28.5t-56 -53t-25 -83
h142zM119 727q6 -72 46.5 -109t112.5 -37q76 0 121 35q48 37 57 111h-65q-9 -38 -37 -54.5t-71 -16.5q-14 0 -30.5 3.5t-30.5 11.5t-24.5 22t-13.5 34h-65z" />
    <glyph glyph-name="lacute" unicode="&#xe5;" horiz-adv-x="258" 
d="M58 0h142v714h-142v-714zM74 778h99l154 142h-157z" />
    <glyph glyph-name="lacute" unicode="&#x13a;" horiz-adv-x="258" 
d="M58 0h142v714h-142v-714zM74 778h99l154 142h-157z" />
    <glyph glyph-name="cacute" unicode="&#xe6;" horiz-adv-x="574" 
d="M545 335q-3 49 -24.5 86t-54.5 61.5t-75.5 36.5t-88.5 12q-63 0 -112 -21t-83 -58.5t-51.5 -89t-17.5 -111.5q0 -58 19 -106.5t53 -84t82 -55t107 -19.5q103 0 169 54.5t80 157.5h-135q-8 -48 -36.5 -76.5t-78.5 -28.5q-33 0 -56 15t-36.5 38.5t-19.5 52.5t-6 57t6 58
t20.5 54.5t37.5 40t57 15.5q91 0 105 -89h139zM212 581h99l154 142h-157z" />
    <glyph glyph-name="cacute" unicode="&#x107;" horiz-adv-x="574" 
d="M545 335q-3 49 -24.5 86t-54.5 61.5t-75.5 36.5t-88.5 12q-63 0 -112 -21t-83 -58.5t-51.5 -89t-17.5 -111.5q0 -58 19 -106.5t53 -84t82 -55t107 -19.5q103 0 169 54.5t80 157.5h-135q-8 -48 -36.5 -76.5t-78.5 -28.5q-33 0 -56 15t-36.5 38.5t-19.5 52.5t-6 57t6 58
t20.5 54.5t37.5 40t57 15.5q91 0 105 -89h139zM212 581h99l154 142h-157z" />
    <glyph glyph-name="ccaron" unicode="&#xe8;" horiz-adv-x="574" 
d="M545 335q-3 49 -24.5 86t-54.5 61.5t-75.5 36.5t-88.5 12q-63 0 -112 -21t-83 -58.5t-51.5 -89t-17.5 -111.5q0 -58 19 -106.5t53 -84t82 -55t107 -19.5q103 0 169 54.5t80 157.5h-135q-8 -48 -36.5 -76.5t-78.5 -28.5q-33 0 -56 15t-36.5 38.5t-19.5 52.5t-6 57t6 58
t20.5 54.5t37.5 40t57 15.5q91 0 105 -89h139zM224 581h129l110 142h-111l-64 -82l-64 82h-112z" />
    <glyph glyph-name="ccaron" unicode="&#x10d;" horiz-adv-x="574" 
d="M545 335q-3 49 -24.5 86t-54.5 61.5t-75.5 36.5t-88.5 12q-63 0 -112 -21t-83 -58.5t-51.5 -89t-17.5 -111.5q0 -58 19 -106.5t53 -84t82 -55t107 -19.5q103 0 169 54.5t80 157.5h-135q-8 -48 -36.5 -76.5t-78.5 -28.5q-33 0 -56 15t-36.5 38.5t-19.5 52.5t-6 57t6 58
t20.5 54.5t37.5 40t57 15.5q91 0 105 -89h139zM224 581h129l110 142h-111l-64 -82l-64 82h-112z" />
    <glyph glyph-name="eogonek" unicode="&#xea;" horiz-adv-x="574" 
d="M171 314q1 15 6.5 34t19 36t36 28.5t56.5 11.5q52 0 77.5 -28t36.5 -82h-232zM410 -128q-14 -19 -28 -24.5t-30 -5.5q-15 0 -27 9.5t-12 24.5q0 12 6 29.5t18.5 36.5t32 37t45.5 31q35 18 67.5 53t52.5 97h-124q-8 -24 -39 -45.5t-74 -21.5q-60 0 -92 31.5t-35 99.5h374
v45q0 46 -16 93t-47.5 84.5t-79 61t-109.5 23.5q-59 0 -107.5 -21t-83.5 -57.5t-54 -86.5t-19 -108q0 -60 18.5 -110t52.5 -86t83 -56t110 -20q9 0 11 1l2 -2q-47 -27 -68 -56.5t-21 -56.5q0 -43 28 -66.5t79 -23.5q34 0 69 15t65 53z" />
    <glyph glyph-name="eogonek" unicode="&#x119;" horiz-adv-x="574" 
d="M171 314q1 15 6.5 34t19 36t36 28.5t56.5 11.5q52 0 77.5 -28t36.5 -82h-232zM410 -128q-14 -19 -28 -24.5t-30 -5.5q-15 0 -27 9.5t-12 24.5q0 12 6 29.5t18.5 36.5t32 37t45.5 31q35 18 67.5 53t52.5 97h-124q-8 -24 -39 -45.5t-74 -21.5q-60 0 -92 31.5t-35 99.5h374
v45q0 46 -16 93t-47.5 84.5t-79 61t-109.5 23.5q-59 0 -107.5 -21t-83.5 -57.5t-54 -86.5t-19 -108q0 -60 18.5 -110t52.5 -86t83 -56t110 -20q9 0 11 1l2 -2q-47 -27 -68 -56.5t-21 -56.5q0 -43 28 -66.5t79 -23.5q34 0 69 15t65 53z" />
    <glyph glyph-name="ecaron" unicode="&#xec;" horiz-adv-x="574" 
d="M545 224v45q0 46 -16 93t-47.5 84.5t-79 61t-109.5 23.5q-59 0 -107.5 -21t-83.5 -57.5t-54 -86.5t-19 -108q0 -60 18.5 -110t52.5 -86t83 -56t110 -20q88 0 150 41t92 133h-124q-8 -24 -39 -45.5t-74 -21.5q-60 0 -92 31.5t-35 99.5h374zM171 314q1 15 6.5 34t19 36
t36 28.5t56.5 11.5q52 0 77.5 -28t36.5 -82h-232zM224 581h129l110 142h-111l-64 -82l-64 82h-112z" />
    <glyph glyph-name="ecaron" unicode="&#x11b;" horiz-adv-x="574" 
d="M545 224v45q0 46 -16 93t-47.5 84.5t-79 61t-109.5 23.5q-59 0 -107.5 -21t-83.5 -57.5t-54 -86.5t-19 -108q0 -60 18.5 -110t52.5 -86t83 -56t110 -20q88 0 150 41t92 133h-124q-8 -24 -39 -45.5t-74 -21.5q-60 0 -92 31.5t-35 99.5h374zM171 314q1 15 6.5 34t19 36
t36 28.5t56.5 11.5q52 0 77.5 -28t36.5 -82h-232zM224 581h129l110 142h-111l-64 -82l-64 82h-112z" />
    <glyph glyph-name="dcaron" unicode="&#xef;" horiz-adv-x="741" 
d="M626 597h56q-1 -41 -14.5 -57t-41.5 -23v-52q36 5 59 18t36 32.5t18 44t5 51.5v103h-118v-117zM423 0h135v714h-142v-260h-2q-24 38 -65.5 57.5t-87.5 19.5q-57 0 -100 -22.5t-71.5 -59.5t-43 -85.5t-14.5 -100.5q0 -54 14.5 -104t43 -88.5t72 -61.5t102.5 -23
q50 0 91 19t66 61h2v-66zM421 260q0 -32 -6 -62t-20 -53.5t-37.5 -37.5t-58.5 -14q-33 0 -56.5 14.5t-39 38t-22.5 53.5t-7 60q0 32 6.5 61.5t21 52.5t38.5 37t59 14q34 0 57.5 -14t38 -36.5t20.5 -52.5t6 -61z" />
    <glyph glyph-name="dcaron" unicode="&#x10f;" horiz-adv-x="741" 
d="M626 597h56q-1 -41 -14.5 -57t-41.5 -23v-52q36 5 59 18t36 32.5t18 44t5 51.5v103h-118v-117zM423 0h135v714h-142v-260h-2q-24 38 -65.5 57.5t-87.5 19.5q-57 0 -100 -22.5t-71.5 -59.5t-43 -85.5t-14.5 -100.5q0 -54 14.5 -104t43 -88.5t72 -61.5t102.5 -23
q50 0 91 19t66 61h2v-66zM421 260q0 -32 -6 -62t-20 -53.5t-37.5 -37.5t-58.5 -14q-33 0 -56.5 14.5t-39 38t-22.5 53.5t-7 60q0 32 6.5 61.5t21 52.5t38.5 37t59 14q34 0 57.5 -14t38 -36.5t20.5 -52.5t6 -61z" />
    <glyph glyph-name="dcroat" unicode="&#xf0;" 
d="M421 260q0 -32 -6 -62t-20 -53.5t-37.5 -37.5t-58.5 -14q-33 0 -56.5 14.5t-39 38t-22.5 53.5t-7 60q0 32 6.5 61.5t21 52.5t38.5 37t59 14q34 0 57.5 -14t38 -36.5t20.5 -52.5t6 -61zM416 454h-2h1q-25 38 -66.5 57.5t-87.5 19.5q-57 0 -100 -22.5t-71.5 -59.5
t-43 -85.5t-14.5 -100.5q0 -54 14.5 -104t43 -88.5t72 -61.5t102.5 -23q50 0 91 19t66 61h2v-66h135v592h98v65h-98v57h-142v-57h-164v-65h164v-138z" />
    <glyph glyph-name="dcroat" unicode="&#x111;" 
d="M421 260q0 -32 -6 -62t-20 -53.5t-37.5 -37.5t-58.5 -14q-33 0 -56.5 14.5t-39 38t-22.5 53.5t-7 60q0 32 6.5 61.5t21 52.5t38.5 37t59 14q34 0 57.5 -14t38 -36.5t20.5 -52.5t6 -61zM416 454h-2h1q-25 38 -66.5 57.5t-87.5 19.5q-57 0 -100 -22.5t-71.5 -59.5
t-43 -85.5t-14.5 -100.5q0 -54 14.5 -104t43 -88.5t72 -61.5t102.5 -23q50 0 91 19t66 61h2v-66h135v592h98v65h-98v57h-142v-57h-164v-65h164v-138z" />
    <glyph glyph-name="nacute" unicode="&#xf1;" horiz-adv-x="593" 
d="M54 0h142v271q0 79 26 113.5t84 34.5q50 0 70.5 -31.5t20.5 -95.5v-292h142v318q0 48 -8.5 87.5t-29.5 67t-57.5 43t-93.5 15.5q-45 0 -88 -21t-70 -65h-3v72h-135v-517zM221 581h99l154 142h-157z" />
    <glyph glyph-name="nacute" unicode="&#x144;" horiz-adv-x="593" 
d="M54 0h142v271q0 79 26 113.5t84 34.5q50 0 70.5 -31.5t20.5 -95.5v-292h142v318q0 48 -8.5 87.5t-29.5 67t-57.5 43t-93.5 15.5q-45 0 -88 -21t-70 -65h-3v72h-135v-517zM221 581h99l154 142h-157z" />
    <glyph glyph-name="ncaron" unicode="&#xf2;" horiz-adv-x="593" 
d="M54 0h142v271q0 79 26 113.5t84 34.5q50 0 70.5 -31.5t20.5 -95.5v-292h142v318q0 48 -8.5 87.5t-29.5 67t-57.5 43t-93.5 15.5q-45 0 -88 -21t-70 -65h-3v72h-135v-517zM233 581h129l110 142h-111l-64 -82l-64 82h-112z" />
    <glyph glyph-name="ncaron" unicode="&#x148;" horiz-adv-x="593" 
d="M54 0h142v271q0 79 26 113.5t84 34.5q50 0 70.5 -31.5t20.5 -95.5v-292h142v318q0 48 -8.5 87.5t-29.5 67t-57.5 43t-93.5 15.5q-45 0 -88 -21t-70 -65h-3v72h-135v-517zM233 581h129l110 142h-111l-64 -82l-64 82h-112z" />
    <glyph glyph-name="ohungarumlaut" unicode="&#xf5;" 
d="M38 258q0 -62 19 -112t54 -85.5t84 -55t110 -19.5t110.5 19.5t84.5 55t54 85.5t19 112t-19 112.5t-54 86t-84.5 55t-110.5 19.5t-110 -19.5t-84 -55t-54 -86t-19 -112.5zM180 258q0 31 6 61t20.5 53t38.5 37.5t60 14.5t60.5 -14.5t39 -37.5t20.5 -53t6 -61t-6 -60.5
t-20.5 -53t-39 -37.5t-60.5 -14t-60 14t-38.5 37.5t-20.5 53t-6 60.5zM120 581h99l149 142h-157zM327 581h99l149 142h-157z" />
    <glyph glyph-name="ohungarumlaut" unicode="&#x151;" 
d="M38 258q0 -62 19 -112t54 -85.5t84 -55t110 -19.5t110.5 19.5t84.5 55t54 85.5t19 112t-19 112.5t-54 86t-84.5 55t-110.5 19.5t-110 -19.5t-84 -55t-54 -86t-19 -112.5zM180 258q0 31 6 61t20.5 53t38.5 37.5t60 14.5t60.5 -14.5t39 -37.5t20.5 -53t6 -61t-6 -60.5
t-20.5 -53t-39 -37.5t-60.5 -14t-60 14t-38.5 37.5t-20.5 53t-6 60.5zM120 581h99l149 142h-157zM327 581h99l149 142h-157z" />
    <glyph glyph-name="rcaron" unicode="&#xf8;" horiz-adv-x="389" 
d="M54 0h142v233q0 34 7 64.5t23.5 53t43.5 35.5t66 13q13 0 27 -1.5t24 -3.5v132q-15 5 -31 5q-26 0 -51.5 -8t-47.5 -22.5t-39 -35t-27 -44.5h-2v96h-135v-517zM131 581h129l110 142h-111l-64 -82l-64 82h-112z" />
    <glyph glyph-name="rcaron" unicode="&#x159;" horiz-adv-x="389" 
d="M54 0h142v233q0 34 7 64.5t23.5 53t43.5 35.5t66 13q13 0 27 -1.5t24 -3.5v132q-15 5 -31 5q-26 0 -51.5 -8t-47.5 -22.5t-39 -35t-27 -44.5h-2v96h-135v-517zM131 581h129l110 142h-111l-64 -82l-64 82h-112z" />
    <glyph glyph-name="uring" unicode="&#xf9;" horiz-adv-x="593" 
d="M54 199q0 -48 8.5 -87.5t29.5 -67t57.5 -43t93.5 -15.5q45 0 88 21t70 65h3v-72h135v517h-142v-271q0 -79 -26 -113.5t-84 -34.5q-50 0 -70.5 31.5t-20.5 95.5v292h-142v-318zM233 656q0 29 17 49.5t46 20.5t46.5 -20.5t17.5 -49.5t-17.5 -49.5t-46.5 -20.5t-46 20.5
t-17 49.5zM174 656q0 -25 9.5 -47.5t26 -39t39 -26t47.5 -9.5t47.5 9.5t39.5 26t26.5 39t9.5 47.5t-9.5 47.5t-26.5 39t-39.5 26t-47.5 9.5t-47.5 -9.5t-39 -26t-26 -39t-9.5 -47.5z" />
    <glyph glyph-name="uring" unicode="&#x16f;" horiz-adv-x="593" 
d="M54 199q0 -48 8.5 -87.5t29.5 -67t57.5 -43t93.5 -15.5q45 0 88 21t70 65h3v-72h135v517h-142v-271q0 -79 -26 -113.5t-84 -34.5q-50 0 -70.5 31.5t-20.5 95.5v292h-142v-318zM233 656q0 29 17 49.5t46 20.5t46.5 -20.5t17.5 -49.5t-17.5 -49.5t-46.5 -20.5t-46 20.5
t-17 49.5zM174 656q0 -25 9.5 -47.5t26 -39t39 -26t47.5 -9.5t47.5 9.5t39.5 26t26.5 39t9.5 47.5t-9.5 47.5t-26.5 39t-39.5 26t-47.5 9.5t-47.5 -9.5t-39 -26t-26 -39t-9.5 -47.5z" />
    <glyph glyph-name="uhungarumlaut" unicode="&#xfb;" horiz-adv-x="593" 
d="M54 199q0 -48 8.5 -87.5t29.5 -67t57.5 -43t93.5 -15.5q45 0 88 21t70 65h3v-72h135v517h-142v-271q0 -79 -26 -113.5t-84 -34.5q-50 0 -70.5 31.5t-20.5 95.5v292h-142v-318zM111 581h99l149 142h-157zM318 581h99l149 142h-157z" />
    <glyph glyph-name="uhungarumlaut" unicode="&#x171;" horiz-adv-x="593" 
d="M54 199q0 -48 8.5 -87.5t29.5 -67t57.5 -43t93.5 -15.5q45 0 88 21t70 65h3v-72h135v517h-142v-271q0 -79 -26 -113.5t-84 -34.5q-50 0 -70.5 31.5t-20.5 95.5v292h-142v-318zM111 581h99l149 142h-157zM318 581h99l149 142h-157z" />
    <glyph glyph-name="yacute" unicode="&#xfd;" horiz-adv-x="519" 
d="M176 32q6 -15 6 -32q0 -29 -16.5 -47t-38.5 -18q-20 0 -41 1.5t-42 5.5v-117q41 -7 87 -7q73 0 114 27.5t64 89.5l216 582h-147l-113 -354h-2l-117 354h-152zM184 581h99l154 142h-157z" />
    <glyph glyph-name="tcommaaccent" unicode="&#xfe;" horiz-adv-x="352" 
d="M92 117q0 -39 13 -63t35.5 -37.5t52 -18t62.5 -4.5q21 0 43 1t40 5v110q-20 -4 -44 -4q-36 0 -48 12t-12 48v256h104v95h-104v155h-142v-155h-86v-95h86v-305zM163 -157h56q-1 -41 -14.5 -57t-41.5 -23v-52q36 5 59 18t36 32.5t18 44t5 51.5v103h-118v-117z" />
    <glyph glyph-name="tcommaaccent" unicode="&#x163;" horiz-adv-x="352" 
d="M92 117q0 -39 13 -63t35.5 -37.5t52 -18t62.5 -4.5q21 0 43 1t40 5v110q-20 -4 -44 -4q-36 0 -48 12t-12 48v256h104v95h-104v155h-142v-155h-86v-95h86v-305zM163 -157h56q-1 -41 -14.5 -57t-41.5 -23v-52q36 5 59 18t36 32.5t18 44t5 51.5v103h-118v-117z" />
    <glyph glyph-name="onehalf" horiz-adv-x="889" 
d="M152 -22h87l412 744h-85zM236 705h-84q-7 -48 -43.5 -66.5t-84.5 -16.5v-75h110v-274h102v432zM611 267q-1 15 2.5 31.5t12 30.5t22.5 23t35 9q28 0 44.5 -18t16.5 -44q0 -20 -9.5 -34.5t-24 -26.5t-31 -22l-31.5 -20q-29 -18 -54.5 -36t-44.5 -40.5t-30 -51t-11 -68.5
h334v80h-209q26 35 62 55.5t70 42.5t57.5 51.5t23.5 76.5q0 33 -12.5 58.5t-34 42.5t-50 25.5t-59.5 8.5q-92 0 -137 -48.5t-44 -125.5h102z" />
    <glyph glyph-name="Ncommaaccent" unicode="&#x145;" horiz-adv-x="741" 
d="M69 0h147v478h2l297 -478h157v714h-147v-479h-2l-298 479h-156v-714zM312 -157h56q-1 -41 -14.5 -57t-41.5 -23v-52q36 5 59 18t36 32.5t18 44t5 51.5v103h-118v-117z" />
    <glyph glyph-name="umacron" unicode="&#x16b;" horiz-adv-x="593" 
d="M539 517h-142v-271q0 -79 -26 -113.5t-84 -34.5q-50 0 -70.5 31.5t-20.5 95.5v292h-142v-318q0 -48 8.5 -87.5t29.5 -67t57.5 -43t93.5 -15.5q45 0 88 21t70 65h3v-72h135v517zM110 616h373v75h-373v-75z" />
    <glyph glyph-name="Delta" unicode="&#x394;" horiz-adv-x="740" 
d="M532 122h-329l163 440zM22 0h696l-275 714h-146z" />
    <glyph glyph-name="amacron" unicode="&#x101;" horiz-adv-x="574" 
d="M376 200q0 -12 -2.5 -32t-13.5 -39.5t-34 -33.5t-65 -14q-17 0 -33 3t-28 10.5t-19 20t-7 32.5q0 19 7 32.5t18.5 22t26.5 13.5t32 8q16 3 33.5 5t33 5t29 7.5t22.5 12.5v-53zM190 358q4 42 28.5 60t65.5 18q19 0 35.5 -2.5t29 -10t20 -21t7.5 -36.5q0 -22 -14 -33.5
t-37.5 -17.5t-53.5 -9t-63 -8t-64.5 -13.5t-56.5 -25.5t-40 -45.5t-15 -72.5q0 -40 13.5 -69t37.5 -48t56 -28.5t69 -9.5q48 0 94 14.5t80 49.5q1 -13 3.5 -25.5t6.5 -24.5h144q-10 16 -14 48t-4 67v269q0 46 -21 75t-54 45t-73 21.5t-79 5.5q-44 0 -86 -8.5t-76 -28.5
t-56 -53t-25 -83h142zM125 616h373v75h-373v-75z" />
    <glyph glyph-name=".363" unicode="&#xe002;" horiz-adv-x="667" 
d="M254 0h157v274l265 440h-175l-166 -282l-167 282h-177l263 -436v-278zM369 794h135v117h-135v-117zM163 794h135v117h-135v-117z" />
    <glyph glyph-name="scedilla" unicode="&#xba;" horiz-adv-x="537" 
d="M29 168q2 -47 20.5 -80.5t48 -54.5t67.5 -32t79 -13l-49 -71l21 -24q19 7 40 7q17 0 28.5 -6.5t11.5 -25.5q0 -18 -11 -26t-29 -8q-26 0 -47 5.5t-37 12.5l-21 -48q14 -5 26.5 -9t26 -7t30.5 -4.5t41 -1.5q22 0 43 4.5t37.5 16t26.5 31t10 48.5q0 18 -8 31.5t-21 22
t-29.5 12.5t-33.5 4q-24 0 -34 -5h-2l28 40q42 1 81 11.5t69 31.5t48 54.5t18 81.5q0 36 -14 60.5t-37 41t-52.5 26.5t-60.5 17q-30 7 -59 13t-51.5 13.5t-36.5 19.5t-14 31q0 16 8 25.5t19.5 14.5t25.5 6.5t26 1.5q38 0 66 -14.5t31 -55.5h135q-4 48 -24.5 79.5t-51.5 50.5
t-70.5 27t-81.5 8t-82 -7.5t-72 -26t-51.5 -51t-19.5 -81.5q0 -34 14 -57.5t37 -39t52.5 -25t60.5 -16.5q38 -8 68 -15.5t50.5 -16.5t31.5 -20.5t11 -27.5q0 -19 -9 -31.5t-22.5 -20t-30 -11t-31.5 -3.5q-21 0 -40.5 5t-34.5 15.5t-24.5 27t-9.5 39.5h-135z" />
    <glyph glyph-name="scedilla" unicode="&#xf6c2;" horiz-adv-x="537" 
d="M29 168q2 -47 20.5 -80.5t48 -54.5t67.5 -32t79 -13l-49 -71l21 -24q19 7 40 7q17 0 28.5 -6.5t11.5 -25.5q0 -18 -11 -26t-29 -8q-26 0 -47 5.5t-37 12.5l-21 -48q14 -5 26.5 -9t26 -7t30.5 -4.5t41 -1.5q22 0 43 4.5t37.5 16t26.5 31t10 48.5q0 18 -8 31.5t-21 22
t-29.5 12.5t-33.5 4q-24 0 -34 -5h-2l28 40q42 1 81 11.5t69 31.5t48 54.5t18 81.5q0 36 -14 60.5t-37 41t-52.5 26.5t-60.5 17q-30 7 -59 13t-51.5 13.5t-36.5 19.5t-14 31q0 16 8 25.5t19.5 14.5t25.5 6.5t26 1.5q38 0 66 -14.5t31 -55.5h135q-4 48 -24.5 79.5t-51.5 50.5
t-70.5 27t-81.5 8t-82 -7.5t-72 -26t-51.5 -51t-19.5 -81.5q0 -34 14 -57.5t37 -39t52.5 -25t60.5 -16.5q38 -8 68 -15.5t50.5 -16.5t31.5 -20.5t11 -27.5q0 -19 -9 -31.5t-22.5 -20t-30 -11t-31.5 -3.5q-21 0 -40.5 5t-34.5 15.5t-24.5 27t-9.5 39.5h-135z" />
    <glyph glyph-name="scedilla" unicode="&#x15f;" horiz-adv-x="537" 
d="M29 168q2 -47 20.5 -80.5t48 -54.5t67.5 -32t79 -13l-49 -71l21 -24q19 7 40 7q17 0 28.5 -6.5t11.5 -25.5q0 -18 -11 -26t-29 -8q-26 0 -47 5.5t-37 12.5l-21 -48q14 -5 26.5 -9t26 -7t30.5 -4.5t41 -1.5q22 0 43 4.5t37.5 16t26.5 31t10 48.5q0 18 -8 31.5t-21 22
t-29.5 12.5t-33.5 4q-24 0 -34 -5h-2l28 40q42 1 81 11.5t69 31.5t48 54.5t18 81.5q0 36 -14 60.5t-37 41t-52.5 26.5t-60.5 17q-30 7 -59 13t-51.5 13.5t-36.5 19.5t-14 31q0 16 8 25.5t19.5 14.5t25.5 6.5t26 1.5q38 0 66 -14.5t31 -55.5h135q-4 48 -24.5 79.5t-51.5 50.5
t-70.5 27t-81.5 8t-82 -7.5t-72 -26t-51.5 -51t-19.5 -81.5q0 -34 14 -57.5t37 -39t52.5 -25t60.5 -16.5q38 -8 68 -15.5t50.5 -16.5t31.5 -20.5t11 -27.5q0 -19 -9 -31.5t-22.5 -20t-30 -11t-31.5 -3.5q-21 0 -40.5 5t-34.5 15.5t-24.5 27t-9.5 39.5h-135z" />
    <glyph glyph-name="Omacron" unicode="&#x14c;" horiz-adv-x="778" 
d="M38 354q0 -77 24 -145t69 -118t110 -79t148 -29t148 29t110 79t69 118t24 145q0 79 -24 148t-69 120t-110 80t-148 29t-148 -29t-110 -80t-69 -120t-24 -148zM195 354q0 47 10.5 91t33.5 78.5t60 55t90 20.5t90 -20.5t60 -55t33.5 -78.5t10.5 -91q0 -45 -10.5 -87.5
t-33.5 -76.5t-60 -54.5t-90 -20.5t-90 20.5t-60 54.5t-33.5 76.5t-10.5 87.5zM202 815h373v75h-373v-75z" />
    <glyph glyph-name="commaaccent" unicode="&#xf004;" horiz-adv-x="259" 
d="M71 -157h56q-1 -41 -14.5 -57t-41.5 -23v-52q36 5 59 18t36 32.5t18 44t5 51.5v103h-118v-117z" />
    <glyph glyph-name="commaaccent" unicode="&#xf6c3;" horiz-adv-x="259" 
d="M71 -157h56q-1 -41 -14.5 -57t-41.5 -23v-52q36 5 59 18t36 32.5t18 44t5 51.5v103h-118v-117z" />
    <glyph glyph-name=".361" unicode="&#xe000;" horiz-adv-x="1093" 
d="M544 0h507v132h-361v175h324v122h-324v153h354v132h-500v-51h-2q-15 19 -34.5 32t-41.5 21t-46 11.5t-47 3.5q-79 0 -141.5 -31t-105.5 -83.5t-65.5 -121t-22.5 -142.5t22 -141t64.5 -118t104.5 -81t141 -30q47 0 93.5 18t78.5 53h2v-54zM538 278q0 -73 -42.5 -118
t-114.5 -45q-50 0 -85.5 21t-58 55t-32.5 77t-10 87q0 45 10 88.5t32.5 78t58.5 56t88 21.5q33 0 61.5 -11t49 -31t32 -47.5t11.5 -61.5v-170z" />
    <glyph glyph-name="Emacron" unicode="&#x112;" horiz-adv-x="648" 
d="M69 0h542v132h-385v175h346v122h-346v153h377v132h-534v-714zM138 813h373v75h-373v-75z" />
    <glyph glyph-name="uogonek" unicode="&#x173;" horiz-adv-x="593" 
d="M539 517h-142v-271q0 -79 -26 -113.5t-84 -34.5q-50 0 -70.5 31.5t-20.5 95.5v292h-142v-318q0 -48 8.5 -87.5t29.5 -67t57.5 -43t93.5 -15.5q45 0 88 21t70 65h3v-72h32q-40 -24 -62 -44.5t-32.5 -37t-12.5 -28t-2 -18.5q0 -32 13 -50t31 -27t36 -11t27 -2q34 0 69 15
t65 53l-48 22q-14 -19 -28 -24.5t-30 -5.5q-15 0 -27 9.5t-12 24.5q0 12 4 25t13 28t24.5 32.5t38.5 38.5h36v517z" />
    <glyph glyph-name="Thorn" horiz-adv-x="667" 
d="M69 0h157v159h165q67 0 114 19.5t76.5 51.5t43 73t13.5 85q0 43 -13.5 84.5t-43 73.5t-76.5 51.5t-114 19.5h-165v97h-157v-714zM226 495h122q27 0 52 -4t44 -15.5t30.5 -32.5t11.5 -55t-11.5 -55t-30.5 -32.5t-44 -15.5t-52 -4h-122v214z" />
    <glyph glyph-name="Eth" horiz-adv-x="741" 
d="M69 0h308q82 0 142.5 27.5t101 75.5t60.5 114t20 144q0 89 -24.5 155t-68 110t-103 66t-128.5 22h-308v-287h-66v-116h66v-311zM226 582h112q58 0 97.5 -16.5t63.5 -47.5t34.5 -74.5t10.5 -97.5q0 -59 -15 -100t-40 -66.5t-57 -36.5t-66 -11h-140v178h160v117h-160v155z
" />
    <glyph glyph-name="emacron" unicode="&#x113;" horiz-adv-x="574" 
d="M544 224q4 60 -10 115t-45.5 98t-80.5 68.5t-115 25.5q-59 0 -107.5 -21t-83.5 -57.5t-54 -86.5t-19 -108q0 -60 18.5 -110t52.5 -86t83 -56t110 -20q88 0 150 41t92 133h-125q-7 -24 -38 -45.5t-74 -21.5q-60 0 -92 31.5t-35 99.5h373zM171 314q1 15 6.5 34t19 36
t36 28.5t56.5 11.5q52 0 77.5 -28t35.5 -82h-231zM107 616h373v75h-373v-75z" />
    <glyph glyph-name="edotaccent" unicode="&#x117;" horiz-adv-x="574" 
d="M544 224q4 60 -10 115t-45.5 98t-80.5 68.5t-115 25.5q-59 0 -107.5 -21t-83.5 -57.5t-54 -86.5t-19 -108q0 -60 18.5 -110t52.5 -86t83 -56t110 -20q88 0 150 41t92 133h-125q-7 -24 -38 -45.5t-74 -21.5q-60 0 -92 31.5t-35 99.5h373zM171 314q1 15 6.5 34t19 36
t36 28.5t56.5 11.5q52 0 77.5 -28t35.5 -82h-231zM232 597h135v117h-135v-117z" />
    <glyph glyph-name="gbreve" unicode="&#x11f;" 
d="M551 517h-135v-69h-2q-26 45 -64.5 64t-89.5 19q-54 0 -95.5 -21t-69.5 -56.5t-42.5 -82t-14.5 -96.5q0 -53 12.5 -100.5t39.5 -83t69 -56t100 -20.5q47 0 89.5 19.5t65.5 60.5h2v-68q1 -56 -27 -92t-87 -36q-38 0 -67 15.5t-39 55.5h-141q3 -44 24.5 -75.5t54 -51.5
t72 -29.5t77.5 -9.5q59 0 102 11t73 29.5t48 42t28 49t13.5 51t3.5 46.5v484zM295 122q-33 0 -55 14t-35.5 36t-19 49.5t-5.5 55.5q0 29 6.5 55.5t21 47t36 32.5t51.5 12q34 0 57.5 -13t37.5 -35t20 -51t6 -60q0 -28 -7.5 -53.5t-22.5 -45.5t-38 -32t-53 -12zM137 727
q6 -72 46.5 -109t112.5 -37q74 0 121 34.5t57 111.5h-63q-9 -38 -37 -54.5t-73 -16.5q-15 0 -31 3.5t-30.5 11.5t-24.5 22t-13 34h-65z" />
    <glyph glyph-name="threequarters" horiz-adv-x="889" 
d="M709 0h96v89h57v80h-57v251h-100l-188 -238v-93h192v-89zM709 169h-116l114 144h2v-144zM239 -22h87l412 744h-85zM181 464q16 0 34.5 -1t34 -6t25.5 -17t10 -33q0 -28 -21.5 -45.5t-51.5 -17.5q-38 0 -56.5 24t-20.5 56h-96q-2 -78 46 -119t129 -41q35 0 66.5 9t55 27.5
t37.5 45.5t14 63q0 35 -21.5 61t-59.5 33v2q33 8 49.5 32t16.5 54q0 31 -13.5 54t-36 38.5t-51 23t-58.5 7.5q-75 0 -117.5 -41t-44.5 -111h96q-1 30 17 51t50 21q24 0 43 -14t19 -39q0 -18 -9.5 -27.5t-24 -14t-31 -5t-30.5 -0.5v-70z" />
    <glyph glyph-name="fraction" unicode="&#x2215;" horiz-adv-x="167" 
d="M-166 -22h87l412 744h-85z" />
    <glyph glyph-name="Edotaccent" unicode="&#x116;" horiz-adv-x="648" 
d="M69 0h542v132h-385v175h346v122h-346v153h377v132h-534v-714zM257 794h135v117h-135v-117z" />
    <glyph glyph-name="Amacron" unicode="&#x100;" horiz-adv-x="685" 
d="M-7 0h159l56 159h267l54 -159h163l-267 714h-161zM342 538h2l90 -262h-185zM156 815h373v75h-373v-75z" />
    <glyph glyph-name="imacron" unicode="&#x12b;" horiz-adv-x="258" 
d="M58 0h142v517h-142v-517zM-17 616h293v75h-293v-75z" />
    <glyph glyph-name="Rcommaaccent" unicode="&#x156;" horiz-adv-x="722" 
d="M69 0h157v279h157q59 0 85 -26t34 -82q3 -21 4.5 -44.5t4 -46t6 -43t10.5 -37.5h157q-11 15 -16.5 37t-8 45.5t-3.5 46.5t-2 40q-2 27 -7.5 53.5t-17.5 49.5t-31 39.5t-48 24.5v2q60 24 86.5 70t26.5 109q0 40 -14.5 76t-42 63t-66 42.5t-86.5 15.5h-385v-714zM226 592
h172q53 0 80.5 -23.5t27.5 -75.5q0 -54 -27.5 -78t-80.5 -24h-172v201zM302 -157h56q-1 -41 -14.5 -57t-41.5 -23v-52q36 5 59 18t36 32.5t18 44t5 51.5v103h-118v-117z" />
    <glyph glyph-name="Umacron" unicode="&#x16a;" horiz-adv-x="741" 
d="M675 714h-157v-444q0 -80 -32 -117.5t-116 -37.5q-48 0 -76.5 13t-44.5 35t-21 50t-5 57v444h-157v-444q0 -146 79.5 -216.5t224.5 -70.5q143 0 224 71t81 216v444zM184 813h373v75h-373v-75z" />
    <glyph glyph-name="rcommaaccent" unicode="&#x157;" horiz-adv-x="389" 
d="M54 0h142v233q0 34 7 64.5t23.5 53t43.5 35.5t66 13q13 0 27 -1.5t24 -3.5v132q-15 5 -31 5q-26 0 -51.5 -8t-47.5 -22.5t-39 -35t-27 -44.5h-2v96h-135v-517zM66 -157h56q-1 -41 -14.5 -57t-41.5 -23v-52q36 5 59 18t36 32.5t18 44t5 51.5v103h-118v-117z" />
    <glyph glyph-name="Scedilla" unicode="&#xaa;" horiz-adv-x="649" 
d="M24 237q-1 -61 20.5 -106.5t58.5 -76.5t86 -48t103 -21l-47 -68l21 -24q19 7 40 7q17 0 28.5 -6.5t11.5 -25.5q0 -18 -11 -26t-29 -8q-26 0 -47 5.5t-37 12.5l-21 -48q14 -5 26.5 -9t26 -7t30.5 -4.5t41 -1.5q22 0 43 4.5t37.5 16t26.5 31t10 48.5q0 18 -8 31.5t-21 22
t-29.5 12.5t-33.5 4q-24 0 -34 -5h-2l26 37q70 1 123 19t89 48.5t54.5 71.5t18.5 89q0 40 -12 70.5t-31.5 52.5t-43 37t-47 24.5t-44.5 15t-34 8.5q-67 17 -108.5 28.5t-65 22t-31.5 23.5t-8 34q0 22 10 37.5t25.5 25.5t34.5 14t38 4q28 0 53 -5t44 -17t30.5 -33t13.5 -53
h152q0 62 -23.5 105.5t-63.5 71.5t-91.5 40.5t-107.5 12.5q-48 0 -96 -13t-86 -40t-61.5 -67.5t-23.5 -95.5q0 -50 18.5 -84t48.5 -57t68 -37.5t78 -24.5q39 -11 77 -19.5t68 -21t48.5 -30.5t18.5 -47q0 -27 -14 -44.5t-35 -27.5t-45 -13.5t-45 -3.5q-32 0 -60.5 7.5t-50 23
t-34.5 40.5t-13 61h-152z" />
    <glyph glyph-name="Scedilla" unicode="&#xf6c1;" horiz-adv-x="649" 
d="M24 237q-1 -61 20.5 -106.5t58.5 -76.5t86 -48t103 -21l-47 -68l21 -24q19 7 40 7q17 0 28.5 -6.5t11.5 -25.5q0 -18 -11 -26t-29 -8q-26 0 -47 5.5t-37 12.5l-21 -48q14 -5 26.5 -9t26 -7t30.5 -4.5t41 -1.5q22 0 43 4.5t37.5 16t26.5 31t10 48.5q0 18 -8 31.5t-21 22
t-29.5 12.5t-33.5 4q-24 0 -34 -5h-2l26 37q70 1 123 19t89 48.5t54.5 71.5t18.5 89q0 40 -12 70.5t-31.5 52.5t-43 37t-47 24.5t-44.5 15t-34 8.5q-67 17 -108.5 28.5t-65 22t-31.5 23.5t-8 34q0 22 10 37.5t25.5 25.5t34.5 14t38 4q28 0 53 -5t44 -17t30.5 -33t13.5 -53
h152q0 62 -23.5 105.5t-63.5 71.5t-91.5 40.5t-107.5 12.5q-48 0 -96 -13t-86 -40t-61.5 -67.5t-23.5 -95.5q0 -50 18.5 -84t48.5 -57t68 -37.5t78 -24.5q39 -11 77 -19.5t68 -21t48.5 -30.5t18.5 -47q0 -27 -14 -44.5t-35 -27.5t-45 -13.5t-45 -3.5q-32 0 -60.5 7.5t-50 23
t-34.5 40.5t-13 61h-152z" />
    <glyph glyph-name="Scedilla" unicode="&#x15e;" horiz-adv-x="649" 
d="M24 237q-1 -61 20.5 -106.5t58.5 -76.5t86 -48t103 -21l-47 -68l21 -24q19 7 40 7q17 0 28.5 -6.5t11.5 -25.5q0 -18 -11 -26t-29 -8q-26 0 -47 5.5t-37 12.5l-21 -48q14 -5 26.5 -9t26 -7t30.5 -4.5t41 -1.5q22 0 43 4.5t37.5 16t26.5 31t10 48.5q0 18 -8 31.5t-21 22
t-29.5 12.5t-33.5 4q-24 0 -34 -5h-2l26 37q70 1 123 19t89 48.5t54.5 71.5t18.5 89q0 40 -12 70.5t-31.5 52.5t-43 37t-47 24.5t-44.5 15t-34 8.5q-67 17 -108.5 28.5t-65 22t-31.5 23.5t-8 34q0 22 10 37.5t25.5 25.5t34.5 14t38 4q28 0 53 -5t44 -17t30.5 -33t13.5 -53
h152q0 62 -23.5 105.5t-63.5 71.5t-91.5 40.5t-107.5 12.5q-48 0 -96 -13t-86 -40t-61.5 -67.5t-23.5 -95.5q0 -50 18.5 -84t48.5 -57t68 -37.5t78 -24.5q39 -11 77 -19.5t68 -21t48.5 -30.5t18.5 -47q0 -27 -14 -44.5t-35 -27.5t-45 -13.5t-45 -3.5q-32 0 -60.5 7.5t-50 23
t-34.5 40.5t-13 61h-152z" />
    <glyph glyph-name="eth" 
d="M305 93q-36 0 -60 14t-38.5 37.5t-20.5 53t-6 60.5q0 27 6.5 54.5t21 49.5t38 35.5t58.5 13.5q34 0 58.5 -13.5t39.5 -35.5t22 -49t7 -55q0 -31 -6 -60.5t-20.5 -53t-39 -37.5t-60.5 -14zM133 593l58 -56l112 56q25 -22 54.5 -53.5t47.5 -73.5h-2q-35 24 -70.5 32
t-64.5 8q-60 0 -103.5 -23t-71.5 -60t-41.5 -83.5t-13.5 -92.5q0 -57 19 -105t54 -82.5t84 -54t110 -19.5t110.5 22t84.5 60t54 90.5t19 114.5q2 116 -41.5 206t-123.5 167l114 57l-52 59l-123 -62q-45 36 -99 66l-92 -69q40 -19 84 -50z" />
    <glyph glyph-name="Uogonek" unicode="&#x172;" horiz-adv-x="741" 
d="M66 270q0 -146 79.5 -216.5t224.5 -70.5h19t18 2q-32 -21 -49.5 -39.5t-26 -32.5t-10 -24.5t-1.5 -16.5q0 -32 13 -50t31 -27t36 -11t27 -2q34 0 69 15t65 53l-48 22q-14 -19 -28 -24.5t-30 -5.5q-15 0 -27 9.5t-12 24.5q0 12 4 25t13 28t24.5 32.5t38.5 38.5
q86 26 132.5 93t46.5 177v444h-157v-444q0 -80 -32 -117.5t-116 -37.5q-48 0 -76.5 13t-44.5 35t-21 50t-5 57v444h-157v-444z" />
    <glyph glyph-name="Gbreve" unicode="&#x11e;" horiz-adv-x="759" 
d="M601 0h100v386h-300v-117h158q-7 -75 -50 -114.5t-120 -39.5q-53 0 -90 20.5t-60 54.5t-33.5 76.5t-10.5 87.5q0 47 10.5 91t33.5 78.5t60 55t90 20.5q56 0 96.5 -30t54.5 -90h150q-6 61 -33.5 108t-68.5 79t-92.5 48.5t-106.5 16.5q-83 0 -148 -29t-110 -80t-69 -120
t-24 -148q0 -77 24 -145t69 -118t110 -79t148 -29q52 0 103 22t93 76zM211 924q6 -72 46.5 -109t112.5 -37q74 0 121 34.5t57 111.5h-63q-9 -38 -37 -54.5t-73 -16.5q-15 0 -31 3.5t-30.5 11.5t-24.5 22t-13 34h-65z" />
    <glyph glyph-name="onesuperior" horiz-adv-x="392" 
d="M289 705h-84q-7 -48 -43.5 -66.5t-84.5 -16.5v-75h110v-274h102v432z" />
    <glyph glyph-name="iogonek" unicode="&#x12f;" horiz-adv-x="258" 
d="M200 714h-142v-117h142v117zM58 0h39q-41 -24 -63 -44.5t-32 -37t-12 -28t-2 -18.5q0 -32 13 -50t31 -27t36 -11t27 -2q34 0 69 15t65 53l-48 22q-14 -19 -28 -24.5t-30 -5.5q-15 0 -27 9.5t-12 24.5q0 12 4 25t13 28t24.5 32.5t38.5 38.5h36v517h-142v-517z" />
    <glyph glyph-name="threesuperior" horiz-adv-x="392" 
d="M164 464q16 0 34.5 -1t34 -6t25.5 -17t10 -33q0 -28 -21.5 -45.5t-51.5 -17.5q-38 0 -56.5 24t-20.5 56h-96q-2 -78 46 -119t129 -41q35 0 66.5 9t55 27.5t37.5 45.5t14 63q0 35 -21.5 61t-59.5 33v2q33 8 49.5 32t16.5 54q0 31 -13.5 54t-36 38.5t-51 23t-58.5 7.5
q-75 0 -117.5 -41t-44.5 -111h96q-1 30 17 51t50 21q24 0 43 -14t19 -39q0 -18 -9.5 -27.5t-24 -14t-31 -5t-30.5 -0.5v-70z" />
    <glyph glyph-name="Lcommaaccent" unicode="&#x13b;" horiz-adv-x="593" 
d="M69 0h505v132h-348v582h-157v-714zM238 -157h56q-1 -41 -14.5 -57t-41.5 -23v-52q36 5 59 18t36 32.5t18 44t5 51.5v103h-118v-117z" />
    <glyph glyph-name="thorn" 
d="M54 -182h142v246h2q26 -38 67 -58t88 -20q57 0 99.5 22.5t71 59.5t42.5 85t14 100q0 55 -14 105.5t-43 88.5t-73 61t-105 23q-43 0 -82 -19t-65 -61h-2v263h-142v-896zM438 257q0 -32 -6 -61.5t-20.5 -52t-38 -36.5t-58.5 -14t-58.5 14t-38 36.5t-21 52t-6.5 61.5
q0 31 6 61.5t20.5 53.5t38 37.5t58.5 14.5q34 0 57.5 -14.5t38.5 -38t21.5 -53.5t6.5 -61z" />
    <glyph glyph-name="Iogonek" unicode="&#x12e;" horiz-adv-x="295" 
d="M69 0h49q-40 -24 -62 -44.5t-32.5 -37t-12.5 -28t-2 -18.5q0 -32 13 -50t31 -27t36 -11t27 -2q34 0 69 15t65 53l-48 22q-14 -19 -28 -24.5t-30 -5.5q-15 0 -27 9.5t-12 24.5q0 12 4 25t13 28t24.5 32.5t38.5 38.5h41v714h-157v-714z" />
    <glyph glyph-name="minus" unicode="&#x2212;" horiz-adv-x="600" 
d="M48 199h505v107h-505v-107z" />
    <glyph glyph-name=".362" unicode="&#xe001;" horiz-adv-x="926" 
d="M528 314q2 46 30 78t82 32q57 0 85 -30t30 -80h-227zM290 93q-32 0 -53 15.5t-34 39.5t-18 52.5t-5 55.5q0 30 5.5 60t18.5 54t34.5 39t54.5 15q36 0 57.5 -16t33.5 -40t16 -53t4 -55q0 -28 -4.5 -57.5t-17 -54t-34.5 -40t-58 -15.5zM897 224q0 62 -14 117.5t-44.5 97.5
t-78.5 67t-117 25q-23 0 -48 -5.5t-48.5 -16t-43.5 -25.5t-33 -35q-14 22 -34 38t-43.5 25.5t-49.5 14t-51 4.5q-58 0 -105 -21t-80 -57t-51 -85.5t-18 -106.5q0 -55 15.5 -105t46 -87.5t76 -60t105.5 -22.5q26 0 52.5 5t51 15.5t45 27t34.5 40.5q30 -48 81.5 -68t105.5 -20
q88 0 152.5 46.5t89.5 131.5h-138q-14 -35 -39.5 -53t-64.5 -18q-62 0 -92.5 37.5t-30.5 93.5h369z" />
    <glyph glyph-name="ncommaaccent" unicode="&#x146;" horiz-adv-x="593" 
d="M54 0h142v271q0 79 26 113.5t84 34.5q50 0 70.5 -31.5t20.5 -95.5v-292h142v318q0 48 -8.5 87.5t-29.5 67t-57.5 43t-93.5 15.5q-45 0 -88 -21t-70 -65h-3v72h-135v-517zM238 -157h56q-1 -41 -14.5 -57t-41.5 -23v-52q36 5 59 18t36 32.5t18 44t5 51.5v103h-118v-117z
" />
    <glyph glyph-name="gcommaaccent" unicode="&#x123;" 
d="M551 517h-135v-69h-2q-26 45 -64.5 64t-89.5 19q-54 0 -95.5 -21t-69.5 -56.5t-42.5 -82t-14.5 -96.5q0 -53 12.5 -100.5t39.5 -83t69 -56t100 -20.5q47 0 89.5 19.5t65.5 60.5h2v-68q1 -56 -27 -92t-87 -36q-38 0 -67 15.5t-39 55.5h-141q3 -44 24.5 -75.5t54 -51.5
t72 -29.5t77.5 -9.5q59 0 102 11t73 29.5t48 42t28 49t13.5 51t3.5 46.5v484zM295 122q-33 0 -55 14t-35.5 36t-19 49.5t-5.5 55.5q0 29 6.5 55.5t21 47t36 32.5t51.5 12q34 0 57.5 -13t37.5 -35t20 -51t6 -60q0 -28 -7.5 -53.5t-22.5 -45.5t-38 -32t-53 -12zM367 698h-56
q0 21 3.5 34.5t10.5 22.5t17.5 14t24.5 9v52q-36 -5 -59 -18t-36 -32.5t-18 -44t-5 -51.5v-103h118v117z" />
    <glyph glyph-name="twosuperior" horiz-adv-x="392" 
d="M130 540q-1 15 2.5 31.5t12 30.5t22.5 23t35 9q28 0 44.5 -18t16.5 -44q0 -20 -9.5 -34.5t-24 -26.5t-31 -22l-31.5 -20q-29 -18 -54.5 -36t-44.5 -40.5t-30 -51t-11 -68.5h334v80h-209q26 35 62 55.5t70 42.5t57.5 51.5t23.5 76.5q0 33 -12.5 58.5t-34 42.5t-50 25.5
t-59.5 8.5q-92 0 -137 -48.5t-44 -125.5h102z" />
    <glyph glyph-name="lcommaaccent" unicode="&#x13c;" horiz-adv-x="258" 
d="M58 0h142v714h-142v-714zM70 -157h56q-1 -41 -14.5 -57t-41.5 -23v-52q36 5 59 18t36 32.5t18 44t5 51.5v103h-118v-117z" />
    <glyph glyph-name="Imacron" unicode="&#x12a;" horiz-adv-x="295" 
d="M69 0h157v714h-157v-714zM-39 813h373v75h-373v-75z" />
    <glyph glyph-name="Idotaccent" unicode="&#x130;" horiz-adv-x="295" 
d="M69 0h157v714h-157v-714zM80 794h135v117h-135v-117z" />
    <glyph glyph-name="Kcommaaccent" unicode="&#x136;" horiz-adv-x="722" 
d="M69 0h157v230l90 91l215 -321h197l-306 432l279 282h-196l-279 -296v296h-157v-714zM302 -157h56q-1 -41 -14.5 -57t-41.5 -23v-52q36 5 59 18t36 32.5t18 44t5 51.5v103h-118v-117z" />
    <glyph glyph-name="onequarter" horiz-adv-x="892" 
d="M689 0h96v89h57v80h-57v251h-100l-188 -238v-93h192v-89zM689 169h-116l114 144h2v-144zM152 -22h87l412 744h-85zM236 705h-84q-7 -48 -43.5 -66.5t-84.5 -16.5v-75h110v-274h102v432z" />
    <glyph glyph-name="Gcommaaccent" unicode="&#x122;" horiz-adv-x="759" 
d="M601 0h100v386h-300v-117h158q-7 -75 -50 -114.5t-120 -39.5q-53 0 -90 20.5t-60 54.5t-33.5 76.5t-10.5 87.5q0 47 10.5 91t33.5 78.5t60 55t90 20.5q56 0 96.5 -30t54.5 -90h150q-6 61 -33.5 108t-68.5 79t-92.5 48.5t-106.5 16.5q-83 0 -148 -29t-110 -80t-69 -120
t-24 -148q0 -77 24 -145t69 -118t110 -79t148 -29q52 0 103 22t93 76zM321 -157h56q-1 -41 -14.5 -57t-41.5 -23v-52q36 5 59 18t36 32.5t18 44t5 51.5v103h-118v-117z" />
    <glyph glyph-name="omacron" unicode="&#x14d;" 
d="M38 258q0 -62 19 -112t54 -85.5t84 -55t110 -19.5t110.5 19.5t84.5 55t54 85.5t19 112t-19 112.5t-54 86t-84.5 55t-110.5 19.5t-110 -19.5t-84 -55t-54 -86t-19 -112.5zM180 258q0 31 6 61t20.5 53t38.5 37.5t60 14.5t60.5 -14.5t39 -37.5t20.5 -53t6 -61t-6 -60.5
t-20.5 -53t-39 -37.5t-60.5 -14t-60 14t-38.5 37.5t-20.5 53t-6 60.5zM125 616h373v75h-373v-75z" />
    <glyph glyph-name="kcommaaccent" unicode="&#x137;" horiz-adv-x="574" 
d="M67 0h142v178l55 53l142 -231h172l-217 327l195 190h-168l-179 -186v383h-142v-714zM228 -157h56q-1 -41 -14.5 -57t-41.5 -23v-52q36 5 59 18t36 32.5t18 44t5 51.5v103h-118v-117z" />
    <glyph glyph-name=".E003h" unicode="&#xe003;" horiz-adv-x="600" 
d="M552 406h-504v-107h397v-200h107v307z" />
    </font>
</defs>
</svg>
