<?xml version="1.0" standalone="no"?>
<!DOCTYPE svg PUBLIC "-//W3C//DTD SVG 1.1//EN" "http://www.w3.org/Graphics/SVG/1.1/DTD/svg11.dtd" >
<svg xmlns="http://www.w3.org/2000/svg" xmlns:xlink="http://www.w3.org/1999/xlink" version="1.1">
<metadata>
Created by FontForge 20161003 at Mon Oct 22 09:56:17 2018
 By www-data
Copyright (c) 1990 Adobe Systems Incorporated.  All Rights Reserved.Helvetica is a trademark of Linotype AG and/or its subsidiaries.
</metadata>
<defs>
<font id="HelveticaLT53Extended" horiz-adv-x="222" >
  <font-face 
    font-family="HelveticaLT53Extended"
    font-weight="400"
    font-stretch="normal"
    units-per-em="1000"
    panose-1="0 0 4 0 0 0 0 0 0 0"
    ascent="800"
    descent="-200"
    x-height="524"
    cap-height="714"
    bbox="-157 -220 1160 963"
    underline-thickness="50"
    underline-position="-175"
    unicode-range="U+0001-E009"
  />
<missing-glyph horiz-adv-x="500" 
d="M63 0v784h375v-784h-375zM125 63h250v659h-250v-659z" />
    <glyph glyph-name=".notdef" horiz-adv-x="500" 
d="M63 0v784h375v-784h-375zM125 63h250v659h-250v-659z" />
    <glyph glyph-name=".null" horiz-adv-x="0" 
 />
    <glyph glyph-name="nonmarkingreturn" horiz-adv-x="334" 
 />
    <glyph glyph-name="breve" 
d="M-63 740h66q10 -71 108 -71t108 71h66q-4 -72 -55 -109q-46 -34 -119 -34t-119 34q-51 37 -55 109z" />
    <glyph glyph-name="caron" 
d="M111 653l86 88h97l-130 -140h-106l-130 140h97z" />
    <glyph glyph-name="dotlessi" 
d="M61 0v524h100v-524h-100z" />
    <glyph glyph-name="dotaccent" 
d="M61 610v104h100v-104h-100z" />
    <glyph glyph-name="hungarumlaut" 
d="M171 601l86 140h125l-131 -140h-80zM-69 601l86 140h125l-131 -140h-80z" />
    <glyph glyph-name="ring" 
d="M-6 686q0 49 34 83t83 34t83 -34t34 -83t-34 -83t-83 -34t-83 34t-34 83zM174 686q0 25 -19 44t-44 19t-44 -19t-19 -44t19 -44t44 -19t44 19t19 44z" />
    <glyph glyph-name="ogonek" 
d="M111 0h54q-94 -47 -94 -112q0 -42 48 -42q34 0 82 10l12 -35q-49 -17 -102 -17q-106 0 -106 78q0 42 40 78q29 26 66 40z" />
    <glyph glyph-name="space" unicode=" " horiz-adv-x="334" 
 />
    <glyph glyph-name="exclam" unicode="!" horiz-adv-x="334" 
d="M105 0v116h124v-116h-124zM138 188l-27 339v187h112v-187l-27 -339h-58z" />
    <glyph glyph-name="quotedbl" unicode="&#x22;" horiz-adv-x="481" 
d="M294 445v269h84v-269h-84zM103 445v269h84v-269h-84z" />
    <glyph glyph-name="numbersign" unicode="#" horiz-adv-x="668" 
d="M383 274l20 146h-118l-20 -146h118zM194 274l20 146h-94v66h103l29 208h71l-29 -208h118l29 208h71l-29 -208h94v-66h-103l-20 -146h94v-66h-103l-29 -208h-71l29 208h-118l-29 -208h-71l29 208h-94v66h103z" />
    <glyph glyph-name="dollar" unicode="$" horiz-adv-x="668" 
d="M305 68v244q-116 19 -171 52q-83 49 -83 146q0 100 82 154q69 46 172 46v89h48v-89q124 -1 191 -56q61 -50 68 -139h-100q-13 105 -159 111v-225q151 -25 213 -69q65 -47 65 -139q0 -104 -86 -160q-76 -49 -192 -49v-89h-48v89q-114 0 -188 57q-79 61 -80 165h100
q10 -129 168 -138zM305 407v219q-154 -8 -154 -109q0 -93 154 -110zM353 303v-235q87 0 135 33q43 31 43 81q0 51 -41 79.5t-137 41.5z" />
    <glyph glyph-name="percent" unicode="%" horiz-adv-x="1000" 
d="M856 179q0 129 -95 129t-95 -129t95 -129t95 129zM582 179q0 89 44 140q47 55 135 55t135 -55q44 -51 44 -140t-44 -140q-47 -55 -135 -55t-135 55q-44 51 -44 140zM334 515q0 129 -95 129t-95 -129t95 -129t95 129zM60 515q0 89 44 140q47 55 135 55t135 -55
q44 -51 44 -140t-44 -140q-47 -55 -135 -55t-135 55q-44 51 -44 140zM260 -16l397 726h84l-397 -726h-84z" />
    <glyph glyph-name="ampersand" unicode="&#x26;" horiz-adv-x="815" 
d="M698 0l-86 81q-39 -48 -110 -74q-66 -25 -144 -25q-147 0 -222 71q-60 57 -60 142q0 149 186 213q-78 69 -78 145q0 73 49 117t136 44q82 0 133 -46q48 -43 48 -109q0 -111 -138 -166l189 -175q28 46 33 111h94q-4 -97 -59 -174l168 -155h-139zM278 558q0 -43 75 -112
q103 43 103 107q0 31 -24.5 54t-61.5 23q-45 0 -68.5 -21t-23.5 -51zM546 139l-227 213q-137 -58 -137 -154q0 -52 38 -88q48 -44 143 -44q128 0 183 73z" />
    <glyph glyph-name="quotesingle" unicode="'" horiz-adv-x="334" 
d="M125 445v269h84v-269h-84z" />
    <glyph glyph-name="parenleft" unicode="(" horiz-adv-x="407" 
d="M377 -190h-75q-200 208 -200 452t200 452h75q-75 -78 -122 -191q-53 -128 -53 -261t53 -260q47 -114 122 -192z" />
    <glyph glyph-name="parenright" unicode=")" horiz-adv-x="407" 
d="M105 -190h-75q75 78 122 192q53 127 53 260t-53 261q-47 113 -122 191h75q200 -208 200 -452t-200 -452z" />
    <glyph glyph-name="asterisk" unicode="*" horiz-adv-x="463" 
d="M174 520l-128 50l28 66l121 -49v127h72v-127l124 49l26 -66l-129 -50l97 -97l-54 -45l-100 103l-98 -103l-51 45z" />
    <glyph glyph-name="plus" unicode="+" horiz-adv-x="600" 
d="M258 295v211h84v-211h211v-84h-211v-211h-84v211h-211v84h211z" />
    <glyph glyph-name="comma" unicode="," horiz-adv-x="334" 
d="M105 0v116h124v-102q0 -64 -29 -107q-32 -49 -95 -60v49q31 9 45 32t15 72h-60z" />
    <glyph glyph-name="hyphenminus" unicode="-" horiz-adv-x="600" 
d="M47 211v84h506v-84h-506z" />
    <glyph glyph-name="period" unicode="." horiz-adv-x="334" 
d="M105 0v116h124v-116h-124z" />
    <glyph glyph-name="slash" unicode="/" horiz-adv-x="406" 
d="M0 -18l312 750h94l-312 -750h-94z" />
    <glyph glyph-name="zero" unicode="0" horiz-adv-x="668" 
d="M45 347q0 363 289 363t289 -363t-289 -363t-289 363zM517 347q0 279 -183 279t-183 -279t183 -279t183 279z" />
    <glyph glyph-name="one" unicode="1" horiz-adv-x="444" 
d="M199 0v505h-209v78h24q197 0 208 131h83v-714h-106z" />
    <glyph glyph-name="two" unicode="2" horiz-adv-x="668" 
d="M146 459h-100q0 115 66 181q71 70 209 70q130 0 199 -64q63 -59 63 -159q0 -106 -91 -175q-28 -21 -185 -100q-114 -58 -145 -120h421v-92h-550q9 139 124 226q105 59 209 117q111 63 111 145q0 71 -45 107q-39 31 -105 31q-176 0 -181 -167z" />
    <glyph glyph-name="three" unicode="3" horiz-adv-x="668" 
d="M256 323v87q13 -1 67 -1q136 0 136 102q0 61 -48 91q-39 24 -104 24q-152 0 -160 -146h-100q6 115 79 175q68 55 184 55q126 0 195 -59q60 -52 60 -132q0 -51 -25 -89q-28 -41 -79 -54v-2q60 -11 97.5 -56t37.5 -111q0 -97 -65 -156q-73 -67 -207 -67q-295 0 -295 236
h100q8 -152 186 -152q83 0 129 36t46 96q0 59 -48 92t-127 33q-21 0 -39 -1t-20 -1z" />
    <glyph glyph-name="four" unicode="4" horiz-adv-x="668" 
d="M401 253v321h-2l-263 -321h265zM401 0v169h-365v92l377 453h88v-461h122v-84h-122v-169h-100z" />
    <glyph glyph-name="five" unicode="5" horiz-adv-x="668" 
d="M66 319l64 375h427v-92h-352l-34 -189q74 50 171 50q107 0 178 -48q89 -61 89 -184q0 -112 -78.5 -179.5t-213.5 -67.5q-119 0 -193.5 57.5t-79.5 144.5h103q16 -64 57 -91t121 -27q178 0 178 159q0 76 -51 116q-46 36 -124 36q-112 0 -166 -66z" />
    <glyph glyph-name="six" unicode="6" horiz-adv-x="668" 
d="M522 224q0 68 -42 110q-47 46 -133 46q-87 0 -134 -46q-42 -42 -42 -110t42 -110q47 -46 134 -46q86 0 133 46q42 42 42 110zM604 530h-100q-8 46 -46.5 71t-92.5 25q-96 0 -144 -49q-59 -60 -67 -205h2q22 38 74 63q59 29 130 29q108 0 179 -51q89 -63 89 -187
q0 -93 -63 -160q-76 -82 -214 -82q-297 0 -297 349q0 377 316 377q81 0 141 -36q80 -47 93 -144z" />
    <glyph glyph-name="seven" unicode="7" horiz-adv-x="593" 
d="M17 596v98h539v-88q-118 -148 -187 -285q-75 -149 -113 -321h-111q83 333 312 596h-440z" />
    <glyph glyph-name="eight" unicode="8" horiz-adv-x="668" 
d="M47 206q0 76 57 127q41 37 87 46v2q-112 41 -112 146q0 87 67.5 135t188.5 48t188 -48t67 -135q0 -105 -111 -146v-2q64 -11 103 -57t39 -116q0 -86 -55 -144q-75 -78 -232 -78t-232 78q-55 58 -55 144zM484 522q0 42 -35 71q-41 33 -114 33t-114 -33q-36 -29 -36 -71
q0 -43 36 -71q41 -33 114 -33t114 33q35 28 35 71zM515 201q0 58 -41 93q-48 40 -140 40t-140 -40q-41 -35 -41 -93t41 -93q48 -40 140 -40t140 40q41 35 41 93z" />
    <glyph glyph-name="nine" unicode="9" horiz-adv-x="668" 
d="M497 470q0 68 -42 110q-47 46 -134 46q-86 0 -133 -46q-42 -42 -42 -110t42 -110q47 -46 133 -46q87 0 134 46q42 42 42 110zM64 164h100q8 -46 48 -72q37 -24 91 -24q96 0 144 49q59 60 67 205h-2q-22 -38 -74 -63q-59 -29 -130 -29q-108 0 -179 51q-89 63 -89 187
q0 93 63 160q76 82 214 82q297 0 297 -349q0 -377 -316 -377q-81 0 -141 36q-80 47 -93 144z" />
    <glyph glyph-name="colon" unicode=":" horiz-adv-x="334" 
d="M105 399v116h124v-116h-124zM105 0v116h124v-116h-124z" />
    <glyph glyph-name="semicolon" unicode=";" horiz-adv-x="334" 
d="M105 0v116h124v-102q0 -64 -29 -107q-32 -49 -95 -60v49q31 9 45 32t15 72h-60zM105 399v116h124v-116h-124z" />
    <glyph glyph-name="less" unicode="&#x3c;" horiz-adv-x="600" 
d="M47 217v72l506 226v-84l-403 -178l403 -178v-84z" />
    <glyph glyph-name="equal" unicode="=" horiz-adv-x="600" 
d="M47 315v84h506v-84h-506zM47 107v84h506v-84h-506z" />
    <glyph glyph-name="greater" unicode="&#x3e;" horiz-adv-x="600" 
d="M450 253l-403 178v84l506 -226v-72l-506 -226v84z" />
    <glyph glyph-name="question" unicode="?" horiz-adv-x="668" 
d="M158 492h-100q6 131 98 193q70 47 175 47q108 0 177 -54q75 -59 75 -162q0 -78 -60 -137l-110 -88q-60 -49 -60 -103h-94q0 84 57 140l104 82q57 47 57 107q0 66 -44 100q-40 31 -106 31q-74 0 -120 -41.5t-49 -114.5zM244 0v116h124v-116h-124z" />
    <glyph glyph-name="at" unicode="@" horiz-adv-x="800" 
d="M501 398q0 39 -24 68t-58 29q-59 0 -103 -64q-41 -59 -41 -124q0 -44 23.5 -72t60.5 -28q58 0 102 66q40 61 40 125zM531 492l19 59h72l-76 -273q-11 -40 -11 -49q0 -23 23 -23q52 0 96.5 63t44.5 142q0 119 -83 192q-80 69 -200 69q-136 0 -222.5 -92t-86.5 -226
t90.5 -223t227.5 -89q140 0 233 110h73q-49 -80 -131.5 -125t-178.5 -45q-163 0 -274.5 108.5t-111.5 267.5q0 157 111.5 265.5t269.5 108.5q144 0 245 -85q104 -89 104 -223q0 -129 -91 -215q-77 -74 -156 -74q-58 0 -61 59h-2q-53 -59 -116 -59t-105.5 47.5t-42.5 115.5
q0 104 61 184q66 85 163 85q79 0 116 -75z" />
    <glyph glyph-name="A" unicode="A" horiz-adv-x="759" 
d="M512 300l-137 316l-134 -316h271zM642 0l-91 208h-350l-91 -208h-114l323 714h121l323 -714h-121z" />
    <glyph glyph-name="B" unicode="B" horiz-adv-x="778" 
d="M77 0v714h397q220 0 220 -179q0 -113 -104 -151v-2q135 -31 135 -176q0 -84 -55 -141q-62 -65 -171 -65h-422zM183 419h289q56 0 87 29q29 26 29 71q0 103 -122 103h-283v-203zM183 92h287q149 0 149 121q0 114 -140 114h-296v-235z" />
    <glyph glyph-name="C" unicode="C" horiz-adv-x="815" 
d="M770 457h-106q-13 80 -72 129q-65 54 -172 54q-130 0 -201 -73q-75 -76 -75 -219q0 -114 61 -188q72 -86 209 -86q207 0 250 199h106q-13 -123 -108 -205q-101 -86 -249 -86q-154 0 -255 84q-120 100 -120 293q0 163 96 265q101 108 278 108q131 0 226 -57
q120 -73 132 -218z" />
    <glyph glyph-name="D" unicode="D" horiz-adv-x="796" 
d="M77 0v714h362q156 0 236 -96q76 -90 76 -251q0 -162 -71 -258q-80 -109 -235 -109h-368zM183 92h257q205 0 205 273q0 257 -225 257h-237v-530z" />
    <glyph glyph-name="E" unicode="E" horiz-adv-x="704" 
d="M77 0v714h574v-92h-468v-207h454v-92h-454v-231h478v-92h-584z" />
    <glyph glyph-name="F" unicode="F" horiz-adv-x="648" 
d="M77 0v714h553v-92h-447v-211h426v-92h-426v-319h-106z" />
    <glyph glyph-name="G" unicode="G" horiz-adv-x="870" 
d="M468 293v92h328v-385h-76l-18 102q-103 -120 -274 -120q-195 0 -296 123q-81 98 -81 240q0 193 118 297q101 90 256 90q303 0 359 -243h-112q-50 151 -242 151q-134 0 -207 -86q-66 -77 -66 -200q0 -143 83 -216q73 -64 195 -64q114 0 188 62q71 60 79 157h-234z" />
    <glyph glyph-name="H" unicode="H" horiz-adv-x="852" 
d="M669 0v336h-486v-336h-106v714h106v-286h486v286h106v-714h-106z" />
    <glyph glyph-name="I" unicode="I" horiz-adv-x="278" 
d="M86 0v714h106v-714h-106z" />
    <glyph glyph-name="J" unicode="J" horiz-adv-x="574" 
d="M23 243h100v-34q0 -143 141 -143q132 0 132 142v506h106v-484q0 -248 -236 -248q-155 0 -211 96q-32 55 -32 165z" />
    <glyph glyph-name="K" unicode="K" horiz-adv-x="759" 
d="M609 0l-292 348l-130 -115v-233h-106v714h106v-359l399 359h150l-339 -296l358 -418h-146z" />
    <glyph glyph-name="L" unicode="L" horiz-adv-x="630" 
d="M81 0v714h106v-622h434v-92h-540z" />
    <glyph glyph-name="M" unicode="M" horiz-adv-x="1019" 
d="M509 122l286 592h147v-714h-106v592h-2l-278 -592h-94l-277 580h-2v-580h-106v714h149z" />
    <glyph glyph-name="N" unicode="N" horiz-adv-x="852" 
d="M648 0l-459 568h-2v-568h-106v714h123l459 -568h2v568h106v-714h-123z" />
    <glyph glyph-name="O" unicode="O" horiz-adv-x="870" 
d="M38 357q0 154 91 256q106 119 306 119t306 -119q91 -102 91 -256t-91 -256q-106 -119 -306 -119t-306 119q-91 102 -91 256zM726 357q0 136 -84 212q-79 71 -207 71t-207 -71q-84 -76 -84 -212t84 -212q79 -71 207 -71t207 71q84 76 84 212z" />
    <glyph glyph-name="P" unicode="P" horiz-adv-x="722" 
d="M81 0v714h368q239 0 239 -205q0 -102 -60.5 -162.5t-171.5 -60.5h-269v-286h-106zM187 378h255q140 0 140 129q0 53 -31 84t-90 31h-274v-244z" />
    <glyph glyph-name="Q" unicode="Q" horiz-adv-x="870" 
d="M745 -77l-115 98q-83 -39 -195 -39q-200 0 -306 119q-91 102 -91 256t91 256q106 119 306 119t306 -119q91 -102 91 -256q0 -184 -124 -287l93 -78zM547 91l-72 61l55 67l100 -84q96 76 96 222q0 136 -84 212q-79 71 -207 71t-207 -71q-84 -76 -84 -212t84 -212
q79 -71 207 -71q62 0 112 17z" />
    <glyph glyph-name="R" unicode="R" horiz-adv-x="759" 
d="M81 0v714h442q99 0 151 -61q44 -51 44 -129q0 -138 -120 -176v-2q47 -7 74 -47.5t30 -104.5q5 -103 10 -136q7 -38 24 -58h-112q-12 14 -16 43q-2 16 -6 93q-5 93 -37.5 130t-100.5 37h-277v-303h-106zM187 395h296q129 0 129 113q0 114 -126 114h-299v-227z" />
    <glyph glyph-name="S" unicode="S" horiz-adv-x="667" 
d="M16 235h106q1 -88 75 -128q59 -33 155 -33q87 0 140 32t53 89q0 84 -133 106l-162 27q-212 35 -212 187q0 99 75.5 158t210.5 59q124 0 202 -47q95 -58 102 -177h-106q-21 132 -212 132q-67 0 -112 -27q-54 -32 -54 -90q0 -74 117 -94l175 -30q215 -37 215 -183
q0 -125 -99 -185q-81 -49 -208 -49q-140 0 -224 53q-104 64 -104 200z" />
    <glyph glyph-name="T" unicode="T" horiz-adv-x="648" 
d="M271 0v622h-270v92h646v-92h-270v-622h-106z" />
    <glyph glyph-name="U" unicode="U" horiz-adv-x="796" 
d="M75 270v444h106v-457q0 -183 217 -183t217 183v457h106v-444q0 -288 -323 -288t-323 288z" />
    <glyph glyph-name="V" unicode="V" horiz-adv-x="722" 
d="M366 110l253 604h114l-313 -714h-113l-318 714h120z" />
    <glyph glyph-name="W" unicode="W" horiz-adv-x="1093" 
d="M742 0l-198 592h-2l-197 -592h-117l-235 714h115l183 -580h2l191 580h126l196 -580h2l182 580h110l-242 -714h-116z" />
    <glyph glyph-name="X" unicode="X" horiz-adv-x="704" 
d="M354 439l210 275h131l-275 -348l283 -366h-139l-216 289l-215 -289h-132l282 366l-268 348h135z" />
    <glyph glyph-name="Y" unicode="Y" horiz-adv-x="722" 
d="M362 389l237 325h129l-315 -415v-299h-106v294l-313 420h135z" />
    <glyph glyph-name="Z" unicode="Z" horiz-adv-x="685" 
d="M14 0v95l510 527h-474v92h613v-92l-512 -530h520v-92h-657z" />
    <glyph glyph-name="bracketleft" unicode="[" horiz-adv-x="407" 
d="M117 -190v904h229v-78h-135v-748h135v-78h-229z" />
    <glyph glyph-name="backslash" unicode="\" horiz-adv-x="406" 
d="M312 -18l-312 750h94l312 -750h-94z" />
    <glyph glyph-name="bracketright" unicode="]" horiz-adv-x="407" 
d="M196 -112v748h-135v78h229v-904h-229v78h135z" />
    <glyph glyph-name="asciicircum" unicode="^" horiz-adv-x="600" 
d="M459 280l-159 330l-159 -330h-84l204 414h76l206 -414h-84z" />
    <glyph glyph-name="underscore" unicode="_" horiz-adv-x="500" 
d="M0 -125v50h500v-50h-500z" />
    <glyph glyph-name="grave" unicode="`" 
d="M91 601l-131 140h125l86 -140h-80z" />
    <glyph glyph-name="a" unicode="a" horiz-adv-x="648" 
d="M154 360h-94q18 182 260 182q99 0 161 -29q80 -37 80 -120v-282q0 -45 45 -45q15 0 35 4v-70q-36 -6 -78 -6q-81 0 -90 73q-29 -39 -95 -63q-61 -22 -128 -22q-117 0 -172 54q-41 40 -41 104q0 74 50.5 112t174.5 51l114 12q47 5 67 16q24 14 24 47q0 86 -151 86
q-158 0 -162 -104zM467 207v67q-19 -21 -98 -31l-113 -14q-61 -8 -90 -27t-29 -59q0 -37 33.5 -60t88.5 -23q87 0 147.5 41.5t60.5 105.5z" />
    <glyph glyph-name="b" unicode="b" horiz-adv-x="685" 
d="M61 0v720h100v-275h2q58 91 199 91q123 0 202 -72q83 -77 83 -205t-83 -204q-79 -73 -202 -73q-60 0 -114 22q-57 23 -85 63h-2v-67h-100zM541 259q0 89 -52 141t-140 52t-141 -52t-53 -141q0 -81 46 -134q52 -59 148 -59q95 0 147 59q45 53 45 134z" />
    <glyph glyph-name="c" unicode="c" horiz-adv-x="630" 
d="M490 192h106q-30 -113 -101 -164q-65 -46 -172 -46q-145 0 -220 88q-65 74 -65 189q0 122 71 200q77 83 213 83q109 0 181 -48q76 -51 91 -145h-106q-19 109 -159 109q-92 0 -140 -56q-45 -51 -45 -140t45 -140q48 -56 140 -56q129 0 161 126z" />
    <glyph glyph-name="d" unicode="d" horiz-adv-x="685" 
d="M524 0v67h-2q-28 -40 -83.5 -62.5t-115.5 -22.5q-123 0 -202 73q-83 76 -83 204t83 205q79 72 202 72q61 0 115.5 -22t83.5 -63h2v269h100v-720h-100zM144 259q0 -81 45 -134q52 -59 147 -59q96 0 148 59q46 53 46 134q0 89 -53 141t-141 52t-140 -52t-52 -141z" />
    <glyph glyph-name="e" unicode="e" horiz-adv-x="667" 
d="M626 232h-482q6 -77 66 -123q55 -43 127 -43q126 0 169 93h106q-35 -89 -115 -136q-70 -41 -155 -41q-146 0 -228 83q-76 77 -76 197t76 197q82 83 228 83q117 0 194 -67q90 -79 90 -230v-13zM147 310h373q-11 70 -61 109t-122 39t-124 -39q-55 -41 -66 -109z" />
    <glyph glyph-name="f" unicode="f" horiz-adv-x="333" 
d="M92 524v78q0 130 161 130q10 0 87 -8v-78q-38 2 -56 2q-44 0 -61 -5q-31 -11 -31 -46v-73h148v-78h-148v-446h-100v446h-107v78h107z" />
    <glyph glyph-name="g" unicode="g" horiz-adv-x="685" 
d="M530 447v77h100v-480q0 -141 -71.5 -202.5t-233.5 -61.5q-107 0 -166 27q-84 38 -98 136h100q13 -48 58 -68q39 -17 116 -17q100 0 151 47q44 41 44 111v76h-2q-67 -97 -203 -97q-118 0 -196 62q-91 73 -91 208q0 136 91 209q78 62 195 62q146 0 204 -89h2zM530 264
q0 83 -52 135.5t-141 52.5q-90 0 -141.5 -52.5t-51.5 -135.5t51.5 -134t141.5 -51q89 0 141 51.5t52 133.5z" />
    <glyph glyph-name="h" unicode="h" horiz-adv-x="649" 
d="M61 0v720h100v-275h2q62 97 205 97q100 0 157 -43q63 -48 63 -142v-357h-100v337q0 121 -155 121q-72 0 -120 -39q-52 -43 -52 -117v-302h-100z" />
    <glyph glyph-name="i" unicode="i" 
d="M61 0v524h100v-524h-100zM61 610v110h100v-110h-100z" />
    <glyph glyph-name="j" unicode="j" 
d="M-52 -200v84q13 -2 37 -2q76 0 76 63v579h100v-556q0 -93 -35 -130q-37 -40 -131 -40q-13 0 -47 2zM61 610v110h100v-110h-100z" />
    <glyph glyph-name="k" unicode="k" horiz-adv-x="593" 
d="M169 300l266 224h152l-246 -197l265 -327h-136l-209 262l-92 -73v-189h-100v720h100v-420z" />
    <glyph glyph-name="l" unicode="l" 
d="M61 0v720h100v-720h-100z" />
    <glyph glyph-name="m" unicode="m" horiz-adv-x="1018" 
d="M857 0v333q0 125 -126 125q-74 0 -120 -34q-52 -37 -52 -107v-317h-100v333q0 125 -126 125q-72 0 -120 -39q-52 -43 -52 -117v-302h-100v524h100v-79h2q62 97 205 97q119 0 178 -97q78 97 212 97q66 0 119 -32q80 -49 80 -153v-357h-100z" />
    <glyph glyph-name="n" unicode="n" horiz-adv-x="649" 
d="M61 0v524h100v-79h2q62 97 205 97q100 0 157 -43q63 -48 63 -142v-357h-100v337q0 121 -155 121q-72 0 -120 -39q-52 -43 -52 -117v-302h-100z" />
    <glyph glyph-name="o" unicode="o" horiz-adv-x="684" 
d="M38 262q0 120 76 197q82 83 228 83t229 -83q75 -77 75 -197t-75 -197q-83 -83 -229 -83t-228 83q-76 77 -76 197zM540 262q0 81 -45 134q-52 62 -153 62t-153 -62q-45 -53 -45 -134t45 -134q52 -62 153 -62t153 62q45 53 45 134z" />
    <glyph glyph-name="p" unicode="p" horiz-adv-x="685" 
d="M61 -202v726h100v-73h2q28 40 85 63q54 22 114 22q123 0 202 -72q83 -77 83 -205t-83 -204q-79 -73 -202 -73q-61 0 -114 21q-56 23 -85 64h-2v-269h-100zM541 259q0 81 -45 134q-52 59 -147 59q-96 0 -148 -59q-46 -53 -46 -134q0 -89 53 -141t141 -52t140 52t52 141z
" />
    <glyph glyph-name="q" unicode="q" horiz-adv-x="685" 
d="M524 451v73h100v-726h-100v275h-2q-58 -91 -199 -91q-123 0 -202 73q-83 76 -83 204t83 205q79 72 202 72q60 0 115.5 -22.5t83.5 -62.5h2zM144 259q0 -89 52 -141t140 -52t141 52t53 141q0 81 -46 134q-52 59 -148 59q-95 0 -147 -59q-45 -53 -45 -134z" />
    <glyph glyph-name="r" unicode="r" horiz-adv-x="407" 
d="M61 0v524h100v-96h2q65 114 180 114q34 0 57 -6v-108q-42 10 -71 10q-77 0 -121 -43q-47 -46 -47 -129v-266h-100z" />
    <glyph glyph-name="s" unicode="s" horiz-adv-x="593" 
d="M31 165h100q0 -42 35 -70q43 -35 130 -35q160 0 160 82q0 30 -19 45q-23 17 -80 25l-165 22q-60 8 -99 43q-43 38 -43 96q0 79 64 124t175 45q240 0 256 -176h-100q-2 42 -41 69q-42 29 -116 29q-138 0 -138 -80q0 -28 18 -43t69 -22l142 -19q183 -24 183 -139
q0 -89 -69.5 -134t-193.5 -45q-255 0 -268 183z" />
    <glyph glyph-name="t" unicode="t" horiz-adv-x="370" 
d="M105 524v161h100v-161h150v-78h-150v-323q0 -57 81 -57q29 0 69 7v-84q-40 -7 -112 -7q-138 0 -138 124v340h-108v78h108z" />
    <glyph glyph-name="u" unicode="u" horiz-adv-x="649" 
d="M588 524v-524h-100v79h-2q-62 -97 -205 -97q-100 0 -157 43q-63 48 -63 142v357h100v-337q0 -121 155 -121q72 0 120 39q52 43 52 117v302h100z" />
    <glyph glyph-name="v" unicode="v" horiz-adv-x="574" 
d="M290 110l177 414h112l-236 -524h-110l-238 524h115z" />
    <glyph glyph-name="w" unicode="w" horiz-adv-x="907" 
d="M642 124l150 400h106l-207 -524h-109l-131 400h-2l-131 -400h-106l-203 524h111l145 -400h2l130 400h110l133 -400h2z" />
    <glyph glyph-name="x" unicode="x" horiz-adv-x="593" 
d="M297 344l152 180h133l-220 -253l236 -271h-140l-165 199l-166 -199h-132l233 271l-216 253h136z" />
    <glyph glyph-name="y" unicode="y" horiz-adv-x="574" 
d="M290 110l177 414h112l-274 -614q-36 -81 -75 -107q-34 -23 -107 -23q-24 0 -76 4v84q4 0 27 -2q17 -2 31 -2q46 0 65.5 14.5t43.5 65.5l23 48l-242 532h115z" />
    <glyph glyph-name="z" unicode="z" horiz-adv-x="593" 
d="M27 0v82l386 358h-367v84h505v-78l-391 -362h406v-84h-539z" />
    <glyph glyph-name="braceleft" unicode="{" horiz-adv-x="333" 
d="M47 229v66q33 2 58 35t25 83v170q0 60 35 97q32 34 73 34h72v-60h-48q-48 0 -48 -86v-171q0 -61 -35 -100q-25 -27 -54 -34v-2q29 -7 54 -34q35 -39 35 -100v-171q0 -86 48 -86h48v-60h-72q-41 0 -73 34q-35 37 -35 97v170q0 50 -26 85q-24 31 -57 33z" />
    <glyph glyph-name="bar" unicode="|" 
d="M69 -18v750h84v-750h-84z" />
    <glyph glyph-name="braceright" unicode="}" horiz-adv-x="333" 
d="M23 -190v60h48q48 0 48 86v171q0 61 35 100q25 27 54 34v2q-29 7 -54 34q-35 39 -35 100v171q0 86 -48 86h-48v60h72q41 0 73 -34q35 -37 35 -97v-170q0 -50 25 -83t58 -35v-66q-33 -2 -57 -33q-26 -35 -26 -85v-170q0 -60 -33.5 -95.5t-74.5 -35.5h-72z" />
    <glyph glyph-name="asciitilde" unicode="~" horiz-adv-x="600" 
d="M105 176v0l-36 63q45 86 125 86q41 0 115.5 -36t97.5 -36q44 0 88 77l36 -63q-45 -86 -125 -86q-41 0 -115.5 36t-97.5 36q-44 0 -88 -77z" />
    <glyph glyph-name="uni20AC" horiz-adv-x="668" 
d="M644 650q-56 30 -107.5 44t-115.5 14q-127 0 -214 -67t-116 -192h-54l-27 -60h72l-2 -56h-41l-27 -60h72q21 -140 108.5 -214.5t229.5 -74.5q33 0 60 3.5t52 11t49 20t51 31.5v106q-26 -19 -50 -34.5t-48.5 -26.5t-52 -17t-60.5 -6q-98 0 -156.5 53.5t-76.5 147.5h291
l27 60h-324l2 56h340l27 60h-355q24 83 79 126.5t143 43.5q51 0 93 -13t87 -35z" />
    <glyph glyph-name="uni20AC" unicode="&#x20ac;" horiz-adv-x="668" 
d="M644 650q-56 30 -107.5 44t-115.5 14q-127 0 -214 -67t-116 -192h-54l-27 -60h72l-2 -56h-41l-27 -60h72q21 -140 108.5 -214.5t229.5 -74.5q33 0 60 3.5t52 11t49 20t51 31.5v106q-26 -19 -50 -34.5t-48.5 -26.5t-52 -17t-60.5 -6q-98 0 -156.5 53.5t-76.5 147.5h291
l27 60h-324l2 56h340l27 60h-355q24 83 79 126.5t143 43.5q51 0 93 -13t87 -35z" />
    <glyph glyph-name="nonbreakingspace" unicode="&#xa0;" horiz-adv-x="334" 
 />
    <glyph glyph-name="exclamdown" unicode="&#xa1;" horiz-adv-x="334" 
d="M105 408v116h124v-116h-124zM111 -190v187l27 339h58l27 -339v-187h-112z" />
    <glyph glyph-name="cent" unicode="&#xa2;" horiz-adv-x="668" 
d="M311 68v389q-75 -9 -114 -64q-36 -50 -36 -131t36 -131q39 -54 114 -63zM311 -109v93q-130 8 -198 93q-58 73 -58 182q0 116 64 192q69 81 192 90v92h54v-92q100 -5 165.5 -54t80.5 -138h-106q-18 101 -140 108v-389q113 7 142 124h106q-53 -198 -248 -208v-93h-54z" />
    <glyph glyph-name="sterling" unicode="&#xa3;" horiz-adv-x="668" 
d="M42 311v60h63q-32 48 -32 119q0 88 67 150q77 70 213 70q130 0 201.5 -61.5t71.5 -169.5h-106q-3 66 -45 104q-45 43 -129 43q-77 0 -122 -41.5t-45 -109.5q0 -57 32 -104h211v-60h-188q18 -38 18 -75q0 -38 -23 -79t-62 -65l2 -2q47 18 95 18q36 0 107 -16t87 -16
q67 0 140 51l28 -88q-74 -55 -164 -55q-36 0 -113.5 20t-119.5 20q-96 0 -141 -40l-46 83q110 64 110 161q0 40 -24 83h-86z" />
    <glyph glyph-name="currency" unicode="&#xa4;" horiz-adv-x="668" 
d="M498 347q0 71 -48 120.5t-116 49.5t-116 -49.5t-48 -120.5t48 -120.5t116 -49.5t116 49.5t48 120.5zM82 142l55 55q-51 67 -51 150q0 86 51 150l-55 55l48 48l55 -55q66 50 149 50t149 -50l55 55l48 -48l-55 -56q51 -65 51 -149t-51 -149l55 -56l-48 -48l-56 56
q-63 -51 -148 -51q-84 0 -149 51l-55 -56z" />
    <glyph glyph-name="yen" unicode="&#xa5;" horiz-adv-x="668" 
d="M336 369l194 325h129l-224 -343h142v-60h-181l-9 -14v-73h190v-60h-190v-144h-106v144h-190v60h190v73l-9 14h-181v60h142l-222 343h135z" />
    <glyph glyph-name="brokenbar" unicode="&#xa6;" 
d="M69 -18v280h84v-280h-84zM69 452v280h84v-280h-84z" />
    <glyph glyph-name="section" unicode="&#xa7;" horiz-adv-x="668" 
d="M87 5h100q11 -111 152 -111q132 0 132 83q0 54 -90 90l-176 71q-97 39 -132 83q-30 37 -30 100q0 41 26 78q30 41 80 57q-49 35 -49 105q0 80 67 127q63 44 163 44t162 -46q68 -50 68 -139h-100q-6 101 -135 101q-125 0 -125 -80q0 -47 59 -71l235 -95q131 -53 131 -157
q0 -103 -105 -148q51 -34 51 -110q0 -77 -60 -126q-63 -51 -170 -51q-139 0 -205 68q-49 51 -49 127zM265 216l197 -80q69 20 69 86q0 61 -96 100l-232 94q-66 -23 -66 -90q0 -31 25 -54q28 -26 103 -56z" />
    <glyph glyph-name="dieresis" unicode="&#xa8;" 
d="M-59 610v104h100v-104h-100zM181 610v104h100v-104h-100z" />
    <glyph glyph-name="copyright" unicode="&#xa9;" horiz-adv-x="800" 
d="M25 357q0 164 113 272q109 103 262 103t262 -103q113 -108 113 -272t-113 -271q-109 -104 -262 -104t-262 104q-113 107 -113 271zM691 357q0 127 -84.5 212t-206.5 85q-123 0 -207 -85t-84 -212t84 -212t207 -85q122 0 206.5 85t84.5 212zM511 292h84
q-13 -74 -63 -116.5t-118 -42.5q-94 0 -152.5 64.5t-58.5 161.5q0 99 56.5 162.5t151.5 63.5q71 0 121 -41t60 -114h-81q-8 35 -35.5 56t-66.5 21q-58 0 -90 -41t-32 -107q0 -63 34.5 -105.5t91.5 -42.5q39 0 66 21.5t32 59.5z" />
    <glyph glyph-name="ordfeminine" unicode="&#xaa;" horiz-adv-x="421" 
d="M99 599h-66q11 111 171 111t160 -87v-162q0 -24 29 -24q12 0 18 2v-45q-11 -1 -29.5 -3t-21.5 -2q-52 0 -59 42q-19 -25 -60 -39t-85 -14q-138 0 -138 98q0 85 142 98l76 7q56 5 56 31q0 44 -90 44q-100 0 -103 -57zM292 520v28h-2q-7 -12 -66 -20l-64 -9
q-70 -10 -70 -43q0 -19 21 -31.5t53 -12.5q52 0 90 24.5t38 63.5z" />
    <glyph glyph-name="guillemotleft" unicode="&#xab;" horiz-adv-x="556" 
d="M299 226v104l180 133v-101l-119 -84l119 -84v-101zM77 226v104l180 133v-101l-119 -84l119 -84v-101z" />
    <glyph glyph-name="logicalnot" unicode="&#xac;" horiz-adv-x="600" 
d="M469 107v208h-422v84h506v-292h-84z" />
    <glyph glyph-name="uni00AD" unicode="&#xad;" horiz-adv-x="600" 
d="M47 211v84h506v-84h-506z" />
    <glyph glyph-name="registered" unicode="&#xae;" horiz-adv-x="800" 
d="M25 357q0 164 113 272q109 103 262 103t262 -103q113 -108 113 -272t-113 -271q-109 -104 -262 -104t-262 104q-113 107 -113 271zM691 357q0 127 -84.5 212t-206.5 85q-123 0 -207 -85t-84 -212t84 -212t207 -85q122 0 206.5 85t84.5 212zM501 143l-112 185h-67v-185
h-72v428h167q161 0 161 -123q0 -105 -116 -117l123 -188h-84zM322 388h77q50 0 71 10q30 14 30 55q0 58 -95 58h-83v-123z" />
    <glyph glyph-name="macron" unicode="&#xaf;" 
d="M-85 629v78h392v-78h-392z" />
    <glyph glyph-name="degree" unicode="&#xb0;" horiz-adv-x="400" 
d="M57 567q0 59 42 101t101 42t101 -42t42 -101t-42 -101t-101 -42t-101 42t-42 101zM289 567q0 33 -28 61t-61 28t-61 -28t-28 -61t28 -61t61 -28t61 28t28 61z" />
    <glyph glyph-name="plusminus" unicode="&#xb1;" horiz-adv-x="600" 
d="M258 354v152h84v-152h211v-84h-211v-152h-84v152h-211v84h211zM47 0v84h506v-84h-506z" />
    <glyph glyph-name="twosuperior" unicode="&#xb2;" horiz-adv-x="434" 
d="M116 560h-78q0 69 44 109.5t134 40.5q84 0 129 -38q42 -36 42 -95q0 -61 -50 -103q-27 -23 -104 -59q-68 -32 -88 -57h242v-72h-363q4 83 76 135q66 36 134.5 72.5t68.5 84.5q0 33 -25.5 49.5t-62.5 16.5q-47 0 -72 -24t-27 -60z" />
    <glyph glyph-name="threesuperior" unicode="&#xb3;" horiz-adv-x="434" 
d="M172 473v62q8 -1 43 -1q74 0 74 57q0 53 -84 53q-86 0 -91 -72h-78q7 138 171 138q82 0 127 -35q39 -32 39 -80q0 -71 -68 -85v-2q38 -6 63 -33t25 -60q0 -54 -30 -89q-44 -52 -147 -52q-192 0 -192 142h78q3 -45 31 -62q23 -14 77 -14q99 0 99 64q0 33 -27 51.5
t-72 18.5h-25q-12 -1 -13 -1z" />
    <glyph glyph-name="acute" unicode="&#xb4;" 
d="M51 601l86 140h125l-131 -140h-80z" />
    <glyph glyph-name="mu" unicode="&#xb5;" horiz-adv-x="649" 
d="M61 -202v726h100v-337q0 -121 155 -121q72 0 120 39q52 43 52 117v302h100v-524h-100v79h-2q-62 -97 -200 -97q-77 0 -125 41v-225h-100z" />
    <glyph glyph-name="paragraph" unicode="&#xb6;" horiz-adv-x="600" 
d="M438 -172v820h-111v-820h-84v516q-96 0 -155 51t-59 131q0 188 233 188h260v-886h-84z" />
    <glyph glyph-name="periodcentered" unicode="&#xb7;" horiz-adv-x="334" 
d="M93 308q0 31 21.5 52.5t52.5 21.5t52.5 -21.5t21.5 -52.5t-21.5 -52.5t-52.5 -21.5t-52.5 21.5t-21.5 52.5z" />
    <glyph glyph-name="periodcentered" unicode="&#x2219;" horiz-adv-x="334" 
d="M93 308q0 31 21.5 52.5t52.5 21.5t52.5 -21.5t21.5 -52.5t-21.5 -52.5t-52.5 -21.5t-52.5 21.5t-21.5 52.5z" />
    <glyph glyph-name="cedilla" unicode="&#xb8;" 
d="M76 -102l-18 19l50 83h51l-34 -57q44 4 34 4q38 0 63.5 -16.5t25.5 -48.5q0 -43 -39 -66q-32 -19 -81 -19q-34 0 -106 14l13 47q37 -13 75 -13q54 0 54 31q0 29 -42 29q-20 0 -46 -7z" />
    <glyph glyph-name="onesuperior" unicode="&#xb9;" horiz-adv-x="289" 
d="M113 286v288h-121v60q61 0 90 12q41 17 48 64h67v-424h-84z" />
    <glyph glyph-name="ordmasculine" unicode="&#xba;" horiz-adv-x="445" 
d="M25 544q0 71 49 117q53 49 148 49t149 -49q49 -45 49 -117q0 -71 -49 -116q-54 -50 -149 -50q-94 0 -148 50q-49 45 -49 116zM342 543q0 41 -28 71q-33 36 -92 36t-91 -36q-28 -30 -28 -71q0 -40 28 -70q33 -35 91 -35q59 0 92 35q28 30 28 70z" />
    <glyph glyph-name="guillemotright" unicode="&#xbb;" horiz-adv-x="556" 
d="M196 278l-119 84v101l180 -133v-104l-180 -133v101zM418 278l-119 84v101l180 -133v-104l-180 -133v101z" />
    <glyph glyph-name="onequarter" unicode="&#xbc;" horiz-adv-x="1000" 
d="M803 0v93h-232v63l244 268h66v-265h72v-66h-72v-93h-78zM803 159v163h-2l-143 -163h145zM145 286v288h-121v60q61 0 90 12q41 17 48 64h67v-424h-84zM197 -16l397 726h84l-397 -726h-84z" />
    <glyph glyph-name="onehalf" unicode="&#xbd;" horiz-adv-x="1000" 
d="M145 286v288h-121v60q61 0 90 12q41 17 48 64h67v-424h-84zM199 -16l397 726h84l-397 -726h-84zM682 274h-78q0 69 44 109.5t134 40.5q84 0 129 -38q42 -36 42 -95q0 -61 -50 -103q-27 -23 -104 -59q-68 -32 -88 -57h242v-72h-363q4 83 76 135q66 36 134.5 72.5
t68.5 84.5q0 33 -25.5 49.5t-62.5 16.5q-47 0 -72 -24t-27 -60z" />
    <glyph glyph-name="threequarters" unicode="&#xbe;" horiz-adv-x="1000" 
d="M803 0v93h-232v63l244 268h66v-265h72v-66h-72v-93h-78zM803 159v163h-2l-143 -163h145zM172 473v62q8 -1 43 -1q74 0 74 57q0 53 -84 53q-86 0 -91 -72h-78q7 138 171 138q82 0 127 -35q39 -32 39 -80q0 -71 -68 -85v-2q38 -6 63 -33t25 -60q0 -54 -30 -89
q-44 -52 -147 -52q-192 0 -192 142h78q3 -45 31 -62q23 -14 77 -14q99 0 99 64q0 33 -27 51.5t-72 18.5h-25q-12 -1 -13 -1zM265 -16l397 726h84l-397 -726h-84z" />
    <glyph glyph-name="questiondown" unicode="&#xbf;" horiz-adv-x="668" 
d="M510 32h100q-6 -131 -98 -193q-70 -47 -175 -47q-108 0 -177 54q-75 59 -75 162q0 78 60 137l110 88q60 49 60 103h94q0 -84 -57 -140l-104 -82q-57 -47 -57 -107q0 -66 44 -100q40 -31 106 -31q74 0 120 41.5t49 114.5zM300 408v116h124v-116h-124z" />
    <glyph glyph-name="Agrave" unicode="&#xc0;" horiz-adv-x="759" 
d="M512 300l-137 316l-134 -316h271zM642 0l-91 208h-350l-91 -208h-114l323 714h121l323 -714h-121zM360 761l-131 140h125l86 -140h-80z" />
    <glyph glyph-name="Aacute" unicode="&#xc1;" horiz-adv-x="759" 
d="M512 300l-137 316l-134 -316h271zM642 0l-91 208h-350l-91 -208h-114l323 714h121l323 -714h-121zM320 761l86 140h125l-131 -140h-80z" />
    <glyph glyph-name="Acircumflex" unicode="&#xc2;" horiz-adv-x="759" 
d="M512 300l-137 316l-134 -316h271zM642 0l-91 208h-350l-91 -208h-114l323 714h121l323 -714h-121zM466 761l-86 88l-86 -88h-97l130 140h106l130 -140h-97z" />
    <glyph glyph-name="Atilde" unicode="&#xc3;" horiz-adv-x="759" 
d="M512 300l-137 316l-134 -316h271zM642 0l-91 208h-350l-91 -208h-114l323 714h121l323 -714h-121zM241 769v0h-59q5 54 35 88.5t79 34.5q42 0 98 -24q49 -21 79 -21q37 0 46 45h59q-5 -54 -34 -87q-31 -36 -80 -36q-42 0 -98 24q-49 21 -79 21q-37 0 -46 -45z" />
    <glyph glyph-name="Adieresis" unicode="&#xc4;" horiz-adv-x="759" 
d="M512 300l-137 316l-134 -316h271zM642 0l-91 208h-350l-91 -208h-114l323 714h121l323 -714h-121zM210 770v104h100v-104h-100zM450 770v104h100v-104h-100z" />
    <glyph glyph-name="Aring" unicode="&#xc5;" horiz-adv-x="759" 
d="M512 300l-137 316l-134 -316h271zM642 0l-91 208h-350l-91 -208h-114l323 714h121l323 -714h-121zM263 846q0 49 34 83t83 34t83 -34t34 -83t-34 -83t-83 -34t-83 34t-34 83zM443 846q0 25 -19 44t-44 19t-44 -19t-19 -44t19 -44t44 -19t44 19t19 44z" />
    <glyph glyph-name="AE" unicode="&#xc6;" horiz-adv-x="1111" 
d="M526 300v322h-50l-202 -322h252zM526 0v208h-309l-130 -208h-120l450 714h646v-92h-437v-207h423v-92h-423v-231h442v-92h-542z" />
    <glyph glyph-name="Ccedilla" unicode="&#xc7;" horiz-adv-x="815" 
d="M664 273h106q-12 -115 -98 -196q-90 -84 -226 -94l-24 -40q44 4 34 4q38 0 63.5 -16.5t25.5 -48.5q0 -43 -39 -66q-32 -19 -81 -19q-34 0 -106 14l13 47q37 -13 75 -13q54 0 54 31q0 29 -42 29q-20 0 -46 -7l-18 19l40 66q-149 5 -244 89q-113 100 -113 287q0 163 96 265
q101 108 278 108q131 0 226 -57q120 -73 132 -218h-106q-13 80 -72 129q-65 54 -172 54q-130 0 -201 -73q-75 -76 -75 -219q0 -114 61 -188q72 -86 209 -86q207 0 250 199z" />
    <glyph glyph-name="Egrave" unicode="&#xc8;" horiz-adv-x="704" 
d="M77 0v714h574v-92h-468v-207h454v-92h-454v-231h478v-92h-584zM352 761l-131 140h125l86 -140h-80z" />
    <glyph glyph-name="Eacute" unicode="&#xc9;" horiz-adv-x="704" 
d="M77 0v714h574v-92h-468v-207h454v-92h-454v-231h478v-92h-584zM312 761l86 140h125l-131 -140h-80z" />
    <glyph glyph-name="Ecircumflex" unicode="&#xca;" horiz-adv-x="704" 
d="M77 0v714h574v-92h-468v-207h454v-92h-454v-231h478v-92h-584zM458 761l-86 88l-86 -88h-97l130 140h106l130 -140h-97z" />
    <glyph glyph-name="Edieresis" unicode="&#xcb;" horiz-adv-x="704" 
d="M77 0v714h574v-92h-468v-207h454v-92h-454v-231h478v-92h-584zM202 770v104h100v-104h-100zM442 770v104h100v-104h-100z" />
    <glyph glyph-name="Igrave" unicode="&#xcc;" horiz-adv-x="278" 
d="M86 0v714h106v-714h-106zM119 761l-131 140h125l86 -140h-80z" />
    <glyph glyph-name="Iacute" unicode="&#xcd;" horiz-adv-x="278" 
d="M86 0v714h106v-714h-106zM79 761l86 140h125l-131 -140h-80z" />
    <glyph glyph-name="Icircumflex" unicode="&#xce;" horiz-adv-x="278" 
d="M86 0v714h106v-714h-106zM225 761l-86 88l-86 -88h-97l130 140h106l130 -140h-97z" />
    <glyph glyph-name="Idieresis" unicode="&#xcf;" horiz-adv-x="278" 
d="M86 0v714h106v-714h-106zM-31 770v104h100v-104h-100zM209 770v104h100v-104h-100z" />
    <glyph glyph-name="Eth" unicode="&#xd0;" horiz-adv-x="796" 
d="M77 419v295h362q156 0 236 -96q76 -90 76 -251q0 -162 -71 -258q-80 -109 -235 -109h-368v347h-70v72h70zM183 419h230v-72h-230v-255h257q205 0 205 273q0 257 -225 257h-237v-203z" />
    <glyph glyph-name="Ntilde" unicode="&#xd1;" horiz-adv-x="852" 
d="M648 0l-459 568h-2v-568h-106v714h123l459 -568h2v568h106v-714h-123zM287 769v0h-59q5 54 35 88.5t79 34.5q42 0 98 -24q49 -21 79 -21q37 0 46 45h59q-5 -54 -34 -87q-31 -36 -80 -36q-42 0 -98 24q-49 21 -79 21q-37 0 -46 -45z" />
    <glyph glyph-name="Ograve" unicode="&#xd2;" horiz-adv-x="870" 
d="M38 357q0 154 91 256q106 119 306 119t306 -119q91 -102 91 -256t-91 -256q-106 -119 -306 -119t-306 119q-91 102 -91 256zM726 357q0 136 -84 212q-79 71 -207 71t-207 -71q-84 -76 -84 -212t84 -212q79 -71 207 -71t207 71q84 76 84 212zM415 761l-131 140h125
l86 -140h-80z" />
    <glyph glyph-name="Oacute" unicode="&#xd3;" horiz-adv-x="870" 
d="M38 357q0 154 91 256q106 119 306 119t306 -119q91 -102 91 -256t-91 -256q-106 -119 -306 -119t-306 119q-91 102 -91 256zM726 357q0 136 -84 212q-79 71 -207 71t-207 -71q-84 -76 -84 -212t84 -212q79 -71 207 -71t207 71q84 76 84 212zM375 761l86 140h125
l-131 -140h-80z" />
    <glyph glyph-name="Ocircumflex" unicode="&#xd4;" horiz-adv-x="870" 
d="M38 357q0 154 91 256q106 119 306 119t306 -119q91 -102 91 -256t-91 -256q-106 -119 -306 -119t-306 119q-91 102 -91 256zM726 357q0 136 -84 212q-79 71 -207 71t-207 -71q-84 -76 -84 -212t84 -212q79 -71 207 -71t207 71q84 76 84 212zM521 761l-86 88l-86 -88h-97
l130 140h106l130 -140h-97z" />
    <glyph glyph-name="Otilde" unicode="&#xd5;" horiz-adv-x="870" 
d="M38 357q0 154 91 256q106 119 306 119t306 -119q91 -102 91 -256t-91 -256q-106 -119 -306 -119t-306 119q-91 102 -91 256zM726 357q0 136 -84 212q-79 71 -207 71t-207 -71q-84 -76 -84 -212t84 -212q79 -71 207 -71t207 71q84 76 84 212zM296 769v0h-59q5 54 35 88.5
t79 34.5q42 0 98 -24q49 -21 79 -21q37 0 46 45h59q-5 -54 -34 -87q-31 -36 -80 -36q-42 0 -98 24q-49 21 -79 21q-37 0 -46 -45z" />
    <glyph glyph-name="Odieresis" unicode="&#xd6;" horiz-adv-x="870" 
d="M38 357q0 154 91 256q106 119 306 119t306 -119q91 -102 91 -256t-91 -256q-106 -119 -306 -119t-306 119q-91 102 -91 256zM726 357q0 136 -84 212q-79 71 -207 71t-207 -71q-84 -76 -84 -212t84 -212q79 -71 207 -71t207 71q84 76 84 212zM265 770v104h100v-104h-100z
M505 770v104h100v-104h-100z" />
    <glyph glyph-name="multiply" unicode="&#xd7;" horiz-adv-x="600" 
d="M244 253l-174 174l56 56l173 -174l175 174l56 -56l-175 -174l175 -174l-56 -56l-175 175l-173 -175l-56 56z" />
    <glyph glyph-name="Oslash" unicode="&#xd8;" horiz-adv-x="870" 
d="M668 542l-429 -406q77 -62 196 -62q128 0 207 71q84 76 84 212q0 113 -58 185zM202 173l429 405q-77 62 -196 62q-128 0 -207 -71q-84 -76 -84 -212q0 -111 58 -184zM71 -22l-35 38l92 87q-90 100 -90 254t91 256q106 119 306 119q168 0 270 -84l93 88l36 -37l-92 -87
q90 -101 90 -255t-91 -256q-106 -119 -306 -119q-169 0 -270 85z" />
    <glyph glyph-name="Ugrave" unicode="&#xd9;" horiz-adv-x="796" 
d="M75 270v444h106v-457q0 -183 217 -183t217 183v457h106v-444q0 -288 -323 -288t-323 288zM378 761l-131 140h125l86 -140h-80z" />
    <glyph glyph-name="Uacute" unicode="&#xda;" horiz-adv-x="796" 
d="M75 270v444h106v-457q0 -183 217 -183t217 183v457h106v-444q0 -288 -323 -288t-323 288zM338 761l86 140h125l-131 -140h-80z" />
    <glyph glyph-name="Ucircumflex" unicode="&#xdb;" horiz-adv-x="796" 
d="M75 270v444h106v-457q0 -183 217 -183t217 183v457h106v-444q0 -288 -323 -288t-323 288zM484 761l-86 88l-86 -88h-97l130 140h106l130 -140h-97z" />
    <glyph glyph-name="Udieresis" unicode="&#xdc;" horiz-adv-x="796" 
d="M75 270v444h106v-457q0 -183 217 -183t217 183v457h106v-444q0 -288 -323 -288t-323 288zM228 770v104h100v-104h-100zM468 770v104h100v-104h-100z" />
    <glyph glyph-name="Yacute" unicode="&#xdd;" horiz-adv-x="722" 
d="M362 389l237 325h129l-315 -415v-299h-106v294l-313 420h135zM301 761l86 140h125l-131 -140h-80z" />
    <glyph glyph-name="Thorn" unicode="&#xde;" horiz-adv-x="722" 
d="M81 0v714h106v-121h262q239 0 239 -205q0 -102 -60.5 -162.5t-171.5 -60.5h-269v-165h-106zM187 257h255q140 0 140 129q0 53 -31 84t-90 31h-274v-244z" />
    <glyph glyph-name="germandbls" unicode="&#xdf;" horiz-adv-x="648" 
d="M278 351v84q13 -2 55 -2q136 0 136 107q0 52 -40 80t-104 28q-154 0 -154 -128v-520h-100v529q0 103 74 156q66 47 178 47q123 0 191 -56q61 -51 61 -132q0 -106 -99 -141v-2q134 -36 134 -192q0 -96 -66 -159q-71 -68 -193 -68q-26 0 -78 5v84q38 -5 61 -5q84 0 129 43
q41 39 41 104q0 63 -42 101q-35 31 -84 33z" />
    <glyph glyph-name="agrave" unicode="&#xe0;" horiz-adv-x="648" 
d="M154 360h-94q18 182 260 182q99 0 161 -29q80 -37 80 -120v-282q0 -45 45 -45q15 0 35 4v-70q-36 -6 -78 -6q-81 0 -90 73q-29 -39 -95 -63q-61 -22 -128 -22q-117 0 -172 54q-41 40 -41 104q0 74 50.5 112t174.5 51l114 12q47 5 67 16q24 14 24 47q0 86 -151 86
q-158 0 -162 -104zM467 207v67q-19 -21 -98 -31l-113 -14q-61 -8 -90 -27t-29 -59q0 -37 33.5 -60t88.5 -23q87 0 147.5 41.5t60.5 105.5zM304 592l-131 140h125l86 -140h-80z" />
    <glyph glyph-name="aacute" unicode="&#xe1;" horiz-adv-x="648" 
d="M154 360h-94q18 182 260 182q99 0 161 -29q80 -37 80 -120v-282q0 -45 45 -45q15 0 35 4v-70q-36 -6 -78 -6q-81 0 -90 73q-29 -39 -95 -63q-61 -22 -128 -22q-117 0 -172 54q-41 40 -41 104q0 74 50.5 112t174.5 51l114 12q47 5 67 16q24 14 24 47q0 86 -151 86
q-158 0 -162 -104zM467 207v67q-19 -21 -98 -31l-113 -14q-61 -8 -90 -27t-29 -59q0 -37 33.5 -60t88.5 -23q87 0 147.5 41.5t60.5 105.5zM264 592l86 140h125l-131 -140h-80z" />
    <glyph glyph-name="acircumflex" unicode="&#xe2;" horiz-adv-x="648" 
d="M154 360h-94q18 182 260 182q99 0 161 -29q80 -37 80 -120v-282q0 -45 45 -45q15 0 35 4v-70q-36 -6 -78 -6q-81 0 -90 73q-29 -39 -95 -63q-61 -22 -128 -22q-117 0 -172 54q-41 40 -41 104q0 74 50.5 112t174.5 51l114 12q47 5 67 16q24 14 24 47q0 86 -151 86
q-158 0 -162 -104zM467 207v67q-19 -21 -98 -31l-113 -14q-61 -8 -90 -27t-29 -59q0 -37 33.5 -60t88.5 -23q87 0 147.5 41.5t60.5 105.5zM410 592l-86 88l-86 -88h-97l130 140h106l130 -140h-97z" />
    <glyph glyph-name="atilde" unicode="&#xe3;" horiz-adv-x="648" 
d="M154 360h-94q18 182 260 182q99 0 161 -29q80 -37 80 -120v-282q0 -45 45 -45q15 0 35 4v-70q-36 -6 -78 -6q-81 0 -90 73q-29 -39 -95 -63q-61 -22 -128 -22q-117 0 -172 54q-41 40 -41 104q0 74 50.5 112t174.5 51l114 12q47 5 67 16q24 14 24 47q0 86 -151 86
q-158 0 -162 -104zM467 207v67q-19 -21 -98 -31l-113 -14q-61 -8 -90 -27t-29 -59q0 -37 33.5 -60t88.5 -23q87 0 147.5 41.5t60.5 105.5zM185 600v0h-59q5 54 35 88.5t79 34.5q42 0 98 -24q49 -21 79 -21q37 0 46 45h59q-5 -54 -34 -87q-31 -36 -80 -36q-42 0 -98 24
q-49 21 -79 21q-37 0 -46 -45z" />
    <glyph glyph-name="adieresis" unicode="&#xe4;" horiz-adv-x="648" 
d="M154 360h-94q18 182 260 182q99 0 161 -29q80 -37 80 -120v-282q0 -45 45 -45q15 0 35 4v-70q-36 -6 -78 -6q-81 0 -90 73q-29 -39 -95 -63q-61 -22 -128 -22q-117 0 -172 54q-41 40 -41 104q0 74 50.5 112t174.5 51l114 12q47 5 67 16q24 14 24 47q0 86 -151 86
q-158 0 -162 -104zM467 207v67q-19 -21 -98 -31l-113 -14q-61 -8 -90 -27t-29 -59q0 -37 33.5 -60t88.5 -23q87 0 147.5 41.5t60.5 105.5zM154 601v104h100v-104h-100zM394 601v104h100v-104h-100z" />
    <glyph glyph-name="aring" unicode="&#xe5;" horiz-adv-x="648" 
d="M154 360h-94q18 182 260 182q99 0 161 -29q80 -37 80 -120v-282q0 -45 45 -45q15 0 35 4v-70q-36 -6 -78 -6q-81 0 -90 73q-29 -39 -95 -63q-61 -22 -128 -22q-117 0 -172 54q-41 40 -41 104q0 74 50.5 112t174.5 51l114 12q47 5 67 16q24 14 24 47q0 86 -151 86
q-158 0 -162 -104zM467 207v67q-19 -21 -98 -31l-113 -14q-61 -8 -90 -27t-29 -59q0 -37 33.5 -60t88.5 -23q87 0 147.5 41.5t60.5 105.5zM207 686q0 49 34 83t83 34t83 -34t34 -83t-34 -83t-83 -34t-83 34t-34 83zM387 686q0 25 -19 44t-44 19t-44 -19t-19 -44t19 -44
t44 -19t44 19t19 44z" />
    <glyph glyph-name="ae" unicode="&#xe6;" horiz-adv-x="1074" 
d="M1033 232h-472q20 -166 184 -166q125 0 168 93h106q-35 -89 -115 -136q-70 -41 -155 -41q-174 0 -246 114q-26 -42 -78 -72q-73 -42 -175 -42q-117 0 -172 54q-41 40 -41 104q0 75 49.5 113t169.5 50l120 12q47 5 67 16q24 14 24 47q0 86 -151 86q-158 0 -162 -104h-94
q18 182 260 182q156 0 223 -88q72 88 207 88q132 0 209 -84q74 -80 74 -213v-13zM561 310h366q-11 70 -61 109t-122 39q-70 0 -120 -38q-52 -41 -63 -110zM467 207v47q-52 -14 -98 -17l-99 -7q-133 -9 -133 -87q0 -37 33.5 -60t88.5 -23q87 0 147.5 41.5t60.5 105.5z" />
    <glyph glyph-name="ccedilla" unicode="&#xe7;" horiz-adv-x="630" 
d="M490 192h106q-53 -197 -243 -208l-24 -41q44 4 34 4q38 0 63.5 -16.5t25.5 -48.5q0 -43 -39 -66q-32 -19 -81 -19q-34 0 -106 14l13 47q37 -13 75 -13q54 0 54 31q0 29 -42 29q-20 0 -46 -7l-18 19l40 66q-134 6 -204 92q-60 73 -60 184q0 122 71 200q77 83 213 83
q109 0 181 -48q76 -51 91 -145h-106q-19 109 -159 109q-92 0 -140 -56q-45 -51 -45 -140t45 -140q48 -56 140 -56q129 0 161 126z" />
    <glyph glyph-name="egrave" unicode="&#xe8;" horiz-adv-x="667" 
d="M626 232h-482q6 -77 66 -123q55 -43 127 -43q126 0 169 93h106q-35 -89 -115 -136q-70 -41 -155 -41q-146 0 -228 83q-76 77 -76 197t76 197q82 83 228 83q117 0 194 -67q90 -79 90 -230v-13zM147 310h373q-11 70 -61 109t-122 39t-124 -39q-55 -41 -66 -109zM314 592
l-131 140h125l86 -140h-80z" />
    <glyph glyph-name="eacute" unicode="&#xe9;" horiz-adv-x="667" 
d="M626 232h-482q6 -77 66 -123q55 -43 127 -43q126 0 169 93h106q-35 -89 -115 -136q-70 -41 -155 -41q-146 0 -228 83q-76 77 -76 197t76 197q82 83 228 83q117 0 194 -67q90 -79 90 -230v-13zM147 310h373q-11 70 -61 109t-122 39t-124 -39q-55 -41 -66 -109zM274 592
l86 140h125l-131 -140h-80z" />
    <glyph glyph-name="ecircumflex" unicode="&#xea;" horiz-adv-x="667" 
d="M626 232h-482q6 -77 66 -123q55 -43 127 -43q126 0 169 93h106q-35 -89 -115 -136q-70 -41 -155 -41q-146 0 -228 83q-76 77 -76 197t76 197q82 83 228 83q117 0 194 -67q90 -79 90 -230v-13zM147 310h373q-11 70 -61 109t-122 39t-124 -39q-55 -41 -66 -109zM420 592
l-86 88l-86 -88h-97l130 140h106l130 -140h-97z" />
    <glyph glyph-name="edieresis" unicode="&#xeb;" horiz-adv-x="667" 
d="M626 232h-482q6 -77 66 -123q55 -43 127 -43q126 0 169 93h106q-35 -89 -115 -136q-70 -41 -155 -41q-146 0 -228 83q-76 77 -76 197t76 197q82 83 228 83q117 0 194 -67q90 -79 90 -230v-13zM147 310h373q-11 70 -61 109t-122 39t-124 -39q-55 -41 -66 -109zM164 601
v104h100v-104h-100zM404 601v104h100v-104h-100z" />
    <glyph glyph-name="igrave" unicode="&#xec;" 
d="M61 0v524h100v-524h-100zM90 592l-131 140h125l86 -140h-80z" />
    <glyph glyph-name="iacute" unicode="&#xed;" 
d="M61 0v524h100v-524h-100zM50 592l86 140h125l-131 -140h-80z" />
    <glyph glyph-name="icircumflex" unicode="&#xee;" 
d="M61 0v524h100v-524h-100zM196 592l-86 88l-86 -88h-97l130 140h106l130 -140h-97z" />
    <glyph glyph-name="idieresis" unicode="&#xef;" 
d="M61 0v524h100v-524h-100zM-60 601v104h100v-104h-100zM180 601v104h100v-104h-100z" />
    <glyph glyph-name="eth" unicode="&#xf0;" horiz-adv-x="684" 
d="M540 262q0 81 -45 134q-52 62 -153 62t-153 -62q-45 -53 -45 -134t45 -134q52 -62 153 -62t153 62q45 53 45 134zM141 606l112 50q-49 22 -101 38l69 56q66 -22 125 -53l119 53l41 -36l-108 -48q119 -78 183.5 -181t64.5 -215q0 -129 -75 -205q-81 -83 -229 -83
q-146 0 -228 83q-76 77 -76 197q0 118 84.5 199t206.5 81q83 0 134 -47l2 2q-64 77 -155 130l-129 -57z" />
    <glyph glyph-name="ntilde" unicode="&#xf1;" horiz-adv-x="649" 
d="M61 0v524h100v-79h2q62 97 205 97q100 0 157 -43q63 -48 63 -142v-357h-100v337q0 121 -155 121q-72 0 -120 -39q-52 -43 -52 -117v-302h-100zM186 600v0h-59q5 54 35 88.5t79 34.5q42 0 98 -24q49 -21 79 -21q37 0 46 45h59q-5 -54 -34 -87q-31 -36 -80 -36
q-42 0 -98 24q-49 21 -79 21q-37 0 -46 -45z" />
    <glyph glyph-name="ograve" unicode="&#xf2;" horiz-adv-x="684" 
d="M38 262q0 120 76 197q82 83 228 83t229 -83q75 -77 75 -197t-75 -197q-83 -83 -229 -83t-228 83q-76 77 -76 197zM540 262q0 81 -45 134q-52 62 -153 62t-153 -62q-45 -53 -45 -134t45 -134q52 -62 153 -62t153 62q45 53 45 134zM322 592l-131 140h125l86 -140h-80z" />
    <glyph glyph-name="oacute" unicode="&#xf3;" horiz-adv-x="684" 
d="M38 262q0 120 76 197q82 83 228 83t229 -83q75 -77 75 -197t-75 -197q-83 -83 -229 -83t-228 83q-76 77 -76 197zM540 262q0 81 -45 134q-52 62 -153 62t-153 -62q-45 -53 -45 -134t45 -134q52 -62 153 -62t153 62q45 53 45 134zM282 592l86 140h125l-131 -140h-80z" />
    <glyph glyph-name="ocircumflex" unicode="&#xf4;" horiz-adv-x="684" 
d="M38 262q0 120 76 197q82 83 228 83t229 -83q75 -77 75 -197t-75 -197q-83 -83 -229 -83t-228 83q-76 77 -76 197zM540 262q0 81 -45 134q-52 62 -153 62t-153 -62q-45 -53 -45 -134t45 -134q52 -62 153 -62t153 62q45 53 45 134zM428 592l-86 88l-86 -88h-97l130 140h106
l130 -140h-97z" />
    <glyph glyph-name="otilde" unicode="&#xf5;" horiz-adv-x="684" 
d="M38 262q0 120 76 197q82 83 228 83t229 -83q75 -77 75 -197t-75 -197q-83 -83 -229 -83t-228 83q-76 77 -76 197zM540 262q0 81 -45 134q-52 62 -153 62t-153 -62q-45 -53 -45 -134t45 -134q52 -62 153 -62t153 62q45 53 45 134zM203 600v0h-59q5 54 35 88.5t79 34.5
q42 0 98 -24q49 -21 79 -21q37 0 46 45h59q-5 -54 -34 -87q-31 -36 -80 -36q-42 0 -98 24q-49 21 -79 21q-37 0 -46 -45z" />
    <glyph glyph-name="odieresis" unicode="&#xf6;" horiz-adv-x="684" 
d="M38 262q0 120 76 197q82 83 228 83t229 -83q75 -77 75 -197t-75 -197q-83 -83 -229 -83t-228 83q-76 77 -76 197zM540 262q0 81 -45 134q-52 62 -153 62t-153 -62q-45 -53 -45 -134t45 -134q52 -62 153 -62t153 62q45 53 45 134zM172 601v104h100v-104h-100zM412 601v104
h100v-104h-100z" />
    <glyph glyph-name="divide" unicode="&#xf7;" horiz-adv-x="600" 
d="M230 460q0 29 21 49.5t49 20.5q29 0 49.5 -20.5t20.5 -49.5q0 -28 -20.5 -49t-49.5 -21q-28 0 -49 21t-21 49zM230 46q0 29 21 49.5t49 20.5q29 0 49.5 -20.5t20.5 -49.5q0 -28 -20.5 -49t-49.5 -21q-28 0 -49 21t-21 49zM47 211v84h506v-84h-506z" />
    <glyph glyph-name="oslash" unicode="&#xf8;" horiz-adv-x="684" 
d="M504 384l-295 -275q50 -43 133 -43q101 0 153 62q45 53 45 134q0 72 -36 122zM180 140l295 275q-51 43 -133 43q-101 0 -153 -62q-45 -53 -45 -134q0 -73 36 -122zM545 480l72 67l29 -31l-69 -64q69 -75 69 -190q0 -120 -75 -197q-83 -83 -229 -83q-127 0 -203 62
l-72 -67l-29 31l70 65q-70 74 -70 189q0 120 76 197q82 83 228 83q124 0 203 -62z" />
    <glyph glyph-name="ugrave" unicode="&#xf9;" horiz-adv-x="649" 
d="M588 524v-524h-100v79h-2q-62 -97 -205 -97q-100 0 -157 43q-63 48 -63 142v357h100v-337q0 -121 155 -121q72 0 120 39q52 43 52 117v302h100zM305 592l-131 140h125l86 -140h-80z" />
    <glyph glyph-name="uacute" unicode="&#xfa;" horiz-adv-x="649" 
d="M588 524v-524h-100v79h-2q-62 -97 -205 -97q-100 0 -157 43q-63 48 -63 142v357h100v-337q0 -121 155 -121q72 0 120 39q52 43 52 117v302h100zM265 592l86 140h125l-131 -140h-80z" />
    <glyph glyph-name="ucircumflex" unicode="&#xfb;" horiz-adv-x="649" 
d="M588 524v-524h-100v79h-2q-62 -97 -205 -97q-100 0 -157 43q-63 48 -63 142v357h100v-337q0 -121 155 -121q72 0 120 39q52 43 52 117v302h100zM411 592l-86 88l-86 -88h-97l130 140h106l130 -140h-97z" />
    <glyph glyph-name="udieresis" unicode="&#xfc;" horiz-adv-x="649" 
d="M588 524v-524h-100v79h-2q-62 -97 -205 -97q-100 0 -157 43q-63 48 -63 142v357h100v-337q0 -121 155 -121q72 0 120 39q52 43 52 117v302h100zM155 601v104h100v-104h-100zM395 601v104h100v-104h-100z" />
    <glyph glyph-name="yacute" unicode="&#xfd;" horiz-adv-x="574" 
d="M290 110l177 414h112l-274 -614q-36 -81 -75 -107q-34 -23 -107 -23q-24 0 -76 4v84q4 0 27 -2q17 -2 31 -2q46 0 65.5 14.5t43.5 65.5l23 48l-242 532h115zM227 592l86 140h125l-131 -140h-80z" />
    <glyph glyph-name="thorn" unicode="&#xfe;" horiz-adv-x="685" 
d="M61 -202v922h100v-269h2q28 40 85 63q54 22 114 22q123 0 202 -72q83 -77 83 -205t-83 -204q-79 -73 -202 -73q-61 0 -114 21q-56 23 -85 64h-2v-269h-100zM541 259q0 81 -45 134q-52 59 -147 59q-96 0 -148 -59q-46 -53 -46 -134q0 -89 53 -141t141 -52t140 52t52 141z
" />
    <glyph glyph-name="ydieresis" unicode="&#xff;" horiz-adv-x="574" 
d="M290 110l177 414h112l-274 -614q-36 -81 -75 -107q-34 -23 -107 -23q-24 0 -76 4v84q4 0 27 -2q17 -2 31 -2q46 0 65.5 14.5t43.5 65.5l23 48l-242 532h115zM117 601v104h100v-104h-100zM357 601v104h100v-104h-100z" />
    <glyph glyph-name="OE" unicode="&#x152;" horiz-adv-x="1167" 
d="M601 225v278q0 43 -52 86q-62 51 -151 51q-96 0 -160 -57q-81 -74 -81 -226t81 -225q64 -58 160 -58q82 0 146 54q57 48 57 97zM604 0v81h-2q-77 -99 -217 -99q-159 0 -252 120q-82 105 -82 255t82 255q93 120 252 120q144 0 219 -88v70h512v-92h-415v-207h401v-92h-401
v-231h423v-92h-520z" />
    <glyph glyph-name="oe" unicode="&#x153;" horiz-adv-x="1111" 
d="M1081 232h-466q6 -87 62 -130q46 -36 115 -36q126 0 169 93h106q-35 -89 -115 -136q-70 -41 -155 -41q-158 0 -234 104q-79 -104 -230 -104q-148 0 -225 83q-70 74 -70 197q0 128 86 206q82 74 209 74q155 0 237 -108q84 108 228 108q132 0 209 -84q74 -80 74 -213v-13z
M521 267q0 88 -56 141q-52 50 -131 50q-90 0 -140 -55t-50 -142q0 -86 51.5 -140.5t134.5 -54.5q93 0 144 60q47 55 47 141zM615 310h360q-11 70 -61 109t-122 39q-70 0 -118 -38.5t-59 -109.5z" />
    <glyph glyph-name="Scaron" unicode="&#x160;" horiz-adv-x="667" 
d="M16 235h106q1 -88 75 -128q59 -33 155 -33q87 0 140 32t53 89q0 84 -133 106l-162 27q-212 35 -212 187q0 99 75.5 158t210.5 59q124 0 202 -47q95 -58 102 -177h-106q-21 132 -212 132q-67 0 -112 -27q-54 -32 -54 -90q0 -74 117 -94l175 -30q215 -37 215 -183
q0 -125 -99 -185q-81 -49 -208 -49q-140 0 -224 53q-104 64 -104 200zM354 813l86 88h97l-130 -140h-106l-130 140h97z" />
    <glyph glyph-name="scaron" unicode="&#x161;" horiz-adv-x="593" 
d="M31 165h100q0 -42 35 -70q43 -35 130 -35q160 0 160 82q0 30 -19 45q-23 17 -80 25l-165 22q-60 8 -99 43q-43 38 -43 96q0 79 64 124t175 45q240 0 256 -176h-100q-2 42 -41 69q-42 29 -116 29q-138 0 -138 -80q0 -28 18 -43t69 -22l142 -19q183 -24 183 -139
q0 -89 -69.5 -134t-193.5 -45q-255 0 -268 183zM297 644l86 88h97l-130 -140h-106l-130 140h97z" />
    <glyph glyph-name="Ydieresis" unicode="&#x178;" horiz-adv-x="722" 
d="M362 389l237 325h129l-315 -415v-299h-106v294l-313 420h135zM191 770v104h100v-104h-100zM431 770v104h100v-104h-100z" />
    <glyph glyph-name="florin" unicode="&#x192;" horiz-adv-x="668" 
d="M267 381l36 174q32 155 168 155q12 0 103 -8l-17 -82q-46 6 -68 6q-40 0 -59 -19q-22 -22 -34 -83l-29 -143h137l-14 -60h-136l-74 -378q-27 -139 -180 -139q-41 0 -91 10l17 80q43 -12 64 -12q38 0 59 18q26 24 38 84l67 337h-132l12 60h133z" />
    <glyph glyph-name="circumflex" unicode="&#x2c6;" 
d="M197 601l-86 88l-86 -88h-97l130 140h106l130 -140h-97z" />
    <glyph glyph-name="tilde" unicode="&#x2dc;" 
d="M-28 609v0h-59q5 54 35 88.5t79 34.5q42 0 98 -24q49 -21 79 -21q37 0 46 45h59q-5 -54 -34 -87q-31 -36 -80 -36q-42 0 -98 24q-49 21 -79 21q-37 0 -46 -45z" />
    <glyph glyph-name="endash" unicode="&#x2013;" horiz-adv-x="500" 
d="M0 236v84h500v-84h-500z" />
    <glyph glyph-name="emdash" unicode="&#x2014;" horiz-adv-x="1000" 
d="M0 236v84h1000v-84h-1000z" />
    <glyph glyph-name="quoteleft" unicode="&#x2018;" horiz-adv-x="334" 
d="M105 445v102q0 64 29 107q32 49 95 60v-49q-31 -9 -45 -32t-15 -72h60v-116h-124z" />
    <glyph glyph-name="quoteright" unicode="&#x2019;" horiz-adv-x="334" 
d="M105 445v0v49q31 9 45 32t15 72h-60v116h124v-102q0 -64 -29 -107q-32 -49 -95 -60z" />
    <glyph glyph-name="quotesinglbase" unicode="&#x201a;" horiz-adv-x="334" 
d="M105 -153v0v49q31 9 45 32t15 72h-60v116h124v-102q0 -64 -29 -107q-32 -49 -95 -60z" />
    <glyph glyph-name="quotedblleft" unicode="&#x201c;" horiz-adv-x="481" 
d="M284 445v102q0 64 29 107q32 49 95 60v-49q-31 -9 -45 -32t-15 -72h60v-116h-124zM73 445v102q0 64 29 107q32 49 95 60v-49q-31 -9 -45 -32t-15 -72h60v-116h-124z" />
    <glyph glyph-name="quotedblright" unicode="&#x201d;" horiz-adv-x="481" 
d="M284 445v0v49q31 9 45 32t15 72h-60v116h124v-102q0 -64 -29 -107q-32 -49 -95 -60zM73 445v0v49q31 9 45 32t15 72h-60v116h124v-102q0 -64 -29 -107q-32 -49 -95 -60z" />
    <glyph glyph-name="quotedblbase" unicode="&#x201e;" horiz-adv-x="481" 
d="M284 -153v0v49q31 9 45 32t15 72h-60v116h124v-102q0 -64 -29 -107q-32 -49 -95 -60zM73 -153v0v49q31 9 45 32t15 72h-60v116h124v-102q0 -64 -29 -107q-32 -49 -95 -60z" />
    <glyph glyph-name="dagger" unicode="&#x2020;" horiz-adv-x="668" 
d="M53 390v92h231v232h100v-232h231v-92h-231v-580h-100v580h-231z" />
    <glyph glyph-name="daggerdbl" unicode="&#x2021;" horiz-adv-x="668" 
d="M284 118v288h-231v84h231v224h100v-224h231v-84h-231v-288h231v-84h-231v-224h-100v224h-231v84h231z" />
    <glyph glyph-name="bullet" unicode="&#x2022;" horiz-adv-x="500" 
d="M72 357q0 74 52.5 126t125.5 52q74 0 126 -52t52 -126q0 -73 -52 -125.5t-126 -52.5q-73 0 -125.5 52.5t-52.5 125.5z" />
    <glyph glyph-name="ellipsis" unicode="&#x2026;" horiz-adv-x="1000" 
d="M105 0v116h124v-116h-124zM438 0v116h124v-116h-124zM771 0v116h124v-116h-124z" />
    <glyph glyph-name="perthousand" unicode="&#x2030;" horiz-adv-x="1167" 
d="M818 172q0 84 39 133q44 55 132 55t132 -55q39 -49 39 -133t-39 -133q-44 -55 -132 -55t-132 55q-39 49 -39 133zM1082 172q0 122 -93 122t-93 -122t93 -122t93 122zM433 172q0 84 39 133q44 55 132 55t132 -55q39 -49 39 -133t-39 -133q-44 -55 -132 -55t-132 55
q-39 49 -39 133zM697 172q0 122 -93 122t-93 -122t93 -122t93 122zM271 522q0 122 -93 122t-93 -122t93 -122t93 122zM7 522q0 84 39 133q44 55 132 55t132 -55q39 -49 39 -133t-39 -133q-44 -55 -132 -55t-132 55q-39 49 -39 133zM152 -16l397 726h84l-397 -726h-84z" />
    <glyph glyph-name="guilsinglleft" unicode="&#x2039;" horiz-adv-x="334" 
d="M77 226v104l180 133v-101l-119 -84l119 -84v-101z" />
    <glyph glyph-name="guilsinglright" unicode="&#x203a;" horiz-adv-x="334" 
d="M196 278l-119 84v101l180 -133v-104l-180 -133v101z" />
    <glyph glyph-name="trademark" unicode="&#x2122;" horiz-adv-x="990" 
d="M144 302v346h-124v66h332v-66h-124v-346h-84zM816 302v328h-2l-121 -328h-56l-121 328h-2v-328h-78v412h117l112 -292l112 292h117v-412h-78z" />
    <glyph glyph-name="FL1" unicode="&#xe000;" horiz-adv-x="0" 
 />
    <glyph glyph-name="FL2" unicode="&#xe001;" horiz-adv-x="334" 
 />
    <glyph glyph-name="FL4" unicode="&#xe002;" horiz-adv-x="334" 
 />
    <glyph glyph-name="fraction" unicode="&#xe003;" horiz-adv-x="167" 
d="M-157 -16l397 726h84l-397 -726h-84z" />
    <glyph glyph-name="fi" unicode="&#xe004;" horiz-adv-x="556" 
d="M395 0v524h100v-524h-100zM395 610v110h100v-110h-100zM105 524v78q0 130 161 130q10 0 87 -8v-78q-38 2 -56 2q-44 0 -61 -5q-31 -11 -31 -46v-73h148v-78h-148v-446h-100v446h-107v78h107z" />
    <glyph glyph-name="fl" unicode="&#xe005;" horiz-adv-x="556" 
d="M395 0v720h100v-720h-100zM105 524v78q0 130 161 130q10 0 87 -8v-78q-38 2 -56 2q-44 0 -61 -5q-31 -11 -31 -46v-73h148v-78h-148v-446h-100v446h-107v78h107z" />
    <glyph glyph-name="Lslash" unicode="&#xe006;" horiz-adv-x="630" 
d="M187 380l210 144v-84l-210 -144v-204h434v-92h-540v224l-78 -54v84l78 54v406h106v-334z" />
    <glyph glyph-name="lslash" unicode="&#xe007;" 
d="M161 434l55 42v-84l-55 -42v-350h-100v274l-55 -42v84l55 42v362h100v-286z" />
    <glyph glyph-name="zcaron" unicode="&#xe008;" horiz-adv-x="593" 
d="M27 0v82l386 358h-367v84h505v-78l-391 -362h406v-84h-539zM297 644l86 88h97l-130 -140h-106l-130 140h97z" />
    <glyph glyph-name="Zcaron" unicode="&#xe009;" horiz-adv-x="685" 
d="M14 0v95l510 527h-474v92h613v-92l-512 -530h520v-92h-657zM343 813l86 88h97l-130 -140h-106l-130 140h97z" />
    <glyph glyph-name="hyphen" horiz-adv-x="481" 
d="M65 226v104h351v-104h-351z" />
    </font>
</defs>
</svg>
