<?xml version="1.0" standalone="no"?>
<!DOCTYPE svg PUBLIC "-//W3C//DTD SVG 1.1//EN" "http://www.w3.org/Graphics/SVG/1.1/DTD/svg11.dtd" >
<svg>
<metadata>
Created by FontForge 20110222 at Wed Oct  1 23:47:28 2014
 By Orthosie Webhosting
Copyright (c) 2010 - 2012, Matt McInerney (matt@pixelspread.com), Pablo Impallari(impallari@gmail.com), Rodrigo Fuenzalida (hello@rfuenzalida.com) with Reserved Font Name "Raleway"
</metadata>
<defs>
<font id="RalewayMedium" horiz-adv-x="226" >
  <font-face 
    font-family="RalewayMedium"
    font-weight="500"
    font-stretch="normal"
    units-per-em="1000"
    panose-1="2 11 0 3 3 1 1 6 0 3"
    ascent="800"
    descent="-200"
    x-height="522"
    cap-height="709"
    bbox="-211 -225 1096 930"
    underline-thickness="50"
    underline-position="-50"
    unicode-range="U+0020-FB06"
  />
<missing-glyph horiz-adv-x="0" 
 />
    <glyph glyph-name="f_f" unicode="ff" horiz-adv-x="615" 
d="M531 664q-28 0 -47.5 -11.5t-32 -29.5t-18.5 -41t-6 -46v-75h157v-69h-157v-392h-88v392h-152v-392h-88v392h-71v69h71v40q0 40 10.5 76t31 64t51 44.5t71.5 16.5q36 0 65.5 -8t52.5 -19q22 29 54.5 47t79.5 18q44 0 69.5 -12.5t41.5 -19.5l-22 -65q-12 8 -28 14.5
t-45 6.5zM339 525q0 17 4 42t12 41q-16 11 -37.5 14.5t-38.5 3.5q-26 0 -43.5 -11.5t-28.5 -29.5t-15.5 -39.5t-4.5 -41.5v-43h152v64z" />
    <glyph glyph-name="f_i" unicode="fi" horiz-adv-x="523" 
d="M99 392h-71v69h71v72q0 39 12 76t36 66t60 47t85 18q56 0 97.5 -17.5t66.5 -34.5l-38 -65q-20 17 -52 29t-69 12q-29 0 -49.5 -11.5t-34 -29.5t-20 -41t-6.5 -46v-75h267v-461h-88v392h-179v-392h-88v392z" />
    <glyph glyph-name="f_l" unicode="fl" horiz-adv-x="604" 
d="M609 12q-1 -1 -10 -4t-24 -6.5t-33 -6t-37 -2.5q-53 0 -82 29.5t-29 70.5v460q0 19 -5 39t-16.5 36t-31 26t-49.5 10q-29 0 -48.5 -12.5t-32.5 -32.5t-18.5 -45.5t-5.5 -51.5v-61h103v-69h-103v-392h-88v392h-71v69h71v79q0 91 48.5 145.5t143.5 54.5q48 0 84 -12.5
t59.5 -35t35.5 -53t12 -67.5v-439q0 -10 3 -21t10 -20t16.5 -14.5t23.5 -5.5q19 0 38.5 6t20.5 6z" />
    <glyph glyph-name="f_f_i" unicode="ffi" horiz-adv-x="763" 
d="M99 392h-71v69h71v40q0 40 10.5 76t31 64t51 44.5t71.5 16.5q36 0 65.5 -8t52.5 -19q24 29 61.5 47t88.5 18q53 0 95.5 -17.5t69.5 -34.5l-38 -65q-19 17 -51.5 29t-67.5 12q-30 0 -51.5 -11.5t-35 -29.5t-19.5 -41t-6 -46v-75h267v-461h-88v392h-179v-392h-88v392h-152
v-392h-88v392zM339 461v64q0 17 4 42t12 41q-16 11 -37.5 14.5t-38.5 3.5q-26 0 -43.5 -11.5t-28.5 -29.5t-15.5 -39.5t-4.5 -41.5v-43h152z" />
    <glyph glyph-name="f_f_l" unicode="ffl" horiz-adv-x="846" 
d="M748 -7q-53 0 -82.5 29.5t-29.5 70.5v460q0 19 -5 39t-16.5 36t-31 26t-48.5 10t-49 -12.5t-32.5 -32.5t-18 -45.5t-5.5 -51.5v-61h102v-69h-102v-392h-88v392h-155v-392h-88v392h-71v69h71v46q0 42 11.5 77.5t33 62t53 41t71.5 14.5q37 0 63.5 -8t49.5 -19q50 65 153 65
q48 0 83.5 -12.5t59 -35t35.5 -53t12 -67.5v-439q0 -10 3 -21t10 -20t16.5 -14.5t23.5 -5.5q19 0 38.5 6t21.5 6l14 -72q0 -1 -9.5 -4t-24 -6.5t-33 -6t-36.5 -2.5zM342 461v63q0 19 2.5 45t9.5 40q-16 11 -34 14t-35 3q-26 0 -44.5 -10t-30.5 -26t-17.5 -37t-5.5 -43v-49
h155z" />
    <glyph glyph-name=".notdef" horiz-adv-x="0" 
 />
    <glyph glyph-name=".null" horiz-adv-x="0" 
 />
    <glyph glyph-name="nonmarkingreturn" horiz-adv-x="0" 
 />
    <glyph glyph-name="space" unicode=" " horiz-adv-x="251" 
 />
    <glyph glyph-name="exclam" unicode="!" horiz-adv-x="257" 
d="M85 240v477h88v-477h-88zM85 0v124h88v-124h-88z" />
    <glyph glyph-name="quotedbl" unicode="&#x22;" horiz-adv-x="312" 
d="M61 574v144h76v-144h-76zM175 574v144h76v-144h-76z" />
    <glyph glyph-name="numbersign" unicode="#" horiz-adv-x="696" 
d="M657 447h-134l-43 -178h133v-68h-149l-49 -201h-73l50 201h-168l-49 -201h-73l50 201h-113v68h129l43 178h-128v64h144l48 199h73l-49 -199h168l48 199h73l-49 -199h118v-64zM408 269l43 178h-168l-43 -178h168z" />
    <glyph glyph-name="dollar" unicode="$" horiz-adv-x="622" 
d="M509 561q-12 13 -30 25.5t-41.5 23t-50.5 17t-57 7.5v-237l13 -3q55 -12 99.5 -27.5t76 -38.5t48 -56t16.5 -81q0 -50 -19 -87t-52 -61t-78.5 -36.5t-97.5 -13.5v-100h-44v101q-146 9 -256 99l43 76q15 -15 37 -30.5t50.5 -28.5t61.5 -22.5t69 -12.5v239l-15 4
q-54 13 -95 28t-68.5 36t-41.5 51t-14 72q0 48 17 85.5t47.5 64t72.5 41.5t92 18v101h44v-101q66 -3 119.5 -24t95.5 -56zM487 182q0 26 -10.5 44.5t-30.5 33t-49 25.5t-67 21v-232q75 0 116 27t41 81zM156 519q0 -25 8.5 -43t25.5 -31t44 -22.5t63 -18.5v230
q-73 -4 -107 -34t-34 -81z" />
    <glyph glyph-name="percent" unicode="%" horiz-adv-x="745" 
d="M197 428q-32 0 -60 11.5t-49 31t-33 46.5t-12 57t12 57t33 46.5t49 31t60 11.5t60 -11.5t49 -31t33 -46.5t12 -57t-12 -57t-33 -46.5t-49 -31t-60 -11.5zM197 476q19 0 35.5 8t28.5 21.5t19 31t7 37.5t-7.5 38t-19.5 31.5t-28.5 21t-34.5 7.5q-19 0 -35.5 -8t-28.5 -21.5
t-19 -31.5t-7 -37q0 -20 7 -38t19.5 -31.5t29 -21t34.5 -7.5zM548 -10q-32 0 -60 11.5t-49 31t-33 46.5t-12 57t12 57t33 46.5t49 31t60 11.5t60 -11.5t49 -31t33 -46.5t12 -57t-12 -57t-33 -46.5t-49 -31t-60 -11.5zM548 38q19 0 35.5 8t28.5 21.5t19 31t7 37.5t-7.5 38
t-19.5 31.5t-28.5 21t-34.5 7.5q-19 0 -35.5 -8t-28.5 -21.5t-19 -31.5t-7 -37q0 -20 7 -38t19.5 -31.5t29 -21t34.5 -7.5zM77 33l280 337l268 345l43 -37l-277 -335l-272 -348z" />
    <glyph glyph-name="ampersand" unicode="&#x26;" horiz-adv-x="685" 
d="M561 0l-74 77q-43 -42 -96.5 -64.5t-114.5 -22.5q-49 0 -91 15t-73 41.5t-48.5 62.5t-17.5 79q0 35 11.5 64.5t31 54.5t45 46.5t53.5 41.5q-25 27 -42 49t-27.5 41.5t-15.5 37t-5 36.5q0 34 14 63.5t38.5 51t58 33.5t72.5 12q36 0 67.5 -10t55 -29t37 -46t13.5 -60
q0 -30 -11.5 -56t-31 -48.5t-46.5 -42.5t-57 -40l181 -190q19 36 29.5 78.5t10.5 90.5h73q-1 -65 -16.5 -121t-44.5 -102l137 -143h-116zM285 60q45 0 84 18t70 50l-202 213q-47 -34 -76.5 -70.5t-29.5 -83.5q0 -30 13 -54t34.5 -40t49 -24.5t57.5 -8.5zM178 561
q0 -11 3.5 -22t12 -24.5t23.5 -31.5t38 -43q51 34 84 64t33 68q0 35 -26 57.5t-66 22.5q-45 0 -73.5 -26.5t-28.5 -64.5z" />
    <glyph glyph-name="quotesingle" unicode="'" horiz-adv-x="186" 
d="M55 586v132h76v-132h-76z" />
    <glyph glyph-name="parenleft" unicode="(" horiz-adv-x="280" 
d="M41 346q0 51 11 101t30.5 99.5t45 98.5t55.5 99l68 -30q-19 -29 -41.5 -72t-41.5 -93t-32 -103.5t-13 -102.5q0 -79 34 -169.5t92 -181.5l-65 -34q-63 94 -103 192.5t-40 195.5z" />
    <glyph glyph-name="parenright" unicode=")" horiz-adv-x="280" 
d="M239 346q0 -97 -40 -195.5t-103 -192.5l-65 34q58 91 92 181.5t34 169.5q0 49 -13 102.5t-32 103.5t-41.5 93t-41.5 72l68 30q30 -50 55.5 -99t45 -98.5t30.5 -99.5t11 -101z" />
    <glyph glyph-name="asterisk" unicode="*" horiz-adv-x="330" 
d="M84 538l44 65l-69 22l13 42l70 -27l-3 74h51l-3 -74l70 27l13 -42l-69 -22l45 -65l-38 -25l-43 67l-44 -67z" />
    <glyph glyph-name="plus" unicode="+" horiz-adv-x="420" 
d="M368 391v-72h-118v-128h-80v128h-118v72h118v128h80v-128h118z" />
    <glyph glyph-name="comma" unicode="," horiz-adv-x="214" 
d="M48 -16q7 0 16 4.5t9 19.5v104h73v-118q0 -21 -9 -35.5t-23 -23t-31.5 -12.5t-34.5 -4v65z" />
    <glyph glyph-name="hyphen" unicode="-" horiz-adv-x="421" 
d="M63 233v80h295v-80h-295z" />
    <glyph glyph-name="period" unicode="." horiz-adv-x="200" 
d="M63 0v112h74v-112h-74z" />
    <glyph glyph-name="slash" unicode="/" horiz-adv-x="634" 
d="M607 710l-480 -710h-98l479 710h99z" />
    <glyph glyph-name="zero" unicode="0" horiz-adv-x="615" 
d="M561 293q0 -66 -19 -121.5t-53 -96t-80.5 -63t-100.5 -22.5q-55 0 -101.5 22.5t-80 63t-52.5 96t-19 121.5t19 121.5t52.5 96t80 63.5t101.5 23q54 0 100.5 -23t80.5 -63.5t53 -96t19 -121.5zM472 293q0 49 -12 90t-34 70.5t-52 45.5t-66 16q-37 0 -67.5 -16t-52 -45.5
t-33.5 -70.5t-12 -90q0 -50 12 -90.5t33.5 -69.5t52 -45t67.5 -16q36 0 66 16t52 45t34 69.5t12 90.5z" />
    <glyph glyph-name="one" unicode="1" horiz-adv-x="447" 
d="M425 80v-80h-359v80h142v390q-9 -12 -28 -25.5t-42.5 -25t-48.5 -19.5t-44 -8v84q22 0 49 12.5t51.5 29t42 32t20.5 21.5h90v-491h127z" />
    <glyph glyph-name="two" unicode="2" horiz-adv-x="544" 
d="M48 0q0 40 6.5 75t24.5 67t49.5 61t82.5 58q30 16 61 31.5t56.5 33t42 37.5t16.5 47q0 17 -8 34t-23 30t-37.5 21t-51.5 8q-30 0 -54.5 -8.5t-43.5 -21t-33 -26.5t-23 -25l-57 64q8 9 27 24.5t48 31.5t67 27.5t85 11.5q46 0 83 -12.5t62.5 -34.5t39.5 -51.5t14 -62.5
q0 -39 -17 -68t-41.5 -51t-52.5 -37.5t-50 -26.5t-49.5 -26.5t-52.5 -35t-43.5 -43.5t-23.5 -52h341v-80h-445z" />
    <glyph glyph-name="three" unicode="3" horiz-adv-x="543" 
d="M359 236q64 -11 101.5 -59t37.5 -119q0 -46 -17 -84t-48.5 -65t-75.5 -41.5t-98 -14.5q-76 0 -133.5 28.5t-89.5 80.5l59 59q23 -41 62 -64.5t102 -23.5q69 0 108.5 31t39.5 94t-42.5 100.5t-123.5 37.5h-26v74h28q72 0 110.5 34.5t38.5 87.5t-37 79t-93 26
q-55 0 -96.5 -23.5t-64.5 -65.5l-54 56q13 25 35.5 45.5t52 35.5t64 23t72.5 8q47 0 86.5 -13t68 -36t44 -56t15.5 -73q0 -30 -8.5 -57t-25 -49t-40 -36.5t-52.5 -19.5z" />
    <glyph glyph-name="four" unicode="4" horiz-adv-x="549" 
d="M342 -127v169h-321v78l349 451h60v-449h88v-80h-88v-169h-88zM112 122h239v313z" />
    <glyph glyph-name="five" unicode="5" horiz-adv-x="552" 
d="M283 314q49 0 91.5 -16.5t73.5 -46.5t49 -72t18 -92q0 -53 -19.5 -96.5t-53.5 -74.5t-80 -48t-98 -17q-76 0 -137 36t-92 96l55 48q28 -46 74.5 -74t100.5 -28q34 0 63.5 11.5t51 32t33.5 49.5t12 64q0 33 -12 61t-32.5 48t-48.5 31t-60 11q-43 0 -80.5 -19t-61.5 -54
h-79q1 5 5 25.5t10 50t13 65.5t14 73q17 86 38 193h345v-81h-280l-43 -226q22 23 55 36.5t75 13.5z" />
    <glyph glyph-name="six" unicode="6" horiz-adv-x="606" 
d="M563 235q0 -51 -19.5 -95.5t-54 -78t-80.5 -52.5t-100 -19q-57 0 -104.5 21t-81.5 60.5t-52.5 96t-18.5 128.5q0 105 19 183.5t54 131t84 78.5t109 26q69 0 125.5 -33t88.5 -93l-54 -53q-22 47 -65 74.5t-96 27.5q-41 0 -74 -18.5t-57 -54.5t-37 -87.5t-14 -117.5
q22 52 71 83t112 31q51 0 96 -18.5t78 -51t52 -76t19 -93.5zM310 66q34 0 65 13.5t54 36.5t36.5 53.5t13.5 65.5q0 34 -13.5 65t-36.5 53.5t-54 36t-65 13.5q-35 0 -65.5 -13.5t-53.5 -36t-36.5 -53.5t-13.5 -65q0 -35 13.5 -65.5t36.5 -53.5t53.5 -36.5t65.5 -13.5z" />
    <glyph glyph-name="seven" unicode="7" horiz-adv-x="557" 
d="M408 502h-365v81h504l-357 -710h-100z" />
    <glyph glyph-name="eight" unicode="8" horiz-adv-x="599" 
d="M549 201q0 -48 -20.5 -86.5t-55 -65.5t-80 -42t-96.5 -15q-53 0 -98.5 16.5t-78.5 45t-52 67.5t-19 84q0 33 12 61t30.5 50t42.5 38.5t48 25.5q-22 9 -42 23.5t-35 33t-23.5 40.5t-8.5 47q0 45 20.5 79.5t53 58.5t72.5 36t80 12t80.5 -12t73 -35.5t53 -58t20.5 -79.5
q0 -50 -33 -88t-78 -57q27 -11 51.5 -28t42.5 -39.5t29 -50.5t11 -61zM460 207q0 32 -14.5 57.5t-37.5 43t-52 26.5t-58 9q-30 0 -58.5 -9.5t-51 -27.5t-36 -43.5t-13.5 -56.5q0 -32 14.5 -57t37.5 -42t51.5 -26.5t57.5 -9.5q30 0 58.5 10t51 28t36.5 43t14 55zM162 521
q0 -27 12.5 -47.5t32.5 -34.5t44 -21t48 -7t48 7.5t44 21.5t32.5 35t12.5 48q0 25 -11.5 45t-30.5 34t-44 21.5t-52 7.5t-51.5 -7.5t-43 -22t-30 -35t-11.5 -45.5z" />
    <glyph glyph-name="nine" unicode="9" horiz-adv-x="589" 
d="M36 326q0 51 19.5 95.5t54 78t80.5 52.5t100 19q57 0 104.5 -21t81.5 -60.5t52.5 -96t18.5 -128.5q0 -105 -19 -183.5t-54 -131t-84 -78.5t-109 -26q-69 0 -125.5 33t-88.5 93l54 53q22 -47 65 -74.5t96 -27.5q82 0 131 73t51 205q-22 -52 -71 -83t-112 -31
q-51 0 -96 18.5t-78 50.5t-52 76t-19 94zM289 495q-35 0 -65.5 -13.5t-53.5 -36.5t-36.5 -53.5t-13.5 -65.5t13.5 -65.5t36.5 -53t53.5 -36t65.5 -13.5t65.5 13.5t53.5 36t36.5 53t13.5 65.5q0 34 -13.5 65t-36.5 54t-54 36.5t-65 13.5z" />
    <glyph glyph-name="colon" unicode=":" horiz-adv-x="211" 
d="M69 406v112h73v-112h-73zM69 0v112h73v-112h-73z" />
    <glyph glyph-name="semicolon" unicode=";" horiz-adv-x="223" 
d="M77 406v112h73v-112h-73zM52 -16q7 0 16 4.5t9 19.5v104h73v-118q0 -21 -9 -35.5t-23 -23t-31.5 -12.5t-34.5 -4v65z" />
    <glyph glyph-name="less" unicode="&#x3c;" horiz-adv-x="507" 
d="M33 280l420 253v-94l-292 -180l292 -177v-98l-420 250v46z" />
    <glyph glyph-name="equal" unicode="=" horiz-adv-x="440" 
d="M68 179v60h305v-60h-305zM68 313v60h305v-60h-305z" />
    <glyph glyph-name="greater" unicode="&#x3e;" horiz-adv-x="507" 
d="M474 234l-420 -250v98l292 177l-292 180v94l420 -253v-46z" />
    <glyph glyph-name="question" unicode="?" horiz-adv-x="482" 
d="M145 211q0 54 19 94.5t65 69.5q18 12 41.5 25t44.5 30.5t35.5 42t14.5 58.5q0 28 -10.5 49.5t-27.5 36t-39 22t-46 7.5q-25 0 -47.5 -7.5t-41.5 -20.5t-34 -30.5t-25 -36.5l-59 39q13 31 35 55t50 40.5t59.5 25t64.5 8.5q37 0 73 -11.5t64 -35.5t45 -60t17 -85
q0 -38 -10.5 -65t-27.5 -47t-40 -35t-48 -29q-18 -10 -36 -21t-31.5 -26.5t-22 -37.5t-8.5 -55h-74zM147 0v116h74v-116h-74z" />
    <glyph glyph-name="at" unicode="@" horiz-adv-x="829" 
d="M421 603q74 0 140.5 -27t117 -76.5t80 -120t29.5 -157.5q0 -14 -1.5 -37.5t-6.5 -49.5t-14.5 -53t-26.5 -49t-41.5 -35.5t-58.5 -13.5q-26 0 -42 7.5t-25.5 20t-13.5 28.5t-6 33q-29 -30 -73 -50.5t-97 -20.5q-73 0 -112.5 38.5t-39.5 97.5q0 39 16.5 66t43.5 43t60.5 23
t66.5 7q43 0 75 -8.5t48 -14.5q0 33 -5.5 60.5t-19 47t-37 30.5t-59.5 11q-40 0 -75 -12.5t-63 -33.5l-20 49q36 24 77.5 37.5t88.5 13.5q58 0 92 -19t51 -49t21.5 -66.5t4.5 -71.5v-119q0 -22 1.5 -41t6.5 -33t15.5 -22t27.5 -8q30 0 49 21t30.5 51.5t15.5 64t4 59.5
q0 72 -24.5 133.5t-68.5 107.5t-104 72t-130 26q-69 0 -129 -25t-104.5 -69t-70 -105.5t-25.5 -133.5q0 -70 24 -131t67 -106.5t102 -72t129 -26.5q45 0 81 10.5t73 27.5l14 -38q-41 -20 -83.5 -30t-85.5 -10q-75 0 -141 28t-115.5 78t-78 119t-28.5 151q0 86 31 155
t82.5 117.5t119 74.5t140.5 26zM478 76q39 18 50 43.5t11 51.5v37q-13 2 -45.5 12t-77.5 10q-26 0 -49 -4.5t-41 -15t-28.5 -27t-10.5 -41.5q0 -38 27 -63t72 -25q24 0 48.5 6.5t43.5 15.5z" />
    <glyph glyph-name="A" unicode="A" horiz-adv-x="678" 
d="M11 0l292 710h74l291 -710h-96l-84 208h-298l-83 -208h-96zM340 606l-132 -328h260z" />
    <glyph glyph-name="B" unicode="B" horiz-adv-x="672" 
d="M630 183q0 -41 -16.5 -75t-45 -58t-66 -37t-80.5 -13h-337v710h353q37 0 67 -16t51 -41.5t32.5 -58t11.5 -65.5q0 -53 -26.5 -98t-75.5 -67q61 -18 96.5 -66.5t35.5 -114.5zM539 199q0 24 -8.5 46.5t-23 39.5t-34.5 27t-44 10h-254v-244h247q25 0 46 10t37 26.5t25 38.5
t9 46zM175 632v-237h226q24 0 44 9.5t34.5 25.5t23 37.5t8.5 45.5q0 25 -8 47t-21.5 38t-33 25t-41.5 9h-232z" />
    <glyph glyph-name="C" unicode="C" horiz-adv-x="683" 
d="M40 360q0 64 22.5 127.5t66 114t106.5 81.5t143 31q95 0 163 -43t101 -112l-71 -46q-16 34 -38.5 57t-49 37t-54.5 20t-55 6q-59 0 -104.5 -24.5t-76.5 -64t-46.5 -89t-15.5 -99.5q0 -56 18.5 -106.5t51.5 -89.5t78 -62t98 -23q28 0 57.5 7t56.5 22.5t50.5 39t38.5 56.5
l75 -41q-17 -40 -47.5 -70.5t-69 -51.5t-81.5 -32t-84 -11q-73 0 -134 32t-105.5 83.5t-69 117t-24.5 133.5z" />
    <glyph glyph-name="D" unicode="D" horiz-adv-x="718" 
d="M85 0v710h246q85 0 149.5 -28t107.5 -76t64.5 -112.5t21.5 -137.5q0 -81 -24 -146.5t-69 -112t-108.5 -72t-141.5 -25.5h-246zM583 356q0 60 -16.5 110.5t-49 86.5t-79.5 56.5t-107 20.5h-156v-550h156q61 0 108.5 21t79 58t48 87.5t16.5 109.5z" />
    <glyph glyph-name="E" unicode="E" horiz-adv-x="610" 
d="M567 80v-80h-482v710h473v-80h-383v-230h333v-75h-333v-245h392z" />
    <glyph glyph-name="F" unicode="F" horiz-adv-x="581" 
d="M85 0v710h469v-80h-379v-237h319v-75h-319v-318h-90z" />
    <glyph glyph-name="G" unicode="G" horiz-adv-x="718" 
d="M588 96q-94 -101 -216 -101q-71 0 -131.5 31t-104.5 81.5t-69.5 115.5t-25.5 134q0 72 25 136.5t69 114t105 78.5t132 29q103 0 169.5 -43t101.5 -112l-69 -48q-32 62 -85 92t-119 30q-54 0 -98 -23.5t-75 -62t-48 -89t-17 -104.5q0 -57 19 -107.5t52 -89t78 -60.5
t98 -22q116 0 209 112v98h-153v68h229v-354h-76v96z" />
    <glyph glyph-name="H" unicode="H" horiz-adv-x="741" 
d="M656 710v-710h-90v323h-391v-323h-90v710h90v-307h391v307h90z" />
    <glyph glyph-name="I" unicode="I" horiz-adv-x="260" 
d="M85 0v709h90v-709h-90z" />
    <glyph glyph-name="J" unicode="J" horiz-adv-x="489" 
d="M39 106q20 -14 54 -25t77 -11q51 0 81 18t45.5 53.5t20.5 87.5t5 120v360h90v-360q0 -81 -7.5 -147.5t-33 -113.5t-73 -73t-128.5 -26q-90 0 -154 44z" />
    <glyph glyph-name="K" unicode="K" horiz-adv-x="649" 
d="M85 0v709h90v-392l366 393h97l-285 -313l301 -397h-98l-258 345l-123 -128v-217h-90z" />
    <glyph glyph-name="L" unicode="L" horiz-adv-x="590" 
d="M85 0v710h90v-630h396v-80h-486z" />
    <glyph glyph-name="M" unicode="M" horiz-adv-x="874" 
d="M699 0v549l-236 -421h-51l-237 421v-549h-90v710h95l257 -461l258 461h94v-710h-90z" />
    <glyph glyph-name="N" unicode="N" horiz-adv-x="770" 
d="M175 542v-542h-90v710h70l440 -553v552h90v-709h-76z" />
    <glyph glyph-name="O" unicode="O" horiz-adv-x="751" 
d="M375 -5q-75 0 -136.5 30.5t-105.5 81t-68 115.5t-24 133q0 71 25.5 136t70.5 115t106.5 79.5t133.5 29.5q75 0 136 -31.5t105 -82.5t68 -115.5t24 -131.5q0 -71 -25.5 -136t-70 -114.5t-106 -79t-133.5 -29.5zM132 355q0 -54 17.5 -104.5t49.5 -89.5t77 -62t100 -23
q57 0 102 24.5t76.5 64t48 89.5t16.5 101q0 54 -17.5 104.5t-50 89t-77 61.5t-98.5 23q-57 0 -102 -24t-76.5 -63t-48.5 -89t-17 -102z" />
    <glyph glyph-name="P" unicode="P" horiz-adv-x="621" 
d="M85 0v710h296q47 0 86.5 -19.5t68 -52t44.5 -73t16 -82.5q0 -44 -15 -85t-42.5 -73t-66 -51t-85.5 -19h-212v-255h-90zM175 335h207q28 0 50.5 11.5t38.5 32t25 47.5t9 57q0 31 -10.5 58t-28 47t-41 31t-49.5 11h-201v-295z" />
    <glyph glyph-name="Q" unicode="Q" horiz-adv-x="752" 
d="M565 58q-40 -29 -88 -46t-102 -17q-75 0 -136.5 31t-105.5 81t-68 115t-24 133q0 71 25.5 136t70.5 115t106.5 79.5t133.5 29.5q75 0 136 -31.5t105 -82.5t68 -115.5t24 -131.5q0 -72 -25.5 -136.5t-70.5 -114.5l89 -103h-88zM376 76q39 0 73 12t62 33l-95 111h88l54 -63
q29 39 45 87t16 99q0 54 -17.5 104.5t-50 89.5t-77 62t-98.5 23q-57 0 -102 -24t-76.5 -63.5t-48.5 -89.5t-17 -102q0 -54 17.5 -104.5t49.5 -89.5t77 -62t100 -23z" />
    <glyph glyph-name="R" unicode="R" horiz-adv-x="664" 
d="M85 0v710h304q47 0 86.5 -19.5t68 -52t44.5 -73t16 -82.5q0 -37 -10.5 -71.5t-30 -62.5t-47 -48t-61.5 -29l172 -272h-102l-162 255h-188v-255h-90zM175 335h215q28 0 50.5 12t38.5 32.5t25 47.5t9 56q0 30 -10.5 56.5t-28 47t-41 32t-49.5 11.5h-209v-295z" />
    <glyph glyph-name="S" unicode="S" horiz-adv-x="613" 
d="M504 561q-12 14 -32 27t-45 23.5t-54.5 17t-61.5 6.5q-83 0 -121.5 -31t-38.5 -85q0 -29 11 -48t34.5 -32.5t58.5 -23.5t83 -21q55 -12 99.5 -27.5t76 -38.5t48 -56t16.5 -81q0 -51 -20 -88.5t-54.5 -62t-81.5 -36t-102 -11.5q-82 0 -155.5 25.5t-133.5 74.5l43 76
q16 -17 41.5 -34t58 -30.5t70 -22t78.5 -8.5q76 0 118 27t42 81q0 30 -13.5 50.5t-39.5 35.5t-64.5 26.5t-87.5 23.5q-54 13 -95 28t-68.5 36t-41.5 51t-14 72q0 51 19 90t53 66t81 40.5t102 13.5q72 0 130 -22t103 -59z" />
    <glyph glyph-name="T" unicode="T" horiz-adv-x="616" 
d="M598 630h-245v-630h-90v630h-245v80h580v-80z" />
    <glyph glyph-name="U" unicode="U" horiz-adv-x="753" 
d="M376 76q62 0 103 24t65.5 62.5t34.5 88t10 100.5v359h90v-359q0 -72 -16.5 -136.5t-52.5 -113.5t-93.5 -77.5t-139.5 -28.5q-85 0 -143 30t-93.5 79.5t-51 114t-15.5 132.5v359h90v-359q0 -53 10.5 -102.5t35 -87.5t65 -61.5t101.5 -23.5z" />
    <glyph glyph-name="V" unicode="V" horiz-adv-x="676" 
d="M103 710l235 -597l234 597h95l-290 -710h-78l-291 710h95z" />
    <glyph glyph-name="W" unicode="W" horiz-adv-x="1048" 
d="M344 706h85l94 -247l95 247h85l-123 -309l122 -293l240 606h98l-297 -710h-78l-141 335l-142 -335h-78l-296 710h97l241 -606l121 293z" />
    <glyph glyph-name="X" unicode="X" horiz-adv-x="635" 
d="M102 710l216 -296l216 296h99l-267 -360l259 -350h-99l-208 286l-208 -286h-100l259 350l-267 360h100z" />
    <glyph glyph-name="Y" unicode="Y" horiz-adv-x="637" 
d="M103 710l215 -370l217 370h98l-270 -451v-259h-90v261l-269 449h99z" />
    <glyph glyph-name="Z" unicode="Z" horiz-adv-x="624" 
d="M28 70l458 560h-449v80h554v-70l-450 -560h450v-80h-563v70z" />
    <glyph glyph-name="bracketleft" unicode="[" horiz-adv-x="264" 
d="M80 -40v780h140v-72h-58v-636h58v-72h-140z" />
    <glyph glyph-name="backslash" unicode="\" horiz-adv-x="590" 
d="M126 710l435 -710h-98l-436 710h99z" />
    <glyph glyph-name="bracketright" unicode="]" horiz-adv-x="264" 
d="M44 -40v72h58v636h-58v72h140v-780h-140z" />
    <glyph glyph-name="asciicircum" unicode="^" horiz-adv-x="555" 
d="M43 303l198 407h74l197 -407h-75l-159 328l-162 -328h-73z" />
    <glyph glyph-name="underscore" unicode="_" horiz-adv-x="405" 
d="M14 -80v80h377v-80h-377z" />
    <glyph glyph-name="grave" unicode="`" horiz-adv-x="232" 
d="M48 730h87l59 -101l-57 -20z" />
    <glyph glyph-name="a" unicode="a" horiz-adv-x="557" 
d="M210 -10q-39 0 -72 12.5t-57 34t-37.5 51t-13.5 62.5q0 37 16 67.5t45.5 52t70 33t88.5 11.5q38 0 77 -7t69 -19v42q0 64 -36 100.5t-102 36.5q-79 0 -166 -61l-29 57q51 34 101 51t104 17q100 0 158 -55t58 -155v-213q0 -31 28 -32v-76q-10 -2 -19 -3t-17 -1
q-22 0 -43 12t-23 41l-2 37q-18 -24 -41 -42t-49 -30t-53.5 -18t-54.5 -6zM232 56q42 0 82 18t63 44q19 22 19 41v77q-31 12 -65.5 18.5t-66.5 6.5q-68 0 -109 -27.5t-41 -75.5q0 -20 8 -38.5t23 -32.5t37 -22.5t50 -8.5z" />
    <glyph glyph-name="b" unicode="b" horiz-adv-x="621" 
d="M337 -10q-61 0 -111 30t-79 78v-98h-78v730h88v-312q33 51 81 82t112 31q54 0 97 -23t73.5 -60.5t47 -87t16.5 -101.5q0 -55 -19 -104t-52 -85.5t-78.5 -58t-97.5 -21.5zM315 66q39 0 72 16t57 43t37 61.5t13 72.5t-12.5 73.5t-35 62.5t-54 43.5t-69.5 16.5
q-28 0 -53 -10t-46.5 -26.5t-38 -38.5t-28.5 -47v-151q5 -25 21.5 -46t39 -36.5t48 -24.5t49.5 -9z" />
    <glyph glyph-name="c" unicode="c" horiz-adv-x="554" 
d="M36 262q0 55 19 104t54 85.5t83.5 58t108.5 21.5q78 0 134.5 -34.5t85.5 -92.5l-86 -27q-20 37 -56 57.5t-80 20.5q-36 0 -68 -14.5t-55 -40.5t-36.5 -61t-13.5 -77q0 -41 14 -77t37.5 -62.5t55 -41.5t67.5 -15q23 0 45.5 6.5t41 17.5t32.5 25.5t20 31.5l86 -26
q-12 -29 -33.5 -53t-50.5 -41t-64.5 -27t-74.5 -10q-59 0 -108 22t-84 59t-54.5 86.5t-19.5 104.5z" />
    <glyph glyph-name="d" unicode="d" horiz-adv-x="631" 
d="M285 -10q-54 0 -100 22t-79 59t-51.5 86t-18.5 103q0 55 17.5 104.5t49 86.5t75 58.5t95.5 21.5q63 0 112.5 -33t78.5 -80v312h88v-622q0 -31 28 -32v-76q-11 -2 -19.5 -3t-15.5 -1q-30 0 -48 15.5t-19 37.5l-2 49q-31 -51 -82.5 -79.5t-108.5 -28.5zM306 66q24 0 49.5 9
t48 25t39 37.5t21.5 45.5v150q-9 25 -27 47.5t-40.5 39t-48 26t-50.5 9.5q-39 0 -70.5 -16.5t-54 -44t-34.5 -63t-12 -72.5q0 -39 14 -74.5t38 -61.5t56.5 -41.5t70.5 -15.5z" />
    <glyph glyph-name="e" unicode="e" horiz-adv-x="591" 
d="M302 -10q-59 0 -108 21.5t-84 58.5t-54.5 86.5t-19.5 104.5t19.5 104t55 86t84.5 58.5t108 21.5t107.5 -22t82.5 -58.5t52.5 -85t18.5 -100.5q0 -11 -0.5 -20t-1.5 -14h-433q3 -39 18 -71t39 -55t54.5 -36t64.5 -13q24 0 47 6.5t43 17.5t35.5 27t23.5 36l76 -21
q-13 -29 -35.5 -53t-52 -41.5t-65.5 -27.5t-75 -10zM481 296q-3 37 -18.5 68.5t-39 53.5t-54.5 34.5t-66 12.5t-66 -12.5t-54.5 -35t-38 -53.5t-17.5 -68h354z" />
    <glyph glyph-name="f" unicode="f" horiz-adv-x="356" 
d="M99 0v392h-71v69h71v72q0 97 43 152t117 55q31 0 61 -8.5t54 -23.5l-22 -65q-14 10 -34.5 16t-40.5 6q-44 0 -67 -33t-23 -96v-75h139v-69h-139v-392h-88z" />
    <glyph glyph-name="g" unicode="g" horiz-adv-x="621" 
d="M278 -6q-53 0 -97.5 22t-76.5 59t-49.5 85t-17.5 100q0 55 17.5 104.5t49.5 86.5t76.5 58.5t98.5 21.5q66 0 114 -32t81 -81v104h78v-516q0 -56 -21 -98.5t-57 -71.5t-84.5 -44t-103.5 -15q-89 0 -144.5 30.5t-92.5 84.5l51 45q31 -46 80 -69t106 -23q36 0 68.5 10
t56.5 30t38.5 50t14.5 71v92q-15 -24 -35.5 -43.5t-44.5 -33t-51 -20.5t-55 -7zM305 66q28 0 54 10t48 26.5t37 37.5t20 43v150q-11 27 -28.5 49t-39.5 38.5t-47.5 25.5t-51.5 9q-40 0 -71.5 -17t-53.5 -45t-34 -63.5t-12 -71.5q0 -39 14 -74t38 -61t56.5 -41.5t70.5 -15.5z
" />
    <glyph glyph-name="h" unicode="h" horiz-adv-x="586" 
d="M522 0h-88v292q0 81 -28 120.5t-82 39.5q-26 0 -52 -10.5t-48.5 -28.5t-40 -43t-26.5 -55v-315h-88v730h88v-320q31 57 84 89t116 32q46 0 78 -17t51 -46t27.5 -69.5t8.5 -86.5v-312z" />
    <glyph glyph-name="i" unicode="i" 
d="M69 0v522h88v-522h-88zM69 620v110h88v-110h-88z" />
    <glyph glyph-name="j" unicode="j" 
d="M-5 -186q-35 0 -65.5 10t-54.5 32l41 59q14 -13 32.5 -18t36.5 -5q16 0 31 6.5t27 17.5t19 27t7 34v545h88v-539q0 -37 -13.5 -68t-36 -53.5t-51.5 -35t-61 -12.5zM69 620v110h88v-110h-88z" />
    <glyph glyph-name="k" unicode="k" horiz-adv-x="536" 
d="M437 0l-180 255l-100 -94v-161h-88v730h88v-480l268 271h97l-208 -216l218 -305h-95z" />
    <glyph glyph-name="l" unicode="l" horiz-adv-x="280" 
d="M71 730h88v-595q0 -29 15.5 -45.5t43.5 -16.5q11 0 26 3.5t28 8.5l14 -71q-22 -9 -52 -15t-53 -6q-51 0 -80.5 29t-29.5 81v627z" />
    <glyph glyph-name="m" unicode="m" horiz-adv-x="920" 
d="M856 0h-88v292q0 82 -26.5 121t-78.5 39q-54 0 -96.5 -38.5t-60.5 -99.5v-314h-88v292q0 84 -26 122t-78 38q-53 0 -96 -37.5t-61 -99.5v-315h-88v522h80v-112q32 58 83 89.5t115 31.5q66 0 104.5 -35.5t47.5 -91.5q70 127 199 127q45 0 75.5 -16.5t48.5 -46t26 -69.5
t8 -87v-312z" />
    <glyph glyph-name="n" unicode="n" horiz-adv-x="586" 
d="M522 0h-88v292q0 84 -25.5 122t-77.5 38q-27 0 -54 -10.5t-51 -28.5t-42 -43t-27 -55v-315h-88v522h80v-112q31 55 89.5 88t127.5 33q45 0 75 -16.5t48 -46t25.5 -69.5t7.5 -87v-312z" />
    <glyph glyph-name="o" unicode="o" horiz-adv-x="598" 
d="M299 -10q-59 0 -107.5 22t-83 59t-53.5 86t-19 103q0 55 19.5 104t54 86t83 59t106.5 22t107 -22t83.5 -59t54 -86t19.5 -104q0 -54 -19 -103t-54 -86t-83.5 -59t-107.5 -22zM126 259q0 -41 13.5 -76t37 -61t55 -41t67.5 -15t67.5 15t55.5 41.5t37.5 62t13.5 76.5
q0 40 -13.5 75.5t-37.5 62t-55.5 41.5t-67.5 15t-67.5 -15.5t-55 -42t-37 -62t-13.5 -76.5z" />
    <glyph glyph-name="p" unicode="p" horiz-adv-x="620" 
d="M350 -10q-65 0 -114.5 32t-78.5 81v-316h-88v735h78v-98q31 48 80.5 77.5t109.5 29.5q54 0 99 -22t78 -59.5t51.5 -86.5t18.5 -102q0 -56 -17 -105.5t-48 -86t-74 -58t-95 -21.5zM323 66q39 0 70.5 16.5t54 44t34.5 62.5t12 72q0 39 -14 74.5t-38 62t-56.5 42t-70.5 15.5
q-24 0 -49.5 -9.5t-48 -25t-39 -37t-21.5 -45.5v-149q11 -26 28 -48.5t39 -39t47 -26t52 -9.5z" />
    <glyph glyph-name="q" unicode="q" horiz-adv-x="620" 
d="M270 -10q-52 0 -95 22t-74 59.5t-48 86.5t-17 103q0 55 19 104t52.5 86t78.5 58.5t97 21.5q61 0 111 -30t79 -78v99h78v-623q0 -31 28 -32v-76q-20 -3 -42 -3q-31 0 -52.5 19.5t-21.5 50.5v245q-72 -113 -193 -113zM300 66q56 0 96.5 32.5t66.5 79.5v150q-5 25 -21 48.5
t-38.5 40.5t-49 27.5t-52.5 10.5q-39 0 -71 -16.5t-55.5 -44t-36.5 -63t-13 -72.5q0 -39 13 -74.5t36 -61.5t55 -41.5t70 -15.5z" />
    <glyph glyph-name="r" unicode="r" horiz-adv-x="362" 
d="M345 445q-66 -2 -116.5 -34t-71.5 -89v-322h-88v522h82v-121q27 54 71 89.5t94 35.5h17t12 -1v-80z" />
    <glyph glyph-name="s" unicode="s" horiz-adv-x="493" 
d="M254 -10q-63 0 -124 19.5t-105 56.5l38 59q46 -35 92 -52.5t97 -17.5q57 0 90.5 22.5t33.5 63.5q0 19 -9 32.5t-27 23.5t-46 18t-65 17q-47 12 -81 23t-56 26t-32 36t-10 52q0 39 15.5 69.5t42.5 51t63.5 31t78.5 10.5q59 0 110 -19t86 -50l-40 -53q-33 29 -74 43.5
t-84 14.5q-48 0 -81.5 -20.5t-33.5 -65.5q0 -18 6.5 -30t21.5 -21t38.5 -16t56.5 -15q52 -12 90.5 -24.5t64 -29.5t38 -40t12.5 -56q0 -73 -56 -116t-151 -43z" />
    <glyph glyph-name="t" unicode="t" horiz-adv-x="347" 
d="M340 26q-8 -4 -21 -9.5t-29.5 -11t-36 -9t-40.5 -3.5q-48 0 -83 26.5t-35 82.5v351h-71v69h71v174h88v-174h117v-69h-117v-324q2 -29 19 -42t40 -13q26 0 47.5 8.5t29.5 13.5z" />
    <glyph glyph-name="u" unicode="u" horiz-adv-x="603" 
d="M230 -10q-82 0 -124 55t-42 164v313h88v-296q0 -160 111 -160q54 0 101.5 34.5t70.5 94.5v327h88v-414q0 -31 28 -32v-76q-11 -2 -19.5 -3t-15.5 -1q-30 0 -47 14.5t-19 38.5l-3 63q-35 -59 -92 -90.5t-125 -31.5z" />
    <glyph glyph-name="v" unicode="v" horiz-adv-x="534" 
d="M220 0l-206 522h91l165 -445l166 445h84l-206 -522h-94z" />
    <glyph glyph-name="w" unicode="w" horiz-adv-x="824" 
d="M727 522h85l-222 -522h-73l-105 255l-104 -255h-73l-222 522h84l180 -435l88 217l-90 217h73l64 -167l64 167h73l-89 -217l88 -217z" />
    <glyph glyph-name="x" unicode="x" horiz-adv-x="509" 
d="M103 522l143 -192l8 -16l9 16l142 192h93l-195 -262l196 -260h-93l-143 191l-9 15l-8 -15l-143 -191h-93l196 260l-195 262h92z" />
    <glyph glyph-name="y" unicode="y" horiz-adv-x="543" 
d="M92 -143q27 -3 48 -3q9 0 17 4t18 19t23 44t32 79l-221 522h91l178 -443l162 443h84l-256 -659q-18 -47 -52 -67.5t-80 -20.5q-11 0 -22 1t-22 4v77z" />
    <glyph glyph-name="z" unicode="z" horiz-adv-x="487" 
d="M27 57l334 401h-325v64h419v-57l-332 -401h333v-64h-429v57z" />
    <glyph glyph-name="braceleft" unicode="{" horiz-adv-x="269" 
d="M171 668v-244q0 -14 -6.5 -32t-22.5 -32q15 -14 22 -32t7 -32v-255h55v-72h-112q-8 0 -15.5 6.5t-7.5 23.5v271q0 22 -11.5 39t-30.5 20v64q10 0 18 6t13.5 15t8 18.5t2.5 17.5v260q0 19 9 24.5t14 5.5h112v-72h-55z" />
    <glyph glyph-name="bar" unicode="|" horiz-adv-x="232" 
d="M78 -130v905h76v-905h-76z" />
    <glyph glyph-name="braceright" unicode="}" horiz-adv-x="269" 
d="M44 668v72h112q5 0 14 -5.5t9 -24.5v-260q0 -8 2.5 -17.5t8 -18.5t13 -15t18.5 -6v-64q-20 -3 -31 -20t-11 -39v-271q0 -17 -8 -23.5t-15 -6.5h-112v72h55v255q0 14 6.5 32t22.5 32q-16 14 -22.5 32t-6.5 32v244h-55z" />
    <glyph glyph-name="asciitilde" unicode="~" horiz-adv-x="524" 
d="M62 237q0 6 6 24t20 37.5t36 35t55 15.5q24 0 45 -9t40.5 -19.5t39 -19.5t40.5 -9q19 0 32.5 7.5t21.5 16.5t11.5 17.5t3.5 10.5h52q0 -3 -6 -20t-20 -36.5t-37.5 -35t-58.5 -15.5q-26 0 -47.5 8.5t-41.5 19t-38.5 19.5t-37.5 9q-18 0 -30.5 -8.5t-20 -19t-10.5 -19
t-3 -9.5h-52v0z" />
    <glyph glyph-name="uni00A0" unicode="&#xa0;" horiz-adv-x="251" 
 />
    <glyph glyph-name="exclamdown" unicode="&#xa1;" horiz-adv-x="258" 
d="M173 474v-477h-88v477h88zM173 714v-124h-88v124h88z" />
    <glyph glyph-name="cent" unicode="&#xa2;" horiz-adv-x="576" 
d="M279 -120v111q-51 4 -94 28.5t-74 61.5t-48.5 83t-17.5 94q0 51 16 97.5t46 83t73.5 61t98.5 30.5v115h44v-115q73 -2 125.5 -35t81.5 -91l-85 -27q-20 36 -52 54.5t-70 20.5v-384q18 1 37.5 7.5t37.5 16.5t32 24t19 31l86 -26q-13 -33 -37.5 -57.5t-54.5 -41
t-61.5 -24.5t-58.5 -8v-110h-44zM135 258q0 -33 10.5 -64t30 -56t45.5 -42.5t58 -23.5v377q-34 -4 -61 -22t-45.5 -44.5t-28 -59t-9.5 -65.5z" />
    <glyph glyph-name="sterling" unicode="&#xa3;" horiz-adv-x="518" 
d="M54 375h87q-10 21 -21 41t-20.5 40t-15.5 41.5t-6 44.5q0 36 15 67.5t40.5 55t60 37t73.5 13.5q57 0 107 -28t82 -77l-49 -54q-24 39 -63 62.5t-79 23.5q-23 0 -42 -8.5t-33.5 -22.5t-22.5 -34t-8 -42q0 -20 6.5 -39.5t16 -39t21 -39.5t21.5 -42h179v-68h-157
q2 -11 3 -21.5t1 -21.5q0 -49 -22 -93t-76 -102q37 10 74 10q40 0 72.5 -9t67.5 -9q20 0 39.5 4.5t45.5 13.5l22 -67q-26 -13 -54.5 -20t-56.5 -7q-23 0 -43.5 4t-41.5 8.5t-42.5 8.5t-44.5 4q-25 0 -56 -5t-58 -13l-22 64q64 61 91.5 108t27.5 96q0 24 -6 47h-113v68z" />
    <glyph glyph-name="yen" unicode="&#xa5;" horiz-adv-x="689" 
d="M455 377h81v-60h-114l-34 -58v-28h149v-60h-149v-171h-90v171h-147v60h147v30l-32 56h-115v60h83l-204 333h98l215 -370l217 370h99z" />
    <glyph glyph-name="brokenbar" unicode="&#xa6;" horiz-adv-x="236" 
d="M156 273v-403h-76v403h76zM156 775v-403h-76v403h76z" />
    <glyph glyph-name="section" unicode="&#xa7;" horiz-adv-x="518" 
d="M430 201q43 -29 43 -104q0 -48 -20 -83t-50.5 -57.5t-67 -33.5t-70.5 -11q-36 0 -67.5 9t-57 23t-45.5 31t-34 32l57 54q35 -34 69.5 -49.5t74.5 -15.5q22 0 43.5 6.5t38.5 19t27.5 31t10.5 41.5q0 25 -10 40.5t-26.5 23.5t-36.5 11.5t-39 4.5q-45 3 -81.5 14.5
t-62.5 32.5t-40.5 51t-14.5 69q0 28 7.5 49t16.5 33q-19 15 -33.5 45t-14.5 70q0 38 17 70.5t44.5 56t63.5 37t75 13.5t69.5 -9.5t54 -24.5t40.5 -33.5t29 -36.5l-68 -32q-17 31 -51 44t-69 13q-23 0 -43.5 -6.5t-37 -19.5t-26 -31t-9.5 -40q0 -26 9 -43t24.5 -27.5t37 -15
t46.5 -4.5q36 0 73 -8.5t66 -27.5t47.5 -49t18.5 -74q0 -29 -8.5 -52.5t-19.5 -36.5zM157 330q0 -42 21.5 -60t52 -25.5t63 -9t54.5 -10.5q12 10 19 27.5t7 35.5q0 25 -11.5 42.5t-28.5 27.5t-38 14.5t-40 4.5q-46 0 -77 13q-10 -10 -16 -26.5t-6 -33.5z" />
    <glyph glyph-name="dieresis" unicode="&#xa8;" horiz-adv-x="368" 
d="M66 624v102h74v-102h-74zM228 624v102h74v-102h-74z" />
    <glyph glyph-name="copyright" unicode="&#xa9;" horiz-adv-x="839" 
d="M418 -7q-80 0 -147.5 27.5t-116.5 76t-77 114.5t-28 144q0 77 28 143t77 114t116.5 75.5t147.5 27.5t148.5 -27.5t118.5 -75.5t78 -114t28 -143q0 -78 -28 -144t-78 -114.5t-118.5 -76t-148.5 -27.5zM418 31q70 0 130.5 23.5t105.5 66t70.5 101.5t25.5 131
q0 69 -25 128.5t-69.5 103t-105 68t-132.5 24.5q-71 0 -131 -24.5t-104 -68t-69 -102.5t-25 -128t25 -128t69 -102.5t104 -68t131 -24.5zM426 121q-49 0 -92.5 17t-76 48t-51.5 74t-19 95q0 43 14.5 85t43.5 75.5t73 54t103 20.5q70 0 123.5 -30t77.5 -86l-85 -27
q-9 20 -23.5 33t-30 20.5t-32 10.5t-30.5 3q-36 0 -63 -13.5t-45 -36t-27 -51t-9 -58.5q0 -38 13.5 -67.5t34.5 -49.5t47 -30.5t51 -10.5q35 0 69.5 18.5t50.5 51.5l85 -26q-8 -20 -26 -41.5t-44 -39t-59.5 -28.5t-72.5 -11z" />
    <glyph glyph-name="ordfeminine" unicode="&#xaa;" horiz-adv-x="437" 
d="M164 344q-25 0 -47 8.5t-38 23.5t-25 35t-9 44q0 50 41.5 81t107.5 31q26 0 51 -4.5t45 -12.5v25q0 40 -23 63t-66 23q-28 0 -55.5 -10.5t-57.5 -30.5l-23 45q70 46 142 46t113 -37t41 -107v-131q0 -23 21 -24v-62q-15 -3 -27 -3q-24 0 -38 10t-15 29l-1 23
q-25 -32 -60.5 -48.5t-76.5 -16.5zM184 397q19 0 38 5.5t34 14.5t24.5 20.5t9.5 23.5v48q-19 8 -41 11.5t-43 3.5q-42 0 -68 -17t-26 -46q0 -27 20.5 -45.5t51.5 -18.5z" />
    <glyph glyph-name="guillemotleft" unicode="&#xab;" horiz-adv-x="599" 
d="M42 280l253 181v-74l-182 -128l182 -125v-74l-253 174v46zM284 280l253 181v-74l-182 -128l182 -125v-74l-253 174v46z" />
    <glyph glyph-name="logicalnot" unicode="&#xac;" horiz-adv-x="597" 
d="M528 375v-255h-76v175h-378v80h454z" />
    <glyph glyph-name="uni00AD" unicode="&#xad;" horiz-adv-x="580" 
d="M63 233v80h454v-80h-454z" />
    <glyph glyph-name="registered" unicode="&#xae;" horiz-adv-x="839" 
d="M419 -7q-80 0 -147.5 27.5t-117 76t-77.5 114.5t-28 144q0 77 28 143t77.5 114t117 75.5t147.5 27.5t148 -27.5t118 -75.5t78 -114t28 -143q0 -78 -28 -144t-78 -114.5t-118 -76t-148 -27.5zM419 30q70 0 130 23.5t104.5 66.5t70 102.5t25.5 131.5q0 69 -25 128
t-69 102.5t-104.5 68t-131.5 24.5t-131.5 -24.5t-104 -68t-68 -102.5t-24.5 -127q0 -69 24.5 -128.5t68 -103t104 -68.5t131.5 -25zM264 579h192q30 0 55 -12.5t43 -33t28 -46.5t10 -52q0 -47 -26.5 -84.5t-69.5 -48.5l109 -172h-73l-102 162h-101v-162h-65v449zM453 349
q36 0 55.5 24t19.5 62t-22.5 61.5t-55.5 23.5h-121v-171h124z" />
    <glyph glyph-name="macron" unicode="&#xaf;" horiz-adv-x="403" 
d="M56 654v58h292v-58h-292z" />
    <glyph glyph-name="degree" unicode="&#xb0;" horiz-adv-x="273" 
d="M47 637q0 37 25.5 62t63.5 25t63.5 -25t25.5 -62q0 -40 -25.5 -65.5t-63.5 -25.5t-63.5 26t-25.5 65zM106 665q-12 -14 -12 -30q0 -17 12 -29q13 -13 30 -13q19 0 30 13q12 12 12 29q0 16 -12 30q-11 12 -30 12q-18 0 -30 -12z" />
    <glyph glyph-name="plusminus" unicode="&#xb1;" horiz-adv-x="464" 
d="M66 51v72h332v-72h-332zM398 404v-72h-126v-136h-80v136h-126v72h126v136h80v-136h126z" />
    <glyph glyph-name="twosuperior" unicode="&#xb2;" horiz-adv-x="398" 
d="M35 320q0 39 7.5 68.5t23 51.5t39.5 38.5t57 29.5q23 9 47.5 17.5t44 20t32 26.5t12.5 37q0 29 -24.5 48.5t-72.5 19.5t-79 -18t-47 -35l-36 39q5 7 18 18.5t34.5 22.5t51 19t66.5 8q75 0 113 -34.5t38 -88.5q0 -32 -14 -53.5t-35 -36t-45 -23.5t-44 -15
q-31 -10 -50.5 -23t-30.5 -27t-15 -28.5t-4 -27.5h231v-54h-318z" />
    <glyph glyph-name="threesuperior" unicode="&#xb3;" horiz-adv-x="397" 
d="M192 314q-63 0 -105.5 23t-52.5 63l32 38q1 -11 10.5 -22.5t26 -22t39 -17t49.5 -6.5q47 0 79.5 17.5t32.5 47.5q0 33 -40 50.5t-109 17.5h-23v51h23q63 0 99 15t36 47q0 30 -30.5 47t-69.5 17q-41 0 -70 -15t-45 -39l-37 43q20 29 62 45.5t90 16.5q34 0 63 -8.5
t50.5 -23.5t33.5 -35.5t12 -44.5q0 -35 -23.5 -57t-68.5 -31q48 -7 75.5 -36t27.5 -68q0 -27 -13.5 -48.5t-37 -35.5t-53.5 -21.5t-63 -7.5z" />
    <glyph glyph-name="acute" unicode="&#xb4;" horiz-adv-x="232" 
d="M106 609l-58 20l58 101h88z" />
    <glyph glyph-name="mu" unicode="&#xb5;" horiz-adv-x="610" 
d="M77 522h88v-296q0 -160 113 -160q26 0 52 9t48.5 25.5t40.5 40.5t30 54v327h88v-414q0 -31 28 -32v-76q-11 -2 -20 -3t-16 -1q-29 0 -46 14.5t-19 38.5l-3 63q-12 -24 -32 -46t-44.5 -39t-53 -27t-58.5 -10q-46 0 -74 22.5t-39 54.5v-279h-83v734z" />
    <glyph glyph-name="paragraph" unicode="&#xb6;" horiz-adv-x="615" 
d="M36 465q0 116 74 180.5t208 64.5h257v-68h-70v-722h-76v304h-67v-304h-76v304q-57 1 -103.5 18t-79 48t-50 75.5t-17.5 99.5zM111 467q0 -43 14 -74.5t38 -53.5t55.5 -33.5t67.5 -13.5v350q-85 -2 -130 -48.5t-45 -126.5zM429 642h-67v-350h67v350z" />
    <glyph glyph-name="periodcentered" unicode="&#xb7;" horiz-adv-x="200" 
d="M63 245v124h74v-124h-74z" />
    <glyph glyph-name="cedilla" unicode="&#xb8;" horiz-adv-x="296" 
d="M42 -126q13 -7 37.5 -13t50.5 -6q27 0 42 8t15 27q0 20 -14 27.5t-37 7.5q-21 0 -44 -4.5t-36 -8.5l58 109l39 -14l-35 -55q8 3 18 4t18 1q35 0 57 -16t22 -48q0 -35 -28 -55t-82 -20q-30 0 -55.5 5.5t-45.5 13.5z" />
    <glyph glyph-name="onesuperior" unicode="&#xb9;" horiz-adv-x="280" 
d="M258 375v-55h-210v55h80v294q-5 -6 -16 -14.5t-24.5 -16t-28 -13t-26.5 -5.5v55q16 0 32.5 8.5t30.5 18.5t23 19t9 10h56v-356h74z" />
    <glyph glyph-name="ordmasculine" unicode="&#xba;" horiz-adv-x="447" 
d="M223 344q-41 0 -74.5 15t-57.5 40t-37 58.5t-13 69.5q0 37 13 70.5t37 59t57.5 40t74.5 14.5t74.5 -14.5t57.5 -40t37 -59t13 -70.5q0 -36 -13 -69.5t-37 -58.5t-57.5 -40t-74.5 -15zM113 526q0 -26 8.5 -48t23.5 -38t35 -25.5t43 -9.5t43 9.5t35 26t23.5 39t8.5 48.5
t-8.5 48t-23.5 38.5t-35 25.5t-43 9t-43 -9.5t-35 -26t-23.5 -39t-8.5 -48.5z" />
    <glyph glyph-name="guillemotright" unicode="&#xbb;" horiz-adv-x="599" 
d="M557 234l-253 -174v74l182 125l-182 128v74l253 -181v-46zM315 234l-253 -174v74l182 125l-182 128v74l253 -181v-46z" />
    <glyph glyph-name="onequarter" unicode="&#xbc;" horiz-adv-x="861" 
d="M709 0v100h-226v53l243 253h38v-252h59v-54h-59v-100h-55zM540 154h171v180zM269 375v-55h-210v55h80v294q-5 -6 -16 -14.5t-24.5 -16t-28 -13t-26.5 -5.5v55q16 0 32.5 8.5t30.5 18.5t23 19t9 10h56v-356h74zM147 33l280 337l268 345l43 -37l-277 -335l-272 -348z" />
    <glyph glyph-name="onehalf" unicode="&#xbd;" horiz-adv-x="896" 
d="M540 0q0 39 7 68.5t22 51.5t38.5 38.5t55.5 29.5q22 9 45 17.5t42 19.5t31 26t12 37q0 30 -23.5 49.5t-69.5 19.5q-23 0 -42 -5t-34 -13t-26.5 -17.5t-19.5 -18.5l-34 40q5 7 17.5 18.5t33 22.5t48.5 19t64 8q73 0 109.5 -34.5t36.5 -89.5q0 -32 -13.5 -53t-33 -35.5
t-43 -23.5t-42.5 -15q-30 -10 -49 -23t-29.5 -27t-14 -28.5t-3.5 -27.5h229v-54h-314zM272 375v-55h-210v55h80v294q-5 -6 -16 -14.5t-24.5 -16t-28 -13t-26.5 -5.5v55q16 0 32.5 8.5t30.5 18.5t23 19t9 10h56v-356h74zM113 33l280 337l268 345l43 -37l-277 -335l-272 -348z
" />
    <glyph glyph-name="threequarters" unicode="&#xbe;" horiz-adv-x="876" 
d="M201 314q-63 0 -105.5 23t-52.5 63l32 38q1 -11 10.5 -22.5t26 -22t39 -17t49.5 -6.5q47 0 79.5 17.5t32.5 47.5q0 33 -40 50.5t-109 17.5h-23v51h23q63 0 99 15t36 47q0 30 -30.5 47t-69.5 17q-41 0 -70 -15t-45 -39l-37 43q20 29 62 45.5t90 16.5q34 0 63 -8.5
t50.5 -23.5t33.5 -35.5t12 -44.5q0 -35 -23.5 -57t-68.5 -31q48 -7 75.5 -36t27.5 -68q0 -27 -13.5 -48.5t-37 -35.5t-53.5 -21.5t-63 -7.5zM719 0v100h-226v53l243 253h38v-252h59v-54h-59v-100h-55zM550 154h171v180zM181 33l280 337l268 345l43 -37l-277 -335l-272 -348z
" />
    <glyph glyph-name="questiondown" unicode="&#xbf;" horiz-adv-x="475" 
d="M334 295q0 -54 -19 -94.5t-65 -69.5q-18 -12 -41.5 -25t-44.5 -30.5t-35.5 -42t-14.5 -58.5q0 -28 10.5 -49.5t27.5 -36t39 -22t46 -7.5q25 0 47.5 7.5t41.5 20.5t34 30.5t25 36.5l59 -39q-14 -31 -35.5 -55t-49.5 -40.5t-59.5 -25t-64.5 -8.5q-37 0 -73 11.5t-64 35.5
t-45 60t-17 85q0 38 10.5 65t27.5 47t40 35t48 29q18 10 36 21t31.5 26.5t22 37.5t8.5 55h74zM332 506v-116h-74v116h74z" />
    <glyph glyph-name="Agrave" unicode="&#xc0;" horiz-adv-x="678" 
d="M11 0l292 710h74l291 -710h-96l-84 208h-298l-83 -208h-96zM340 606l-132 -328h260zM236 917h87l59 -101l-57 -20z" />
    <glyph glyph-name="Aacute" unicode="&#xc1;" horiz-adv-x="678" 
d="M11 0l292 710h74l291 -710h-96l-84 208h-298l-83 -208h-96zM340 606l-132 -328h260zM355 795l-58 20l58 101h88z" />
    <glyph glyph-name="Acircumflex" unicode="&#xc2;" horiz-adv-x="678" 
d="M11 0l292 710h74l291 -710h-96l-84 208h-298l-83 -208h-96zM340 606l-132 -328h260zM207 826l101 90h64l101 -90l-48 -24l-85 63l-85 -63z" />
    <glyph glyph-name="Atilde" unicode="&#xc3;" horiz-adv-x="678" 
d="M11 0l292 710h74l291 -710h-96l-84 208h-298l-83 -208h-96zM340 606l-132 -328h260zM402 813q-23 0 -39.5 6.5t-31 14.5t-28.5 14.5t-30 6.5q-17 0 -26.5 -7t-14.5 -15.5t-6.5 -16.5t-1.5 -9h-52q0 6 4.5 23t15.5 35t30 31.5t49 13.5q21 0 37 -6.5t30.5 -15t29 -15
t32.5 -6.5q19 0 30 7t17 16t7.5 16.5t1.5 9.5h52q0 -6 -4.5 -22.5t-16.5 -34.5t-32.5 -32t-52.5 -14z" />
    <glyph glyph-name="Adieresis" unicode="&#xc4;" horiz-adv-x="678" 
d="M11 0l292 710h74l291 -710h-96l-84 208h-298l-83 -208h-96zM340 606l-132 -328h260zM222 811v102h74v-102h-74zM384 811v102h74v-102h-74z" />
    <glyph glyph-name="Aring" unicode="&#xc5;" horiz-adv-x="678" 
d="M11 0l292 710h74l291 -710h-96l-84 208h-298l-83 -208h-96zM340 606l-132 -328h260zM258 847q0 32 23 50.5t58 18.5q36 0 58.5 -18.5t22.5 -50.5t-22.5 -50.5t-58.5 -18.5q-35 0 -58 18.5t-23 50.5zM339 885q-17 0 -28.5 -10.5t-11.5 -27.5q0 -16 11.5 -27t28.5 -11
q16 0 28.5 10.5t12.5 27.5t-12 27.5t-29 10.5z" />
    <glyph glyph-name="AE" unicode="&#xc6;" horiz-adv-x="988" 
d="M448 710h488v-80h-375v-228h321v-80h-321v-242h384v-80h-473v208h-249l-130 -208h-98zM466 288v317l-203 -317h203z" />
    <glyph glyph-name="Ccedilla" unicode="&#xc7;" horiz-adv-x="684" 
d="M297 -126q13 -7 37.5 -13t50.5 -6q27 0 42 8t15 27q0 20 -14 27.5t-37 7.5q-21 0 -44 -4.5t-36 -8.5l44 83q-69 4 -127 37t-99.5 84t-64.5 115t-23 129q0 64 22.5 127.5t66 114t106.5 81.5t143 31q95 0 163 -43t101 -112l-71 -46q-16 34 -38.5 57t-49 37t-54.5 20t-55 6
q-59 0 -104.5 -24.5t-76.5 -64t-46.5 -89t-15.5 -99.5q0 -56 18.5 -106.5t51.5 -89.5t78 -62t98 -23q28 0 57.5 7t56.5 22.5t50.5 39t38.5 56.5l75 -41q-16 -37 -43.5 -66t-62 -50t-73 -33t-77.5 -15l-27 -43q8 3 18 4t18 1q35 0 57 -16t22 -48q0 -35 -28 -55t-82 -20
q-30 0 -55.5 5.5t-45.5 13.5z" />
    <glyph glyph-name="Egrave" unicode="&#xc8;" horiz-adv-x="610" 
d="M567 80v-80h-482v710h473v-80h-383v-230h333v-75h-333v-245h392zM230 917h87l59 -101l-57 -20z" />
    <glyph glyph-name="Eacute" unicode="&#xc9;" horiz-adv-x="610" 
d="M349 795l-58 20l58 101h88zM567 80v-80h-482v710h473v-80h-383v-230h333v-75h-333v-245h392z" />
    <glyph glyph-name="Ecircumflex" unicode="&#xca;" horiz-adv-x="610" 
d="M201 826l101 90h64l101 -90l-48 -24l-85 63l-85 -63zM567 80v-80h-482v710h473v-80h-383v-230h333v-75h-333v-245h392z" />
    <glyph glyph-name="Edieresis" unicode="&#xcb;" horiz-adv-x="610" 
d="M216 811v102h74v-102h-74zM378 811v102h74v-102h-74zM567 80v-80h-482v710h473v-80h-383v-230h333v-75h-333v-245h392z" />
    <glyph glyph-name="Igrave" unicode="&#xcc;" horiz-adv-x="260" 
d="M85 0v709h90v-709h-90zM26 917h87l59 -101l-57 -20z" />
    <glyph glyph-name="Iacute" unicode="&#xcd;" horiz-adv-x="260" 
d="M85 0v709h90v-709h-90zM145 795l-58 20l58 101h88z" />
    <glyph glyph-name="Icircumflex" unicode="&#xce;" horiz-adv-x="260" 
d="M85 0v709h90v-709h-90zM-3 826l101 90h64l101 -90l-48 -24l-85 63l-85 -63z" />
    <glyph glyph-name="Idieresis" unicode="&#xcf;" horiz-adv-x="260" 
d="M85 0v709h90v-709h-90zM12 811v102h74v-102h-74zM174 811v102h74v-102h-74z" />
    <glyph glyph-name="Eth" unicode="&#xd0;" horiz-adv-x="723" 
d="M90 0v323h-57v68h57v319h246q85 0 149.5 -28t107.5 -76t64.5 -112.5t21.5 -137.5q0 -81 -24 -146.5t-69 -112t-108.5 -72t-141.5 -25.5h-246zM588 356q0 60 -16.5 110.5t-49 86.5t-79.5 56.5t-107 20.5h-156v-239h161v-68h-161v-243h156q61 0 108.5 21t79 58t48 87.5
t16.5 109.5z" />
    <glyph glyph-name="Ntilde" unicode="&#xd1;" horiz-adv-x="770" 
d="M175 542v-542h-90v710h70l440 -553v552h90v-709h-76zM449 813q-23 0 -39.5 6.5t-31 14.5t-28.5 14.5t-30 6.5q-17 0 -26.5 -7t-14.5 -15.5t-6.5 -16.5t-1.5 -9h-52q0 6 4.5 23t15.5 35t30 31.5t49 13.5q21 0 37 -6.5t30.5 -15t29 -15t32.5 -6.5q19 0 30 7t17 16t7.5 16.5
t1.5 9.5h52q0 -6 -4.5 -22.5t-16.5 -34.5t-32.5 -32t-52.5 -14z" />
    <glyph glyph-name="Ograve" unicode="&#xd2;" horiz-adv-x="751" 
d="M375 -5q-75 0 -136.5 30.5t-105.5 81t-68 115.5t-24 133q0 71 25.5 136t70.5 115t106.5 79.5t133.5 29.5q75 0 136 -31.5t105 -82.5t68 -115.5t24 -131.5q0 -71 -25.5 -136t-70 -114.5t-106 -79t-133.5 -29.5zM132 355q0 -54 17.5 -104.5t49.5 -89.5t77 -62t100 -23
q57 0 102 24.5t76.5 64t48 89.5t16.5 101q0 54 -17.5 104.5t-50 89t-77 61.5t-98.5 23q-57 0 -102 -24t-76.5 -63t-48.5 -89t-17 -102zM273 917h87l59 -101l-57 -20z" />
    <glyph glyph-name="Oacute" unicode="&#xd3;" horiz-adv-x="751" 
d="M392 795l-58 20l58 101h88zM375 -5q-75 0 -136.5 30.5t-105.5 81t-68 115.5t-24 133q0 71 25.5 136t70.5 115t106.5 79.5t133.5 29.5q75 0 136 -31.5t105 -82.5t68 -115.5t24 -131.5q0 -71 -25.5 -136t-70 -114.5t-106 -79t-133.5 -29.5zM132 355q0 -54 17.5 -104.5
t49.5 -89.5t77 -62t100 -23q57 0 102 24.5t76.5 64t48 89.5t16.5 101q0 54 -17.5 104.5t-50 89t-77 61.5t-98.5 23q-57 0 -102 -24t-76.5 -63t-48.5 -89t-17 -102z" />
    <glyph glyph-name="Ocircumflex" unicode="&#xd4;" horiz-adv-x="751" 
d="M244 826l101 90h64l101 -90l-48 -24l-85 63l-85 -63zM375 -5q-75 0 -136.5 30.5t-105.5 81t-68 115.5t-24 133q0 71 25.5 136t70.5 115t106.5 79.5t133.5 29.5q75 0 136 -31.5t105 -82.5t68 -115.5t24 -131.5q0 -71 -25.5 -136t-70 -114.5t-106 -79t-133.5 -29.5z
M132 355q0 -54 17.5 -104.5t49.5 -89.5t77 -62t100 -23q57 0 102 24.5t76.5 64t48 89.5t16.5 101q0 54 -17.5 104.5t-50 89t-77 61.5t-98.5 23q-57 0 -102 -24t-76.5 -63t-48.5 -89t-17 -102z" />
    <glyph glyph-name="Otilde" unicode="&#xd5;" horiz-adv-x="751" 
d="M375 -5q-75 0 -136.5 30.5t-105.5 81t-68 115.5t-24 133q0 71 25.5 136t70.5 115t106.5 79.5t133.5 29.5q75 0 136 -31.5t105 -82.5t68 -115.5t24 -131.5q0 -71 -25.5 -136t-70 -114.5t-106 -79t-133.5 -29.5zM132 355q0 -54 17.5 -104.5t49.5 -89.5t77 -62t100 -23
q57 0 102 24.5t76.5 64t48 89.5t16.5 101q0 54 -17.5 104.5t-50 89t-77 61.5t-98.5 23q-57 0 -102 -24t-76.5 -63t-48.5 -89t-17 -102zM439 813q-23 0 -39.5 6.5t-31 14.5t-28.5 14.5t-30 6.5q-17 0 -26.5 -7t-14.5 -15.5t-6.5 -16.5t-1.5 -9h-52q0 6 4.5 23t15.5 35
t30 31.5t49 13.5q21 0 37 -6.5t30.5 -15t29 -15t32.5 -6.5q19 0 30 7t17 16t7.5 16.5t1.5 9.5h52q0 -6 -4.5 -22.5t-16.5 -34.5t-32.5 -32t-52.5 -14z" />
    <glyph glyph-name="Odieresis" unicode="&#xd6;" horiz-adv-x="751" 
d="M259 811v102h74v-102h-74zM421 811v102h74v-102h-74zM375 -5q-75 0 -136.5 30.5t-105.5 81t-68 115.5t-24 133q0 71 25.5 136t70.5 115t106.5 79.5t133.5 29.5q75 0 136 -31.5t105 -82.5t68 -115.5t24 -131.5q0 -71 -25.5 -136t-70 -114.5t-106 -79t-133.5 -29.5z
M132 355q0 -54 17.5 -104.5t49.5 -89.5t77 -62t100 -23q57 0 102 24.5t76.5 64t48 89.5t16.5 101q0 54 -17.5 104.5t-50 89t-77 61.5t-98.5 23q-57 0 -102 -24t-76.5 -63t-48.5 -89t-17 -102z" />
    <glyph glyph-name="multiply" unicode="&#xd7;" horiz-adv-x="467" 
d="M405 157l-56 -55l-116 116l-116 -116l-55 56l115 115l-113 114l56 55l113 -113l114 114l55 -56l-113 -114z" />
    <glyph glyph-name="Oslash" unicode="&#xd8;" horiz-adv-x="752" 
d="M665 710l-62 -92q51 -53 79 -122.5t28 -141.5q0 -71 -25.5 -136t-70 -114.5t-106 -79t-133.5 -29.5q-46 0 -87 11.5t-76 33.5l-27 -40h-98l61 91q-51 51 -79 120t-28 144q0 71 25.5 136t70.5 115t106.5 79.5t133.5 29.5q45 0 85.5 -12t75.5 -34l28 41h99zM619 355
q0 54 -17 103t-48 87l-296 -436q53 -33 118 -33q57 0 102 24.5t76.5 64t48 89.5t16.5 101zM132 355q0 -54 16.5 -104t48.5 -88l295 437q-53 33 -116 33q-57 0 -102 -24t-76.5 -63t-48.5 -89t-17 -102z" />
    <glyph glyph-name="Ugrave" unicode="&#xd9;" horiz-adv-x="753" 
d="M376 76q62 0 103 24t65.5 62.5t34.5 88t10 100.5v359h90v-359q0 -72 -16.5 -136.5t-52.5 -113.5t-93.5 -77.5t-139.5 -28.5q-85 0 -143 30t-93.5 79.5t-51 114t-15.5 132.5v359h90v-359q0 -53 10.5 -102.5t35 -87.5t65 -61.5t101.5 -23.5zM273 917h87l59 -101l-57 -20z
" />
    <glyph glyph-name="Uacute" unicode="&#xda;" horiz-adv-x="753" 
d="M392 795l-58 20l58 101h88zM376 76q62 0 103 24t65.5 62.5t34.5 88t10 100.5v359h90v-359q0 -72 -16.5 -136.5t-52.5 -113.5t-93.5 -77.5t-139.5 -28.5q-85 0 -143 30t-93.5 79.5t-51 114t-15.5 132.5v359h90v-359q0 -53 10.5 -102.5t35 -87.5t65 -61.5t101.5 -23.5z" />
    <glyph glyph-name="Ucircumflex" unicode="&#xdb;" horiz-adv-x="753" 
d="M244 826l101 90h64l101 -90l-48 -24l-85 63l-85 -63zM376 76q62 0 103 24t65.5 62.5t34.5 88t10 100.5v359h90v-359q0 -72 -16.5 -136.5t-52.5 -113.5t-93.5 -77.5t-139.5 -28.5q-85 0 -143 30t-93.5 79.5t-51 114t-15.5 132.5v359h90v-359q0 -53 10.5 -102.5t35 -87.5
t65 -61.5t101.5 -23.5z" />
    <glyph glyph-name="Udieresis" unicode="&#xdc;" horiz-adv-x="753" 
d="M259 811v102h74v-102h-74zM421 811v102h74v-102h-74zM376 76q62 0 103 24t65.5 62.5t34.5 88t10 100.5v359h90v-359q0 -72 -16.5 -136.5t-52.5 -113.5t-93.5 -77.5t-139.5 -28.5q-85 0 -143 30t-93.5 79.5t-51 114t-15.5 132.5v359h90v-359q0 -53 10.5 -102.5t35 -87.5
t65 -61.5t101.5 -23.5z" />
    <glyph glyph-name="Yacute" unicode="&#xdd;" horiz-adv-x="637" 
d="M103 710l215 -370l217 370h98l-270 -451v-259h-90v261l-269 449h99zM333 795l-58 20l58 101h88z" />
    <glyph glyph-name="Thorn" unicode="&#xde;" horiz-adv-x="606" 
d="M363 573q47 0 86.5 -19.5t68 -52t44.5 -73t16 -82.5q0 -44 -15 -85.5t-42.5 -73t-66 -50.5t-85.5 -19h-194v-118h-90v710h90v-137h188zM365 198q28 0 51 12.5t39 33t24.5 47t8.5 55.5q0 30 -10.5 56.5t-28 47t-41 32t-49.5 11.5h-184v-295h190z" />
    <glyph glyph-name="germandbls" unicode="&#xdf;" horiz-adv-x="553" 
d="M239 75q41 1 75 9t59 25t38.5 43.5t13.5 62.5q0 65 -41.5 103.5t-109.5 38.5h-19v80h18q48 0 78 28t30 75q0 25 -9 43.5t-24 30.5t-34.5 18t-40.5 6q-31 0 -53.5 -11t-37.5 -30t-22 -43t-7 -51v-503h-84v517q0 43 15.5 79.5t43 62.5t65.5 40.5t83 14.5q40 0 74.5 -11.5
t60 -33t40 -51t14.5 -65.5q0 -27 -8 -51.5t-21.5 -45t-31.5 -34.5t-39 -20q36 -8 64 -25.5t47.5 -43t29.5 -57.5t10 -68q0 -51 -20.5 -90.5t-57.5 -66t-88 -41t-111 -16.5v81z" />
    <glyph glyph-name="agrave" unicode="&#xe0;" horiz-adv-x="557" 
d="M210 -10q-39 0 -72 12.5t-57 34t-37.5 51t-13.5 62.5q0 37 16 67.5t45.5 52t70 33t88.5 11.5q38 0 77 -7t69 -19v42q0 64 -36 100.5t-102 36.5q-79 0 -166 -61l-29 57q51 34 101 51t104 17q100 0 158 -55t58 -155v-213q0 -31 28 -32v-76q-10 -2 -19 -3t-17 -1
q-22 0 -43 12t-23 41l-2 37q-18 -24 -41 -42t-49 -30t-53.5 -18t-54.5 -6zM232 56q42 0 82 18t63 44q19 22 19 41v77q-31 12 -65.5 18.5t-66.5 6.5q-68 0 -109 -27.5t-41 -75.5q0 -20 8 -38.5t23 -32.5t37 -22.5t50 -8.5zM162 730h87l59 -101l-57 -20z" />
    <glyph glyph-name="aacute" unicode="&#xe1;" horiz-adv-x="557" 
d="M210 -10q-39 0 -72 12.5t-57 34t-37.5 51t-13.5 62.5q0 37 16 67.5t45.5 52t70 33t88.5 11.5q38 0 77 -7t69 -19v42q0 64 -36 100.5t-102 36.5q-79 0 -166 -61l-29 57q51 34 101 51t104 17q100 0 158 -55t58 -155v-213q0 -31 28 -32v-76q-10 -2 -19 -3t-17 -1
q-22 0 -43 12t-23 41l-2 37q-18 -24 -41 -42t-49 -30t-53.5 -18t-54.5 -6zM232 56q42 0 82 18t63 44q19 22 19 41v77q-31 12 -65.5 18.5t-66.5 6.5q-68 0 -109 -27.5t-41 -75.5q0 -20 8 -38.5t23 -32.5t37 -22.5t50 -8.5zM281 609l-58 20l58 101h88z" />
    <glyph glyph-name="acircumflex" unicode="&#xe2;" horiz-adv-x="557" 
d="M210 -10q-39 0 -72 12.5t-57 34t-37.5 51t-13.5 62.5q0 37 16 67.5t45.5 52t70 33t88.5 11.5q38 0 77 -7t69 -19v42q0 64 -36 100.5t-102 36.5q-79 0 -166 -61l-29 57q51 34 101 51t104 17q100 0 158 -55t58 -155v-213q0 -31 28 -32v-76q-10 -2 -19 -3t-17 -1
q-22 0 -43 12t-23 41l-2 37q-18 -24 -41 -42t-49 -30t-53.5 -18t-54.5 -6zM232 56q42 0 82 18t63 44q19 22 19 41v77q-31 12 -65.5 18.5t-66.5 6.5q-68 0 -109 -27.5t-41 -75.5q0 -20 8 -38.5t23 -32.5t37 -22.5t50 -8.5zM133 640l101 90h64l101 -90l-48 -24l-85 63l-85 -63
z" />
    <glyph glyph-name="atilde" unicode="&#xe3;" horiz-adv-x="557" 
d="M210 -10q-39 0 -72 12.5t-57 34t-37.5 51t-13.5 62.5q0 37 16 67.5t45.5 52t70 33t88.5 11.5q38 0 77 -7t69 -19v42q0 64 -36 100.5t-102 36.5q-79 0 -166 -61l-29 57q51 34 101 51t104 17q100 0 158 -55t58 -155v-213q0 -31 28 -32v-76q-10 -2 -19 -3t-17 -1
q-22 0 -43 12t-23 41l-2 37q-18 -24 -41 -42t-49 -30t-53.5 -18t-54.5 -6zM232 56q42 0 82 18t63 44q19 22 19 41v77q-31 12 -65.5 18.5t-66.5 6.5q-68 0 -109 -27.5t-41 -75.5q0 -20 8 -38.5t23 -32.5t37 -22.5t50 -8.5zM328 627q-23 0 -39.5 6.5t-31 14.5t-28.5 14.5
t-30 6.5q-17 0 -26.5 -7t-14.5 -15.5t-6.5 -16.5t-1.5 -9h-52q0 6 4.5 23t15.5 35t30 31.5t49 13.5q21 0 37 -6.5t30.5 -15t29 -15t32.5 -6.5q19 0 30 7t17 16t7.5 16.5t1.5 9.5h52q0 -6 -4.5 -22.5t-16.5 -34.5t-32.5 -32t-52.5 -14z" />
    <glyph glyph-name="adieresis" unicode="&#xe4;" horiz-adv-x="557" 
d="M210 -10q-39 0 -72 12.5t-57 34t-37.5 51t-13.5 62.5q0 37 16 67.5t45.5 52t70 33t88.5 11.5q38 0 77 -7t69 -19v42q0 64 -36 100.5t-102 36.5q-79 0 -166 -61l-29 57q51 34 101 51t104 17q100 0 158 -55t58 -155v-213q0 -31 28 -32v-76q-10 -2 -19 -3t-17 -1
q-22 0 -43 12t-23 41l-2 37q-18 -24 -41 -42t-49 -30t-53.5 -18t-54.5 -6zM232 56q42 0 82 18t63 44q19 22 19 41v77q-31 12 -65.5 18.5t-66.5 6.5q-68 0 -109 -27.5t-41 -75.5q0 -20 8 -38.5t23 -32.5t37 -22.5t50 -8.5zM148 624v102h74v-102h-74zM310 624v102h74v-102h-74
z" />
    <glyph glyph-name="aring" unicode="&#xe5;" horiz-adv-x="557" 
d="M210 -10q-39 0 -72 12.5t-57 34t-37.5 51t-13.5 62.5q0 37 16 67.5t45.5 52t70 33t88.5 11.5q38 0 77 -7t69 -19v42q0 64 -36 100.5t-102 36.5q-79 0 -166 -61l-29 57q51 34 101 51t104 17q100 0 158 -55t58 -155v-213q0 -31 28 -32v-76q-10 -2 -19 -3t-17 -1
q-22 0 -43 12t-23 41l-2 37q-18 -24 -41 -42t-49 -30t-53.5 -18t-54.5 -6zM232 56q42 0 82 18t63 44q19 22 19 41v77q-31 12 -65.5 18.5t-66.5 6.5q-68 0 -109 -27.5t-41 -75.5q0 -20 8 -38.5t23 -32.5t37 -22.5t50 -8.5zM184 661q0 32 23 50.5t58 18.5q36 0 58.5 -18.5
t22.5 -50.5t-22.5 -50.5t-58.5 -18.5q-35 0 -58 18.5t-23 50.5zM265 699q-17 0 -28.5 -10.5t-11.5 -27.5q0 -16 11.5 -27t28.5 -11q16 0 28.5 10.5t12.5 27.5t-12 27.5t-29 10.5z" />
    <glyph glyph-name="ae" unicode="&#xe6;" horiz-adv-x="934" 
d="M206 -10q-37 0 -68.5 12.5t-55 34.5t-37 51.5t-13.5 64.5q0 36 16 65.5t45 50.5t69.5 33t88.5 12q34 0 67.5 -5.5t61.5 -14.5q2 16 5 34t9 32q-8 51 -42.5 79t-92.5 28q-78 0 -166 -61l-29 57q103 68 203 68q64 0 110 -25t71 -70q33 43 83 69t112 26q59 0 108 -21.5
t83.5 -58.5t54 -86t19.5 -104q0 -6 -0.5 -15.5t-1.5 -14.5h-443q3 -39 19 -71t41 -55t57.5 -36t68.5 -13q24 0 47 6.5t43 17.5t35.5 27t23.5 36l76 -21q-13 -29 -35.5 -53t-52 -41.5t-65.5 -27.5t-75 -10q-71 0 -127 31t-91 82q-17 -30 -43 -51.5t-56 -35t-62 -20t-61 -6.5z
M229 56q48 0 88 17.5t62 46.5q17 17 19 35q-8 17 -12.5 42.5t-5.5 44.5q-27 9 -57 14t-59 5q-66 0 -107.5 -28t-41.5 -73q0 -22 9 -41t24 -33t36 -22t45 -8zM824 288q-3 39 -18 71.5t-39 56t-56 36.5t-69 13t-69 -13t-56 -36.5t-38.5 -56t-16.5 -71.5h362z" />
    <glyph glyph-name="ccedilla" unicode="&#xe7;" horiz-adv-x="556" 
d="M225 -126q13 -7 37.5 -13t50.5 -6q27 0 42 8t15 27q0 20 -14 27.5t-37 7.5q-21 0 -44 -4.5t-36 -8.5l42 79q-54 4 -99 27t-77.5 60t-50 84t-17.5 100q0 55 19 104t54 85.5t83.5 58t108.5 21.5q78 0 134.5 -34.5t85.5 -92.5l-86 -27q-20 37 -56 57.5t-80 20.5
q-36 0 -68 -14.5t-55 -40.5t-36.5 -61t-13.5 -77q0 -41 14 -77t37.5 -62.5t55 -41.5t67.5 -15q23 0 45.5 6.5t41 17.5t32.5 25.5t20 31.5l86 -26q-22 -54 -75.5 -89t-124.5 -41l-25 -39q8 3 18 4t18 1q35 0 57 -16t22 -48q0 -35 -28 -55t-82 -20q-30 0 -55.5 5.5t-45.5 13.5
z" />
    <glyph glyph-name="egrave" unicode="&#xe8;" horiz-adv-x="591" 
d="M302 -10q-59 0 -108 21.5t-84 58.5t-54.5 86.5t-19.5 104.5t19.5 104t55 86t84.5 58.5t108 21.5t107.5 -22t82.5 -58.5t52.5 -85t18.5 -100.5q0 -11 -0.5 -20t-1.5 -14h-433q3 -39 18 -71t39 -55t54.5 -36t64.5 -13q24 0 47 6.5t43 17.5t35.5 27t23.5 36l76 -21
q-13 -29 -35.5 -53t-52 -41.5t-65.5 -27.5t-75 -10zM481 296q-3 37 -18.5 68.5t-39 53.5t-54.5 34.5t-66 12.5t-66 -12.5t-54.5 -35t-38 -53.5t-17.5 -68h354zM195 730h87l59 -101l-57 -20z" />
    <glyph glyph-name="eacute" unicode="&#xe9;" horiz-adv-x="591" 
d="M314 609l-58 20l58 101h88zM302 -10q-59 0 -108 21.5t-84 58.5t-54.5 86.5t-19.5 104.5t19.5 104t55 86t84.5 58.5t108 21.5t107.5 -22t82.5 -58.5t52.5 -85t18.5 -100.5q0 -11 -0.5 -20t-1.5 -14h-433q3 -39 18 -71t39 -55t54.5 -36t64.5 -13q24 0 47 6.5t43 17.5
t35.5 27t23.5 36l76 -21q-13 -29 -35.5 -53t-52 -41.5t-65.5 -27.5t-75 -10zM481 296q-3 37 -18.5 68.5t-39 53.5t-54.5 34.5t-66 12.5t-66 -12.5t-54.5 -35t-38 -53.5t-17.5 -68h354z" />
    <glyph glyph-name="ecircumflex" unicode="&#xea;" horiz-adv-x="591" 
d="M166 640l101 90h64l101 -90l-48 -24l-85 63l-85 -63zM302 -10q-59 0 -108 21.5t-84 58.5t-54.5 86.5t-19.5 104.5t19.5 104t55 86t84.5 58.5t108 21.5t107.5 -22t82.5 -58.5t52.5 -85t18.5 -100.5q0 -11 -0.5 -20t-1.5 -14h-433q3 -39 18 -71t39 -55t54.5 -36t64.5 -13
q24 0 47 6.5t43 17.5t35.5 27t23.5 36l76 -21q-13 -29 -35.5 -53t-52 -41.5t-65.5 -27.5t-75 -10zM481 296q-3 37 -18.5 68.5t-39 53.5t-54.5 34.5t-66 12.5t-66 -12.5t-54.5 -35t-38 -53.5t-17.5 -68h354z" />
    <glyph glyph-name="edieresis" unicode="&#xeb;" horiz-adv-x="591" 
d="M181 624v102h74v-102h-74zM343 624v102h74v-102h-74zM302 -10q-59 0 -108 21.5t-84 58.5t-54.5 86.5t-19.5 104.5t19.5 104t55 86t84.5 58.5t108 21.5t107.5 -22t82.5 -58.5t52.5 -85t18.5 -100.5q0 -11 -0.5 -20t-1.5 -14h-433q3 -39 18 -71t39 -55t54.5 -36t64.5 -13
q24 0 47 6.5t43 17.5t35.5 27t23.5 36l76 -21q-13 -29 -35.5 -53t-52 -41.5t-65.5 -27.5t-75 -10zM481 296q-3 37 -18.5 68.5t-39 53.5t-54.5 34.5t-66 12.5t-66 -12.5t-54.5 -35t-38 -53.5t-17.5 -68h354z" />
    <glyph glyph-name="igrave" unicode="&#xec;" 
d="M69 0v522h88v-522h-88zM9 730h87l59 -101l-57 -20z" />
    <glyph glyph-name="iacute" unicode="&#xed;" 
d="M128 609l-58 20l58 101h88zM69 0v522h88v-522h-88z" />
    <glyph glyph-name="icircumflex" unicode="&#xee;" 
d="M-20 640l101 90h64l101 -90l-48 -24l-85 63l-85 -63zM69 0v522h88v-522h-88z" />
    <glyph glyph-name="idieresis" unicode="&#xef;" 
d="M-5 624v102h74v-102h-74zM157 624v102h74v-102h-74zM69 0v522h88v-522h-88z" />
    <glyph glyph-name="eth" unicode="&#xf0;" horiz-adv-x="606" 
d="M504 676l-78 -46q39 -41 65.5 -85.5t43 -88.5t23.5 -86.5t7 -79.5q0 -70 -21.5 -125.5t-58.5 -94.5t-86 -59.5t-103 -20.5q-53 0 -100 19t-82 51.5t-55.5 77t-20.5 95.5q0 49 19 92.5t52 76.5t77.5 52t95.5 19q63 0 114.5 -28.5t78.5 -76.5q-10 60 -36 116t-80 112
l-107 -64l-27 37l99 59q-59 52 -148 102h124q51 -30 93 -68l84 51zM128 233q0 -35 13.5 -65.5t36.5 -53t54 -35.5t67 -13q37 0 69 14t56 37.5t37.5 55t13.5 66.5q0 34 -13.5 64t-37 51.5t-54.5 34t-67 12.5q-37 0 -69 -13t-55.5 -36t-37 -53.5t-13.5 -65.5z" />
    <glyph glyph-name="ntilde" unicode="&#xf1;" horiz-adv-x="586" 
d="M522 0h-88v292q0 84 -25.5 122t-77.5 38q-27 0 -54 -10.5t-51 -28.5t-42 -43t-27 -55v-315h-88v522h80v-112q31 55 89.5 88t127.5 33q45 0 75 -16.5t48 -46t25.5 -69.5t7.5 -87v-312zM363 627q-23 0 -39.5 6.5t-31 14.5t-28.5 14.5t-30 6.5q-17 0 -26.5 -7t-14.5 -15.5
t-6.5 -16.5t-1.5 -9h-52q0 6 4.5 23t15.5 35t30 31.5t49 13.5q21 0 37 -6.5t30.5 -15t29 -15t32.5 -6.5q19 0 30 7t17 16t7.5 16.5t1.5 9.5h52q0 -6 -4.5 -22.5t-16.5 -34.5t-32.5 -32t-52.5 -14z" />
    <glyph glyph-name="ograve" unicode="&#xf2;" horiz-adv-x="598" 
d="M299 -10q-59 0 -107.5 22t-83 59t-53.5 86t-19 103q0 55 19.5 104t54 86t83 59t106.5 22t107 -22t83.5 -59t54 -86t19.5 -104q0 -54 -19 -103t-54 -86t-83.5 -59t-107.5 -22zM126 259q0 -41 13.5 -76t37 -61t55 -41t67.5 -15t67.5 15t55.5 41.5t37.5 62t13.5 76.5
q0 40 -13.5 75.5t-37.5 62t-55.5 41.5t-67.5 15t-67.5 -15.5t-55 -42t-37 -62t-13.5 -76.5zM196 730h87l59 -101l-57 -20z" />
    <glyph glyph-name="oacute" unicode="&#xf3;" horiz-adv-x="598" 
d="M314 609l-58 20l58 101h88zM299 -10q-59 0 -107.5 22t-83 59t-53.5 86t-19 103q0 55 19.5 104t54 86t83 59t106.5 22t107 -22t83.5 -59t54 -86t19.5 -104q0 -54 -19 -103t-54 -86t-83.5 -59t-107.5 -22zM126 259q0 -41 13.5 -76t37 -61t55 -41t67.5 -15t67.5 15
t55.5 41.5t37.5 62t13.5 76.5q0 40 -13.5 75.5t-37.5 62t-55.5 41.5t-67.5 15t-67.5 -15.5t-55 -42t-37 -62t-13.5 -76.5z" />
    <glyph glyph-name="ocircumflex" unicode="&#xf4;" horiz-adv-x="598" 
d="M166 640l101 90h64l101 -90l-48 -24l-85 63l-85 -63zM299 -10q-59 0 -107.5 22t-83 59t-53.5 86t-19 103q0 55 19.5 104t54 86t83 59t106.5 22t107 -22t83.5 -59t54 -86t19.5 -104q0 -54 -19 -103t-54 -86t-83.5 -59t-107.5 -22zM126 259q0 -41 13.5 -76t37 -61t55 -41
t67.5 -15t67.5 15t55.5 41.5t37.5 62t13.5 76.5q0 40 -13.5 75.5t-37.5 62t-55.5 41.5t-67.5 15t-67.5 -15.5t-55 -42t-37 -62t-13.5 -76.5z" />
    <glyph glyph-name="otilde" unicode="&#xf5;" horiz-adv-x="598" 
d="M299 -10q-59 0 -107.5 22t-83 59t-53.5 86t-19 103q0 55 19.5 104t54 86t83 59t106.5 22t107 -22t83.5 -59t54 -86t19.5 -104q0 -54 -19 -103t-54 -86t-83.5 -59t-107.5 -22zM126 259q0 -41 13.5 -76t37 -61t55 -41t67.5 -15t67.5 15t55.5 41.5t37.5 62t13.5 76.5
q0 40 -13.5 75.5t-37.5 62t-55.5 41.5t-67.5 15t-67.5 -15.5t-55 -42t-37 -62t-13.5 -76.5zM362 627q-23 0 -39.5 6.5t-31 14.5t-28.5 14.5t-30 6.5q-17 0 -26.5 -7t-14.5 -15.5t-6.5 -16.5t-1.5 -9h-52q0 6 4.5 23t15.5 35t30 31.5t49 13.5q21 0 37 -6.5t30.5 -15t29 -15
t32.5 -6.5q19 0 30 7t17 16t7.5 16.5t1.5 9.5h52q0 -6 -4.5 -22.5t-16.5 -34.5t-32.5 -32t-52.5 -14z" />
    <glyph glyph-name="odieresis" unicode="&#xf6;" horiz-adv-x="598" 
d="M181 624v102h74v-102h-74zM343 624v102h74v-102h-74zM299 -10q-59 0 -107.5 22t-83 59t-53.5 86t-19 103q0 55 19.5 104t54 86t83 59t106.5 22t107 -22t83.5 -59t54 -86t19.5 -104q0 -54 -19 -103t-54 -86t-83.5 -59t-107.5 -22zM126 259q0 -41 13.5 -76t37 -61t55 -41
t67.5 -15t67.5 15t55.5 41.5t37.5 62t13.5 76.5q0 40 -13.5 75.5t-37.5 62t-55.5 41.5t-67.5 15t-67.5 -15.5t-55 -42t-37 -62t-13.5 -76.5z" />
    <glyph glyph-name="divide" unicode="&#xf7;" horiz-adv-x="527" 
d="M226 405v102h75v-102h-75zM226 66v102h75v-102h-75zM62 251v72h403v-72h-403z" />
    <glyph glyph-name="oslash" unicode="&#xf8;" horiz-adv-x="598" 
d="M125 54q-42 38 -65.5 91.5t-23.5 114.5q0 55 19.5 104t54 86t83 59t106.5 22q39 0 74 -10t64 -28l24 31h56l-45 -57q43 -38 67 -92t24 -115q0 -54 -19 -103t-54 -86t-83.5 -59t-107.5 -22q-78 0 -140 39l-24 -31h-55zM299 66q36 0 67.5 15t55.5 41.5t37.5 62t13.5 76.5
q0 42 -14.5 77.5t-38.5 61.5l-212 -306q40 -28 91 -28zM126 259q0 -42 14 -77.5t38 -61.5l211 307q-20 13 -42.5 20.5t-47.5 7.5q-36 0 -67.5 -15.5t-55 -42t-37 -62t-13.5 -76.5z" />
    <glyph glyph-name="ugrave" unicode="&#xf9;" horiz-adv-x="603" 
d="M230 -10q-82 0 -124 55t-42 164v313h88v-296q0 -160 111 -160q54 0 101.5 34.5t70.5 94.5v327h88v-414q0 -31 28 -32v-76q-11 -2 -19.5 -3t-15.5 -1q-30 0 -47 14.5t-19 38.5l-3 63q-35 -59 -92 -90.5t-125 -31.5zM189 730h87l59 -101l-57 -20z" />
    <glyph glyph-name="uacute" unicode="&#xfa;" horiz-adv-x="603" 
d="M307 609l-58 20l58 101h88zM230 -10q-82 0 -124 55t-42 164v313h88v-296q0 -160 111 -160q54 0 101.5 34.5t70.5 94.5v327h88v-414q0 -31 28 -32v-76q-11 -2 -19.5 -3t-15.5 -1q-30 0 -47 14.5t-19 38.5l-3 63q-35 -59 -92 -90.5t-125 -31.5z" />
    <glyph glyph-name="ucircumflex" unicode="&#xfb;" horiz-adv-x="603" 
d="M159 640l101 90h64l101 -90l-48 -24l-85 63l-85 -63zM230 -10q-82 0 -124 55t-42 164v313h88v-296q0 -160 111 -160q54 0 101.5 34.5t70.5 94.5v327h88v-414q0 -31 28 -32v-76q-11 -2 -19.5 -3t-15.5 -1q-30 0 -47 14.5t-19 38.5l-3 63q-35 -59 -92 -90.5t-125 -31.5z
" />
    <glyph glyph-name="udieresis" unicode="&#xfc;" horiz-adv-x="603" 
d="M174 624v102h74v-102h-74zM336 624v102h74v-102h-74zM230 -10q-82 0 -124 55t-42 164v313h88v-296q0 -160 111 -160q54 0 101.5 34.5t70.5 94.5v327h88v-414q0 -31 28 -32v-76q-11 -2 -19.5 -3t-15.5 -1q-30 0 -47 14.5t-19 38.5l-3 63q-35 -59 -92 -90.5t-125 -31.5z
" />
    <glyph glyph-name="yacute" unicode="&#xfd;" horiz-adv-x="543" 
d="M92 -143q27 -3 48 -3q9 0 17 4t18 19t23 44t32 79l-221 522h91l178 -443l162 443h84l-256 -659q-18 -47 -52 -67.5t-80 -20.5q-11 0 -22 1t-22 4v77zM293 609l-58 20l58 101h88z" />
    <glyph glyph-name="thorn" unicode="&#xfe;" horiz-adv-x="601" 
d="M566 257q-1 -54 -21 -104t-55 -88t-81.5 -60.5t-100.5 -22.5q-52 0 -91 23.5t-58 54.5v-273h-90v923h90v-261q24 34 61.5 59.5t96.5 25.5q58 0 104 -24.5t78 -64.5t49.5 -89.5t17.5 -98.5zM476 258q0 39 -11.5 74.5t-33 62.5t-52 43t-67.5 16q-27 0 -50 -9t-42 -24
t-34.5 -35t-26.5 -42v-171q0 -21 14 -41t36 -35.5t47.5 -25t49.5 -9.5q37 0 68.5 16.5t54 43.5t35 62.5t12.5 73.5z" />
    <glyph glyph-name="ydieresis" unicode="&#xff;" horiz-adv-x="543" 
d="M92 -143q27 -3 48 -3q9 0 17 4t18 19t23 44t32 79l-221 522h91l178 -443l162 443h84l-256 -659q-18 -47 -52 -67.5t-80 -20.5q-11 0 -22 1t-22 4v77zM160 624v102h74v-102h-74zM322 624v102h74v-102h-74z" />
    <glyph glyph-name="Amacron" unicode="&#x100;" horiz-adv-x="678" 
d="M11 0l292 710h74l291 -710h-96l-84 208h-298l-83 -208h-96zM340 606l-132 -328h260zM194 840v58h292v-58h-292z" />
    <glyph glyph-name="amacron" unicode="&#x101;" horiz-adv-x="557" 
d="M210 -10q-39 0 -72 12.5t-57 34t-37.5 51t-13.5 62.5q0 37 16 67.5t45.5 52t70 33t88.5 11.5q38 0 77 -7t69 -19v42q0 64 -36 100.5t-102 36.5q-79 0 -166 -61l-29 57q51 34 101 51t104 17q100 0 158 -55t58 -155v-213q0 -31 28 -32v-76q-10 -2 -19 -3t-17 -1
q-22 0 -43 12t-23 41l-2 37q-18 -24 -41 -42t-49 -30t-53.5 -18t-54.5 -6zM232 56q42 0 82 18t63 44q19 22 19 41v77q-31 12 -65.5 18.5t-66.5 6.5q-68 0 -109 -27.5t-41 -75.5q0 -20 8 -38.5t23 -32.5t37 -22.5t50 -8.5zM120 654v58h292v-58h-292z" />
    <glyph glyph-name="Abreve" unicode="&#x102;" horiz-adv-x="678" 
d="M11 0l292 710h74l291 -710h-96l-84 208h-298l-83 -208h-96zM340 606l-132 -328h260zM340 848q22 0 38.5 19.5t19.5 48.5h50q0 -24 -8.5 -44t-23 -35t-34 -23.5t-42.5 -8.5t-42.5 8.5t-34 23.5t-23 35t-8.5 44h51q0 -27 17 -47.5t40 -20.5z" />
    <glyph glyph-name="abreve" unicode="&#x103;" horiz-adv-x="557" 
d="M210 -10q-39 0 -72 12.5t-57 34t-37.5 51t-13.5 62.5q0 37 16 67.5t45.5 52t70 33t88.5 11.5q38 0 77 -7t69 -19v42q0 64 -36 100.5t-102 36.5q-79 0 -166 -61l-29 57q51 34 101 51t104 17q100 0 158 -55t58 -155v-213q0 -31 28 -32v-76q-10 -2 -19 -3t-17 -1
q-22 0 -43 12t-23 41l-2 37q-18 -24 -41 -42t-49 -30t-53.5 -18t-54.5 -6zM232 56q42 0 82 18t63 44q19 22 19 41v77q-31 12 -65.5 18.5t-66.5 6.5q-68 0 -109 -27.5t-41 -75.5q0 -20 8 -38.5t23 -32.5t37 -22.5t50 -8.5zM266 662q22 0 38.5 19.5t19.5 48.5h50
q0 -24 -8.5 -44t-23 -35t-34 -23.5t-42.5 -8.5t-42.5 8.5t-34 23.5t-23 35t-8.5 44h51q0 -27 17 -47.5t40 -20.5z" />
    <glyph glyph-name="Aogonek" unicode="&#x104;" horiz-adv-x="678" 
d="M619 -180q-42 8 -63 28.5t-21 48.5q0 52 76 103h-39l-84 208h-298l-83 -208h-96l292 710h74l290 -709h1h-1l1 -1h-2q-43 -26 -61.5 -47.5t-18.5 -43.5q0 -37 55 -43zM340 606l-132 -328h260z" />
    <glyph glyph-name="aogonek" unicode="&#x105;" horiz-adv-x="557" 
d="M463 -181q-42 8 -63 28.5t-21 48.5q0 26 18 51.5t57 51.5q-17 5 -30 16.5t-14 33.5l-2 37q-18 -24 -41 -42t-49 -30t-53.5 -18t-54.5 -6q-39 0 -72 12.5t-57 34t-37.5 51t-13.5 62.5q0 37 16 67.5t45.5 52t70 33t88.5 11.5q38 0 77 -7t69 -19v42q0 64 -36 100.5
t-102 36.5q-79 0 -166 -61l-29 57q51 34 101 51t104 17q100 0 158 -55t58 -155v-213q0 -31 28 -32v-76q-44 -27 -63 -48.5t-19 -43.5q0 -37 55 -43zM232 56q42 0 82 18t63 44q19 22 19 41v77q-31 12 -65.5 18.5t-66.5 6.5q-68 0 -109 -27.5t-41 -75.5q0 -20 8 -38.5
t23 -32.5t37 -22.5t50 -8.5z" />
    <glyph glyph-name="Cacute" unicode="&#x106;" horiz-adv-x="683" 
d="M392 795l-58 20l58 101h88zM40 360q0 64 22.5 127.5t66 114t106.5 81.5t143 31q95 0 163 -43t101 -112l-71 -46q-16 34 -38.5 57t-49 37t-54.5 20t-55 6q-59 0 -104.5 -24.5t-76.5 -64t-46.5 -89t-15.5 -99.5q0 -56 18.5 -106.5t51.5 -89.5t78 -62t98 -23q28 0 57.5 7
t56.5 22.5t50.5 39t38.5 56.5l75 -41q-17 -40 -47.5 -70.5t-69 -51.5t-81.5 -32t-84 -11q-73 0 -134 32t-105.5 83.5t-69 117t-24.5 133.5z" />
    <glyph glyph-name="cacute" unicode="&#x107;" horiz-adv-x="554" 
d="M315 609l-58 20l58 101h88zM36 262q0 55 19 104t54 85.5t83.5 58t108.5 21.5q78 0 134.5 -34.5t85.5 -92.5l-86 -27q-20 37 -56 57.5t-80 20.5q-36 0 -68 -14.5t-55 -40.5t-36.5 -61t-13.5 -77q0 -41 14 -77t37.5 -62.5t55 -41.5t67.5 -15q23 0 45.5 6.5t41 17.5
t32.5 25.5t20 31.5l86 -26q-12 -29 -33.5 -53t-50.5 -41t-64.5 -27t-74.5 -10q-59 0 -108 22t-84 59t-54.5 86.5t-19.5 104.5z" />
    <glyph glyph-name="Ccircumflex" unicode="&#x108;" horiz-adv-x="683" 
d="M244 826l101 90h64l101 -90l-48 -24l-85 63l-85 -63zM40 360q0 64 22.5 127.5t66 114t106.5 81.5t143 31q95 0 163 -43t101 -112l-71 -46q-16 34 -38.5 57t-49 37t-54.5 20t-55 6q-59 0 -104.5 -24.5t-76.5 -64t-46.5 -89t-15.5 -99.5q0 -56 18.5 -106.5t51.5 -89.5
t78 -62t98 -23q28 0 57.5 7t56.5 22.5t50.5 39t38.5 56.5l75 -41q-17 -40 -47.5 -70.5t-69 -51.5t-81.5 -32t-84 -11q-73 0 -134 32t-105.5 83.5t-69 117t-24.5 133.5z" />
    <glyph glyph-name="ccircumflex" unicode="&#x109;" horiz-adv-x="554" 
d="M167 640l101 90h64l101 -90l-48 -24l-85 63l-85 -63zM36 262q0 55 19 104t54 85.5t83.5 58t108.5 21.5q78 0 134.5 -34.5t85.5 -92.5l-86 -27q-20 37 -56 57.5t-80 20.5q-36 0 -68 -14.5t-55 -40.5t-36.5 -61t-13.5 -77q0 -41 14 -77t37.5 -62.5t55 -41.5t67.5 -15
q23 0 45.5 6.5t41 17.5t32.5 25.5t20 31.5l86 -26q-12 -29 -33.5 -53t-50.5 -41t-64.5 -27t-74.5 -10q-59 0 -108 22t-84 59t-54.5 86.5t-19.5 104.5z" />
    <glyph glyph-name="Cdotaccent" unicode="&#x10a;" horiz-adv-x="683" 
d="M40 360q0 64 22.5 127.5t66 114t106.5 81.5t143 31q95 0 163 -43t101 -112l-71 -46q-16 34 -38.5 57t-49 37t-54.5 20t-55 6q-59 0 -104.5 -24.5t-76.5 -64t-46.5 -89t-15.5 -99.5q0 -56 18.5 -106.5t51.5 -89.5t78 -62t98 -23q28 0 57.5 7t56.5 22.5t50.5 39t38.5 56.5
l75 -41q-17 -40 -47.5 -70.5t-69 -51.5t-81.5 -32t-84 -11q-73 0 -134 32t-105.5 83.5t-69 117t-24.5 133.5zM337 810v106h80v-106h-80z" />
    <glyph glyph-name="cdotaccent" unicode="&#x10b;" horiz-adv-x="554" 
d="M36 262q0 55 19 104t54 85.5t83.5 58t108.5 21.5q78 0 134.5 -34.5t85.5 -92.5l-86 -27q-20 37 -56 57.5t-80 20.5q-36 0 -68 -14.5t-55 -40.5t-36.5 -61t-13.5 -77q0 -41 14 -77t37.5 -62.5t55 -41.5t67.5 -15q23 0 45.5 6.5t41 17.5t32.5 25.5t20 31.5l86 -26
q-12 -29 -33.5 -53t-50.5 -41t-64.5 -27t-74.5 -10q-59 0 -108 22t-84 59t-54.5 86.5t-19.5 104.5zM260 624v106h80v-106h-80z" />
    <glyph glyph-name="Ccaron" unicode="&#x10c;" horiz-adv-x="683" 
d="M292 916l85 -63l85 63l48 -24l-101 -90h-64l-101 90zM40 360q0 64 22.5 127.5t66 114t106.5 81.5t143 31q95 0 163 -43t101 -112l-71 -46q-16 34 -38.5 57t-49 37t-54.5 20t-55 6q-59 0 -104.5 -24.5t-76.5 -64t-46.5 -89t-15.5 -99.5q0 -56 18.5 -106.5t51.5 -89.5
t78 -62t98 -23q28 0 57.5 7t56.5 22.5t50.5 39t38.5 56.5l75 -41q-17 -40 -47.5 -70.5t-69 -51.5t-81.5 -32t-84 -11q-73 0 -134 32t-105.5 83.5t-69 117t-24.5 133.5z" />
    <glyph glyph-name="ccaron" unicode="&#x10d;" horiz-adv-x="554" 
d="M215 730l85 -63l85 63l48 -24l-101 -90h-64l-101 90zM36 262q0 55 19 104t54 85.5t83.5 58t108.5 21.5q78 0 134.5 -34.5t85.5 -92.5l-86 -27q-20 37 -56 57.5t-80 20.5q-36 0 -68 -14.5t-55 -40.5t-36.5 -61t-13.5 -77q0 -41 14 -77t37.5 -62.5t55 -41.5t67.5 -15
q23 0 45.5 6.5t41 17.5t32.5 25.5t20 31.5l86 -26q-12 -29 -33.5 -53t-50.5 -41t-64.5 -27t-74.5 -10q-59 0 -108 22t-84 59t-54.5 86.5t-19.5 104.5z" />
    <glyph glyph-name="Dcaron" unicode="&#x10e;" horiz-adv-x="718" 
d="M255 916l85 -63l85 63l48 -24l-101 -90h-64l-101 90zM85 0v710h246q85 0 149.5 -28t107.5 -76t64.5 -112.5t21.5 -137.5q0 -81 -24 -146.5t-69 -112t-108.5 -72t-141.5 -25.5h-246zM583 356q0 60 -16.5 110.5t-49 86.5t-79.5 56.5t-107 20.5h-156v-550h156q61 0 108.5 21
t79 58t48 87.5t16.5 109.5z" />
    <glyph glyph-name="dcaron" unicode="&#x10f;" horiz-adv-x="631" 
d="M643 609l-58 20l58 101h88zM285 -10q-54 0 -100 22t-79 59t-51.5 86t-18.5 103q0 55 17.5 104.5t49 86.5t75 58.5t95.5 21.5q63 0 112.5 -33t78.5 -80v312h88v-622q0 -31 28 -32v-76q-11 -2 -19.5 -3t-15.5 -1q-30 0 -48 15.5t-19 37.5l-2 49q-31 -51 -82.5 -79.5
t-108.5 -28.5zM306 66q24 0 49.5 9t48 25t39 37.5t21.5 45.5v150q-9 25 -27 47.5t-40.5 39t-48 26t-50.5 9.5q-39 0 -70.5 -16.5t-54 -44t-34.5 -63t-12 -72.5q0 -39 14 -74.5t38 -61.5t56.5 -41.5t70.5 -15.5z" />
    <glyph glyph-name="Dcroat" unicode="&#x110;" horiz-adv-x="723" 
d="M90 0v323h-57v68h57v319h246q85 0 149.5 -28t107.5 -76t64.5 -112.5t21.5 -137.5q0 -81 -24 -146.5t-69 -112t-108.5 -72t-141.5 -25.5h-246zM588 356q0 60 -16.5 110.5t-49 86.5t-79.5 56.5t-107 20.5h-156v-239h161v-68h-161v-243h156q61 0 108.5 21t79 58t48 87.5
t16.5 109.5z" />
    <glyph glyph-name="dcroat" unicode="&#x111;" horiz-adv-x="631" 
d="M285 -10q-54 0 -100 22t-79 59t-51.5 86t-18.5 103q0 55 17.5 104.5t49 86.5t75 58.5t95.5 21.5q63 0 112.5 -33t78.5 -80v193h-110v56h110v63h88v-63h68v-56h-68v-503q0 -31 28 -32v-76q-11 -2 -19.5 -3t-15.5 -1q-30 0 -48 15.5t-19 37.5l-2 49q-31 -51 -82.5 -79.5
t-108.5 -28.5zM306 66q24 0 49.5 9t48 25t39 37.5t21.5 45.5v150q-9 25 -27 47.5t-40.5 39t-48 26t-50.5 9.5q-39 0 -70.5 -16.5t-54 -44t-34.5 -63t-12 -72.5q0 -39 14 -74.5t38 -61.5t56.5 -41.5t70.5 -15.5z" />
    <glyph glyph-name="Emacron" unicode="&#x112;" horiz-adv-x="610" 
d="M567 80v-80h-482v710h473v-80h-383v-230h333v-75h-333v-245h392zM189 840v58h292v-58h-292z" />
    <glyph glyph-name="emacron" unicode="&#x113;" horiz-adv-x="591" 
d="M302 -10q-59 0 -108 21.5t-84 58.5t-54.5 86.5t-19.5 104.5t19.5 104t55 86t84.5 58.5t108 21.5t107.5 -22t82.5 -58.5t52.5 -85t18.5 -100.5q0 -11 -0.5 -20t-1.5 -14h-433q3 -39 18 -71t39 -55t54.5 -36t64.5 -13q24 0 47 6.5t43 17.5t35.5 27t23.5 36l76 -21
q-13 -29 -35.5 -53t-52 -41.5t-65.5 -27.5t-75 -10zM481 296q-3 37 -18.5 68.5t-39 53.5t-54.5 34.5t-66 12.5t-66 -12.5t-54.5 -35t-38 -53.5t-17.5 -68h354zM153 654v58h292v-58h-292z" />
    <glyph glyph-name="Ebreve" unicode="&#x114;" horiz-adv-x="610" 
d="M567 80v-80h-482v710h473v-80h-383v-230h333v-75h-333v-245h392zM334 848q22 0 38.5 19.5t19.5 48.5h50q0 -24 -8.5 -44t-23 -35t-34 -23.5t-42.5 -8.5t-42.5 8.5t-34 23.5t-23 35t-8.5 44h51q0 -27 17 -47.5t40 -20.5z" />
    <glyph glyph-name="ebreve" unicode="&#x115;" horiz-adv-x="591" 
d="M302 -10q-59 0 -108 21.5t-84 58.5t-54.5 86.5t-19.5 104.5t19.5 104t55 86t84.5 58.5t108 21.5t107.5 -22t82.5 -58.5t52.5 -85t18.5 -100.5q0 -11 -0.5 -20t-1.5 -14h-433q3 -39 18 -71t39 -55t54.5 -36t64.5 -13q24 0 47 6.5t43 17.5t35.5 27t23.5 36l76 -21
q-13 -29 -35.5 -53t-52 -41.5t-65.5 -27.5t-75 -10zM481 296q-3 37 -18.5 68.5t-39 53.5t-54.5 34.5t-66 12.5t-66 -12.5t-54.5 -35t-38 -53.5t-17.5 -68h354zM299 662q22 0 38.5 19.5t19.5 48.5h50q0 -24 -8.5 -44t-23 -35t-34 -23.5t-42.5 -8.5t-42.5 8.5t-34 23.5t-23 35
t-8.5 44h51q0 -27 17 -47.5t40 -20.5z" />
    <glyph glyph-name="Edotaccent" unicode="&#x116;" horiz-adv-x="610" 
d="M567 80v-80h-482v710h473v-80h-383v-230h333v-75h-333v-245h392zM294 810v106h80v-106h-80z" />
    <glyph glyph-name="edotaccent" unicode="&#x117;" horiz-adv-x="591" 
d="M302 -10q-59 0 -108 21.5t-84 58.5t-54.5 86.5t-19.5 104.5t19.5 104t55 86t84.5 58.5t108 21.5t107.5 -22t82.5 -58.5t52.5 -85t18.5 -100.5q0 -11 -0.5 -20t-1.5 -14h-433q3 -39 18 -71t39 -55t54.5 -36t64.5 -13q24 0 47 6.5t43 17.5t35.5 27t23.5 36l76 -21
q-13 -29 -35.5 -53t-52 -41.5t-65.5 -27.5t-75 -10zM481 296q-3 37 -18.5 68.5t-39 53.5t-54.5 34.5t-66 12.5t-66 -12.5t-54.5 -35t-38 -53.5t-17.5 -68h354zM259 624v106h80v-106h-80z" />
    <glyph glyph-name="Eogonek" unicode="&#x118;" horiz-adv-x="610" 
d="M567 80v-80h-209q-44 -27 -63 -48.5t-19 -43.5q0 -37 55 -43l-22 -46q-42 8 -63 28.5t-21 48.5q0 26 18.5 52t58.5 52h-217v710h473v-80h-383v-230h333v-75h-333v-245h392z" />
    <glyph glyph-name="eogonek" unicode="&#x119;" horiz-adv-x="593" 
d="M302 -186q-42 8 -63 28.5t-21 48.5q0 50 70 100q-56 3 -102 25t-79 59t-51.5 84.5t-18.5 101.5q0 55 19.5 104t55 86t84.5 58.5t108 21.5t107.5 -22t82.5 -58.5t52.5 -85t18.5 -100.5q0 -11 -0.5 -20t-1.5 -14h-433q3 -39 18 -71t39 -55t54.5 -36t64.5 -13q24 0 47 6.5
t43 17.5t35.5 27t23.5 36l76 -21q-22 -50 -70.5 -84.5t-112.5 -43.5q-42 -26 -60.5 -47.5t-18.5 -43.5q0 -37 55 -43zM482 296q-3 37 -18.5 68.5t-39 53.5t-54.5 34.5t-66 12.5t-66 -12.5t-54.5 -35t-38 -53.5t-17.5 -68h354z" />
    <glyph glyph-name="Ecaron" unicode="&#x11a;" horiz-adv-x="610" 
d="M249 916l85 -63l85 63l48 -24l-101 -90h-64l-101 90zM567 80v-80h-482v710h473v-80h-383v-230h333v-75h-333v-245h392z" />
    <glyph glyph-name="ecaron" unicode="&#x11b;" horiz-adv-x="591" 
d="M214 730l85 -63l85 63l48 -24l-101 -90h-64l-101 90zM302 -10q-59 0 -108 21.5t-84 58.5t-54.5 86.5t-19.5 104.5t19.5 104t55 86t84.5 58.5t108 21.5t107.5 -22t82.5 -58.5t52.5 -85t18.5 -100.5q0 -11 -0.5 -20t-1.5 -14h-433q3 -39 18 -71t39 -55t54.5 -36t64.5 -13
q24 0 47 6.5t43 17.5t35.5 27t23.5 36l76 -21q-13 -29 -35.5 -53t-52 -41.5t-65.5 -27.5t-75 -10zM481 296q-3 37 -18.5 68.5t-39 53.5t-54.5 34.5t-66 12.5t-66 -12.5t-54.5 -35t-38 -53.5t-17.5 -68h354z" />
    <glyph glyph-name="Gcircumflex" unicode="&#x11c;" horiz-adv-x="718" 
d="M238 826l101 90h64l101 -90l-48 -24l-85 63l-85 -63zM588 96q-94 -101 -216 -101q-71 0 -131.5 31t-104.5 81.5t-69.5 115.5t-25.5 134q0 72 25 136.5t69 114t105 78.5t132 29q103 0 169.5 -43t101.5 -112l-69 -48q-32 62 -85 92t-119 30q-54 0 -98 -23.5t-75 -62
t-48 -89t-17 -104.5q0 -57 19 -107.5t52 -89t78 -60.5t98 -22q116 0 209 112v98h-153v68h229v-354h-76v96z" />
    <glyph glyph-name="gcircumflex" unicode="&#x11d;" horiz-adv-x="621" 
d="M197 640l101 90h64l101 -90l-48 -24l-85 63l-85 -63zM278 -6q-53 0 -97.5 22t-76.5 59t-49.5 85t-17.5 100q0 55 17.5 104.5t49.5 86.5t76.5 58.5t98.5 21.5q66 0 114 -32t81 -81v104h78v-516q0 -56 -21 -98.5t-57 -71.5t-84.5 -44t-103.5 -15q-89 0 -144.5 30.5
t-92.5 84.5l51 45q31 -46 80 -69t106 -23q36 0 68.5 10t56.5 30t38.5 50t14.5 71v92q-15 -24 -35.5 -43.5t-44.5 -33t-51 -20.5t-55 -7zM305 66q28 0 54 10t48 26.5t37 37.5t20 43v150q-11 27 -28.5 49t-39.5 38.5t-47.5 25.5t-51.5 9q-40 0 -71.5 -17t-53.5 -45t-34 -63.5
t-12 -71.5q0 -39 14 -74t38 -61t56.5 -41.5t70.5 -15.5z" />
    <glyph glyph-name="Gbreve" unicode="&#x11e;" horiz-adv-x="718" 
d="M588 96q-94 -101 -216 -101q-71 0 -131.5 31t-104.5 81.5t-69.5 115.5t-25.5 134q0 72 25 136.5t69 114t105 78.5t132 29q103 0 169.5 -43t101.5 -112l-69 -48q-32 62 -85 92t-119 30q-54 0 -98 -23.5t-75 -62t-48 -89t-17 -104.5q0 -57 19 -107.5t52 -89t78 -60.5
t98 -22q116 0 209 112v98h-153v68h229v-354h-76v96zM371 848q22 0 38.5 19.5t19.5 48.5h50q0 -24 -8.5 -44t-23 -35t-34 -23.5t-42.5 -8.5t-42.5 8.5t-34 23.5t-23 35t-8.5 44h51q0 -27 17 -47.5t40 -20.5z" />
    <glyph glyph-name="gbreve" unicode="&#x11f;" horiz-adv-x="621" 
d="M278 -6q-53 0 -97.5 22t-76.5 59t-49.5 85t-17.5 100q0 55 17.5 104.5t49.5 86.5t76.5 58.5t98.5 21.5q66 0 114 -32t81 -81v104h78v-516q0 -56 -21 -98.5t-57 -71.5t-84.5 -44t-103.5 -15q-89 0 -144.5 30.5t-92.5 84.5l51 45q31 -46 80 -69t106 -23q36 0 68.5 10
t56.5 30t38.5 50t14.5 71v92q-15 -24 -35.5 -43.5t-44.5 -33t-51 -20.5t-55 -7zM305 66q28 0 54 10t48 26.5t37 37.5t20 43v150q-11 27 -28.5 49t-39.5 38.5t-47.5 25.5t-51.5 9q-40 0 -71.5 -17t-53.5 -45t-34 -63.5t-12 -71.5q0 -39 14 -74t38 -61t56.5 -41.5t70.5 -15.5z
M330 662q22 0 38.5 19.5t19.5 48.5h50q0 -24 -8.5 -44t-23 -35t-34 -23.5t-42.5 -8.5t-42.5 8.5t-34 23.5t-23 35t-8.5 44h51q0 -27 17 -47.5t40 -20.5z" />
    <glyph glyph-name="Gdotaccent" unicode="&#x120;" horiz-adv-x="718" 
d="M588 96q-94 -101 -216 -101q-71 0 -131.5 31t-104.5 81.5t-69.5 115.5t-25.5 134q0 72 25 136.5t69 114t105 78.5t132 29q103 0 169.5 -43t101.5 -112l-69 -48q-32 62 -85 92t-119 30q-54 0 -98 -23.5t-75 -62t-48 -89t-17 -104.5q0 -57 19 -107.5t52 -89t78 -60.5
t98 -22q116 0 209 112v98h-153v68h229v-354h-76v96zM331 810v106h80v-106h-80z" />
    <glyph glyph-name="gdotaccent" unicode="&#x121;" horiz-adv-x="621" 
d="M278 -6q-53 0 -97.5 22t-76.5 59t-49.5 85t-17.5 100q0 55 17.5 104.5t49.5 86.5t76.5 58.5t98.5 21.5q66 0 114 -32t81 -81v104h78v-516q0 -56 -21 -98.5t-57 -71.5t-84.5 -44t-103.5 -15q-89 0 -144.5 30.5t-92.5 84.5l51 45q31 -46 80 -69t106 -23q36 0 68.5 10
t56.5 30t38.5 50t14.5 71v92q-15 -24 -35.5 -43.5t-44.5 -33t-51 -20.5t-55 -7zM305 66q28 0 54 10t48 26.5t37 37.5t20 43v150q-11 27 -28.5 49t-39.5 38.5t-47.5 25.5t-51.5 9q-40 0 -71.5 -17t-53.5 -45t-34 -63.5t-12 -71.5q0 -39 14 -74t38 -61t56.5 -41.5t70.5 -15.5z
M290 624v106h80v-106h-80z" />
    <glyph glyph-name="Gcommaaccent" unicode="&#x122;" horiz-adv-x="718" 
d="M314 -132q25 0 25 20v64h73v-66q0 -37 -27.5 -48t-70.5 -11v41zM588 96q-94 -101 -216 -101q-71 0 -131.5 31t-104.5 81.5t-69.5 115.5t-25.5 134q0 72 25 136.5t69 114t105 78.5t132 29q103 0 169.5 -43t101.5 -112l-69 -48q-32 62 -85 92t-119 30q-54 0 -98 -23.5
t-75 -62t-48 -89t-17 -104.5q0 -57 19 -107.5t52 -89t78 -60.5t98 -22q116 0 209 112v98h-153v68h229v-354h-76v96z" />
    <glyph glyph-name="gcommaaccent" unicode="&#x123;" horiz-adv-x="621" 
d="M345 609l-58 20l58 101h88zM278 -6q-53 0 -97.5 22t-76.5 59t-49.5 85t-17.5 100q0 55 17.5 104.5t49.5 86.5t76.5 58.5t98.5 21.5q66 0 114 -32t81 -81v104h78v-516q0 -56 -21 -98.5t-57 -71.5t-84.5 -44t-103.5 -15q-89 0 -144.5 30.5t-92.5 84.5l51 45q31 -46 80 -69
t106 -23q36 0 68.5 10t56.5 30t38.5 50t14.5 71v92q-15 -24 -35.5 -43.5t-44.5 -33t-51 -20.5t-55 -7zM305 66q28 0 54 10t48 26.5t37 37.5t20 43v150q-11 27 -28.5 49t-39.5 38.5t-47.5 25.5t-51.5 9q-40 0 -71.5 -17t-53.5 -45t-34 -63.5t-12 -71.5q0 -39 14 -74t38 -61
t56.5 -41.5t70.5 -15.5z" />
    <glyph glyph-name="Hcircumflex" unicode="&#x124;" horiz-adv-x="741" 
d="M240 826l101 90h64l101 -90l-48 -24l-85 63l-85 -63zM656 710v-710h-90v323h-391v-323h-90v710h90v-307h391v307h90z" />
    <glyph glyph-name="hcircumflex" unicode="&#x125;" horiz-adv-x="586" 
d="M225 640l94 89h59l94 -89l-45 -24l-78 62l-79 -62zM522 0h-88v292q0 81 -28 120.5t-82 39.5q-26 0 -52 -10.5t-48.5 -28.5t-40 -43t-26.5 -55v-315h-88v730h88v-320q31 57 84 89t116 32q46 0 78 -17t51 -46t27.5 -69.5t8.5 -86.5v-312z" />
    <glyph glyph-name="Hbar" unicode="&#x126;" horiz-adv-x="748" 
d="M660 710v-115h50v-47h-50v-548h-90v323h-391v-323h-90v548h-50v47h50v115h90v-115h391v115h90zM570 403v145h-391v-145h391z" />
    <glyph glyph-name="hbar" unicode="&#x127;" horiz-adv-x="586" 
d="M522 0h-88v292q0 81 -28 120.5t-82 39.5q-26 0 -52 -10.5t-48.5 -28.5t-40 -43t-26.5 -55v-315h-88v611h-56v56h56v63h88v-63h122v-56h-122v-201q31 57 84 89t116 32q46 0 78 -17t51 -46t27.5 -69.5t8.5 -86.5v-312z" />
    <glyph glyph-name="Itilde" unicode="&#x128;" horiz-adv-x="260" 
d="M85 0v709h90v-709h-90zM192 813q-23 0 -39.5 6.5t-31 14.5t-28.5 14.5t-30 6.5q-17 0 -26.5 -7t-14.5 -15.5t-6.5 -16.5t-1.5 -9h-52q0 6 4.5 23t15.5 35t30 31.5t49 13.5q21 0 37 -6.5t30.5 -15t29 -15t32.5 -6.5q19 0 30 7t17 16t7.5 16.5t1.5 9.5h52q0 -6 -4.5 -22.5
t-16.5 -34.5t-32.5 -32t-52.5 -14z" />
    <glyph glyph-name="itilde" unicode="&#x129;" 
d="M69 0v522h88v-522h-88zM175 627q-23 0 -39.5 6.5t-31 14.5t-28.5 14.5t-30 6.5q-17 0 -26.5 -7t-14.5 -15.5t-6.5 -16.5t-1.5 -9h-52q0 6 4.5 23t15.5 35t30 31.5t49 13.5q21 0 37 -6.5t30.5 -15t29 -15t32.5 -6.5q19 0 30 7t17 16t7.5 16.5t1.5 9.5h52q0 -6 -4.5 -22.5
t-16.5 -34.5t-32.5 -32t-52.5 -14z" />
    <glyph glyph-name="Imacron" unicode="&#x12a;" horiz-adv-x="260" 
d="M85 0v709h90v-709h-90zM-15 840v58h292v-58h-292z" />
    <glyph glyph-name="imacron" unicode="&#x12b;" 
d="M69 0v522h88v-522h-88zM-32 654v58h292v-58h-292z" />
    <glyph glyph-name="Ibreve" unicode="&#x12c;" horiz-adv-x="260" 
d="M85 0v709h90v-709h-90zM130 848q22 0 38.5 19.5t19.5 48.5h50q0 -24 -8.5 -44t-23 -35t-34 -23.5t-42.5 -8.5t-42.5 8.5t-34 23.5t-23 35t-8.5 44h51q0 -27 17 -47.5t40 -20.5z" />
    <glyph glyph-name="ibreve" unicode="&#x12d;" 
d="M69 0v522h88v-522h-88zM113 662q22 0 38.5 19.5t19.5 48.5h50q0 -24 -8.5 -44t-23 -35t-34 -23.5t-42.5 -8.5t-42.5 8.5t-34 23.5t-23 35t-8.5 44h51q0 -27 17 -47.5t40 -20.5z" />
    <glyph glyph-name="Iogonek" unicode="&#x12e;" horiz-adv-x="260" 
d="M126 -181q-42 8 -63 28.5t-21 48.5q0 26 18.5 52t58.5 52h-34v709h90v-709q-44 -27 -63 -48.5t-19 -43.5q0 -37 55 -43l-22 -46v0z" />
    <glyph glyph-name="iogonek" unicode="&#x12f;" horiz-adv-x="227" 
d="M109 -181q-42 8 -63 28.5t-21 48.5q0 26 18.5 52t58.5 52h-32v522h88v-522q-44 -27 -63 -48.5t-19 -43.5q0 -37 55 -43zM70 620v110h88v-110h-88z" />
    <glyph glyph-name="Idotaccent" unicode="&#x130;" horiz-adv-x="260" 
d="M85 0v709h90v-709h-90zM90 810v106h80v-106h-80z" />
    <glyph glyph-name="dotlessi" unicode="&#x131;" 
d="M69 0v522h88v-522h-88z" />
    <glyph glyph-name="IJ" unicode="&#x132;" horiz-adv-x="749" 
d="M85 0v709h90v-709h-90zM299 106q20 -14 54 -25t77 -11q51 0 81 18t45.5 53.5t20.5 87.5t5 120v360h90v-360q0 -81 -7.5 -147.5t-33 -113.5t-73 -73t-128.5 -26q-90 0 -154 44z" />
    <glyph glyph-name="ij" unicode="&#x133;" horiz-adv-x="452" 
d="M69 0v522h88v-522h-88zM69 620v110h88v-110h-88zM221 -186q-35 0 -65.5 10t-54.5 32l41 59q14 -13 32.5 -18t36.5 -5q16 0 31 6.5t27 17.5t19 27t7 34v545h88v-539q0 -37 -13.5 -68t-36 -53.5t-51.5 -35t-61 -12.5zM295 620v110h88v-110h-88z" />
    <glyph glyph-name="Jcircumflex" unicode="&#x134;" horiz-adv-x="489" 
d="M235 826l101 90h64l101 -90l-48 -24l-85 63l-85 -63zM39 106q20 -14 54 -25t77 -11q51 0 81 18t45.5 53.5t20.5 87.5t5 120v360h90v-360q0 -81 -7.5 -147.5t-33 -113.5t-73 -73t-128.5 -26q-90 0 -154 44z" />
    <glyph glyph-name="jcircumflex" unicode="&#x135;" 
d="M-5 -186q-35 0 -65.5 10t-54.5 32l41 59q14 -13 32.5 -18t36.5 -5q16 0 31 6.5t27 17.5t19 27t7 34v545h88v-539q0 -37 -13.5 -68t-36 -53.5t-51.5 -35t-61 -12.5zM-20 640l101 90h64l101 -90l-48 -24l-85 63l-85 -63z" />
    <glyph glyph-name="Kcommaaccent" unicode="&#x136;" horiz-adv-x="649" 
d="M275 -132q25 0 25 20v64h73v-66q0 -37 -27.5 -48t-70.5 -11v41zM85 0v709h90v-392l366 393h97l-285 -313l301 -397h-98l-258 345l-123 -128v-217h-90z" />
    <glyph glyph-name="kcommaaccent" unicode="&#x137;" horiz-adv-x="536" 
d="M216 -132q25 0 25 20v64h73v-66q0 -37 -27.5 -48t-70.5 -11v41zM437 0l-180 255l-100 -94v-161h-88v730h88v-480l268 271h97l-208 -216l218 -305h-95z" />
    <glyph glyph-name="kgreenlandic" unicode="&#x138;" horiz-adv-x="536" 
d="M437 0l-180 255l-100 -94v-161h-88v522h88v-272l268 271h97l-208 -216l218 -305h-95z" />
    <glyph glyph-name="Lacute" unicode="&#x139;" horiz-adv-x="590" 
d="M363 795l-58 20l58 101h88zM85 0v710h90v-630h396v-80h-486z" />
    <glyph glyph-name="lacute" unicode="&#x13a;" horiz-adv-x="280" 
d="M124 770l-58 20l58 101h88zM71 730h88v-595q0 -29 15.5 -45.5t43.5 -16.5q11 0 26 3.5t28 8.5l14 -71q-22 -9 -52 -15t-53 -6q-51 0 -80.5 29t-29.5 81v627z" />
    <glyph glyph-name="Lcommaaccent" unicode="&#x13b;" horiz-adv-x="590" 
d="M272 -132q25 0 25 20v64h73v-66q0 -37 -27.5 -48t-70.5 -11v41zM85 0v710h90v-630h396v-80h-486z" />
    <glyph glyph-name="lcommaaccent" unicode="&#x13c;" horiz-adv-x="280" 
d="M115 -132q25 0 25 20v64h73v-66q0 -37 -27.5 -48t-70.5 -11v41zM71 730h88v-595q0 -29 15.5 -45.5t43.5 -16.5q11 0 26 3.5t28 8.5l14 -71q-22 -9 -52 -15t-53 -6q-51 0 -80.5 29t-29.5 81v627z" />
    <glyph glyph-name="Lcaron" unicode="&#x13d;" horiz-adv-x="590" 
d="M391 609l-58 20l58 101h88zM85 0v710h90v-630h396v-80h-486z" />
    <glyph glyph-name="lcaron" unicode="&#x13e;" horiz-adv-x="280" 
d="M261 609l-58 20l58 101h88zM71 730h88v-595q0 -29 15.5 -45.5t43.5 -16.5q11 0 26 3.5t28 8.5l14 -71q-22 -9 -52 -15t-53 -6q-51 0 -80.5 29t-29.5 81v627z" />
    <glyph glyph-name="Ldot" unicode="&#x13f;" horiz-adv-x="590" 
d="M85 0v710h90v-630h396v-80h-486zM366 343v124h74v-124h-74z" />
    <glyph glyph-name="ldot" unicode="&#x140;" horiz-adv-x="338" 
d="M71 730h88v-595q0 -29 15.5 -45.5t43.5 -16.5q11 0 26 3.5t28 8.5l14 -71q-22 -9 -52 -15t-53 -6q-51 0 -80.5 29t-29.5 81v627zM247 269v124h74v-124h-74z" />
    <glyph glyph-name="Lslash" unicode="&#x141;" horiz-adv-x="598" 
d="M93 0v276l-56 -43l-26 50l82 62v365h90v-296l142 109l25 -49l-167 -129v-265h396v-80h-486z" />
    <glyph glyph-name="lslash" unicode="&#x142;" horiz-adv-x="302" 
d="M89 326l-60 -43l-26 49l86 62v336h88v-272l88 64l27 -49l-115 -83v-255q0 -29 15.5 -45.5t43.5 -16.5q11 0 26 3.5t28 8.5l14 -71q-22 -9 -52 -15t-53 -6q-51 0 -80.5 29t-29.5 81v223z" />
    <glyph glyph-name="Nacute" unicode="&#x143;" horiz-adv-x="770" 
d="M402 795l-58 20l58 101h88zM175 542v-542h-90v710h70l440 -553v552h90v-709h-76z" />
    <glyph glyph-name="nacute" unicode="&#x144;" horiz-adv-x="586" 
d="M316 609l-58 20l58 101h88zM522 0h-88v292q0 84 -25.5 122t-77.5 38q-27 0 -54 -10.5t-51 -28.5t-42 -43t-27 -55v-315h-88v522h80v-112q31 55 89.5 88t127.5 33q45 0 75 -16.5t48 -46t25.5 -69.5t7.5 -87v-312z" />
    <glyph glyph-name="Ncommaaccent" unicode="&#x145;" horiz-adv-x="770" 
d="M325 -132q25 0 25 20v64h73v-66q0 -37 -27.5 -48t-70.5 -11v41zM175 542v-542h-90v710h70l440 -553v552h90v-709h-76z" />
    <glyph glyph-name="ncommaaccent" unicode="&#x146;" horiz-adv-x="586" 
d="M229 -132q25 0 25 20v64h73v-66q0 -37 -27.5 -48t-70.5 -11v41zM522 0h-88v292q0 84 -25.5 122t-77.5 38q-27 0 -54 -10.5t-51 -28.5t-42 -43t-27 -55v-315h-88v522h80v-112q31 55 89.5 88t127.5 33q45 0 75 -16.5t48 -46t25.5 -69.5t7.5 -87v-312z" />
    <glyph glyph-name="Ncaron" unicode="&#x147;" horiz-adv-x="770" 
d="M302 916l85 -63l85 63l48 -24l-101 -90h-64l-101 90zM175 542v-542h-90v710h70l440 -553v552h90v-709h-76z" />
    <glyph glyph-name="ncaron" unicode="&#x148;" horiz-adv-x="586" 
d="M216 730l85 -63l85 63l48 -24l-101 -90h-64l-101 90zM522 0h-88v292q0 84 -25.5 122t-77.5 38q-27 0 -54 -10.5t-51 -28.5t-42 -43t-27 -55v-315h-88v522h80v-112q31 55 89.5 88t127.5 33q45 0 75 -16.5t48 -46t25.5 -69.5t7.5 -87v-312z" />
    <glyph glyph-name="napostrophe" unicode="&#x149;" horiz-adv-x="586" 
d="M46 609l-57 20l37 63l-3 38h112zM522 0h-88v292q0 84 -25.5 122t-77.5 38q-27 0 -54 -10.5t-51 -28.5t-42 -43t-27 -55v-315h-88v522h80v-112q31 55 89.5 88t127.5 33q45 0 75 -16.5t48 -46t25.5 -69.5t7.5 -87v-312z" />
    <glyph glyph-name="Eng" unicode="&#x14a;" horiz-adv-x="762" 
d="M175 540v-540h-90v710h69l433 -549v548h90v-729q0 -37 -13.5 -67.5t-36.5 -52.5t-52.5 -34t-60.5 -12q-34 0 -64.5 10t-54.5 32l41 59q14 -13 32 -18t36 -5q16 0 31.5 6.5t27.5 17.5t19 27t7 34v38z" />
    <glyph glyph-name="eng" unicode="&#x14b;" horiz-adv-x="586" 
d="M360 -186q-35 0 -65.5 10t-54.5 32l41 59q14 -13 32.5 -18t36.5 -5q16 0 31 6.5t27 17.5t19 27t7 34v315q0 84 -25.5 122t-77.5 38q-27 0 -54 -10.5t-51 -28.5t-42 -43t-27 -55v-315h-88v522h80v-112q31 55 89.5 88t127.5 33q45 0 75 -16.5t48 -46t25.5 -69.5t7.5 -87
v-329q0 -37 -13.5 -68t-36 -53.5t-51.5 -35t-61 -12.5z" />
    <glyph glyph-name="Omacron" unicode="&#x14c;" horiz-adv-x="751" 
d="M232 840v58h292v-58h-292zM375 -5q-75 0 -136.5 30.5t-105.5 81t-68 115.5t-24 133q0 71 25.5 136t70.5 115t106.5 79.5t133.5 29.5q75 0 136 -31.5t105 -82.5t68 -115.5t24 -131.5q0 -71 -25.5 -136t-70 -114.5t-106 -79t-133.5 -29.5zM132 355q0 -54 17.5 -104.5
t49.5 -89.5t77 -62t100 -23q57 0 102 24.5t76.5 64t48 89.5t16.5 101q0 54 -17.5 104.5t-50 89t-77 61.5t-98.5 23q-57 0 -102 -24t-76.5 -63t-48.5 -89t-17 -102z" />
    <glyph glyph-name="omacron" unicode="&#x14d;" horiz-adv-x="598" 
d="M154 654v58h292v-58h-292zM299 -10q-59 0 -107.5 22t-83 59t-53.5 86t-19 103q0 55 19.5 104t54 86t83 59t106.5 22t107 -22t83.5 -59t54 -86t19.5 -104q0 -54 -19 -103t-54 -86t-83.5 -59t-107.5 -22zM126 259q0 -41 13.5 -76t37 -61t55 -41t67.5 -15t67.5 15t55.5 41.5
t37.5 62t13.5 76.5q0 40 -13.5 75.5t-37.5 62t-55.5 41.5t-67.5 15t-67.5 -15.5t-55 -42t-37 -62t-13.5 -76.5z" />
    <glyph glyph-name="Obreve" unicode="&#x14e;" horiz-adv-x="751" 
d="M375 -5q-75 0 -136.5 30.5t-105.5 81t-68 115.5t-24 133q0 71 25.5 136t70.5 115t106.5 79.5t133.5 29.5q75 0 136 -31.5t105 -82.5t68 -115.5t24 -131.5q0 -71 -25.5 -136t-70 -114.5t-106 -79t-133.5 -29.5zM132 355q0 -54 17.5 -104.5t49.5 -89.5t77 -62t100 -23
q57 0 102 24.5t76.5 64t48 89.5t16.5 101q0 54 -17.5 104.5t-50 89t-77 61.5t-98.5 23q-57 0 -102 -24t-76.5 -63t-48.5 -89t-17 -102zM377 848q22 0 38.5 19.5t19.5 48.5h50q0 -24 -8.5 -44t-23 -35t-34 -23.5t-42.5 -8.5t-42.5 8.5t-34 23.5t-23 35t-8.5 44h51
q0 -27 17 -47.5t40 -20.5z" />
    <glyph glyph-name="obreve" unicode="&#x14f;" horiz-adv-x="598" 
d="M299 -10q-59 0 -107.5 22t-83 59t-53.5 86t-19 103q0 55 19.5 104t54 86t83 59t106.5 22t107 -22t83.5 -59t54 -86t19.5 -104q0 -54 -19 -103t-54 -86t-83.5 -59t-107.5 -22zM126 259q0 -41 13.5 -76t37 -61t55 -41t67.5 -15t67.5 15t55.5 41.5t37.5 62t13.5 76.5
q0 40 -13.5 75.5t-37.5 62t-55.5 41.5t-67.5 15t-67.5 -15.5t-55 -42t-37 -62t-13.5 -76.5zM299 662q22 0 38.5 19.5t19.5 48.5h50q0 -24 -8.5 -44t-23 -35t-34 -23.5t-42.5 -8.5t-42.5 8.5t-34 23.5t-23 35t-8.5 44h51q0 -27 17 -47.5t40 -20.5z" />
    <glyph glyph-name="Ohungarumlaut" unicode="&#x150;" horiz-adv-x="751" 
d="M314 796l-46 20l54 101h76zM450 796l-46 20l54 101h76zM375 -5q-75 0 -136.5 30.5t-105.5 81t-68 115.5t-24 133q0 71 25.5 136t70.5 115t106.5 79.5t133.5 29.5q75 0 136 -31.5t105 -82.5t68 -115.5t24 -131.5q0 -71 -25.5 -136t-70 -114.5t-106 -79t-133.5 -29.5z
M132 355q0 -54 17.5 -104.5t49.5 -89.5t77 -62t100 -23q57 0 102 24.5t76.5 64t48 89.5t16.5 101q0 54 -17.5 104.5t-50 89t-77 61.5t-98.5 23q-57 0 -102 -24t-76.5 -63t-48.5 -89t-17 -102z" />
    <glyph glyph-name="ohungarumlaut" unicode="&#x151;" horiz-adv-x="598" 
d="M236 609l-46 20l54 101h76zM372 609l-46 20l54 101h76zM299 -10q-59 0 -107.5 22t-83 59t-53.5 86t-19 103q0 55 19.5 104t54 86t83 59t106.5 22t107 -22t83.5 -59t54 -86t19.5 -104q0 -54 -19 -103t-54 -86t-83.5 -59t-107.5 -22zM126 259q0 -41 13.5 -76t37 -61t55 -41
t67.5 -15t67.5 15t55.5 41.5t37.5 62t13.5 76.5q0 40 -13.5 75.5t-37.5 62t-55.5 41.5t-67.5 15t-67.5 -15.5t-55 -42t-37 -62t-13.5 -76.5z" />
    <glyph glyph-name="OE" unicode="&#x152;" horiz-adv-x="1139" 
d="M1096 80v-80h-474v157q-17 -35 -42 -64.5t-57 -51t-69 -34t-78 -12.5q-75 0 -136.5 30.5t-105.5 81t-68.5 115.5t-24.5 133q0 71 25.5 136t70.5 115t106.5 79.5t133.5 29.5q42 0 79.5 -12.5t68.5 -34.5t55.5 -51.5t41.5 -63.5v157h465v-80h-375v-228h321v-80h-321v-242
h384zM376 76q57 0 102 24t76.5 63.5t48 90t16.5 102.5q0 54 -17.5 104t-50 89t-77 62t-98.5 23q-57 0 -102 -24t-76.5 -63.5t-48.5 -89.5t-17 -102q0 -54 17.5 -104.5t49.5 -89.5t77 -62t100 -23z" />
    <glyph glyph-name="oe" unicode="&#x153;" horiz-adv-x="1029" 
d="M298 -10q-56 0 -104 20.5t-83 57t-55 85.5t-20 106q0 58 20 107.5t55.5 86t83.5 57.5t104 21q74 0 131.5 -40.5t86.5 -111.5q31 73 87.5 112.5t133.5 39.5q56 0 102.5 -19.5t81 -55t55 -85t23.5 -110.5v-15.5t-1 -14.5h-433q3 -37 18.5 -69t40 -56t56.5 -37.5t68 -13.5
q25 0 49 6.5t44 18t34.5 27.5t22.5 36l74 -21q-14 -30 -37 -54t-53 -41.5t-65.5 -27t-72.5 -9.5q-72 0 -131 40t-96 109q-37 -71 -93 -110t-127 -39zM299 66q37 0 68.5 15t55 41t37 61.5t13.5 76.5t-13.5 76.5t-36.5 62t-55 41.5t-68 15t-68 -15.5t-55.5 -42t-37 -62.5
t-13.5 -77t13.5 -76t36.5 -61t55 -40.5t68 -14.5zM915 288q-3 39 -18 71.5t-39 56t-55.5 36.5t-66.5 13t-65.5 -13t-53.5 -36.5t-37 -56t-16 -71.5h351z" />
    <glyph glyph-name="Racute" unicode="&#x154;" horiz-adv-x="664" 
d="M334 797l-58 20l58 101h88zM85 0v710h304q47 0 86.5 -19.5t68 -52t44.5 -73t16 -82.5q0 -37 -10.5 -71.5t-30 -62.5t-47 -48t-61.5 -29l172 -272h-102l-162 255h-188v-255h-90zM175 335h215q28 0 50.5 12t38.5 32.5t25 47.5t9 56q0 30 -10.5 56.5t-28 47t-41 32
t-49.5 11.5h-209v-295z" />
    <glyph glyph-name="racute" unicode="&#x155;" horiz-adv-x="362" 
d="M224 609l-58 20l58 101h88zM345 445q-66 -2 -116.5 -34t-71.5 -89v-322h-88v522h82v-121q27 54 71 89.5t94 35.5h17t12 -1v-80z" />
    <glyph glyph-name="Rcommaaccent" unicode="&#x156;" horiz-adv-x="664" 
d="M270 -132q25 0 25 20v64h73v-66q0 -37 -27.5 -48t-70.5 -11v41zM85 0v710h304q47 0 86.5 -19.5t68 -52t44.5 -73t16 -82.5q0 -37 -10.5 -71.5t-30 -62.5t-47 -48t-61.5 -29l172 -272h-102l-162 255h-188v-255h-90zM175 335h215q28 0 50.5 12t38.5 32.5t25 47.5t9 56
q0 30 -10.5 56.5t-28 47t-41 32t-49.5 11.5h-209v-295z" />
    <glyph glyph-name="rcommaaccent" unicode="&#x157;" horiz-adv-x="362" 
d="M48 -132q25 0 25 20v64h73v-66q0 -37 -27.5 -48t-70.5 -11v41zM345 445q-66 -2 -116.5 -34t-71.5 -89v-322h-88v522h82v-121q27 54 71 89.5t94 35.5h17t12 -1v-80z" />
    <glyph glyph-name="Rcaron" unicode="&#x158;" horiz-adv-x="664" 
d="M233 918l85 -63l85 63l48 -24l-101 -90h-64l-101 90zM85 0v710h304q47 0 86.5 -19.5t68 -52t44.5 -73t16 -82.5q0 -37 -10.5 -71.5t-30 -62.5t-47 -48t-61.5 -29l172 -272h-102l-162 255h-188v-255h-90zM175 335h215q28 0 50.5 12t38.5 32.5t25 47.5t9 56
q0 30 -10.5 56.5t-28 47t-41 32t-49.5 11.5h-209v-295z" />
    <glyph glyph-name="rcaron" unicode="&#x159;" horiz-adv-x="362" 
d="M124 730l85 -63l85 63l48 -24l-101 -90h-64l-101 90zM345 445q-66 -2 -116.5 -34t-71.5 -89v-322h-88v522h82v-121q27 54 71 89.5t94 35.5h17t12 -1v-80z" />
    <glyph glyph-name="Sacute" unicode="&#x15a;" horiz-adv-x="613" 
d="M333 809l-58 20l58 101h88zM504 561q-12 14 -32 27t-45 23.5t-54.5 17t-61.5 6.5q-83 0 -121.5 -31t-38.5 -85q0 -29 11 -48t34.5 -32.5t58.5 -23.5t83 -21q55 -12 99.5 -27.5t76 -38.5t48 -56t16.5 -81q0 -51 -20 -88.5t-54.5 -62t-81.5 -36t-102 -11.5
q-82 0 -155.5 25.5t-133.5 74.5l43 76q16 -17 41.5 -34t58 -30.5t70 -22t78.5 -8.5q76 0 118 27t42 81q0 30 -13.5 50.5t-39.5 35.5t-64.5 26.5t-87.5 23.5q-54 13 -95 28t-68.5 36t-41.5 51t-14 72q0 51 19 90t53 66t81 40.5t102 13.5q72 0 130 -22t103 -59z" />
    <glyph glyph-name="sacute" unicode="&#x15b;" horiz-adv-x="493" 
d="M263 609l-58 20l58 101h88zM254 -10q-63 0 -124 19.5t-105 56.5l38 59q46 -35 92 -52.5t97 -17.5q57 0 90.5 22.5t33.5 63.5q0 19 -9 32.5t-27 23.5t-46 18t-65 17q-47 12 -81 23t-56 26t-32 36t-10 52q0 39 15.5 69.5t42.5 51t63.5 31t78.5 10.5q59 0 110 -19t86 -50
l-40 -53q-33 29 -74 43.5t-84 14.5q-48 0 -81.5 -20.5t-33.5 -65.5q0 -18 6.5 -30t21.5 -21t38.5 -16t56.5 -15q52 -12 90.5 -24.5t64 -29.5t38 -40t12.5 -56q0 -73 -56 -116t-151 -43z" />
    <glyph glyph-name="Scircumflex" unicode="&#x15c;" horiz-adv-x="613" 
d="M185 840l101 90h64l101 -90l-48 -24l-85 63l-85 -63zM504 561q-12 14 -32 27t-45 23.5t-54.5 17t-61.5 6.5q-83 0 -121.5 -31t-38.5 -85q0 -29 11 -48t34.5 -32.5t58.5 -23.5t83 -21q55 -12 99.5 -27.5t76 -38.5t48 -56t16.5 -81q0 -51 -20 -88.5t-54.5 -62t-81.5 -36
t-102 -11.5q-82 0 -155.5 25.5t-133.5 74.5l43 76q16 -17 41.5 -34t58 -30.5t70 -22t78.5 -8.5q76 0 118 27t42 81q0 30 -13.5 50.5t-39.5 35.5t-64.5 26.5t-87.5 23.5q-54 13 -95 28t-68.5 36t-41.5 51t-14 72q0 51 19 90t53 66t81 40.5t102 13.5q72 0 130 -22t103 -59z
" />
    <glyph glyph-name="scircumflex" unicode="&#x15d;" horiz-adv-x="493" 
d="M115 640l101 90h64l101 -90l-48 -24l-85 63l-85 -63zM254 -10q-63 0 -124 19.5t-105 56.5l38 59q46 -35 92 -52.5t97 -17.5q57 0 90.5 22.5t33.5 63.5q0 19 -9 32.5t-27 23.5t-46 18t-65 17q-47 12 -81 23t-56 26t-32 36t-10 52q0 39 15.5 69.5t42.5 51t63.5 31
t78.5 10.5q59 0 110 -19t86 -50l-40 -53q-33 29 -74 43.5t-84 14.5q-48 0 -81.5 -20.5t-33.5 -65.5q0 -18 6.5 -30t21.5 -21t38.5 -16t56.5 -15q52 -12 90.5 -24.5t64 -29.5t38 -40t12.5 -56q0 -73 -56 -116t-151 -43z" />
    <glyph glyph-name="uni015E" unicode="&#x15e;" horiz-adv-x="613" 
d="M245 -126q13 -7 37.5 -13t50.5 -6q27 0 42 8t15 27q0 20 -14 27.5t-37 7.5q-21 0 -44 -4.5t-36 -8.5l43 82q-77 2 -145.5 27t-125.5 72l43 76q16 -17 41.5 -34t58 -30.5t70 -22t78.5 -8.5q76 0 118 27t42 81q0 30 -13.5 50.5t-39.5 35.5t-64.5 26.5t-87.5 23.5
q-54 13 -95 28t-68.5 36t-41.5 51t-14 72q0 51 19 90t53 66t81 40.5t102 13.5q72 0 130 -22t103 -59l-42 -73q-12 14 -32 27t-45 23.5t-54.5 17t-61.5 6.5q-83 0 -121.5 -31t-38.5 -85q0 -29 11 -48t34.5 -32.5t58.5 -23.5t83 -21q55 -12 99.5 -27.5t76 -38.5t48 -56
t16.5 -81t-17.5 -84t-48.5 -60t-73.5 -37t-91.5 -16l-26 -42q8 3 18 4t18 1q35 0 57 -16t22 -48q0 -35 -28 -55t-82 -20q-30 0 -55.5 5.5t-45.5 13.5z" />
    <glyph glyph-name="uni015F" unicode="&#x15f;" horiz-adv-x="494" 
d="M176 -126q13 -7 37.5 -13t50.5 -6q27 0 42 8t15 27q0 20 -14 27.5t-37 7.5q-21 0 -44 -4.5t-36 -8.5l42 79q-58 4 -112.5 22.5t-94.5 52.5l38 59q46 -35 92 -52.5t97 -17.5q57 0 90.5 22.5t33.5 63.5q0 19 -9 32.5t-27 23.5t-46 18t-65 17q-47 12 -81 23t-56 26t-32 36
t-10 52q0 39 15.5 69.5t42.5 51t63.5 31t78.5 10.5q59 0 110 -19t86 -50l-40 -53q-33 29 -74 43.5t-84 14.5q-48 0 -81.5 -20.5t-33.5 -65.5q0 -18 6.5 -30t21.5 -21t38.5 -16t56.5 -15q52 -12 90.5 -24.5t64 -29.5t38 -40t12.5 -56q0 -69 -50 -111t-135 -47l-24 -39
q8 3 18 4t18 1q35 0 57 -16t22 -48q0 -35 -28 -55t-82 -20q-30 0 -55.5 5.5t-45.5 13.5z" />
    <glyph glyph-name="Scaron" unicode="&#x160;" horiz-adv-x="613" 
d="M233 930l85 -63l85 63l48 -24l-101 -90h-64l-101 90zM504 561q-12 14 -32 27t-45 23.5t-54.5 17t-61.5 6.5q-83 0 -121.5 -31t-38.5 -85q0 -29 11 -48t34.5 -32.5t58.5 -23.5t83 -21q55 -12 99.5 -27.5t76 -38.5t48 -56t16.5 -81q0 -51 -20 -88.5t-54.5 -62t-81.5 -36
t-102 -11.5q-82 0 -155.5 25.5t-133.5 74.5l43 76q16 -17 41.5 -34t58 -30.5t70 -22t78.5 -8.5q76 0 118 27t42 81q0 30 -13.5 50.5t-39.5 35.5t-64.5 26.5t-87.5 23.5q-54 13 -95 28t-68.5 36t-41.5 51t-14 72q0 51 19 90t53 66t81 40.5t102 13.5q72 0 130 -22t103 -59z
" />
    <glyph glyph-name="scaron" unicode="&#x161;" horiz-adv-x="493" 
d="M163 730l85 -63l85 63l48 -24l-101 -90h-64l-101 90zM254 -10q-63 0 -124 19.5t-105 56.5l38 59q46 -35 92 -52.5t97 -17.5q57 0 90.5 22.5t33.5 63.5q0 19 -9 32.5t-27 23.5t-46 18t-65 17q-47 12 -81 23t-56 26t-32 36t-10 52q0 39 15.5 69.5t42.5 51t63.5 31
t78.5 10.5q59 0 110 -19t86 -50l-40 -53q-33 29 -74 43.5t-84 14.5q-48 0 -81.5 -20.5t-33.5 -65.5q0 -18 6.5 -30t21.5 -21t38.5 -16t56.5 -15q52 -12 90.5 -24.5t64 -29.5t38 -40t12.5 -56q0 -73 -56 -116t-151 -43z" />
    <glyph glyph-name="uni0162" unicode="&#x162;" horiz-adv-x="616" 
d="M232 -126q13 -7 37.5 -13t50.5 -6q27 0 42 8t15 27q0 20 -14 27.5t-37 7.5q-21 0 -44 -4.5t-36 -8.5l47 88h-30v630h-245v80h580v-80h-245v-630h-15l-30 -48q8 3 18 4t18 1q35 0 57 -16t22 -48q0 -35 -28 -55t-82 -20q-30 0 -55.5 5.5t-45.5 13.5z" />
    <glyph glyph-name="uni0163" unicode="&#x163;" horiz-adv-x="347" 
d="M135 -126q13 -7 37.5 -13t50.5 -6q27 0 42 8t15 27q0 20 -14 27.5t-37 7.5q-21 0 -44 -4.5t-36 -8.5l43 82q-41 5 -69 31t-28 77v351h-71v69h71v174h88v-174h117v-69h-117v-324q2 -29 19 -42t40 -13q26 0 47.5 8.5t29.5 13.5l21 -70q-14 -7 -41 -17t-61 -14l-27 -43
q8 3 18 4t18 1q35 0 57 -16t22 -48q0 -35 -28 -55t-82 -20q-30 0 -55.5 5.5t-45.5 13.5z" />
    <glyph glyph-name="Tcaron" unicode="&#x164;" horiz-adv-x="616" 
d="M226 916l85 -63l85 63l48 -24l-101 -90h-64l-101 90zM598 630h-245v-630h-90v630h-245v80h580v-80z" />
    <glyph glyph-name="tcaron" unicode="&#x165;" horiz-adv-x="347" 
d="M301 609l-58 20l58 101h88zM340 26q-8 -4 -21 -9.5t-29.5 -11t-36 -9t-40.5 -3.5q-48 0 -83 26.5t-35 82.5v351h-71v69h71v174h88v-174h117v-69h-117v-324q2 -29 19 -42t40 -13q26 0 47.5 8.5t29.5 13.5z" />
    <glyph glyph-name="Tbar" unicode="&#x166;" horiz-adv-x="650" 
d="M615 630h-245v-233h211v-47h-211v-350h-90v350h-211v47h211v233h-245v80h580v-80z" />
    <glyph glyph-name="tbar" unicode="&#x167;" horiz-adv-x="348" 
d="M341 26q-8 -4 -21 -9.5t-29.5 -11t-36 -9t-40.5 -3.5q-48 0 -83 26.5t-35 82.5v192h-71v56h71v103h-71v69h71v174h88v-174h117v-69h-117v-103h117v-56h-117v-165q2 -29 19 -42t40 -13q26 0 47.5 8.5t29.5 13.5z" />
    <glyph glyph-name="Utilde" unicode="&#x168;" horiz-adv-x="753" 
d="M376 76q62 0 103 24t65.5 62.5t34.5 88t10 100.5v359h90v-359q0 -72 -16.5 -136.5t-52.5 -113.5t-93.5 -77.5t-139.5 -28.5q-85 0 -143 30t-93.5 79.5t-51 114t-15.5 132.5v359h90v-359q0 -53 10.5 -102.5t35 -87.5t65 -61.5t101.5 -23.5zM439 813q-23 0 -39.5 6.5
t-31 14.5t-28.5 14.5t-30 6.5q-17 0 -26.5 -7t-14.5 -15.5t-6.5 -16.5t-1.5 -9h-52q0 6 4.5 23t15.5 35t30 31.5t49 13.5q21 0 37 -6.5t30.5 -15t29 -15t32.5 -6.5q19 0 30 7t17 16t7.5 16.5t1.5 9.5h52q0 -6 -4.5 -22.5t-16.5 -34.5t-32.5 -32t-52.5 -14z" />
    <glyph glyph-name="utilde" unicode="&#x169;" horiz-adv-x="603" 
d="M230 -10q-82 0 -124 55t-42 164v313h88v-296q0 -160 111 -160q54 0 101.5 34.5t70.5 94.5v327h88v-414q0 -31 28 -32v-76q-11 -2 -19.5 -3t-15.5 -1q-30 0 -47 14.5t-19 38.5l-3 63q-35 -59 -92 -90.5t-125 -31.5zM355 627q-23 0 -39.5 6.5t-31 14.5t-28.5 14.5t-30 6.5
q-17 0 -26.5 -7t-14.5 -15.5t-6.5 -16.5t-1.5 -9h-52q0 6 4.5 23t15.5 35t30 31.5t49 13.5q21 0 37 -6.5t30.5 -15t29 -15t32.5 -6.5q19 0 30 7t17 16t7.5 16.5t1.5 9.5h52q0 -6 -4.5 -22.5t-16.5 -34.5t-32.5 -32t-52.5 -14z" />
    <glyph glyph-name="Umacron" unicode="&#x16a;" horiz-adv-x="753" 
d="M376 76q62 0 103 24t65.5 62.5t34.5 88t10 100.5v359h90v-359q0 -72 -16.5 -136.5t-52.5 -113.5t-93.5 -77.5t-139.5 -28.5q-85 0 -143 30t-93.5 79.5t-51 114t-15.5 132.5v359h90v-359q0 -53 10.5 -102.5t35 -87.5t65 -61.5t101.5 -23.5zM231 840v58h292v-58h-292z" />
    <glyph glyph-name="umacron" unicode="&#x16b;" horiz-adv-x="603" 
d="M230 -10q-82 0 -124 55t-42 164v313h88v-296q0 -160 111 -160q54 0 101.5 34.5t70.5 94.5v327h88v-414q0 -31 28 -32v-76q-11 -2 -19.5 -3t-15.5 -1q-30 0 -47 14.5t-19 38.5l-3 63q-35 -59 -92 -90.5t-125 -31.5zM147 654v58h292v-58h-292z" />
    <glyph glyph-name="Ubreve" unicode="&#x16c;" horiz-adv-x="753" 
d="M376 76q62 0 103 24t65.5 62.5t34.5 88t10 100.5v359h90v-359q0 -72 -16.5 -136.5t-52.5 -113.5t-93.5 -77.5t-139.5 -28.5q-85 0 -143 30t-93.5 79.5t-51 114t-15.5 132.5v359h90v-359q0 -53 10.5 -102.5t35 -87.5t65 -61.5t101.5 -23.5zM377 848q22 0 38.5 19.5
t19.5 48.5h50q0 -24 -8.5 -44t-23 -35t-34 -23.5t-42.5 -8.5t-42.5 8.5t-34 23.5t-23 35t-8.5 44h51q0 -27 17 -47.5t40 -20.5z" />
    <glyph glyph-name="ubreve" unicode="&#x16d;" horiz-adv-x="603" 
d="M230 -10q-82 0 -124 55t-42 164v313h88v-296q0 -160 111 -160q54 0 101.5 34.5t70.5 94.5v327h88v-414q0 -31 28 -32v-76q-11 -2 -19.5 -3t-15.5 -1q-30 0 -47 14.5t-19 38.5l-3 63q-35 -59 -92 -90.5t-125 -31.5zM292 662q22 0 38.5 19.5t19.5 48.5h50q0 -24 -8.5 -44
t-23 -35t-34 -23.5t-42.5 -8.5t-42.5 8.5t-34 23.5t-23 35t-8.5 44h51q0 -27 17 -47.5t40 -20.5z" />
    <glyph glyph-name="Uring" unicode="&#x16e;" horiz-adv-x="753" 
d="M295 847q0 32 23 50.5t58 18.5q36 0 58.5 -18.5t22.5 -50.5t-22.5 -50.5t-58.5 -18.5q-35 0 -58 18.5t-23 50.5zM376 885q-17 0 -28.5 -10.5t-11.5 -27.5q0 -16 11.5 -27t28.5 -11q16 0 28.5 10.5t12.5 27.5t-12 27.5t-29 10.5zM376 76q62 0 103 24t65.5 62.5t34.5 88
t10 100.5v359h90v-359q0 -72 -16.5 -136.5t-52.5 -113.5t-93.5 -77.5t-139.5 -28.5q-85 0 -143 30t-93.5 79.5t-51 114t-15.5 132.5v359h90v-359q0 -53 10.5 -102.5t35 -87.5t65 -61.5t101.5 -23.5z" />
    <glyph glyph-name="uring" unicode="&#x16f;" horiz-adv-x="603" 
d="M211 661q0 32 23 50.5t58 18.5q36 0 58.5 -18.5t22.5 -50.5t-22.5 -50.5t-58.5 -18.5q-35 0 -58 18.5t-23 50.5zM292 699q-17 0 -28.5 -10.5t-11.5 -27.5q0 -16 11.5 -27t28.5 -11q16 0 28.5 10.5t12.5 27.5t-12 27.5t-29 10.5zM230 -10q-82 0 -124 55t-42 164v313h88
v-296q0 -160 111 -160q54 0 101.5 34.5t70.5 94.5v327h88v-414q0 -31 28 -32v-76q-11 -2 -19.5 -3t-15.5 -1q-30 0 -47 14.5t-19 38.5l-3 63q-35 -59 -92 -90.5t-125 -31.5z" />
    <glyph glyph-name="Uhungarumlaut" unicode="&#x170;" horiz-adv-x="753" 
d="M376 76q62 0 103 24t65.5 62.5t34.5 88t10 100.5v359h90v-359q0 -72 -16.5 -136.5t-52.5 -113.5t-93.5 -77.5t-139.5 -28.5q-85 0 -143 30t-93.5 79.5t-51 114t-15.5 132.5v359h90v-359q0 -53 10.5 -102.5t35 -87.5t65 -61.5t101.5 -23.5zM313 796l-46 20l54 101h76z
M449 796l-46 20l54 101h76z" />
    <glyph glyph-name="uhungarumlaut" unicode="&#x171;" horiz-adv-x="603" 
d="M230 -10q-82 0 -124 55t-42 164v313h88v-296q0 -160 111 -160q54 0 101.5 34.5t70.5 94.5v327h88v-414q0 -31 28 -32v-76q-11 -2 -19.5 -3t-15.5 -1q-30 0 -47 14.5t-19 38.5l-3 63q-35 -59 -92 -90.5t-125 -31.5zM229 609l-46 20l54 101h76zM365 609l-46 20l54 101h76z
" />
    <glyph glyph-name="Uogonek" unicode="&#x172;" horiz-adv-x="753" 
d="M376 76q62 0 103 24t65.5 62.5t34.5 88t10 100.5v359h90v-359q0 -70 -15.5 -133t-49.5 -111t-88 -78t-130 -33q-42 -26 -59.5 -47t-17.5 -43q0 -37 55 -43l-22 -46q-42 8 -63 28.5t-21 48.5q0 26 18 51.5t57 51.5q-75 6 -126.5 37.5t-83 80.5t-45.5 110t-14 126v359h90
v-359q0 -53 10.5 -102.5t35 -87.5t65 -61.5t101.5 -23.5z" />
    <glyph glyph-name="uogonek" unicode="&#x173;" horiz-adv-x="603" 
d="M230 -10q-82 0 -124 55t-42 164v313h88v-296q0 -160 111 -160q54 0 101.5 34.5t70.5 94.5v327h88v-414q0 -31 28 -32v-76q-44 -27 -63 -48.5t-19 -43.5q0 -37 55 -43l-22 -46q-42 8 -63 28.5t-21 48.5q0 26 18 51.5t57 51.5q-41 10 -43 50l-3 63q-35 -59 -92 -90.5
t-125 -31.5z" />
    <glyph glyph-name="Wcircumflex" unicode="&#x174;" horiz-adv-x="1048" 
d="M390 826l101 90h64l101 -90l-48 -24l-85 63l-85 -63zM344 706h85l94 -247l95 247h85l-123 -309l122 -293l240 606h98l-297 -710h-78l-141 335l-142 -335h-78l-296 710h97l241 -606l121 293z" />
    <glyph glyph-name="wcircumflex" unicode="&#x175;" horiz-adv-x="824" 
d="M279 640l101 90h64l101 -90l-48 -24l-85 63l-85 -63zM727 522h85l-222 -522h-73l-105 255l-104 -255h-73l-222 522h84l180 -435l88 217l-90 217h73l64 -167l64 167h73l-89 -217l88 -217z" />
    <glyph glyph-name="Ycircumflex" unicode="&#x176;" horiz-adv-x="637" 
d="M103 710l215 -370l217 370h98l-270 -451v-259h-90v261l-269 449h99zM185 826l101 90h64l101 -90l-48 -24l-85 63l-85 -63z" />
    <glyph glyph-name="ycircumflex" unicode="&#x177;" horiz-adv-x="543" 
d="M92 -143q27 -3 48 -3q9 0 17 4t18 19t23 44t32 79l-221 522h91l178 -443l162 443h84l-256 -659q-18 -47 -52 -67.5t-80 -20.5q-11 0 -22 1t-22 4v77zM145 640l101 90h64l101 -90l-48 -24l-85 63l-85 -63z" />
    <glyph glyph-name="Ydieresis" unicode="&#x178;" horiz-adv-x="637" 
d="M103 710l215 -370l217 370h98l-270 -451v-259h-90v261l-269 449h99zM200 811v102h74v-102h-74zM362 811v102h74v-102h-74z" />
    <glyph glyph-name="Zacute" unicode="&#x179;" horiz-adv-x="624" 
d="M342 795l-58 20l58 101h88zM28 70l458 560h-449v80h554v-70l-450 -560h450v-80h-563v70z" />
    <glyph glyph-name="zacute" unicode="&#x17a;" horiz-adv-x="487" 
d="M267 609l-58 20l58 101h88zM27 57l334 401h-325v64h419v-57l-332 -401h333v-64h-429v57z" />
    <glyph glyph-name="Zdotaccent" unicode="&#x17b;" horiz-adv-x="624" 
d="M28 70l458 560h-449v80h554v-70l-450 -560h450v-80h-563v70zM287 810v106h80v-106h-80z" />
    <glyph glyph-name="zdotaccent" unicode="&#x17c;" horiz-adv-x="487" 
d="M27 57l334 401h-325v64h419v-57l-332 -401h333v-64h-429v57zM211 624v106h80v-106h-80z" />
    <glyph glyph-name="Zcaron" unicode="&#x17d;" horiz-adv-x="624" 
d="M242 916l85 -63l85 63l48 -24l-101 -90h-64l-101 90zM28 70l458 560h-449v80h554v-70l-450 -560h450v-80h-563v70z" />
    <glyph glyph-name="zcaron" unicode="&#x17e;" horiz-adv-x="487" 
d="M166 730l85 -63l85 63l48 -24l-101 -90h-64l-101 90zM27 57l334 401h-325v64h419v-57l-332 -401h333v-64h-429v57z" />
    <glyph glyph-name="florin" unicode="&#x192;" horiz-adv-x="533" 
d="M150 -186q-34 0 -65 10t-55 32l41 59q14 -13 32.5 -18t36.5 -5q16 0 31 6.5t27 17.5t19 27t7 34v415h-71v69h71v72q0 97 43 152t117 55q30 0 60.5 -8.5t54.5 -23.5l-22 -65q-14 10 -35 16t-41 6q-44 0 -66.5 -33t-22.5 -96v-75h139v-69h-139v-413q0 -36 -13.5 -66.5
t-36 -52.5t-52 -34t-60.5 -12z" />
    <glyph glyph-name="Oogonek" unicode="&#x1ea;" horiz-adv-x="751" 
d="M351 -183q-42 8 -63 28.5t-21 48.5q0 26 18 51.5t57 51.5q-68 7 -123.5 39.5t-95 82t-61 110.5t-21.5 126q0 71 25.5 136t70.5 115t106.5 79.5t133.5 29.5q75 0 136 -31.5t105 -82.5t68 -115.5t24 -131.5q0 -68 -23.5 -131t-65.5 -112t-99.5 -80t-125.5 -35
q-42 -26 -60 -47t-18 -43q0 -37 55 -43zM132 355q0 -54 17.5 -104.5t49.5 -89.5t77 -62t100 -23q57 0 102 24.5t76.5 64t48 89.5t16.5 101q0 54 -17.5 104.5t-50 89t-77 61.5t-98.5 23q-57 0 -102 -24t-76.5 -63t-48.5 -89t-17 -102z" />
    <glyph glyph-name="oogonek" unicode="&#x1eb;" horiz-adv-x="600" 
d="M298 -186q-42 8 -63 28.5t-21 48.5q0 50 70 100q-56 3 -101.5 25.5t-77.5 59.5t-50 84t-18 100q0 55 19.5 104t54 86t83 59t106.5 22t107 -22t83.5 -59t54 -86t19.5 -104q0 -49 -16 -94t-44.5 -80.5t-69.5 -60t-90 -31.5q-42 -26 -60.5 -47.5t-18.5 -43.5q0 -37 55 -43z
M127 259q0 -41 13.5 -76t37 -61t55 -41t67.5 -15t67.5 15t55.5 41.5t37.5 62t13.5 76.5q0 40 -13.5 75.5t-37.5 62t-55.5 41.5t-67.5 15t-67.5 -15.5t-55 -42t-37 -62t-13.5 -76.5z" />
    <glyph glyph-name="Aringacute" unicode="&#x1fa;" horiz-adv-x="678" 
d="M376 810q20 -8 32 -23.5t12 -38.5q0 -20 -9.5 -35.5t-26.5 -23.5l284 -689h-96l-84 208h-298l-83 -208h-96l284 688q-37 19 -37 60q0 28 18 45.5t47 22.5l48 102h88zM340 606l-132 -328h260zM339 786q-17 0 -28.5 -10.5t-11.5 -27.5q0 -16 11.5 -27t28.5 -11
q16 0 28.5 10.5t12.5 27.5t-12 27.5t-29 10.5z" />
    <glyph glyph-name="aringacute" unicode="&#x1fb;" horiz-adv-x="557" 
d="M210 -10q-39 0 -72 12.5t-57 34t-37.5 51t-13.5 62.5q0 37 16 67.5t45.5 52t70 33t88.5 11.5q38 0 77 -7t69 -19v42q0 64 -36 100.5t-102 36.5q-79 0 -166 -61l-29 57q51 34 101 51t104 17q100 0 158 -55t58 -155v-213q0 -31 28 -32v-76q-10 -2 -19 -3t-17 -1
q-22 0 -43 12t-23 41l-2 37q-18 -24 -41 -42t-49 -30t-53.5 -18t-54.5 -6zM232 56q42 0 82 18t63 44q19 22 19 41v77q-31 12 -65.5 18.5t-66.5 6.5q-68 0 -109 -27.5t-41 -75.5q0 -20 8 -38.5t23 -32.5t37 -22.5t50 -8.5zM281 765l-58 20l58 101h88zM184 661q0 32 23 50.5
t58 18.5q36 0 58.5 -18.5t22.5 -50.5t-22.5 -50.5t-58.5 -18.5q-35 0 -58 18.5t-23 50.5zM265 699q-17 0 -28.5 -10.5t-11.5 -27.5q0 -16 11.5 -27t28.5 -11q16 0 28.5 10.5t12.5 27.5t-12 27.5t-29 10.5z" />
    <glyph glyph-name="AEacute" unicode="&#x1fc;" horiz-adv-x="988" 
d="M567 795l-58 20l58 101h88zM448 710h488v-80h-375v-228h321v-80h-321v-242h384v-80h-473v208h-249l-130 -208h-98zM466 288v317l-203 -317h203z" />
    <glyph glyph-name="aeacute" unicode="&#x1fd;" horiz-adv-x="934" 
d="M462 609l-58 20l58 101h88zM206 -10q-37 0 -68.5 12.5t-55 34.5t-37 51.5t-13.5 64.5q0 36 16 65.5t45 50.5t69.5 33t88.5 12q34 0 67.5 -5.5t61.5 -14.5q2 16 5 34t9 32q-8 51 -42.5 79t-92.5 28q-78 0 -166 -61l-29 57q103 68 203 68q64 0 110 -25t71 -70q33 43 83 69
t112 26q59 0 108 -21.5t83.5 -58.5t54 -86t19.5 -104q0 -6 -0.5 -15.5t-1.5 -14.5h-443q3 -39 19 -71t41 -55t57.5 -36t68.5 -13q24 0 47 6.5t43 17.5t35.5 27t23.5 36l76 -21q-13 -29 -35.5 -53t-52 -41.5t-65.5 -27.5t-75 -10q-71 0 -127 31t-91 82q-17 -30 -43 -51.5
t-56 -35t-62 -20t-61 -6.5zM229 56q48 0 88 17.5t62 46.5q17 17 19 35q-8 17 -12.5 42.5t-5.5 44.5q-27 9 -57 14t-59 5q-66 0 -107.5 -28t-41.5 -73q0 -22 9 -41t24 -33t36 -22t45 -8zM824 288q-3 39 -18 71.5t-39 56t-56 36.5t-69 13t-69 -13t-56 -36.5t-38.5 -56
t-16.5 -71.5h362z" />
    <glyph glyph-name="Oslashacute" unicode="&#x1fe;" horiz-adv-x="752" 
d="M665 710l-62 -92q51 -53 79 -122.5t28 -141.5q0 -71 -25.5 -136t-70 -114.5t-106 -79t-133.5 -29.5q-46 0 -87 11.5t-76 33.5l-27 -40h-98l61 91q-51 51 -79 120t-28 144q0 71 25.5 136t70.5 115t106.5 79.5t133.5 29.5q45 0 85.5 -12t75.5 -34l28 41h99zM619 355
q0 54 -17 103t-48 87l-296 -436q53 -33 118 -33q57 0 102 24.5t76.5 64t48 89.5t16.5 101zM132 355q0 -54 16.5 -104t48.5 -88l295 437q-53 33 -116 33q-57 0 -102 -24t-76.5 -63t-48.5 -89t-17 -102zM392 795l-58 20l58 101h88z" />
    <glyph glyph-name="oslashacute" unicode="&#x1ff;" horiz-adv-x="598" 
d="M125 54q-42 38 -65.5 91.5t-23.5 114.5q0 55 19.5 104t54 86t83 59t106.5 22q39 0 74 -10t64 -28l24 31h56l-45 -57q43 -38 67 -92t24 -115q0 -54 -19 -103t-54 -86t-83.5 -59t-107.5 -22q-78 0 -140 39l-24 -31h-55zM299 66q36 0 67.5 15t55.5 41.5t37.5 62t13.5 76.5
q0 42 -14.5 77.5t-38.5 61.5l-212 -306q40 -28 91 -28zM126 259q0 -42 14 -77.5t38 -61.5l211 307q-20 13 -42.5 20.5t-47.5 7.5q-36 0 -67.5 -15.5t-55 -42t-37 -62t-13.5 -76.5zM314 609l-58 20l58 101h88z" />
    <glyph glyph-name="uni0218" unicode="&#x218;" horiz-adv-x="613" 
d="M260 -132q25 0 25 20v64h73v-66q0 -37 -27.5 -48t-70.5 -11v41zM504 561q-12 14 -32 27t-45 23.5t-54.5 17t-61.5 6.5q-83 0 -121.5 -31t-38.5 -85q0 -29 11 -48t34.5 -32.5t58.5 -23.5t83 -21q55 -12 99.5 -27.5t76 -38.5t48 -56t16.5 -81q0 -51 -20 -88.5t-54.5 -62
t-81.5 -36t-102 -11.5q-82 0 -155.5 25.5t-133.5 74.5l43 76q16 -17 41.5 -34t58 -30.5t70 -22t78.5 -8.5q76 0 118 27t42 81q0 30 -13.5 50.5t-39.5 35.5t-64.5 26.5t-87.5 23.5q-54 13 -95 28t-68.5 36t-41.5 51t-14 72q0 51 19 90t53 66t81 40.5t102 13.5q72 0 130 -22
t103 -59z" />
    <glyph glyph-name="uni0219" unicode="&#x219;" horiz-adv-x="493" 
d="M191 -132q25 0 25 20v64h73v-66q0 -37 -27.5 -48t-70.5 -11v41zM254 -10q-63 0 -124 19.5t-105 56.5l38 59q46 -35 92 -52.5t97 -17.5q57 0 90.5 22.5t33.5 63.5q0 19 -9 32.5t-27 23.5t-46 18t-65 17q-47 12 -81 23t-56 26t-32 36t-10 52q0 39 15.5 69.5t42.5 51
t63.5 31t78.5 10.5q59 0 110 -19t86 -50l-40 -53q-33 29 -74 43.5t-84 14.5q-48 0 -81.5 -20.5t-33.5 -65.5q0 -18 6.5 -30t21.5 -21t38.5 -16t56.5 -15q52 -12 90.5 -24.5t64 -29.5t38 -40t12.5 -56q0 -73 -56 -116t-151 -43z" />
    <glyph glyph-name="uni021A" unicode="&#x21a;" horiz-adv-x="616" 
d="M249 -132q25 0 25 20v64h73v-66q0 -37 -27.5 -48t-70.5 -11v41zM598 630h-245v-630h-90v630h-245v80h580v-80z" />
    <glyph glyph-name="uni021B" unicode="&#x21b;" horiz-adv-x="347" 
d="M150 -132q25 0 25 20v64h73v-66q0 -37 -27.5 -48t-70.5 -11v41zM340 26q-8 -4 -21 -9.5t-29.5 -11t-36 -9t-40.5 -3.5q-48 0 -83 26.5t-35 82.5v351h-71v69h71v174h88v-174h117v-69h-117v-324q2 -29 19 -42t40 -13q26 0 47.5 8.5t29.5 13.5z" />
    <glyph glyph-name="dotlessj" unicode="&#x237;" 
d="M-5 -186q-35 0 -65.5 10t-54.5 32l41 59q14 -13 32.5 -18t36.5 -5q16 0 31 6.5t27 17.5t19 27t7 34v545h88v-539q0 -37 -13.5 -68t-36 -53.5t-51.5 -35t-61 -12.5z" />
    <glyph glyph-name="schwa" unicode="&#x259;" horiz-adv-x="591" 
d="M292 -10q-59 0 -107.5 21.5t-83.5 58.5t-54.5 86t-19.5 104q0 6 0.5 15.5t1.5 14.5h433q-3 39 -18 71t-39 55t-54.5 35.5t-64.5 12.5q-24 0 -47 -6.5t-43 -17.5t-35.5 -27t-23.5 -35l-76 21q13 28 35.5 52.5t52 42t65.5 27.5t76 10q58 0 107 -21.5t84 -59t54.5 -87
t19.5 -105.5q0 -55 -19 -103.5t-53.5 -85t-83 -58t-107.5 -21.5zM293 56q35 0 65 13t52.5 36.5t36.5 56t17 70.5h-352q3 -39 18.5 -71.5t40 -55.5t56 -36t66.5 -13z" />
    <glyph glyph-name="apostrophe" unicode="&#x2bc;" horiz-adv-x="370" 
d="M187 609l-57 20l37 63l-3 38h112z" />
    <glyph glyph-name="circumflex" unicode="&#x2c6;" horiz-adv-x="342" 
d="M38 640l101 90h64l101 -90l-48 -24l-85 63l-85 -63z" />
    <glyph glyph-name="caron" unicode="&#x2c7;" horiz-adv-x="342" 
d="M86 730l85 -63l85 63l48 -24l-101 -90h-64l-101 90z" />
    <glyph glyph-name="breve" unicode="&#x2d8;" horiz-adv-x="296" 
d="M148 662q22 0 38.5 19.5t19.5 48.5h50q0 -24 -8.5 -44t-23 -35t-34 -23.5t-42.5 -8.5t-42.5 8.5t-34 23.5t-23 35t-8.5 44h51q0 -27 17 -47.5t40 -20.5z" />
    <glyph glyph-name="dotaccent" unicode="&#x2d9;" horiz-adv-x="180" 
d="M50 624v106h80v-106h-80z" />
    <glyph glyph-name="ring" unicode="&#x2da;" horiz-adv-x="252" 
d="M45 661q0 32 23 50.5t58 18.5q36 0 58.5 -18.5t22.5 -50.5t-22.5 -50.5t-58.5 -18.5q-35 0 -58 18.5t-23 50.5zM126 699q-17 0 -28.5 -10.5t-11.5 -27.5q0 -16 11.5 -27t28.5 -11q16 0 28.5 10.5t12.5 27.5t-12 27.5t-29 10.5z" />
    <glyph glyph-name="ogonek" unicode="&#x2db;" horiz-adv-x="255" 
d="M142 -181q-42 8 -63 28.5t-21 48.5q0 30 25.5 60t81.5 62l26 -18q-44 -27 -63 -48.5t-19 -43.5q0 -37 55 -43l-22 -46v0z" />
    <glyph glyph-name="tilde" unicode="&#x2dc;" horiz-adv-x="415" 
d="M270 627q-23 0 -39.5 6.5t-31 14.5t-28.5 14.5t-30 6.5q-17 0 -26.5 -7t-14.5 -15.5t-6.5 -16.5t-1.5 -9h-52q0 6 4.5 23t15.5 35t30 31.5t49 13.5q21 0 37 -6.5t30.5 -15t29 -15t32.5 -6.5q19 0 30 7t17 16t7.5 16.5t1.5 9.5h52q0 -6 -4.5 -22.5t-16.5 -34.5t-32.5 -32
t-52.5 -14z" />
    <glyph glyph-name="hungarumlaut" unicode="&#x2dd;" horiz-adv-x="338" 
d="M86 609l-46 20l54 101h76zM222 609l-46 20l54 101h76z" />
    <glyph glyph-name="uni03BC" unicode="&#x3bc;" horiz-adv-x="609" 
d="M69 522h88v-296q0 -160 113 -160q26 0 52 9t48.5 25.5t40.5 40.5t30 54v327h88v-414q0 -31 28 -32v-76q-11 -2 -20 -3t-16 -1q-29 0 -46 14.5t-19 38.5l-3 63q-12 -24 -32 -46t-44.5 -39t-53 -27t-58.5 -10q-46 0 -74 22.5t-39 54.5v-279h-83v734z" />
    <glyph glyph-name="Ndotaccent" unicode="&#x1e44;" horiz-adv-x="770" 
d="M347 810v106h80v-106h-80zM175 542v-542h-90v710h70l440 -553v552h90v-709h-76z" />
    <glyph glyph-name="ndotaccent" unicode="&#x1e45;" horiz-adv-x="586" 
d="M261 624v106h80v-106h-80zM522 0h-88v292q0 84 -25.5 122t-77.5 38q-27 0 -54 -10.5t-51 -28.5t-42 -43t-27 -55v-315h-88v522h80v-112q31 55 89.5 88t127.5 33q45 0 75 -16.5t48 -46t25.5 -69.5t7.5 -87v-312z" />
    <glyph glyph-name="Wgrave" unicode="&#x1e80;" horiz-adv-x="1048" 
d="M344 706h85l94 -247l95 247h85l-123 -309l122 -293l240 606h98l-297 -710h-78l-141 335l-142 -335h-78l-296 710h97l241 -606l121 293zM419 917h87l59 -101l-57 -20z" />
    <glyph glyph-name="wgrave" unicode="&#x1e81;" horiz-adv-x="824" 
d="M727 522h85l-222 -522h-73l-105 255l-104 -255h-73l-222 522h84l180 -435l88 217l-90 217h73l64 -167l64 167h73l-89 -217l88 -217zM309 730h87l59 -101l-57 -20z" />
    <glyph glyph-name="Wacute" unicode="&#x1e82;" horiz-adv-x="1048" 
d="M538 795l-58 20l58 101h88zM344 706h85l94 -247l95 247h85l-123 -309l122 -293l240 606h98l-297 -710h-78l-141 335l-142 -335h-78l-296 710h97l241 -606l121 293z" />
    <glyph glyph-name="wacute" unicode="&#x1e83;" horiz-adv-x="824" 
d="M427 609l-58 20l58 101h88zM727 522h85l-222 -522h-73l-105 255l-104 -255h-73l-222 522h84l180 -435l88 217l-90 217h73l64 -167l64 167h73l-89 -217l88 -217z" />
    <glyph glyph-name="Wdieresis" unicode="&#x1e84;" horiz-adv-x="1048" 
d="M405 811v102h74v-102h-74zM567 811v102h74v-102h-74zM344 706h85l94 -247l95 247h85l-123 -309l122 -293l240 606h98l-297 -710h-78l-141 335l-142 -335h-78l-296 710h97l241 -606l121 293z" />
    <glyph glyph-name="wdieresis" unicode="&#x1e85;" horiz-adv-x="824" 
d="M294 624v102h74v-102h-74zM456 624v102h74v-102h-74zM727 522h85l-222 -522h-73l-105 255l-104 -255h-73l-222 522h84l180 -435l88 217l-90 217h73l64 -167l64 167h73l-89 -217l88 -217z" />
    <glyph glyph-name="Etilde" unicode="&#x1ebc;" horiz-adv-x="610" 
d="M567 80v-80h-482v710h473v-80h-383v-230h333v-75h-333v-245h392zM396 813q-23 0 -39.5 6.5t-31 14.5t-28.5 14.5t-30 6.5q-17 0 -26.5 -7t-14.5 -15.5t-6.5 -16.5t-1.5 -9h-52q0 6 4.5 23t15.5 35t30 31.5t49 13.5q21 0 37 -6.5t30.5 -15t29 -15t32.5 -6.5q19 0 30 7
t17 16t7.5 16.5t1.5 9.5h52q0 -6 -4.5 -22.5t-16.5 -34.5t-32.5 -32t-52.5 -14z" />
    <glyph glyph-name="etilde" unicode="&#x1ebd;" horiz-adv-x="591" 
d="M302 -10q-59 0 -108 21.5t-84 58.5t-54.5 86.5t-19.5 104.5t19.5 104t55 86t84.5 58.5t108 21.5t107.5 -22t82.5 -58.5t52.5 -85t18.5 -100.5q0 -11 -0.5 -20t-1.5 -14h-433q3 -39 18 -71t39 -55t54.5 -36t64.5 -13q24 0 47 6.5t43 17.5t35.5 27t23.5 36l76 -21
q-13 -29 -35.5 -53t-52 -41.5t-65.5 -27.5t-75 -10zM481 296q-3 37 -18.5 68.5t-39 53.5t-54.5 34.5t-66 12.5t-66 -12.5t-54.5 -35t-38 -53.5t-17.5 -68h354zM361 627q-23 0 -39.5 6.5t-31 14.5t-28.5 14.5t-30 6.5q-17 0 -26.5 -7t-14.5 -15.5t-6.5 -16.5t-1.5 -9h-52
q0 6 4.5 23t15.5 35t30 31.5t49 13.5q21 0 37 -6.5t30.5 -15t29 -15t32.5 -6.5q19 0 30 7t17 16t7.5 16.5t1.5 9.5h52q0 -6 -4.5 -22.5t-16.5 -34.5t-32.5 -32t-52.5 -14z" />
    <glyph glyph-name="Ygrave" unicode="&#x1ef2;" horiz-adv-x="637" 
d="M103 710l215 -370l217 370h98l-270 -451v-259h-90v261l-269 449h99zM214 917h87l59 -101l-57 -20z" />
    <glyph glyph-name="ygrave" unicode="&#x1ef3;" horiz-adv-x="543" 
d="M92 -143q27 -3 48 -3q9 0 17 4t18 19t23 44t32 79l-221 522h91l178 -443l162 443h84l-256 -659q-18 -47 -52 -67.5t-80 -20.5q-11 0 -22 1t-22 4v77zM174 730h87l59 -101l-57 -20z" />
    <glyph glyph-name="Ytilde" unicode="&#x1ef8;" horiz-adv-x="637" 
d="M103 710l215 -370l217 370h98l-270 -451v-259h-90v261l-269 449h99zM380 813q-23 0 -39.5 6.5t-31 14.5t-28.5 14.5t-30 6.5q-17 0 -26.5 -7t-14.5 -15.5t-6.5 -16.5t-1.5 -9h-52q0 6 4.5 23t15.5 35t30 31.5t49 13.5q21 0 37 -6.5t30.5 -15t29 -15t32.5 -6.5q19 0 30 7
t17 16t7.5 16.5t1.5 9.5h52q0 -6 -4.5 -22.5t-16.5 -34.5t-32.5 -32t-52.5 -14z" />
    <glyph glyph-name="ytilde" unicode="&#x1ef9;" horiz-adv-x="543" 
d="M92 -143q27 -3 48 -3q9 0 17 4t18 19t23 44t32 79l-221 522h91l178 -443l162 443h84l-256 -659q-18 -47 -52 -67.5t-80 -20.5q-11 0 -22 1t-22 4v77zM340 627q-23 0 -39.5 6.5t-31 14.5t-28.5 14.5t-30 6.5q-17 0 -26.5 -7t-14.5 -15.5t-6.5 -16.5t-1.5 -9h-52
q0 6 4.5 23t15.5 35t30 31.5t49 13.5q21 0 37 -6.5t30.5 -15t29 -15t32.5 -6.5q19 0 30 7t17 16t7.5 16.5t1.5 9.5h52q0 -6 -4.5 -22.5t-16.5 -34.5t-32.5 -32t-52.5 -14z" />
    <glyph glyph-name="endash" unicode="&#x2013;" horiz-adv-x="580" 
d="M63 233v80h454v-80h-454z" />
    <glyph glyph-name="emdash" unicode="&#x2014;" horiz-adv-x="909" 
d="M63 233v80h783v-80h-783z" />
    <glyph glyph-name="quoteleft" unicode="&#x2018;" horiz-adv-x="212" 
d="M153 531q-17 0 -35 4t-32 12.5t-23 23t-9 35.5v124h74v-110q0 -15 9 -19.5t16 -4.5v-65z" />
    <glyph glyph-name="quoteright" unicode="&#x2019;" horiz-adv-x="212" 
d="M50 730q17 0 34.5 -4t32 -12.5t23.5 -23t9 -35.5v-124h-74v110q0 15 -9 19.5t-16 4.5v65z" />
    <glyph glyph-name="quotesinglbase" unicode="&#x201a;" horiz-adv-x="214" 
d="M48 -16q7 0 16 4.5t9 19.5v104h73v-118q0 -21 -9 -35.5t-23 -23t-31.5 -12.5t-34.5 -4v65z" />
    <glyph glyph-name="quotedblleft" unicode="&#x201c;" horiz-adv-x="359" 
d="M153 531q-17 0 -35 4t-32 12.5t-23 23t-9 35.5v124h74v-110q0 -15 9 -19.5t16 -4.5v-65zM301 531q-17 0 -35 4t-32 12.5t-23 23t-9 35.5v124h74v-110q0 -15 9 -19.5t16 -4.5v-65z" />
    <glyph glyph-name="quotedblright" unicode="&#x201d;" horiz-adv-x="360" 
d="M50 730q17 0 34.5 -4t32 -12.5t23.5 -23t9 -35.5v-124h-74v110q0 15 -9 19.5t-16 4.5v65zM198 730q17 0 34.5 -4t32 -12.5t23.5 -23t9 -35.5v-124h-74v110q0 15 -9 19.5t-16 4.5v65z" />
    <glyph glyph-name="quotedblbase" unicode="&#x201e;" horiz-adv-x="351" 
d="M48 -16q7 0 16 4.5t9 19.5v104h73v-118q0 -21 -9 -35.5t-23 -23t-31.5 -12.5t-34.5 -4v65zM185 -16q7 0 16 4.5t9 19.5v104h73v-118q0 -21 -9 -35.5t-23 -23t-31.5 -12.5t-34.5 -4v65z" />
    <glyph glyph-name="dagger" unicode="&#x2020;" horiz-adv-x="430" 
d="M173 -130v361h-132v80h132v464h84v-464h131v-80h-131v-361h-84z" />
    <glyph glyph-name="daggerdbl" unicode="&#x2021;" horiz-adv-x="439" 
d="M178 -130v272h-132v80h132v111h-132v80h132v362h84v-362h131v-80h-131v-111h131v-80h-131v-272h-84z" />
    <glyph glyph-name="bullet" unicode="&#x2022;" horiz-adv-x="357" 
d="M273 347q0 -20 -7.5 -37t-20 -29.5t-30 -20t-36.5 -7.5t-36 7.5t-30 20t-20.5 29.5t-7.5 37q0 19 7.5 36t20.5 30t30 20.5t36 7.5t36.5 -7.5t30 -20.5t20 -30t7.5 -36z" />
    <glyph glyph-name="ellipsis" unicode="&#x2026;" horiz-adv-x="501" 
d="M63 0v112h74v-112h-74zM214 0v112h73v-112h-73zM364 0v112h74v-112h-74z" />
    <glyph glyph-name="perthousand" unicode="&#x2030;" horiz-adv-x="1101" 
d="M201 428q-32 0 -60 11.5t-49 31t-33 46.5t-12 57t12 57t33 46.5t49 31t60 11.5t60 -11.5t49 -31t33 -46.5t12 -57t-12 -57t-33 -46.5t-49 -31t-60 -11.5zM201 476q19 0 35.5 8t28.5 21.5t19 31t7 37.5t-7.5 38t-19.5 31.5t-28.5 21t-34.5 7.5q-19 0 -35.5 -8t-28.5 -21.5
t-19 -31.5t-7 -37q0 -20 7.5 -38t19.5 -31.5t28.5 -21t34.5 -7.5zM552 -10q-32 0 -60 11.5t-49 31t-33 46.5t-12 57t12 57t33 46.5t49 31t60 11.5t60 -11.5t49 -31t33 -46.5t12 -57t-12 -57t-33 -46.5t-49 -31t-60 -11.5zM552 38q19 0 35.5 8t28.5 21.5t19 31t7 37.5
t-7.5 38t-19.5 31.5t-28.5 21t-34.5 7.5q-19 0 -35.5 -8t-28.5 -21.5t-19 -31.5t-7 -37q0 -20 7 -38t19.5 -31.5t29 -21t34.5 -7.5zM913 -10q-32 0 -60 11.5t-49 31t-33 46.5t-12 57t12 57t33 46.5t49 31t60 11.5t60 -11.5t49 -31t33 -46.5t12 -57t-12 -57t-33 -46.5
t-49 -31t-60 -11.5zM913 38q19 0 35.5 8t28.5 21.5t19 31t7 37.5t-7.5 38t-19.5 31.5t-28.5 21t-34.5 7.5q-19 0 -35.5 -8t-28.5 -21.5t-19 -31.5t-7 -37q0 -20 7 -38t19.5 -31.5t29 -21t34.5 -7.5zM81 33l280 337l268 345l43 -37l-277 -335l-272 -348z" />
    <glyph glyph-name="guilsinglleft" unicode="&#x2039;" horiz-adv-x="357" 
d="M42 280l253 181v-74l-182 -128l182 -125v-74l-253 174v46z" />
    <glyph glyph-name="guilsinglright" unicode="&#x203a;" horiz-adv-x="357" 
d="M315 234l-253 -174v74l182 125l-182 128v74l253 -181v-46z" />
    <glyph glyph-name="fraction" unicode="&#x2044;" horiz-adv-x="168" 
d="M-211 33l280 337l268 345l43 -37l-277 -335l-272 -348z" />
    <glyph glyph-name="zerosuperior" unicode="&#x2070;" horiz-adv-x="467" 
d="M234 319q-49 0 -86 19t-62 49t-37.5 66.5t-12.5 70.5q0 37 14 73.5t39.5 66t62 48t82.5 18.5q49 0 85.5 -19.5t61.5 -50t37.5 -67t12.5 -69.5q0 -37 -13.5 -73.5t-39 -66t-62 -47.5t-82.5 -18zM93 524q0 -26 9 -53t27 -48.5t44 -35t61 -13.5q36 0 62.5 14.5t44 37
t26 48.5t8.5 50q0 27 -9.5 53.5t-27.5 48.5t-44 35.5t-60 13.5q-36 0 -62.5 -14.5t-44 -37t-26 -49t-8.5 -50.5z" />
    <glyph glyph-name="foursuperior" unicode="&#x2074;" horiz-adv-x="392" 
d="M249 325v99h-226v53l243 253h38v-252h59v-54h-59v-99h-55zM80 478h171v180z" />
    <glyph glyph-name="fivesuperior" unicode="&#x2075;" horiz-adv-x="383" 
d="M195 584q33 0 61.5 -9.5t49.5 -26.5t33 -41t12 -52q0 -30 -13 -55t-35.5 -43t-53.5 -28t-66 -10q-51 0 -91.5 20t-60.5 54l35 34q19 -26 50 -40.5t70 -14.5q46 0 77 22.5t31 61.5q0 21 -9 37t-24 26.5t-33.5 16t-37.5 5.5q-29 0 -56.5 -13t-42.5 -34h-50q4 21 12 54.5
t16.5 68.5t15.5 66t10 47h229v-55h-188l-30 -117q16 12 38.5 19t50.5 7z" />
    <glyph glyph-name="sixsuperior" unicode="&#x2076;" horiz-adv-x="411" 
d="M379 456q0 -30 -13 -55.5t-36 -44.5t-54 -30t-67 -11q-76 0 -123 47t-47 132q0 118 48.5 177t129.5 59q45 0 82.5 -18t57.5 -51l-33 -37q-14 24 -44 39t-65 15q-56 0 -89.5 -37.5t-34.5 -106.5q15 27 49.5 42.5t72.5 15.5q36 0 66 -10.5t52.5 -29t35 -43.5t12.5 -53z
M211 366q24 0 44.5 7t36.5 19.5t25 28.5t9 34t-9 34.5t-25 28.5t-37 19t-45 7t-45 -7t-37 -19t-25 -28t-9 -34t9.5 -34.5t25.5 -29t37 -19.5t45 -7z" />
    <glyph glyph-name="sevensuperior" unicode="&#x2077;" horiz-adv-x="362" 
d="M272 675h-246v55h334l-239 -405h-63z" />
    <glyph glyph-name="eightsuperior" unicode="&#x2078;" horiz-adv-x="405" 
d="M368 439q0 -27 -13.5 -49t-36.5 -37.5t-53 -24.5t-64 -9q-36 0 -66 9.5t-52 26t-34.5 39t-12.5 47.5q0 19 7.5 35t20 28.5t29 22t33.5 15.5q-29 11 -51.5 31t-22.5 51q0 24 13.5 44t34.5 33.5t48 21t54 7.5t54 -7.5t48 -21t34.5 -33t13.5 -43.5q0 -30 -21.5 -51
t-53.5 -32q39 -14 65 -39.5t26 -63.5zM312 445q0 17 -10 30.5t-25.5 22.5t-35.5 14t-39 5q-21 0 -41 -5t-35 -14.5t-24.5 -23t-9.5 -29.5q0 -17 10 -30t26 -22t35.5 -14t39.5 -5t39.5 5t35 14.5t25 22.5t9.5 29zM108 620q0 -14 8.5 -24.5t22 -18t30 -11t33.5 -3.5q16 0 33 4
t31 11t22.5 17.5t8.5 24.5q0 13 -8 24t-21.5 18t-30.5 11t-35 4q-38 0 -66 -15.5t-28 -41.5z" />
    <glyph glyph-name="ninesuperior" unicode="&#x2079;" horiz-adv-x="411" 
d="M33 589q0 30 13 55.5t36 44.5t53.5 30t66.5 11q76 0 123.5 -47t47.5 -132q0 -118 -48.5 -177t-129.5 -59q-45 0 -83 18.5t-58 51.5l34 36q14 -25 43.5 -39.5t65.5 -14.5q55 0 89 37.5t35 106.5q-15 -26 -50 -42t-73 -16q-35 0 -65.5 10.5t-52.5 29t-34.5 43t-12.5 53.5z
M201 679q-24 0 -44.5 -7t-36.5 -19.5t-25 -28.5t-9 -34t9.5 -34t25 -28t36.5 -19t45 -7t44.5 7t36.5 19t25 27.5t9 33.5t-9.5 34.5t-25 29t-36.5 19.5t-45 7z" />
    <glyph glyph-name="zeroinferior" unicode="&#x2080;" horiz-adv-x="467" 
d="M234 -5q-49 0 -86 19t-62 49t-37.5 66.5t-12.5 70.5q0 37 14 73.5t39.5 66t62 48t82.5 18.5q49 0 85.5 -19.5t61.5 -50t37.5 -67t12.5 -69.5q0 -37 -13.5 -73.5t-39 -66t-62 -47.5t-82.5 -18zM93 200q0 -26 9 -53t27 -48.5t44 -35t61 -13.5q36 0 62.5 14.5t44 37t26 48.5
t8.5 50q0 27 -9.5 53.5t-27.5 48.5t-44 35.5t-60 13.5q-36 0 -62.5 -14.5t-44 -37t-26 -49t-8.5 -50.5z" />
    <glyph glyph-name="oneinferior" unicode="&#x2081;" horiz-adv-x="300" 
d="M280 54v-54h-232v54h91v295q-6 -7 -18 -15.5t-27 -16t-31.5 -12.5t-29.5 -5v55q18 0 36.5 8.5t34 18.5t25.5 19t10 10h56v-357h85z" />
    <glyph glyph-name="twoinferior" unicode="&#x2082;" horiz-adv-x="401" 
d="M34 0q0 39 7.5 68.5t23 51.5t40 38.5t57.5 29.5q23 9 47 17.5t43.5 19.5t32 26t12.5 37q0 30 -24.5 49.5t-72.5 19.5q-24 0 -43.5 -5t-35.5 -13t-27.5 -17.5t-19.5 -18.5l-36 40q5 7 18.5 18.5t34.5 22.5t50.5 19t66.5 8q75 0 113 -34.5t38 -89.5q0 -32 -14 -53
t-34.5 -35.5t-44.5 -23.5t-44 -15q-31 -10 -50.5 -23t-30.5 -27t-15 -28.5t-4 -27.5h238v-54h-326z" />
    <glyph glyph-name="threeinferior" unicode="&#x2083;" horiz-adv-x="397" 
d="M192 -5q-63 0 -105.5 22.5t-52.5 63.5l32 37q1 -11 10.5 -22.5t26 -22t39 -17t49.5 -6.5q47 0 79.5 17.5t32.5 47.5q0 33 -40 51t-109 18h-23v50h23q63 0 99 15t36 47q0 30 -30.5 47t-69.5 17q-41 0 -70 -15t-45 -39l-37 43q20 29 62 45.5t90 16.5q34 0 63 -8.5
t50.5 -23.5t33.5 -35t12 -44q0 -35 -23.5 -57.5t-68.5 -31.5q48 -7 75.5 -36t27.5 -68q0 -27 -13.5 -48t-37 -35.5t-53.5 -21.5t-63 -7z" />
    <glyph glyph-name="fourinferior" unicode="&#x2084;" horiz-adv-x="392" 
d="M249 0v100h-226v53l243 253h38v-252h59v-54h-59v-100h-55zM80 154h171v180z" />
    <glyph glyph-name="fiveinferior" unicode="&#x2085;" horiz-adv-x="382" 
d="M194 260q33 0 61.5 -9.5t49.5 -26.5t33 -41t12 -53q0 -30 -13 -55t-35.5 -42.5t-53.5 -27.5t-66 -10q-51 0 -91.5 20t-60.5 53l35 34q19 -25 50 -40t70 -15q46 0 77 23t31 62q0 21 -9 37t-24 26.5t-33.5 16t-37.5 5.5q-29 0 -56.5 -13t-42.5 -34h-50q4 21 12 54.5
t16.5 68.5t15.5 66t10 47h229v-55h-188l-30 -117q16 12 38.5 19t50.5 7z" />
    <glyph glyph-name="sixinferior" unicode="&#x2086;" horiz-adv-x="411" 
d="M379 135q0 -29 -13 -54.5t-36 -44.5t-54 -30t-67 -11q-76 0 -123 47t-47 132q0 117 48.5 176t129.5 59q45 0 82.5 -18t57.5 -51l-33 -37q-14 25 -44 39.5t-65 14.5q-56 0 -89.5 -37.5t-34.5 -106.5q15 27 49.5 42.5t72.5 15.5q36 0 66 -10.5t52.5 -29t35 -43.5t12.5 -53z
M211 45q24 0 44.5 7t36.5 19.5t25 28.5t9 34t-9 34.5t-25 28.5t-37 19t-45 7t-45 -7t-37 -19t-25 -28t-9 -34t9.5 -34.5t25.5 -29t37 -19.5t45 -7z" />
    <glyph glyph-name="seveninferior" unicode="&#x2087;" horiz-adv-x="363" 
d="M273 351h-247v55h334l-239 -406h-63z" />
    <glyph glyph-name="eightinferior" unicode="&#x2088;" horiz-adv-x="405" 
d="M368 115q0 -27 -13.5 -49t-36.5 -37.5t-53 -24.5t-64 -9q-36 0 -66 9.5t-52 26t-34.5 39t-12.5 47.5q0 19 7.5 35t20 28.5t29 22t33.5 15.5q-29 11 -51.5 31t-22.5 51q0 24 13.5 44t34.5 33.5t48 21t54 7.5t54 -7.5t48 -21t34.5 -33t13.5 -43.5q0 -30 -21.5 -51
t-53.5 -32q39 -14 65 -39.5t26 -63.5zM312 121q0 17 -10 30.5t-25.5 22.5t-35.5 14t-39 5q-21 0 -41 -5t-35 -15t-24.5 -23.5t-9.5 -29.5q0 -17 10 -30t26 -22t35.5 -13.5t39.5 -4.5t39.5 5t35 14.5t25 22.5t9.5 29zM108 295q0 -14 8.5 -24.5t22 -17.5t30 -11t33.5 -4
q16 0 33 4t31 11.5t22.5 18t8.5 24.5q0 13 -8 23.5t-21.5 18t-30.5 11.5t-35 4q-38 0 -66 -15.5t-28 -42.5z" />
    <glyph glyph-name="nineinferior" unicode="&#x2089;" horiz-adv-x="411" 
d="M33 269q0 29 13 54.5t36 44.5t53.5 30t66.5 11q76 0 123.5 -47t47.5 -132q0 -118 -48.5 -176.5t-129.5 -58.5q-45 0 -83 18t-58 51l34 37q14 -25 43.5 -39.5t65.5 -14.5q55 0 89 37t35 106q-15 -26 -50 -42t-73 -16q-35 0 -65.5 10.5t-52.5 29t-34.5 43.5t-12.5 54z
M201 358q-24 0 -44.5 -7t-36.5 -19.5t-25 -28.5t-9 -34t9.5 -34t25 -28t36.5 -19t45 -7t44.5 7t36.5 19t25 28t9 34t-9.5 34t-25 28.5t-36.5 19.5t-45 7z" />
    <glyph glyph-name="Euro" unicode="&#x20ac;" horiz-adv-x="796" 
d="M136 422q10 57 36.5 109.5t69 93t99.5 65t128 24.5q95 0 163 -43t101 -112l-71 -46q-16 34 -38.5 57t-49 37t-54.5 20t-55 6q-50 0 -89.5 -17.5t-69.5 -46.5t-49.5 -67t-28.5 -80h315l-22 -52h-299q0 -22 0.5 -35t2.5 -24h283l-22 -52h-249q13 -39 35 -73t52 -58.5
t66.5 -38.5t77.5 -14q28 0 57.5 7t56.5 22.5t50.5 39t38.5 56.5l75 -41q-17 -40 -47.5 -70.5t-69 -51.5t-81.5 -32t-84 -11q-60 0 -111.5 21.5t-92.5 57.5t-70.5 84t-44.5 102h-111l22 52h78q-2 12 -2.5 25.5t-0.5 33.5h-73l22 52h56z" />
    <glyph glyph-name="trademark" unicode="&#x2122;" horiz-adv-x="756" 
d="M309 652h-95v-232h-60v232h-95v60h250v-60zM594 710h86v-290h-60v208l-78 -166h-49l-78 166v-208h-60v290h85l77 -178z" />
    <glyph glyph-name="onethird" unicode="&#x2153;" horiz-adv-x="895" 
d="M687 -5q-63 0 -105.5 22.5t-52.5 63.5l32 37q1 -11 10.5 -22.5t26 -22t39 -17t49.5 -6.5q47 0 79.5 17.5t32.5 47.5q0 33 -40 51t-109 18h-23v50h23q63 0 99 15t36 47q0 30 -30.5 47t-69.5 17q-41 0 -70 -15t-45 -39l-37 43q20 29 62 45.5t90 16.5q34 0 63 -8.5
t50.5 -23.5t33.5 -35t12 -44q0 -35 -23.5 -57.5t-68.5 -31.5q48 -7 75.5 -36t27.5 -68q0 -27 -13.5 -48t-37 -35.5t-53.5 -21.5t-63 -7zM272 375v-55h-210v55h80v294q-5 -6 -16 -14.5t-24.5 -16t-28 -13t-26.5 -5.5v55q16 0 32.5 8.5t30.5 18.5t23 19t9 10h56v-356h74z
M113 33l280 337l268 345l43 -37l-277 -335l-272 -348z" />
    <glyph glyph-name="twothirds" unicode="&#x2154;" horiz-adv-x="910" 
d="M701 -5q-63 0 -105.5 22.5t-52.5 63.5l32 37q1 -11 10.5 -22.5t26 -22t39 -17t49.5 -6.5q47 0 79.5 17.5t32.5 47.5q0 33 -40 51t-109 18h-23v50h23q63 0 99 15t36 47q0 30 -30.5 47t-69.5 17q-41 0 -70 -15t-45 -39l-37 43q20 29 62 45.5t90 16.5q34 0 63 -8.5
t50.5 -23.5t33.5 -35t12 -44q0 -35 -23.5 -57.5t-68.5 -31.5q48 -7 75.5 -36t27.5 -68q0 -27 -13.5 -48t-37 -35.5t-53.5 -21.5t-63 -7zM47 320q0 39 7 68.5t22 51.5t38 38.5t55 29.5q22 9 45.5 17.5t43 20t31.5 26.5t12 37q0 29 -23.5 48.5t-70.5 19.5q-23 0 -42 -5
t-34 -13t-26.5 -17.5t-19.5 -17.5l-34 39q4 7 17 18.5t33.5 22.5t49 19t64.5 8q72 0 109 -34.5t37 -88.5q0 -32 -13.5 -53.5t-34 -36t-44 -23.5t-42.5 -15q-30 -10 -48.5 -23t-29 -27t-14.5 -28.5t-4 -27.5h223v-54h-307zM167 33l280 337l268 345l43 -37l-277 -335
l-272 -348z" />
    <glyph glyph-name="oneeighth" unicode="&#x215b;" horiz-adv-x="892" 
d="M853 115q0 -27 -13.5 -49t-36.5 -37.5t-53 -24.5t-64 -9q-36 0 -66 9.5t-52 26t-34.5 39t-12.5 47.5q0 19 7.5 35t20 28.5t29 22t33.5 15.5q-29 11 -51.5 31t-22.5 51q0 24 13.5 44t34.5 33.5t48 21t54 7.5t54 -7.5t48 -21t34.5 -33t13.5 -43.5q0 -30 -21.5 -51
t-53.5 -32q39 -14 65 -39.5t26 -63.5zM797 121q0 17 -10 30.5t-25.5 22.5t-35.5 14t-39 5q-21 0 -41 -5t-35 -15t-24.5 -23.5t-9.5 -29.5q0 -17 10 -30t26 -22t35.5 -13.5t39.5 -4.5t39.5 5t35 14.5t25 22.5t9.5 29zM593 295q0 -14 8.5 -24.5t22 -17.5t30 -11t33.5 -4
q16 0 33 4t31 11.5t22.5 18t8.5 24.5q0 13 -8 23.5t-21.5 18t-30.5 11.5t-35 4q-38 0 -66 -15.5t-28 -42.5zM271 375v-55h-210v55h80v294q-5 -6 -16 -14.5t-24.5 -16t-28 -13t-26.5 -5.5v55q16 0 32.5 8.5t30.5 18.5t23 19t9 10h56v-356h74zM125 33l280 337l268 345l43 -37
l-277 -335l-272 -348z" />
    <glyph glyph-name="threeeighths" unicode="&#x215c;" horiz-adv-x="901" 
d="M203 314q-63 0 -105.5 23t-52.5 63l32 38q1 -11 10.5 -22.5t26 -22t39 -17t49.5 -6.5q47 0 79.5 17.5t32.5 47.5q0 33 -40 50.5t-109 17.5h-23v51h23q63 0 99 15t36 47q0 30 -30.5 47t-69.5 17q-41 0 -70 -15t-45 -39l-37 43q20 29 62 45.5t90 16.5q34 0 63 -8.5
t50.5 -23.5t33.5 -35.5t12 -44.5q0 -35 -23.5 -57t-68.5 -31q48 -7 75.5 -36t27.5 -68q0 -27 -13.5 -48.5t-37 -35.5t-53.5 -21.5t-63 -7.5zM861 115q0 -27 -13.5 -49t-36.5 -37.5t-53 -24.5t-64 -9q-36 0 -66 9.5t-52 26t-34.5 39t-12.5 47.5q0 19 7.5 35t20 28.5t29 22
t33.5 15.5q-29 11 -51.5 31t-22.5 51q0 24 13.5 44t34.5 33.5t48 21t54 7.5t54 -7.5t48 -21t34.5 -33t13.5 -43.5q0 -30 -21.5 -51t-53.5 -32q39 -14 65 -39.5t26 -63.5zM805 121q0 17 -10 30.5t-25.5 22.5t-35.5 14t-39 5q-21 0 -41 -5t-35 -15t-24.5 -23.5t-9.5 -29.5
q0 -17 10 -30t26 -22t35.5 -13.5t39.5 -4.5t39.5 5t35 14.5t25 22.5t9.5 29zM601 295q0 -14 8.5 -24.5t22 -17.5t30 -11t33.5 -4q16 0 33 4t31 11.5t22.5 18t8.5 24.5q0 13 -8 23.5t-21.5 18t-30.5 11.5t-35 4q-38 0 -66 -15.5t-28 -42.5zM154 33l280 337l268 345l43 -37
l-277 -335l-272 -348z" />
    <glyph glyph-name="fiveeighths" unicode="&#x215d;" horiz-adv-x="908" 
d="M868 115q0 -27 -13.5 -49t-36.5 -37.5t-53 -24.5t-64 -9q-36 0 -66 9.5t-52 26t-34.5 39t-12.5 47.5q0 19 7.5 35t20 28.5t29 22t33.5 15.5q-29 11 -51.5 31t-22.5 51q0 24 13.5 44t34.5 33.5t48 21t54 7.5t54 -7.5t48 -21t34.5 -33t13.5 -43.5q0 -30 -21.5 -51
t-53.5 -32q39 -14 65 -39.5t26 -63.5zM812 121q0 17 -10 30.5t-25.5 22.5t-35.5 14t-39 5q-21 0 -41 -5t-35 -15t-24.5 -23.5t-9.5 -29.5q0 -17 10 -30t26 -22t35.5 -13.5t39.5 -4.5t39.5 5t35 14.5t25 22.5t9.5 29zM608 295q0 -14 8.5 -24.5t22 -17.5t30 -11t33.5 -4
q16 0 33 4t31 11.5t22.5 18t8.5 24.5q0 13 -8 23.5t-21.5 18t-30.5 11.5t-35 4q-38 0 -66 -15.5t-28 -42.5zM203 584q33 0 61.5 -9.5t49.5 -26.5t33 -41t12 -52q0 -30 -13 -55t-35.5 -43t-53.5 -28t-66 -10q-51 0 -91.5 20t-60.5 54l35 34q19 -26 50 -40.5t70 -14.5
q46 0 77 22.5t31 61.5q0 21 -9 37t-24 26.5t-33.5 16t-37.5 5.5q-29 0 -56.5 -13t-42.5 -34h-50q4 21 12 54.5t16.5 68.5t15.5 66t10 47h229v-55h-188l-30 -117q16 12 38.5 19t50.5 7zM150 33l280 337l268 345l43 -37l-277 -335l-272 -348z" />
    <glyph glyph-name="seveneighths" unicode="&#x215e;" horiz-adv-x="879" 
d="M841 115q0 -27 -13.5 -49t-36.5 -37.5t-53 -24.5t-64 -9q-36 0 -66 9.5t-52 26t-34.5 39t-12.5 47.5q0 19 7.5 35t20 28.5t29 22t33.5 15.5q-29 11 -51.5 31t-22.5 51q0 24 13.5 44t34.5 33.5t48 21t54 7.5t54 -7.5t48 -21t34.5 -33t13.5 -43.5q0 -30 -21.5 -51
t-53.5 -32q39 -14 65 -39.5t26 -63.5zM785 121q0 17 -10 30.5t-25.5 22.5t-35.5 14t-39 5q-21 0 -41 -5t-35 -15t-24.5 -23.5t-9.5 -29.5q0 -17 10 -30t26 -22t35.5 -13.5t39.5 -4.5t39.5 5t35 14.5t25 22.5t9.5 29zM581 295q0 -14 8.5 -24.5t22 -17.5t30 -11t33.5 -4
q16 0 33 4t31 11.5t22.5 18t8.5 24.5q0 13 -8 23.5t-21.5 18t-30.5 11.5t-35 4q-38 0 -66 -15.5t-28 -42.5zM79 33l280 337l268 345l43 -37l-277 -335l-272 -348zM290 675h-246v55h334l-239 -405h-63z" />
    <glyph glyph-name="minus" unicode="&#x2212;" horiz-adv-x="539" 
d="M68 269v72h403v-72h-403z" />
    <glyph glyph-name="uni2215" unicode="&#x2215;" horiz-adv-x="591" 
d="M-13 38l566 677l52 -43l-566 -677z" />
    <glyph glyph-name="uni2219" unicode="&#x2219;" horiz-adv-x="200" 
d="M63 245v124h74v-124h-74z" />
    <glyph glyph-name="commaaccent" unicode="&#xf6c3;" horiz-adv-x="168" 
d="M38 -132q25 0 25 20v64h73v-66q0 -37 -27.5 -48t-70.5 -11v41z" />
    <glyph glyph-name="s_t" unicode="&#xfb06;" horiz-adv-x="825" 
d="M818 26q-8 -4 -21.5 -9.5t-30 -11t-35.5 -9t-38 -3.5q-50 0 -84.5 26.5t-34.5 82.5v351h-71v69h71q0 52 -3 86.5t-13 54.5t-27.5 28.5t-45.5 8.5q-30 0 -50.5 -7.5t-33 -20.5t-18.5 -30.5t-6 -37.5q0 -26 7 -49.5t16 -42.5t17.5 -32t11.5 -17l-39 -53q-35 33 -73 45
t-73 12q-23 0 -44 -4.5t-38 -14t-27 -26t-10 -40.5q0 -26 12.5 -42t32 -25t43 -13.5t45.5 -7.5q40 -6 76.5 -14.5t64 -24.5t43.5 -41.5t16 -64.5q0 -42 -17 -72t-45.5 -49.5t-65.5 -28.5t-76 -9q-64 0 -123.5 21.5t-98.5 52.5l36 60q92 -69 185 -69q22 0 44.5 4.5t40 14.5
t28.5 26.5t11 39.5q0 27 -13.5 42t-34.5 24t-46.5 13t-49.5 8q-41 7 -75 16t-59 25t-39 40t-14 61q0 42 17 73t44.5 50.5t62 29t69.5 9.5q31 0 65.5 -7t60.5 -24q-13 26 -21.5 49t-8.5 56q0 28 9 53.5t29 44.5t52 30t79 11q56 0 87.5 -14t47.5 -42t19.5 -69.5t3.5 -96.5h116
v-69h-116v-324q0 -29 17.5 -42t42.5 -13q24 0 46 8.5t30 13.5z" />
    <glyph glyph-name="NULL" horiz-adv-x="0" 
 />
    <glyph glyph-name="B.sc" horiz-adv-x="583" 
d="M540 142q0 -33 -14 -59t-38 -44.5t-56.5 -28.5t-69.5 -10h-285v551h301q31 0 56.5 -12t43 -32t27 -45.5t9.5 -51.5q0 -41 -22 -75.5t-63 -51.5q51 -14 81 -51t30 -90zM459 157q0 18 -7 34t-19 28t-29 19.5t-36 7.5h-211v-177h205q20 0 38 7t31 19t20.5 28t7.5 34z
M157 481v-170h188q38 0 64 24.5t26 60.5q0 37 -24 61t-61 24h-193z" />
    <glyph glyph-name="C.sc" horiz-adv-x="597" 
d="M41 280q0 50 19.5 99t56 88t90 63t122.5 24q81 0 139 -33t86 -87l-63 -42q-13 25 -32 42.5t-41 28t-46 15t-46 4.5q-50 0 -88 -18t-64 -47.5t-39 -66.5t-13 -74q0 -41 15.5 -79t43 -67t65 -46t82.5 -17q23 0 48 5.5t47.5 17t42 29t32.5 42.5l67 -38q-15 -31 -41 -54.5
t-59 -40t-69.5 -25t-71.5 -8.5q-62 0 -114 24.5t-89.5 65t-58.5 91.5t-21 104z" />
    <glyph glyph-name="A.sc" horiz-adv-x="588" 
d="M13 0l248 551h66l247 -551h-85l-70 155h-250l-70 -155h-86zM294 452l-107 -227h212z" />
    <glyph glyph-name="D.sc" horiz-adv-x="623" 
d="M77 0v551h211q73 0 127.5 -21.5t91.5 -58.5t55.5 -87t18.5 -107q0 -63 -21 -114t-59 -87.5t-92.5 -56t-120.5 -19.5h-211zM499 277q0 45 -14 82t-41 64t-66 42t-90 15h-131v-409h131q52 0 91.5 15.5t66 43t40 65.5t13.5 82z" />
    <glyph glyph-name="E.sc" horiz-adv-x="534" 
d="M489 71v-71h-412v551h404v-71h-324v-166h282v-66h-282v-177h332z" />
    <glyph glyph-name="F.sc" horiz-adv-x="507" 
d="M77 0v551h400v-71h-320v-172h270v-67h-270v-241h-80z" />
    <glyph glyph-name="G.alt" horiz-adv-x="731" 
d="M382 -5q-75 0 -137.5 30.5t-108 81t-70.5 116t-25 135.5q0 69 24.5 133.5t69.5 114t107.5 79.5t137.5 30q90 0 159.5 -41.5t111.5 -110.5l-71 -57q-13 22 -32.5 45t-45 41.5t-57.5 30t-70 11.5q-56 0 -101 -24t-76.5 -63.5t-48.5 -90t-17 -102.5q0 -51 17 -101
t48.5 -89.5t76.5 -63.5t101 -24q46 0 85.5 17t69.5 45t50 64t27 75h-192v80h290v-9t-0.5 -15t-0.5 -15.5v-9.5q-5 -63 -30.5 -119.5t-67.5 -99.5t-99 -68.5t-125 -25.5z" />
    <glyph glyph-name="G.sc" horiz-adv-x="621" 
d="M501 71q-78 -75 -180 -75q-60 0 -111 24t-88.5 63t-59 90t-21.5 105q0 56 21 106t58.5 88t89 60.5t112.5 22.5q86 0 143 -33t86 -87l-62 -44q-26 47 -70.5 69.5t-99.5 22.5q-45 0 -81.5 -17.5t-62 -46t-39.5 -66.5t-14 -78q0 -42 15.5 -80t43.5 -66t65 -44.5t81 -16.5
q94 0 174 84v65h-129v60h197v-277h-68v71z" />
    <glyph glyph-name="H.sc" horiz-adv-x="643" 
d="M565 551v-551h-80v246h-328v-246h-80v551h80v-233h328v233h80z" />
    <glyph glyph-name="I.sc" horiz-adv-x="234" 
d="M77 0v551h80v-551h-80z" />
    <glyph glyph-name="J.sc" horiz-adv-x="430" 
d="M41 91q16 -10 45 -19t66 -9q42 0 67.5 13.5t38.5 39.5t17 65t4 90v280h80v-280q0 -63 -6.5 -114.5t-28 -88t-62.5 -56.5t-110 -20q-78 0 -132 33z" />
    <glyph glyph-name="K.sc" horiz-adv-x="570" 
d="M77 0v551h80v-295l307 295h87l-242 -243l255 -308h-86l-218 261l-103 -93v-168h-80z" />
    <glyph glyph-name="L.sc" horiz-adv-x="497" 
d="M77 0v551h80v-480h317v-71h-397z" />
    <glyph glyph-name="caron.alt" horiz-adv-x="232" 
d="M106 609l-58 20l58 101h88z" />
    <glyph glyph-name="M.sc" horiz-adv-x="755" 
d="M598 0v409l-198 -311h-45l-198 311v-409h-80v551h85l216 -345l216 345h84v-551h-80z" />
    <glyph glyph-name="N.sc" horiz-adv-x="666" 
d="M157 402v-402h-80v551h62l370 -410v410h80v-551h-67z" />
    <glyph glyph-name="O.sc" horiz-adv-x="651" 
d="M326 -4q-64 0 -116.5 24t-90 63t-58 89.5t-20.5 103.5q0 55 21.5 105t60 88.5t90.5 61.5t114 23q64 0 116 -24t89.5 -63.5t58 -90t20.5 -102.5q0 -55 -21.5 -105t-59.5 -88.5t-90.5 -61.5t-113.5 -23zM122 275q0 -40 14.5 -77.5t41.5 -66t64.5 -46t84.5 -17.5t84.5 18
t63.5 47.5t40 67t14 75.5q0 40 -14.5 77.5t-41.5 66t-64.5 45.5t-82.5 17q-47 0 -85 -18t-64.5 -47.5t-40.5 -66.5t-14 -75z" />
    <glyph glyph-name="P.sc" horiz-adv-x="542" 
d="M77 0v551h252q40 0 74 -15.5t59 -41t38.5 -57t13.5 -64.5q0 -35 -13 -67t-36.5 -57t-56.5 -40t-73 -15h-178v-194h-80zM157 265h173q47 0 75 31t28 77q0 23 -8.5 42.5t-23.5 34t-34.5 22.5t-41.5 8h-168v-215z" />
    <glyph glyph-name="Q.sc" horiz-adv-x="652" 
d="M487 45q-34 -23 -74.5 -36t-86.5 -13q-64 0 -116.5 24t-90 63t-58 89.5t-20.5 103.5q0 55 21.5 105.5t60 89t90.5 61.5t114 23q64 0 116 -24.5t89.5 -64t58 -90t20.5 -102.5q0 -54 -21 -104t-59 -88l76 -82h-78zM327 68q32 0 59 8.5t50 23.5l-80 87h79l44 -49
q24 29 37 65t13 73q0 40 -14.5 77.5t-41.5 66t-64.5 46t-82.5 17.5q-47 0 -85 -18t-64.5 -47.5t-40.5 -67t-14 -75.5q0 -40 14.5 -77.5t41.5 -66t64.5 -46t84.5 -17.5z" />
    <glyph glyph-name="R.sc" horiz-adv-x="578" 
d="M77 0v551h260q40 0 74 -15.5t58.5 -41t38 -57t13.5 -64.5q0 -28 -9 -54t-25.5 -48t-39.5 -38t-51 -23l146 -210h-92l-136 194h-157v-194h-80zM157 265h180q23 0 42 8.5t32.5 23.5t21 34.5t7.5 41.5t-8.5 41.5t-23.5 34t-34.5 23t-41.5 8.5h-175v-215z" />
    <glyph glyph-name="S.sc" horiz-adv-x="531" 
d="M431 427q-23 23 -65.5 40t-95.5 17q-68 0 -99.5 -22t-31.5 -61q0 -20 9.5 -34t28.5 -24t48.5 -17.5t68.5 -16.5q46 -10 83 -22t63 -29.5t40 -43.5t14 -63q0 -41 -17 -71t-46 -49t-68.5 -28t-85.5 -9q-69 0 -130.5 19.5t-112.5 56.5l38 68q29 -28 83.5 -50t123.5 -22
q60 0 94.5 19.5t34.5 57.5q0 22 -11 37t-33 26t-53.5 19.5t-72.5 17.5q-45 10 -79 22t-56.5 29t-34 41t-11.5 57q0 40 16.5 70.5t45 51t67.5 31t85 10.5q60 0 109 -17t87 -46z" />
    <glyph glyph-name="T.sc" horiz-adv-x="541" 
d="M518 480h-207v-480h-80v480h-208v71h495v-71z" />
    <glyph glyph-name="U.sc" horiz-adv-x="646" 
d="M322 68q51 0 85 17.5t54.5 46t28.5 65.5t8 75v279h80v-279q0 -56 -14 -106.5t-44.5 -88t-79 -59.5t-117.5 -22q-71 0 -120 23t-79 61.5t-43.5 88.5t-13.5 103v279h80v-279q0 -39 8.5 -76t29 -65.5t54 -45.5t83.5 -17z" />
    <glyph glyph-name="V.sc" horiz-adv-x="590" 
d="M98 551l197 -439l196 439h85l-247 -551h-69l-247 551h85z" />
    <glyph glyph-name="W.alt" horiz-adv-x="1071" 
d="M1056 710l-225 -710h-94l-204 563l-199 -563h-94l-225 710h101l179 -577l188 577h98l195 -577l178 577h102z" />
    <glyph glyph-name="W.sc" horiz-adv-x="908" 
d="M299 548h75l79 -189l80 189h75l-105 -243l99 -208l205 454h88l-253 -551h-69l-119 252l-119 -252h-70l-252 551h87l206 -454l97 208z" />
    <glyph glyph-name="X.sc" horiz-adv-x="560" 
d="M99 551l181 -222l181 222h89l-227 -279l220 -272h-88l-175 214l-174 -214h-89l220 272l-227 279h89z" />
    <glyph glyph-name="Y.sc" horiz-adv-x="556" 
d="M97 551l181 -281l182 281h88l-230 -352v-199h-80v200l-228 351h87z" />
    <glyph glyph-name="Z.sc" horiz-adv-x="552" 
d="M34 62l386 418h-378v71h472v-62l-379 -418h379v-71h-480v62z" />
    <glyph glyph-name="a.alt" horiz-adv-x="623" 
d="M284 -10q-55 0 -100.5 22t-78.5 59t-51 86t-18 103q0 56 18.5 105.5t51 86t76 58t94.5 21.5q63 0 112.5 -31.5t77.5 -82.5v100h88v-517h-88v99q-28 -50 -74.5 -79.5t-107.5 -29.5zM466 330q-21 54 -65.5 89.5t-99.5 35.5q-39 0 -71 -17t-55 -45t-35.5 -63t-12.5 -71
q0 -39 13 -74t36.5 -61.5t56 -42t71.5 -15.5q57 0 98.5 33t63.5 83v148z" />
    <glyph glyph-name="a.alt2" horiz-adv-x="547" 
d="M399 0v79q-34 -46 -85.5 -67.5t-108.5 -21.5q-37 0 -69 12.5t-55.5 34.5t-37 51.5t-13.5 64.5q0 41 19 71.5t50.5 50.5t70.5 29.5t80 9.5q51 0 88.5 -8.5t57.5 -17.5v42q0 63 -36 100t-102 37q-79 0 -166 -61l-29 57q45 30 95.5 49t107.5 19q53 0 93.5 -15t68.5 -42.5
t42 -66.5t14 -86v-321h-85zM377 120q19 21 19 39v77q-32 13 -66.5 19t-66.5 6q-26 0 -52.5 -5.5t-48 -18t-35 -31.5t-13.5 -46q0 -23 9 -42.5t25 -33t36.5 -21t43.5 -7.5q20 0 41.5 4t41.5 11.5t37 19.5t29 29z" />
    <glyph glyph-name="c_t" horiz-adv-x="897" 
d="M890 26q-16 -8 -50 -20.5t-77 -12.5q-24 0 -45 6.5t-37 20t-25.5 34t-9.5 48.5v351h-71v69h71v7q0 37 -1.5 68.5t-11.5 54t-30.5 35.5t-57.5 13q-51 0 -73.5 -30t-22.5 -72q0 -25 9 -53.5t21 -55.5t24 -49.5t18 -35.5l-86 -27q-23 40 -58.5 59t-80.5 19
q-39 0 -70.5 -16.5t-53.5 -44t-34 -62.5t-12 -72q0 -40 13.5 -75t37 -61.5t55.5 -42t69 -15.5q19 0 40.5 5.5t41 16t35 25.5t21.5 34l86 -26q-12 -31 -35 -55t-53 -41t-65 -26t-71 -9q-60 0 -109 23t-83.5 60.5t-53.5 86t-19 100.5q0 53 18 102t52 86.5t82.5 60t110.5 22.5
q49 0 83 -11.5t63 -31.5q-14 24 -26 53t-12 61q0 63 41 102.5t120 39.5q62 0 96 -17.5t49.5 -47.5t18 -70.5t2.5 -86.5h116v-69h-116v-324q0 -29 18 -42t41 -13q26 0 47.5 9t29.5 13z" />
    <glyph glyph-name="d.alt" horiz-adv-x="621" 
d="M464 0v92q-29 -47 -75.5 -74.5t-103.5 -27.5q-54 0 -100 22t-79 59t-51.5 86t-18.5 103q0 55 17.5 104.5t49 86.5t75 58.5t94.5 21.5q64 0 112.5 -32.5t79.5 -80.5v312h88v-730h-88zM464 333q-9 26 -27 48t-40.5 38.5t-48.5 26t-51 9.5q-38 0 -69.5 -16.5t-54 -44
t-34.5 -63t-12 -72.5q0 -39 14 -74.5t38 -61.5t56.5 -41.5t70.5 -15.5q24 0 50 9t48.5 25t39 37.5t20.5 45.5v150z" />
    <glyph glyph-name="eight.lnum" horiz-adv-x="599" 
d="M549 201q0 -48 -20.5 -86.5t-55 -65.5t-80 -42t-96.5 -15q-53 0 -98.5 16.5t-78.5 45t-52 67.5t-19 84q0 33 12 61t30.5 50t42.5 38.5t48 25.5q-22 9 -42 23.5t-35 33t-23.5 40.5t-8.5 47q0 45 20.5 79.5t53 58.5t72.5 36t80 12t80.5 -12t73 -35.5t53 -58t20.5 -79.5
q0 -50 -33 -88t-78 -57q27 -11 51.5 -28t42.5 -39.5t29 -50.5t11 -61zM460 207q0 32 -14.5 57.5t-37.5 43t-52 26.5t-58 9q-30 0 -58.5 -9.5t-51 -27.5t-36 -43.5t-13.5 -56.5q0 -32 14.5 -57t37.5 -42t51.5 -26.5t57.5 -9.5q30 0 58.5 10t51 28t36.5 43t14 55zM162 521
q0 -27 12.5 -47.5t32.5 -34.5t44 -21t48 -7t48 7.5t44 21.5t32.5 35t12.5 48q0 25 -11.5 45t-30.5 34t-44 21.5t-52 7.5t-51.5 -7.5t-43 -22t-30 -35t-11.5 -45.5z" />
    <glyph glyph-name="five.lnum" horiz-adv-x="566" 
d="M290 453q49 0 91.5 -16.5t73.5 -46.5t49 -71.5t18 -91.5q0 -53 -19.5 -96.5t-53 -75t-79.5 -48.5t-99 -17q-76 0 -136.5 36t-92.5 97l55 48q28 -47 74.5 -74.5t100.5 -27.5q34 0 63.5 11.5t51 32t33.5 49t12 63.5q0 33 -12 61t-32.5 48.5t-48.5 31.5t-60 11
q-42 0 -80 -19t-61 -54h-80q1 5 5 25.5t10 50t13 65.5t14 73q17 86 38 192h345v-81h-280l-43 -226q45 50 130 50z" />
    <glyph glyph-name="four.lnum" horiz-adv-x="572" 
d="M359 0v181h-334v79l361 450h61v-449h88v-80h-88v-181h-88zM117 261h251v314z" />
    <glyph glyph-name="j.alt" 
d="M69 517h88v-730h-88v730zM69 722h88v-102h-88v102z" />
    <glyph glyph-name="l.alt" horiz-adv-x="236" 
d="M74 730h88v-730h-88v730z" />
    <glyph glyph-name="nine.lnum" horiz-adv-x="606" 
d="M43 470q0 51 19.5 96t54 78t80.5 52t100 19q57 0 104.5 -21t81.5 -60t52.5 -95.5t18.5 -128.5q0 -105 -19 -184t-54 -131.5t-84 -78.5t-109 -26q-69 0 -125.5 33.5t-88.5 93.5l54 53q22 -47 65 -74.5t96 -27.5q82 0 131.5 72.5t50.5 204.5q-22 -52 -71 -83t-112 -31
q-51 0 -96 18.5t-78 51t-52 76t-19 93.5zM296 640q-35 0 -65.5 -13.5t-53 -36.5t-36 -54t-13.5 -65q0 -35 13.5 -65.5t36.5 -53t53.5 -36t65.5 -13.5q34 0 65 13.5t54 36t36.5 53t13.5 64.5t-13.5 65t-37 54.5t-54.5 37t-65 13.5z" />
    <glyph glyph-name="one.lnum" horiz-adv-x="437" 
d="M417 80v-80h-353v80h136v545q-8 -12 -26.5 -26.5t-41 -28t-47 -22.5t-44.5 -9v82q27 0 54.5 14.5t50.5 32.5t38 33t16 17h90v-638h127z" />
    <glyph glyph-name="q.alt" horiz-adv-x="620" 
d="M270 -10q-52 0 -95 22t-74 59.5t-48 86.5t-17 103q0 55 19 104t52.5 86t78.5 58.5t97 21.5q61 0 111 -30t79 -78v99h78v-735h-88v316q-72 -113 -193 -113zM300 66q56 0 96.5 32.5t66.5 79.5v150q-5 25 -21 48.5t-38.5 40.5t-49 27.5t-52.5 10.5q-39 0 -71 -16.5
t-55.5 -44t-36.5 -63t-13 -72.5q0 -39 13 -74.5t36 -61.5t55 -41.5t70 -15.5z" />
    <glyph glyph-name="seven.lnum" horiz-adv-x="534" 
d="M397 629h-364v81h504l-358 -710h-99z" />
    <glyph glyph-name="six.lnum" horiz-adv-x="606" 
d="M563 235q0 -51 -19.5 -95.5t-54 -78t-80.5 -52.5t-100 -19q-57 0 -104.5 21t-81.5 60.5t-52.5 96t-18.5 128.5q0 105 19 183.5t54 131t84 78.5t109 26q69 0 125.5 -33t88.5 -93l-54 -53q-22 47 -65 74.5t-96 27.5q-41 0 -74 -18.5t-57 -54.5t-37 -87.5t-14 -117.5
q22 52 71 83t112 31q51 0 96 -18.5t78 -51t52 -76t19 -93.5zM310 66q34 0 65 13.5t54 36.5t36.5 53.5t13.5 65.5q0 34 -13.5 65t-36.5 53.5t-54 36t-65 13.5q-35 0 -65.5 -13.5t-53.5 -36t-36.5 -53.5t-13.5 -65q0 -35 13.5 -65.5t36.5 -53.5t53.5 -36.5t65.5 -13.5z" />
    <glyph glyph-name="t.alt" horiz-adv-x="328" 
d="M98 0v469h-77v80h77v183h90v-183h123v-80h-123v-469h-90z" />
    <glyph glyph-name="three.lnum" horiz-adv-x="588" 
d="M283 -9q-46 0 -85.5 11t-70.5 31.5t-51.5 49.5t-27.5 65l50 53q2 -22 16 -45t37.5 -41.5t56.5 -30t74 -11.5q34 0 64 9t52.5 25t35 39t12.5 51q0 62 -59 95.5t-162 33.5h-34v75h34q93 0 147.5 29t54.5 89q0 28 -12 51t-32.5 38.5t-47 24t-54.5 8.5q-32 0 -59.5 -7.5
t-49.5 -20.5t-37.5 -30.5t-24.5 -36.5l-59 61q15 26 39.5 47t54.5 35.5t64.5 22t70.5 7.5q52 0 96 -15t76 -41.5t50 -62t18 -77.5q0 -61 -36 -100.5t-102 -55.5q35 -6 63.5 -23t49 -41t31.5 -54t11 -63q0 -47 -21 -83t-56 -61t-81 -38t-96 -13z" />
    <glyph glyph-name="two.lnum" horiz-adv-x="594" 
d="M49 0q0 70 12 121t36 89t59.5 66t82.5 51q33 16 69 31.5t65 35t48 47t19 69.5q0 26 -8.5 49t-25.5 40.5t-42.5 27.5t-60.5 10t-65 -9.5t-54 -24t-42.5 -31t-30.5 -31.5l-57 57q8 10 28.5 30t53 40.5t76.5 35.5t100 15t98 -16.5t70.5 -44.5t43 -66t14.5 -80
q0 -50 -18 -85.5t-46.5 -61.5t-64.5 -45.5t-73 -36.5q-51 -24 -84.5 -46t-54 -45.5t-28.5 -50.5t-8 -61h378v-80h-490z" />
    <glyph glyph-name="u.alt" horiz-adv-x="592" 
d="M438 0v107q-30 -56 -85 -86.5t-117 -30.5q-50 0 -83.5 17t-53 47t-27.5 70t-8 85v313h88v-296q0 -33 5 -62.5t18 -51t35 -34t57 -12.5q27 0 53 10t48 27t39 41t28 51v327h88v-522h-85z" />
    <glyph glyph-name="w.alt" horiz-adv-x="840" 
d="M546 0l-126 387l-127 -387h-93l-183 522h92l141 -414l128 414h84l128 -414l141 414h91l-182 -522h-94z" />
    <glyph glyph-name="y.alt" horiz-adv-x="542" 
d="M529 522l-281 -735h-100q1 1 8 19.5t18.5 48t26.5 67t33 78.5l-221 522h92l177 -443l163 443h84z" />
    <glyph glyph-name="zero.lnum" horiz-adv-x="692" 
d="M346 -10q-74 1 -129.5 35t-93 86.5t-56.5 115.5t-19 123q0 64 20.5 128.5t59.5 116t94 83.5t124 32q74 0 129.5 -34.5t93 -87.5t56.5 -116.5t19 -121.5q0 -65 -20.5 -129t-59.5 -115t-94 -83t-124 -33zM139 350q1 -49 14.5 -98.5t39.5 -89.5t64 -65.5t89 -25.5
q53 0 92 27t64.5 68t38 90.5t12.5 93.5q0 49 -14 98.5t-40 89.5t-65 65.5t-88 25.5q-53 0 -92 -27t-64.5 -68.5t-38 -90.5t-12.5 -93z" />
    </font>
</defs>
</svg>
