<?xml version="1.0" standalone="no"?>
<!DOCTYPE svg PUBLIC "-//W3C//DTD SVG 1.1//EN" "http://www.w3.org/Graphics/SVG/1.1/DTD/svg11.dtd" >
<svg>
<metadata>
Created by FontForge 20090622 at Tue Nov 19 15:51:25 2019
 By deploy user
Copyright (c) 1988, 1990, 1993 Adobe Systems Incorporated.  All Rights Reserved.Helvetica is a trademark of Linotype-Hell AG and/or its subsidiaries.
</metadata>
<defs>
<font id="HelveticaNeue-MediumItalic" horiz-adv-x="556" >
  <font-face 
    font-family="Helvetica 65 Medium"
    font-weight="500"
    font-style="italic"
    font-stretch="normal"
    units-per-em="1000"
    panose-1="2 11 6 0 0 0 0 0 0 0"
    ascent="782"
    descent="-218"
    x-height="517"
    cap-height="714"
    bbox="-165 -218 1125 947"
    underline-thickness="50"
    underline-position="-50"
    slope="-12"
    unicode-range="U+0020-U+FB02"
  />
<missing-glyph horiz-adv-x="278" 
 />
    <glyph glyph-name=".notdef" horiz-adv-x="278" 
 />
    <glyph glyph-name=".null" horiz-adv-x="0" 
 />
    <glyph glyph-name="nonmarkingreturn" horiz-adv-x="333" 
 />
    <glyph glyph-name="space" unicode=" " horiz-adv-x="278" 
 />
    <glyph glyph-name="space" unicode="&#xa0;" horiz-adv-x="278" 
 />
    <glyph glyph-name="exclam" unicode="!" horiz-adv-x="296" 
d="M9 0l27 125h129l-27 -125h-129zM117 506l43 208h123l-44 -212l-98 -303h-58z" />
    <glyph glyph-name="quotedbl" unicode="&#x22;" horiz-adv-x="444" 
d="M123 432v282h102v-282h-102zM299 432v282h102v-282h-102z" />
    <glyph glyph-name="numbersign" unicode="#" 
d="M505 285l-10 -75h-95l-30 -210h-80l29 210h-110l-30 -210h-80l29 210h-94l10 75h95l18 130h-94l10 75h94l29 210h81l-30 -210h111l29 210h81l-30 -210h96l-10 -75h-96l-18 -130h95zM348 415h-111l-18 -130h111z" />
    <glyph glyph-name="dollar" unicode="$" 
d="M205 75l51 246q-84 21 -135.5 62.5t-51.5 121.5q0 111 76 170t195 56l15 71h42l-15 -75q180 -23 174 -199h-108q4 45 -18 74.5t-66 38.5l-47 -230q35 -11 59.5 -21t51.5 -26.5t43 -35.5t27 -48t11 -65q0 -114 -81 -176t-199 -56l-18 -85h-42l17 86q-90 10 -142.5 59.5
t-52.5 131.5q0 27 2 41h113q-1 -9 -1 -26q0 -98 100 -115zM296 309l-49 -236q63 0 105.5 34.5t42.5 96.5q0 44 -26 67.5t-73 37.5zM277 421l45 220q-59 2 -99 -31.5t-40 -96.5q0 -22 6.5 -38t21 -26t29 -16t37.5 -12z" />
    <glyph glyph-name="percent" unicode="%" horiz-adv-x="944" 
d="M235 -24l398 748h73l-400 -748h-71zM226 319q-65 0 -104.5 39.5t-39.5 108.5q0 96 51 171.5t144 75.5q65 0 104.5 -39.5t39.5 -108.5q0 -100 -50 -173.5t-145 -73.5zM334 573q0 76 -55 76q-31 0 -54 -20t-34.5 -51.5t-16.5 -61t-5 -56.5q0 -76 56 -76q40 0 66.5 36
t34.5 75.5t8 77.5zM667 -14q-65 0 -104.5 39.5t-39.5 108.5q0 96 51 171.5t144 75.5q65 0 104.5 -39.5t39.5 -108.5q0 -100 -50 -173.5t-145 -73.5zM775 240q0 76 -55 76q-31 0 -53.5 -20t-34 -51.5t-17 -61t-5.5 -56.5q0 -76 56 -76q40 0 66.5 36t34.5 75.5t8 77.5z" />
    <glyph glyph-name="ampersand" unicode="&#x26;" horiz-adv-x="667" 
d="M370 147l-110 181q-136 -65 -136 -150q0 -47 31.5 -74.5t70.5 -27.5q38 0 78.5 20t65.5 51zM498 137l88 -137h-127l-40 66q-83 -80 -196 -80q-90 0 -148.5 54.5t-58.5 143.5q0 131 196 221q-53 78 -53 144q0 83 53 132.5t130 49.5q76 2 127 -40t51 -123q0 -35 -14.5 -65
t-42.5 -54.5t-52 -40.5t-60 -35l93 -152q42 45 59 119h103q-9 -51 -38.5 -106t-69.5 -97zM347 646q-39 0 -62.5 -23.5t-23.5 -68.5q0 -16 4.5 -32t8.5 -24t15 -28t14 -26q67 38 88 60q27 29 27 64q0 38 -20 58t-51 20z" />
    <glyph glyph-name="quotesingle" unicode="'" horiz-adv-x="278" 
d="M128 432v282h102v-282h-102z" />
    <glyph glyph-name="parenleft" unicode="(" horiz-adv-x="296" 
d="M273 731h97q-234 -293 -234 -616q0 -167 46 -306h-84q-70 182 -70 347t63 302t182 273z" />
    <glyph glyph-name="parenright" unicode=")" horiz-adv-x="296" 
d="M5 -191h-97q129 173 182 308t53 305q0 162 -47 309h83q72 -176 72 -357q0 -158 -64 -293t-182 -272z" />
    <glyph glyph-name="asterisk" unicode="*" horiz-adv-x="389" 
d="M300 530l52 -104l-61 -31l-51 106l-85 -91l-46 45l83 89l-101 52l32 59l102 -53l19 112h67l-23 -121l115 16l9 -64z" />
    <glyph glyph-name="plus" unicode="+" horiz-adv-x="600" 
d="M249 304v202h102v-202h201v-102h-201v-202h-102v202h-201v102h201z" />
    <glyph glyph-name="comma" unicode="," horiz-adv-x="278" 
d="M0 0l30 135h140q-6 -21 -13.5 -60t-13 -63.5t-18.5 -56.5t-29 -51t-44.5 -33.5t-66.5 -16.5l11 58q65 9 80 88h-76z" />
    <glyph glyph-name="hyphen" unicode="-" horiz-adv-x="389" 
d="M21 218l21 108h296l-21 -108h-296z" />
    <glyph glyph-name="hyphen" unicode="&#xad;" horiz-adv-x="389" 
d="M21 218l21 108h296l-21 -108h-296z" />
    <glyph glyph-name="period" unicode="." horiz-adv-x="278" 
d="M0 0l30 135h139l-30 -135h-139z" />
    <glyph glyph-name="slash" unicode="/" horiz-adv-x="352" 
d="M82 -17h-109l287 748h109z" />
    <glyph glyph-name="zero" unicode="0" 
d="M427 479q0 140 -106 140q-51 0 -91.5 -45.5t-61.5 -112t-32 -129.5t-11 -111q0 -140 106 -140q51 0 91.5 45.5t61.5 112t32 129.5t11 111zM11 254q0 12 1.5 35t9.5 68.5t20.5 90t37 94t57 86.5t84 61.5t113.5 24.5q109 0 158 -67.5t49 -200.5q0 -27 -5 -65t-17 -92.5
t-36.5 -106t-58 -96.5t-87 -72.5t-119.5 -27.5q-107 0 -157 71t-50 197z" />
    <glyph glyph-name="one" unicode="1" 
d="M113 494l19 90q74 0 136.5 29t93.5 87h91l-147 -700h-121l106 511q-78 -17 -178 -17z" />
    <glyph glyph-name="two" unicode="2" 
d="M481 102l-22 -102h-486q26 165 188 263l165 101q48 29 73 65t25 92q0 46 -33 72t-81 26q-64 0 -102 -45t-43 -116h-108q10 118 77.5 187t185.5 69q97 0 157.5 -49.5t60.5 -145.5q0 -80 -42 -135t-121 -104l-67 -39.5l-72.5 -44t-57 -42t-52.5 -52.5h355z" />
    <glyph glyph-name="three" unicode="3" 
d="M222 325l18 85h24q35 0 61 4t50 15.5t37 35t13 58.5q0 47 -30 71.5t-76 24.5q-59 0 -95.5 -36.5t-47.5 -97.5h-108q18 106 85 167.5t178 61.5q87 0 147.5 -44.5t60.5 -129.5q0 -64 -35.5 -109t-93.5 -60v-2q87 -33 87 -145q0 -111 -80.5 -174.5t-201.5 -63.5
q-100 0 -158.5 53t-58.5 145q0 14 2 46h108q-2 -22 -2 -30q0 -55 34.5 -87t94.5 -32q67 0 107.5 39.5t40.5 106.5q0 98 -131 98h-30z" />
    <glyph glyph-name="four" unicode="4" 
d="M320 256l65 293h-2l-271 -293h208zM529 256l-19 -90h-95l-35 -166h-114l35 166h-300l22 110l390 424h114l-93 -444h95z" />
    <glyph glyph-name="five" unicode="5" 
d="M45 318l115 382h385l-20 -102h-292l-52 -165l2 -2q52 40 130 40q89 0 143 -58.5t54 -147.5q0 -125 -79.5 -202t-203.5 -77q-103 0 -165.5 55t-59.5 157h114q6 -117 119 -117q69 0 115 48.5t46 117.5q0 63 -33 98.5t-88 35.5q-83 0 -129 -63h-101z" />
    <glyph glyph-name="six" unicode="6" 
d="M561 523h-114q0 44 -25 70t-67 26q-44 0 -78.5 -20t-58 -56.5t-37 -70.5t-26.5 -78l2 -2q54 68 151 68q98 0 151.5 -60t53.5 -158q0 -107 -72 -181.5t-173 -74.5q-245 0 -245 282q0 16 2 40t10 69t21 87.5t38.5 89t59 81t86 57t116.5 22.5q92 0 147.5 -49.5t57.5 -141.5z
M257 81q66 0 104 50t38 116q0 54 -31 88.5t-87 34.5q-67 0 -105.5 -45.5t-38.5 -113.5q0 -56 32 -93t88 -37z" />
    <glyph glyph-name="seven" unicode="7" 
d="M93 598l22 102h484l-22 -108q-163 -157 -268 -350q-59 -112 -94 -242h-127q94 327 361 598h-356z" />
    <glyph glyph-name="eight" unicode="8" 
d="M0 190q0 76 51 129t119 63v2q-87 47 -87 136q0 92 67.5 143t170.5 51q90 0 150 -42.5t60 -131.5q0 -67 -36 -111.5t-92 -56.5v-1q50 -19 76 -63.5t26 -105.5q0 -90 -81.5 -153t-178.5 -63q-112 0 -178.5 55t-66.5 149zM191 510q0 -45 31.5 -70.5t78.5 -25.5q58 0 90 28.5
t32 84.5q0 49 -31.5 73t-78.5 24q-55 0 -88.5 -31.5t-33.5 -82.5zM114 192q0 -58 36.5 -87t93.5 -29q66 0 106.5 39.5t40.5 101.5q0 57 -35.5 84.5t-95.5 27.5q-68 0 -107 -36t-39 -101z" />
    <glyph glyph-name="nine" unicode="9" 
d="M2 177h114q1 -45 26.5 -70.5t73.5 -25.5q38 0 68 15t48 35t33 54t22 58.5t16 62.5l-2 2q-52 -69 -152 -69q-24 0 -42.5 2t-51.5 14t-55 33t-39 65t-17 105q0 108 71.5 182t176.5 74q51 0 92 -13t65 -33.5t42.5 -47t25 -54t12 -53.5t3.5 -46t-1 -32v-7q0 -55 -9.5 -112.5
t-34 -117.5t-60 -106.5t-92.5 -76t-128 -29.5q-90 0 -146.5 50t-58.5 141zM277 329q67 0 103.5 46.5t36.5 115.5q0 57 -28.5 92.5t-85.5 35.5q-67 0 -106 -49t-39 -115q0 -58 29.5 -92t89.5 -34z" />
    <glyph glyph-name="colon" unicode=":" horiz-adv-x="278" 
d="M78 371l30 135h139l-30 -135h-139zM0 0l30 135h139l-30 -135h-139z" />
    <glyph glyph-name="semicolon" unicode=";" horiz-adv-x="278" 
d="M0 0l30 135h140q-6 -21 -13.5 -60t-13 -63.5t-18.5 -56.5t-29 -51t-44.5 -33.5t-66.5 -16.5l11 58q65 9 80 88h-76zM78 371l30 135h139l-30 -135h-139z" />
    <glyph glyph-name="less" unicode="&#x3c;" horiz-adv-x="600" 
d="M554 94v-102l-508 225v72l508 225v-102l-374 -159z" />
    <glyph glyph-name="equal" unicode="=" horiz-adv-x="600" 
d="M552 405v-102h-504v102h504zM552 203v-102h-504v102h504z" />
    <glyph glyph-name="greater" unicode="&#x3e;" horiz-adv-x="600" 
d="M46 94l374 159l-374 159v102l508 -225v-72l-508 -225v102z" />
    <glyph glyph-name="question" unicode="?" 
d="M289 203h-106q12 72 38 114.5t85 80.5q3 2 24.5 15.5t27 17.5l22 16.5t22 20.5l14.5 21.5t12 27.5t3 31q0 39 -32.5 63.5t-72.5 24.5q-59 0 -96 -41t-45 -102h-113q11 107 80 172.5t176 65.5q95 0 156 -44.5t61 -136.5q0 -19 -2.5 -36t-9.5 -32l-12 -26.5t-18 -25
t-20 -21.5t-24.5 -21l-24.5 -18l-27.5 -19.5t-27.5 -18.5q-44 -29 -59.5 -52.5t-30.5 -76.5zM130 0l27 125h129l-27 -125h-129z" />
    <glyph glyph-name="at" unicode="@" horiz-adv-x="800" 
d="M361 216q56 0 96.5 59t40.5 119q0 35 -23.5 61.5t-55.5 26.5q-57 0 -96.5 -57t-39.5 -118q0 -40 21.5 -65.5t56.5 -25.5zM615 542l-72 -263q-22 -69 10 -69q49 0 90.5 64t41.5 152q0 109 -77.5 174.5t-191.5 65.5q-126 0 -206.5 -86.5t-80.5 -213.5q0 -144 83.5 -231
t212.5 -87q65 0 124.5 26t100.5 73h70q-48 -77 -127.5 -120.5t-171.5 -43.5q-157 0 -264.5 109t-107.5 278q0 150 108.5 255.5t258.5 105.5q137 0 236 -83.5t99 -209.5q0 -71 -25 -130.5t-63 -94.5t-77 -54t-71 -19q-25 0 -41.5 15t-17.5 43h-2q-51 -57 -112 -57
q-62 0 -104 46t-42 111q0 100 62.5 179.5t156.5 79.5q77 0 112 -72l18 57h70z" />
    <glyph glyph-name="A" unicode="A" horiz-adv-x="685" 
d="M455 284l-44 304h-2l-172 -304h218zM-60 0l428 714h132l124 -714h-127l-29 189h-284l-110 -189h-134z" />
    <glyph glyph-name="B" unicode="B" horiz-adv-x="704" 
d="M1 0l148 714h308q66 0 111.5 -18t64.5 -47t26 -53t7 -49q0 -64 -37.5 -112t-99.5 -58v-2q107 -32 107 -150q0 -25 -6.5 -52t-24.5 -59t-46.5 -56.5t-78 -41t-112.5 -16.5h-367zM253 612l-41 -197h187q44 0 74 11.5t44 30.5t19 36t5 34q0 85 -110 85h-178zM194 325
l-47 -223h179q91 0 132 24q47 28 53 87q2 17 -0.5 32.5t-13.5 35.5t-40 32t-74 12h-189z" />
    <glyph glyph-name="C" unicode="C" horiz-adv-x="722" 
d="M696 476h-125q0 74 -42 113.5t-119 39.5q-81 0 -140.5 -50t-86.5 -123.5t-27 -156.5q0 -100 51.5 -157t144.5 -57q138 0 185 164h125q-30 -131 -114 -198.5t-200 -67.5q-149 0 -233 87.5t-84 224.5q0 108 33.5 194t89 137.5t122 78t138.5 26.5q130 0 208 -67.5t74 -187.5
z" />
    <glyph glyph-name="D" unicode="D" horiz-adv-x="722" 
d="M1 0l150 714h262q137 0 208.5 -75.5t71.5 -223.5q0 -71 -29.5 -156.5t-83.5 -138.5q-68 -67 -134.5 -93.5t-193.5 -26.5h-251zM255 612l-107 -510h156q61 0 109.5 26t76.5 63.5t46.5 83t25 80.5t6.5 61q0 93 -41.5 144.5t-115.5 51.5h-156z" />
    <glyph glyph-name="E" unicode="E" horiz-adv-x="630" 
d="M1 0l148 714h520l-22 -108h-397l-39 -187h368l-21 -102h-369l-43 -209h400l-22 -108h-523z" />
    <glyph glyph-name="F" unicode="F" horiz-adv-x="593" 
d="M1 0l149 714h487l-22 -108h-363l-39 -187h315l-22 -102h-314l-66 -317h-125z" />
    <glyph glyph-name="G" unicode="G" horiz-adv-x="759" 
d="M700 376l-80 -376h-80v75h-2q-35 -45 -88 -68.5t-102 -23.5q-149 0 -233 87.5t-84 224.5q0 108 33.5 194t89 137.5t122 78t138.5 26.5q132 0 214.5 -62.5t83.5 -182.5h-125q-4 71 -50 107t-127 36t-140.5 -50t-86.5 -123.5t-27 -156.5q0 -100 51.5 -157t144.5 -57
q88 0 141.5 52.5t75.5 143.5h-196l20 95h307z" />
    <glyph glyph-name="H" unicode="H" horiz-adv-x="722" 
d="M-6 0l148 714h125l-59 -284h334l59 284h125l-148 -714h-125l67 322h-334l-67 -322h-125z" />
    <glyph glyph-name="I" unicode="I" horiz-adv-x="278" 
d="M4 0l149 714h125l-149 -714h-125z" />
    <glyph glyph-name="J" unicode="J" horiz-adv-x="537" 
d="M340 264l93 450h125l-82 -399q-39 -178 -71 -232q-62 -100 -203 -100q-61 0 -104 18t-62 47t-26.5 53.5t-7.5 48.5q0 56 11 100h117q-11 -46 -11 -78q0 -87 92 -87q25 0 44.5 9t32 22.5t23 39t16 48t13.5 60.5z" />
    <glyph glyph-name="K" unicode="K" horiz-adv-x="685" 
d="M1 0l148 714h125l-67 -324l2 -2l364 326h167l-343 -295l224 -419h-142l-179 341l-126 -108l-48 -233h-125z" />
    <glyph glyph-name="L" unicode="L" horiz-adv-x="574" 
d="M4 0l148 714h125l-126 -606h360l-22 -108h-485z" />
    <glyph glyph-name="M" unicode="M" horiz-adv-x="889" 
d="M4 0l148 714h172l78 -544h2l310 544h177l-147 -714h-120l124 572h-2l-323 -572h-98l-90 572h-2l-109 -572h-120z" />
    <glyph glyph-name="N" unicode="N" horiz-adv-x="722" 
d="M1 0l148 714h137l219 -533h2l109 533h125l-148 -714h-137l-220 530h-2l-108 -530h-125z" />
    <glyph glyph-name="O" unicode="O" horiz-adv-x="759" 
d="M31 295q0 108 33.5 194t89 137.5t122 78t138.5 26.5q140 0 226 -87t86 -225q0 -108 -32 -194t-86 -137.5t-120 -78t-140 -26.5q-149 0 -233 87.5t-84 224.5zM156 299q0 -100 51.5 -157t144.5 -57q79 0 137 50t85 123.5t27 156.5q0 101 -49 157.5t-142 56.5
q-81 0 -140.5 -50t-86.5 -123.5t-27 -156.5z" />
    <glyph glyph-name="P" unicode="P" horiz-adv-x="667" 
d="M256 612l-49 -236h189q76 0 108.5 40.5t32.5 97.5q0 98 -119 98h-162zM4 0l148 714h287q46 0 82.5 -9t59.5 -22t39.5 -34.5t24 -38.5t12 -42t5 -38t0.5 -34q0 -5 -0.5 -14t-6 -31.5t-15 -43.5t-29 -46.5t-46 -43.5t-69.5 -30.5t-96 -12.5h-214l-57 -274h-125z" />
    <glyph glyph-name="Q" unicode="Q" horiz-adv-x="759" 
d="M364 169l70 63l74 -78q45 46 69 116t24 145q0 101 -49 157.5t-142 56.5q-81 0 -140.5 -50t-86.5 -123.5t-27 -156.5q0 -100 51.5 -157t144.5 -57q44 0 78 15zM595 -74l-87 92q-73 -35 -160 -35q-149 0 -233 87.5t-84 224.5q0 108 33.5 194t89 137.5t122 78t138.5 26.5
q140 0 226 -87t86 -225q0 -231 -138 -349l77 -81z" />
    <glyph glyph-name="R" unicode="R" horiz-adv-x="704" 
d="M1 0l148 714h309q25 0 47.5 -2t57.5 -12.5t59 -28t42.5 -54t18.5 -85.5q0 -165 -162 -194v-2q76 -28 76 -129q0 -23 -6 -73t-5 -75q0 -38 13 -59h-131q-8 24 -8 55q0 27 6 78.5t6 77.5q0 24 -8.5 40.5t-19 24.5t-31.5 12.5t-34.5 5t-40.5 0.5h-149l-61 -294h-127z
M255 612l-46 -223h183q79 0 122.5 34t43.5 96q0 93 -128 93h-175z" />
    <glyph glyph-name="S" unicode="S" horiz-adv-x="648" 
d="M13 236h120q-7 -151 164 -151q60 0 109.5 28.5t49.5 85.5q0 20 -5.5 35.5t-20.5 28t-25.5 20t-37.5 16.5l-38 12.5t-44 12.5q-31 8 -46 12.5t-48.5 20.5t-51.5 33.5t-33.5 48.5t-15.5 70q0 99 71 160.5t195 61.5q122 0 195 -54.5t69 -173.5h-120q-1 66 -36.5 96
t-109.5 30q-18 0 -37 -3.5t-44.5 -13t-41.5 -32.5t-16 -56q0 -20 9 -36t20 -26t34.5 -19.5t38.5 -13.5l47 -12t45 -11.5t41.5 -13.5t42 -18.5t34 -24.5t30 -34t17 -44t7.5 -57q0 -94 -73.5 -162.5t-223.5 -68.5q-131 0 -203 62t-68 191z" />
    <glyph glyph-name="T" unicode="T" horiz-adv-x="593" 
d="M57 606l22 108h588l-23 -108h-227l-126 -606h-125l126 606h-235z" />
    <glyph glyph-name="U" unicode="U" horiz-adv-x="741" 
d="M62 299l88 415h125l-92 -437q-7 -32 -8 -58q-1 -68 40.5 -98t112.5 -30q77 0 125.5 39.5t70.5 143.5l94 440h125l-94 -448q-9 -44 -19.5 -76t-35 -74t-58 -68.5t-91 -45.5t-131.5 -19q-113 0 -188.5 56.5t-75.5 163.5q0 41 12 96z" />
    <glyph glyph-name="V" unicode="V" horiz-adv-x="611" 
d="M160 0l-93 714h127l67 -564h2l298 564h133l-392 -714h-142z" />
    <glyph glyph-name="W" unicode="W" horiz-adv-x="926" 
d="M123 0l-53 714h128l24 -546h2l247 546h123l37 -546h2l234 546h128l-332 -714h-127l-34 546h-2l-250 -546h-127z" />
    <glyph glyph-name="X" unicode="X" horiz-adv-x="648" 
d="M-53 0l318 375l-169 339h137l117 -256l204 256h147l-295 -349l177 -365h-134l-128 277l-225 -277h-149z" />
    <glyph glyph-name="Y" unicode="Y" horiz-adv-x="630" 
d="M170 0l58 283l-176 431h131l123 -324l250 324h148l-353 -441l-56 -273h-125z" />
    <glyph glyph-name="Z" unicode="Z" horiz-adv-x="630" 
d="M101 606l22 108h544l-21 -102l-509 -504h428l-23 -108h-584l22 104l503 502h-382z" />
    <glyph glyph-name="bracketleft" unicode="[" horiz-adv-x="296" 
d="M-33 -191l192 922h225l-19 -90h-115l-154 -742h113l-19 -90h-223z" />
    <glyph glyph-name="backslash" unicode="\" horiz-adv-x="352" 
d="M379 -17h-109l-287 748h109z" />
    <glyph glyph-name="bracketright" unicode="]" horiz-adv-x="296" 
d="M294 731l-192 -922h-225l19 90h115l154 742h-113l19 90h223z" />
    <glyph glyph-name="asciicircum" unicode="^" horiz-adv-x="600" 
d="M186 335h-102l180 365h72l180 -365h-102l-114 237z" />
    <glyph glyph-name="underscore" unicode="_" horiz-adv-x="500" 
d="M500 -125h-500v50h500v-50z" />
    <glyph glyph-name="grave" unicode="`" horiz-adv-x="241" 
d="M269 588h-84l-118 143h125z" />
    <glyph glyph-name="a" unicode="a" 
d="M486 333l-38 -183q-10 -47 -10 -51q0 -23 24 -23q7 0 20.5 3t19.5 3l-18 -82q-58 -14 -89 -14q-29 0 -48.5 18t-20.5 48q-66 -66 -174 -66q-68 0 -114.5 36.5t-46.5 101.5q0 88 60.5 130t156.5 48q9 0 114 9q60 4 60 68q0 62 -87 62q-109 0 -129 -81h-108q33 171 244 171
q53 0 92 -9.5t58 -21.5t29.5 -31t12.5 -31t2 -27q0 -32 -10 -78zM105 142q0 -34 27 -50t64 -16q77 0 113.5 47t49.5 131l-2 2q-18 -18 -71 -24q-5 0 -22.5 -1.5t-26.5 -2t-26 -2.5t-27 -5l-24 -7.5t-22.5 -11t-17 -15t-12 -20t-3.5 -25.5z" />
    <glyph glyph-name="b" unicode="b" horiz-adv-x="611" 
d="M316 441q-79 0 -125 -73.5t-46 -161.5q0 -61 30 -95.5t91 -34.5q79 0 125 73t46 161q0 62 -30 96.5t-91 34.5zM-12 0l148 714h114l-53 -256l2 -2q59 75 157 75q90 0 142.5 -59.5t52.5 -153.5q0 -84 -29.5 -158t-93 -124t-148.5 -50q-125 0 -171 101h-2l-15 -87h-104z" />
    <glyph glyph-name="c" unicode="c" 
d="M512 346h-114q1 47 -26.5 71t-75.5 24q-54 0 -94 -37.5t-58 -88.5t-18 -104q0 -135 115 -135q49 0 82 27t48 75h114q-54 -192 -263 -192q-99 0 -154.5 60.5t-55.5 160.5q0 136 80 230t214 94q91 0 150 -49t56 -136z" />
    <glyph glyph-name="d" unicode="d" horiz-adv-x="611" 
d="M419 317q0 55 -28 89.5t-86 34.5q-60 0 -102.5 -37.5t-60.5 -90.5t-18 -115q0 -58 30 -90t88 -32q81 0 129 76.5t48 164.5zM620 714l-152 -714h-109l16 70l-2 2q-58 -86 -162 -86q-22 0 -44 3t-52 16t-52 34.5t-37.5 62.5t-15.5 96q0 133 77 233t204 100q120 0 156 -85h2
l57 268h114z" />
    <glyph glyph-name="e" unicode="e" 
d="M371 160h114q-52 -174 -249 -174q-100 0 -163 61.5t-63 164.5q0 60 19 117t54.5 102t91 72.5t122.5 27.5q65 0 111 -22t68.5 -60t31.5 -75.5t9 -80.5q0 -30 -6 -64h-385q-2 -12 -2 -33q0 -56 30.5 -88t92.5 -32q46 0 79 22t45 62zM137 304h265q1 12 1 32q0 47 -29.5 76
t-79.5 29q-118 0 -157 -137z" />
    <glyph glyph-name="f" unicode="f" horiz-adv-x="315" 
d="M20 0l90 432h-85l17 85h85q8 37 13 56.5t14.5 46.5t21 40.5t30 28t44.5 20t60 5.5q22 0 85 -7l-19 -87q-19 4 -44 4q-16 0 -28 -2.5t-21 -8.5t-14 -11t-9.5 -17t-6.5 -19t-6 -24l-6 -25h100l-17 -85h-100l-90 -432h-114z" />
    <glyph glyph-name="g" unicode="g" horiz-adv-x="593" 
d="M571 517l-109 -503q-26 -120 -83 -169.5t-178 -49.5q-95 0 -158 40t-64 125h114q4 -80 118 -80q70 0 100 36t46 109l11 51l-2 2q-55 -78 -146 -78q-95 0 -148 57t-53 155q0 81 29.5 152t92 119t145.5 48q121 0 160 -100h2l15 86h108zM133 218q0 -57 26.5 -92.5
t81.5 -35.5q58 0 98.5 36.5t57 86.5t16.5 106q0 57 -29.5 89.5t-85.5 32.5q-52 0 -91 -37t-56.5 -86.5t-17.5 -99.5z" />
    <glyph glyph-name="h" unicode="h" horiz-adv-x="574" 
d="M-12 0l148 714h114l-56 -270h2q30 39 76 63t94 24q76 0 113.5 -36.5t37.5 -100.5q0 -42 -5 -64l-69 -330h-114l66 319q8 34 8 48v11.5t-2 14.5t-6.5 18t-13 14t-23 12t-34.5 4q-58 0 -108 -50q-41 -43 -56 -111l-58 -280h-114z" />
    <glyph glyph-name="i" unicode="i" horiz-adv-x="241" 
d="M-12 0l107 517h114l-107 -517h-114zM114 606l22 108h113l-22 -108h-113z" />
    <glyph glyph-name="j" unicode="j" horiz-adv-x="241" 
d="M-16 -21l111 538h114l-109 -525q-15 -71 -29 -102q-19 -51 -52.5 -73t-88.5 -22q-34 0 -63 6l20 91q9 -7 39 -7q20 0 32 15t16.5 30.5t8.5 41.5q1 5 1 7zM114 606l22 108h113l-22 -108h-113z" />
    <glyph glyph-name="k" unicode="k" horiz-adv-x="519" 
d="M-12 0l148 714h114l-84 -404l2 -2l234 209h144l-228 -190l126 -327h-126l-91 251l-88 -75l-37 -176h-114z" />
    <glyph glyph-name="l" unicode="l" horiz-adv-x="241" 
d="M-12 0l148 714h114l-148 -714h-114z" />
    <glyph glyph-name="m" unicode="m" horiz-adv-x="889" 
d="M-6 0l107 517h108l-15 -73l2 -2q69 89 177 89q115 0 131 -92q80 92 175 92q72 0 109.5 -36.5t37.5 -100.5q0 -28 -8 -64l-66 -330h-114l64 306q10 60 10 61q2 74 -71 74q-60 0 -98.5 -43.5t-49.5 -95.5l-63 -302h-114l59 284q15 78 15 93q0 64 -63 64q-54 0 -97 -41
q-48 -46 -60 -101l-62 -299h-114z" />
    <glyph glyph-name="n" unicode="n" horiz-adv-x="574" 
d="M-12 0l107 517h107l-16 -75l2 -2q31 43 78 67t100 24q76 0 113.5 -36.5t37.5 -100.5q0 -42 -5 -64l-69 -330h-114l66 319q8 34 8 48v11.5t-2 14.5t-6.5 18t-13 14t-23 12t-34.5 4q-58 0 -108 -50q-41 -43 -56 -111l-58 -280h-114z" />
    <glyph glyph-name="o" unicode="o" horiz-adv-x="593" 
d="M238 -14q-107 0 -166.5 59t-59.5 167q0 132 82.5 225.5t212.5 93.5q107 0 166.5 -57.5t59.5 -164.5q0 -139 -80 -231t-215 -92zM300 441q-81 0 -127.5 -72.5t-46.5 -159.5q0 -60 29.5 -96.5t89.5 -36.5q55 0 96 37t59.5 88.5t18.5 106.5q0 60 -29.5 96.5t-89.5 36.5z" />
    <glyph glyph-name="p" unicode="p" horiz-adv-x="611" 
d="M-50 -191l147 708h113l-15 -66l2 -2q27 39 70.5 60.5t92.5 21.5q94 0 145 -59t51 -155q0 -61 -16.5 -118.5t-48.5 -106t-84 -77.5t-116 -29q-128 0 -169 94h-2l-56 -271h-114zM151 209q0 -59 28 -96t86 -37q44 0 79 20.5t56 54.5t31.5 73.5t10.5 81.5q0 60 -28.5 97.5
t-85.5 37.5q-44 0 -79 -21t-56 -55t-31.5 -74t-10.5 -82z" />
    <glyph glyph-name="q" unicode="q" horiz-adv-x="611" 
d="M576 517l-147 -708h-114l53 253l-2 2q-59 -78 -171 -78q-91 0 -138 57t-47 149q0 88 31.5 163.5t98.5 125.5t157 50q118 0 155 -92h2l16 78h106zM124 206q0 -58 28.5 -94t89.5 -36q86 0 131 73.5t45 168.5q0 55 -30 89t-83 34q-85 0 -133 -73t-48 -162z" />
    <glyph glyph-name="r" unicode="r" horiz-adv-x="370" 
d="M-12 0l107 517h108l-21 -101l2 -2q26 47 71 82t94 35q37 0 55 -3l-24 -109q-26 4 -40 4q-149 0 -190 -194l-48 -229h-114z" />
    <glyph glyph-name="s" unicode="s" horiz-adv-x="500" 
d="M462 366h-108q-1 38 -28.5 56.5t-75.5 18.5q-88 0 -88 -65q0 -13 8.5 -23.5t25 -18t33 -13l42.5 -13.5t43 -14q56 -21 88 -52t32 -86q0 -84 -67.5 -127t-161.5 -43q-47 0 -84 8.5t-67.5 28.5t-47 56t-17.5 87h108q-1 -46 30 -68t84 -22q44 0 76.5 17t32.5 57
q0 15 -8.5 27t-27 21t-34.5 15t-44.5 14t-43.5 14q-53 19 -83.5 49.5t-30.5 82.5q0 79 62 118.5t151 39.5q205 0 201 -165z" />
    <glyph glyph-name="t" unicode="t" horiz-adv-x="333" 
d="M127 517l32 155h111l-32 -155h103l-18 -85h-103l-53 -253q-10 -44 -10 -56q0 -19 8.5 -28.5t32.5 -9.5q39 0 61 5l-19 -84q-46 -11 -94 -11q-103 0 -103 96q0 27 7 58l59 283h-90l18 85h90z" />
    <glyph glyph-name="u" unicode="u" horiz-adv-x="574" 
d="M546 517l-107 -517h-107l16 75l-2 2q-31 -43 -78 -67t-100 -24q-76 0 -113.5 36.5t-37.5 100.5q0 41 5 64l69 330h114l-66 -319q-8 -34 -8 -48q0 -45 24 -61q20 -13 55 -13q62 0 106.5 48.5t57.5 112.5l58 280h114z" />
    <glyph glyph-name="v" unicode="v" horiz-adv-x="500" 
d="M104 0l-70 517h118l43 -377h2l200 377h120l-286 -517h-127z" />
    <glyph glyph-name="w" unicode="w" horiz-adv-x="778" 
d="M90 0l-61 517h117l31 -373h2l172 373h119l22 -373h3l179 373h120l-269 -517h-120l-22 377h-2l-172 -377h-119z" />
    <glyph glyph-name="x" unicode="x" horiz-adv-x="500" 
d="M170 275l-114 242h122l71 -165l134 165h132l-220 -250l132 -267h-124l-84 190l-158 -190h-131z" />
    <glyph glyph-name="y" unicode="y" horiz-adv-x="500" 
d="M120 17l-91 500h120l54 -378h2l195 378h122l-296 -533q-3 -5 -15.5 -28.5t-16 -29t-15.5 -26t-17.5 -26t-18 -21t-21 -20.5t-23 -15t-28 -13.5t-30.5 -6.5t-36 -3q-32 0 -69 8l21 95q28 -8 44 -8q55 0 74 44z" />
    <glyph glyph-name="z" unicode="z" horiz-adv-x="481" 
d="M49 427l20 90h415l-19 -83l-341 -344h293l-19 -90h-447l19 84l340 343h-261z" />
    <glyph glyph-name="braceleft" unicode="{" horiz-adv-x="296" 
d="M-37 225l19 90q31 0 66 17.5t43 55.5l43 206q28 137 157 137h91l-19 -90h-59q-34 0 -49 -19.5t-22 -50.5l-40 -195q-8 -37 -34 -62t-48 -32.5t-44 -10.5v-2q84 -9 84 -79q0 -20 -3 -32l-40 -189q-4 -16 -4 -26q0 -44 46 -44h59l-19 -90h-91q-35 0 -69 28.5t-34 77.5
q0 15 3 31l37 174q7 31 7 41q0 34 -26.5 49t-53.5 15z" />
    <glyph glyph-name="bar" unicode="|" horiz-adv-x="222" 
d="M60 -214v1000h102v-1000h-102z" />
    <glyph glyph-name="braceright" unicode="}" horiz-adv-x="296" 
d="M287 315l-19 -90q-31 0 -66 -17.5t-43 -55.5l-43 -206q-29 -137 -157 -137h-91l19 90h59q34 0 49 19.5t22 50.5l40 195q8 37 34 62t48 32.5t44 10.5v2q-84 9 -84 79q0 20 3 32l40 189q4 16 4 26q0 44 -46 44h-59l19 90h91q35 0 69 -28.5t34 -77.5q0 -15 -3 -31l-37 -174
q-7 -32 -7 -41q0 -34 26.5 -49t53.5 -15z" />
    <glyph glyph-name="asciitilde" unicode="~" horiz-adv-x="600" 
d="M495 338l36 -84q-20 -27 -33 -42t-38 -29.5t-54 -14.5q-42 0 -102 33q-62 35 -115 35q-49 0 -84 -68l-36 84q45 86 125 86q39 0 111 -32l21.5 -9.5t23 -10l20 -8t20.5 -6.5t17 -2q19 0 37 12.5t25.5 22z" />
    <glyph glyph-name="exclamdown" unicode="&#xa1;" horiz-adv-x="296" 
d="M220 406h-129l27 125h129zM115 332h58l-34 -307l-43 -208h-123l44 212z" />
    <glyph glyph-name="cent" unicode="&#xa2;" 
d="M211 80l79 361q-76 -5 -119 -76.5t-43 -153.5q0 -115 83 -131zM370 620l-20 -92q75 -11 121 -58.5t43 -123.5h-114q3 77 -70 92l-79 -362q46 1 77 28.5t45 73.5h114q-52 -189 -256 -192l-22 -102h-41l23 105q-85 10 -131 68.5t-46 149.5q0 136 80 230t214 94l21 89h41z
" />
    <glyph glyph-name="sterling" unicode="&#xa3;" 
d="M23 319l14 65h63q-20 51 -20 118q0 107 71.5 168t182.5 61q106 0 167 -65t52 -170h-111q8 63 -23 101.5t-92 38.5q-133 0 -133 -141q0 -22 3 -40.5t9.5 -42t7.5 -28.5h151l-12 -65h-128q4 -21 4 -54q0 -94 -110 -175l2 -2q14 10 41.5 17.5t45.5 7.5q28 0 83 -17
q52 -18 76 -18q36 0 102 43l36 -89q-78 -49 -161 -49q-25 0 -94 21q-57 19 -104 19q-52 0 -114 -40l-34 87q34 28 48.5 41.5t36 39t30 53t8.5 61.5q0 14 -10 54h-88z" />
    <glyph glyph-name="currency" unicode="&#xa4;" 
d="M76 90l-56 56l57 61q-50 56 -50 142q0 95 50 144l-57 61l57 57l57 -56q54 46 146 46q87 0 137 -45l58 57l61 -61l-56 -58q47 -50 47 -143q0 -89 -48 -146l55 -59l-55 -55l-57 58q-52 -50 -143 -50q-93 0 -147 49zM279 201q60 0 100 44t40 106q0 60 -40 104t-99 44
q-62 0 -103.5 -43.5t-41.5 -106.5q0 -62 41.5 -105t102.5 -43z" />
    <glyph glyph-name="yen" unicode="&#xa5;" 
d="M66 298l13 65h107l-133 351h120l104 -324l237 324h120l-266 -351h109l-13 -65h-142l-14 -68h142l-14 -65h-142l-34 -165h-114l34 165h-142l14 65h142l14 68h-142z" />
    <glyph glyph-name="brokenbar" unicode="&#xa6;" horiz-adv-x="222" 
d="M60 -89v250h102v-250h-102zM60 411v250h102v-250h-102z" />
    <glyph glyph-name="section" unicode="&#xa7;" 
d="M1 -14h102q-2 -44 26 -72.5t74 -28.5q37 0 62.5 23.5t26.5 71.5q0 12 -3 23t-12 23.5l-15.5 21t-22.5 23l-23 20.5t-28.5 23l-27.5 22q-62 51 -97 97.5t-35 104.5q0 59 42 102.5t102 47.5q-22 36 -22 83q0 72 56.5 116t130.5 44q103 0 148.5 -43.5t45.5 -139.5h-102
q1 41 -21.5 67t-64.5 26q-33 0 -59 -19t-26 -51q0 -9 2 -18t5 -16t9.5 -16.5t10.5 -16t14 -16l15.5 -15t18 -16l17.5 -15t19.5 -16l19.5 -15.5q38 -31 61 -53t42.5 -56t19.5 -69q0 -63 -38.5 -108t-100.5 -56q27 -44 27 -96q0 -25 -8.5 -52t-29 -57t-64 -49.5t-103.5 -19.5
q-97 0 -145.5 51.5t-48.5 139.5zM315 131q38 0 63.5 20.5t25.5 57.5q0 46 -35 78l-119 115q-20 20 -32 20q-30 0 -56 -21t-26 -51q0 -42 36 -80z" />
    <glyph glyph-name="dieresis" unicode="&#xa8;" horiz-adv-x="241" 
d="M256 703h110l-19 -108h-110zM76 703h110l-19 -108h-110z" />
    <glyph glyph-name="copyright" unicode="&#xa9;" horiz-adv-x="800" 
d="M767 357q0 -165 -107.5 -269.5t-258.5 -104.5q-160 0 -264 106.5t-104 267.5q0 165 107.5 269.5t260.5 104.5q151 0 258.5 -104.5t107.5 -269.5zM687 357q0 135 -82.5 222t-203.5 87q-123 0 -205.5 -87t-82.5 -222q0 -131 79 -220t209 -89q122 0 204 87t82 222zM521 285
h69q-13 -70 -61.5 -112t-115.5 -42q-95 0 -153.5 64t-58.5 162q0 93 57 153.5t153 61.5q70 0 119.5 -39.5t58.5 -111.5h-68q-8 39 -38 62.5t-72 23.5q-61 0 -95.5 -42.5t-34.5 -107.5q0 -67 36.5 -114t95.5 -47q44 0 73.5 25t34.5 64z" />
    <glyph glyph-name="ordfeminine" unicode="&#xaa;" horiz-adv-x="334" 
d="M380 435l-13 -56q-28 -6 -51 -6q-28 0 -43 14t-16 34q-39 -48 -113 -48q-49 0 -80.5 22.5t-31.5 66.5q0 106 148 113q4 0 74 6q36 1 36 40q0 11 -16.5 19.5t-36.5 8.5q-67 0 -80 -45h-81q11 60 53 85t113 25q45 0 74.5 -7.5t41 -21.5t14.5 -24.5t3 -25.5q0 -20 -7 -47
l-24 -104q-6 -33 -6 -39q0 -14 16 -14q5 0 14 2t12 2zM117 473q0 -42 55 -42q43 0 65.5 26t29.5 55l7 29l-2 2q-12 -13 -45 -15q-73 -4 -95 -22q-15 -13 -15 -33z" />
    <glyph glyph-name="guillemotleft" unicode="&#xab;" horiz-adv-x="463" 
d="M26 231l25 110l177 110l-22 -107l-113 -68l80 -90l-21 -93zM220 231l25 110l177 110l-22 -107l-113 -68l80 -90l-21 -93z" />
    <glyph glyph-name="logicalnot" unicode="&#xac;" horiz-adv-x="600" 
d="M450 108v195h-402v102h504v-297h-102z" />
    <glyph glyph-name="registered" unicode="&#xae;" horiz-adv-x="800" 
d="M325 320v-177h-66v414h157q76 0 113.5 -28.5t37.5 -90.5q0 -101 -108 -113l116 -182h-77l-107 177h-66zM325 378h78q47 0 72.5 12t25.5 53q0 56 -92 56h-84v-121zM767 357q0 -165 -107.5 -269.5t-258.5 -104.5q-160 0 -264 106.5t-104 267.5q0 165 107.5 269.5
t260.5 104.5q151 0 258.5 -104.5t107.5 -269.5zM687 357q0 135 -82.5 222t-203.5 87q-123 0 -205.5 -87t-82.5 -222q0 -131 79 -220t209 -89q122 0 204 87t82 222z" />
    <glyph glyph-name="macron" unicode="&#xaf;" horiz-adv-x="241" 
d="M343 621h-284l12 65h285z" />
    <glyph glyph-name="macron" unicode="&#x2c9;" horiz-adv-x="241" 
d="M343 621h-284l12 65h285z" />
    <glyph glyph-name="degree" unicode="&#xb0;" horiz-adv-x="400" 
d="M77 564q0 62 44 106t106 44t106 -44t44 -106t-44 -106t-106 -44t-106 44t-44 106zM133 564q0 -39 27.5 -66.5t66.5 -27.5t66.5 27.5t27.5 66.5t-27.5 66.5t-66.5 27.5t-66.5 -27.5t-27.5 -66.5z" />
    <glyph glyph-name="plusminus" unicode="&#xb1;" horiz-adv-x="600" 
d="M249 381v125h102v-125h201v-102h-201v-125h-102v125h-201v102h201zM48 0v102h504v-102h-504z" />
    <glyph glyph-name="twosuperior" unicode="&#xb2;" horiz-adv-x="333" 
d="M339 343l-17 -70h-317q20 111 125 172l107 60q41 22 52.5 40.5t11.5 49.5q0 24 -23 36.5t-48 12.5q-38 0 -64 -24.5t-30 -62.5h-80q7 77 52.5 117t123.5 40q65 0 107 -29t42 -92q0 -87 -106 -143q-145 -76 -164 -107h228z" />
    <glyph glyph-name="threesuperior" unicode="&#xb3;" horiz-adv-x="333" 
d="M168 474l12 58h16q48 0 76 13t28 51q0 23 -21 35.5t-46 12.5q-33 0 -57.5 -19.5t-32.5 -51.5h-80q23 141 178 141q58 0 98.5 -26.5t40.5 -81.5q0 -39 -23 -66t-60 -35v-2q56 -19 56 -88q0 -73 -52.5 -112t-134.5 -39q-70 0 -109 32.5t-39 94.5q0 18 1 28h80
q0 -4 -0.5 -10t-0.5 -8q0 -30 22 -48.5t59 -18.5q42 0 68 23t26 60q0 57 -85 57h-20z" />
    <glyph glyph-name="acute" unicode="&#xb4;" horiz-adv-x="241" 
d="M218 731h125l-118 -143h-84z" />
    <glyph glyph-name="mu" unicode="&#xb5;" horiz-adv-x="574" 
d="M546 517l-107 -517h-107l16 75l-2 2q-31 -43 -78 -67t-100 -24q-48 0 -69 22l-41 -199h-114l147 708h114l-66 -319q-8 -34 -8 -48q0 -45 24 -61q20 -13 55 -13q62 0 106.5 48.5t57.5 112.5l58 280h114z" />
    <glyph glyph-name="mu" unicode="&#x3bc;" horiz-adv-x="574" 
d="M546 517l-107 -517h-107l16 75l-2 2q-31 -43 -78 -67t-100 -24q-48 0 -69 22l-41 -199h-114l147 708h114l-66 -319q-8 -34 -8 -48q0 -45 24 -61q20 -13 55 -13q62 0 106.5 48.5t57.5 112.5l58 280h114z" />
    <glyph glyph-name="paragraph" unicode="&#xb6;" horiz-adv-x="600" 
d="M500 649h-110l-169 -809h-80l103 496q-71 -2 -116 40t-45 112q0 25 4.5 50t21.5 58.5t45 58t80 42t121 17.5h238l-182 -874h-80z" />
    <glyph glyph-name="periodcentered" unicode="&#xb7;" horiz-adv-x="278" 
d="M64 302q0 29 23 51.5t52 22.5q30 0 52.5 -22.5t22.5 -51.5q0 -30 -22.5 -53t-52.5 -23t-52.5 23t-22.5 53z" />
    <glyph glyph-name="periodcentered" unicode="&#x2219;" horiz-adv-x="278" 
d="M64 302q0 29 23 51.5t52 22.5q30 0 52.5 -22.5t22.5 -51.5q0 -30 -22.5 -53t-52.5 -23t-52.5 23t-22.5 53z" />
    <glyph glyph-name="cedilla" unicode="&#xb8;" horiz-adv-x="241" 
d="M-65 -195l20 39q26 -14 69 -17q19 -2 38 8.5t19 28.5q0 39 -47 39q-16 0 -37 -7l-17 21l73 89h49l-57 -66q27 3 29 3q36 0 61.5 -18.5t25.5 -53.5q0 -43 -37 -66t-83 -23q-64 0 -106 23z" />
    <glyph glyph-name="onesuperior" unicode="&#xb9;" horiz-adv-x="333" 
d="M84 577l13 58q47 0 87 18.5t54 51.5h74l-98 -432h-93l71 315q-43 -11 -108 -11z" />
    <glyph glyph-name="ordmasculine" unicode="&#xba;" horiz-adv-x="356" 
d="M192 373q-75 0 -114.5 36.5t-39.5 105.5q0 84 54.5 141.5t144.5 57.5q154 0 154 -141q0 -89 -53 -144.5t-146 -55.5zM197 438q50 0 79.5 42.5t29.5 92.5q0 33 -19 54.5t-55 21.5q-50 0 -79.5 -43.5t-29.5 -92.5q0 -33 19 -54t55 -21z" />
    <glyph glyph-name="guillemotright" unicode="&#xbb;" horiz-adv-x="463" 
d="M199 93l22 107l113 68l-80 90l21 93l126 -138l-25 -110zM5 93l22 107l113 68l-80 90l21 93l126 -138l-25 -110z" />
    <glyph glyph-name="onequarter" unicode="&#xbc;" horiz-adv-x="834" 
d="M162 -24l419 748h78l-418 -748h-79zM73 577l13 58q47 0 87 18.5t54 51.5h74l-98 -432h-93l71 315q-43 -11 -108 -11zM676 172l36 152l-2 2l-150 -154h116zM824 172l-18 -75h-56l-23 -97h-93l23 97h-195l16 72l255 268h97l-62 -265h56z" />
    <glyph glyph-name="onehalf" unicode="&#xbd;" horiz-adv-x="834" 
d="M130 -24l419 748h78l-418 -748h-79zM73 577l13 58q47 0 87 18.5t54 51.5h74l-98 -432h-93l71 315q-43 -11 -108 -11zM797 70l-17 -70h-317q20 111 125 172l107 60q41 22 52.5 40.5t11.5 49.5q0 25 -21 39.5t-50 14.5q-41 0 -66 -26.5t-28 -65.5h-80q7 78 51 120t125 42
q68 0 108.5 -31t40.5 -95q0 -87 -106 -143q-145 -76 -164 -107h228z" />
    <glyph glyph-name="threequarters" unicode="&#xbe;" horiz-adv-x="834" 
d="M205 -24l419 748h78l-418 -748h-79zM128 573h-80q25 141 178 141q58 0 98.5 -26.5t40.5 -81.5q0 -39 -23 -66t-60 -35v-2q56 -19 56 -88q0 -73 -52.5 -112t-134.5 -39q-70 0 -109 32.5t-39 94.5q0 18 1 28h80q0 -4 -0.5 -10t-0.5 -8q0 -30 22 -48.5t59 -18.5q42 0 68 23
t26 60q0 57 -85 57h-20l12 58h16q48 0 76 13t28 51q0 23 -21 35.5t-46 12.5q-33 0 -57.5 -19.5t-32.5 -51.5zM677 172l36 152l-2 2l-150 -154h116zM825 172l-18 -75h-56l-23 -97h-93l23 97h-195l16 72l255 268h97l-62 -265h56z" />
    <glyph glyph-name="questiondown" unicode="&#xbf;" 
d="M230 328h106q-12 -72 -38 -114.5t-85 -80.5q-3 -2 -24.5 -15.5t-27 -17.5l-22 -16.5t-22 -20.5l-14.5 -21.5t-12 -27.5t-3 -31q0 -39 32.5 -63.5t72.5 -24.5q59 0 96 41t45 102h113q-11 -107 -80 -172.5t-176 -65.5q-95 0 -156 44.5t-61 136.5q0 19 2.5 36t9.5 32
l12 26.5t18 25t20 21.5t24.5 21l24.5 18l27.5 19.5t27.5 18.5q44 29 59.5 52.5t30.5 76.5zM233 406l27 125h129l-27 -125h-129z" />
    <glyph glyph-name="Agrave" unicode="&#xc0;" horiz-adv-x="685" 
d="M455 284l-44 304h-2l-172 -304h218zM-60 0l428 714h132l124 -714h-127l-29 189h-284l-110 -189h-134zM491 785h-84l-118 143h125z" />
    <glyph glyph-name="Aacute" unicode="&#xc1;" horiz-adv-x="685" 
d="M455 284l-44 304h-2l-172 -304h218zM-60 0l428 714h132l124 -714h-127l-29 189h-284l-110 -189h-134zM440 928h125l-118 -143h-84z" />
    <glyph glyph-name="Acircumflex" unicode="&#xc2;" horiz-adv-x="685" 
d="M455 284l-44 304h-2l-172 -304h218zM-60 0l428 714h132l124 -714h-127l-29 189h-284l-110 -189h-134zM350 785h-92l134 143h104l78 -143h-86l-51 90z" />
    <glyph glyph-name="Atilde" unicode="&#xc3;" horiz-adv-x="685" 
d="M455 284l-44 304h-2l-172 -304h218zM-60 0l428 714h132l124 -714h-127l-29 189h-284l-110 -189h-134zM547 911h58q-6 -43 -35 -81t-69 -38q-25 0 -79 24q-54 25 -68 25q-25 0 -44 -46h-59q31 116 106 116q34 0 78 -23q52 -24 69 -24q28 0 43 47z" />
    <glyph glyph-name="Adieresis" unicode="&#xc4;" horiz-adv-x="685" 
d="M455 284l-44 304h-2l-172 -304h218zM-60 0l428 714h132l124 -714h-127l-29 189h-284l-110 -189h-134zM478 900h110l-19 -108h-110zM298 900h110l-19 -108h-110z" />
    <glyph glyph-name="Aring" unicode="&#xc5;" horiz-adv-x="685" 
d="M455 284l-44 304h-2l-172 -304h218zM-60 0l428 714h132l124 -714h-127l-29 189h-284l-110 -189h-134zM445 741q-42 0 -72.5 31t-30.5 72q0 42 30.5 72.5t72.5 30.5t72.5 -30.5t30.5 -72.5q0 -41 -30.5 -72t-72.5 -31zM384 844q0 -26 18 -43.5t43 -17.5t43 17.5t18 43.5
t-18 43.5t-43 17.5t-43 -17.5t-18 -43.5z" />
    <glyph glyph-name="AE" unicode="&#xc6;" horiz-adv-x="963" 
d="M-80 0l512 714h570l-23 -108h-348l-39 -187h326l-21 -102h-326l-43 -209h352l-23 -108h-473l38 183h-230l-128 -183h-144zM488 612l-231 -334h188l70 334h-27z" />
    <glyph glyph-name="Ccedilla" unicode="&#xc7;" horiz-adv-x="722" 
d="M537 249h125q-30 -131 -114 -198.5t-200 -67.5q-17 0 -25 1l-38 -44q27 3 29 3q36 0 61.5 -18.5t25.5 -53.5q0 -43 -37 -66t-83 -23q-64 0 -106 23l20 39q26 -14 69 -17q19 -2 38 8.5t19 28.5q0 39 -47 39q-16 0 -37 -7l-17 21l59 72q-118 21 -183 104t-65 202
q0 108 33.5 194t89 137.5t122 78t138.5 26.5q130 0 208 -67.5t74 -187.5h-125q0 74 -42 113.5t-119 39.5q-81 0 -140.5 -50t-86.5 -123.5t-27 -156.5q0 -100 51.5 -157t144.5 -57q138 0 185 164z" />
    <glyph glyph-name="Egrave" unicode="&#xc8;" horiz-adv-x="630" 
d="M1 0l148 714h520l-22 -108h-397l-39 -187h368l-21 -102h-369l-43 -209h400l-22 -108h-523zM464 785h-84l-118 143h125z" />
    <glyph glyph-name="Eacute" unicode="&#xc9;" horiz-adv-x="630" 
d="M1 0l148 714h520l-22 -108h-397l-39 -187h368l-21 -102h-369l-43 -209h400l-22 -108h-523zM413 928h125l-118 -143h-84z" />
    <glyph glyph-name="Ecircumflex" unicode="&#xca;" horiz-adv-x="630" 
d="M1 0l148 714h520l-22 -108h-397l-39 -187h368l-21 -102h-369l-43 -209h400l-22 -108h-523zM323 785h-92l134 143h104l78 -143h-86l-51 90z" />
    <glyph glyph-name="Edieresis" unicode="&#xcb;" horiz-adv-x="630" 
d="M1 0l148 714h520l-22 -108h-397l-39 -187h368l-21 -102h-369l-43 -209h400l-22 -108h-523zM451 900h110l-19 -108h-110zM271 900h110l-19 -108h-110z" />
    <glyph glyph-name="Igrave" unicode="&#xcc;" horiz-adv-x="278" 
d="M4 0l149 714h125l-149 -714h-125zM288 785h-84l-118 143h125z" />
    <glyph glyph-name="Iacute" unicode="&#xcd;" horiz-adv-x="278" 
d="M4 0l149 714h125l-149 -714h-125zM237 928h125l-118 -143h-84z" />
    <glyph glyph-name="Icircumflex" unicode="&#xce;" horiz-adv-x="278" 
d="M4 0l149 714h125l-149 -714h-125zM147 785h-92l134 143h104l78 -143h-86l-51 90z" />
    <glyph glyph-name="Idieresis" unicode="&#xcf;" horiz-adv-x="278" 
d="M4 0l149 714h125l-149 -714h-125zM275 900h110l-19 -108h-110zM95 900h110l-19 -108h-110z" />
    <glyph glyph-name="Eth" unicode="&#xd0;" horiz-adv-x="722" 
d="M1 0l67 317h-65l20 102h66l62 295h262q137 0 208.5 -75.5t71.5 -223.5q0 -71 -29.5 -156.5t-83.5 -138.5q-68 -67 -134.5 -93.5t-193.5 -26.5h-251zM255 612l-40 -193h194l-20 -102h-196l-45 -215h156q61 0 109.5 26t76.5 63.5t46.5 83t25 80.5t6.5 61q0 93 -41.5 144.5
t-115.5 51.5h-156z" />
    <glyph glyph-name="Ntilde" unicode="&#xd1;" horiz-adv-x="722" 
d="M1 0l148 714h137l219 -533h2l109 533h125l-148 -714h-137l-220 530h-2l-108 -530h-125zM566 911h58q-6 -43 -35 -81t-69 -38q-25 0 -79 24q-54 25 -68 25q-25 0 -44 -46h-59q31 116 106 116q34 0 78 -23q52 -24 69 -24q28 0 43 47z" />
    <glyph glyph-name="Ograve" unicode="&#xd2;" horiz-adv-x="759" 
d="M31 295q0 108 33.5 194t89 137.5t122 78t138.5 26.5q140 0 226 -87t86 -225q0 -108 -32 -194t-86 -137.5t-120 -78t-140 -26.5q-149 0 -233 87.5t-84 224.5zM156 299q0 -100 51.5 -157t144.5 -57q79 0 137 50t85 123.5t27 156.5q0 101 -49 157.5t-142 56.5
q-81 0 -140.5 -50t-86.5 -123.5t-27 -156.5zM508 785h-84l-118 143h125z" />
    <glyph glyph-name="Oacute" unicode="&#xd3;" horiz-adv-x="759" 
d="M31 295q0 108 33.5 194t89 137.5t122 78t138.5 26.5q140 0 226 -87t86 -225q0 -108 -32 -194t-86 -137.5t-120 -78t-140 -26.5q-149 0 -233 87.5t-84 224.5zM156 299q0 -100 51.5 -157t144.5 -57q79 0 137 50t85 123.5t27 156.5q0 101 -49 157.5t-142 56.5
q-81 0 -140.5 -50t-86.5 -123.5t-27 -156.5zM457 928h125l-118 -143h-84z" />
    <glyph glyph-name="Ocircumflex" unicode="&#xd4;" horiz-adv-x="759" 
d="M31 295q0 108 33.5 194t89 137.5t122 78t138.5 26.5q140 0 226 -87t86 -225q0 -108 -32 -194t-86 -137.5t-120 -78t-140 -26.5q-149 0 -233 87.5t-84 224.5zM156 299q0 -100 51.5 -157t144.5 -57q79 0 137 50t85 123.5t27 156.5q0 101 -49 157.5t-142 56.5
q-81 0 -140.5 -50t-86.5 -123.5t-27 -156.5zM367 785h-92l134 143h104l78 -143h-86l-51 90z" />
    <glyph glyph-name="Otilde" unicode="&#xd5;" horiz-adv-x="759" 
d="M31 295q0 108 33.5 194t89 137.5t122 78t138.5 26.5q140 0 226 -87t86 -225q0 -108 -32 -194t-86 -137.5t-120 -78t-140 -26.5q-149 0 -233 87.5t-84 224.5zM156 299q0 -100 51.5 -157t144.5 -57q79 0 137 50t85 123.5t27 156.5q0 101 -49 157.5t-142 56.5
q-81 0 -140.5 -50t-86.5 -123.5t-27 -156.5zM564 911h58q-6 -43 -35 -81t-69 -38q-25 0 -79 24q-54 25 -68 25q-25 0 -44 -46h-59q31 116 106 116q34 0 78 -23q52 -24 69 -24q28 0 43 47z" />
    <glyph glyph-name="Odieresis" unicode="&#xd6;" horiz-adv-x="759" 
d="M31 295q0 108 33.5 194t89 137.5t122 78t138.5 26.5q140 0 226 -87t86 -225q0 -108 -32 -194t-86 -137.5t-120 -78t-140 -26.5q-149 0 -233 87.5t-84 224.5zM156 299q0 -100 51.5 -157t144.5 -57q79 0 137 50t85 123.5t27 156.5q0 101 -49 157.5t-142 56.5
q-81 0 -140.5 -50t-86.5 -123.5t-27 -156.5zM495 900h110l-19 -108h-110zM315 900h110l-19 -108h-110z" />
    <glyph glyph-name="multiply" unicode="&#xd7;" horiz-adv-x="600" 
d="M229 253l-174 174l86 56l158 -159l160 159l86 -56l-175 -174l175 -174l-86 -56l-160 160l-158 -160l-86 56z" />
    <glyph glyph-name="Oslash" unicode="&#xd8;" horiz-adv-x="759" 
d="M-22 14l104 98q-51 76 -51 183q0 108 33.5 194t89 137.5t122 78t138.5 26.5q142 0 229 -90l103 97l36 -39l-106 -100q50 -76 50 -180q0 -108 -32 -194t-86 -137.5t-120 -78t-140 -26.5q-147 0 -232 88l-102 -96zM174 199l385 363q-48 67 -149 67q-81 0 -140.5 -50
t-86.5 -123.5t-27 -156.5q0 -58 18 -100zM585 513l-384 -362q50 -66 151 -66q79 0 137 50t85 123.5t27 156.5q0 59 -16 98z" />
    <glyph glyph-name="Ugrave" unicode="&#xd9;" horiz-adv-x="741" 
d="M62 299l88 415h125l-92 -437q-7 -32 -8 -58q-1 -68 40.5 -98t112.5 -30q77 0 125.5 39.5t70.5 143.5l94 440h125l-94 -448q-9 -44 -19.5 -76t-35 -74t-58 -68.5t-91 -45.5t-131.5 -19q-113 0 -188.5 56.5t-75.5 163.5q0 41 12 96zM519 785h-84l-118 143h125z" />
    <glyph glyph-name="Uacute" unicode="&#xda;" horiz-adv-x="741" 
d="M62 299l88 415h125l-92 -437q-7 -32 -8 -58q-1 -68 40.5 -98t112.5 -30q77 0 125.5 39.5t70.5 143.5l94 440h125l-94 -448q-9 -44 -19.5 -76t-35 -74t-58 -68.5t-91 -45.5t-131.5 -19q-113 0 -188.5 56.5t-75.5 163.5q0 41 12 96zM468 928h125l-118 -143h-84z" />
    <glyph glyph-name="Ucircumflex" unicode="&#xdb;" horiz-adv-x="741" 
d="M62 299l88 415h125l-92 -437q-7 -32 -8 -58q-1 -68 40.5 -98t112.5 -30q77 0 125.5 39.5t70.5 143.5l94 440h125l-94 -448q-9 -44 -19.5 -76t-35 -74t-58 -68.5t-91 -45.5t-131.5 -19q-113 0 -188.5 56.5t-75.5 163.5q0 41 12 96zM378 785h-92l134 143h104l78 -143h-86
l-51 90z" />
    <glyph glyph-name="Udieresis" unicode="&#xdc;" horiz-adv-x="741" 
d="M62 299l88 415h125l-92 -437q-7 -32 -8 -58q-1 -68 40.5 -98t112.5 -30q77 0 125.5 39.5t70.5 143.5l94 440h125l-94 -448q-9 -44 -19.5 -76t-35 -74t-58 -68.5t-91 -45.5t-131.5 -19q-113 0 -188.5 56.5t-75.5 163.5q0 41 12 96zM506 900h110l-19 -108h-110zM326 900
h110l-19 -108h-110z" />
    <glyph glyph-name="Yacute" unicode="&#xdd;" horiz-adv-x="630" 
d="M170 0l58 283l-176 431h131l123 -324l250 324h148l-353 -441l-56 -273h-125zM413 928h125l-118 -143h-84z" />
    <glyph glyph-name="Thorn" unicode="&#xde;" horiz-adv-x="667" 
d="M234 504l-49 -236h189q76 0 108.5 40.5t32.5 97.5q0 98 -119 98h-162zM4 0l148 714h125l-22 -108h162q46 0 82.5 -9t59.5 -22t39.5 -34.5t24 -38.5t12 -42t5 -38t0.5 -34q0 -5 -0.5 -14t-6 -31.5t-15 -43.5t-29 -46.5t-46 -43.5t-69.5 -30.5t-96 -12.5h-214l-35 -166
h-125z" />
    <glyph glyph-name="germandbls" unicode="&#xdf;" horiz-adv-x="574" 
d="M-12 0l118 541q41 190 238 190q80 0 136.5 -42.5t56.5 -122.5q0 -63 -41 -111t-103 -59v-2q54 -10 82.5 -50t28.5 -99q0 -52 -21.5 -104t-59.5 -86q-77 -69 -183 -69q-13 0 -37 2.5t-34 2.5l18 89q24 -4 55 -4q67 0 107.5 52t40.5 121q0 56 -35.5 81t-89.5 25h-21l17 75
h18q63 0 103.5 29.5t40.5 92.5q0 44 -24 66.5t-65 22.5q-56 0 -82 -32.5t-40 -101.5l-110 -507h-114z" />
    <glyph glyph-name="agrave" unicode="&#xe0;" 
d="M486 333l-38 -183q-10 -47 -10 -51q0 -23 24 -23q7 0 20.5 3t19.5 3l-18 -82q-58 -14 -89 -14q-29 0 -48.5 18t-20.5 48q-66 -66 -174 -66q-68 0 -114.5 36.5t-46.5 101.5q0 88 60.5 130t156.5 48q9 0 114 9q60 4 60 68q0 62 -87 62q-109 0 -129 -81h-108q33 171 244 171
q53 0 92 -9.5t58 -21.5t29.5 -31t12.5 -31t2 -27q0 -32 -10 -78zM105 142q0 -34 27 -50t64 -16q77 0 113.5 47t49.5 131l-2 2q-18 -18 -71 -24q-5 0 -22.5 -1.5t-26.5 -2t-26 -2.5t-27 -5l-24 -7.5t-22.5 -11t-17 -15t-12 -20t-3.5 -25.5zM397 588h-84l-118 143h125z" />
    <glyph glyph-name="aacute" unicode="&#xe1;" 
d="M486 333l-38 -183q-10 -47 -10 -51q0 -23 24 -23q7 0 20.5 3t19.5 3l-18 -82q-58 -14 -89 -14q-29 0 -48.5 18t-20.5 48q-66 -66 -174 -66q-68 0 -114.5 36.5t-46.5 101.5q0 88 60.5 130t156.5 48q9 0 114 9q60 4 60 68q0 62 -87 62q-109 0 -129 -81h-108q33 171 244 171
q53 0 92 -9.5t58 -21.5t29.5 -31t12.5 -31t2 -27q0 -32 -10 -78zM105 142q0 -34 27 -50t64 -16q77 0 113.5 47t49.5 131l-2 2q-18 -18 -71 -24q-5 0 -22.5 -1.5t-26.5 -2t-26 -2.5t-27 -5l-24 -7.5t-22.5 -11t-17 -15t-12 -20t-3.5 -25.5zM346 731h125l-118 -143h-84z" />
    <glyph glyph-name="acircumflex" unicode="&#xe2;" 
d="M486 333l-38 -183q-10 -47 -10 -51q0 -23 24 -23q7 0 20.5 3t19.5 3l-18 -82q-58 -14 -89 -14q-29 0 -48.5 18t-20.5 48q-66 -66 -174 -66q-68 0 -114.5 36.5t-46.5 101.5q0 88 60.5 130t156.5 48q9 0 114 9q60 4 60 68q0 62 -87 62q-109 0 -129 -81h-108q33 171 244 171
q53 0 92 -9.5t58 -21.5t29.5 -31t12.5 -31t2 -27q0 -32 -10 -78zM105 142q0 -34 27 -50t64 -16q77 0 113.5 47t49.5 131l-2 2q-18 -18 -71 -24q-5 0 -22.5 -1.5t-26.5 -2t-26 -2.5t-27 -5l-24 -7.5t-22.5 -11t-17 -15t-12 -20t-3.5 -25.5zM256 588h-92l134 143h104l78 -143
h-86l-51 90z" />
    <glyph glyph-name="atilde" unicode="&#xe3;" 
d="M486 333l-38 -183q-10 -47 -10 -51q0 -23 24 -23q7 0 20.5 3t19.5 3l-18 -82q-58 -14 -89 -14q-29 0 -48.5 18t-20.5 48q-66 -66 -174 -66q-68 0 -114.5 36.5t-46.5 101.5q0 88 60.5 130t156.5 48q9 0 114 9q60 4 60 68q0 62 -87 62q-109 0 -129 -81h-108q33 171 244 171
q53 0 92 -9.5t58 -21.5t29.5 -31t12.5 -31t2 -27q0 -32 -10 -78zM105 142q0 -34 27 -50t64 -16q77 0 113.5 47t49.5 131l-2 2q-18 -18 -71 -24q-5 0 -22.5 -1.5t-26.5 -2t-26 -2.5t-27 -5l-24 -7.5t-22.5 -11t-17 -15t-12 -20t-3.5 -25.5zM453 714h58q-6 -43 -35 -81
t-69 -38q-25 0 -79 24q-54 25 -68 25q-25 0 -44 -46h-59q31 116 106 116q34 0 78 -23q52 -24 69 -24q28 0 43 47z" />
    <glyph glyph-name="adieresis" unicode="&#xe4;" 
d="M486 333l-38 -183q-10 -47 -10 -51q0 -23 24 -23q7 0 20.5 3t19.5 3l-18 -82q-58 -14 -89 -14q-29 0 -48.5 18t-20.5 48q-66 -66 -174 -66q-68 0 -114.5 36.5t-46.5 101.5q0 88 60.5 130t156.5 48q9 0 114 9q60 4 60 68q0 62 -87 62q-109 0 -129 -81h-108q33 171 244 171
q53 0 92 -9.5t58 -21.5t29.5 -31t12.5 -31t2 -27q0 -32 -10 -78zM105 142q0 -34 27 -50t64 -16q77 0 113.5 47t49.5 131l-2 2q-18 -18 -71 -24q-5 0 -22.5 -1.5t-26.5 -2t-26 -2.5t-27 -5l-24 -7.5t-22.5 -11t-17 -15t-12 -20t-3.5 -25.5zM384 703h110l-19 -108h-110z
M204 703h110l-19 -108h-110z" />
    <glyph glyph-name="aring" unicode="&#xe5;" 
d="M486 333l-38 -183q-10 -47 -10 -51q0 -23 24 -23q7 0 20.5 3t19.5 3l-18 -82q-58 -14 -89 -14q-29 0 -48.5 18t-20.5 48q-66 -66 -174 -66q-68 0 -114.5 36.5t-46.5 101.5q0 88 60.5 130t156.5 48q9 0 114 9q60 4 60 68q0 62 -87 62q-109 0 -129 -81h-108q33 171 244 171
q53 0 92 -9.5t58 -21.5t29.5 -31t12.5 -31t2 -27q0 -32 -10 -78zM105 142q0 -34 27 -50t64 -16q77 0 113.5 47t49.5 131l-2 2q-18 -18 -71 -24q-5 0 -22.5 -1.5t-26.5 -2t-26 -2.5t-27 -5l-24 -7.5t-22.5 -11t-17 -15t-12 -20t-3.5 -25.5zM341 594q-42 0 -72.5 31t-30.5 72
q0 42 30.5 72.5t72.5 30.5t72.5 -30.5t30.5 -72.5q0 -41 -30.5 -72t-72.5 -31zM280 697q0 -25 18 -43t43 -18t43 18t18 43t-18 43t-43 18t-43 -18t-18 -43z" />
    <glyph glyph-name="ae" unicode="&#xe6;" horiz-adv-x="889" 
d="M474 304h257q2 13 2 36q0 101 -108 101q-113 0 -151 -137zM697 160h118q-26 -83 -94 -128.5t-159 -45.5q-151 0 -182 104q-70 -104 -210 -104q-80 0 -129.5 36t-49.5 102q0 88 60.5 130t156.5 48q9 0 114 9q32 2 49.5 20t17.5 48q0 62 -94 62q-109 0 -129 -81h-108
q33 171 244 171q117 0 164 -75q65 75 168 75q105 0 159 -57.5t54 -150.5q0 -54 -10 -94h-377q-5 -22 -5 -43q0 -45 28.5 -77.5t83.5 -32.5q105 0 130 84zM344 189l16 67h-2q-26 -19 -74 -24q-84 -5 -114 -15q-65 -19 -65 -75q5 -66 93 -66q120 0 146 113z" />
    <glyph glyph-name="ccedilla" unicode="&#xe7;" 
d="M371 178h114q-52 -188 -253 -191l-40 -47q27 3 29 3q36 0 61.5 -18.5t25.5 -53.5q0 -43 -37 -66t-83 -23q-64 0 -106 23l20 39q26 -14 69 -17q19 -2 38 8.5t19 28.5q0 39 -47 39q-16 0 -37 -7l-17 21l59 72q-83 10 -128.5 68.5t-45.5 149.5q0 136 80 230t214 94
q91 0 150 -49t56 -136h-114q1 47 -26.5 71t-75.5 24q-54 0 -94 -37.5t-58 -88.5t-18 -104q0 -135 115 -135q49 0 82 27t48 75z" />
    <glyph glyph-name="egrave" unicode="&#xe8;" 
d="M371 160h114q-52 -174 -249 -174q-100 0 -163 61.5t-63 164.5q0 60 19 117t54.5 102t91 72.5t122.5 27.5q65 0 111 -22t68.5 -60t31.5 -75.5t9 -80.5q0 -30 -6 -64h-385q-2 -12 -2 -33q0 -56 30.5 -88t92.5 -32q46 0 79 22t45 62zM137 304h265q1 12 1 32q0 47 -29.5 76
t-79.5 29q-118 0 -157 -137zM397 588h-84l-118 143h125z" />
    <glyph glyph-name="eacute" unicode="&#xe9;" 
d="M371 160h114q-52 -174 -249 -174q-100 0 -163 61.5t-63 164.5q0 60 19 117t54.5 102t91 72.5t122.5 27.5q65 0 111 -22t68.5 -60t31.5 -75.5t9 -80.5q0 -30 -6 -64h-385q-2 -12 -2 -33q0 -56 30.5 -88t92.5 -32q46 0 79 22t45 62zM137 304h265q1 12 1 32q0 47 -29.5 76
t-79.5 29q-118 0 -157 -137zM346 731h125l-118 -143h-84z" />
    <glyph glyph-name="ecircumflex" unicode="&#xea;" 
d="M371 160h114q-52 -174 -249 -174q-100 0 -163 61.5t-63 164.5q0 60 19 117t54.5 102t91 72.5t122.5 27.5q65 0 111 -22t68.5 -60t31.5 -75.5t9 -80.5q0 -30 -6 -64h-385q-2 -12 -2 -33q0 -56 30.5 -88t92.5 -32q46 0 79 22t45 62zM137 304h265q1 12 1 32q0 47 -29.5 76
t-79.5 29q-118 0 -157 -137zM256 588h-92l134 143h104l78 -143h-86l-51 90z" />
    <glyph glyph-name="edieresis" unicode="&#xeb;" 
d="M371 160h114q-52 -174 -249 -174q-100 0 -163 61.5t-63 164.5q0 60 19 117t54.5 102t91 72.5t122.5 27.5q65 0 111 -22t68.5 -60t31.5 -75.5t9 -80.5q0 -30 -6 -64h-385q-2 -12 -2 -33q0 -56 30.5 -88t92.5 -32q46 0 79 22t45 62zM137 304h265q1 12 1 32q0 47 -29.5 76
t-79.5 29q-118 0 -157 -137zM384 703h110l-19 -108h-110zM204 703h110l-19 -108h-110z" />
    <glyph glyph-name="igrave" unicode="&#xec;" horiz-adv-x="241" 
d="M102 0h-114l107 517h114zM229 588h-84l-118 143h125z" />
    <glyph glyph-name="iacute" unicode="&#xed;" horiz-adv-x="241" 
d="M102 0h-114l107 517h114zM178 731h125l-118 -143h-84z" />
    <glyph glyph-name="icircumflex" unicode="&#xee;" horiz-adv-x="241" 
d="M102 0h-114l107 517h114zM88 588h-92l134 143h104l78 -143h-86l-51 90z" />
    <glyph glyph-name="idieresis" unicode="&#xef;" horiz-adv-x="241" 
d="M102 0h-114l107 517h114zM216 703h110l-19 -108h-110zM36 703h110l-19 -108h-110z" />
    <glyph glyph-name="eth" unicode="&#xf0;" horiz-adv-x="593" 
d="M245 76q55 0 96 37t59.5 88.5t18.5 106.5q0 45 -30.5 76.5t-88.5 31.5q-80 0 -127 -67t-47 -140q0 -60 29.5 -96.5t89.5 -36.5zM198 615l103 51q-35 29 -87 58l86 50q51 -30 89 -65l107 52l50 -54l-106 -52q93 -115 93 -308q0 -165 -79 -263t-216 -98q-107 0 -166.5 59
t-59.5 167q0 119 83 206.5t212 87.5q35 0 68 -11t47 -33l2 2q-18 87 -70 149l-106 -52z" />
    <glyph glyph-name="ntilde" unicode="&#xf1;" horiz-adv-x="574" 
d="M-12 0l107 517h107l-16 -75l2 -2q31 43 78 67t100 24q76 0 113.5 -36.5t37.5 -100.5q0 -42 -5 -64l-69 -330h-114l66 319q8 34 8 48v11.5t-2 14.5t-6.5 18t-13 14t-23 12t-34.5 4q-58 0 -108 -50q-41 -43 -56 -111l-58 -280h-114zM452 714h58q-6 -43 -35 -81t-69 -38
q-25 0 -79 24q-54 25 -68 25q-25 0 -44 -46h-59q31 116 106 116q34 0 78 -23q52 -24 69 -24q28 0 43 47z" />
    <glyph glyph-name="ograve" unicode="&#xf2;" horiz-adv-x="593" 
d="M238 -14q-107 0 -166.5 59t-59.5 167q0 132 82.5 225.5t212.5 93.5q107 0 166.5 -57.5t59.5 -164.5q0 -139 -80 -231t-215 -92zM300 441q-81 0 -127.5 -72.5t-46.5 -159.5q0 -60 29.5 -96.5t89.5 -36.5q55 0 96 37t59.5 88.5t18.5 106.5q0 60 -29.5 96.5t-89.5 36.5z
M405 588h-84l-118 143h125z" />
    <glyph glyph-name="oacute" unicode="&#xf3;" horiz-adv-x="593" 
d="M238 -14q-107 0 -166.5 59t-59.5 167q0 132 82.5 225.5t212.5 93.5q107 0 166.5 -57.5t59.5 -164.5q0 -139 -80 -231t-215 -92zM300 441q-81 0 -127.5 -72.5t-46.5 -159.5q0 -60 29.5 -96.5t89.5 -36.5q55 0 96 37t59.5 88.5t18.5 106.5q0 60 -29.5 96.5t-89.5 36.5z
M354 731h125l-118 -143h-84z" />
    <glyph glyph-name="ocircumflex" unicode="&#xf4;" horiz-adv-x="593" 
d="M238 -14q-107 0 -166.5 59t-59.5 167q0 132 82.5 225.5t212.5 93.5q107 0 166.5 -57.5t59.5 -164.5q0 -139 -80 -231t-215 -92zM300 441q-81 0 -127.5 -72.5t-46.5 -159.5q0 -60 29.5 -96.5t89.5 -36.5q55 0 96 37t59.5 88.5t18.5 106.5q0 60 -29.5 96.5t-89.5 36.5z
M264 588h-92l134 143h104l78 -143h-86l-51 90z" />
    <glyph glyph-name="otilde" unicode="&#xf5;" horiz-adv-x="593" 
d="M238 -14q-107 0 -166.5 59t-59.5 167q0 132 82.5 225.5t212.5 93.5q107 0 166.5 -57.5t59.5 -164.5q0 -139 -80 -231t-215 -92zM300 441q-81 0 -127.5 -72.5t-46.5 -159.5q0 -60 29.5 -96.5t89.5 -36.5q55 0 96 37t59.5 88.5t18.5 106.5q0 60 -29.5 96.5t-89.5 36.5z
M461 714h58q-6 -43 -35 -81t-69 -38q-25 0 -79 24q-54 25 -68 25q-25 0 -44 -46h-59q31 116 106 116q34 0 78 -23q52 -24 69 -24q28 0 43 47z" />
    <glyph glyph-name="odieresis" unicode="&#xf6;" horiz-adv-x="593" 
d="M238 -14q-107 0 -166.5 59t-59.5 167q0 132 82.5 225.5t212.5 93.5q107 0 166.5 -57.5t59.5 -164.5q0 -139 -80 -231t-215 -92zM300 441q-81 0 -127.5 -72.5t-46.5 -159.5q0 -60 29.5 -96.5t89.5 -36.5q55 0 96 37t59.5 88.5t18.5 106.5q0 60 -29.5 96.5t-89.5 36.5z
M392 703h110l-19 -108h-110zM212 703h110l-19 -108h-110z" />
    <glyph glyph-name="divide" unicode="&#xf7;" horiz-adv-x="600" 
d="M552 202h-504v102h504v-102zM301 387q-29 0 -51 21.5t-22 50.5q0 30 21.5 51t50.5 21t50.5 -21.5t21.5 -50.5q0 -27 -21.5 -49.5t-49.5 -22.5zM301 -25q-29 0 -51 21.5t-22 50.5q0 30 21.5 51t50.5 21t50.5 -21.5t21.5 -50.5q0 -27 -21.5 -49.5t-49.5 -22.5z" />
    <glyph glyph-name="oslash" unicode="&#xf8;" horiz-adv-x="593" 
d="M414 355l-262 -238q31 -41 93 -41q55 0 96 37t59.5 88.5t18.5 106.5q0 22 -5 47zM134 155l262 239q-28 47 -96 47q-81 0 -127.5 -72.5t-46.5 -159.5q0 -31 8 -54zM-27 9l74 67q-35 53 -35 136q0 132 82.5 225.5t212.5 93.5q114 0 171 -62l71 64l27 -30l-73 -67
q30 -51 30 -127q0 -139 -80 -231t-215 -92q-108 0 -165 59l-73 -66z" />
    <glyph glyph-name="ugrave" unicode="&#xf9;" horiz-adv-x="574" 
d="M546 517l-107 -517h-107l16 75l-2 2q-31 -43 -78 -67t-100 -24q-76 0 -113.5 36.5t-37.5 100.5q0 41 5 64l69 330h114l-66 -319q-8 -34 -8 -48q0 -45 24 -61q20 -13 55 -13q62 0 106.5 48.5t57.5 112.5l58 280h114zM396 588h-84l-118 143h125z" />
    <glyph glyph-name="uacute" unicode="&#xfa;" horiz-adv-x="574" 
d="M546 517l-107 -517h-107l16 75l-2 2q-31 -43 -78 -67t-100 -24q-76 0 -113.5 36.5t-37.5 100.5q0 41 5 64l69 330h114l-66 -319q-8 -34 -8 -48q0 -45 24 -61q20 -13 55 -13q62 0 106.5 48.5t57.5 112.5l58 280h114zM345 731h125l-118 -143h-84z" />
    <glyph glyph-name="ucircumflex" unicode="&#xfb;" horiz-adv-x="574" 
d="M546 517l-107 -517h-107l16 75l-2 2q-31 -43 -78 -67t-100 -24q-76 0 -113.5 36.5t-37.5 100.5q0 41 5 64l69 330h114l-66 -319q-8 -34 -8 -48q0 -45 24 -61q20 -13 55 -13q62 0 106.5 48.5t57.5 112.5l58 280h114zM255 588h-92l134 143h104l78 -143h-86l-51 90z" />
    <glyph glyph-name="udieresis" unicode="&#xfc;" horiz-adv-x="574" 
d="M546 517l-107 -517h-107l16 75l-2 2q-31 -43 -78 -67t-100 -24q-76 0 -113.5 36.5t-37.5 100.5q0 41 5 64l69 330h114l-66 -319q-8 -34 -8 -48q0 -45 24 -61q20 -13 55 -13q62 0 106.5 48.5t57.5 112.5l58 280h114zM383 703h110l-19 -108h-110zM203 703h110l-19 -108
h-110z" />
    <glyph glyph-name="yacute" unicode="&#xfd;" horiz-adv-x="500" 
d="M120 17l-91 500h120l54 -378h2l195 378h122l-296 -533q-3 -5 -15.5 -28.5t-16 -29t-15.5 -26t-17.5 -26t-18 -21t-21 -20.5t-23 -15t-28 -13.5t-30.5 -6.5t-36 -3q-32 0 -69 8l21 95q28 -8 44 -8q55 0 74 44zM348 731h125l-118 -143h-84z" />
    <glyph glyph-name="thorn" unicode="&#xfe;" horiz-adv-x="611" 
d="M-50 -191l188 905h115l-56 -263l2 -2q25 38 68.5 60t92.5 22q94 0 145 -59t51 -155q0 -61 -16.5 -118.5t-48.5 -106t-84 -77.5t-116 -29q-128 0 -169 94h-2l-56 -271h-114zM151 209q0 -59 28 -96t86 -37q44 0 79 20.5t56 54.5t31.5 73.5t10.5 81.5q0 60 -28.5 97.5
t-85.5 37.5q-44 0 -79 -21t-56 -55t-31.5 -74t-10.5 -82z" />
    <glyph glyph-name="ydieresis" unicode="&#xff;" horiz-adv-x="500" 
d="M120 17l-91 500h120l54 -378h2l195 378h122l-296 -533q-3 -5 -15.5 -28.5t-16 -29t-15.5 -26t-17.5 -26t-18 -21t-21 -20.5t-23 -15t-28 -13.5t-30.5 -6.5t-36 -3q-32 0 -69 8l21 95q28 -8 44 -8q55 0 74 44zM356 703h110l-19 -108h-110zM176 703h110l-19 -108h-110z" />
    <glyph glyph-name="dotlessi" unicode="&#x131;" horiz-adv-x="241" 
d="M102 0h-114l107 517h114z" />
    <glyph glyph-name="Lslash" unicode="&#x141;" horiz-adv-x="574" 
d="M70 317l82 397h125l-64 -306l230 142l-19 -93l-230 -142l-43 -207h360l-22 -108h-485l47 227l-87 -54l19 90z" />
    <glyph glyph-name="lslash" unicode="&#x142;" horiz-adv-x="241" 
d="M69 390l67 324h114l-49 -235l93 63l-15 -71l-93 -63l-84 -408h-114l66 319l-81 -55l15 71z" />
    <glyph glyph-name="OE" unicode="&#x152;" horiz-adv-x="1093" 
d="M1003 108l-23 -108h-490l13 61h-2q-61 -78 -184 -78q-129 0 -201 89t-72 223q0 114 44.5 212t133.5 161t205 63q128 0 196 -87l15 70h487l-23 -108h-373l-39 -187h340l-21 -102h-340l-43 -209h377zM536 250l41 202q8 42 8 58q0 10 -2.5 21.5t-12.5 30t-26 32.5t-47 24.5
t-72 10.5q-119 0 -187.5 -95.5t-68.5 -229.5q0 -95 42.5 -157t127.5 -62q76 0 129.5 45t67.5 120z" />
    <glyph glyph-name="oe" unicode="&#x153;" horiz-adv-x="926" 
d="M306 441q-58 0 -99 -41t-58 -94t-17 -108q0 -122 119 -122q52 0 90 43t53.5 96.5t15.5 104.5q0 65 -29.5 93t-74.5 28zM509 304h257q2 13 2 36q0 101 -108 101q-113 0 -151 -137zM872 229h-377q-5 -22 -5 -43q0 -45 28.5 -77.5t83.5 -32.5q104 0 130 84h118
q-26 -83 -94 -128.5t-159 -45.5q-68 0 -111 20t-69 75q-65 -95 -200 -95q-98 0 -148.5 57.5t-50.5 161.5q0 131 81.5 228.5t210.5 97.5t172 -93q31 45 81 69t106 24q105 0 159 -57.5t54 -150.5q0 -54 -10 -94z" />
    <glyph glyph-name="Scaron" unicode="&#x160;" horiz-adv-x="648" 
d="M13 236h120q-7 -151 164 -151q60 0 109.5 28.5t49.5 85.5q0 20 -5.5 35.5t-20.5 28t-25.5 20t-37.5 16.5l-38 12.5t-44 12.5q-31 8 -46 12.5t-48.5 20.5t-51.5 33.5t-33.5 48.5t-15.5 70q0 99 71 160.5t195 61.5q122 0 195 -54.5t69 -173.5h-120q-1 66 -36.5 96
t-109.5 30q-18 0 -37 -3.5t-44.5 -13t-41.5 -32.5t-16 -56q0 -20 9 -36t20 -26t34.5 -19.5t38.5 -13.5l47 -12t45 -11.5t41.5 -13.5t42 -18.5t34 -24.5t30 -34t17 -44t7.5 -57q0 -94 -73.5 -162.5t-223.5 -68.5q-131 0 -203 62t-68 191zM323 785l-78 143h84l52 -88l93 88h92
l-137 -143h-106z" />
    <glyph glyph-name="scaron" unicode="&#x161;" horiz-adv-x="500" 
d="M462 366h-108q-1 38 -28.5 56.5t-75.5 18.5q-88 0 -88 -65q0 -13 8.5 -23.5t25 -18t33 -13l42.5 -13.5t43 -14q56 -21 88 -52t32 -86q0 -84 -67.5 -127t-161.5 -43q-47 0 -84 8.5t-67.5 28.5t-47 56t-17.5 87h108q-1 -46 30 -68t84 -22q44 0 76.5 17t32.5 57
q0 15 -8.5 27t-27 21t-34.5 15t-44.5 14t-43.5 14q-53 19 -83.5 49.5t-30.5 82.5q0 79 62 118.5t151 39.5q205 0 201 -165zM249 588l-78 143h84l52 -88l93 88h92l-137 -143h-106z" />
    <glyph glyph-name="Ydieresis" unicode="&#x178;" horiz-adv-x="630" 
d="M170 0l58 283l-176 431h131l123 -324l250 324h148l-353 -441l-56 -273h-125zM441 900h110l-19 -108h-110zM261 900h110l-19 -108h-110z" />
    <glyph glyph-name="Zcaron" unicode="&#x17d;" horiz-adv-x="630" 
d="M101 606l22 108h544l-21 -102l-509 -504h428l-23 -108h-584l22 104l503 502h-382zM314 785l-78 143h84l52 -88l93 88h92l-137 -143h-106z" />
    <glyph glyph-name="zcaron" unicode="&#x17e;" horiz-adv-x="481" 
d="M49 427l20 90h415l-19 -83l-341 -344h293l-19 -90h-447l19 84l340 343h-261zM239 588l-78 143h84l52 -88l93 88h92l-137 -143h-106z" />
    <glyph glyph-name="florin" unicode="&#x192;" 
d="M127 353l22 85h94l34 122q12 42 24 68.5t34.5 52.5t58 38t85.5 12q16 0 67 -7l-25 -89q-20 6 -40 6q-40 0 -60 -25t-32 -71l-28 -107h107l-22 -85h-107l-94 -335q-24 -84 -44 -115q-8 -11 -16 -20q-46 -53 -132 -53q-45 0 -67 5l24 89q18 -4 27 -4q38 0 57.5 19.5
t29.5 58.5l97 355h-94z" />
    <glyph glyph-name="circumflex" unicode="&#x2c6;" horiz-adv-x="241" 
d="M128 588h-92l134 143h104l78 -143h-86l-51 90z" />
    <glyph glyph-name="caron" unicode="&#x2c7;" horiz-adv-x="241" 
d="M119 588l-78 143h84l52 -88l93 88h92l-137 -143h-106z" />
    <glyph glyph-name="breve" unicode="&#x2d8;" horiz-adv-x="241" 
d="M60 731h56q3 -76 91 -76q43 0 74 19.5t41 56.5h56q-13 -69 -58.5 -105t-115.5 -36q-67 0 -107.5 37.5t-36.5 103.5z" />
    <glyph glyph-name="dotaccent" unicode="&#x2d9;" horiz-adv-x="241" 
d="M165 703h110l-19 -108h-110z" />
    <glyph glyph-name="ring" unicode="&#x2da;" horiz-adv-x="241" 
d="M183 569q-42 0 -72.5 31t-30.5 72q0 42 30.5 72.5t72.5 30.5t72.5 -30.5t30.5 -72.5q0 -41 -30.5 -72t-72.5 -31zM122 672q0 -26 18 -43.5t43 -17.5t43 17.5t18 43.5t-18 43.5t-43 17.5t-43 -17.5t-18 -43.5z" />
    <glyph glyph-name="ogonek" unicode="&#x2db;" horiz-adv-x="241" 
d="M182 -135l48 -8q-43 -75 -134 -75q-83 0 -83 70q0 75 144 148h68q-70 -44 -101 -74.5t-31 -55.5q0 -16 8.5 -27t23.5 -11q27 0 57 33z" />
    <glyph glyph-name="tilde" unicode="&#x2dc;" horiz-adv-x="241" 
d="M325 714h58q-6 -43 -35 -81t-69 -38q-25 0 -79 24q-54 25 -68 25q-25 0 -44 -46h-59q31 116 106 116q34 0 78 -23q52 -24 69 -24q28 0 43 47z" />
    <glyph glyph-name="hungarumlaut" unicode="&#x2dd;" horiz-adv-x="241" 
d="M299 731h125l-118 -143h-74zM117 731h125l-118 -143h-74z" />
    <glyph glyph-name="endash" unicode="&#x2013;" horiz-adv-x="500" 
d="M-26 218l21 108h501l-21 -108h-501z" />
    <glyph glyph-name="emdash" unicode="&#x2014;" horiz-adv-x="1000" 
d="M104 218l21 108h741l-21 -108h-741z" />
    <glyph glyph-name="quoteleft" unicode="&#x2018;" horiz-adv-x="278" 
d="M100 432l28 134q14 64 48.5 104.5t108.5 43.5l-12 -58q-37 -5 -54.5 -26.5t-26.5 -62.5h75l-28 -135h-139z" />
    <glyph glyph-name="quoteright" unicode="&#x2019;" horiz-adv-x="278" 
d="M106 579l28 135h139l-28 -134q-14 -64 -48.5 -104.5t-108.5 -43.5l12 58q37 5 54.5 26.5t26.5 62.5h-75z" />
    <glyph glyph-name="quotesinglbase" unicode="&#x201a;" horiz-adv-x="278" 
d="M29 135h139l-28 -134q-14 -64 -48.5 -104.5t-108.5 -43.5l12 58q37 5 54.5 26.5t26.5 62.5h-75z" />
    <glyph glyph-name="quotedblleft" unicode="&#x201c;" horiz-adv-x="444" 
d="M75 432l28 134q14 64 48.5 104.5t108.5 43.5l-12 -58q-37 -5 -54.5 -26.5t-26.5 -62.5h75l-28 -135h-139zM272 432l28 134q14 64 48.5 104.5t108.5 43.5l-12 -58q-37 -5 -54.5 -26.5t-26.5 -62.5h75l-28 -135h-139z" />
    <glyph glyph-name="quotedblright" unicode="&#x201d;" horiz-adv-x="444" 
d="M290 579l28 135h139l-28 -134q-14 -64 -48.5 -104.5t-108.5 -43.5l12 58q37 5 54.5 26.5t26.5 62.5h-75zM93 579l28 135h139l-28 -134q-14 -64 -48.5 -104.5t-108.5 -43.5l12 58q37 5 54.5 26.5t26.5 62.5h-75z" />
    <glyph glyph-name="quotedblbase" unicode="&#x201e;" horiz-adv-x="444" 
d="M6 135h139l-28 -134q-14 -64 -48.5 -104.5t-108.5 -43.5l12 58q37 5 54.5 26.5t26.5 62.5h-75zM203 135h139l-28 -134q-14 -64 -48.5 -104.5t-108.5 -43.5l12 58q37 5 54.5 26.5t26.5 62.5h-75z" />
    <glyph glyph-name="dagger" unicode="&#x2020;" 
d="M232 422h-188l20 95h187l42 197h114l-42 -197h192l-20 -95h-191l-121 -582h-114z" />
    <glyph glyph-name="daggerdbl" unicode="&#x2021;" 
d="M168 132l60 290h-184l20 95h184l41 197h114l-41 -197h193l-20 -95h-193l-60 -290h191l-19 -95h-192l-41 -197h-114l41 197h-186l20 95h186z" />
    <glyph glyph-name="bullet" unicode="&#x2022;" horiz-adv-x="500" 
d="M72 357q0 74 52 126t126 52t126.5 -52t52.5 -126t-52.5 -126.5t-126.5 -52.5t-126 52.5t-52 126.5z" />
    <glyph glyph-name="ellipsis" unicode="&#x2026;" horiz-adv-x="1000" 
d="M21 0l30 135h139l-30 -135h-139zM354 0l30 135h139l-30 -135h-139zM687 0l30 135h139l-30 -135h-139z" />
    <glyph glyph-name="perthousand" unicode="&#x2030;" horiz-adv-x="1093" 
d="M479 -14q-61 0 -92.5 37t-31.5 100q0 50 17.5 95.5t58.5 78t97 32.5q129 0 129 -137q0 -83 -48.5 -144.5t-129.5 -61.5zM486 46q33 0 55.5 29.5t29 60t6.5 56.5q0 77 -51 77q-26 0 -44.5 -16.5t-27.5 -42.5t-13 -46.5t-6 -40.5q0 -77 51 -77zM833 -14q-61 0 -92.5 37
t-31.5 100q0 50 17.5 95.5t58.5 78t97 32.5q129 0 129 -137q0 -83 -48.5 -144.5t-129.5 -61.5zM840 46q33 0 55.5 29.5t29 60t6.5 56.5q0 77 -51 77q-26 0 -44.5 -16.5t-27.5 -42.5t-13 -46.5t-6 -40.5q0 -77 51 -77zM135 -24l398 748h73l-400 -748h-71zM206 371
q-61 0 -92.5 37t-31.5 100q0 50 17.5 95.5t58.5 78t97 32.5q129 0 129 -137q0 -83 -48.5 -144.5t-129.5 -61.5zM213 431q33 0 55.5 29.5t29 60t6.5 56.5q0 77 -51 77q-26 0 -44.5 -16.5t-27.5 -42.5t-13 -46.5t-6 -40.5q0 -77 51 -77z" />
    <glyph glyph-name="guilsinglleft" unicode="&#x2039;" horiz-adv-x="259" 
d="M26 231l25 110l177 110l-22 -107l-113 -68l80 -90l-21 -93z" />
    <glyph glyph-name="guilsinglright" unicode="&#x203a;" horiz-adv-x="259" 
d="M5 93l22 107l113 68l-80 90l21 93l126 -138l-25 -110z" />
    <glyph glyph-name="fraction" unicode="&#x2044;" horiz-adv-x="167" 
d="M-165 -24l419 748h78l-418 -748h-79z" />
    <glyph glyph-name="fraction" unicode="&#x2215;" horiz-adv-x="167" 
d="M-165 -24l419 748h78l-418 -748h-79z" />
    <glyph glyph-name="Euro" unicode="&#x20ac;" 
d="M580 675l-23 -111q-40 48 -134 48q-138 0 -190 -142h269l-48 -86h-251q-1 -5 -4 -15.5t-4 -13.5q-4 -26 -6 -34h229l-48 -86h-187q-9 -147 130 -147q90 0 153 48l-24 -112q-55 -37 -166 -37q-105 0 -157.5 61t-45.5 187h-78l47 86h41q0 11 5 33q7 26 8 30h-70l48 86h48
q93 244 309 244q51 0 91 -12t58 -27z" />
    <glyph glyph-name="trademark" unicode="&#x2122;" horiz-adv-x="990" 
d="M391 714v-65h-126v-347h-80v347h-126v65h332zM591 714l113 -292l112 292h115v-412h-75v322h-2l-123 -322h-56l-123 322h-2v-322h-75v412h116z" />
    <glyph glyph-name="minus" unicode="&#x2212;" horiz-adv-x="600" 
d="M552 202h-504v102h504v-102z" />
    <glyph glyph-name="fi" unicode="&#xfb01;" 
d="M20 0l90 432h-85l17 85h85q8 37 13 56.5t14.5 46.5t21 40.5t30 28t44.5 20t60 5.5q22 0 85 -7l-19 -87q-19 4 -44 4q-16 0 -28 -2.5t-21 -8.5t-14 -11t-9.5 -17t-6.5 -19t-6 -24l-6 -25h100l-17 -85h-100l-90 -432h-114zM303 0l107 517h114l-107 -517h-114zM428 606
l22 108h114l-22 -108h-114z" />
    <glyph glyph-name="fl" unicode="&#xfb02;" 
d="M20 0l90 432h-85l17 85h85q8 37 13 56.5t14.5 46.5t21 40.5t30 28t44.5 20t60 5.5q22 0 85 -7l-19 -87q-19 4 -44 4q-16 0 -28 -2.5t-21 -8.5t-14 -11t-9.5 -17t-6.5 -19t-6 -24l-6 -25h100l-17 -85h-100l-90 -432h-114zM303 0l148 714h114l-148 -714h-114z" />
    </font>
</defs>
</svg>
