<?xml version="1.0" standalone="no"?>
<!DOCTYPE svg PUBLIC "-//W3C//DTD SVG 1.1//EN" "http://www.w3.org/Graphics/SVG/1.1/DTD/svg11.dtd" >
<svg>
<metadata>
Created by FontForge 20090622 at Fri Jun 26 09:53:03 2015
 By deploy user
Copyright (c) 2010 - 2012, Matt McInerney (matt@pixelspread.com), Pablo Impallari(impallari@gmail.com), Rodrigo Fuenzalida (hello@rfuenzalida.com) with Reserved Font Name "Raleway"
</metadata>
<defs>
<font id="Raleway-Regular" horiz-adv-x="756" >
  <font-face 
    font-family="Raleway"
    font-weight="400"
    font-stretch="normal"
    units-per-em="1000"
    panose-1="2 11 0 3 3 1 1 6 0 3"
    ascent="800"
    descent="-200"
    x-height="521"
    cap-height="709"
    bbox="-216 -224 1115 933"
    underline-thickness="50"
    underline-position="-50"
    unicode-range="U+000D-U+FB06"
  />
<missing-glyph horiz-adv-x="0" 
 />
    <glyph glyph-name="f_f" unicode="ff" horiz-adv-x="599" 
d="M515 680q-58 0 -86.5 -42.5t-28.5 -100.5v-77h165v-54h-165v-406h-68v406h-163v-406h-68v406h-72v54h72v44q0 82 41 139.5t117 57.5q63 0 113 -26q48 65 132 65q18 0 33 -2.5t27 -7t19 -8t15.5 -9t9.5 -6.5l-20 -49q-28 22 -73 22zM332 460v69q0 56 19 93q-28 20 -81 20
q-52 0 -76.5 -42.5t-24.5 -93.5v-46h163z" />
    <glyph glyph-name="f_i" unicode="fi" horiz-adv-x="503" 
d="M101 0v406h-72v54h72v75q0 81 47.5 143t136.5 62q87 0 151 -47l-31 -49q-40 36 -116 36q-59 0 -89.5 -43t-30.5 -100v-77h261v-460h-68v406h-193v-406h-68z" />
    <glyph glyph-name="f_l" unicode="fl" horiz-adv-x="580" 
d="M573 66l14 -56q-1 -1 -14.5 -5t-36.5 -7.5t-44 -3.5q-46 0 -73.5 27t-27.5 67v483q0 44 -26.5 76.5t-82.5 32.5t-84.5 -45.5t-28.5 -107.5v-67h110v-54h-110v-406h-68v406h-72v54h72v80q0 91 46 145.5t135 54.5q85 0 131 -43t46 -113v-467q0 -24 14.5 -43t40.5 -19
q7 0 15.5 1t16 2.5t13.5 3.5t10 3z" />
    <glyph glyph-name="f_f_i" unicode="ffi" horiz-adv-x="733" 
d="M101 0v406h-72v54h72v44q0 82 41 139.5t117 57.5q63 0 113 -26q51 65 143 65q80 0 152 -47l-32 -49q-40 36 -115 36q-60 0 -90 -42.5t-30 -100.5v-77h260v-460h-68v406h-192v-406h-68v406h-163v-406h-68zM169 460h163v69q0 56 19 93q-28 20 -81 20q-52 0 -76.5 -42.5
t-24.5 -93.5v-46z" />
    <glyph glyph-name="f_f_l" unicode="ffl" horiz-adv-x="813" 
d="M726 -6q-47 0 -74.5 27t-27.5 67v483q0 44 -26 76.5t-82 32.5q-57 0 -85 -45t-28 -108v-67h109v-54h-109v-406h-68v406h-166v-406h-68v406h-72v54h72v51q0 84 43.5 137t120.5 53q57 0 107 -26q48 65 143 65q85 0 131 -43t46 -113v-467q0 -24 14.5 -43t40.5 -19q7 0 16 1
t16.5 2.5t13.5 3.5t10 3l4 1l13 -56q-1 -1 -14.5 -5t-36.5 -7.5t-43 -3.5zM169 460h166v69q0 63 15 94q-26 19 -73 19q-53 0 -80.5 -38t-27.5 -91v-53z" />
    <glyph glyph-name=".notdef" horiz-adv-x="0" 
 />
    <glyph glyph-name=".null" horiz-adv-x="0" 
 />
    <glyph glyph-name="nonmarkingreturn" horiz-adv-x="333" 
 />
    <glyph glyph-name="NULL" horiz-adv-x="0" 
 />
    <glyph glyph-name="NULL" horiz-adv-x="0" 
 />
    <glyph glyph-name="CR" unicode="&#xd;" horiz-adv-x="0" 
 />
    <glyph glyph-name="space" unicode=" " horiz-adv-x="256" 
 />
    <glyph glyph-name="exclam" unicode="!" horiz-adv-x="243" 
d="M156 228h-68v489h68v-489zM156 0h-68v112h68v-112z" />
    <glyph glyph-name="quotedbl" unicode="&#x22;" horiz-adv-x="280" 
d="M122 589h-60v127h60v-127zM217 589h-59v127h59v-127z" />
    <glyph glyph-name="numbersign" unicode="#" horiz-adv-x="684" 
d="M645 508v-51h-130l-47 -196h134v-54h-147l-50 -207h-58l51 207h-189l-50 -207h-58l52 207h-113v54h125l48 196h-131v51h144l48 202h58l-50 -202h189l49 202h58l-50 -202h117zM222 261h189l48 196h-190z" />
    <glyph glyph-name="dollar" unicode="$" horiz-adv-x="617" 
d="M542 633l-33 -56q-65 71 -184 76v-267q128 -25 190 -67.5t62 -132.5q0 -93 -67.5 -141.5t-180.5 -50.5v-97h-37v98q-148 9 -255 102l34 57q37 -39 96.5 -66t128.5 -31v267q-127 29 -180 67.5t-53 119.5q0 92 62 145t167 58v101h37v-100q123 -4 213 -82zM504 179
q0 56 -42 85.5t-137 52.5v-261q85 0 132 31t47 92zM134 521q0 -54 36.5 -80.5t125.5 -47.5v259q-162 -7 -162 -131z" />
    <glyph glyph-name="percent" unicode="%" horiz-adv-x="724" 
d="M194 433q-62 0 -105.5 42t-43.5 101q0 60 43.5 102t105.5 42t106 -42t44 -102q0 -59 -44 -101t-106 -42zM194 472q41 0 70 31t29 73q0 43 -29.5 73.5t-69.5 30.5t-69 -31t-29 -73q0 -43 29 -73.5t69 -30.5zM530 -10q-62 0 -105.5 42t-43.5 102q0 59 43.5 101t105.5 42
t105.5 -42t43.5 -101q0 -60 -43.5 -102t-105.5 -42zM530 30q41 0 69.5 31t28.5 73t-29.5 73t-68.5 31q-41 0 -69.5 -31t-28.5 -73q0 -43 28.5 -73.5t69.5 -30.5zM104 -4l-35 31l280 340l271 347l35 -30l-278 -340z" />
    <glyph glyph-name="ampersand" unicode="&#x26;" horiz-adv-x="672" 
d="M662 0h-90l-82 86q-90 -96 -216 -96q-95 0 -160.5 54t-65.5 139q0 65 39 113t111 98q-54 58 -75.5 95t-21.5 74q0 66 51 111t127 45q71 0 118.5 -39.5t47.5 -100.5q0 -56 -39.5 -99t-115.5 -92l199 -208q43 81 43 176h58q-1 -122 -61 -218zM281 45q100 0 171 81l-215 227
q-60 -42 -91.5 -82t-31.5 -90q0 -63 50 -99.5t117 -36.5zM164 565q0 -25 17.5 -53.5t68.5 -82.5q71 48 101.5 78.5t30.5 69.5t-29.5 64t-73.5 25q-49 0 -82 -29.5t-33 -71.5z" />
    <glyph glyph-name="quotesingle" unicode="'" horiz-adv-x="170" 
d="M115 604h-60v112h60v-112z" />
    <glyph glyph-name="parenleft" unicode="(" horiz-adv-x="268" 
d="M44 346q0 94 36.5 187.5t103.5 205.5l52 -25q-48 -71 -88 -177t-40 -194q0 -160 127 -353l-51 -27q-140 208 -140 383z" />
    <glyph glyph-name="parenright" unicode=")" horiz-adv-x="268" 
d="M224 346q0 -175 -140 -383l-51 27q127 193 127 353q0 88 -40 193.5t-88 177.5l52 25q67 -112 103.5 -205.5t36.5 -187.5z" />
    <glyph glyph-name="asterisk" unicode="*" horiz-adv-x="323" 
d="M118 524l-30 22l43 62l-69 22l11 36l69 -26l-3 73h44l-3 -73l69 26l11 -36l-68 -22l44 -62l-32 -22l-43 65z" />
    <glyph glyph-name="plus" unicode="+" horiz-adv-x="418" 
d="M240 383h125v-56h-125v-135h-62v135h-125v56h125v135h62v-135z" />
    <glyph glyph-name="comma" unicode="," horiz-adv-x="205" 
d="M55 -67v52q21 0 21 21v92h58v-102q0 -32 -23.5 -47.5t-55.5 -15.5z" />
    <glyph glyph-name="hyphen" unicode="-" horiz-adv-x="423" 
d="M357 241h-291v63h291v-63z" />
    <glyph glyph-name="period" unicode="." horiz-adv-x="189" 
d="M124 0h-58v98h58v-98z" />
    <glyph glyph-name="slash" unicode="/" horiz-adv-x="606" 
d="M501 710h78l-473 -710h-77z" />
    <glyph glyph-name="zero" unicode="0" horiz-adv-x="615" 
d="M559 293q0 -132 -71.5 -217.5t-179.5 -85.5q-109 0 -180 85.5t-71 217.5t71 218t180 86q108 0 179.5 -86t71.5 -218zM490 293q0 107 -50.5 173.5t-131.5 66.5t-132 -66.5t-51 -173.5t51 -173t132 -66t131.5 66t50.5 173z" />
    <glyph glyph-name="one" unicode="1" horiz-adv-x="428" 
d="M279 62h127v-62h-339v62h142v428q-18 -25 -72 -52.5t-91 -27.5v66q40 0 97.5 39.5t65.5 55.5h70v-509z" />
    <glyph glyph-name="two" unicode="2" horiz-adv-x="533" 
d="M480 0h-429q0 84 35.5 148t130.5 114l45 22t51 26.5t39.5 26.5t33.5 36t10 42q0 42 -35 73.5t-96 31.5q-94 0 -160 -83l-45 49q9 10 23.5 22.5t42.5 30.5t68 30t83 12q87 0 139.5 -46t52.5 -112q0 -23 -7.5 -44t-17 -36.5t-28 -31.5t-30 -24.5t-34 -20.5t-29.5 -15
l-27 -12q-89 -40 -123 -77t-43 -100h350v-62z" />
    <glyph glyph-name="three" unicode="3" horiz-adv-x="536" 
d="M344 236q66 -11 105.5 -60t39.5 -121q0 -91 -63.5 -146.5t-167.5 -55.5q-75 0 -132.5 30.5t-86.5 84.5l47 43q46 -96 172 -96q75 0 118 37t43 104q0 69 -46 109t-129 40h-25v58h27q75 0 117 35.5t42 93.5t-40.5 90t-104.5 32q-57 0 -100.5 -25.5t-65.5 -70.5l-44 42
q25 52 84 84t132 32q92 0 151 -50t59 -129q0 -62 -36 -107t-96 -54z" />
    <glyph glyph-name="four" unicode="4" horiz-adv-x="542" 
d="M423 -127h-68v178h-334v60l355 460h47v-458h88v-62h-88v-178zM361 464l-268 -351h268v351z" />
    <glyph glyph-name="five" unicode="5" horiz-adv-x="551" 
d="M280 312q99 0 165.5 -63.5t66.5 -162.5q0 -104 -71.5 -169.5t-175.5 -65.5q-74 0 -135.5 37t-91.5 99l45 34q28 -50 77 -79.5t106 -29.5q75 0 125.5 48.5t50.5 124.5q0 73 -48.5 119.5t-120.5 46.5q-103 0 -157 -80h-63l79 400h343v-63h-292l-49 -255q54 59 146 59z" />
    <glyph glyph-name="six" unicode="6" horiz-adv-x="606" 
d="M561 234q0 -102 -73 -173t-178 -71q-114 0 -184.5 80t-70.5 217q0 211 70 319.5t192 108.5q70 0 126 -35t85 -97l-44 -40q-20 51 -66 81.5t-102 30.5q-89 0 -142 -82.5t-54 -227.5q22 58 75.5 93.5t121.5 35.5q102 0 173 -70t71 -170zM311 50q76 0 130.5 54t54.5 130
q0 75 -55 129.5t-130 54.5q-77 0 -131.5 -54t-54.5 -130q0 -75 55 -129.5t131 -54.5z" />
    <glyph glyph-name="seven" unicode="7" horiz-adv-x="550" 
d="M100 -127l329 647h-383v63h491l-359 -710h-78z" />
    <glyph glyph-name="eight" unicode="8" horiz-adv-x="596" 
d="M544 197q0 -91 -73 -148t-176 -57q-105 0 -174.5 61t-69.5 148q0 64 42 111.5t100 67.5q-51 21 -84 60t-33 89q0 83 68 132t154 49t154 -49t68 -131q0 -50 -34 -89.5t-85 -60.5q62 -21 102.5 -69.5t40.5 -113.5zM475 202q0 67 -55 108t-123 41q-69 0 -122.5 -42
t-53.5 -108t55 -107t123 -41t122 42t54 107zM145 526q0 -55 47.5 -88t105.5 -33q57 0 105 34t48 89t-45.5 87.5t-108.5 32.5q-62 0 -107 -33.5t-45 -88.5z" />
    <glyph glyph-name="nine" unicode="9" horiz-adv-x="589" 
d="M38 327q0 102 73 173t178 71q114 0 184.5 -80t70.5 -217q0 -211 -70 -319.5t-192 -108.5q-70 0 -126 35t-85 97l44 40q20 -51 66 -81.5t102 -30.5q89 0 142 82.5t54 227.5q-22 -58 -75.5 -93.5t-121.5 -35.5q-102 0 -173 70t-71 170zM288 511q-76 0 -130.5 -54
t-54.5 -130q0 -75 55 -129.5t130 -54.5q77 0 131.5 54t54.5 130q0 75 -55 129.5t-131 54.5z" />
    <glyph glyph-name="colon" unicode=":" horiz-adv-x="197" 
d="M127 420h-57v98h57v-98zM127 0h-57v98h57v-98z" />
    <glyph glyph-name="semicolon" unicode=";" horiz-adv-x="212" 
d="M137 420h-58v98h58v-98zM58 -67v52q21 0 21 21v92h58v-102q0 -32 -23.5 -47.5t-55.5 -15.5z" />
    <glyph glyph-name="less" unicode="&#x3c;" horiz-adv-x="506" 
d="M34 239v37l419 252v-73l-321 -196l321 -195v-75z" />
    <glyph glyph-name="equal" unicode="=" horiz-adv-x="441" 
d="M372 194h-302v49h302v-49zM372 309h-302v49h302v-49z" />
    <glyph glyph-name="greater" unicode="&#x3e;" horiz-adv-x="506" 
d="M473 276v-37l-420 -250v75l321 195l-321 196v73z" />
    <glyph glyph-name="question" unicode="?" horiz-adv-x="479" 
d="M213 202h-58q0 65 20.5 104t64.5 66q5 3 33.5 18.5t40 24.5t30.5 26.5t27 40t8 50.5q0 62 -40 96t-96 34q-52 0 -95 -29t-66 -73l-47 30q27 60 84.5 94.5t124.5 34.5q80 0 137.5 -50t57.5 -141q0 -38 -10 -66t-33.5 -50t-40 -32.5t-51.5 -29.5q-30 -17 -46 -29t-30.5 -43
t-14.5 -76zM215 0h-59v107h59v-107z" />
    <glyph glyph-name="at" unicode="@" horiz-adv-x="826" 
d="M420 603q151 0 257.5 -107t106.5 -274q0 -31 -4.5 -63t-17.5 -76t-45 -71.5t-79 -27.5q-45 0 -62 24t-22 68q-30 -31 -74.5 -51t-94.5 -20q-69 0 -109.5 37t-40.5 97q0 70 54 102t131 32q64 0 127 -23q0 78 -27.5 119.5t-96.5 41.5q-77 0 -140 -47l-18 39q78 52 163 52
q53 0 88 -17.5t50.5 -50.5t20.5 -63.5t5 -73.5v-129q0 -51 10 -75.5t41 -24.5q30 0 51.5 21t32.5 54t16 65t5 63q0 145 -94.5 245t-234.5 100q-139 0 -236 -96.5t-97 -242.5q0 -143 94 -242.5t233 -99.5q76 0 154 38l13 -32q-80 -40 -167 -40q-151 0 -257 107.5t-106 268.5
q0 164 110 268.5t260 104.5zM481 70q65 30 65 102v40q-4 1 -24.5 6.5t-48 10.5t-55.5 5q-60 0 -98.5 -22t-38.5 -71q0 -41 30 -67t77 -26t93 22z" />
    <glyph glyph-name="A" unicode="A" horiz-adv-x="679" 
d="M89 0h-74l297 710h57l297 -710h-75l-92 222h-319zM483 277l-142 351l-146 -351h288z" />
    <glyph glyph-name="B" unicode="B" horiz-adv-x="668" 
d="M623 183q0 -79 -58 -131t-141 -52h-334v710h341q72 0 117 -55t45 -126q0 -54 -27.5 -98.5t-74.5 -66.5q61 -18 96.5 -67t35.5 -114zM553 195q0 54 -35.5 94.5t-86.5 40.5h-272v-269h265q54 0 91.5 40t37.5 94zM409 649h-250v-262h244q52 0 87 39t35 92q0 55 -33 93
t-83 38z" />
    <glyph glyph-name="C" unicode="C" horiz-adv-x="689" 
d="M44 360q0 88 38.5 167.5t117.5 133t181 53.5q92 0 160 -42t102 -113l-56 -34q-21 45 -57.5 74t-74 40.5t-78.5 11.5q-120 0 -191.5 -89.5t-71.5 -205.5q0 -120 77.5 -209.5t188.5 -89.5q65 0 126 33.5t93 98.5l58 -30q-33 -76 -114 -120.5t-167 -44.5q-94 0 -171.5 54
t-119 137.5t-41.5 174.5z" />
    <glyph glyph-name="D" unicode="D" horiz-adv-x="718" 
d="M330 0h-240v710h240q110 0 188 -48t115 -127t37 -179q0 -162 -92 -259t-248 -97zM600 356q0 131 -71.5 211.5t-198.5 80.5h-171v-586h171q129 0 199.5 82t70.5 212z" />
    <glyph glyph-name="E" unicode="E" horiz-adv-x="613" 
d="M159 62h408v-62h-477v710h468v-62h-399v-256h348v-59h-348v-271z" />
    <glyph glyph-name="F" unicode="F" horiz-adv-x="585" 
d="M159 0h-69v710h465v-62h-396v-261h335v-58h-335v-329z" />
    <glyph glyph-name="G" unicode="G" horiz-adv-x="722" 
d="M604 0v103q-99 -108 -227 -108q-92 0 -169.5 53t-120 135.5t-42.5 172.5q0 146 94 252.5t234 106.5q193 0 271 -155l-54 -36q-67 128 -218 128q-114 0 -185.5 -89t-71.5 -208q0 -121 77.5 -209t189.5 -88q123 0 222 118v119h-157v54h217v-349h-60z" />
    <glyph glyph-name="H" unicode="H" horiz-adv-x="739" 
d="M580 710h70v-710h-70v332h-421v-332h-69v710h69v-316h421v316z" />
    <glyph glyph-name="I" unicode="I" horiz-adv-x="249" 
d="M159 0h-69v709h69v-709z" />
    <glyph glyph-name="J" unicode="J" horiz-adv-x="486" 
d="M18 33l20 56q54 -37 134 -37q43 0 72.5 13.5t47.5 35.5t27.5 62t12.5 81.5t3 104.5v360h70v-360q0 -59 -3 -102t-11.5 -87t-24.5 -72.5t-41.5 -52.5t-63.5 -35t-89 -11q-90 0 -154 44z" />
    <glyph glyph-name="K" unicode="K" horiz-adv-x="641" 
d="M159 0h-69v709h69v-412l391 413h77l-290 -312l306 -398h-77l-272 357l-135 -139v-218z" />
    <glyph glyph-name="L" unicode="L" horiz-adv-x="590" 
d="M570 0h-480v710h69v-648h411v-62z" />
    <glyph glyph-name="M" unicode="M" horiz-adv-x="878" 
d="M788 0h-69v583l-259 -451h-41l-260 451v-583h-69v710h71l278 -486l278 486h71v-710z" />
    <glyph glyph-name="N" unicode="N" horiz-adv-x="773" 
d="M623 0l-464 580v-580h-69v710h54l470 -591v590h69v-709h-60z" />
    <glyph glyph-name="O" unicode="O" 
d="M378 -5q-72 0 -135 30.5t-106 81t-67.5 115.5t-24.5 133q0 145 97 252.5t237 107.5q95 0 172.5 -53.5t118.5 -135.5t41 -172q0 -145 -96.5 -252t-236.5 -107zM115 355q0 -119 74.5 -208t188.5 -89q115 0 189 90.5t74 206.5q0 119 -75 207.5t-188 88.5q-116 0 -189.5 -90
t-73.5 -206z" />
    <glyph glyph-name="P" unicode="P" horiz-adv-x="621" 
d="M159 0h-69v710h294q88 0 149 -68.5t61 -154.5q0 -90 -57.5 -157.5t-146.5 -67.5h-231v-262zM159 648v-324h227q61 0 99.5 48t38.5 115q0 66 -42.5 113.5t-101.5 47.5h-221z" />
    <glyph glyph-name="Q" unicode="Q" 
d="M626 0l-54 63q-87 -68 -194 -68q-144 1 -238.5 109.5t-94.5 250.5q0 145 97 252.5t237 107.5q95 0 172.5 -53.5t118.5 -135.5t41 -172q0 -149 -100 -255l84 -99h-69zM378 58q84 0 153 54l-89 106h69l57 -68q73 87 73 205q0 119 -75 208t-188 89q-77 0 -138.5 -44
t-93 -111t-31.5 -142q0 -119 74.5 -208t188.5 -89z" />
    <glyph glyph-name="R" unicode="R" horiz-adv-x="660" 
d="M159 0h-69v710h299q89 0 150 -68.5t61 -154.5q0 -78 -44.5 -138.5t-114.5 -74.5l175 -274h-79l-168 262h-210v-262zM159 648v-324h233q61 0 99.5 48.5t38.5 114.5q0 65 -43 113t-101 48h-227z" />
    <glyph glyph-name="S" unicode="S" horiz-adv-x="612" 
d="M540 633l-33 -56q-68 76 -194 76q-181 0 -181 -132q0 -59 43 -85t155 -51q127 -27 186 -68.5t59 -130.5q0 -95 -69.5 -143.5t-185.5 -48.5q-167 0 -285 103l34 57q41 -43 108 -70.5t144 -27.5q86 0 133.5 31t47.5 92t-49 91t-166 56q-121 28 -173.5 66t-52.5 119
q0 97 69.5 150.5t183.5 53.5q133 0 226 -82z" />
    <glyph glyph-name="T" unicode="T" horiz-adv-x="614" 
d="M595 710v-62h-253v-648h-70v648h-253v62h576z" />
    <glyph glyph-name="U" unicode="U" horiz-adv-x="755" 
d="M377 58q65 0 111.5 25t71.5 68.5t36 93t11 107.5v358h70v-358q0 -74 -16.5 -136.5t-51 -113t-93.5 -79t-138 -28.5q-66 0 -118 20t-85.5 53.5t-55.5 80t-31 96.5t-9 107v358h69v-358q0 -59 11.5 -109t36.5 -93t71.5 -67.5t109.5 -24.5z" />
    <glyph glyph-name="V" unicode="V" horiz-adv-x="677" 
d="M12 710h73l254 -623l252 623h74l-296 -710h-61z" />
    <glyph glyph-name="W" unicode="W" horiz-adv-x="1046" 
d="M479 402l-124 303h67l100 -252l101 252h66l-124 -303l136 -321l257 629h76l-300 -710h-62l-149 351l-150 -351h-62l-299 710h74l258 -629z" />
    <glyph glyph-name="X" unicode="X" horiz-adv-x="631" 
d="M5 710h78l233 -310l233 310h77l-273 -360l265 -350h-77l-225 300l-225 -300h-78l265 350z" />
    <glyph glyph-name="Y" unicode="Y" horiz-adv-x="634" 
d="M8 710h76l233 -382l234 382h76l-276 -446v-264h-69v266z" />
    <glyph glyph-name="Z" unicode="Z" horiz-adv-x="624" 
d="M28 0v55l483 593h-475v62h556v-55l-477 -593h476v-62h-563z" />
    <glyph glyph-name="bracketleft" unicode="[" horiz-adv-x="248" 
d="M203 -40h-119v780h119v-57h-55v-666h55v-57z" />
    <glyph glyph-name="backslash" unicode="\" horiz-adv-x="569" 
d="M27 710h78l435 -710h-77z" />
    <glyph glyph-name="bracketright" unicode="]" horiz-adv-x="248" 
d="M164 -40h-119v57h56v666h-56v57h119v-780z" />
    <glyph glyph-name="asciicircum" unicode="^" horiz-adv-x="541" 
d="M102 303h-58l198 407h58l197 -407h-60l-166 343z" />
    <glyph glyph-name="underscore" unicode="_" horiz-adv-x="415" 
d="M398 -62h-381v62h381v-62z" />
    <glyph glyph-name="grave" unicode="`" horiz-adv-x="222" 
d="M136 620l-87 110h71l60 -93z" />
    <glyph glyph-name="a" unicode="a" horiz-adv-x="548" 
d="M211 -10q-79 0 -129 46.5t-50 112.5q0 72 61 116t159 44q85 0 153 -27v47q0 69 -39.5 109.5t-106.5 40.5q-80 0 -168 -62l-24 45q101 68 199 68q95 0 151 -55.5t56 -151.5v-235q0 -28 24 -28v-60q-22 -2 -27 -2q-22 0 -38 12.5t-17 35.5l-2 41q-33 -45 -88.5 -71
t-113.5 -26zM228 42q46 0 90.5 20t69.5 53q17 23 17 39v85q-71 27 -143 27q-74 0 -119 -30t-45 -81q0 -45 34.5 -79t95.5 -34z" />
    <glyph glyph-name="b" unicode="b" horiz-adv-x="616" 
d="M328 -10q-60 0 -112 30.5t-82 80.5v-101h-61v730h68v-318q79 118 199 118q104 0 170 -81.5t66 -189.5q0 -111 -72 -190t-176 -79zM312 50q83 0 138.5 63t55.5 146q0 84 -53 147.5t-132 63.5q-58 0 -105.5 -37t-74.5 -93v-162q8 -52 62.5 -90t108.5 -38z" />
    <glyph glyph-name="c" unicode="c" horiz-adv-x="550" 
d="M39 262q0 113 73.5 190.5t187.5 77.5q73 0 128.5 -33t83.5 -91l-66 -21q-22 40 -61.5 62.5t-86.5 22.5q-80 0 -134.5 -59.5t-54.5 -148.5q0 -88 56 -150t134 -62q49 0 94.5 26.5t57.5 62.5l66 -20q-21 -57 -81 -93t-135 -36q-112 0 -187 79.5t-75 192.5z" />
    <glyph glyph-name="d" unicode="d" horiz-adv-x="623" 
d="M289 -10q-106 0 -178 80.5t-72 188.5q0 112 68 191.5t170 79.5q63 0 114.5 -33t83.5 -85v318h68v-642q0 -28 24 -28v-60q-17 -3 -27 -3q-24 0 -40.5 14.5t-16.5 34.5v55q-31 -51 -84 -81t-110 -30zM303 50q54 0 109 39t63 90v161q-20 54 -73 92t-107 38
q-81 0 -133.5 -63.5t-52.5 -147.5q0 -86 56.5 -147.5t137.5 -61.5z" />
    <glyph glyph-name="e" unicode="e" horiz-adv-x="587" 
d="M301 -10q-112 0 -187 79.5t-75 192.5q0 111 74.5 189.5t186.5 78.5q111 0 184 -78.5t74 -188.5q0 -19 -2 -27h-445q6 -83 61.5 -138.5t130.5 -55.5q52 0 97 26t63 68l59 -16q-24 -57 -85 -93.5t-136 -36.5zM109 288h384q-7 83 -61.5 136t-131.5 53t-131.5 -53.5
t-59.5 -135.5z" />
    <glyph glyph-name="f" unicode="f" horiz-adv-x="345" 
d="M169 0h-68v406h-72v54h72v75q0 95 41.5 150t112.5 55q63 0 109 -33l-21 -49q-30 23 -75 23q-48 0 -73.5 -37t-25.5 -107v-77h144v-54h-144v-406z" />
    <glyph glyph-name="g" unicode="g" horiz-adv-x="616" 
d="M284 -7q-104 0 -174 80t-70 186q0 111 68.5 191t173.5 80q119 0 200 -118v109h61v-523q0 -105 -73 -163t-183 -58q-158 0 -233 118l42 33q30 -48 80.5 -72.5t110.5 -24.5q81 0 134.5 43.5t53.5 123.5v103q-31 -49 -83 -78.5t-108 -29.5zM303 50q59 0 111 40t61 89v161
q-23 56 -74 93t-107 37q-83 0 -134 -64.5t-51 -147.5q0 -85 56.5 -146.5t137.5 -61.5z" />
    <glyph glyph-name="h" unicode="h" horiz-adv-x="579" 
d="M511 305v-305h-68v291q0 177 -120 177q-58 0 -111 -43t-71 -106v-319h-68v730h68v-327q32 59 87 93t118 34q165 0 165 -225z" />
    <glyph glyph-name="i" unicode="i" horiz-adv-x="214" 
d="M141 0h-68v521h68v-521zM141 630h-68v100h68v-100z" />
    <glyph glyph-name="j" unicode="j" horiz-adv-x="214" 
d="M-12 -181q-72 0 -114 39l33 46q27 -24 73 -24q36 0 64.5 27t28.5 66v548h68v-544q0 -67 -46.5 -112.5t-106.5 -45.5zM141 630h-68v100h68v-100z" />
    <glyph glyph-name="k" unicode="k" horiz-adv-x="527" 
d="M519 0h-74l-192 267l-112 -104v-163h-68v730h68v-496l293 286h77l-213 -213z" />
    <glyph glyph-name="l" unicode="l" horiz-adv-x="264" 
d="M76 95v635h68v-612q0 -29 16 -45.5t45 -16.5q27 0 54 11l12 -55q-45 -18 -94 -18q-47 0 -74 27t-27 74z" />
    <glyph glyph-name="m" unicode="m" horiz-adv-x="916" 
d="M848 305v-305h-68v291q0 177 -115 177q-59 0 -105.5 -41.5t-65.5 -108.5v-318h-68v291q0 92 -28 134.5t-86 42.5t-104.5 -41t-66.5 -108v-319h-68v521h62v-118q32 60 84 93.5t115 33.5q64 0 105 -36.5t49 -97.5q73 134 202 134q158 0 158 -225z" />
    <glyph glyph-name="n" unicode="n" horiz-adv-x="579" 
d="M511 305v-305h-68v291q0 92 -27 134.5t-84 42.5q-61 0 -116.5 -42.5t-74.5 -106.5v-319h-68v521h62v-118q32 57 92 92t129 35q84 0 119.5 -58t35.5 -167z" />
    <glyph glyph-name="o" unicode="o" horiz-adv-x="595" 
d="M298 -10q-112 0 -185.5 79t-73.5 190t74.5 191t184.5 80t184.5 -80t74.5 -191t-74 -190t-185 -79zM109 258q0 -87 55 -147.5t133 -60.5t134 61.5t56 148.5t-56 148.5t-133 61.5q-78 0 -133.5 -62t-55.5 -150z" />
    <glyph glyph-name="p" unicode="p" horiz-adv-x="615" 
d="M340 -10q-63 0 -115 32.5t-84 85.5v-321h-68v734h61v-101q32 50 84 80t110 30q105 0 176.5 -81.5t71.5 -188.5q0 -113 -66.5 -191.5t-169.5 -78.5zM321 50q81 0 133 63.5t52 146.5q0 85 -56.5 147.5t-137.5 62.5q-53 0 -108 -39t-63 -90v-160q24 -57 73.5 -94t106.5 -37z
" />
    <glyph glyph-name="q" unicode="q" horiz-adv-x="615" 
d="M275 -10q-103 0 -169.5 80.5t-66.5 189.5q0 110 72.5 190t175.5 80q59 0 111 -30.5t83 -80.5v102h61v-643q0 -28 24 -29v-59q-14 -3 -29 -3q-26 0 -44.5 18t-18.5 44v259q-77 -118 -199 -118zM296 50q112 0 178 123v161q-8 53 -62 94.5t-111 41.5q-82 0 -137 -64
t-55 -147q0 -86 53.5 -147.5t133.5 -61.5z" />
    <glyph glyph-name="r" unicode="r" horiz-adv-x="351" 
d="M333 523v-62q-69 -2 -120 -38t-72 -99v-324h-68v521h64v-125q28 57 72.5 92.5t93.5 35.5q23 0 30 -1z" />
    <glyph glyph-name="s" unicode="s" horiz-adv-x="487" 
d="M248 -10q-133 0 -219 78l31 46q87 -72 187 -72q63 0 100.5 26t37.5 72q0 40 -34 59t-123 40q-100 25 -137.5 50t-37.5 83q0 76 55.5 117t139.5 41q120 0 188 -71l-33 -40q-58 60 -157 60q-57 0 -92.5 -24t-35.5 -73q0 -39 26.5 -55t103.5 -34q112 -27 157.5 -56t45.5 -91
q0 -71 -55.5 -113.5t-147.5 -42.5z" />
    <glyph glyph-name="t" unicode="t" horiz-adv-x="332" 
d="M307 80l18 -55q-71 -31 -118 -31t-78.5 26t-31.5 74v373h-72v54h72v176h68v-176h120v-54h-120v-354q2 -27 19.5 -41.5t43.5 -14.5q42 0 79 23z" />
    <glyph glyph-name="u" unicode="u" horiz-adv-x="594" 
d="M234 -10q-166 0 -166 225v306h68v-294q0 -177 121 -177q61 0 113 39t75 104v328h68v-433q0 -28 25 -28v-60q-20 -3 -28 -3q-23 0 -39.5 14t-16.5 35v72q-34 -60 -92.5 -94t-127.5 -34z" />
    <glyph glyph-name="v" unicode="v" horiz-adv-x="530" 
d="M301 0h-72l-212 521h71l179 -458l180 458h66z" />
    <glyph glyph-name="w" unicode="w" horiz-adv-x="815" 
d="M544 70l189 451h66l-223 -521h-57l-111 266l-111 -266h-57l-223 521h65l190 -451l99 238l-89 212h58l68 -170l67 170h58l-88 -212z" />
    <glyph glyph-name="x" unicode="x" horiz-adv-x="500" 
d="M13 521h73l156 -204l8 -15l9 15l155 204h73l-199 -262l199 -259h-73l-155 203l-9 14l-8 -14l-155 -203h-74l199 259z" />
    <glyph glyph-name="y" unicode="y" horiz-adv-x="542" 
d="M103 -221v60q12 -2 20 -2q24 0 38 6q11 5 26 34t53 123l-227 521h71l193 -458l178 458h65l-271 -672q-15 -38 -41 -55.5t-71 -17.5q-19 0 -34 3z" />
    <glyph glyph-name="z" unicode="z" horiz-adv-x="486" 
d="M28 0v46l352 424h-344v51h418v-46l-350 -424h350v-51h-426z" />
    <glyph glyph-name="braceleft" unicode="{" horiz-adv-x="253" 
d="M209 683h-55v-261q0 -38 -27 -62q27 -23 27 -62v-272h55v-57h-94q-23 0 -23 30v281q0 21 -10.5 37t-28.5 18v52q19 0 29 18t10 35v270q0 16 7.5 23t15.5 7h94v-57z" />
    <glyph glyph-name="bar" unicode="|" horiz-adv-x="223" 
d="M141 -130h-59v905h59v-905z" />
    <glyph glyph-name="braceright" unicode="}" horiz-adv-x="253" 
d="M100 683h-55v57h94q4 0 8.5 -2t9.5 -9.5t5 -18.5v-270q0 -17 9.5 -35t28.5 -18v-52q-18 -2 -28 -18t-10 -37v-281q0 -30 -23 -30h-94v57h55v272q0 40 26 62q-26 24 -26 62v261z" />
    <glyph glyph-name="asciitilde" unicode="~" horiz-adv-x="508" 
d="M65 241q0 22 28.5 62.5t79.5 40.5q31 0 82 -29t78 -29q23 0 40 12.5t23 23.5t6 16h43q0 -3 -3.5 -12.5t-12 -24t-20.5 -28t-32.5 -23t-44.5 -9.5q-35 0 -86.5 29t-73.5 29q-21 0 -37 -14.5t-21.5 -27t-5.5 -16.5h-43z" />
    <glyph glyph-name="uni00A0" unicode="&#xa0;" horiz-adv-x="256" 
 />
    <glyph glyph-name="exclamdown" unicode="&#xa1;" horiz-adv-x="244" 
d="M88 487h68v-489h-68v489zM88 715h68v-112h-68v112z" />
    <glyph glyph-name="cent" unicode="&#xa2;" horiz-adv-x="567" 
d="M316 -120h-37v111q-99 8 -166 88.5t-67 178.5q0 105 64.5 183.5t168.5 87.5v116h37v-116q144 -4 203 -123l-65 -21q-43 78 -138 83v-417q44 2 88 27t55 61l66 -20q-22 -60 -85 -94.5t-124 -34.5v-110zM116 258q0 -75 46.5 -134t116.5 -70v412q-74 -7 -118.5 -69
t-44.5 -139z" />
    <glyph glyph-name="sterling" unicode="&#xa3;" horiz-adv-x="505" 
d="M53 318v54h94q-6 12 -22 40.5t-23.5 44t-15 40.5t-7.5 47q0 71 53.5 121t128.5 50q54 0 102.5 -28t78.5 -77l-40 -42q-24 41 -63 65.5t-80 24.5q-49 0 -82.5 -34t-33.5 -84q0 -27 10 -52.5t30.5 -61.5t28.5 -54h178v-54h-158q8 -30 8 -60q0 -51 -23.5 -97t-80.5 -107
q38 9 74 9q29 0 74 -9t68 -9q35 0 89 18l17 -52q-54 -26 -109 -26q-30 0 -83 12t-84 12q-50 0 -108 -17l-18 50q69 68 96.5 115.5t27.5 96.5q0 31 -10 64h-117z" />
    <glyph glyph-name="yen" unicode="&#xa5;" horiz-adv-x="678" 
d="M649 710l-216 -344h84v-48h-111l-33 -54v-27h145v-48h-145v-189h-70v189h-143v48h143v29l-31 52h-112v48h86l-216 344h76l232 -382l234 382h77z" />
    <glyph glyph-name="brokenbar" unicode="&#xa6;" horiz-adv-x="227" 
d="M84 277h59v-407h-59v407zM84 775h59v-407h-59v407z" />
    <glyph glyph-name="section" unicode="&#xa7;" horiz-adv-x="512" 
d="M419 195q46 -28 46 -102q0 -88 -62.5 -134.5t-141.5 -46.5q-111 0 -196 91l44 42q72 -68 148 -68q56 0 97 30t41 83q0 28 -11.5 46t-33.5 26.5t-38.5 11.5t-42.5 5q-195 17 -195 159q0 56 26 89q-22 16 -36.5 47t-14.5 68q0 75 59.5 124t142.5 49q115 0 178 -95l-53 -25
q-15 29 -50.5 43.5t-74.5 14.5q-56 0 -95 -29.5t-39 -83.5q0 -91 132 -98q200 -11 200 -153q0 -60 -30 -94zM140 329q0 -41 25.5 -64t57 -28t73 -10t59.5 -12q29 23 29 72q0 52 -39.5 74.5t-93.5 24.5t-86 14q-25 -23 -25 -71z" />
    <glyph glyph-name="dieresis" unicode="&#xa8;" horiz-adv-x="329" 
d="M119 633h-58v94h58v-94zM268 633h-58v94h58v-94z" />
    <glyph glyph-name="copyright" unicode="&#xa9;" horiz-adv-x="838" 
d="M418 -7q-158 0 -262.5 103.5t-104.5 258.5t104.5 257.5t262.5 102.5q159 0 264 -102.5t105 -257.5t-105 -258.5t-264 -103.5zM418 26q143 0 238.5 91.5t95.5 235.5q0 142 -95 235.5t-239 93.5q-143 0 -238 -93.5t-95 -234.5q0 -140 95 -234t238 -94zM425 123
q-94 0 -163.5 65t-69.5 167q0 93 59.5 163.5t168.5 70.5q67 0 118 -29t73 -82l-65 -21q-33 72 -126 72q-75 0 -116.5 -52.5t-41.5 -121.5q0 -77 50.5 -125t109.5 -48q39 0 77 21t54 55l66 -19q-16 -43 -70 -79.5t-124 -36.5z" />
    <glyph glyph-name="ordfeminine" unicode="&#xaa;" horiz-adv-x="434" 
d="M166 346q-50 0 -84.5 32t-34.5 78q0 48 42 78.5t107 30.5q60 0 102 -18v28q0 43 -25.5 68t-70.5 25q-52 0 -114 -41l-20 37q70 46 139 46q70 0 110 -37t40 -104v-143q0 -21 19 -22v-52q-18 -2 -23 -2q-20 0 -32.5 10t-13.5 26l-1 25q-51 -65 -140 -65zM182 391
q42 0 79 22t37 47v52q-37 16 -92 16q-46 0 -74.5 -18.5t-28.5 -49.5q0 -29 22.5 -49t56.5 -20z" />
    <glyph glyph-name="guillemotleft" unicode="&#xab;" horiz-adv-x="578" 
d="M44 239v37l249 178v-59l-193 -136l193 -134v-59zM265 239v37l248 178v-59l-192 -136l192 -134v-59z" />
    <glyph glyph-name="logicalnot" unicode="&#xac;" horiz-adv-x="589" 
d="M79 364h439v-238h-60v176h-379v62z" />
    <glyph glyph-name="uni00AD" unicode="&#xad;" horiz-adv-x="570" 
d="M505 241h-439v63h439v-63z" />
    <glyph glyph-name="registered" unicode="&#xae;" horiz-adv-x="838" 
d="M418 -7q-158 0 -262.5 103.5t-104.5 258.5t104.5 257.5t262.5 102.5q159 0 264 -102.5t105 -257.5t-105 -258.5t-264 -103.5zM418 25q143 0 238 92t95 237q0 141 -94.5 234.5t-238.5 93.5q-143 0 -237 -93.5t-94 -233.5q0 -141 94 -235.5t237 -94.5zM266 127v453h191
q56 0 95 -44t39 -99q0 -49 -28.5 -87.5t-73.5 -47.5l111 -175h-58l-106 168h-118v-168h-52zM318 341h139q39 0 61 27t22 69q0 41 -24.5 68t-62.5 27h-135v-191z" />
    <glyph glyph-name="macron" unicode="&#xaf;" horiz-adv-x="396" 
d="M343 663h-289v47h289v-47z" />
    <glyph glyph-name="degree" unicode="&#xb0;" horiz-adv-x="267" 
d="M50 642q0 34 24 58t59 24t59 -23.5t24 -58.5q0 -36 -24 -60t-59 -24t-59 24t-24 60zM102 672q-13 -13 -13 -31t13 -31t31 -13q19 0 32 13q12 14 12 31t-12 31q-12 13 -32 13q-19 0 -31 -13z" />
    <glyph glyph-name="plusminus" unicode="&#xb1;" horiz-adv-x="460" 
d="M392 61h-323v57h323v-57zM261 393h131v-57h-131v-140h-62v140h-130v57h130v140h62v-140z" />
    <glyph glyph-name="twosuperior" unicode="&#xb2;" horiz-adv-x="390" 
d="M345 327h-308q0 75 29.5 116t96.5 67q9 3 31 11.5l32.5 12.5t27.5 13t25 17.5t14.5 21t6.5 27.5q0 32 -26.5 53t-75.5 21q-77 0 -127 -55l-30 31q8 11 24.5 24.5t55.5 28.5t83 15q70 0 108 -33t38 -84q0 -19 -5 -35t-16 -28t-20.5 -20.5t-26.5 -16.5t-26 -11.5t-26.5 -9
t-20.5 -6.5q-106 -36 -106 -117h242v-43z" />
    <glyph glyph-name="threesuperior" unicode="&#xb3;" horiz-adv-x="392" 
d="M191 321q-62 0 -105 24.5t-50 64.5l27 29q3 -27 39.5 -50t88.5 -23q50 0 83 19.5t33 51.5q0 35 -40 54.5t-109 19.5h-23v41h23q135 0 135 66q0 32 -31 52t-75 20q-82 0 -116 -56l-31 34q18 29 58.5 46t88.5 17q66 0 110 -31.5t44 -78.5q0 -69 -91 -88q47 -7 75 -35
t28 -67q0 -50 -47 -80t-115 -30z" />
    <glyph glyph-name="acute" unicode="&#xb4;" horiz-adv-x="222" 
d="M180 730l-86 -110l-45 17l59 93h72z" />
    <glyph glyph-name="mu" unicode="&#xb5;" horiz-adv-x="598" 
d="M80 -212v733h68v-294q0 -177 123 -177q60 0 112 39t75 104v328h68v-433q0 -28 25 -28v-60q-19 -3 -29 -3q-23 0 -39 14t-16 35v72q-28 -55 -83 -91.5t-116 -36.5q-92 0 -123 85v-287h-65z" />
    <glyph glyph-name="paragraph" unicode="&#xb6;" horiz-adv-x="599" 
d="M36 469q0 113 74.5 177t207.5 64h241v-54h-70v-736h-60v311h-74v-311h-59v311q-120 2 -190 65.5t-70 172.5zM95 471q0 -88 56.5 -134.5t144.5 -51.5v371q-96 -1 -148.5 -50t-52.5 -135zM429 285v371h-74v-371h74z" />
    <glyph glyph-name="periodcentered" unicode="&#xb7;" horiz-adv-x="189" 
d="M124 246h-58v112h58v-112z" />
    <glyph glyph-name="cedilla" unicode="&#xb8;" horiz-adv-x="283" 
d="M22 -157l17 31q36 -18 88 -18q57 0 57 35q0 36 -50 36q-40 0 -80 -14l57 105l33 -13l-35 -56q14 6 38 6q35 0 55.5 -16t20.5 -45q0 -70 -102 -70q-50 0 -99 19z" />
    <glyph glyph-name="onesuperior" unicode="&#xb9;" horiz-adv-x="272" 
d="M175 371h75v-45h-202v45h81v309q-12 -15 -42.5 -32t-52.5 -17v45q19 0 42.5 13.5t37.5 26t15 15.5h46v-360z" />
    <glyph glyph-name="ordmasculine" unicode="&#xba;" horiz-adv-x="448" 
d="M224 346q-78 0 -129 53.5t-51 128.5q0 76 51 129t129 53t129 -53t51 -129q0 -75 -51 -128.5t-129 -53.5zM104 527q0 -55 35 -92.5t85 -37.5t85 38.5t35 93.5q0 54 -35 91.5t-85 37.5t-85 -38t-35 -93z" />
    <glyph glyph-name="guillemotright" unicode="&#xbb;" horiz-adv-x="578" 
d="M533 276v-37l-248 -173v59l192 134l-192 136v59zM312 276v-37l-248 -173v59l193 134l-193 136v59z" />
    <glyph glyph-name="onequarter" unicode="&#xbc;" horiz-adv-x="830" 
d="M734 0h-45v103h-228v42l242 254h31v-252h57v-44h-57v-103zM690 338l-181 -191h181v191zM187 371h75v-45h-202v45h81v309q-12 -15 -42.5 -32t-52.5 -17v45q19 0 42.5 13.5t37.5 26t15 15.5h46v-360zM169 -4l-35 31l280 340l271 347l35 -30l-278 -340z" />
    <glyph glyph-name="onehalf" unicode="&#xbd;" horiz-adv-x="869" 
d="M826 0h-306q0 75 29.5 116.5t93.5 67.5q7 3 29.5 11t32 12t26.5 13t24.5 17t14 21t6.5 28q0 32 -26 53.5t-73 21.5q-73 0 -124 -56l-29 32q9 11 24.5 24t53.5 28t81 15q68 0 105 -33t37 -86q0 -29 -12 -51t-37.5 -37t-41 -21t-45.5 -16q-59 -19 -85.5 -51.5t-26.5 -64.5
h249v-44zM190 371h75v-45h-202v45h81v309q-12 -15 -42.5 -32t-52.5 -17v45q19 0 42.5 13.5t37.5 26t15 15.5h46v-360zM136 -4l-35 31l280 340l271 347l35 -30l-278 -340z" />
    <glyph glyph-name="threequarters" unicode="&#xbe;" horiz-adv-x="846" 
d="M199 321q-62 0 -105 24.5t-50 64.5l27 29q3 -27 39.5 -50t88.5 -23q50 0 83 19.5t33 51.5q0 35 -40 54.5t-109 19.5h-23v41h23q135 0 135 66q0 32 -31 52t-75 20q-82 0 -116 -56l-31 34q18 29 58.5 46t88.5 17q66 0 110 -31.5t44 -78.5q0 -69 -91 -88q47 -7 75 -35
t28 -67q0 -50 -47 -80t-115 -30zM744 0h-45v103h-228v42l242 254h31v-252h57v-44h-57v-103zM700 338l-181 -191h181v191zM204 -4l-35 31l280 340l271 347l35 -30l-278 -340z" />
    <glyph glyph-name="questiondown" unicode="&#xbf;" horiz-adv-x="472" 
d="M262 304h58q0 -65 -20.5 -104t-64.5 -66q-5 -3 -33.5 -18.5t-40 -24.5t-30.5 -26.5t-27 -40t-8 -50.5q0 -62 40 -96t96 -34q52 0 95 29t66 73l47 -30q-27 -60 -84.5 -94.5t-124.5 -34.5q-80 0 -137.5 50t-57.5 141q0 38 10 66t33.5 50t40 32.5t51.5 29.5q30 17 46 29
t30.5 43t14.5 76zM260 506h59v-107h-59v107z" />
    <glyph glyph-name="Agrave" unicode="&#xc0;" horiz-adv-x="679" 
d="M89 0h-74l297 710h57l297 -710h-75l-92 222h-319zM483 277l-142 351l-146 -351h288zM335 807l-87 110h71l60 -93z" />
    <glyph glyph-name="Aacute" unicode="&#xc1;" horiz-adv-x="679" 
d="M89 0h-74l297 710h57l297 -710h-75l-92 222h-319zM483 277l-142 351l-146 -351h288zM433 917l-86 -110l-45 17l59 93h72z" />
    <glyph glyph-name="Acircumflex" unicode="&#xc2;" horiz-adv-x="679" 
d="M89 0h-74l297 710h57l297 -710h-75l-92 222h-319zM483 277l-142 351l-146 -351h288zM255 811l-38 21l98 85h50l99 -85l-39 -21l-85 63z" />
    <glyph glyph-name="Atilde" unicode="&#xc3;" horiz-adv-x="679" 
d="M89 0h-74l297 710h57l297 -710h-75l-92 222h-319zM483 277l-142 351l-146 -351h288zM402 825q-32 0 -70.5 20t-57.5 20q-20 0 -32 -12t-15 -21t-3 -15h-42q0 12 6 31t28.5 40.5t56.5 21.5q29 0 66.5 -21t61.5 -21q23 0 37.5 12.5t17 21.5t2.5 15h42q0 -7 -4.5 -20
t-14 -30.5t-30.5 -29.5t-49 -12z" />
    <glyph glyph-name="Adieresis" unicode="&#xc4;" horiz-adv-x="679" 
d="M89 0h-74l297 710h57l297 -710h-75l-92 222h-319zM483 277l-142 351l-146 -351h288zM295 820h-58v94h58v-94zM444 820h-58v94h58v-94z" />
    <glyph glyph-name="Aring" unicode="&#xc5;" horiz-adv-x="679" 
d="M89 0h-74l297 710h57l297 -710h-75l-92 222h-319zM483 277l-142 351l-146 -351h288zM266 852q0 29 21 47t53 18t53 -18t21 -47q0 -30 -20.5 -48t-53.5 -18t-53.5 18t-20.5 48zM340 890q-17 0 -28.5 -10.5t-11.5 -27.5t11.5 -28t28.5 -11q16 0 28.5 11t12.5 28t-11.5 27.5
t-29.5 10.5z" />
    <glyph glyph-name="AE" unicode="&#xc6;" horiz-adv-x="991" 
d="M-1 0l457 710h481v-62h-394v-255h340v-62h-340v-269h403v-62h-471v222h-259l-141 -222h-76zM248 284h222v342z" />
    <glyph glyph-name="Ccedilla" unicode="&#xc7;" horiz-adv-x="690" 
d="M283 -157l17 31q36 -18 88 -18q57 0 57 35q0 36 -50 36q-40 0 -80 -14l44 82q-89 5 -162.5 59.5t-112.5 136t-39 169.5t38.5 167.5t117.5 133t181 53.5q92 0 160 -42t102 -113l-56 -34q-21 45 -57.5 74t-74 40.5t-78.5 11.5q-120 0 -191.5 -89.5t-71.5 -205.5
q0 -120 77.5 -209.5t188.5 -89.5q65 0 126 33.5t93 98.5l58 -30q-31 -71 -104.5 -114.5t-155.5 -49.5l-28 -46q14 6 38 6q35 0 55.5 -16t20.5 -45q0 -70 -102 -70q-50 0 -99 19z" />
    <glyph glyph-name="Egrave" unicode="&#xc8;" horiz-adv-x="613" 
d="M159 62h408v-62h-477v710h468v-62h-399v-256h348v-59h-348v-271zM332 807l-87 110h71l60 -93z" />
    <glyph glyph-name="Eacute" unicode="&#xc9;" horiz-adv-x="613" 
d="M430 917l-86 -110l-45 17l59 93h72zM159 62h408v-62h-477v710h468v-62h-399v-256h348v-59h-348v-271z" />
    <glyph glyph-name="Ecircumflex" unicode="&#xca;" horiz-adv-x="613" 
d="M252 811l-38 21l98 85h50l99 -85l-39 -21l-85 63zM159 62h408v-62h-477v710h468v-62h-399v-256h348v-59h-348v-271z" />
    <glyph glyph-name="Edieresis" unicode="&#xcb;" horiz-adv-x="613" 
d="M292 820h-58v94h58v-94zM441 820h-58v94h58v-94zM159 62h408v-62h-477v710h468v-62h-399v-256h348v-59h-348v-271z" />
    <glyph glyph-name="Igrave" unicode="&#xcc;" horiz-adv-x="249" 
d="M159 0h-69v709h69v-709zM118 807l-87 110h71l60 -93z" />
    <glyph glyph-name="Iacute" unicode="&#xcd;" horiz-adv-x="249" 
d="M159 0h-69v709h69v-709zM217 917l-86 -110l-45 17l59 93h72z" />
    <glyph glyph-name="Icircumflex" unicode="&#xce;" horiz-adv-x="249" 
d="M159 0h-69v709h69v-709zM39 811l-38 21l98 85h50l99 -85l-39 -21l-85 63z" />
    <glyph glyph-name="Idieresis" unicode="&#xcf;" horiz-adv-x="249" 
d="M159 0h-69v709h69v-709zM79 820h-58v94h58v-94zM228 820h-58v94h58v-94z" />
    <glyph glyph-name="Eth" unicode="&#xd0;" horiz-adv-x="723" 
d="M335 0h-240v330h-61v54h61v326h240q110 0 188 -48t115 -127t37 -179q0 -162 -92 -259t-248 -97zM605 356q0 131 -71.5 211.5t-198.5 80.5h-171v-264h171v-54h-171v-268h171q129 0 199.5 82t70.5 212z" />
    <glyph glyph-name="Ntilde" unicode="&#xd1;" horiz-adv-x="773" 
d="M623 0l-464 580v-580h-69v710h54l470 -591v590h69v-709h-60zM451 825q-32 0 -70.5 20t-57.5 20q-20 0 -32 -12t-15 -21t-3 -15h-42q0 12 6 31t28.5 40.5t56.5 21.5q29 0 66.5 -21t61.5 -21q23 0 37.5 12.5t17 21.5t2.5 15h42q0 -7 -4.5 -20t-14 -30.5t-30.5 -29.5
t-49 -12z" />
    <glyph glyph-name="Ograve" unicode="&#xd2;" 
d="M378 -5q-72 0 -135 30.5t-106 81t-67.5 115.5t-24.5 133q0 145 97 252.5t237 107.5q95 0 172.5 -53.5t118.5 -135.5t41 -172q0 -145 -96.5 -252t-236.5 -107zM115 355q0 -119 74.5 -208t188.5 -89q115 0 189 90.5t74 206.5q0 119 -75 207.5t-188 88.5q-116 0 -189.5 -90
t-73.5 -206zM373 807l-87 110h71l60 -93z" />
    <glyph glyph-name="Oacute" unicode="&#xd3;" 
d="M471 917l-86 -110l-45 17l59 93h72zM378 -5q-72 0 -135 30.5t-106 81t-67.5 115.5t-24.5 133q0 145 97 252.5t237 107.5q95 0 172.5 -53.5t118.5 -135.5t41 -172q0 -145 -96.5 -252t-236.5 -107zM115 355q0 -119 74.5 -208t188.5 -89q115 0 189 90.5t74 206.5
q0 119 -75 207.5t-188 88.5q-116 0 -189.5 -90t-73.5 -206z" />
    <glyph glyph-name="Ocircumflex" unicode="&#xd4;" 
d="M294 811l-38 21l98 85h50l99 -85l-39 -21l-85 63zM378 -5q-72 0 -135 30.5t-106 81t-67.5 115.5t-24.5 133q0 145 97 252.5t237 107.5q95 0 172.5 -53.5t118.5 -135.5t41 -172q0 -145 -96.5 -252t-236.5 -107zM115 355q0 -119 74.5 -208t188.5 -89q115 0 189 90.5
t74 206.5q0 119 -75 207.5t-188 88.5q-116 0 -189.5 -90t-73.5 -206z" />
    <glyph glyph-name="Otilde" unicode="&#xd5;" 
d="M378 -5q-72 0 -135 30.5t-106 81t-67.5 115.5t-24.5 133q0 145 97 252.5t237 107.5q95 0 172.5 -53.5t118.5 -135.5t41 -172q0 -145 -96.5 -252t-236.5 -107zM115 355q0 -119 74.5 -208t188.5 -89q115 0 189 90.5t74 206.5q0 119 -75 207.5t-188 88.5q-116 0 -189.5 -90
t-73.5 -206zM441 825q-32 0 -70.5 20t-57.5 20q-20 0 -32 -12t-15 -21t-3 -15h-42q0 12 6 31t28.5 40.5t56.5 21.5q29 0 66.5 -21t61.5 -21q23 0 37.5 12.5t17 21.5t2.5 15h42q0 -7 -4.5 -20t-14 -30.5t-30.5 -29.5t-49 -12z" />
    <glyph glyph-name="Odieresis" unicode="&#xd6;" 
d="M333 820h-58v94h58v-94zM482 820h-58v94h58v-94zM378 -5q-72 0 -135 30.5t-106 81t-67.5 115.5t-24.5 133q0 145 97 252.5t237 107.5q95 0 172.5 -53.5t118.5 -135.5t41 -172q0 -145 -96.5 -252t-236.5 -107zM115 355q0 -119 74.5 -208t188.5 -89q115 0 189 90.5
t74 206.5q0 119 -75 207.5t-188 88.5q-116 0 -189.5 -90t-73.5 -206z" />
    <glyph glyph-name="multiply" unicode="&#xd7;" horiz-adv-x="462" 
d="M274 272l122 -121l-44 -43l-121 121l-122 -121l-43 44l121 120l-120 121l44 43l120 -120l120 121l43 -44z" />
    <glyph glyph-name="Oslash" unicode="&#xd8;" 
d="M575 710h78l-57 -85q54 -53 84.5 -124.5t30.5 -146.5q0 -145 -96.5 -252t-236.5 -107q-93 0 -169 49l-29 -44h-77l56 84q-54 52 -84 123t-30 148q0 145 97 252.5t237 107.5q89 0 166 -49zM641 355q0 126 -82 214l-314 -471q61 -40 133 -40q115 0 189 90.5t74 206.5z
M115 355q0 -127 81 -216l313 472q-61 40 -131 40q-116 0 -189.5 -90t-73.5 -206z" />
    <glyph glyph-name="Ugrave" unicode="&#xd9;" horiz-adv-x="755" 
d="M377 58q65 0 111.5 25t71.5 68.5t36 93t11 107.5v358h70v-358q0 -74 -16.5 -136.5t-51 -113t-93.5 -79t-138 -28.5q-66 0 -118 20t-85.5 53.5t-55.5 80t-31 96.5t-9 107v358h69v-358q0 -59 11.5 -109t36.5 -93t71.5 -67.5t109.5 -24.5zM372 807l-87 110h71l60 -93z" />
    <glyph glyph-name="Uacute" unicode="&#xda;" horiz-adv-x="755" 
d="M470 917l-86 -110l-45 17l59 93h72zM377 58q65 0 111.5 25t71.5 68.5t36 93t11 107.5v358h70v-358q0 -74 -16.5 -136.5t-51 -113t-93.5 -79t-138 -28.5q-66 0 -118 20t-85.5 53.5t-55.5 80t-31 96.5t-9 107v358h69v-358q0 -59 11.5 -109t36.5 -93t71.5 -67.5t109.5 -24.5
z" />
    <glyph glyph-name="Ucircumflex" unicode="&#xdb;" horiz-adv-x="755" 
d="M293 811l-38 21l98 85h50l99 -85l-39 -21l-85 63zM377 58q65 0 111.5 25t71.5 68.5t36 93t11 107.5v358h70v-358q0 -74 -16.5 -136.5t-51 -113t-93.5 -79t-138 -28.5q-66 0 -118 20t-85.5 53.5t-55.5 80t-31 96.5t-9 107v358h69v-358q0 -59 11.5 -109t36.5 -93
t71.5 -67.5t109.5 -24.5z" />
    <glyph glyph-name="Udieresis" unicode="&#xdc;" horiz-adv-x="755" 
d="M333 820h-58v94h58v-94zM482 820h-58v94h58v-94zM377 58q65 0 111.5 25t71.5 68.5t36 93t11 107.5v358h70v-358q0 -74 -16.5 -136.5t-51 -113t-93.5 -79t-138 -28.5q-66 0 -118 20t-85.5 53.5t-55.5 80t-31 96.5t-9 107v358h69v-358q0 -59 11.5 -109t36.5 -93t71.5 -67.5
t109.5 -24.5z" />
    <glyph glyph-name="Yacute" unicode="&#xdd;" horiz-adv-x="634" 
d="M8 710h76l233 -382l234 382h76l-276 -446v-264h-69v266zM409 917l-86 -110l-45 17l59 93h72z" />
    <glyph glyph-name="Thorn" unicode="&#xde;" horiz-adv-x="606" 
d="M365 569q89 0 150 -68.5t61 -154.5q0 -90 -58 -157.5t-147 -67.5h-212v-121h-69v710h69v-141h206zM369 184q61 0 99 48.5t38 113.5t-42.5 113t-101.5 48h-203v-323h210z" />
    <glyph glyph-name="germandbls" unicode="&#xdf;" horiz-adv-x="551" 
d="M236 -6v63q96 2 150.5 40.5t54.5 113.5q0 70 -46.5 113.5t-120.5 43.5h-18v62h17q53 0 87.5 32t34.5 82q0 51 -35.5 80.5t-88.5 29.5q-64 0 -98.5 -42t-34.5 -107v-505h-65v515q0 88 56.5 143.5t143.5 55.5q80 0 133.5 -45t53.5 -115q0 -53 -31 -96.5t-75 -54.5
q73 -16 115 -69t42 -127q0 -99 -74 -154t-201 -59z" />
    <glyph glyph-name="agrave" unicode="&#xe0;" horiz-adv-x="548" 
d="M211 -10q-79 0 -129 46.5t-50 112.5q0 72 61 116t159 44q85 0 153 -27v47q0 69 -39.5 109.5t-106.5 40.5q-80 0 -168 -62l-24 45q101 68 199 68q95 0 151 -55.5t56 -151.5v-235q0 -28 24 -28v-60q-22 -2 -27 -2q-22 0 -38 12.5t-17 35.5l-2 41q-33 -45 -88.5 -71
t-113.5 -26zM228 42q46 0 90.5 20t69.5 53q17 23 17 39v85q-71 27 -143 27q-74 0 -119 -30t-45 -81q0 -45 34.5 -79t95.5 -34zM257 620l-87 110h71l60 -93z" />
    <glyph glyph-name="aacute" unicode="&#xe1;" horiz-adv-x="548" 
d="M211 -10q-79 0 -129 46.5t-50 112.5q0 72 61 116t159 44q85 0 153 -27v47q0 69 -39.5 109.5t-106.5 40.5q-80 0 -168 -62l-24 45q101 68 199 68q95 0 151 -55.5t56 -151.5v-235q0 -28 24 -28v-60q-22 -2 -27 -2q-22 0 -38 12.5t-17 35.5l-2 41q-33 -45 -88.5 -71
t-113.5 -26zM228 42q46 0 90.5 20t69.5 53q17 23 17 39v85q-71 27 -143 27q-74 0 -119 -30t-45 -81q0 -45 34.5 -79t95.5 -34zM355 730l-86 -110l-45 17l59 93h72z" />
    <glyph glyph-name="acircumflex" unicode="&#xe2;" horiz-adv-x="548" 
d="M211 -10q-79 0 -129 46.5t-50 112.5q0 72 61 116t159 44q85 0 153 -27v47q0 69 -39.5 109.5t-106.5 40.5q-80 0 -168 -62l-24 45q101 68 199 68q95 0 151 -55.5t56 -151.5v-235q0 -28 24 -28v-60q-22 -2 -27 -2q-22 0 -38 12.5t-17 35.5l-2 41q-33 -45 -88.5 -71
t-113.5 -26zM228 42q46 0 90.5 20t69.5 53q17 23 17 39v85q-71 27 -143 27q-74 0 -119 -30t-45 -81q0 -45 34.5 -79t95.5 -34zM178 624l-38 21l98 85h50l99 -85l-39 -21l-85 63z" />
    <glyph glyph-name="atilde" unicode="&#xe3;" horiz-adv-x="548" 
d="M211 -10q-79 0 -129 46.5t-50 112.5q0 72 61 116t159 44q85 0 153 -27v47q0 69 -39.5 109.5t-106.5 40.5q-80 0 -168 -62l-24 45q101 68 199 68q95 0 151 -55.5t56 -151.5v-235q0 -28 24 -28v-60q-22 -2 -27 -2q-22 0 -38 12.5t-17 35.5l-2 41q-33 -45 -88.5 -71
t-113.5 -26zM228 42q46 0 90.5 20t69.5 53q17 23 17 39v85q-71 27 -143 27q-74 0 -119 -30t-45 -81q0 -45 34.5 -79t95.5 -34zM325 638q-32 0 -70.5 20t-57.5 20q-20 0 -32 -12t-15 -21t-3 -15h-42q0 12 6 31t28.5 40.5t56.5 21.5q29 0 66.5 -21t61.5 -21q23 0 37.5 12.5
t17 21.5t2.5 15h42q0 -7 -4.5 -20t-14 -30.5t-30.5 -29.5t-49 -12z" />
    <glyph glyph-name="adieresis" unicode="&#xe4;" horiz-adv-x="548" 
d="M211 -10q-79 0 -129 46.5t-50 112.5q0 72 61 116t159 44q85 0 153 -27v47q0 69 -39.5 109.5t-106.5 40.5q-80 0 -168 -62l-24 45q101 68 199 68q95 0 151 -55.5t56 -151.5v-235q0 -28 24 -28v-60q-22 -2 -27 -2q-22 0 -38 12.5t-17 35.5l-2 41q-33 -45 -88.5 -71
t-113.5 -26zM228 42q46 0 90.5 20t69.5 53q17 23 17 39v85q-71 27 -143 27q-74 0 -119 -30t-45 -81q0 -45 34.5 -79t95.5 -34zM217 633h-58v94h58v-94zM366 633h-58v94h58v-94z" />
    <glyph glyph-name="aring" unicode="&#xe5;" horiz-adv-x="548" 
d="M211 -10q-79 0 -129 46.5t-50 112.5q0 72 61 116t159 44q85 0 153 -27v47q0 69 -39.5 109.5t-106.5 40.5q-80 0 -168 -62l-24 45q101 68 199 68q95 0 151 -55.5t56 -151.5v-235q0 -28 24 -28v-60q-22 -2 -27 -2q-22 0 -38 12.5t-17 35.5l-2 41q-33 -45 -88.5 -71
t-113.5 -26zM228 42q46 0 90.5 20t69.5 53q17 23 17 39v85q-71 27 -143 27q-74 0 -119 -30t-45 -81q0 -45 34.5 -79t95.5 -34zM188 665q0 29 21 47t53 18t53 -18t21 -47q0 -30 -20.5 -48t-53.5 -18t-53.5 18t-20.5 48zM262 703q-17 0 -28.5 -10.5t-11.5 -27.5t11.5 -28
t28.5 -11q16 0 28.5 11t12.5 28t-11.5 27.5t-29.5 10.5z" />
    <glyph glyph-name="ae" unicode="&#xe6;" horiz-adv-x="932" 
d="M206 -10q-73 0 -122.5 47t-49.5 115q0 69 60.5 113t156.5 44q69 0 134 -20q4 45 17 76q-9 53 -47 83.5t-97 30.5q-76 0 -166 -62l-24 45q101 68 196 68q131 0 180 -104q34 48 86 76t113 28q112 0 185.5 -78.5t74.5 -191.5q0 -20 -1 -24h-453q7 -84 64.5 -139t135.5 -55
q52 0 97 26t63 68l59 -16q-24 -57 -85.5 -93.5t-136.5 -36.5q-67 0 -123 31t-91 84q-32 -57 -95.5 -86t-130.5 -29zM222 42q53 0 98 20t68 53q16 16 18 35q-19 38 -21 96q-60 20 -125 20q-72 0 -117 -30t-45 -79t36 -82t88 -33zM449 282h389q-6 85 -61 140t-135 55
q-79 0 -133.5 -55t-59.5 -140z" />
    <glyph glyph-name="ccedilla" unicode="&#xe7;" horiz-adv-x="552" 
d="M207 -157l17 31q36 -18 88 -18q57 0 57 35q0 36 -50 36q-40 0 -80 -14l42 78q-104 7 -172.5 85.5t-68.5 185.5q0 113 73.5 190.5t187.5 77.5q73 0 128.5 -33t83.5 -91l-66 -21q-22 40 -61.5 62.5t-86.5 22.5q-80 0 -134.5 -59.5t-54.5 -148.5q0 -88 56 -150t134 -62
q49 0 94.5 26.5t57.5 62.5l66 -20q-20 -53 -74.5 -88t-123.5 -40l-26 -42q14 6 38 6q35 0 55.5 -16t20.5 -45q0 -70 -102 -70q-50 0 -99 19z" />
    <glyph glyph-name="egrave" unicode="&#xe8;" horiz-adv-x="587" 
d="M301 -10q-112 0 -187 79.5t-75 192.5q0 111 74.5 189.5t186.5 78.5q111 0 184 -78.5t74 -188.5q0 -19 -2 -27h-445q6 -83 61.5 -138.5t130.5 -55.5q52 0 97 26t63 68l59 -16q-24 -57 -85 -93.5t-136 -36.5zM109 288h384q-7 83 -61.5 136t-131.5 53t-131.5 -53.5
t-59.5 -135.5zM291 620l-87 110h71l60 -93z" />
    <glyph glyph-name="eacute" unicode="&#xe9;" horiz-adv-x="587" 
d="M389 730l-86 -110l-45 17l59 93h72zM301 -10q-112 0 -187 79.5t-75 192.5q0 111 74.5 189.5t186.5 78.5q111 0 184 -78.5t74 -188.5q0 -19 -2 -27h-445q6 -83 61.5 -138.5t130.5 -55.5q52 0 97 26t63 68l59 -16q-24 -57 -85 -93.5t-136 -36.5zM109 288h384
q-7 83 -61.5 136t-131.5 53t-131.5 -53.5t-59.5 -135.5z" />
    <glyph glyph-name="ecircumflex" unicode="&#xea;" horiz-adv-x="587" 
d="M212 624l-38 21l98 85h50l99 -85l-39 -21l-85 63zM301 -10q-112 0 -187 79.5t-75 192.5q0 111 74.5 189.5t186.5 78.5q111 0 184 -78.5t74 -188.5q0 -19 -2 -27h-445q6 -83 61.5 -138.5t130.5 -55.5q52 0 97 26t63 68l59 -16q-24 -57 -85 -93.5t-136 -36.5zM109 288h384
q-7 83 -61.5 136t-131.5 53t-131.5 -53.5t-59.5 -135.5z" />
    <glyph glyph-name="edieresis" unicode="&#xeb;" horiz-adv-x="587" 
d="M252 633h-58v94h58v-94zM401 633h-58v94h58v-94zM301 -10q-112 0 -187 79.5t-75 192.5q0 111 74.5 189.5t186.5 78.5q111 0 184 -78.5t74 -188.5q0 -19 -2 -27h-445q6 -83 61.5 -138.5t130.5 -55.5q52 0 97 26t63 68l59 -16q-24 -57 -85 -93.5t-136 -36.5zM109 288h384
q-7 83 -61.5 136t-131.5 53t-131.5 -53.5t-59.5 -135.5z" />
    <glyph glyph-name="igrave" unicode="&#xec;" horiz-adv-x="214" 
d="M141 0h-68v521h68v-521zM101 620l-87 110h71l60 -93z" />
    <glyph glyph-name="iacute" unicode="&#xed;" horiz-adv-x="214" 
d="M199 730l-86 -110l-45 17l59 93h72zM141 0h-68v521h68v-521z" />
    <glyph glyph-name="icircumflex" unicode="&#xee;" horiz-adv-x="214" 
d="M22 624l-38 21l98 85h50l99 -85l-39 -21l-85 63zM141 0h-68v521h68v-521z" />
    <glyph glyph-name="idieresis" unicode="&#xef;" horiz-adv-x="214" 
d="M62 633h-58v94h58v-94zM211 633h-58v94h58v-94zM141 0h-68v521h68v-521z" />
    <glyph glyph-name="eth" unicode="&#xf0;" horiz-adv-x="603" 
d="M473 713l22 -30l-83 -51q147 -146 147 -355q0 -126 -77 -206.5t-186 -80.5q-105 0 -180 71t-75 172q0 99 72 170t173 71q66 0 121 -32t82 -85q-22 145 -129 249l-111 -70l-22 31l105 65q-56 48 -143 98h96q55 -33 100 -72zM111 232q0 -76 54.5 -129t132.5 -53
q79 0 135 56.5t56 134.5q0 74 -55 125t-133 51q-79 0 -134.5 -54t-55.5 -131z" />
    <glyph glyph-name="ntilde" unicode="&#xf1;" horiz-adv-x="579" 
d="M511 305v-305h-68v291q0 92 -27 134.5t-84 42.5q-61 0 -116.5 -42.5t-74.5 -106.5v-319h-68v521h62v-118q32 57 92 92t129 35q84 0 119.5 -58t35.5 -167zM356 638q-32 0 -70.5 20t-57.5 20q-20 0 -32 -12t-15 -21t-3 -15h-42q0 12 6 31t28.5 40.5t56.5 21.5
q29 0 66.5 -21t61.5 -21q23 0 37.5 12.5t17 21.5t2.5 15h42q0 -7 -4.5 -20t-14 -30.5t-30.5 -29.5t-49 -12z" />
    <glyph glyph-name="ograve" unicode="&#xf2;" horiz-adv-x="595" 
d="M298 -10q-112 0 -185.5 79t-73.5 190t74.5 191t184.5 80t184.5 -80t74.5 -191t-74 -190t-185 -79zM109 258q0 -87 55 -147.5t133 -60.5t134 61.5t56 148.5t-56 148.5t-133 61.5q-78 0 -133.5 -62t-55.5 -150zM292 620l-87 110h71l60 -93z" />
    <glyph glyph-name="oacute" unicode="&#xf3;" horiz-adv-x="595" 
d="M390 730l-86 -110l-45 17l59 93h72zM298 -10q-112 0 -185.5 79t-73.5 190t74.5 191t184.5 80t184.5 -80t74.5 -191t-74 -190t-185 -79zM109 258q0 -87 55 -147.5t133 -60.5t134 61.5t56 148.5t-56 148.5t-133 61.5q-78 0 -133.5 -62t-55.5 -150z" />
    <glyph glyph-name="ocircumflex" unicode="&#xf4;" horiz-adv-x="595" 
d="M212 624l-38 21l98 85h50l99 -85l-39 -21l-85 63zM298 -10q-112 0 -185.5 79t-73.5 190t74.5 191t184.5 80t184.5 -80t74.5 -191t-74 -190t-185 -79zM109 258q0 -87 55 -147.5t133 -60.5t134 61.5t56 148.5t-56 148.5t-133 61.5q-78 0 -133.5 -62t-55.5 -150z" />
    <glyph glyph-name="otilde" unicode="&#xf5;" horiz-adv-x="595" 
d="M298 -10q-112 0 -185.5 79t-73.5 190t74.5 191t184.5 80t184.5 -80t74.5 -191t-74 -190t-185 -79zM109 258q0 -87 55 -147.5t133 -60.5t134 61.5t56 148.5t-56 148.5t-133 61.5q-78 0 -133.5 -62t-55.5 -150zM360 638q-32 0 -70.5 20t-57.5 20q-20 0 -32 -12t-15 -21
t-3 -15h-42q0 12 6 31t28.5 40.5t56.5 21.5q29 0 66.5 -21t61.5 -21q23 0 37.5 12.5t17 21.5t2.5 15h42q0 -7 -4.5 -20t-14 -30.5t-30.5 -29.5t-49 -12z" />
    <glyph glyph-name="odieresis" unicode="&#xf6;" horiz-adv-x="595" 
d="M252 633h-58v94h58v-94zM401 633h-58v94h58v-94zM298 -10q-112 0 -185.5 79t-73.5 190t74.5 191t184.5 80t184.5 -80t74.5 -191t-74 -190t-185 -79zM109 258q0 -87 55 -147.5t133 -60.5t134 61.5t56 148.5t-56 148.5t-133 61.5q-78 0 -133.5 -62t-55.5 -150z" />
    <glyph glyph-name="divide" unicode="&#xf7;" horiz-adv-x="535" 
d="M297 399h-59v91h59v-91zM297 74h-59v90h59v-90zM469 254h-403v57h403v-57z" />
    <glyph glyph-name="oslash" unicode="&#xf8;" horiz-adv-x="595" 
d="M93 -1l39 51q-93 80 -93 209q0 111 74.5 191t184.5 80q72 0 134 -38l23 31h47l-40 -54q95 -81 95 -210q0 -111 -74 -190t-185 -79q-75 0 -137 38l-22 -29h-46zM109 258q0 -96 63 -157l224 338q-47 31 -98 31q-78 0 -133.5 -62t-55.5 -150zM297 50q78 0 134 61.5t56 148.5
q0 93 -64 157l-224 -337q44 -30 98 -30z" />
    <glyph glyph-name="ugrave" unicode="&#xf9;" horiz-adv-x="594" 
d="M234 -10q-166 0 -166 225v306h68v-294q0 -177 121 -177q61 0 113 39t75 104v328h68v-433q0 -28 25 -28v-60q-20 -3 -28 -3q-23 0 -39.5 14t-16.5 35v72q-34 -60 -92.5 -94t-127.5 -34zM283 620l-87 110h71l60 -93z" />
    <glyph glyph-name="uacute" unicode="&#xfa;" horiz-adv-x="594" 
d="M381 730l-86 -110l-45 17l59 93h72zM234 -10q-166 0 -166 225v306h68v-294q0 -177 121 -177q61 0 113 39t75 104v328h68v-433q0 -28 25 -28v-60q-20 -3 -28 -3q-23 0 -39.5 14t-16.5 35v72q-34 -60 -92.5 -94t-127.5 -34z" />
    <glyph glyph-name="ucircumflex" unicode="&#xfb;" horiz-adv-x="594" 
d="M204 624l-38 21l98 85h50l99 -85l-39 -21l-85 63zM234 -10q-166 0 -166 225v306h68v-294q0 -177 121 -177q61 0 113 39t75 104v328h68v-433q0 -28 25 -28v-60q-20 -3 -28 -3q-23 0 -39.5 14t-16.5 35v72q-34 -60 -92.5 -94t-127.5 -34z" />
    <glyph glyph-name="udieresis" unicode="&#xfc;" horiz-adv-x="594" 
d="M243 633h-58v94h58v-94zM392 633h-58v94h58v-94zM234 -10q-166 0 -166 225v306h68v-294q0 -177 121 -177q61 0 113 39t75 104v328h68v-433q0 -28 25 -28v-60q-20 -3 -28 -3q-23 0 -39.5 14t-16.5 35v72q-34 -60 -92.5 -94t-127.5 -34z" />
    <glyph glyph-name="yacute" unicode="&#xfd;" horiz-adv-x="542" 
d="M103 -221v60q12 -2 20 -2q24 0 38 6q11 5 26 34t53 123l-227 521h71l193 -458l178 458h65l-271 -672q-15 -38 -41 -55.5t-71 -17.5q-19 0 -34 3zM369 730l-86 -110l-45 17l59 93h72z" />
    <glyph glyph-name="thorn" unicode="&#xfe;" horiz-adv-x="602" 
d="M563 257q-2 -110 -76.5 -191.5t-179.5 -81.5q-52 0 -96.5 26t-67.5 64v-287h-70v923h70v-276q69 98 173 98q74 0 131.5 -42t86.5 -104t29 -129zM494 258q0 85 -51 148.5t-130 63.5q-56 0 -99.5 -34.5t-70.5 -87.5v-176q0 -47 54.5 -86t108.5 -39q80 0 134 63.5t54 147.5z
" />
    <glyph glyph-name="ydieresis" unicode="&#xff;" horiz-adv-x="542" 
d="M103 -221v60q12 -2 20 -2q24 0 38 6q11 5 26 34t53 123l-227 521h71l193 -458l178 458h65l-271 -672q-15 -38 -41 -55.5t-71 -17.5q-19 0 -34 3zM231 633h-58v94h58v-94zM380 633h-58v94h58v-94z" />
    <glyph glyph-name="Amacron" unicode="&#x100;" horiz-adv-x="679" 
d="M89 0h-74l297 710h57l297 -710h-75l-92 222h-319zM483 277l-142 351l-146 -351h288zM485 850h-289v47h289v-47z" />
    <glyph glyph-name="amacron" unicode="&#x101;" horiz-adv-x="548" 
d="M211 -10q-79 0 -129 46.5t-50 112.5q0 72 61 116t159 44q85 0 153 -27v47q0 69 -39.5 109.5t-106.5 40.5q-80 0 -168 -62l-24 45q101 68 199 68q95 0 151 -55.5t56 -151.5v-235q0 -28 24 -28v-60q-22 -2 -27 -2q-22 0 -38 12.5t-17 35.5l-2 41q-33 -45 -88.5 -71
t-113.5 -26zM228 42q46 0 90.5 20t69.5 53q17 23 17 39v85q-71 27 -143 27q-74 0 -119 -30t-45 -81q0 -45 34.5 -79t95.5 -34zM408 663h-289v47h289v-47z" />
    <glyph glyph-name="Abreve" unicode="&#x102;" horiz-adv-x="679" 
d="M89 0h-74l297 710h57l297 -710h-75l-92 222h-319zM483 277l-142 351l-146 -351h288zM341 851q21 0 37.5 19t19.5 47h41q0 -43 -28.5 -72t-69.5 -29t-69.5 29t-28.5 72h42q0 -26 17 -46t39 -20z" />
    <glyph glyph-name="abreve" unicode="&#x103;" horiz-adv-x="548" 
d="M211 -10q-79 0 -129 46.5t-50 112.5q0 72 61 116t159 44q85 0 153 -27v47q0 69 -39.5 109.5t-106.5 40.5q-80 0 -168 -62l-24 45q101 68 199 68q95 0 151 -55.5t56 -151.5v-235q0 -28 24 -28v-60q-22 -2 -27 -2q-22 0 -38 12.5t-17 35.5l-2 41q-33 -45 -88.5 -71
t-113.5 -26zM228 42q46 0 90.5 20t69.5 53q17 23 17 39v85q-71 27 -143 27q-74 0 -119 -30t-45 -81q0 -45 34.5 -79t95.5 -34zM263 664q21 0 37.5 19t19.5 47h41q0 -43 -28.5 -72t-69.5 -29t-69.5 29t-28.5 72h42q0 -26 17 -46t39 -20z" />
    <glyph glyph-name="Aogonek" unicode="&#x104;" horiz-adv-x="679" 
d="M617 -175q-36 7 -55.5 26.5t-19.5 46.5q0 50 75 102h-26l-92 222h-319l-91 -222h-74l297 710h57l297 -710q-82 -51 -82 -93q0 -37 52 -44zM483 277l-142 351l-146 -351h288z" />
    <glyph glyph-name="aogonek" unicode="&#x105;" horiz-adv-x="548" 
d="M448 -175q-36 7 -55.5 26.5t-19.5 46.5q0 52 77 103q-34 11 -35 45l-2 41q-33 -45 -88.5 -71t-113.5 -26q-79 0 -129 46.5t-50 112.5q0 72 61 116t159 44q85 0 153 -27v47q0 69 -39.5 109.5t-106.5 40.5q-80 0 -168 -62l-24 45q101 68 199 68q95 0 151 -55.5t56 -151.5
v-235q0 -28 24 -28v-60q-82 -51 -82 -93q0 -37 52 -44zM228 42q46 0 90.5 20t69.5 53q17 23 17 39v85q-71 27 -143 27q-74 0 -119 -30t-45 -81q0 -45 34.5 -79t95.5 -34z" />
    <glyph glyph-name="Cacute" unicode="&#x106;" horiz-adv-x="689" 
d="M472 917l-86 -110l-45 17l59 93h72zM44 360q0 88 38.5 167.5t117.5 133t181 53.5q92 0 160 -42t102 -113l-56 -34q-21 45 -57.5 74t-74 40.5t-78.5 11.5q-120 0 -191.5 -89.5t-71.5 -205.5q0 -120 77.5 -209.5t188.5 -89.5q65 0 126 33.5t93 98.5l58 -30
q-33 -76 -114 -120.5t-167 -44.5q-94 0 -171.5 54t-119 137.5t-41.5 174.5z" />
    <glyph glyph-name="cacute" unicode="&#x107;" horiz-adv-x="550" 
d="M390 730l-86 -110l-45 17l59 93h72zM39 262q0 113 73.5 190.5t187.5 77.5q73 0 128.5 -33t83.5 -91l-66 -21q-22 40 -61.5 62.5t-86.5 22.5q-80 0 -134.5 -59.5t-54.5 -148.5q0 -88 56 -150t134 -62q49 0 94.5 26.5t57.5 62.5l66 -20q-21 -57 -81 -93t-135 -36
q-112 0 -187 79.5t-75 192.5z" />
    <glyph glyph-name="Ccircumflex" unicode="&#x108;" horiz-adv-x="689" 
d="M294 811l-38 21l98 85h50l99 -85l-39 -21l-85 63zM44 360q0 88 38.5 167.5t117.5 133t181 53.5q92 0 160 -42t102 -113l-56 -34q-21 45 -57.5 74t-74 40.5t-78.5 11.5q-120 0 -191.5 -89.5t-71.5 -205.5q0 -120 77.5 -209.5t188.5 -89.5q65 0 126 33.5t93 98.5l58 -30
q-33 -76 -114 -120.5t-167 -44.5q-94 0 -171.5 54t-119 137.5t-41.5 174.5z" />
    <glyph glyph-name="ccircumflex" unicode="&#x109;" horiz-adv-x="550" 
d="M213 624l-38 21l98 85h50l99 -85l-39 -21l-85 63zM39 262q0 113 73.5 190.5t187.5 77.5q73 0 128.5 -33t83.5 -91l-66 -21q-22 40 -61.5 62.5t-86.5 22.5q-80 0 -134.5 -59.5t-54.5 -148.5q0 -88 56 -150t134 -62q49 0 94.5 26.5t57.5 62.5l66 -20q-21 -57 -81 -93
t-135 -36q-112 0 -187 79.5t-75 192.5z" />
    <glyph glyph-name="Cdotaccent" unicode="&#x10a;" horiz-adv-x="689" 
d="M44 360q0 88 38.5 167.5t117.5 133t181 53.5q92 0 160 -42t102 -113l-56 -34q-21 45 -57.5 74t-74 40.5t-78.5 11.5q-120 0 -191.5 -89.5t-71.5 -205.5q0 -120 77.5 -209.5t188.5 -89.5q65 0 126 33.5t93 98.5l58 -30q-33 -76 -114 -120.5t-167 -44.5q-94 0 -171.5 54
t-119 137.5t-41.5 174.5zM410 820h-62v97h62v-97z" />
    <glyph glyph-name="cdotaccent" unicode="&#x10b;" horiz-adv-x="550" 
d="M39 262q0 113 73.5 190.5t187.5 77.5q73 0 128.5 -33t83.5 -91l-66 -21q-22 40 -61.5 62.5t-86.5 22.5q-80 0 -134.5 -59.5t-54.5 -148.5q0 -88 56 -150t134 -62q49 0 94.5 26.5t57.5 62.5l66 -20q-21 -57 -81 -93t-135 -36q-112 0 -187 79.5t-75 192.5zM329 633h-62v97
h62v-97z" />
    <glyph glyph-name="Ccaron" unicode="&#x10c;" horiz-adv-x="689" 
d="M256 897l38 20l85 -63l85 63l39 -20l-99 -86h-50zM44 360q0 88 38.5 167.5t117.5 133t181 53.5q92 0 160 -42t102 -113l-56 -34q-21 45 -57.5 74t-74 40.5t-78.5 11.5q-120 0 -191.5 -89.5t-71.5 -205.5q0 -120 77.5 -209.5t188.5 -89.5q65 0 126 33.5t93 98.5l58 -30
q-33 -76 -114 -120.5t-167 -44.5q-94 0 -171.5 54t-119 137.5t-41.5 174.5z" />
    <glyph glyph-name="ccaron" unicode="&#x10d;" horiz-adv-x="550" 
d="M175 710l38 20l85 -63l85 63l39 -20l-99 -86h-50zM39 262q0 113 73.5 190.5t187.5 77.5q73 0 128.5 -33t83.5 -91l-66 -21q-22 40 -61.5 62.5t-86.5 22.5q-80 0 -134.5 -59.5t-54.5 -148.5q0 -88 56 -150t134 -62q49 0 94.5 26.5t57.5 62.5l66 -20q-21 -57 -81 -93
t-135 -36q-112 0 -187 79.5t-75 192.5z" />
    <glyph glyph-name="Dcaron" unicode="&#x10e;" horiz-adv-x="718" 
d="M221 897l38 20l85 -63l85 63l39 -20l-99 -86h-50zM330 0h-240v710h240q110 0 188 -48t115 -127t37 -179q0 -162 -92 -259t-248 -97zM600 356q0 131 -71.5 211.5t-198.5 80.5h-171v-586h171q129 0 199.5 82t70.5 212z" />
    <glyph glyph-name="dcaron" unicode="&#x10f;" horiz-adv-x="623" 
d="M710 730l-86 -110l-45 17l59 93h72zM289 -10q-106 0 -178 80.5t-72 188.5q0 112 68 191.5t170 79.5q63 0 114.5 -33t83.5 -85v318h68v-642q0 -28 24 -28v-60q-17 -3 -27 -3q-24 0 -40.5 14.5t-16.5 34.5v55q-31 -51 -84 -81t-110 -30zM303 50q54 0 109 39t63 90v161
q-20 54 -73 92t-107 38q-81 0 -133.5 -63.5t-52.5 -147.5q0 -86 56.5 -147.5t137.5 -61.5z" />
    <glyph glyph-name="Dcroat" unicode="&#x110;" horiz-adv-x="723" 
d="M335 0h-240v330h-61v54h61v326h240q110 0 188 -48t115 -127t37 -179q0 -162 -92 -259t-248 -97zM605 356q0 131 -71.5 211.5t-198.5 80.5h-171v-264h171v-54h-171v-268h171q129 0 199.5 82t70.5 212z" />
    <glyph glyph-name="dcroat" unicode="&#x111;" horiz-adv-x="623" 
d="M289 -10q-106 0 -178 80.5t-72 188.5q0 112 68 191.5t170 79.5q63 0 114.5 -33t83.5 -85v205h-115v46h115v67h68v-67h70v-46h-70v-529q0 -28 24 -28v-60q-17 -3 -27 -3q-24 0 -40.5 14.5t-16.5 34.5v55q-31 -51 -84 -81t-110 -30zM303 50q54 0 109 39t63 90v161
q-20 54 -73 92t-107 38q-81 0 -133.5 -63.5t-52.5 -147.5q0 -86 56.5 -147.5t137.5 -61.5z" />
    <glyph glyph-name="Emacron" unicode="&#x112;" horiz-adv-x="613" 
d="M159 62h408v-62h-477v710h468v-62h-399v-256h348v-59h-348v-271zM483 850h-289v47h289v-47z" />
    <glyph glyph-name="emacron" unicode="&#x113;" horiz-adv-x="587" 
d="M301 -10q-112 0 -187 79.5t-75 192.5q0 111 74.5 189.5t186.5 78.5q111 0 184 -78.5t74 -188.5q0 -19 -2 -27h-445q6 -83 61.5 -138.5t130.5 -55.5q52 0 97 26t63 68l59 -16q-24 -57 -85 -93.5t-136 -36.5zM109 288h384q-7 83 -61.5 136t-131.5 53t-131.5 -53.5
t-59.5 -135.5zM442 663h-289v47h289v-47z" />
    <glyph glyph-name="Ebreve" unicode="&#x114;" horiz-adv-x="613" 
d="M159 62h408v-62h-477v710h468v-62h-399v-256h348v-59h-348v-271zM338 851q21 0 37.5 19t19.5 47h41q0 -43 -28.5 -72t-69.5 -29t-69.5 29t-28.5 72h42q0 -26 17 -46t39 -20z" />
    <glyph glyph-name="ebreve" unicode="&#x115;" horiz-adv-x="587" 
d="M301 -10q-112 0 -187 79.5t-75 192.5q0 111 74.5 189.5t186.5 78.5q111 0 184 -78.5t74 -188.5q0 -19 -2 -27h-445q6 -83 61.5 -138.5t130.5 -55.5q52 0 97 26t63 68l59 -16q-24 -57 -85 -93.5t-136 -36.5zM109 288h384q-7 83 -61.5 136t-131.5 53t-131.5 -53.5
t-59.5 -135.5zM297 664q21 0 37.5 19t19.5 47h41q0 -43 -28.5 -72t-69.5 -29t-69.5 29t-28.5 72h42q0 -26 17 -46t39 -20z" />
    <glyph glyph-name="Edotaccent" unicode="&#x116;" horiz-adv-x="613" 
d="M159 62h408v-62h-477v710h468v-62h-399v-256h348v-59h-348v-271zM368 820h-62v97h62v-97z" />
    <glyph glyph-name="edotaccent" unicode="&#x117;" horiz-adv-x="587" 
d="M301 -10q-112 0 -187 79.5t-75 192.5q0 111 74.5 189.5t186.5 78.5q111 0 184 -78.5t74 -188.5q0 -19 -2 -27h-445q6 -83 61.5 -138.5t130.5 -55.5q52 0 97 26t63 68l59 -16q-24 -57 -85 -93.5t-136 -36.5zM109 288h384q-7 83 -61.5 136t-131.5 53t-131.5 -53.5
t-59.5 -135.5zM328 633h-62v97h62v-97z" />
    <glyph glyph-name="Eogonek" unicode="&#x118;" horiz-adv-x="613" 
d="M159 62h408v-62h-209q-82 -51 -82 -93q0 -37 52 -44l-19 -38q-36 7 -55.5 26.5t-19.5 46.5q0 50 75 102h-219v710h468v-62h-399v-256h348v-59h-348v-271z" />
    <glyph glyph-name="eogonek" unicode="&#x119;" horiz-adv-x="589" 
d="M293 -181q-36 7 -55.5 26.5t-19.5 46.5q0 49 70 98q-108 6 -178 84.5t-70 187.5q0 111 74.5 189.5t186.5 78.5q111 0 184 -78.5t74 -188.5q0 -19 -2 -27h-445q6 -83 61 -138.5t131 -55.5q52 0 97 26t63 68l59 -16q-21 -50 -70.5 -84.5t-112.5 -42.5q-80 -51 -80 -92
q0 -37 52 -44zM110 288h384q-7 83 -61.5 136t-131.5 53t-131.5 -53.5t-59.5 -135.5z" />
    <glyph glyph-name="Ecaron" unicode="&#x11a;" horiz-adv-x="613" 
d="M214 897l38 20l85 -63l85 63l39 -20l-99 -86h-50zM159 62h408v-62h-477v710h468v-62h-399v-256h348v-59h-348v-271z" />
    <glyph glyph-name="ecaron" unicode="&#x11b;" horiz-adv-x="587" 
d="M174 710l38 20l85 -63l85 63l39 -20l-99 -86h-50zM301 -10q-112 0 -187 79.5t-75 192.5q0 111 74.5 189.5t186.5 78.5q111 0 184 -78.5t74 -188.5q0 -19 -2 -27h-445q6 -83 61.5 -138.5t130.5 -55.5q52 0 97 26t63 68l59 -16q-24 -57 -85 -93.5t-136 -36.5zM109 288h384
q-7 83 -61.5 136t-131.5 53t-131.5 -53.5t-59.5 -135.5z" />
    <glyph glyph-name="Gcircumflex" unicode="&#x11c;" horiz-adv-x="722" 
d="M287 811l-38 21l98 85h50l99 -85l-39 -21l-85 63zM604 0v103q-99 -108 -227 -108q-92 0 -169.5 53t-120 135.5t-42.5 172.5q0 146 94 252.5t234 106.5q193 0 271 -155l-54 -36q-67 128 -218 128q-114 0 -185.5 -89t-71.5 -208q0 -121 77.5 -209t189.5 -88q123 0 222 118
v119h-157v54h217v-349h-60z" />
    <glyph glyph-name="gcircumflex" unicode="&#x11d;" horiz-adv-x="616" 
d="M240 624l-38 21l98 85h50l99 -85l-39 -21l-85 63zM284 -7q-104 0 -174 80t-70 186q0 111 68.5 191t173.5 80q119 0 200 -118v109h61v-523q0 -105 -73 -163t-183 -58q-158 0 -233 118l42 33q30 -48 80.5 -72.5t110.5 -24.5q81 0 134.5 43.5t53.5 123.5v103
q-31 -49 -83 -78.5t-108 -29.5zM303 50q59 0 111 40t61 89v161q-23 56 -74 93t-107 37q-83 0 -134 -64.5t-51 -147.5q0 -85 56.5 -146.5t137.5 -61.5z" />
    <glyph glyph-name="Gbreve" unicode="&#x11e;" horiz-adv-x="722" 
d="M604 0v103q-99 -108 -227 -108q-92 0 -169.5 53t-120 135.5t-42.5 172.5q0 146 94 252.5t234 106.5q193 0 271 -155l-54 -36q-67 128 -218 128q-114 0 -185.5 -89t-71.5 -208q0 -121 77.5 -209t189.5 -88q123 0 222 118v119h-157v54h217v-349h-60zM372 851q21 0 37.5 19
t19.5 47h41q0 -43 -28.5 -72t-69.5 -29t-69.5 29t-28.5 72h42q0 -26 17 -46t39 -20z" />
    <glyph glyph-name="gbreve" unicode="&#x11f;" horiz-adv-x="616" 
d="M284 -7q-104 0 -174 80t-70 186q0 111 68.5 191t173.5 80q119 0 200 -118v109h61v-523q0 -105 -73 -163t-183 -58q-158 0 -233 118l42 33q30 -48 80.5 -72.5t110.5 -24.5q81 0 134.5 43.5t53.5 123.5v103q-31 -49 -83 -78.5t-108 -29.5zM303 50q59 0 111 40t61 89v161
q-23 56 -74 93t-107 37q-83 0 -134 -64.5t-51 -147.5q0 -85 56.5 -146.5t137.5 -61.5zM326 664q21 0 37.5 19t19.5 47h41q0 -43 -28.5 -72t-69.5 -29t-69.5 29t-28.5 72h42q0 -26 17 -46t39 -20z" />
    <glyph glyph-name="Gdotaccent" unicode="&#x120;" horiz-adv-x="722" 
d="M604 0v103q-99 -108 -227 -108q-92 0 -169.5 53t-120 135.5t-42.5 172.5q0 146 94 252.5t234 106.5q193 0 271 -155l-54 -36q-67 128 -218 128q-114 0 -185.5 -89t-71.5 -208q0 -121 77.5 -209t189.5 -88q123 0 222 118v119h-157v54h217v-349h-60zM403 820h-62v97h62v-97
z" />
    <glyph glyph-name="gdotaccent" unicode="&#x121;" horiz-adv-x="616" 
d="M284 -7q-104 0 -174 80t-70 186q0 111 68.5 191t173.5 80q119 0 200 -118v109h61v-523q0 -105 -73 -163t-183 -58q-158 0 -233 118l42 33q30 -48 80.5 -72.5t110.5 -24.5q81 0 134.5 43.5t53.5 123.5v103q-31 -49 -83 -78.5t-108 -29.5zM303 50q59 0 111 40t61 89v161
q-23 56 -74 93t-107 37q-83 0 -134 -64.5t-51 -147.5q0 -85 56.5 -146.5t137.5 -61.5zM356 633h-62v97h62v-97z" />
    <glyph glyph-name="Gcommaaccent" unicode="&#x122;" horiz-adv-x="722" 
d="M329 -165v34q21 0 21 18v64h58v-64q0 -52 -79 -52zM604 0v103q-99 -108 -227 -108q-92 0 -169.5 53t-120 135.5t-42.5 172.5q0 146 94 252.5t234 106.5q193 0 271 -155l-54 -36q-67 128 -218 128q-114 0 -185.5 -89t-71.5 -208q0 -121 77.5 -209t189.5 -88q123 0 222 118
v119h-157v54h217v-349h-60z" />
    <glyph glyph-name="gcommaaccent" unicode="&#x123;" horiz-adv-x="616" 
d="M418 730l-86 -110l-45 17l59 93h72zM284 -7q-104 0 -174 80t-70 186q0 111 68.5 191t173.5 80q119 0 200 -118v109h61v-523q0 -105 -73 -163t-183 -58q-158 0 -233 118l42 33q30 -48 80.5 -72.5t110.5 -24.5q81 0 134.5 43.5t53.5 123.5v103q-31 -49 -83 -78.5
t-108 -29.5zM303 50q59 0 111 40t61 89v161q-23 56 -74 93t-107 37q-83 0 -134 -64.5t-51 -147.5q0 -85 56.5 -146.5t137.5 -61.5z" />
    <glyph glyph-name="Hcircumflex" unicode="&#x124;" horiz-adv-x="739" 
d="M287 811l-38 21l98 85h50l99 -85l-39 -21l-85 63zM580 710h70v-710h-70v332h-421v-332h-69v710h69v-316h421v316z" />
    <glyph glyph-name="hcircumflex" unicode="&#x125;" horiz-adv-x="579" 
d="M254 623l-36 21l93 84h47l94 -84l-37 -21l-80 63zM511 305v-305h-68v291q0 177 -120 177q-58 0 -111 -43t-71 -106v-319h-68v730h68v-327q32 59 87 93t118 34q165 0 165 -225z" />
    <glyph glyph-name="Hbar" unicode="&#x126;" horiz-adv-x="747" 
d="M584 710h70v-121h50v-39h-50v-550h-70v332h-421v-332h-69v550h-50v39h50v121h69v-121h421v121zM163 394h421v156h-421v-156z" />
    <glyph glyph-name="hbar" unicode="&#x127;" horiz-adv-x="579" 
d="M511 305v-305h-68v291q0 177 -120 177q-58 0 -111 -43t-71 -106v-319h-68v617h-61v46h61v67h68v-67h123v-46h-123v-214q32 59 87 93t118 34q165 0 165 -225z" />
    <glyph glyph-name="Itilde" unicode="&#x128;" horiz-adv-x="249" 
d="M159 0h-69v709h69v-709zM186 825q-32 0 -70.5 20t-57.5 20q-20 0 -32 -12t-15 -21t-3 -15h-42q0 12 6 31t28.5 40.5t56.5 21.5q29 0 66.5 -21t61.5 -21q23 0 37.5 12.5t17 21.5t2.5 15h42q0 -7 -4.5 -20t-14 -30.5t-30.5 -29.5t-49 -12z" />
    <glyph glyph-name="itilde" unicode="&#x129;" horiz-adv-x="214" 
d="M141 0h-68v521h68v-521zM169 638q-32 0 -70.5 20t-57.5 20q-20 0 -32 -12t-15 -21t-3 -15h-42q0 12 6 31t28.5 40.5t56.5 21.5q29 0 66.5 -21t61.5 -21q23 0 37.5 12.5t17 21.5t2.5 15h42q0 -7 -4.5 -20t-14 -30.5t-30.5 -29.5t-49 -12z" />
    <glyph glyph-name="Imacron" unicode="&#x12a;" horiz-adv-x="249" 
d="M159 0h-69v709h69v-709zM270 850h-289v47h289v-47z" />
    <glyph glyph-name="imacron" unicode="&#x12b;" horiz-adv-x="214" 
d="M141 0h-68v521h68v-521zM252 663h-289v47h289v-47z" />
    <glyph glyph-name="Ibreve" unicode="&#x12c;" horiz-adv-x="249" 
d="M159 0h-69v709h69v-709zM124 851q21 0 37.5 19t19.5 47h41q0 -43 -28.5 -72t-69.5 -29t-69.5 29t-28.5 72h42q0 -26 17 -46t39 -20z" />
    <glyph glyph-name="ibreve" unicode="&#x12d;" horiz-adv-x="214" 
d="M141 0h-68v521h68v-521zM107 664q21 0 37.5 19t19.5 47h41q0 -43 -28.5 -72t-69.5 -29t-69.5 29t-28.5 72h42q0 -26 17 -46t39 -20z" />
    <glyph glyph-name="Iogonek" unicode="&#x12e;" horiz-adv-x="249" 
d="M110 -175q-36 7 -55.5 26.5t-19.5 46.5q0 50 75 102h-20v709h69v-709q-82 -51 -82 -93q0 -37 52 -44z" />
    <glyph glyph-name="iogonek" unicode="&#x12f;" horiz-adv-x="215" 
d="M93 -175q-36 7 -55.5 26.5t-19.5 46.5q0 50 75 102h-19v521h68v-521q-82 -51 -82 -93q0 -37 52 -44zM142 630h-68v100h68v-100z" />
    <glyph glyph-name="Idotaccent" unicode="&#x130;" horiz-adv-x="249" 
d="M159 0h-69v709h69v-709zM155 820h-62v97h62v-97z" />
    <glyph glyph-name="dotlessi" unicode="&#x131;" horiz-adv-x="214" 
d="M141 0h-68v521h68v-521z" />
    <glyph glyph-name="IJ" unicode="&#x132;" horiz-adv-x="735" 
d="M159 0h-69v709h69v-709zM267 33l20 56q54 -37 134 -37q43 0 72.5 13.5t47.5 35.5t27.5 62t12.5 81.5t3 104.5v360h70v-360q0 -59 -3 -102t-11.5 -87t-24.5 -72.5t-41.5 -52.5t-63.5 -35t-89 -11q-90 0 -154 44z" />
    <glyph glyph-name="ij" unicode="&#x133;" horiz-adv-x="428" 
d="M141 0h-68v521h68v-521zM141 630h-68v100h68v-100zM202 -181q-72 0 -114 39l33 46q27 -24 73 -24q36 0 64.5 27t28.5 66v548h68v-544q0 -67 -46.5 -112.5t-106.5 -45.5zM355 630h-68v100h68v-100z" />
    <glyph glyph-name="Jcircumflex" unicode="&#x134;" horiz-adv-x="486" 
d="M286 811l-38 21l98 85h50l99 -85l-39 -21l-85 63zM18 33l20 56q54 -37 134 -37q43 0 72.5 13.5t47.5 35.5t27.5 62t12.5 81.5t3 104.5v360h70v-360q0 -59 -3 -102t-11.5 -87t-24.5 -72.5t-41.5 -52.5t-63.5 -35t-89 -11q-90 0 -154 44z" />
    <glyph glyph-name="jcircumflex" unicode="&#x135;" horiz-adv-x="214" 
d="M-12 -181q-72 0 -114 39l33 46q27 -24 73 -24q36 0 64.5 27t28.5 66v548h68v-544q0 -67 -46.5 -112.5t-106.5 -45.5zM22 624l-38 21l98 85h50l99 -85l-39 -21l-85 63z" />
    <glyph glyph-name="Kcommaaccent" unicode="&#x136;" horiz-adv-x="641" 
d="M281 -165v34q21 0 21 18v64h58v-64q0 -52 -79 -52zM159 0h-69v709h69v-412l391 413h77l-290 -312l306 -398h-77l-272 357l-135 -139v-218z" />
    <glyph glyph-name="kcommaaccent" unicode="&#x137;" horiz-adv-x="527" 
d="M224 -165v34q21 0 21 18v64h58v-64q0 -52 -79 -52zM519 0h-74l-192 267l-112 -104v-163h-68v730h68v-496l293 286h77l-213 -213z" />
    <glyph glyph-name="kgreenlandic" unicode="&#x138;" horiz-adv-x="527" 
d="M519 0h-74l-192 267l-112 -104v-163h-68v521h68v-287l293 286h77l-213 -213z" />
    <glyph glyph-name="Lacute" unicode="&#x139;" horiz-adv-x="590" 
d="M436 917l-86 -110l-45 17l59 93h72zM570 0h-480v710h69v-648h411v-62z" />
    <glyph glyph-name="lacute" unicode="&#x13a;" horiz-adv-x="264" 
d="M195 883l-86 -110l-45 17l59 93h72zM76 95v635h68v-612q0 -29 16 -45.5t45 -16.5q27 0 54 11l12 -55q-45 -18 -94 -18q-47 0 -74 27t-27 74z" />
    <glyph glyph-name="Lcommaaccent" unicode="&#x13b;" horiz-adv-x="590" 
d="M284 -165v34q21 0 21 18v64h58v-64q0 -52 -79 -52zM570 0h-480v710h69v-648h411v-62z" />
    <glyph glyph-name="lcommaaccent" unicode="&#x13c;" horiz-adv-x="264" 
d="M122 -165v34q21 0 21 18v64h58v-64q0 -52 -79 -52zM76 95v635h68v-612q0 -29 16 -45.5t45 -16.5q27 0 54 11l12 -55q-45 -18 -94 -18q-47 0 -74 27t-27 74z" />
    <glyph glyph-name="Lcaron" unicode="&#x13d;" horiz-adv-x="590" 
d="M467 730l-86 -110l-45 17l59 93h72zM570 0h-480v710h69v-648h411v-62z" />
    <glyph glyph-name="lcaron" unicode="&#x13e;" horiz-adv-x="264" 
d="M321 730l-86 -110l-45 17l59 93h72zM76 95v635h68v-612q0 -29 16 -45.5t45 -16.5q27 0 54 11l12 -55q-45 -18 -94 -18q-47 0 -74 27t-27 74z" />
    <glyph glyph-name="Ldot" unicode="&#x13f;" horiz-adv-x="590" 
d="M570 0h-480v710h69v-648h411v-62zM425 348h-58v112h58v-112z" />
    <glyph glyph-name="ldot" unicode="&#x140;" horiz-adv-x="313" 
d="M76 95v635h68v-612q0 -29 16 -45.5t45 -16.5q27 0 54 11l12 -55q-45 -18 -94 -18q-47 0 -74 27t-27 74zM296 263h-58v112h58v-112z" />
    <glyph glyph-name="Lslash" unicode="&#x141;" horiz-adv-x="598" 
d="M577 0h-480v277l-58 -48l-22 40l80 66v375h69v-318l156 130l22 -39l-178 -148v-273h411v-62z" />
    <glyph glyph-name="lslash" unicode="&#x142;" horiz-adv-x="284" 
d="M93 95v244l-64 -50l-23 39l87 69v333h68v-280l89 71l23 -39l-112 -89v-275q0 -29 16 -45.5t45 -16.5q27 0 54 11l12 -55q-45 -18 -94 -18q-47 0 -74 27t-27 74z" />
    <glyph glyph-name="Nacute" unicode="&#x143;" horiz-adv-x="773" 
d="M482 917l-86 -110l-45 17l59 93h72zM623 0l-464 580v-580h-69v710h54l470 -591v590h69v-709h-60z" />
    <glyph glyph-name="nacute" unicode="&#x144;" horiz-adv-x="579" 
d="M387 730l-86 -110l-45 17l59 93h72zM511 305v-305h-68v291q0 92 -27 134.5t-84 42.5q-61 0 -116.5 -42.5t-74.5 -106.5v-319h-68v521h62v-118q32 57 92 92t129 35q84 0 119.5 -58t35.5 -167z" />
    <glyph glyph-name="Ncommaaccent" unicode="&#x145;" horiz-adv-x="773" 
d="M339 -165v34q21 0 21 18v64h58v-64q0 -52 -79 -52zM623 0l-464 580v-580h-69v710h54l470 -591v590h69v-709h-60z" />
    <glyph glyph-name="ncommaaccent" unicode="&#x146;" horiz-adv-x="579" 
d="M237 -165v34q21 0 21 18v64h58v-64q0 -52 -79 -52zM511 305v-305h-68v291q0 92 -27 134.5t-84 42.5q-61 0 -116.5 -42.5t-74.5 -106.5v-319h-68v521h62v-118q32 57 92 92t129 35q84 0 119.5 -58t35.5 -167z" />
    <glyph glyph-name="Ncaron" unicode="&#x147;" horiz-adv-x="773" 
d="M266 897l38 20l85 -63l85 63l39 -20l-99 -86h-50zM623 0l-464 580v-580h-69v710h54l470 -591v590h69v-709h-60z" />
    <glyph glyph-name="ncaron" unicode="&#x148;" horiz-adv-x="579" 
d="M171 710l38 20l85 -63l85 63l39 -20l-99 -86h-50zM511 305v-305h-68v291q0 92 -27 134.5t-84 42.5q-61 0 -116.5 -42.5t-74.5 -106.5v-319h-68v521h62v-118q32 57 92 92t129 35q84 0 119.5 -58t35.5 -167z" />
    <glyph glyph-name="napostrophe" unicode="&#x149;" horiz-adv-x="579" 
d="M127 730l-87 -110l-45 17l38 59v34h94zM511 305v-305h-68v291q0 92 -27 134.5t-84 42.5q-61 0 -116.5 -42.5t-74.5 -106.5v-319h-68v521h62v-118q32 57 92 92t129 35q84 0 119.5 -58t35.5 -167z" />
    <glyph glyph-name="Eng" unicode="&#x14a;" horiz-adv-x="767" 
d="M610 9l-451 570v-579h-69v710h53l465 -588v587h70v-734q0 -67 -47 -111.5t-108 -44.5q-71 0 -113 39l34 46q24 -24 72 -24q36 0 65 27t29 66v36z" />
    <glyph glyph-name="eng" unicode="&#x14b;" horiz-adv-x="579" 
d="M358 -181q-72 0 -114 39l33 46q27 -24 74 -24q36 0 64 27t28 66v318q0 92 -27 134.5t-84 42.5q-61 0 -116.5 -42.5t-74.5 -106.5v-319h-68v521h62v-118q32 57 92 92t129 35q84 0 119.5 -58t35.5 -167v-328q0 -67 -46.5 -112.5t-106.5 -45.5z" />
    <glyph glyph-name="Omacron" unicode="&#x14c;" 
d="M524 850h-289v47h289v-47zM378 -5q-72 0 -135 30.5t-106 81t-67.5 115.5t-24.5 133q0 145 97 252.5t237 107.5q95 0 172.5 -53.5t118.5 -135.5t41 -172q0 -145 -96.5 -252t-236.5 -107zM115 355q0 -119 74.5 -208t188.5 -89q115 0 189 90.5t74 206.5q0 119 -75 207.5
t-188 88.5q-116 0 -189.5 -90t-73.5 -206z" />
    <glyph glyph-name="omacron" unicode="&#x14d;" horiz-adv-x="595" 
d="M443 663h-289v47h289v-47zM298 -10q-112 0 -185.5 79t-73.5 190t74.5 191t184.5 80t184.5 -80t74.5 -191t-74 -190t-185 -79zM109 258q0 -87 55 -147.5t133 -60.5t134 61.5t56 148.5t-56 148.5t-133 61.5q-78 0 -133.5 -62t-55.5 -150z" />
    <glyph glyph-name="Obreve" unicode="&#x14e;" 
d="M378 -5q-72 0 -135 30.5t-106 81t-67.5 115.5t-24.5 133q0 145 97 252.5t237 107.5q95 0 172.5 -53.5t118.5 -135.5t41 -172q0 -145 -96.5 -252t-236.5 -107zM115 355q0 -119 74.5 -208t188.5 -89q115 0 189 90.5t74 206.5q0 119 -75 207.5t-188 88.5q-116 0 -189.5 -90
t-73.5 -206zM379 851q21 0 37.5 19t19.5 47h41q0 -43 -28.5 -72t-69.5 -29t-69.5 29t-28.5 72h42q0 -26 17 -46t39 -20z" />
    <glyph glyph-name="obreve" unicode="&#x14f;" horiz-adv-x="595" 
d="M298 -10q-112 0 -185.5 79t-73.5 190t74.5 191t184.5 80t184.5 -80t74.5 -191t-74 -190t-185 -79zM109 258q0 -87 55 -147.5t133 -60.5t134 61.5t56 148.5t-56 148.5t-133 61.5q-78 0 -133.5 -62t-55.5 -150zM298 664q21 0 37.5 19t19.5 47h41q0 -43 -28.5 -72t-69.5 -29
t-69.5 29t-28.5 72h42q0 -26 17 -46t39 -20z" />
    <glyph glyph-name="Ohungarumlaut" unicode="&#x150;" 
d="M400 917l-84 -110l-37 17l57 93h64zM525 917l-83 -110l-38 17l57 93h64zM378 -5q-72 0 -135 30.5t-106 81t-67.5 115.5t-24.5 133q0 145 97 252.5t237 107.5q95 0 172.5 -53.5t118.5 -135.5t41 -172q0 -145 -96.5 -252t-236.5 -107zM115 355q0 -119 74.5 -208t188.5 -89
q115 0 189 90.5t74 206.5q0 119 -75 207.5t-188 88.5q-116 0 -189.5 -90t-73.5 -206z" />
    <glyph glyph-name="ohungarumlaut" unicode="&#x151;" horiz-adv-x="595" 
d="M318 730l-84 -110l-37 17l57 93h64zM443 730l-83 -110l-38 17l57 93h64zM298 -10q-112 0 -185.5 79t-73.5 190t74.5 191t184.5 80t184.5 -80t74.5 -191t-74 -190t-185 -79zM109 258q0 -87 55 -147.5t133 -60.5t134 61.5t56 148.5t-56 148.5t-133 61.5q-78 0 -133.5 -62
t-55.5 -150z" />
    <glyph glyph-name="OE" unicode="&#x152;" horiz-adv-x="1160" 
d="M713 62h402v-62h-472v180q-35 -81 -106 -133t-158 -52q-96 0 -173.5 52t-119 134t-41.5 174q0 145 97 252.5t237 107.5q89 0 159 -52t105 -133v180h463v-62h-393v-255h339v-62h-339v-269zM378 58q116 0 189.5 90.5t73.5 207.5q0 118 -75.5 207t-187.5 89
q-77 0 -138.5 -44t-93 -111t-31.5 -142q0 -119 74.5 -208t188.5 -89z" />
    <glyph glyph-name="oe" unicode="&#x153;" horiz-adv-x="1036" 
d="M297 -10q-109 0 -183 77.5t-74 190.5q0 115 74.5 193.5t183.5 78.5q76 0 136 -44.5t87 -120.5q28 78 87 121.5t139 43.5q109 0 179.5 -73.5t78.5 -196.5q0 -20 -1 -24h-445q7 -82 64.5 -138t135.5 -56q54 0 99.5 26t61.5 68l57 -16q-25 -58 -87 -94t-134 -36
q-74 0 -137.5 44.5t-96.5 118.5q-33 -76 -92 -119.5t-133 -43.5zM298 50q79 0 134 60.5t55 148.5t-54.5 149.5t-133.5 61.5t-134.5 -62.5t-55.5 -150.5t54.5 -147.5t134.5 -59.5zM558 282h381q-6 85 -61.5 140t-132.5 55t-130 -55t-57 -140z" />
    <glyph glyph-name="Racute" unicode="&#x154;" horiz-adv-x="660" 
d="M411 919l-86 -110l-45 17l59 93h72zM159 0h-69v710h299q89 0 150 -68.5t61 -154.5q0 -78 -44.5 -138.5t-114.5 -74.5l175 -274h-79l-168 262h-210v-262zM159 648v-324h233q61 0 99.5 48.5t38.5 114.5q0 65 -43 113t-101 48h-227z" />
    <glyph glyph-name="racute" unicode="&#x155;" horiz-adv-x="351" 
d="M291 730l-86 -110l-45 17l59 93h72zM333 523v-62q-69 -2 -120 -38t-72 -99v-324h-68v521h64v-125q28 57 72.5 92.5t93.5 35.5q23 0 30 -1z" />
    <glyph glyph-name="Rcommaaccent" unicode="&#x156;" horiz-adv-x="660" 
d="M278 -165v34q21 0 21 18v64h58v-64q0 -52 -79 -52zM159 0h-69v710h299q89 0 150 -68.5t61 -154.5q0 -78 -44.5 -138.5t-114.5 -74.5l175 -274h-79l-168 262h-210v-262zM159 648v-324h233q61 0 99.5 48.5t38.5 114.5q0 65 -43 113t-101 48h-227z" />
    <glyph glyph-name="rcommaaccent" unicode="&#x157;" horiz-adv-x="351" 
d="M55 -165v34q21 0 21 18v64h58v-64q0 -52 -79 -52zM333 523v-62q-69 -2 -120 -38t-72 -99v-324h-68v521h64v-125q28 57 72.5 92.5t93.5 35.5q23 0 30 -1z" />
    <glyph glyph-name="Rcaron" unicode="&#x158;" horiz-adv-x="660" 
d="M195 899l38 20l85 -63l85 63l39 -20l-99 -86h-50zM159 0h-69v710h299q89 0 150 -68.5t61 -154.5q0 -78 -44.5 -138.5t-114.5 -74.5l175 -274h-79l-168 262h-210v-262zM159 648v-324h233q61 0 99.5 48.5t38.5 114.5q0 65 -43 113t-101 48h-227z" />
    <glyph glyph-name="rcaron" unicode="&#x159;" horiz-adv-x="351" 
d="M76 710l38 20l85 -63l85 63l39 -20l-99 -86h-50zM333 523v-62q-69 -2 -120 -38t-72 -99v-324h-68v521h64v-125q28 57 72.5 92.5t93.5 35.5q23 0 30 -1z" />
    <glyph glyph-name="Sacute" unicode="&#x15a;" horiz-adv-x="612" 
d="M408 933l-86 -110l-45 17l59 93h72zM540 633l-33 -56q-68 76 -194 76q-181 0 -181 -132q0 -59 43 -85t155 -51q127 -27 186 -68.5t59 -130.5q0 -95 -69.5 -143.5t-185.5 -48.5q-167 0 -285 103l34 57q41 -43 108 -70.5t144 -27.5q86 0 133.5 31t47.5 92t-49 91t-166 56
q-121 28 -173.5 66t-52.5 119q0 97 69.5 150.5t183.5 53.5q133 0 226 -82z" />
    <glyph glyph-name="sacute" unicode="&#x15b;" horiz-adv-x="487" 
d="M338 730l-86 -110l-45 17l59 93h72zM248 -10q-133 0 -219 78l31 46q87 -72 187 -72q63 0 100.5 26t37.5 72q0 40 -34 59t-123 40q-100 25 -137.5 50t-37.5 83q0 76 55.5 117t139.5 41q120 0 188 -71l-33 -40q-58 60 -157 60q-57 0 -92.5 -24t-35.5 -73q0 -39 26.5 -55
t103.5 -34q112 -27 157.5 -56t45.5 -91q0 -71 -55.5 -113.5t-147.5 -42.5z" />
    <glyph glyph-name="Scircumflex" unicode="&#x15c;" horiz-adv-x="612" 
d="M231 827l-38 21l98 85h50l99 -85l-39 -21l-85 63zM540 633l-33 -56q-68 76 -194 76q-181 0 -181 -132q0 -59 43 -85t155 -51q127 -27 186 -68.5t59 -130.5q0 -95 -69.5 -143.5t-185.5 -48.5q-167 0 -285 103l34 57q41 -43 108 -70.5t144 -27.5q86 0 133.5 31t47.5 92
t-49 91t-166 56q-121 28 -173.5 66t-52.5 119q0 97 69.5 150.5t183.5 53.5q133 0 226 -82z" />
    <glyph glyph-name="scircumflex" unicode="&#x15d;" horiz-adv-x="487" 
d="M161 624l-38 21l98 85h50l99 -85l-39 -21l-85 63zM248 -10q-133 0 -219 78l31 46q87 -72 187 -72q63 0 100.5 26t37.5 72q0 40 -34 59t-123 40q-100 25 -137.5 50t-37.5 83q0 76 55.5 117t139.5 41q120 0 188 -71l-33 -40q-58 60 -157 60q-57 0 -92.5 -24t-35.5 -73
q0 -39 26.5 -55t103.5 -34q112 -27 157.5 -56t45.5 -91q0 -71 -55.5 -113.5t-147.5 -42.5z" />
    <glyph glyph-name="uni015E" unicode="&#x15e;" horiz-adv-x="612" 
d="M230 -157l17 31q36 -18 88 -18q57 0 57 35q0 36 -50 36q-40 0 -80 -14l44 81q-159 5 -271 103l34 57q41 -43 108 -70.5t144 -27.5q86 0 133.5 31t47.5 92t-49 91t-166 56q-121 28 -173.5 66t-52.5 119q0 97 69.5 150.5t183.5 53.5q133 0 226 -82l-33 -56q-68 76 -194 76
q-181 0 -181 -132q0 -59 43 -85t155 -51q127 -27 186 -68.5t59 -130.5q0 -90 -62 -138t-168 -53l-28 -46q14 6 38 6q35 0 55.5 -16t20.5 -45q0 -70 -102 -70q-50 0 -99 19z" />
    <glyph glyph-name="uni015F" unicode="&#x15f;" horiz-adv-x="488" 
d="M154 -157l17 31q36 -18 88 -18q57 0 57 35q0 36 -50 36q-40 0 -80 -14l42 78q-123 7 -199 77l31 46q87 -72 187 -72q63 0 100.5 26t37.5 72q0 40 -34 59t-123 40q-100 25 -137.5 50t-37.5 83q0 76 55.5 117t139.5 41q120 0 188 -71l-33 -40q-58 60 -157 60
q-57 0 -92.5 -24t-35.5 -73q0 -39 26.5 -55t103.5 -34q112 -27 157.5 -56t45.5 -91q0 -67 -50 -108.5t-134 -46.5l-26 -42q14 6 38 6q35 0 55.5 -16t20.5 -45q0 -70 -102 -70q-50 0 -99 19z" />
    <glyph glyph-name="Scaron" unicode="&#x160;" horiz-adv-x="612" 
d="M193 913l38 20l85 -63l85 63l39 -20l-99 -86h-50zM540 633l-33 -56q-68 76 -194 76q-181 0 -181 -132q0 -59 43 -85t155 -51q127 -27 186 -68.5t59 -130.5q0 -95 -69.5 -143.5t-185.5 -48.5q-167 0 -285 103l34 57q41 -43 108 -70.5t144 -27.5q86 0 133.5 31t47.5 92
t-49 91t-166 56q-121 28 -173.5 66t-52.5 119q0 97 69.5 150.5t183.5 53.5q133 0 226 -82z" />
    <glyph glyph-name="scaron" unicode="&#x161;" horiz-adv-x="487" 
d="M123 710l38 20l85 -63l85 63l39 -20l-99 -86h-50zM248 -10q-133 0 -219 78l31 46q87 -72 187 -72q63 0 100.5 26t37.5 72q0 40 -34 59t-123 40q-100 25 -137.5 50t-37.5 83q0 76 55.5 117t139.5 41q120 0 188 -71l-33 -40q-58 60 -157 60q-57 0 -92.5 -24t-35.5 -73
q0 -39 26.5 -55t103.5 -34q112 -27 157.5 -56t45.5 -91q0 -71 -55.5 -113.5t-147.5 -42.5z" />
    <glyph glyph-name="uni0162" unicode="&#x162;" horiz-adv-x="614" 
d="M213 -157l17 31q36 -18 88 -18q57 0 57 35q0 36 -50 36q-40 0 -80 -14l47 87h-20v648h-253v62h576v-62h-253v-648h-10l-32 -51q14 6 38 6q35 0 55.5 -16t20.5 -45q0 -70 -102 -70q-50 0 -99 19z" />
    <glyph glyph-name="uni0163" unicode="&#x163;" horiz-adv-x="332" 
d="M112 -157l17 31q36 -18 88 -18q57 0 57 35q0 36 -50 36q-40 0 -80 -14l44 82q-40 5 -65.5 30.5t-25.5 68.5v373h-72v54h72v176h68v-176h120v-54h-120v-354q2 -27 19.5 -41.5t43.5 -14.5q42 0 79 23l18 -55q-61 -26 -97 -30l-29 -46q14 6 38 6q35 0 55.5 -16t20.5 -45
q0 -70 -102 -70q-50 0 -99 19z" />
    <glyph glyph-name="Tcaron" unicode="&#x164;" horiz-adv-x="614" 
d="M186 897l38 20l85 -63l85 63l39 -20l-99 -86h-50zM595 710v-62h-253v-648h-70v648h-253v62h576z" />
    <glyph glyph-name="tcaron" unicode="&#x165;" horiz-adv-x="332" 
d="M362 730l-86 -110l-45 17l59 93h72zM307 80l18 -55q-71 -31 -118 -31t-78.5 26t-31.5 74v373h-72v54h72v176h68v-176h120v-54h-120v-354q2 -27 19.5 -41.5t43.5 -14.5q42 0 79 23z" />
    <glyph glyph-name="Tbar" unicode="&#x166;" horiz-adv-x="651" 
d="M613 710v-62h-253v-243h220v-39h-220v-366h-70v366h-220v39h220v243h-253v62h576z" />
    <glyph glyph-name="tbar" unicode="&#x167;" horiz-adv-x="333" 
d="M308 80l18 -55q-71 -31 -118 -31t-78.5 26t-31.5 74v213h-72v46h72v114h-72v54h72v176h68v-176h120v-54h-120v-114h120v-46h-120v-194q2 -27 19.5 -41.5t43.5 -14.5q42 0 79 23z" />
    <glyph glyph-name="Utilde" unicode="&#x168;" horiz-adv-x="755" 
d="M377 58q65 0 111.5 25t71.5 68.5t36 93t11 107.5v358h70v-358q0 -74 -16.5 -136.5t-51 -113t-93.5 -79t-138 -28.5q-66 0 -118 20t-85.5 53.5t-55.5 80t-31 96.5t-9 107v358h69v-358q0 -59 11.5 -109t36.5 -93t71.5 -67.5t109.5 -24.5zM440 825q-32 0 -70.5 20t-57.5 20
q-20 0 -32 -12t-15 -21t-3 -15h-42q0 12 6 31t28.5 40.5t56.5 21.5q29 0 66.5 -21t61.5 -21q23 0 37.5 12.5t17 21.5t2.5 15h42q0 -7 -4.5 -20t-14 -30.5t-30.5 -29.5t-49 -12z" />
    <glyph glyph-name="utilde" unicode="&#x169;" horiz-adv-x="594" 
d="M234 -10q-166 0 -166 225v306h68v-294q0 -177 121 -177q61 0 113 39t75 104v328h68v-433q0 -28 25 -28v-60q-20 -3 -28 -3q-23 0 -39.5 14t-16.5 35v72q-34 -60 -92.5 -94t-127.5 -34zM351 638q-32 0 -70.5 20t-57.5 20q-20 0 -32 -12t-15 -21t-3 -15h-42q0 12 6 31
t28.5 40.5t56.5 21.5q29 0 66.5 -21t61.5 -21q23 0 37.5 12.5t17 21.5t2.5 15h42q0 -7 -4.5 -20t-14 -30.5t-30.5 -29.5t-49 -12z" />
    <glyph glyph-name="Umacron" unicode="&#x16a;" horiz-adv-x="755" 
d="M377 58q65 0 111.5 25t71.5 68.5t36 93t11 107.5v358h70v-358q0 -74 -16.5 -136.5t-51 -113t-93.5 -79t-138 -28.5q-66 0 -118 20t-85.5 53.5t-55.5 80t-31 96.5t-9 107v358h69v-358q0 -59 11.5 -109t36.5 -93t71.5 -67.5t109.5 -24.5zM523 850h-289v47h289v-47z" />
    <glyph glyph-name="umacron" unicode="&#x16b;" horiz-adv-x="594" 
d="M234 -10q-166 0 -166 225v306h68v-294q0 -177 121 -177q61 0 113 39t75 104v328h68v-433q0 -28 25 -28v-60q-20 -3 -28 -3q-23 0 -39.5 14t-16.5 35v72q-34 -60 -92.5 -94t-127.5 -34zM434 663h-289v47h289v-47z" />
    <glyph glyph-name="Ubreve" unicode="&#x16c;" horiz-adv-x="755" 
d="M377 58q65 0 111.5 25t71.5 68.5t36 93t11 107.5v358h70v-358q0 -74 -16.5 -136.5t-51 -113t-93.5 -79t-138 -28.5q-66 0 -118 20t-85.5 53.5t-55.5 80t-31 96.5t-9 107v358h69v-358q0 -59 11.5 -109t36.5 -93t71.5 -67.5t109.5 -24.5zM378 851q21 0 37.5 19t19.5 47h41
q0 -43 -28.5 -72t-69.5 -29t-69.5 29t-28.5 72h42q0 -26 17 -46t39 -20z" />
    <glyph glyph-name="ubreve" unicode="&#x16d;" horiz-adv-x="594" 
d="M234 -10q-166 0 -166 225v306h68v-294q0 -177 121 -177q61 0 113 39t75 104v328h68v-433q0 -28 25 -28v-60q-20 -3 -28 -3q-23 0 -39.5 14t-16.5 35v72q-34 -60 -92.5 -94t-127.5 -34zM289 664q21 0 37.5 19t19.5 47h41q0 -43 -28.5 -72t-69.5 -29t-69.5 29t-28.5 72h42
q0 -26 17 -46t39 -20z" />
    <glyph glyph-name="Uring" unicode="&#x16e;" horiz-adv-x="755" 
d="M304 852q0 29 21 47t53 18t53 -18t21 -47q0 -30 -20.5 -48t-53.5 -18t-53.5 18t-20.5 48zM378 890q-17 0 -28.5 -10.5t-11.5 -27.5t11.5 -28t28.5 -11q16 0 28.5 11t12.5 28t-11.5 27.5t-29.5 10.5zM377 58q65 0 111.5 25t71.5 68.5t36 93t11 107.5v358h70v-358
q0 -74 -16.5 -136.5t-51 -113t-93.5 -79t-138 -28.5q-66 0 -118 20t-85.5 53.5t-55.5 80t-31 96.5t-9 107v358h69v-358q0 -59 11.5 -109t36.5 -93t71.5 -67.5t109.5 -24.5z" />
    <glyph glyph-name="uring" unicode="&#x16f;" horiz-adv-x="594" 
d="M215 665q0 29 20.5 47t53.5 18t53.5 -18t20.5 -47q0 -30 -20.5 -48t-53.5 -18t-53.5 18t-20.5 48zM289 703q-17 0 -28.5 -10.5t-11.5 -27.5t11.5 -28t28.5 -11q16 0 28.5 11t12.5 28t-11.5 27.5t-29.5 10.5zM234 -10q-166 0 -166 225v306h68v-294q0 -177 121 -177
q61 0 113 39t75 104v328h68v-433q0 -28 25 -28v-60q-20 -3 -28 -3q-23 0 -39.5 14t-16.5 35v72q-34 -60 -92.5 -94t-127.5 -34z" />
    <glyph glyph-name="Uhungarumlaut" unicode="&#x170;" horiz-adv-x="755" 
d="M377 58q65 0 111.5 25t71.5 68.5t36 93t11 107.5v358h70v-358q0 -74 -16.5 -136.5t-51 -113t-93.5 -79t-138 -28.5q-66 0 -118 20t-85.5 53.5t-55.5 80t-31 96.5t-9 107v358h69v-358q0 -59 11.5 -109t36.5 -93t71.5 -67.5t109.5 -24.5zM398 917l-84 -110l-37 17l57 93h64
zM523 917l-83 -110l-38 17l57 93h64z" />
    <glyph glyph-name="uhungarumlaut" unicode="&#x171;" horiz-adv-x="594" 
d="M234 -10q-166 0 -166 225v306h68v-294q0 -177 121 -177q61 0 113 39t75 104v328h68v-433q0 -28 25 -28v-60q-20 -3 -28 -3q-23 0 -39.5 14t-16.5 35v72q-34 -60 -92.5 -94t-127.5 -34zM309 730l-84 -110l-37 17l57 93h64zM434 730l-83 -110l-38 17l57 93h64z" />
    <glyph glyph-name="Uogonek" unicode="&#x172;" horiz-adv-x="755" 
d="M377 58q65 0 111.5 25t71.5 68.5t36 93t11 107.5v358h70v-358q0 -72 -15.5 -133t-48 -111t-87.5 -79.5t-129 -32.5q-80 -51 -80 -92q0 -37 52 -44l-19 -38q-36 7 -55.5 26.5t-19.5 46.5q0 49 74 101q-74 5 -128 36.5t-84 82.5t-44 110t-14 127v358h69v-358
q0 -59 11.5 -109t36.5 -93t71.5 -67.5t109.5 -24.5z" />
    <glyph glyph-name="uogonek" unicode="&#x173;" horiz-adv-x="594" 
d="M234 -10q-166 0 -166 225v306h68v-294q0 -177 121 -177q61 0 113 39t75 104v328h68v-433q0 -28 25 -28v-60q-82 -51 -82 -93q0 -37 52 -44l-19 -38q-36 7 -55.5 26.5t-19.5 46.5q0 50 75 102q-35 12 -35 46v72q-34 -60 -92.5 -94t-127.5 -34z" />
    <glyph glyph-name="Wcircumflex" unicode="&#x174;" horiz-adv-x="1046" 
d="M437 811l-38 21l98 85h50l99 -85l-39 -21l-85 63zM479 402l-124 303h67l100 -252l101 252h66l-124 -303l136 -321l257 629h76l-300 -710h-62l-149 351l-150 -351h-62l-299 710h74l258 -629z" />
    <glyph glyph-name="wcircumflex" unicode="&#x175;" horiz-adv-x="815" 
d="M322 624l-38 21l98 85h50l99 -85l-39 -21l-85 63zM544 70l189 451h66l-223 -521h-57l-111 266l-111 -266h-57l-223 521h65l190 -451l99 238l-89 212h58l68 -170l67 170h58l-88 -212z" />
    <glyph glyph-name="Ycircumflex" unicode="&#x176;" horiz-adv-x="634" 
d="M8 710h76l233 -382l234 382h76l-276 -446v-264h-69v266zM231 811l-38 21l98 85h50l99 -85l-39 -21l-85 63z" />
    <glyph glyph-name="ycircumflex" unicode="&#x177;" horiz-adv-x="542" 
d="M103 -221v60q12 -2 20 -2q24 0 38 6q11 5 26 34t53 123l-227 521h71l193 -458l178 458h65l-271 -672q-15 -38 -41 -55.5t-71 -17.5q-19 0 -34 3zM191 624l-38 21l98 85h50l99 -85l-39 -21l-85 63z" />
    <glyph glyph-name="Ydieresis" unicode="&#x178;" horiz-adv-x="634" 
d="M8 710h76l233 -382l234 382h76l-276 -446v-264h-69v266zM271 820h-58v94h58v-94zM420 820h-58v94h58v-94z" />
    <glyph glyph-name="Zacute" unicode="&#x179;" horiz-adv-x="624" 
d="M420 917l-86 -110l-45 17l59 93h72zM28 0v55l483 593h-475v62h556v-55l-477 -593h476v-62h-563z" />
    <glyph glyph-name="zacute" unicode="&#x17a;" horiz-adv-x="486" 
d="M346 730l-86 -110l-45 17l59 93h72zM28 0v46l352 424h-344v51h418v-46l-350 -424h350v-51h-426z" />
    <glyph glyph-name="Zdotaccent" unicode="&#x17b;" horiz-adv-x="624" 
d="M28 0v55l483 593h-475v62h556v-55l-477 -593h476v-62h-563zM359 820h-62v97h62v-97z" />
    <glyph glyph-name="zdotaccent" unicode="&#x17c;" horiz-adv-x="486" 
d="M28 0v46l352 424h-344v51h418v-46l-350 -424h350v-51h-426zM284 633h-62v97h62v-97z" />
    <glyph glyph-name="Zcaron" unicode="&#x17d;" horiz-adv-x="624" 
d="M205 897l38 20l85 -63l85 63l39 -20l-99 -86h-50zM28 0v55l483 593h-475v62h556v-55l-477 -593h476v-62h-563z" />
    <glyph glyph-name="zcaron" unicode="&#x17e;" horiz-adv-x="486" 
d="M130 710l38 20l85 -63l85 63l39 -20l-99 -86h-50zM28 0v46l352 424h-344v51h418v-46l-350 -424h350v-51h-426z" />
    <glyph glyph-name="florin" unicode="&#x192;" horiz-adv-x="526" 
d="M145 -181q-72 0 -114 39l33 46q27 -24 73 -24q36 0 64.5 27t28.5 66v433h-72v54h72v75q0 95 41 150t112 55q64 0 110 -33l-21 -49q-30 23 -76 23q-98 0 -98 -144v-77h144v-54h-144v-431q0 -67 -46.5 -111.5t-106.5 -44.5z" />
    <glyph glyph-name="Oogonek" unicode="&#x1ea;" 
d="M351 -178q-36 7 -55.5 26.5t-19.5 46.5q0 50 74 102q-133 11 -219 117t-86 241q0 145 97 252.5t237 107.5q95 0 172.5 -53.5t118.5 -135.5t41 -172q0 -139 -90 -244t-223 -114q-80 -50 -80 -92q0 -37 52 -44zM115 355q0 -119 74.5 -208t188.5 -89q115 0 189 90.5
t74 206.5q0 119 -75 207.5t-188 88.5q-116 0 -189.5 -90t-73.5 -206z" />
    <glyph glyph-name="oogonek" unicode="&#x1eb;" horiz-adv-x="597" 
d="M290 -181q-36 7 -55.5 26.5t-19.5 46.5q0 49 70 98q-107 6 -176 83.5t-69 185.5q0 111 74.5 191t184.5 80t184.5 -80t74.5 -191q0 -101 -62 -177t-159 -89q-80 -51 -80 -92q0 -37 52 -44zM110 258q0 -87 55 -147.5t133 -60.5t134 61.5t56 148.5t-56 148.5t-133 61.5
q-78 0 -133.5 -62t-55.5 -150z" />
    <glyph glyph-name="Aringacute" unicode="&#x1fa;" horiz-adv-x="679" 
d="M437 918l-59 -112q36 -18 36 -57q0 -41 -37 -59l289 -690h-75l-92 222h-319l-91 -222h-74l289 690q-38 16 -38 59q0 26 17 43.5t45 20.5l37 105h72zM483 277l-142 351l-146 -351h288zM340 787q-17 0 -28.5 -10.5t-11.5 -27.5t11.5 -28t28.5 -11q16 0 28.5 11t12.5 28
t-11.5 27.5t-29.5 10.5z" />
    <glyph glyph-name="aringacute" unicode="&#x1fb;" horiz-adv-x="548" 
d="M211 -10q-79 0 -129 46.5t-50 112.5q0 72 61 116t159 44q85 0 153 -27v47q0 69 -39.5 109.5t-106.5 40.5q-80 0 -168 -62l-24 45q101 68 199 68q95 0 151 -55.5t56 -151.5v-235q0 -28 24 -28v-60q-22 -2 -27 -2q-22 0 -38 12.5t-17 35.5l-2 41q-33 -45 -88.5 -71
t-113.5 -26zM228 42q46 0 90.5 20t69.5 53q17 23 17 39v85q-71 27 -143 27q-74 0 -119 -30t-45 -81q0 -45 34.5 -79t95.5 -34zM355 880l-86 -110l-45 17l59 93h72zM188 665q0 29 21 47t53 18t53 -18t21 -47q0 -30 -20.5 -48t-53.5 -18t-53.5 18t-20.5 48zM262 703
q-17 0 -28.5 -10.5t-11.5 -27.5t11.5 -28t28.5 -11q16 0 28.5 11t12.5 28t-11.5 27.5t-29.5 10.5z" />
    <glyph glyph-name="AEacute" unicode="&#x1fc;" horiz-adv-x="991" 
d="M629 917l-86 -110l-45 17l59 93h72zM-1 0l457 710h481v-62h-394v-255h340v-62h-340v-269h403v-62h-471v222h-259l-141 -222h-76zM248 284h222v342z" />
    <glyph glyph-name="aeacute" unicode="&#x1fd;" horiz-adv-x="932" 
d="M536 730l-86 -110l-45 17l59 93h72zM206 -10q-73 0 -122.5 47t-49.5 115q0 69 60.5 113t156.5 44q69 0 134 -20q4 45 17 76q-9 53 -47 83.5t-97 30.5q-76 0 -166 -62l-24 45q101 68 196 68q131 0 180 -104q34 48 86 76t113 28q112 0 185.5 -78.5t74.5 -191.5
q0 -20 -1 -24h-453q7 -84 64.5 -139t135.5 -55q52 0 97 26t63 68l59 -16q-24 -57 -85.5 -93.5t-136.5 -36.5q-67 0 -123 31t-91 84q-32 -57 -95.5 -86t-130.5 -29zM222 42q53 0 98 20t68 53q16 16 18 35q-19 38 -21 96q-60 20 -125 20q-72 0 -117 -30t-45 -79t36 -82t88 -33
zM449 282h389q-6 85 -61 140t-135 55q-79 0 -133.5 -55t-59.5 -140z" />
    <glyph glyph-name="Oslashacute" unicode="&#x1fe;" 
d="M575 710h78l-57 -85q54 -53 84.5 -124.5t30.5 -146.5q0 -145 -96.5 -252t-236.5 -107q-93 0 -169 49l-29 -44h-77l56 84q-54 52 -84 123t-30 148q0 145 97 252.5t237 107.5q89 0 166 -49zM641 355q0 126 -82 214l-314 -471q61 -40 133 -40q115 0 189 90.5t74 206.5z
M115 355q0 -127 81 -216l313 472q-61 40 -131 40q-116 0 -189.5 -90t-73.5 -206zM471 917l-86 -110l-45 17l59 93h72z" />
    <glyph glyph-name="oslashacute" unicode="&#x1ff;" horiz-adv-x="595" 
d="M93 -1l39 51q-93 80 -93 209q0 111 74.5 191t184.5 80q72 0 134 -38l23 31h47l-40 -54q95 -81 95 -210q0 -111 -74 -190t-185 -79q-75 0 -137 38l-22 -29h-46zM109 258q0 -96 63 -157l224 338q-47 31 -98 31q-78 0 -133.5 -62t-55.5 -150zM297 50q78 0 134 61.5t56 148.5
q0 93 -64 157l-224 -337q44 -30 98 -30zM390 730l-86 -110l-45 17l59 93h72z" />
    <glyph glyph-name="uni0218" unicode="&#x218;" horiz-adv-x="612" 
d="M271 -165v34q21 0 21 18v64h58v-64q0 -52 -79 -52zM540 633l-33 -56q-68 76 -194 76q-181 0 -181 -132q0 -59 43 -85t155 -51q127 -27 186 -68.5t59 -130.5q0 -95 -69.5 -143.5t-185.5 -48.5q-167 0 -285 103l34 57q41 -43 108 -70.5t144 -27.5q86 0 133.5 31t47.5 92
t-49 91t-166 56q-121 28 -173.5 66t-52.5 119q0 97 69.5 150.5t183.5 53.5q133 0 226 -82z" />
    <glyph glyph-name="uni0219" unicode="&#x219;" horiz-adv-x="487" 
d="M198 -165v34q21 0 21 18v64h58v-64q0 -52 -79 -52zM248 -10q-133 0 -219 78l31 46q87 -72 187 -72q63 0 100.5 26t37.5 72q0 40 -34 59t-123 40q-100 25 -137.5 50t-37.5 83q0 76 55.5 117t139.5 41q120 0 188 -71l-33 -40q-58 60 -157 60q-57 0 -92.5 -24t-35.5 -73
q0 -39 26.5 -55t103.5 -34q112 -27 157.5 -56t45.5 -91q0 -71 -55.5 -113.5t-147.5 -42.5z" />
    <glyph glyph-name="uni021A" unicode="&#x21a;" horiz-adv-x="614" 
d="M259 -165v34q21 0 21 18v64h58v-64q0 -52 -79 -52zM595 710v-62h-253v-648h-70v648h-253v62h576z" />
    <glyph glyph-name="uni021B" unicode="&#x21b;" horiz-adv-x="332" 
d="M156 -165v34q21 0 21 18v64h58v-64q0 -52 -79 -52zM307 80l18 -55q-71 -31 -118 -31t-78.5 26t-31.5 74v373h-72v54h72v176h68v-176h120v-54h-120v-354q2 -27 19.5 -41.5t43.5 -14.5q42 0 79 23z" />
    <glyph glyph-name="dotlessj" unicode="&#x237;" horiz-adv-x="214" 
d="M-12 -181q-72 0 -114 39l33 46q27 -24 73 -24q36 0 64.5 27t28.5 66v548h68v-544q0 -67 -46.5 -112.5t-106.5 -45.5z" />
    <glyph glyph-name="schwa" unicode="&#x259;" horiz-adv-x="587" 
d="M290 -10q-112 0 -186 78.5t-75 190.5q0 15 2 25h445q-6 83 -61 138t-131 55q-52 0 -97 -26t-63 -67l-59 16q24 57 85.5 93.5t136.5 36.5q111 0 186 -80t75 -193q0 -111 -73 -189t-185 -78zM290 42q76 0 129.5 55.5t58.5 139.5h-382q5 -84 61 -139.5t133 -55.5z" />
    <glyph glyph-name="apostrophe" unicode="&#x2bc;" horiz-adv-x="367" 
d="M268 730l-87 -110l-45 17l38 59v34h94z" />
    <glyph glyph-name="circumflex" unicode="&#x2c6;" horiz-adv-x="330" 
d="M80 624l-38 21l98 85h50l99 -85l-39 -21l-85 63z" />
    <glyph glyph-name="caron" unicode="&#x2c7;" horiz-adv-x="330" 
d="M42 710l38 20l85 -63l85 63l39 -20l-99 -86h-50z" />
    <glyph glyph-name="breve" unicode="&#x2d8;" horiz-adv-x="282" 
d="M141 664q21 0 37.5 19t19.5 47h41q0 -43 -28.5 -72t-69.5 -29t-69.5 29t-28.5 72h42q0 -26 17 -46t39 -20z" />
    <glyph glyph-name="dotaccent" unicode="&#x2d9;" horiz-adv-x="162" 
d="M112 633h-62v97h62v-97z" />
    <glyph glyph-name="ring" unicode="&#x2da;" horiz-adv-x="248" 
d="M50 665q0 29 21 47t53 18t53 -18t21 -47q0 -30 -20.5 -48t-53.5 -18t-53.5 18t-20.5 48zM124 703q-17 0 -28.5 -10.5t-11.5 -27.5t11.5 -28t28.5 -11q16 0 28.5 11t12.5 28t-11.5 27.5t-29.5 10.5z" />
    <glyph glyph-name="ogonek" unicode="&#x2db;" horiz-adv-x="240" 
d="M130 -175q-36 7 -55.5 26.5t-19.5 46.5q0 57 102 119l22 -17q-82 -51 -82 -93q0 -37 52 -44z" />
    <glyph glyph-name="tilde" unicode="&#x2dc;" horiz-adv-x="406" 
d="M264 638q-32 0 -70.5 20t-57.5 20q-20 0 -32 -12t-15 -21t-3 -15h-42q0 12 6 31t28.5 40.5t56.5 21.5q29 0 66.5 -21t61.5 -21q23 0 37.5 12.5t17 21.5t2.5 15h42q0 -7 -4.5 -20t-14 -30.5t-30.5 -29.5t-49 -12z" />
    <glyph glyph-name="hungarumlaut" unicode="&#x2dd;" horiz-adv-x="326" 
d="M164 730l-84 -110l-37 17l57 93h64zM289 730l-83 -110l-38 17l57 93h64z" />
    <glyph glyph-name="uni03BC" unicode="&#x3bc;" horiz-adv-x="600" 
d="M73 -212v733h68v-294q0 -177 123 -177q60 0 112 39t75 104v328h68v-433q0 -28 25 -28v-60q-20 -3 -29 -3q-23 0 -39 14t-16 35v72q-28 -55 -83 -91.5t-116 -36.5q-92 0 -123 85v-287h-65z" />
    <glyph glyph-name="Ndotaccent" unicode="&#x1e44;" horiz-adv-x="773" 
d="M420 820h-62v97h62v-97zM623 0l-464 580v-580h-69v710h54l470 -591v590h69v-709h-60z" />
    <glyph glyph-name="ndotaccent" unicode="&#x1e45;" horiz-adv-x="579" 
d="M325 633h-62v97h62v-97zM511 305v-305h-68v291q0 92 -27 134.5t-84 42.5q-61 0 -116.5 -42.5t-74.5 -106.5v-319h-68v521h62v-118q32 57 92 92t129 35q84 0 119.5 -58t35.5 -167z" />
    <glyph glyph-name="Wgrave" unicode="&#x1e80;" horiz-adv-x="1046" 
d="M479 402l-124 303h67l100 -252l101 252h66l-124 -303l136 -321l257 629h76l-300 -710h-62l-149 351l-150 -351h-62l-299 710h74l258 -629zM516 807l-87 110h71l60 -93z" />
    <glyph glyph-name="wgrave" unicode="&#x1e81;" horiz-adv-x="815" 
d="M544 70l189 451h66l-223 -521h-57l-111 266l-111 -266h-57l-223 521h65l190 -451l99 238l-89 212h58l68 -170l67 170h58l-88 -212zM402 620l-87 110h71l60 -93z" />
    <glyph glyph-name="Wacute" unicode="&#x1e82;" horiz-adv-x="1046" 
d="M614 917l-86 -110l-45 17l59 93h72zM479 402l-124 303h67l100 -252l101 252h66l-124 -303l136 -321l257 629h76l-300 -710h-62l-149 351l-150 -351h-62l-299 710h74l258 -629z" />
    <glyph glyph-name="wacute" unicode="&#x1e83;" horiz-adv-x="815" 
d="M500 730l-86 -110l-45 17l59 93h72zM544 70l189 451h66l-223 -521h-57l-111 266l-111 -266h-57l-223 521h65l190 -451l99 238l-89 212h58l68 -170l67 170h58l-88 -212z" />
    <glyph glyph-name="Wdieresis" unicode="&#x1e84;" horiz-adv-x="1046" 
d="M476 820h-58v94h58v-94zM625 820h-58v94h58v-94zM479 402l-124 303h67l100 -252l101 252h66l-124 -303l136 -321l257 629h76l-300 -710h-62l-149 351l-150 -351h-62l-299 710h74l258 -629z" />
    <glyph glyph-name="wdieresis" unicode="&#x1e85;" horiz-adv-x="815" 
d="M362 633h-58v94h58v-94zM511 633h-58v94h58v-94zM544 70l189 451h66l-223 -521h-57l-111 266l-111 -266h-57l-223 521h65l190 -451l99 238l-89 212h58l68 -170l67 170h58l-88 -212z" />
    <glyph glyph-name="Etilde" unicode="&#x1ebc;" horiz-adv-x="613" 
d="M159 62h408v-62h-477v710h468v-62h-399v-256h348v-59h-348v-271zM399 825q-32 0 -70.5 20t-57.5 20q-20 0 -32 -12t-15 -21t-3 -15h-42q0 12 6 31t28.5 40.5t56.5 21.5q29 0 66.5 -21t61.5 -21q23 0 37.5 12.5t17 21.5t2.5 15h42q0 -7 -4.5 -20t-14 -30.5t-30.5 -29.5
t-49 -12z" />
    <glyph glyph-name="etilde" unicode="&#x1ebd;" horiz-adv-x="587" 
d="M301 -10q-112 0 -187 79.5t-75 192.5q0 111 74.5 189.5t186.5 78.5q111 0 184 -78.5t74 -188.5q0 -19 -2 -27h-445q6 -83 61.5 -138.5t130.5 -55.5q52 0 97 26t63 68l59 -16q-24 -57 -85 -93.5t-136 -36.5zM109 288h384q-7 83 -61.5 136t-131.5 53t-131.5 -53.5
t-59.5 -135.5zM359 638q-32 0 -70.5 20t-57.5 20q-20 0 -32 -12t-15 -21t-3 -15h-42q0 12 6 31t28.5 40.5t56.5 21.5q29 0 66.5 -21t61.5 -21q23 0 37.5 12.5t17 21.5t2.5 15h42q0 -7 -4.5 -20t-14 -30.5t-30.5 -29.5t-49 -12z" />
    <glyph glyph-name="Ygrave" unicode="&#x1ef2;" horiz-adv-x="634" 
d="M8 710h76l233 -382l234 382h76l-276 -446v-264h-69v266zM311 807l-87 110h71l60 -93z" />
    <glyph glyph-name="ygrave" unicode="&#x1ef3;" horiz-adv-x="542" 
d="M103 -221v60q12 -2 20 -2q24 0 38 6q11 5 26 34t53 123l-227 521h71l193 -458l178 458h65l-271 -672q-15 -38 -41 -55.5t-71 -17.5q-19 0 -34 3zM271 620l-87 110h71l60 -93z" />
    <glyph glyph-name="Ytilde" unicode="&#x1ef8;" horiz-adv-x="634" 
d="M8 710h76l233 -382l234 382h76l-276 -446v-264h-69v266zM378 825q-32 0 -70.5 20t-57.5 20q-20 0 -32 -12t-15 -21t-3 -15h-42q0 12 6 31t28.5 40.5t56.5 21.5q29 0 66.5 -21t61.5 -21q23 0 37.5 12.5t17 21.5t2.5 15h42q0 -7 -4.5 -20t-14 -30.5t-30.5 -29.5t-49 -12z
" />
    <glyph glyph-name="ytilde" unicode="&#x1ef9;" horiz-adv-x="542" 
d="M103 -221v60q12 -2 20 -2q24 0 38 6q11 5 26 34t53 123l-227 521h71l193 -458l178 458h65l-271 -672q-15 -38 -41 -55.5t-71 -17.5q-19 0 -34 3zM338 638q-32 0 -70.5 20t-57.5 20q-20 0 -32 -12t-15 -21t-3 -15h-42q0 12 6 31t28.5 40.5t56.5 21.5q29 0 66.5 -21
t61.5 -21q23 0 37.5 12.5t17 21.5t2.5 15h42q0 -7 -4.5 -20t-14 -30.5t-30.5 -29.5t-49 -12z" />
    <glyph glyph-name="endash" unicode="&#x2013;" horiz-adv-x="570" 
d="M505 241h-439v63h439v-63z" />
    <glyph glyph-name="emdash" unicode="&#x2014;" horiz-adv-x="901" 
d="M836 241h-770v63h770v-63z" />
    <glyph glyph-name="quoteleft" unicode="&#x2018;" horiz-adv-x="198" 
d="M137 598v-52q-33 0 -56 16t-23 48v120h58v-111q0 -21 21 -21z" />
    <glyph glyph-name="quoteright" unicode="&#x2019;" horiz-adv-x="198" 
d="M53 678v52q33 0 56 -16t23 -48v-120h-58v111q0 21 -21 21z" />
    <glyph glyph-name="quotesinglbase" unicode="&#x201a;" horiz-adv-x="205" 
d="M55 -67v52q21 0 21 21v92h58v-102q0 -32 -23.5 -47.5t-55.5 -15.5z" />
    <glyph glyph-name="quotedblleft" unicode="&#x201c;" horiz-adv-x="326" 
d="M137 598v-52q-33 0 -56 16t-23 48v120h58v-111q0 -21 21 -21zM265 598v-52q-33 0 -56 16t-23 48v120h58v-111q0 -21 21 -21z" />
    <glyph glyph-name="quotedblright" unicode="&#x201d;" horiz-adv-x="326" 
d="M53 678v52q33 0 56 -16t23 -48v-120h-58v111q0 21 -21 21zM181 678v52q33 0 56 -16t23 -48v-120h-58v111q0 21 -21 21z" />
    <glyph glyph-name="quotedblbase" unicode="&#x201e;" horiz-adv-x="322" 
d="M55 -67v52q21 0 21 21v92h58v-102q0 -32 -23.5 -47.5t-55.5 -15.5zM172 -67v52q21 0 21 21v92h58v-102q0 -32 -23.5 -47.5t-55.5 -15.5z" />
    <glyph glyph-name="dagger" unicode="&#x2020;" horiz-adv-x="414" 
d="M240 -130h-65v370h-132v62h132v473h65v-473h131v-62h-131v-370z" />
    <glyph glyph-name="daggerdbl" unicode="&#x2021;" horiz-adv-x="423" 
d="M245 -130h-66v289h-132v63h132v110h-132v63h132v380h66v-380h131v-63h-131v-110h131v-63h-131v-289z" />
    <glyph glyph-name="bullet" unicode="&#x2022;" horiz-adv-x="355" 
d="M267 346q0 -37 -26 -63.5t-63 -26.5t-63.5 26.5t-26.5 63.5q0 36 26.5 62.5t63.5 26.5t63 -26.5t26 -62.5z" />
    <glyph glyph-name="ellipsis" unicode="&#x2026;" horiz-adv-x="458" 
d="M124 0h-58v98h58v-98zM258 0h-58v98h58v-98zM392 0h-58v98h58v-98z" />
    <glyph glyph-name="perthousand" unicode="&#x2030;" horiz-adv-x="1070" 
d="M199 433q-62 0 -106 42t-44 101q0 60 44 102t106 42t105.5 -42t43.5 -102q0 -59 -43.5 -101t-105.5 -42zM199 472q40 0 69 31t29 73q0 43 -29.5 73.5t-68.5 30.5q-41 0 -70 -31t-29 -73q0 -43 29.5 -73.5t69.5 -30.5zM534 -10q-62 0 -105.5 42t-43.5 102q0 59 43.5 101
t105.5 42t106 -42t44 -101q0 -60 -44 -102t-106 -42zM534 30q41 0 70 31t29 73t-30 73t-69 31q-40 0 -69 -31t-29 -73q0 -43 29 -73.5t69 -30.5zM887 -10q-62 0 -106 42t-44 102q0 59 44 101t106 42t105.5 -42t43.5 -101q0 -60 -43.5 -102t-105.5 -42zM887 30q40 0 69 31
t29 73t-29.5 73t-68.5 31q-41 0 -70 -31t-29 -73q0 -43 29 -73.5t70 -30.5zM108 -4l-35 31l280 340l271 347l35 -30l-278 -340z" />
    <glyph glyph-name="guilsinglleft" unicode="&#x2039;" horiz-adv-x="357" 
d="M44 239v37l249 178v-59l-193 -136l193 -134v-59z" />
    <glyph glyph-name="guilsinglright" unicode="&#x203a;" horiz-adv-x="357" 
d="M312 276v-37l-248 -173v59l193 134l-193 136v59z" />
    <glyph glyph-name="fraction" unicode="&#x2044;" horiz-adv-x="154" 
d="M-181 -4l-35 31l280 340l271 347l35 -30l-278 -340z" />
    <glyph glyph-name="zerosuperior" unicode="&#x2070;" horiz-adv-x="458" 
d="M230 326q-60 0 -105.5 32.5t-66 77.5t-20.5 92q0 77 53.5 139.5t138.5 62.5q87 0 138.5 -64t51.5 -138q0 -78 -53 -140t-137 -62zM84 528q0 -61 39.5 -109.5t106.5 -48.5q68 0 106.5 50t38.5 108q0 60 -40 109t-105 49q-68 0 -107 -50.5t-39 -107.5z" />
    <glyph glyph-name="foursuperior" unicode="&#x2074;" horiz-adv-x="384" 
d="M297 331h-45v103h-228v42l242 254h31v-253h57v-43h-57v-103zM253 669l-181 -192h181v192z" />
    <glyph glyph-name="fivesuperior" unicode="&#x2075;" horiz-adv-x="377" 
d="M191 585q65 0 108.5 -35.5t43.5 -90.5q0 -59 -46.5 -96t-115.5 -37q-49 0 -88.5 20t-59.5 55l30 25q40 -58 121 -58q49 0 81 25t32 66q0 42 -33.5 66t-77.5 24q-30 0 -58 -13t-44 -34h-42q4 22 27 116.5t26 111.5h223v-44h-189l-33 -131q36 30 95 30z" />
    <glyph glyph-name="sixsuperior" unicode="&#x2076;" horiz-adv-x="405" 
d="M372 460q0 -58 -48 -98t-117 -40q-75 0 -120.5 46t-45.5 125q0 116 46 176.5t126 60.5q45 0 81.5 -19t54.5 -52l-27 -29q-14 26 -44.5 42t-66.5 16q-58 0 -92.5 -42t-35.5 -117q15 29 50.5 47t76.5 18q69 0 115.5 -39t46.5 -95zM208 363q49 0 85 28.5t36 67.5
q0 40 -36 68t-86 28t-85.5 -28t-35.5 -67q0 -40 36 -68.5t86 -28.5z" />
    <glyph glyph-name="sevensuperior" unicode="&#x2077;" horiz-adv-x="352" 
d="M62 331l214 355h-249v44h321l-235 -399h-51z" />
    <glyph glyph-name="eightsuperior" unicode="&#x2078;" horiz-adv-x="398" 
d="M359 442q0 -51 -47.5 -83.5t-114.5 -32.5q-69 0 -114 34.5t-45 83.5q0 36 26.5 61.5t65.5 39.5q-76 27 -76 83q0 45 44.5 73.5t100.5 28.5t100 -28t44 -73q0 -29 -21.5 -51t-55.5 -33q42 -13 67.5 -39.5t25.5 -63.5zM314 447q0 35 -35.5 56.5t-80.5 21.5t-80 -22t-35 -56
q0 -35 36 -56t80 -21q45 0 80 21.5t35 55.5zM99 625q0 -29 30.5 -46t68.5 -17t69.5 17.5t31.5 45.5t-30 45t-71 17t-70 -17t-29 -45z" />
    <glyph glyph-name="ninesuperior" unicode="&#x2079;" horiz-adv-x="405" 
d="M34 592q0 58 47.5 98t116.5 40q75 0 121 -46t46 -125q0 -116 -46 -176.5t-126 -60.5q-45 0 -82 19t-55 53l28 28q14 -26 43.5 -42t66.5 -16q58 0 93 42t35 117q-14 -29 -50 -47.5t-77 -18.5q-68 0 -114.5 39.5t-46.5 95.5zM197 689q-49 0 -84.5 -28.5t-35.5 -67.5
t36 -67.5t85 -28.5t85 28.5t36 66.5q0 39 -36.5 68t-85.5 29z" />
    <glyph glyph-name="zeroinferior" unicode="&#x2080;" horiz-adv-x="458" 
d="M230 -5q-60 0 -105.5 32.5t-66 77.5t-20.5 92q0 77 53.5 139.5t138.5 62.5q87 0 138.5 -64t51.5 -138q0 -78 -53 -140t-137 -62zM84 197q0 -61 39.5 -109.5t106.5 -48.5q68 0 106.5 50.5t38.5 107.5q0 60 -40 109t-105 49q-68 0 -107 -50t-39 -108z" />
    <glyph glyph-name="oneinferior" unicode="&#x2081;" horiz-adv-x="286" 
d="M182 44h83v-44h-217v44h89v309q-12 -15 -45.5 -31.5t-57.5 -16.5v44q20 0 45.5 13.5t41 26.5t16.5 16h45v-361z" />
    <glyph glyph-name="twoinferior" unicode="&#x2082;" horiz-adv-x="392" 
d="M350 0h-314q0 75 30 116.5t96 67.5q7 3 30.5 11t33 12t27 13t25.5 17t14.5 21t6.5 28q0 32 -26.5 53.5t-75.5 21.5q-76 0 -127 -56l-30 32q9 11 25 24t55 28t83 15q70 0 108 -33t38 -86q0 -24 -10 -43.5t-22.5 -31t-35.5 -23t-35.5 -15.5l-36.5 -12q-61 -19 -88 -51.5
t-27 -64.5h256v-44z" />
    <glyph glyph-name="threeinferior" unicode="&#x2083;" horiz-adv-x="392" 
d="M191 -5q-63 0 -105.5 24t-49.5 65l27 28q3 -27 39.5 -50t88.5 -23q49 0 82.5 20t33.5 51q0 35 -40 55t-109 20h-23v40h23q135 0 135 67q0 31 -31 51t-75 20q-82 0 -116 -56l-31 34q18 29 58.5 46t88.5 17q66 0 110 -31t44 -78q0 -69 -91 -89q47 -7 75 -35t28 -67
q0 -50 -47 -79.5t-115 -29.5z" />
    <glyph glyph-name="fourinferior" unicode="&#x2084;" horiz-adv-x="384" 
d="M297 0h-45v103h-228v42l242 254h31v-252h57v-44h-57v-103zM253 338l-181 -191h181v191z" />
    <glyph glyph-name="fiveinferior" unicode="&#x2085;" horiz-adv-x="376" 
d="M190 254q65 0 108.5 -35.5t43.5 -91.5q0 -58 -46.5 -95t-115.5 -37q-48 0 -88 20.5t-60 53.5l30 26q40 -58 121 -58q49 0 81 25.5t32 65.5q0 42 -33.5 66t-77.5 24q-30 0 -58 -13t-44 -34h-42q4 22 27 116.5t26 111.5h223v-44h-189l-33 -130q35 29 95 29z" />
    <glyph glyph-name="sixinferior" unicode="&#x2086;" horiz-adv-x="405" 
d="M372 132q0 -57 -48 -97t-117 -40q-75 0 -120.5 46t-45.5 125q0 116 46 176t126 60q45 0 81.5 -19t54.5 -52l-27 -29q-14 26 -44 42t-67 16q-58 0 -92.5 -42t-35.5 -117q15 30 51 48t76 18q69 0 115.5 -39t46.5 -96zM208 36q49 0 85 28.5t36 66.5q0 40 -36 68.5t-86 28.5
q-49 0 -85 -28.5t-36 -67.5t36 -67.5t86 -28.5z" />
    <glyph glyph-name="seveninferior" unicode="&#x2087;" horiz-adv-x="352" 
d="M62 0l215 355h-250v44h321l-235 -399h-51z" />
    <glyph glyph-name="eightinferior" unicode="&#x2088;" horiz-adv-x="398" 
d="M359 111q0 -51 -47.5 -83.5t-114.5 -32.5q-69 0 -114 34.5t-45 83.5q0 36 26.5 62t65.5 39q-76 27 -76 83q0 46 44.5 74t100.5 28t100 -28t44 -73q0 -29 -21.5 -51t-55.5 -33q42 -13 67.5 -39.5t25.5 -63.5zM314 116q0 35 -35.5 56.5t-80.5 21.5t-80 -22t-35 -57
q0 -34 36 -55t80 -21q45 0 80 21.5t35 55.5zM99 293q0 -28 31 -45t68 -17q38 0 69.5 17.5t31.5 45.5t-30.5 45.5t-70.5 17.5t-69.5 -18t-29.5 -46z" />
    <glyph glyph-name="nineinferior" unicode="&#x2089;" horiz-adv-x="405" 
d="M34 265q0 57 47.5 97t116.5 40q75 0 121 -46t46 -125q0 -116 -46 -176t-126 -60q-46 0 -82.5 19t-54.5 52l28 29q14 -26 43.5 -42t66.5 -16q58 0 93 42t35 116q-14 -29 -50 -47t-77 -18q-68 0 -114.5 39t-46.5 96zM197 361q-49 0 -84.5 -28.5t-35.5 -67.5t36 -67t85 -28
q50 0 85.5 28t35.5 67t-36 67.5t-86 28.5z" />
    <glyph glyph-name="Euro" unicode="&#x20ac;" horiz-adv-x="803" 
d="M81 416h60q19 123 108 210.5t225 87.5q92 0 160 -42t102 -113l-56 -34q-21 45 -57.5 74t-74 40.5t-78.5 11.5q-104 0 -172 -68t-86 -167h338l-18 -43h-325q0 -39 3 -62h304l-19 -43h-276q25 -92 95 -151.5t159 -59.5q65 0 126 33.5t93 98.5l58 -30q-33 -76 -114 -120.5
t-167 -44.5q-117 0 -204.5 79.5t-116.5 194.5h-114l18 43h88q-3 24 -3 62h-74z" />
    <glyph glyph-name="trademark" unicode="&#x2122;" horiz-adv-x="725" 
d="M297 712v-48h-95v-240h-48v240h-95v48h238zM495 523l85 187h67v-286h-48v217l-84 -175h-40l-84 175v-217h-48v286h66z" />
    <glyph glyph-name="onethird" unicode="&#x2153;" horiz-adv-x="867" 
d="M664 -5q-63 0 -105.5 24t-49.5 65l27 28q3 -27 39.5 -50t88.5 -23q49 0 82.5 20t33.5 51q0 35 -40 55t-109 20h-23v40h23q135 0 135 67q0 31 -31 51t-75 20q-82 0 -116 -56l-31 34q18 29 58.5 46t88.5 17q66 0 110 -31t44 -78q0 -69 -91 -89q47 -7 75 -35t28 -67
q0 -50 -47 -79.5t-115 -29.5zM190 371h75v-45h-202v45h81v309q-12 -15 -42.5 -32t-52.5 -17v45q19 0 42.5 13.5t37.5 26t15 15.5h46v-360zM138 -4l-35 31l280 340l271 347l35 -30l-278 -340z" />
    <glyph glyph-name="twothirds" unicode="&#x2154;" horiz-adv-x="882" 
d="M677 -5q-63 0 -105.5 24t-49.5 65l27 28q3 -27 39.5 -50t88.5 -23q49 0 82.5 20t33.5 51q0 35 -40 55t-109 20h-23v40h23q135 0 135 67q0 31 -31 51t-75 20q-82 0 -116 -56l-31 34q18 29 58.5 46t88.5 17q66 0 110 -31t44 -78q0 -69 -91 -89q47 -7 75 -35t28 -67
q0 -50 -47 -79.5t-115 -29.5zM349 327h-301q0 75 29 116t94 67l30 11.5l32 12.5t26.5 13t24.5 17.5t14.5 21t6.5 27.5q0 32 -26 53t-74 21q-74 0 -124 -55l-29 31q8 11 24 24.5t54 28.5t81 15q68 0 105 -33t37 -84q0 -19 -5 -35t-15.5 -28t-19.5 -20.5t-25.5 -16.5
t-25 -11.5t-26 -9t-20.5 -6.5q-104 -36 -104 -117h237v-43zM192 -4l-35 31l280 340l271 347l35 -30l-278 -340z" />
    <glyph glyph-name="oneeighth" unicode="&#x215b;" horiz-adv-x="865" 
d="M824 111q0 -51 -47.5 -83.5t-114.5 -32.5q-69 0 -114 34.5t-45 83.5q0 36 26.5 62t65.5 39q-76 27 -76 83q0 46 44.5 74t100.5 28t100 -28t44 -73q0 -29 -21.5 -51t-55.5 -33q42 -13 67.5 -39.5t25.5 -63.5zM779 116q0 35 -35.5 56.5t-80.5 21.5t-80 -22t-35 -57
q0 -34 36 -55t80 -21q45 0 80 21.5t35 55.5zM564 293q0 -28 31 -45t68 -17q38 0 69.5 17.5t31.5 45.5t-30.5 45.5t-70.5 17.5t-69.5 -18t-29.5 -46zM189 371h75v-45h-202v45h81v309q-12 -15 -42.5 -32t-52.5 -17v45q19 0 42.5 13.5t37.5 26t15 15.5h46v-360zM150 -4l-35 31
l280 340l271 347l35 -30l-278 -340z" />
    <glyph glyph-name="threeeighths" unicode="&#x215c;" horiz-adv-x="872" 
d="M201 321q-62 0 -105 24.5t-50 64.5l27 29q3 -27 39.5 -50t88.5 -23q50 0 83 19.5t33 51.5q0 35 -40 54.5t-109 19.5h-23v41h23q135 0 135 66q0 32 -31 52t-75 20q-82 0 -116 -56l-31 34q18 29 58.5 46t88.5 17q66 0 110 -31.5t44 -78.5q0 -69 -91 -88q47 -7 75 -35
t28 -67q0 -50 -47 -80t-115 -30zM830 111q0 -51 -47.5 -83.5t-114.5 -32.5q-69 0 -114 34.5t-45 83.5q0 36 26.5 62t65.5 39q-76 27 -76 83q0 46 44.5 74t100.5 28t100 -28t44 -73q0 -29 -21.5 -51t-55.5 -33q42 -13 67.5 -39.5t25.5 -63.5zM785 116q0 35 -35.5 56.5
t-80.5 21.5t-80 -22t-35 -57q0 -34 36 -55t80 -21q45 0 80 21.5t35 55.5zM570 293q0 -28 31 -45t68 -17q38 0 69.5 17.5t31.5 45.5t-30.5 45.5t-70.5 17.5t-69.5 -18t-29.5 -46zM176 -4l-35 31l280 340l271 347l35 -30l-278 -340z" />
    <glyph glyph-name="fiveeighths" unicode="&#x215d;" horiz-adv-x="876" 
d="M835 111q0 -51 -47.5 -83.5t-114.5 -32.5q-69 0 -114 34.5t-45 83.5q0 36 26.5 62t65.5 39q-76 27 -76 83q0 46 44.5 74t100.5 28t100 -28t44 -73q0 -29 -21.5 -51t-55.5 -33q42 -13 67.5 -39.5t25.5 -63.5zM790 116q0 35 -35.5 56.5t-80.5 21.5t-80 -22t-35 -57
q0 -34 36 -55t80 -21q45 0 80 21.5t35 55.5zM575 293q0 -28 31 -45t68 -17q38 0 69.5 17.5t31.5 45.5t-30.5 45.5t-70.5 17.5t-69.5 -18t-29.5 -46zM198 585q65 0 108.5 -35.5t43.5 -90.5q0 -59 -46.5 -96t-115.5 -37q-49 0 -88.5 20t-59.5 55l30 25q40 -58 121 -58
q49 0 81 25t32 66q0 42 -33.5 66t-77.5 24q-30 0 -58 -13t-44 -34h-42q4 22 27 116.5t26 111.5h223v-44h-189l-33 -131q36 30 95 30zM171 -4l-35 31l280 340l271 347l35 -30l-278 -340z" />
    <glyph glyph-name="seveneighths" unicode="&#x215e;" horiz-adv-x="856" 
d="M817 111q0 -51 -47.5 -83.5t-114.5 -32.5q-69 0 -114 34.5t-45 83.5q0 36 26.5 62t65.5 39q-76 27 -76 83q0 46 44.5 74t100.5 28t100 -28t44 -73q0 -29 -21.5 -51t-55.5 -33q42 -13 67.5 -39.5t25.5 -63.5zM772 116q0 35 -35.5 56.5t-80.5 21.5t-80 -22t-35 -57
q0 -34 36 -55t80 -21q45 0 80 21.5t35 55.5zM557 293q0 -28 31 -45t68 -17q38 0 69.5 17.5t31.5 45.5t-30.5 45.5t-70.5 17.5t-69.5 -18t-29.5 -46zM106 -4l-35 31l280 340l271 347l35 -30l-278 -340zM80 331l214 355h-249v44h321l-235 -399h-51z" />
    <glyph glyph-name="minus" unicode="&#x2212;" horiz-adv-x="544" 
d="M473 267h-403v56h403v-56z" />
    <glyph glyph-name="uni2215" unicode="&#x2215;" horiz-adv-x="580" 
d="M30 -4l-42 34l564 684l41 -34z" />
    <glyph glyph-name="uni2219" unicode="&#x2219;" horiz-adv-x="189" 
d="M124 246h-58v112h58v-112z" />
    <glyph glyph-name="commaaccent" unicode="&#xf6c3;" horiz-adv-x="154" 
d="M41 -165v34q21 0 21 18v64h58v-64q0 -52 -79 -52z" />
    <glyph glyph-name="s_t" unicode="&#xfb06;" horiz-adv-x="808" 
d="M784 80l17 -55q-62 -31 -116 -31q-48 0 -79 26t-31 74v373h-73v54h73q0 114 -17.5 151.5t-76.5 37.5q-114 0 -114 -101q0 -77 54 -149l-32 -40q-55 59 -146 59q-56 0 -94.5 -23t-38.5 -73q0 -23 9.5 -40t21.5 -26t35 -16t37 -9.5t40 -5.5q35 -5 57 -9t52.5 -14t47.5 -24
t30 -38.5t13 -56.5q0 -76 -59 -115t-142 -39q-62 0 -119 21.5t-97 54.5l30 47q88 -71 185 -71q56 0 97.5 23.5t41.5 73.5q0 18 -6.5 33t-21.5 24.5t-27 15.5t-35 10.5t-33 6t-32 4.5q-42 5 -71.5 12t-58 22t-43 41.5t-14.5 64.5q0 79 57 118t135 39q75 0 124 -31
q-2 4 -9.5 20.5t-9.5 22.5l-6.5 19t-6 24t-1.5 25q0 61 39 99t126 38q41 0 68.5 -10t43 -26t23.5 -47.5t10 -61t2 -81.5h118v-54h-118v-354q0 -27 18 -41.5t45 -14.5q37 0 78 23z" />
    <glyph glyph-name="A.sc" horiz-adv-x="586" 
d="M85 0h-68l250 548h52l248 -548h-66l-76 165h-265zM409 220l-116 250l-118 -250h234z" />
    <glyph glyph-name="B.sc" horiz-adv-x="578" 
d="M531 141q0 -61 -49 -101t-120 -40h-281v548h289q60 0 97.5 -42.5t37.5 -97.5q0 -42 -22.5 -76.5t-61.5 -50.5q51 -14 80.5 -51.5t29.5 -88.5zM468 152q0 40 -29 69.5t-71 29.5h-224v-197h218q44 0 75 29.5t31 68.5zM350 492h-206v-190h201q42 0 70.5 28t28.5 67
q0 41 -26.5 68t-67.5 27z" />
    <glyph glyph-name="C.sc" horiz-adv-x="598" 
d="M45 278q0 68 32.5 129.5t99 102.5t152.5 41q77 0 134.5 -32.5t86.5 -87.5l-50 -32q-50 95 -174 95q-100 0 -159 -66.5t-59 -152.5q0 -90 63.5 -156.5t156.5 -66.5q54 0 104.5 25t76.5 74l53 -29q-29 -58 -97 -92.5t-141 -34.5q-119 0 -199 86.5t-80 196.5z" />
    <glyph glyph-name="D.sc" horiz-adv-x="619" 
d="M286 0h-205v548h205q137 0 212 -77t75 -196q0 -125 -78 -200t-209 -75zM509 275q0 97 -59 157t-164 60h-142v-436h142q106 0 164.5 61t58.5 158z" />
    <glyph glyph-name="E.sc" horiz-adv-x="533" 
d="M144 56h341v-56h-404v548h396v-56h-333v-187h291v-52h-291v-197z" />
    <glyph glyph-name="F.sc" horiz-adv-x="507" 
d="M144 0h-63v548h393v-56h-330v-190h279v-54h-279v-248z" />
    <glyph glyph-name="G.alt" horiz-adv-x="735" 
d="M382 -5q-95 0 -173.5 52t-121 134.5t-42.5 175.5q0 144 96 251t240 107q87 0 157.5 -41t113.5 -112l-54 -45q-35 57 -92 96t-129 39q-115 0 -188.5 -90.5t-73.5 -207.5q0 -75 32 -142t93 -110.5t138 -43.5q98 0 168 67.5t86 160.5h-208v63h283q0 -2 -0.5 -19.5
t-0.5 -21.5q-12 -129 -103 -221t-221 -92z" />
    <glyph glyph-name="G.sc" horiz-adv-x="620" 
d="M511 0v76q-81 -80 -188 -80q-117 0 -197.5 85.5t-80.5 194.5q0 112 79 193.5t197 81.5q162 0 227 -119l-49 -33q-54 96 -180 96q-93 0 -152 -66t-59 -155q0 -91 63.5 -156t155.5 -65q102 0 184 88v82h-131v48h185v-271h-54z" />
    <glyph glyph-name="H.sc" horiz-adv-x="637" 
d="M493 548h62v-548h-62v252h-349v-252h-63v548h63v-239h349v239z" />
    <glyph glyph-name="I.sc" horiz-adv-x="225" 
d="M144 0h-63v547h63v-547z" />
    <glyph glyph-name="J.sc" horiz-adv-x="426" 
d="M23 25l18 51q46 -28 112 -28q36 0 60.5 10t39 26t22.5 46t10.5 60.5t2.5 78.5v278h62v-278q0 -71 -6.5 -115.5t-26 -84.5t-60 -58.5t-104.5 -18.5q-77 0 -130 33z" />
    <glyph glyph-name="K.sc" horiz-adv-x="560" 
d="M144 0h-63v547h63v-309l324 310h70l-244 -241l256 -307h-68l-227 270l-111 -102v-168z" />
    <glyph glyph-name="L.sc" horiz-adv-x="500" 
d="M474 0h-393v548h63v-492h330v-56z" />
    <glyph glyph-name="caron.alt" horiz-adv-x="222" 
d="M180 730l-86 -110l-45 17l59 93h72z" />
    <glyph glyph-name="M.sc" horiz-adv-x="753" 
d="M671 0h-62v435l-215 -335h-36l-214 335v-435h-63v548h65l231 -364l230 364h64v-548z" />
    <glyph glyph-name="N.sc" horiz-adv-x="664" 
d="M529 0l-385 431v-431h-63v548h49l390 -439v438h63v-547h-54z" />
    <glyph glyph-name="O.sc" horiz-adv-x="650" 
d="M326 -4q-122 0 -201.5 84t-79.5 194q0 111 81.5 194t199.5 83q121 0 200.5 -85t79.5 -193q0 -112 -81 -194.5t-199 -82.5zM108 274q0 -89 61.5 -155t156.5 -66t156 67t61 154q0 89 -62 154.5t-155 65.5q-95 0 -156.5 -67t-61.5 -153z" />
    <glyph glyph-name="P.sc" horiz-adv-x="539" 
d="M144 0h-63v548h248q75 0 127 -53.5t52 -120.5q0 -70 -49 -122.5t-124 -52.5h-191v-199zM144 492v-237h187q51 0 82.5 34.5t31.5 84.5q0 49 -35 83.5t-84 34.5h-182z" />
    <glyph glyph-name="Q.sc" horiz-adv-x="651" 
d="M533 0l-44 48q-73 -52 -163 -52q-122 0 -201.5 84t-79.5 194q0 111 81.5 194t199.5 83q121 0 200.5 -85t79.5 -193q0 -113 -82 -195l71 -78h-62zM326 53q69 0 124 39l-75 83h62l47 -53q59 65 59 152q0 89 -62 155t-155 66q-95 0 -156.5 -67.5t-61.5 -153.5
q0 -89 61.5 -155t156.5 -66z" />
    <glyph glyph-name="R.sc" horiz-adv-x="571" 
d="M144 0h-63v548h254q75 0 126.5 -53.5t51.5 -120.5q0 -58 -36.5 -104.5t-94.5 -58.5l146 -211h-72l-139 199h-173v-199zM144 492v-237h192q50 0 82 35t32 84q0 48 -35 83t-84 35h-187z" />
    <glyph glyph-name="S.sc" horiz-adv-x="529" 
d="M461 488l-29 -50q-60 58 -161 58q-147 0 -147 -96q0 -42 35.5 -61.5t127.5 -38.5q52 -11 85 -21.5t62 -27.5t42.5 -43t13.5 -62q0 -75 -58.5 -113t-155.5 -38q-137 0 -238 78l31 52q79 -75 209 -75q68 0 106.5 23t38.5 66q0 45 -40.5 67t-136.5 42q-99 21 -142.5 51.5
t-43.5 94.5q0 75 58.5 116t152.5 41q115 0 190 -63z" />
    <glyph glyph-name="T.sc" horiz-adv-x="536" 
d="M511 548v-56h-211v-492h-63v492h-212v56h486z" />
    <glyph glyph-name="U.sc" horiz-adv-x="645" 
d="M321 53q53 0 91.5 18.5t59 50.5t29.5 68.5t9 80.5v277h63v-277q0 -121 -61 -198t-190 -77q-68 0 -118 23t-78.5 62.5t-41.5 87t-13 102.5v277h63v-277q0 -95 44 -156.5t143 -61.5z" />
    <glyph glyph-name="V.sc" horiz-adv-x="588" 
d="M17 548h67l210 -461l209 461h67l-249 -548h-55z" />
    <glyph glyph-name="W.alt" horiz-adv-x="1058" 
d="M960 710h79l-226 -710h-73l-214 597l-208 -597h-73l-226 710h78l190 -609l200 609h76l208 -609z" />
    <glyph glyph-name="W.sc" horiz-adv-x="899" 
d="M410 307l-104 237h59l84 -192l84 192h59l-105 -237l110 -231l216 472h69l-253 -548h-55l-124 264l-125 -264h-55l-253 548h68l217 -472z" />
    <glyph glyph-name="X.sc" horiz-adv-x="553" 
d="M13 548h70l193 -233l193 233h70l-229 -278l222 -270h-69l-187 225l-186 -225h-70l222 270z" />
    <glyph glyph-name="Y.sc" horiz-adv-x="550" 
d="M14 548h68l193 -290l194 290h69l-232 -346v-202h-62v203z" />
    <glyph glyph-name="Z.sc" horiz-adv-x="549" 
d="M35 0v49l402 443h-395v56h469v-50l-397 -442h396v-56h-475z" />
    <glyph glyph-name="a.alt" horiz-adv-x="618" 
d="M287 -10q-107 0 -177.5 80t-70.5 189q0 112 70.5 191.5t171.5 79.5q63 0 114.5 -32.5t81.5 -86.5v106h68v-517h-68v105q-30 -53 -79.5 -84t-110.5 -31zM477 178v158q-23 59 -71 96.5t-107 37.5q-82 0 -136 -65t-54 -146q0 -86 55 -147.5t137 -61.5q60 0 106 35.5t70 92.5
z" />
    <glyph glyph-name="a.alt2" horiz-adv-x="540" 
d="M473 0h-66v82q-69 -92 -202 -92q-73 0 -123 47t-50 115q0 52 34 89t82 52.5t103 15.5q93 0 154 -27v47q0 68 -40 109t-108 41q-78 0 -166 -62l-24 45q101 68 196 68q100 0 155 -56.5t55 -150.5v-323zM387 115q18 21 18 39v85q-71 27 -145 27q-65 0 -113.5 -27t-48.5 -82
q0 -50 36.5 -82.5t87.5 -32.5q49 0 95 19t70 54z" />
    <glyph glyph-name="c_t" horiz-adv-x="876" 
d="M852 80l17 -55q-58 -31 -117 -31q-47 0 -78 26t-31 74v373h-72v54h72v20q0 35 -1 54.5t-7 45t-17 38t-31.5 22t-51.5 9.5q-49 0 -74.5 -30t-25.5 -76q0 -30 14 -68t38.5 -83.5t24.5 -46.5l-66 -21q-48 85 -152 85q-83 0 -134 -63.5t-51 -147.5q0 -85 55.5 -147t135.5 -62
q45 0 92 25t59 64l66 -20q-22 -59 -84 -94t-133 -35q-113 0 -187 81.5t-74 187.5q0 110 71.5 190.5t185.5 80.5q87 0 147 -44q-43 71 -43 121q0 63 40 101.5t112 38.5q33 0 58.5 -6.5t42.5 -15t28.5 -27.5t17 -33t8.5 -43t3.5 -47t0.5 -54h118v-54h-118v-354q0 -27 18 -41.5
t44 -14.5q42 0 79 23z" />
    <glyph glyph-name="d.alt" horiz-adv-x="616" 
d="M543 0h-68v97q-30 -49 -80 -78t-106 -29q-106 0 -178 80.5t-72 188.5q0 112 68.5 191.5t169.5 79.5q120 0 198 -118v318h68v-730zM475 179v161q-19 54 -72.5 92t-108.5 38q-80 0 -132.5 -64t-52.5 -147q0 -86 56.5 -147.5t137.5 -61.5q55 0 110.5 39t61.5 90z" />
    <glyph glyph-name="eight.lnum" horiz-adv-x="596" 
d="M544 197q0 -91 -73 -148t-176 -57q-105 0 -174.5 61t-69.5 148q0 64 42 111.5t100 67.5q-51 21 -84 60t-33 89q0 83 68 132t154 49t154 -49t68 -131q0 -50 -34 -89.5t-85 -60.5q62 -21 102.5 -69.5t40.5 -113.5zM475 202q0 67 -55 108t-123 41q-69 0 -122.5 -42
t-53.5 -108t55 -107t123 -41t122 42t54 107zM145 526q0 -55 47.5 -88t105.5 -33q57 0 105 34t48 89t-45.5 87.5t-108.5 32.5q-62 0 -107 -33.5t-45 -88.5z" />
    <glyph glyph-name="five.lnum" horiz-adv-x="564" 
d="M287 451q99 0 165 -63.5t66 -162.5q0 -103 -71 -169t-175 -66q-75 0 -135.5 37t-91.5 100l45 34q28 -50 77 -79.5t106 -29.5q75 0 125.5 48t50.5 124q0 73 -49 120t-121 47q-46 0 -88 -21t-68 -59h-63l79 399h343v-63h-292l-49 -255q53 59 146 59z" />
    <glyph glyph-name="four.lnum" horiz-adv-x="567" 
d="M442 0h-68v190h-349v61l370 459h47v-458h88v-62h-88v-190zM380 604l-282 -352h282v352z" />
    <glyph glyph-name="j.alt" horiz-adv-x="214" 
d="M73 -213v730h68v-730h-68zM73 630v91h68v-91h-68z" />
    <glyph glyph-name="l.alt" horiz-adv-x="226" 
d="M79 0v730h68v-730h-68z" />
    <glyph glyph-name="nine.lnum" horiz-adv-x="606" 
d="M44 471q0 102 73 173t179 71q114 0 184.5 -79.5t70.5 -216.5q0 -212 -70 -320.5t-192 -108.5q-70 0 -126.5 35.5t-84.5 97.5l43 39q21 -50 67 -80.5t102 -30.5q89 0 142 82t54 227q-22 -58 -76 -93.5t-121 -35.5q-103 0 -174 70t-71 170zM295 656q-76 0 -130.5 -54.5
t-54.5 -129.5q0 -76 55 -130.5t131 -54.5t130.5 54.5t54.5 129.5t-55 130t-131 55z" />
    <glyph glyph-name="one.lnum" horiz-adv-x="415" 
d="M268 62h127v-62h-331v62h135v581q-19 -26 -69.5 -56t-88.5 -30v64q31 0 70.5 24.5t62 46.5t25.5 27h69v-657z" />
    <glyph glyph-name="q.alt" horiz-adv-x="615" 
d="M275 -10q-103 0 -169.5 80.5t-66.5 189.5q0 110 72.5 190t175.5 80q59 0 111 -30.5t83 -80.5v102h61v-734h-68v321q-77 -118 -199 -118zM296 50q112 0 178 123v161q-8 53 -62 94.5t-111 41.5q-82 0 -137 -64t-55 -147q0 -86 53.5 -147.5t133.5 -61.5z" />
    <glyph glyph-name="seven.lnum" horiz-adv-x="522" 
d="M87 0l328 647h-383v63h491l-359 -710h-77z" />
    <glyph glyph-name="six.lnum" horiz-adv-x="606" 
d="M561 234q0 -102 -73 -173t-178 -71q-114 0 -184.5 80t-70.5 217q0 211 70 319.5t192 108.5q70 0 126 -35t85 -97l-44 -40q-20 51 -66 81.5t-102 30.5q-89 0 -142 -82.5t-54 -227.5q22 58 75.5 93.5t121.5 35.5q102 0 173 -70t71 -170zM311 50q76 0 130.5 54t54.5 130
q0 75 -55 129.5t-130 54.5q-77 0 -131.5 -54t-54.5 -130q0 -75 55 -129.5t131 -54.5z" />
    <glyph glyph-name="t.alt" horiz-adv-x="312" 
d="M169 0h-70v478h-76v62h76v192h70v-192h123v-62h-123v-478z" />
    <glyph glyph-name="three.lnum" horiz-adv-x="588" 
d="M287 -9q-94 0 -160 45.5t-77 119.5l42 38q4 -55 59 -97t136 -42q77 0 127.5 38.5t50.5 98.5q0 66 -61.5 103.5t-166.5 37.5h-34v59h34q99 0 154 32.5t55 95.5q0 61 -47.5 99.5t-116.5 38.5q-64 0 -112 -28.5t-67 -72.5l-47 46q27 53 89.5 84.5t135.5 31.5
q102 0 169 -56.5t67 -140.5q0 -123 -139 -157q71 -13 114 -63.5t43 -117.5q0 -87 -72.5 -140t-175.5 -53z" />
    <glyph glyph-name="two.lnum" horiz-adv-x="586" 
d="M530 0h-479v14q0 125 48 195t145 116q14 7 46.5 20.5t49.5 21.5t42.5 24t38.5 31.5t23 39.5t10 52q0 60 -39.5 100.5t-114.5 40.5q-119 0 -198 -102l-45 44q8 10 17.5 20.5t33.5 30.5t50.5 34t66.5 25.5t83 11.5q105 0 163 -58.5t58 -145.5q0 -29 -8.5 -55.5t-19 -45.5
t-32.5 -38t-35.5 -29t-42.5 -24.5t-38.5 -18.5l-37.5 -16q-104 -44 -143 -96t-39 -130h397v-62z" />
    <glyph glyph-name="u.alt" horiz-adv-x="586" 
d="M513 0h-66v114q-30 -57 -86.5 -90.5t-121.5 -33.5q-171 0 -171 225v306h68v-294q0 -83 27.5 -130t97.5 -47q61 0 112 41.5t72 101.5v328h68v-521z" />
    <glyph glyph-name="w.alt" horiz-adv-x="828" 
d="M623 0h-71l-138 418l-138 -418h-71l-184 521h72l150 -436l138 436h66l138 -436l151 436h70z" />
    <glyph glyph-name="y.alt" horiz-adv-x="541" 
d="M459 521h66l-292 -734h-76q76 190 86 213l-226 521h71l192 -458z" />
    <glyph glyph-name="zero.lnum" horiz-adv-x="688" 
d="M344 -10q-91 2 -160 59.5t-101 137t-32 163.5q0 88 34.5 169t103.5 136t155 55q56 0 104.5 -22.5t82.5 -59.5t58.5 -84.5t36 -97t11.5 -96.5q0 -88 -34.5 -169t-103 -135.5t-155.5 -55.5zM121 350q2 -73 26.5 -139t76 -112t120.5 -46q71 0 124 49t76 115t23 133
q0 72 -25.5 138.5t-78 112.5t-119.5 46q-71 0 -124 -49.5t-76 -115t-23 -132.5z" />
    </font>
</defs>
</svg>
