<?xml version="1.0" standalone="no"?>
<!DOCTYPE svg PUBLIC "-//W3C//DTD SVG 1.1//EN" "http://www.w3.org/Graphics/SVG/1.1/DTD/svg11.dtd" >
<svg xmlns="http://www.w3.org/2000/svg">
<metadata></metadata>
<defs>
<font id="corbelregular" horiz-adv-x="1050" >
<font-face units-per-em="2048" ascent="1523" descent="-525" />
<missing-glyph horiz-adv-x="410" />
<glyph unicode="&#xfb01;" horiz-adv-x="1098" d="M30 817v133h167v111q0 113 37.5 191.5t99 127.5t140.5 71t162 22q30 0 62.5 -2.5t64 -7t60.5 -10.5t51 -13v-132q-57 14 -109 22t-111 8q-147 0 -224.5 -69t-77.5 -211v-108h586v-950h-155v817h-431v-817h-155v817h-167z" />
<glyph unicode="&#xfb02;" horiz-adv-x="1098" d="M30 817v133h167v111q0 112 37.5 190t99 127.5t141.5 72t165 22.5q44 0 86 -4t81 -10t72.5 -14t58.5 -16v-1429h-155v1322q-32 8 -64 12t-63 4q-149 0 -226.5 -69t-77.5 -211v-108h283v-133h-283v-817h-155v817h-167z" />
<glyph unicode="&#xfb03;" horiz-adv-x="1684" d="M30 817v133h167v149q0 99 27.5 169.5t74.5 116t110.5 67t136.5 21.5q35 0 69.5 -4t56.5 -9v-131q-32 5 -58 7t-46 2q-51 0 -91.5 -13t-68 -41.5t-42 -75t-14.5 -112.5v-146h431v111q0 113 37.5 191.5t99 127.5t140.5 71t162 22q30 0 62.5 -2.5t64 -7t60.5 -10.5t51 -13 v-132q-57 14 -109.5 22t-108.5 8q-149 0 -226.5 -69t-77.5 -211v-108h586v-950h-155v817h-431v-817h-155v817h-431v-817h-155v817h-167z" />
<glyph unicode="&#xfb04;" horiz-adv-x="1684" d="M30 817v133h167v149q0 99 27.5 169.5t74.5 116t110.5 67t136.5 21.5q35 0 69.5 -4t56.5 -9v-131q-31 5 -57.5 7t-46.5 2q-51 0 -91.5 -13t-68 -41.5t-42 -75t-14.5 -112.5v-146h431v111q0 112 37.5 190t99 127.5t141.5 72t165 22.5q44 0 86 -4t81 -10t72.5 -14t58.5 -16 v-1429h-155v1325q-32 6 -64 9.5t-63 3.5q-149 0 -226.5 -69t-77.5 -211v-108h283v-133h-283v-817h-155v817h-431v-817h-155v817h-167z" />
<glyph horiz-adv-x="0" />
<glyph horiz-adv-x="0" />
<glyph unicode="&#xd;" horiz-adv-x="410" />
<glyph unicode=" "  horiz-adv-x="410" />
<glyph unicode="&#x09;" horiz-adv-x="410" />
<glyph unicode="&#xa0;" horiz-adv-x="410" />
<glyph unicode="!" horiz-adv-x="541" d="M175 0v195h191v-195h-191zM181 1338h179l-24 -907h-131z" />
<glyph unicode="&#x22;" horiz-adv-x="742" d="M123 844v494h155v-494h-155zM464 844v494h155v-494h-155z" />
<glyph unicode="#" horiz-adv-x="1341" d="M120 389v132h220l61 296h-199v132h226l80 389h148l-80 -389h304l80 389h148l-80 -389h193v-132h-220l-61 -296h199v-132h-226l-80 -389h-148l80 389h-304l-80 -389h-148l80 389h-193zM488 521h304l61 296h-304z" />
<glyph unicode="$" d="M140 707q0 59 23.5 107t65 83t99.5 57t127 29v104h132v-101q82 -4 151.5 -16t126.5 -31v-139q-63 19 -130 33t-148 18v-283q60 -11 118.5 -26.5t105 -44t75 -74t28.5 -116.5q0 -57 -23 -103.5t-66 -81t-103 -57t-135 -32.5v-108h-132v100q-47 0 -94.5 4t-89.5 11 t-75.5 16t-53.5 19v138q32 -12 76 -24t106 -20.5t124 -8.5h7v286q-59 10 -115.5 25t-101 44t-71.5 75t-27 117zM297 713q0 -53 38.5 -81.5t119.5 -43.5v259q-158 -20 -158 -134zM587 169q35 6 66 16t54 26.5t36.5 39.5t13.5 55q0 29 -12 48.5t-34.5 33.5t-53.5 23.5 t-70 16.5v-259z" />
<glyph unicode="%" horiz-adv-x="1648" d="M60 929q0 110 20.5 191.5t57.5 135.5t89.5 80.5t115.5 26.5t115.5 -26.5t89.5 -80.5t57.5 -135.5t20.5 -191.5t-20.5 -191.5t-57.5 -135.5t-89.5 -81t-115.5 -27t-115.5 27t-89.5 81t-57.5 135.5t-20.5 191.5zM202 929q0 -159 36 -236.5t105 -77.5t105 77.5t36 236.5 t-36 236t-105 77t-105 -77t-36 -236zM286 53l977 1310l101 -78l-977 -1310zM1022 418q0 110 20.5 191.5t57.5 135.5t89.5 80.5t115.5 26.5t115.5 -26.5t89.5 -80.5t57.5 -135.5t20.5 -191.5t-20.5 -191.5t-57.5 -135.5t-89.5 -81t-115.5 -27t-115.5 27t-89.5 81t-57.5 135.5 t-20.5 191.5zM1164 418q0 -159 36 -236.5t105 -77.5t105 77.5t36 236.5t-36 236t-105 77t-105 -77t-36 -236z" />
<glyph unicode="&#x26;" horiz-adv-x="1371" d="M100 323q0 78 22.5 137t61 104.5t88.5 81t104 65.5q-40 38 -75.5 76t-62 79t-41.5 86.5t-15 99.5q0 74 26.5 131.5t75.5 97.5t117 61t151 21q76 0 141.5 -19t114 -56.5t76.5 -92.5t28 -127q0 -75 -26 -131.5t-69 -101.5t-98 -80.5t-114 -67.5q33 -34 74.5 -76.5t87 -89.5 t93.5 -96.5t95 -98.5q51 67 81.5 158t32.5 212h160q-2 -145 -49.5 -263t-126.5 -209q43 -44 80.5 -83t66.5 -69t47.5 -48.5l23.5 -23.5h-197l-38.5 38.5t-86.5 88.5q-97 -74 -209 -113t-227 -39q-110 0 -188.5 30t-128.5 79t-73 111.5t-23 127.5zM262 335q0 -44 15 -85 t46 -73t78.5 -51t111.5 -19q37 0 79.5 6.5t86.5 20.5t88.5 36t85.5 53q-48 49 -99.5 102t-102 104.5t-96.5 98.5t-83 85q-44 -25 -82 -53.5t-66.5 -61.5t-45 -73t-16.5 -90zM344 1052q0 -37 11 -70t32.5 -65t52.5 -65t71 -72q48 25 91.5 52t76.5 59t52 72t19 91q0 47 -15 80 t-42 55t-64.5 32t-82.5 10q-94 0 -148 -46t-54 -133z" />
<glyph unicode="'" horiz-adv-x="401" d="M123 844v494h155v-494h-155z" />
<glyph unicode="(" horiz-adv-x="614" d="M110 519q0 113 18 212.5t47 185t66 157t75.5 128t75.5 97t65 64.5l85 -80q-54 -59 -104.5 -135.5t-88.5 -171.5t-61 -209t-23 -248t23 -248t61 -209t88.5 -171.5t104.5 -135.5l-85 -80q-28 24 -65 64.5t-75.5 97t-75.5 128t-66 157t-47 185.5t-18 212z" />
<glyph unicode=")" horiz-adv-x="614" d="M72 -245q54 59 104.5 135.5t88.5 171.5t61 209t23 248t-23 248t-61 209t-88.5 171.5t-104.5 135.5l85 80q28 -24 65 -64.5t75.5 -97t75.5 -128t66 -157t47 -185t18 -212.5q0 -112 -18 -212t-47 -185.5t-66 -157t-75.5 -128t-75.5 -97t-65 -64.5z" />
<glyph unicode="*" horiz-adv-x="1101" d="M120 965l45 138l175 -57l178 -104l4 4l-44 202v190h145v-190l-44 -202l4 -4l178 104l175 57l45 -138l-175 -57l-206 -21l-2 -5l154 -147l112 -154l-117 -85l-112 154l-82 199h-5l-82 -199l-112 -154l-117 85l112 154l154 147l-2 5l-206 21z" />
<glyph unicode="+" d="M115 455v132h340v363h140v-363h340v-132h-340v-363h-140v363h-340z" />
<glyph unicode="," horiz-adv-x="540" d="M20 -390l167 608h173l-189 -608h-151z" />
<glyph unicode="-" horiz-adv-x="681" d="M120 426v145h441v-145h-441z" />
<glyph unicode="&#xad;" horiz-adv-x="681" d="M120 426v145h441v-145h-441z" />
<glyph unicode="." horiz-adv-x="541" d="M175 0v195h191v-195h-191z" />
<glyph unicode="/" horiz-adv-x="563" d="M18 -249l380 1587h148l-380 -1587h-148z" />
<glyph unicode="0" horiz-adv-x="1052" d="M90 474q0 107 29.5 198.5t85.5 159t137 105.5t184 38q105 0 186.5 -38t137 -105.5t84 -159t28.5 -198.5q0 -106 -29.5 -197.5t-85.5 -158.5t-136.5 -105t-183.5 -38q-106 0 -187.5 38t-137 105t-84 158.5t-28.5 197.5zM252 474q0 -85 19.5 -153.5t55 -115.5t86.5 -72.5 t114 -25.5t113.5 25.5t86 72.5t54.5 115.5t19 153.5q0 86 -19.5 154.5t-55 116t-86 73t-113.5 25.5t-113.5 -25.5t-86.5 -73t-55 -116t-19 -154.5z" />
<glyph unicode="1" horiz-adv-x="918" d="M90 672v144l382 134h134v-807h262v-143h-736v143h319v642z" />
<glyph unicode="2" horiz-adv-x="1046" d="M155 0v103q115 85 212 158.5t167.5 141t110.5 131.5t40 129q0 87 -56 133t-161 46q-78 -1 -151.5 -23t-151.5 -58v132q57 33 140.5 57.5t183.5 24.5q79 0 144.5 -20t113 -58.5t73.5 -95t26 -130.5q0 -79 -34 -147.5t-93 -131.5t-139 -124.5t-172 -126.5v-4q115 6 207 6 h312v-143h-772z" />
<glyph unicode="3" horiz-adv-x="928" d="M68 -222q72 -31 142 -44.5t132 -13.5q92 0 154 22.5t99.5 59.5t54 85.5t16.5 101.5q0 130 -83 187.5t-240 57.5h-106v133h62q86 0 147.5 19.5t101.5 54t58.5 81t18.5 100.5q0 57 -20.5 98.5t-56 68.5t-83.5 40t-103 13q-68 0 -137 -16t-136 -43v132q82 34 156.5 47 t131.5 13q97 0 173 -26t128.5 -73t80.5 -111t28 -141q0 -51 -12 -99t-39.5 -89t-71 -73t-106.5 -51v-4q53 -5 101.5 -26t86 -60t60 -96t22.5 -134q0 -92 -31 -167t-91 -128t-148.5 -81.5t-204.5 -28.5q-81 0 -154.5 15t-130.5 44v132z" />
<glyph unicode="4" horiz-adv-x="1058" d="M92 0v114l394 836h167l-384 -817v-4l148 4h219v304h155v-304h197v-133h-197v-387h-155v387h-544z" />
<glyph unicode="5" horiz-adv-x="983" d="M117 -222q74 -33 140 -44.5t122 -11.5q85 0 148 22.5t105 61.5t63 90.5t21 108.5q0 69 -21.5 119.5t-67.5 84t-118 50t-174 16.5q-72 0 -174 -10l95 685h621v-143h-484l-56 -397q35 2 56 2q117 0 207.5 -27t152 -78t93.5 -125t32 -169q0 -92 -33.5 -170t-97 -135 t-154.5 -89t-207 -32q-76 0 -145 14.5t-124 44.5v132z" />
<glyph unicode="6" horiz-adv-x="1074" d="M110 575q0 106 16.5 205.5t49 187t80 160t110.5 125t141 81.5t170 29q76 -1 131 -15t92 -32v-130q-40 16 -96 29t-116 13q-72 0 -139.5 -29.5t-122.5 -91t-93.5 -156t-53.5 -224.5h4q63 36 137 57.5t144 21.5q89 0 164.5 -25.5t130 -75.5t85 -123.5t30.5 -169.5 t-28.5 -176.5t-82.5 -138t-132 -90t-177 -32.5q-105 0 -187.5 42t-139.5 120t-87 189t-30 249zM272 582q-1 -120 20.5 -209.5t59.5 -148.5t91.5 -88t116.5 -29q53 0 99 19t80 56t53.5 91.5t19.5 124.5q0 75 -20.5 126.5t-56 83.5t-83 46t-101.5 14q-71 0 -145 -25t-134 -61z " />
<glyph unicode="7" horiz-adv-x="876" d="M39 807v143h784v-104l-551 -1233h-162l534 1194h-605z" />
<glyph unicode="8" horiz-adv-x="1054" d="M95 349q0 74 21 131t56.5 99t83 69.5t100.5 40.5v4q-50 17 -92.5 46t-74 69.5t-49 92t-17.5 113.5q0 85 34 150t90.5 109.5t129 67t150.5 22.5t150.5 -22.5t129 -67t90.5 -109.5t34 -150q0 -62 -19.5 -113.5t-52.5 -92t-77 -69.5t-94 -46v-4q53 -13 102 -40.5t86.5 -69.5 t60 -99t22.5 -131q0 -80 -31 -148.5t-88 -118.5t-136.5 -78.5t-176.5 -28.5t-176.5 28.5t-136.5 78.5t-88 118.5t-31 148.5zM257 354q0 -57 20.5 -103t56.5 -78t85.5 -49t107.5 -17q59 0 108.5 17t85.5 49t56 78t20 103q0 63 -21 110t-58 79.5t-86 51t-105 24.5 q-56 -6 -105 -24.5t-86 -51t-58 -79.5t-21 -110zM285 1009q0 -102 63.5 -166t178.5 -87q115 23 178.5 87t63.5 166q0 54 -18 95t-50.5 69.5t-76.5 43t-97 14.5q-52 0 -96.5 -14.5t-77 -43t-50.5 -69.5t-18 -95z" />
<glyph unicode="9" horiz-adv-x="1074" d="M100 539q0 92 27.5 172t80 138.5t130 92t176.5 33.5q109 0 193 -41.5t141 -122t86.5 -198.5t29.5 -271q0 -103 -14 -198.5t-43 -179.5t-75.5 -153.5t-110.5 -119t-148 -77t-189 -27.5q-76 0 -141.5 15.5t-115.5 42.5v133q50 -26 113.5 -41t130.5 -15q92 0 166.5 28 t129.5 88.5t88.5 155.5t43.5 229h-4q-28 -17 -63.5 -31.5t-75 -25t-81 -16.5t-81.5 -6q-82 0 -153.5 25.5t-125 75t-84.5 123.5t-31 171zM262 554q0 -74 18 -125.5t51 -84t80 -47.5t105 -15q76 0 151 23.5t135 59.5q-1 126 -22.5 216.5t-59.5 148.5t-91.5 85.5t-118.5 27.5 q-54 0 -99.5 -19t-78.5 -56t-51.5 -91t-18.5 -123z" />
<glyph unicode=":" horiz-adv-x="541" d="M175 0v195h191v-195h-191zM175 612v195h191v-195h-191z" />
<glyph unicode=";" horiz-adv-x="546" d="M20 -390l167 608h173l-189 -608h-151zM175 612v195h191v-195h-191z" />
<glyph unicode="&#x3c;" d="M115 468v126l820 413v-152l-652 -322v-4l652 -322v-152z" />
<glyph unicode="=" d="M115 273v132h820v-132h-820zM115 639v132h820v-132h-820z" />
<glyph unicode="&#x3e;" d="M115 55v150l662 324v4l-662 324v150l820 -408v-136z" />
<glyph unicode="?" horiz-adv-x="873" d="M80 1166v132q54 29 130.5 47t153.5 18q95 0 170.5 -22.5t128 -64t81 -99t28.5 -128.5q0 -60 -18.5 -107.5t-49 -85t-68 -68t-75.5 -60.5q-33 -26 -64.5 -54t-55.5 -61t-38.5 -74.5t-14.5 -91.5v-16h-137q-2 29 -2 44q0 68 20 123t54.5 97t75 74t79.5 62q27 21 51 43 t42.5 47t29 54.5t10.5 66.5q0 44 -18.5 79t-52 59t-80 37t-103.5 13q-75 0 -147.5 -19t-129.5 -45zM223 0v195h191v-195h-191z" />
<glyph unicode="@" horiz-adv-x="2070" d="M180 450q0 207 62 376t176 288t275.5 184t360.5 65q183 0 336.5 -56.5t264.5 -160t173 -248t62 -320.5q0 -135 -32.5 -243t-89.5 -183.5t-135 -116t-169 -40.5q-43 0 -75.5 10t-55.5 27t-38 41t-23 52h-4q-21 -24 -49 -47.5t-64 -42t-80 -29.5t-96 -11q-66 0 -121.5 20 t-95.5 57.5t-62.5 90t-22.5 118.5q0 71 25.5 127t71.5 95t110.5 60t142.5 21q76 0 129.5 -13t99.5 -30h4v56q0 53 -12 96t-40 73.5t-73.5 47t-113.5 16.5q-72 0 -135.5 -13.5t-126.5 -37.5v130q25 12 57 22.5t68 18t76 11.5t80 4q96 0 166.5 -25t117 -70t69 -109t22.5 -142 v-391q0 -52 16 -76.5t61 -24.5q55 0 101 35t79 95t51.5 140t18.5 170q0 162 -54 285.5t-148 207t-219 126t-268 42.5q-127 0 -229.5 -29t-182.5 -80.5t-137.5 -123.5t-94.5 -157.5t-55 -181.5t-18 -197q0 -162 46.5 -297.5t139.5 -234t232 -153.5t324 -55q87 0 166 8.5 t148 22.5t126.5 31.5t101.5 36.5v-135q-45 -18 -105.5 -35.5t-132.5 -31t-152.5 -21.5t-164.5 -8q-121 0 -233.5 24.5t-211 73t-179.5 120.5t-139 168t-90 215.5t-32 261.5zM837 281q0 -39 13 -67.5t35.5 -48t53 -29t65.5 -9.5q38 0 74.5 10t69 26.5t61 38.5t51.5 45v170 q-21 6 -43.5 12t-47.5 11t-55 8.5t-66 3.5q-99 0 -155 -42t-56 -129z" />
<glyph unicode="A" horiz-adv-x="1301" d="M35 0l545 1338h141l545 -1338h-177l-160 403h-559l-160 -403h-175zM428 550h443l-50 126q-82 208 -168 454h-4q-89 -250 -171 -454z" />
<glyph unicode="B" horiz-adv-x="1215" d="M170 0v1338h334q46 0 83.5 -1.5t69 -4.5t58.5 -7.5t51 -10.5q63 -17 114.5 -46.5t87.5 -70.5t55.5 -93t19.5 -113q0 -49 -11.5 -94t-37 -83t-66 -68t-98.5 -50v-4q62 -9 111.5 -33t85 -61.5t54.5 -89t19 -117.5q0 -47 -14 -98.5t-46.5 -100t-85 -89.5t-130.5 -67 q-60 -20 -133 -28t-175 -8h-346zM333 147h197q70 0 130 6.5t102 20.5q46 15 78 38.5t51.5 52t28 60.5t8.5 65q0 38 -9 71.5t-29.5 60t-54 46.5t-83.5 31q-30 7 -68.5 10t-95.5 3h-255v-465zM333 759h248q48 0 83 4.5t63 13.5q75 25 109.5 78t34.5 125q0 74 -36 121t-113 70 q-38 11 -88 15.5t-118 4.5h-183v-432z" />
<glyph unicode="C" horiz-adv-x="1207" d="M120 652q0 156 47.5 287t137 225t217 146.5t286.5 52.5q42 0 83 -3.5t78.5 -10t69.5 -15.5t55 -19v-144q-60 20 -131 33.5t-143 13.5q-111 0 -207.5 -35.5t-167.5 -106t-112 -175t-41 -243.5q0 -138 38 -239.5t108 -168t168.5 -98.5t219.5 -32q33 0 70 3.5t74.5 10t73 15 t63.5 18.5v-144q-59 -23 -137 -35.5t-160 -12.5q-167 0 -296 46.5t-216.5 133.5t-132.5 212.5t-45 284.5z" />
<glyph unicode="D" horiz-adv-x="1374" d="M170 0v1338h306q91 0 169 -7.5t145 -26.5q117 -33 204.5 -92t145 -139.5t86 -181t28.5 -216.5q0 -117 -29 -220t-87.5 -185.5t-146 -142.5t-204.5 -93q-67 -19 -145 -26.5t-169 -7.5h-303zM333 147h123q93 0 167 7t134 26q157 50 241 175t84 320q0 193 -84 313t-241 170 q-60 19 -134 26t-167 7h-123v-1044z" />
<glyph unicode="E" horiz-adv-x="1129" d="M170 0v1338h812v-147h-649v-432h577v-147h-577v-465h686v-147h-849z" />
<glyph unicode="F" horiz-adv-x="1033" d="M170 0v1338h798v-147h-635v-432h563v-147h-563v-612h-163z" />
<glyph unicode="G" horiz-adv-x="1368" d="M120 638q0 164 53.5 298t151 229t233 146.5t298.5 51.5q44 0 88 -3.5t84 -10t74 -15.5t57 -19v-144q-60 20 -138 33.5t-156 13.5q-114 0 -217.5 -34.5t-182.5 -104.5t-126 -175.5t-47 -247.5q0 -139 38.5 -240t109 -167t171 -97.5t223.5 -31.5q57 0 112.5 6t98.5 17v398 h-305v147h468v-647q-21 -11 -61.5 -22.5t-92.5 -21.5t-111.5 -16t-117.5 -6q-172 0 -303.5 47t-220.5 133t-135 209t-46 274z" />
<glyph unicode="H" horiz-adv-x="1367" d="M170 0v1338h163v-579h701v579h163v-1338h-163v612h-701v-612h-163z" />
<glyph unicode="I" horiz-adv-x="503" d="M170 0v1338h163v-1338h-163z" />
<glyph unicode="J" horiz-adv-x="767" d="M60 8v144q37 -15 80.5 -23.5t93.5 -8.5q45 0 83 10t65 34t42 64t15 99v1011h163v-1031q0 -83 -25 -145t-71.5 -103.5t-111.5 -62.5t-146 -21q-69 1 -116.5 11.5t-71.5 21.5z" />
<glyph unicode="K" horiz-adv-x="1239" d="M170 0v1338h163v-661h2l615 661h201l-624 -666l672 -672h-212l-652 655h-2v-655h-163z" />
<glyph unicode="L" horiz-adv-x="1066" d="M170 0v1338h163v-1191h653v-147h-816z" />
<glyph unicode="M" horiz-adv-x="1683" d="M170 0v1338h235l315 -757q54 -130 119 -313h5q72 203 119 313l315 757h235v-1338h-163v647q0 227 14 511h-8q-74 -205 -140 -359l-337 -799h-75l-337 799q-70 165 -140 359h-8q14 -279 14 -511v-647h-163z" />
<glyph unicode="N" horiz-adv-x="1426" d="M170 0v1338h162l525 -746q123 -177 243 -364h6q-13 195 -13 398v712h163v-1338h-162l-525 746q-136 195 -243 364h-6q13 -183 13 -427v-683h-163z" />
<glyph unicode="O" horiz-adv-x="1496" d="M120 668q0 153 44.5 280.5t126 219.5t197.5 143.5t260 51.5q147 0 263.5 -51.5t197.5 -143.5t124 -219.5t43 -280.5q0 -152 -44 -279t-126 -219t-197.5 -143.5t-258.5 -51.5q-148 0 -265 51.5t-198 143.5t-124 219t-43 279zM292 668q0 -135 35.5 -237.5t97 -171.5 t145 -104t180.5 -35q96 0 178.5 35t144 104t96.5 171.5t35 237.5t-35 238t-96.5 172t-145 104.5t-179.5 35.5t-179.5 -35.5t-145 -104.5t-96.5 -172t-35 -238z" />
<glyph unicode="P" horiz-adv-x="1168" d="M170 0v1338h371q83 0 153.5 -10t129.5 -31q120 -43 182 -128.5t62 -210.5q0 -102 -40.5 -179.5t-117.5 -129.5t-187.5 -78.5t-250.5 -26.5q-67 0 -139 6v-550h-163zM333 699q33 -4 69 -6t68 -2q115 0 196 18t132 52.5t74 84t23 112.5q0 78 -37.5 128t-106.5 76 q-43 16 -99 22.5t-130 6.5h-189v-492z" />
<glyph unicode="Q" horiz-adv-x="1514" d="M120 668q0 153 44.5 280.5t126 219.5t197.5 143.5t260 51.5q147 0 263.5 -51.5t197.5 -142.5t124 -216t43 -271q0 -96 -20 -182t-57 -158.5t-88.5 -129.5t-113.5 -96v-4q83 13 157 20q58 5 116 5h34v-147q-47 3 -102 6.5t-127 3.5q-54 0 -109 -3t-109 -7t-106 -7t-99 -3 q-149 0 -266.5 50t-198.5 140.5t-124 217.5t-43 280zM292 668q0 -135 35.5 -237.5t97 -171.5t145 -104t180.5 -35q96 0 178.5 35t144 104t96.5 171.5t35 237.5t-35 238t-96.5 172t-145 104.5t-179.5 35.5t-179.5 -35.5t-145 -104.5t-96.5 -172t-35 -238z" />
<glyph unicode="R" horiz-adv-x="1212" d="M170 0v1338h347q88 0 149.5 -6.5t112.5 -20.5q140 -38 214 -129.5t74 -228.5q0 -81 -26 -145t-73 -111t-112.5 -77t-145.5 -44v-4l437 -572h-205l-412 554h-197v-554h-163zM333 701h161q75 0 128 5t95 18q85 26 131 83t46 149q-1 86 -44 138.5t-119 75.5q-36 11 -86 16 t-127 5h-185v-490z" />
<glyph unicode="S" horiz-adv-x="1130" d="M128 52v149q36 -18 81 -33t93 -25.5t97 -16.5t92 -6q70 0 133.5 12t111.5 40t76 76.5t28 121.5q0 60 -24.5 99t-65.5 64.5t-94.5 41.5t-112.5 30q-78 18 -152.5 40.5t-133 62.5t-94 103t-35.5 161q0 102 36 175.5t98 121.5t145 71t177 23q107 0 199.5 -20.5t169.5 -53.5 v-151q-83 35 -171.5 57t-189.5 23q-76 0 -132 -16.5t-93 -47t-55 -74t-18 -96.5q0 -59 24 -97.5t64.5 -63.5t94 -41t111.5 -30q78 -19 153.5 -42t134.5 -63.5t95.5 -105.5t36.5 -167q0 -104 -38.5 -179.5t-107 -124t-163.5 -72t-208 -23.5q-52 0 -106.5 6.5t-104 17.5 t-89.5 25t-63 28z" />
<glyph unicode="T" horiz-adv-x="1137" d="M40 1191v147h1057v-147h-447v-1191h-163v1191h-447z" />
<glyph unicode="U" horiz-adv-x="1374" d="M165 512v826h163v-830q0 -45 6.5 -92.5t20.5 -86.5q35 -97 116.5 -153t215.5 -56q73 0 129.5 17t98.5 48t70 74.5t43 96.5q10 33 14 73.5t4 78.5v830h163v-826q0 -47 -5 -98t-16 -95q-19 -74 -57 -137t-99 -109t-146.5 -72t-200.5 -26q-110 0 -193 24t-142.5 66.5 t-97.5 101t-59 127.5q-15 50 -21.5 107t-6.5 111z" />
<glyph unicode="V" horiz-adv-x="1243" d="M40 1338h169l255 -688q84 -223 156 -442h4q72 219 155 442l255 688h169l-510 -1338h-143z" />
<glyph unicode="W" horiz-adv-x="1806" d="M40 1338h171l226 -785q54 -189 92 -340h4q20 93 43.5 181t41.5 157l204 787h162l204 -787q75 -284 85 -338h4q34 140 92 340l226 785h171l-412 -1338h-166l-208 795q-57 222 -75 322h-4q-16 -92 -75 -322l-208 -795h-166z" />
<glyph unicode="X" horiz-adv-x="1196" d="M20 0l479 683l-450 655h179l372 -542h4l370 542h181l-454 -659l475 -679h-183l-392 567h-4l-392 -567h-185z" />
<glyph unicode="Y" horiz-adv-x="1217" d="M40 1338h178l388 -650h5l388 650h178l-487 -800v-538h-163v538z" />
<glyph unicode="Z" horiz-adv-x="1199" d="M100 0v102l778 1089h-760v147h972v-102l-776 -1089h785v-147h-999z" />
<glyph unicode="[" horiz-adv-x="646" d="M160 -300v1638h426v-123h-281v-1392h281v-123h-426z" />
<glyph unicode="\" horiz-adv-x="563" d="M-7 1338h148l380 -1587h-148z" />
<glyph unicode="]" horiz-adv-x="646" d="M60 -177h281v1392h-281v123h426v-1638h-426v123z" />
<glyph unicode="^" d="M49 543l408 820h136l408 -820h-150l-324 662h-4l-324 -662h-150z" />
<glyph unicode="_" horiz-adv-x="1000" d="M0 -142h1000v-133h-1000v133z" />
<glyph unicode="`" horiz-adv-x="700" d="M0 950zM208 1473h168l123 -349h-130z" />
<glyph unicode="a" horiz-adv-x="1003" d="M95 281q0 71 25.5 127t71.5 95t110.5 60t142.5 21q74 -1 137 -13t112 -30h4v66q0 39 -5 69t-17 53q-26 48 -83 79.5t-154 31.5q-72 0 -135.5 -13.5t-126.5 -37.5v130q24 12 56.5 22.5t68.5 18t76 11.5t80 4q144 0 235.5 -51t131.5 -135q15 -32 21.5 -70.5t6.5 -84.5v-634 h-130l-17 105h-4q-19 -24 -48 -47.5t-67 -42t-83 -29.5t-96 -11q-69 0 -126.5 20.5t-99 60t-64.5 96.5t-23 129zM255 281q0 -44 14 -77t38.5 -54.5t58 -32t71.5 -10.5q50 0 93 14.5t76.5 34.5t57 40t34.5 31v190q-43 12 -102 23t-130 12q-99 0 -155 -42t-56 -129z" />
<glyph unicode="b" horiz-adv-x="1097" d="M160 0v1448h155v-587h3q51 54 119 84t155 30q40 0 86.5 -9t92 -31t87.5 -58t74 -89.5t51 -127t19 -169.5q0 -133 -36 -230t-95 -160.5t-135 -94.5t-157 -31q-61 0 -107.5 15.5t-79 37t-52 43.5t-27.5 35h-3l-33 -106h-117zM315 237q14 -19 36.5 -41.5t53.5 -42t69.5 -33 t84.5 -13.5q69 0 121.5 27t88 76.5t53.5 118t18 150.5q0 113 -26.5 183.5t-68 110t-88.5 54.5t-94 15q-72 0 -135.5 -30t-112.5 -78v-497z" />
<glyph unicode="c" horiz-adv-x="898" d="M95 463q0 94 19.5 169t53.5 132t79.5 97t97 65.5t106.5 37t107 11.5q69 0 132 -14.5t108 -40.5v-129q-63 24 -116 36t-108 12q-58 0 -115 -19t-102 -62.5t-72.5 -115t-27.5 -177.5q0 -77 20.5 -142t61 -112.5t101.5 -74t141 -26.5q58 0 117 12.5t115 35.5v-129 q-17 -10 -44.5 -20t-60.5 -17.5t-70 -12t-74 -4.5q-96 0 -181.5 29t-149.5 89t-101 152t-37 218z" />
<glyph unicode="d" horiz-adv-x="1097" d="M95 463q0 99 19.5 175.5t51.5 133.5t75 95.5t89 62.5t93.5 34.5t89.5 10.5q87 0 151 -29t115 -85h3v587h155v-1448h-117l-32 106h-4q-18 -23 -42 -46.5t-56.5 -42.5t-75 -30.5t-98.5 -11.5q-78 0 -153 26.5t-133.5 85t-94.5 151t-36 225.5zM257 465q0 -82 18.5 -148.5 t53.5 -113t86 -71.5t117 -25q49 0 89 13t71.5 33t54 42.5t35.5 41.5v497q-48 49 -111 78.5t-136 29.5q-44 0 -92.5 -16.5t-90 -59.5t-68.5 -115.5t-27 -185.5z" />
<glyph unicode="e" horiz-adv-x="1019" d="M95 462q0 130 36 225.5t96 159.5t138 96t163 32q80 0 149.5 -26.5t120.5 -83.5t80.5 -147t29.5 -216v-20.5t-1 -38.5h-652q0 -91 27.5 -154.5t75 -103t111.5 -57.5t138 -18q77 0 140.5 12.5t126.5 35.5v-129q-51 -25 -126 -39.5t-161 -14.5q-102 0 -191.5 26t-156.5 84 t-105.5 151.5t-38.5 225.5zM263 576h480q0 56 -14.5 104.5t-42.5 84.5t-69 56.5t-95 20.5q-53 0 -98.5 -21t-79.5 -57t-55 -84.5t-26 -103.5z" />
<glyph unicode="f" horiz-adv-x="651" d="M30 817v133h167v145q0 103 27.5 173.5t75.5 116t113 67t140 21.5q48 0 88.5 -5t59.5 -11v-131q-30 6 -66 9t-62 3q-52 0 -93.5 -13t-69.5 -41.5t-43 -75t-15 -112.5v-146h283v-133h-283v-817h-155v817h-167z" />
<glyph unicode="g" horiz-adv-x="1087" d="M95 456q0 133 36 230.5t95 161.5t135 95.5t157 31.5q62 -1 108 -16t79 -37.5t52.5 -44.5t26.5 -35h4l32 108h117v-1006q0 -110 -36 -191.5t-101 -135.5t-156.5 -80.5t-202.5 -26.5q-94 0 -168 16.5t-116 39.5v131q34 -14 66 -23.5t66 -16t69.5 -9.5t78.5 -3q167 0 256 78 t89 238v127h-3q-51 -56 -118.5 -84.5t-154.5 -28.5q-40 0 -86 9t-92 30.5t-88 57t-74 89t-51.5 126.5t-19.5 169zM257 469q0 -112 27 -183t68.5 -110.5t90.5 -54t93 -14.5q72 0 135 29t111 79v497q-13 18 -36 41t-53.5 42.5t-69.5 33t-85 13.5q-69 0 -121.5 -27.5t-88 -76.5 t-53.5 -117.5t-18 -151.5z" />
<glyph unicode="h" horiz-adv-x="1090" d="M160 0v1448h155v-628h3q26 33 58 61.5t71 49t84 32.5t97 12q54 0 108 -14.5t100 -51.5t75 -103t29 -170v-636h-155v611q0 115 -43.5 173t-142.5 58q-82 0 -156 -44.5t-128 -122.5v-675h-155z" />
<glyph unicode="i" horiz-adv-x="475" d="M156 1171v173h163v-173h-163zM160 0v950h155v-950h-155z" />
<glyph unicode="j" horiz-adv-x="494" d="M-120 -338q30 -8 60 -12.5t62 -4.5q95 0 136 39t41 122v1144h155v-1162q0 -131 -75 -204.5t-238 -73.5q-43 0 -82.5 6.5t-58.5 13.5v132zM175 1171v173h163v-173h-163z" />
<glyph unicode="k" horiz-adv-x="997" d="M160 0v1448h155v-922h2l448 424h202l-464 -437l463 -513h-193l-456 506h-2v-506h-155z" />
<glyph unicode="l" horiz-adv-x="475" d="M160 0v1448h155v-1448h-155z" />
<glyph unicode="m" horiz-adv-x="1697" d="M150 0v950h120l30 -132h3q26 33 56.5 61.5t68 50t82.5 33.5t98 12q106 0 176 -51t108 -139h4q63 89 144 139.5t189 50.5q50 0 106 -14t103 -51.5t78 -103.5t31 -170v-636h-154v611q0 62 -13.5 105.5t-39 71.5t-61 41t-79.5 13q-83 0 -151.5 -44.5t-122.5 -122.5v-675 h-155v611q0 62 -13.5 105.5t-39 71.5t-61 41t-79.5 13q-83 0 -151 -44.5t-122 -122.5v-675h-155z" />
<glyph unicode="n" horiz-adv-x="1080" d="M150 0v950h120l30 -132h3q26 33 57.5 61.5t70.5 50t85.5 33.5t101.5 12q65 0 122 -18t99 -58t66.5 -104.5t24.5 -158.5v-636h-155v611q0 123 -47.5 177t-138.5 54q-80 0 -155 -44.5t-129 -122.5v-675h-155z" />
<glyph unicode="o" horiz-adv-x="1092" d="M95 474q0 113 32 205t90.5 158t142 102t186.5 36q105 0 189 -36t142 -102t89 -158t31 -205q0 -112 -32 -204t-90.5 -157.5t-141.5 -101.5t-186 -36q-106 0 -189.5 36t-142 101.5t-89.5 157.5t-31 204zM257 474q0 -87 21.5 -155.5t60.5 -115.5t92 -71.5t116 -24.5 t115.5 24.5t91 71.5t60 115.5t21.5 155.5q0 88 -21.5 156.5t-60 116t-91.5 72t-116 24.5t-116 -24.5t-91.5 -72t-60 -116t-21.5 -156.5z" />
<glyph unicode="p" horiz-adv-x="1087" d="M150 -465v1415h117l33 -108h3q13 20 33.5 39t55 40.5t83 37.5t105.5 16q80 0 154.5 -27t131.5 -86t91.5 -151.5t34.5 -224.5q0 -99 -19.5 -175.5t-51.5 -133.5t-75 -95.5t-89 -62t-93.5 -34t-89.5 -10.5q-87 0 -151 28.5t-115 84.5h-3v-553h-155zM305 215 q49 -50 111.5 -79t134.5 -29q44 0 93 16.5t90.5 59t68.5 115.5t27 186q0 83 -17.5 149t-52.5 112.5t-86 71.5t-118 25q-48 0 -87.5 -13t-71.5 -33t-55 -43t-37 -41v-497z" />
<glyph unicode="q" horiz-adv-x="1072" d="M90 456q0 133 36 230.5t95 161.5t135 95.5t157 31.5q62 -1 108 -16t78 -36.5t50.5 -42t29.5 -38.5h4l32 108h117v-1415h-155v553h-3q-51 -56 -118.5 -84.5t-154.5 -28.5q-40 0 -86 9t-92 30.5t-88 57t-74 89t-51.5 126.5t-19.5 169zM252 469q0 -112 27 -183t68.5 -110.5 t90.5 -54t93 -14.5q72 0 135 29t111 79v497q-13 18 -36 41t-53.5 42.5t-69.5 33t-85 13.5q-69 0 -121.5 -27.5t-88 -76.5t-53.5 -117.5t-18 -151.5z" />
<glyph unicode="r" horiz-adv-x="686" d="M150 0v950h120l30 -151h3q23 37 56.5 69t75.5 56t92 37.5t105 13.5q10 0 20.5 -0.5t18.5 -1.5v-149h-12q-55 0 -108 -10t-99.5 -30.5t-84 -50.5t-62.5 -71v-662h-155z" />
<glyph unicode="s" horiz-adv-x="828" d="M95 29v130q60 -24 119 -38t130 -14q56 0 101 10t77.5 29.5t50 49t17.5 68.5q0 40 -16 66t-43 43t-62.5 28t-74.5 20q-51 11 -103.5 26t-95.5 42t-69.5 73.5t-26.5 119.5q0 75 27 130t73 91t107 54t129 18q79 0 146.5 -15t122.5 -38v-132q-60 23 -121.5 37.5t-126.5 15.5 q-55 0 -94 -11t-64 -30.5t-36.5 -46t-11.5 -58.5q0 -39 17 -64t45.5 -40.5t66 -25.5t77.5 -18q55 -12 104 -26.5t90.5 -43.5t67 -78.5t25.5 -128.5q0 -72 -28 -127.5t-79 -93t-122 -57t-156 -19.5q-52 0 -94.5 5.5t-75 14t-55.5 17.5t-38 17z" />
<glyph unicode="t" horiz-adv-x="711" d="M15 817v133h183v260h155v-260h284v-133h-284v-554q0 -33 9.5 -61t30 -48.5t52.5 -32t77 -11.5q31 0 65.5 5t63.5 13v-130q-20 -8 -61 -15t-98 -8q-75 0 -130 18.5t-91.5 53t-54.5 83.5t-18 109v578h-183z" />
<glyph unicode="u" horiz-adv-x="1060" d="M140 367v583h155v-582q0 -79 21 -132q24 -60 77.5 -94.5t136.5 -34.5q88 0 141.5 38t76.5 102q17 49 17 121v582h155v-584q0 -48 -5.5 -89.5t-17.5 -76.5q-18 -49 -49.5 -90.5t-77.5 -71.5t-106.5 -46.5t-136.5 -16.5q-74 0 -133 16t-103.5 45t-75.5 69.5t-49 88.5 q-14 36 -20 79t-6 94z" />
<glyph unicode="v" horiz-adv-x="946" d="M30 950h160l188 -528q56 -156 92 -265h4q34 104 92 265l188 528h162l-362 -950h-162z" />
<glyph unicode="w" horiz-adv-x="1458" d="M40 950h157l176 -592q35 -117 53 -187h4q16 72 53 208l159 571h174l159 -571q32 -116 53 -208h4q24 92 53 187l176 592h157l-313 -950h-161l-156 567q-28 101 -58 226h-4q-31 -131 -58 -226l-156 -567h-159z" />
<glyph unicode="x" horiz-adv-x="932" d="M20 0l360 484l-347 466h171l262 -366h4l258 366h171l-347 -470l360 -480h-168l-278 380h-4l-274 -380h-168z" />
<glyph unicode="y" horiz-adv-x="982" d="M30 950h159l295 -745h6l299 745h163l-593 -1415h-154l203 484z" />
<glyph unicode="z" horiz-adv-x="910" d="M70 0v84l538 729v4h-522v133h719v-98l-528 -715v-4h563v-133h-770z" />
<glyph unicode="{" horiz-adv-x="615" d="M120 458v122q30 0 61 3.5t55.5 17t40.5 40.5t16 74q0 54 -18 99.5t-42 87.5q-23 41 -41 84t-18 95q0 37 14 82t52.5 84t107.5 65t178 26h34v-123h-12q-110 0 -164 -36t-54 -101q0 -43 14.5 -79.5t34.5 -73.5q21 -38 36.5 -82.5t15.5 -103.5q0 -54 -16 -94t-38 -66 t-45.5 -40.5t-37.5 -17.5v-4q14 -3 37.5 -17.5t45.5 -40.5t38 -66t16 -94q0 -56 -13.5 -96.5t-31.5 -75.5q-21 -40 -38.5 -80t-17.5 -87q0 -65 54.5 -101t163.5 -36h12v-123h-34q-109 0 -178 26t-107.5 65t-52.5 83.5t-14 80.5q0 32 6 58.5t16 50t22 46t25 45.5 q21 37 35.5 78t14.5 90q0 47 -16 74t-40.5 40.5t-55.5 17t-61 3.5z" />
<glyph unicode="|" horiz-adv-x="465" d="M160 -465v1913h145v-1913h-145z" />
<glyph unicode="}" horiz-adv-x="615" d="M55 -177h12q109 0 163.5 36t54.5 101q0 47 -17.5 87t-38.5 80q-18 35 -31.5 75.5t-13.5 96.5q0 54 16 94t38 66t45.5 40.5t37.5 17.5v4q-14 3 -37.5 17.5t-45.5 40.5t-38 66t-16 94q0 59 15.5 103.5t36.5 82.5q20 37 34.5 73.5t14.5 79.5q0 65 -54 101t-164 36h-12v123 h34q109 0 178 -26t107.5 -65t52.5 -84t14 -82q0 -52 -18 -95t-41 -84q-24 -42 -42 -87.5t-18 -99.5q0 -47 16 -74t40.5 -40.5t55.5 -17t61 -3.5v-122q-30 0 -61 -3.5t-55.5 -17t-40.5 -40.5t-16 -74q0 -49 14.5 -90t35.5 -78q13 -23 25 -45.5t22 -46t16 -50t6 -58.5 q0 -36 -14 -80.5t-52.5 -83.5t-107.5 -65t-178 -26h-34v123z" />
<glyph unicode="~" d="M99 419q15 33 39 60.5t54.5 48t67.5 32t79 11.5q49 0 99 -16t96 -35q43 -18 84 -32.5t77 -14.5q49 0 83 24.5t59 66.5l102 -73q-15 -33 -39 -60.5t-54.5 -48t-67.5 -32t-79 -11.5q-43 0 -87 12.5t-85 29.5q-50 20 -95.5 38t-88.5 18q-50 0 -83 -24.5t-59 -66.5z" />
<glyph unicode="&#xa1;" horiz-adv-x="541" d="M175 755v195h191v-195h-191zM181 -388l24 907h131l24 -907h-179z" />
<glyph unicode="&#xa2;" d="M154 597q0 106 28.5 191.5t81.5 148.5t128.5 102t169.5 52v163h132v-157q58 -2 111.5 -12.5t85.5 -24.5v-135q-44 14 -94.5 24.5t-102.5 12.5v-701q50 1 107 10t100 25v-136q-41 -15 -95.5 -25t-111.5 -12v-148h-132v153q-196 22 -302 137.5t-106 331.5zM311 601 q0 -79 17 -136.5t49.5 -97.5t79 -63.5t105.5 -33.5v681q-55 -13 -101.5 -40t-79.5 -70t-51.5 -102.5t-18.5 -137.5z" />
<glyph unicode="&#xa3;" d="M119 0v143h149l41 332h-111v137h128l12 91q11 91 37.5 157.5t70 113t106 71.5t144.5 25q33 0 65.5 -3.5t62 -10t55 -15.5t44.5 -19v-134q-46 20 -103 33.5t-114 13.5q-54 0 -91 -15t-61.5 -47t-38.5 -82.5t-23 -121.5l-7 -57h318v-137h-335l-41 -332h529v-143h-837z" />
<glyph unicode="&#xa4;" d="M95 324l140 140q-31 44 -48 95.5t-17 109.5q0 57 16.5 109t47.5 96l-138 139l85 85l138 -139q44 31 96 48.5t110 17.5t110 -17t96 -48l138 138l85 -85l-138 -138q31 -44 48 -96t17 -110t-17.5 -110t-48.5 -96l140 -139l-85 -85l-140 139q-44 -31 -96 -47.5t-109 -16.5 q-58 0 -109.5 17t-95.5 48l-140 -140zM307 669q0 -47 16.5 -88t45.5 -71t69 -47.5t87 -17.5t87.5 17.5t69.5 47.5t45.5 71t16.5 88t-16.5 88t-45.5 71.5t-69.5 48t-87.5 17.5t-87 -17.5t-69 -48t-45.5 -71.5t-16.5 -88z" />
<glyph unicode="&#xa5;" d="M82 1045h168l272 -499h5l272 499h168l-303 -533h201v-133h-262v-142h262v-133h-262v-130h-157v130h-262v133h262v142h-262v133h200z" />
<glyph unicode="&#xa6;" horiz-adv-x="465" d="M160 231h145v-696h-145v696zM160 720v728h145v-728h-145z" />
<glyph unicode="&#xa7;" horiz-adv-x="873" d="M100 -228q59 -23 119 -38t123 -15q83 0 126.5 35t43.5 110q0 47 -23 100t-59 112.5t-80.5 127t-87.5 142.5q-32 56 -61 116t-50.5 125.5t-34.5 135.5t-13 145q0 146 37 242t95 152t129.5 78.5t139.5 22.5q79 0 146.5 -15t122.5 -38v-132q-60 23 -121.5 38t-126.5 15 q-85 0 -124.5 -39t-39.5 -106q0 -45 22 -96.5t56.5 -110t77.5 -123.5t85 -137q33 -57 63.5 -119t54 -128.5t37 -139t13.5 -150.5q0 -146 -36.5 -242t-95 -152t-132 -78.5t-147.5 -22.5q-80 0 -142.5 15t-116.5 38v132zM222 914q0 -70 14 -135.5t37 -127t53.5 -120 t63.5 -115.5q41 -71 82.5 -140.5t73.5 -139t49.5 -136t17.5 -130.5q0 -8 -1 -21h12q14 46 20.5 94t6.5 93q0 69 -13.5 133.5t-36 125t-52.5 118.5t-62 114q-42 72 -83.5 142.5t-74.5 141t-51 137t-18 129.5q0 12 1 24h-12q-14 -50 -20.5 -96t-6.5 -91z" />
<glyph unicode="&#xa8;" horiz-adv-x="700" d="M0 950zM80 1171v167h159v-167h-159zM461 1171v167h159v-167h-159z" />
<glyph unicode="&#xa9;" horiz-adv-x="1686" d="M150 669q0 150 52.5 277t145.5 219.5t220 145t275 52.5t275 -52.5t220 -145t145.5 -219.5t52.5 -277t-52.5 -277t-145.5 -219.5t-220 -145t-275 -52.5t-275 52.5t-220 145t-145.5 219.5t-52.5 277zM282 669q0 -117 41 -221t115 -181t177 -122t228 -45t228 45t177 122 t115 181t41 221t-41 221t-115 181t-177 122t-228 45t-228 -45t-177 -122t-115 -181t-41 -221zM481 660q0 91 29.5 165.5t81.5 127.5t124 82t156 29q48 0 94 -7.5t73 -20.5v-125q-34 12 -74.5 19.5t-81.5 7.5q-55 0 -102.5 -17t-82.5 -51t-54.5 -86t-19.5 -121t18 -119 t52 -81.5t83 -46.5t110 -15q36 0 81 7.5t78 19.5v-126q-33 -12 -79.5 -19t-94.5 -7q-88 0 -160 25.5t-123.5 74t-79.5 120t-28 164.5z" />
<glyph unicode="&#xaa;" horiz-adv-x="777" d="M75 719q0 53 19.5 96.5t54.5 74.5t83.5 48t105.5 17q52 0 99 -8.5t84 -20.5h4v50q1 67 -43 107t-140 40q-52 0 -104.5 -10.5t-100.5 -28.5v118q39 18 98.5 30t122.5 12q146 0 227.5 -67.5t81.5 -191.5v-472h-125l-11 83h-4q-15 -19 -36.5 -37t-48.5 -32.5t-60.5 -23.5 t-70.5 -9q-51 0 -94 15.5t-74.5 45t-49.5 71t-18 93.5zM217 718q0 -48 32 -75.5t83 -27.5q57 0 105.5 23.5t87.5 58.5v113q-35 10 -79.5 17t-89.5 7q-29 0 -54.5 -6.5t-44 -21t-29.5 -36.5t-11 -52z" />
<glyph unicode="&#xab;" horiz-adv-x="997" d="M110 474l293 376h151l-259 -376l259 -376h-151zM507 474l265 376h145l-225 -376l225 -376h-145z" />
<glyph unicode="&#xac;" d="M115 455v132h820v-495h-140v363h-680z" />
<glyph unicode="&#xae;" horiz-adv-x="1270" d="M150 879q0 105 37.5 193.5t102.5 153t154 101t191 36.5t191 -36.5t154 -101t102.5 -153t37.5 -193.5t-37.5 -193.5t-102.5 -153t-154 -101t-191 -36.5t-191 36.5t-154 101t-102.5 153t-37.5 193.5zM255 879q0 -81 27 -152.5t77 -124t120 -83t156 -30.5t156 30.5t120 83 t77 124t27 152.5t-27 152.5t-77 124t-120 83t-156 30.5t-156 -30.5t-120 -83t-77 -124t-27 -152.5zM457 634v496h171q39 0 75.5 -7.5t64.5 -25.5t45 -46.5t17 -70.5q0 -60 -33.5 -95t-90.5 -46v-4l136 -201h-114l-121 190h-51v-190h-99zM556 909h55q58 0 86.5 16.5 t28.5 54.5q0 29 -19.5 47t-69.5 18h-81v-136z" />
<glyph unicode="&#xaf;" horiz-adv-x="700" d="M0 950zM80 1171v129h540v-129h-540z" />
<glyph unicode="&#xb0;" horiz-adv-x="836" d="M80 1027q0 72 26 133.5t71.5 106.5t107 70.5t133.5 25.5t133.5 -25.5t107 -70.5t71.5 -106.5t26 -133.5t-26 -133.5t-71.5 -106.5t-107 -70.5t-133.5 -25.5t-133.5 25.5t-107 70.5t-71.5 106.5t-26 133.5zM228 1027q0 -42 14 -77.5t39.5 -62t60 -41.5t76.5 -15t77 15 t60.5 41.5t39.5 62t14 77.5t-14 78t-39.5 62.5t-60.5 41.5t-77 15t-76.5 -15t-60 -41.5t-39.5 -62.5t-14 -78z" />
<glyph unicode="&#xb1;" d="M115 0v132h820v-132h-820zM115 533v132h340v285h140v-285h340v-132h-340v-285h-140v285h-340z" />
<glyph unicode="&#xb2;" horiz-adv-x="641" d="M50 513v89q90 102 157.5 179t112 137.5t66.5 109.5t22 95q0 31 -11 53.5t-30.5 37t-45.5 21.5t-57 7q-51 0 -100.5 -14t-100.5 -37v121q36 19 93 34.5t124 16.5q69 0 119.5 -17t84 -47.5t50 -72t16.5 -90.5q0 -55 -17.5 -106.5t-56.5 -109.5t-100 -128.5t-148 -163.5v-4 q78 6 133 6h220v-117h-531z" />
<glyph unicode="&#xb3;" horiz-adv-x="606" d="M40 531v119q41 -19 90 -27t93 -8q49 0 85 10.5t58.5 29.5t32.5 45t10 56q0 63 -51 95t-146 32h-66v117h51q99 0 145 34t46 98q0 30 -12 51t-33 34t-48.5 19t-58.5 6q-48 0 -94.5 -10t-88.5 -27v121q35 15 87.5 26t107.5 11q66 0 118.5 -16t89 -45t55.5 -69.5t19 -88.5 q0 -32 -8 -62t-24.5 -55.5t-43 -45.5t-63.5 -32v-4q31 -4 60 -17t51 -37t35.5 -59.5t13.5 -83.5q0 -60 -23.5 -107t-66.5 -79.5t-103 -50t-129 -17.5q-48 0 -101 9.5t-88 27.5z" />
<glyph unicode="&#xb4;" horiz-adv-x="700" d="M0 950zM215 1124l123 349h168l-161 -349h-130z" />
<glyph unicode="&#xb5;" horiz-adv-x="1180" d="M160 -465v1415h155v-589q0 -66 15.5 -113.5t44.5 -77.5t70.5 -44.5t93.5 -14.5q66 0 119 21t90.5 63.5t57.5 107t20 151.5v496h155v-638q0 -60 6 -99t18 -61.5t30.5 -31.5t43.5 -9q6 0 20.5 1.5t25.5 4.5v-123q-17 -4 -39 -6.5t-39 -2.5q-46 0 -79.5 11.5t-57 32t-38 50 t-22.5 65.5h-4q-52 -94 -132 -131.5t-180 -37.5q-72 0 -130 26t-90 71h-4l4 -362l1 -175h-155z" />
<glyph unicode="&#xb6;" horiz-adv-x="1184" d="M95 824q0 114 38.5 208.5t108 162.5t165.5 105.5t217 37.5h390v-1725h-155v1588h-206v-1588h-155v708q-91 18 -165 62t-127 109t-82 149t-29 183z" />
<glyph unicode="&#xb7;" horiz-adv-x="541" d="M175 394v195h191v-195h-191z" />
<glyph unicode="&#xb8;" horiz-adv-x="700" d="M152 -358q20 -6 50.5 -11t68.5 -6q29 0 56 3.5t49.5 13t36 25.5t13.5 39q0 21 -14 35.5t-39.5 23.5t-62 13.5t-81.5 6.5l65 215h122l-35 -126q40 -6 73.5 -18.5t57.5 -32.5t37 -48.5t13 -65.5q0 -52 -23 -89.5t-61.5 -62t-88.5 -36t-104 -11.5q-43 0 -77.5 5.5 t-55.5 13.5v113z" />
<glyph unicode="&#xb9;" horiz-adv-x="631" d="M55 1138v127l236 86h129v-721h171v-117h-518v117h205v583z" />
<glyph unicode="&#xba;" horiz-adv-x="838" d="M75 869q0 83 25.5 152t71.5 118.5t109 77t138 27.5q77 0 140.5 -27.5t108.5 -77t70 -118.5t25 -152t-25.5 -152t-71.5 -118.5t-108.5 -77t-137.5 -27.5q-77 0 -140.5 27.5t-109 77t-70.5 118.5t-25 152zM217 869q0 -64 14.5 -111.5t41.5 -79t64.5 -47.5t82.5 -16 q90 0 145.5 63.5t55.5 190.5q0 64 -14.5 111.5t-41.5 79t-64 47.5t-82 16q-92 0 -147 -64t-55 -190z" />
<glyph unicode="&#xbb;" horiz-adv-x="997" d="M80 98l225 376l-225 376h145l265 -376l-265 -376h-145zM443 98l259 376l-259 376h151l293 -376l-293 -376h-151z" />
<glyph unicode="&#xbc;" horiz-adv-x="1670" d="M55 1138v127l236 86h129v-721h171v-117h-518v117h205v583zM393 53l977 1310l101 -78l-977 -1310zM1036 195v98l230 540h143l-224 -523v-4l91 6h106v192h142v-192h96v-117h-96v-187h-142v187h-346z" />
<glyph unicode="&#xbd;" horiz-adv-x="1776" d="M55 1138v127l236 86h129v-721h171v-117h-518v117h205v583zM393 53l977 1310l101 -78l-977 -1310zM1195 8v89q90 102 157.5 179t112 137.5t66.5 109.5t22 95q0 31 -11 53.5t-30.5 37t-45.5 21.5t-57 7q-51 0 -100.5 -14t-100.5 -37v121q36 19 93 34.5t124 16.5 q69 0 119.5 -17t84 -47.5t50 -72t16.5 -90.5q0 -55 -17.5 -106.5t-56.5 -109.5t-100 -128.5t-148 -163.5v-4q78 6 133 6h220v-117h-531z" />
<glyph unicode="&#xbe;" horiz-adv-x="1592" d="M40 531v119q41 -19 90 -27t93 -8q49 0 85 10.5t58.5 29.5t32.5 45t10 56q0 63 -51 95t-146 32h-66v117h51q99 0 145 34t46 98q0 30 -12 51t-33 34t-48.5 19t-58.5 6q-48 0 -94.5 -10t-88.5 -27v121q35 15 87.5 26t107.5 11q66 0 118.5 -16t89 -45t55.5 -69.5t19 -88.5 q0 -32 -8 -62t-24.5 -55.5t-43 -45.5t-63.5 -32v-4q31 -4 60 -17t51 -37t35.5 -59.5t13.5 -83.5q0 -60 -23.5 -107t-66.5 -79.5t-103 -50t-129 -17.5q-48 0 -101 9.5t-88 27.5zM298 53l977 1310l101 -78l-977 -1310zM958 195v98l230 540h143l-224 -523v-4l91 6h106v192h142 v-192h96v-117h-96v-187h-142v187h-346z" />
<glyph unicode="&#xbf;" horiz-adv-x="873" d="M101 -99q0 56 16.5 101.5t43.5 81.5t61.5 65.5t70.5 57.5t70.5 57t62 64t43.5 78t16 97v16h137q2 -26 2 -44q0 -74 -21.5 -129t-56.5 -96t-76.5 -73.5t-82.5 -63.5q-25 -20 -48 -41.5t-40 -46t-27 -53t-10 -64.5q0 -44 18.5 -79t52 -59t80 -37t103.5 -13q77 0 148.5 19 t128.5 45v-132q-54 -29 -130.5 -47t-153.5 -18q-94 0 -170 22.5t-128.5 64t-81 99t-28.5 128.5zM459 755v195h191v-195h-191z" />
<glyph unicode="&#xc0;" horiz-adv-x="1301" d="M35 0l545 1338h141l545 -1338h-177l-160 403h-559l-160 -403h-175zM244 1338zM395 1656h174l146 -247h-139zM428 550h443l-50 126q-82 208 -168 454h-4q-89 -250 -171 -454z" />
<glyph unicode="&#xc1;" horiz-adv-x="1301" d="M35 0l545 1338h141l545 -1338h-177l-160 403h-559l-160 -403h-175zM428 550h443l-50 126q-82 208 -168 454h-4q-89 -250 -171 -454zM441 1338zM591 1409l146 247h174l-181 -247h-139z" />
<glyph unicode="&#xc2;" horiz-adv-x="1301" d="M35 0l545 1338h141l545 -1338h-177l-160 403h-559l-160 -403h-175zM301 1338zM354 1409l216 247h161l216 -247h-158l-137 151h-4l-136 -151h-158zM428 550h443l-50 126q-82 208 -168 454h-4q-89 -250 -171 -454z" />
<glyph unicode="&#xc3;" horiz-adv-x="1301" d="M35 0l545 1338h141l545 -1338h-177l-160 403h-559l-160 -403h-175zM298 1338zM335 1429v14q-1 35 6.5 72t28 65.5t54 44.5t81.5 16q41 0 80 -14.5t72 -32t62.5 -32t55.5 -14.5q34 0 47.5 23t13.5 62h125v-22q0 -33 -7 -66.5t-27.5 -62t-54 -45t-81.5 -16.5 q-41 0 -80 14.5t-72 32t-62.5 32t-55.5 14.5q-34 0 -47.5 -23t-13.5 -62h-125zM428 550h443l-50 126q-82 208 -168 454h-4q-89 -250 -171 -454z" />
<glyph unicode="&#xc4;" horiz-adv-x="1301" d="M35 0l545 1338h141l545 -1338h-177l-160 403h-559l-160 -403h-175zM301 1338zM379 1448v169h161v-169h-161zM428 550h443l-50 126q-82 208 -168 454h-4q-89 -250 -171 -454zM762 1448v169h161v-169h-161z" />
<glyph unicode="&#xc5;" horiz-adv-x="1301" d="M35 0l545 1338h141l545 -1338h-177l-160 403h-559l-160 -403h-175zM299 1338zM420 1563q0 44 18 79t48.5 59t72.5 36.5t90 12.5t90 -12.5t72.5 -36.5t48.5 -59t18 -79t-18 -79t-48.5 -59t-72.5 -36.5t-90 -12.5t-90 12.5t-72.5 36.5t-48.5 59t-18 79zM428 550h443 l-50 126q-82 208 -168 454h-4q-89 -250 -171 -454zM543 1563q0 -44 30.5 -66.5t75.5 -22.5t75.5 22.5t30.5 66.5t-30.5 66.5t-75.5 22.5t-75.5 -22.5t-30.5 -66.5z" />
<glyph unicode="&#xc6;" horiz-adv-x="1814" d="M30 0l708 1338h886v-147h-638l56 -432h520v-147h-501l59 -465h614v-147h-752l-52 401h-514l-211 -401h-175zM493 550h418l-80 641h-4z" />
<glyph unicode="&#xc7;" horiz-adv-x="1207" d="M120 652q0 156 47.5 287t137 225t217 146.5t286.5 52.5q42 0 83 -3.5t78.5 -10t69.5 -15.5t55 -19v-144q-60 20 -131 33.5t-143 13.5q-111 0 -207.5 -35.5t-167.5 -106t-112 -175t-41 -243.5q0 -138 38 -239.5t108 -168t168.5 -98.5t219.5 -32q33 0 70 3.5t74.5 10t73 15 t63.5 18.5v-144q-59 -23 -137 -35.5t-160 -12.5q-14 0 -27 0.5t-27 1.5l-28 -103q40 -6 73.5 -18.5t57.5 -32.5t37 -48.5t13 -65.5q0 -52 -23 -89.5t-61.5 -62t-88.5 -36t-104 -11.5q-43 0 -77.5 5.5t-55.5 13.5v113q12 -4 27.5 -7t32 -5.5t32 -3.5t27.5 -1q29 0 56.5 3.5 t49.5 13t35.5 25t13.5 39.5q0 21 -14 35.5t-39.5 23.5t-62 13.5t-81.5 6.5l62 204q-126 22 -223 77t-162.5 139.5t-99 197t-33.5 249.5z" />
<glyph unicode="&#xc8;" horiz-adv-x="1129" d="M170 0v1338h812v-147h-649v-432h577v-147h-577v-465h686v-147h-849zM202 1338zM353 1656h174l146 -247h-139z" />
<glyph unicode="&#xc9;" horiz-adv-x="1129" d="M170 0v1338h812v-147h-649v-432h577v-147h-577v-465h686v-147h-849zM353 1338zM503 1409l146 247h174l-181 -247h-139z" />
<glyph unicode="&#xca;" horiz-adv-x="1129" d="M170 0v1338h812v-147h-649v-432h577v-147h-577v-465h686v-147h-849zM227 1338zM280 1409l216 247h161l216 -247h-158l-137 151h-4l-136 -151h-158z" />
<glyph unicode="&#xcb;" horiz-adv-x="1129" d="M170 0v1338h812v-147h-649v-432h577v-147h-577v-465h686v-147h-849zM224 1338zM302 1448v169h161v-169h-161zM685 1448v169h161v-169h-161z" />
<glyph unicode="&#xcc;" horiz-adv-x="503" d="M-126 1338zM25 1656h174l146 -247h-139zM170 0v1338h163v-1338h-163z" />
<glyph unicode="&#xcd;" horiz-adv-x="503" d="M21 1338zM170 0v1338h163v-1338h-163zM171 1409l146 247h174l-181 -247h-139z" />
<glyph unicode="&#xce;" horiz-adv-x="503" d="M-92 1338zM-39 1409l216 247h161l216 -247h-158l-137 151h-4l-136 -151h-158zM170 0v1338h163v-1338h-163z" />
<glyph unicode="&#xcf;" horiz-adv-x="503" d="M-93 1338zM-15 1448v169h161v-169h-161zM170 0v1338h163v-1338h-163zM368 1448v169h161v-169h-161z" />
<glyph unicode="&#xd0;" horiz-adv-x="1404" d="M60 612v147h140v579h306q91 0 169 -7.5t145 -26.5q117 -33 204.5 -92t145 -139.5t86 -181t28.5 -216.5q0 -117 -29 -220t-87.5 -185.5t-146 -142.5t-204.5 -93q-67 -19 -145 -26.5t-169 -7.5h-303v612h-140zM363 147h123q93 0 167 7t134 26q157 50 241 175t84 320 q0 193 -84 313t-241 170q-60 19 -134 26t-167 7h-123v-432h344v-147h-344v-465z" />
<glyph unicode="&#xd1;" horiz-adv-x="1426" d="M170 0v1338h162l525 -746q123 -177 243 -364h6q-13 195 -13 398v712h163v-1338h-162l-525 746q-136 195 -243 364h-6q13 -183 13 -427v-683h-163zM373 1338zM410 1429v14q-1 35 6.5 72t28 65.5t54 44.5t81.5 16q41 0 80 -14.5t72 -32t62.5 -32t55.5 -14.5q34 0 47.5 23 t13.5 62h125v-22q0 -33 -7 -66.5t-27.5 -62t-54 -45t-81.5 -16.5q-41 0 -80 14.5t-72 32t-62.5 32t-55.5 14.5q-34 0 -47.5 -23t-13.5 -62h-125z" />
<glyph unicode="&#xd2;" horiz-adv-x="1496" d="M120 668q0 153 44.5 280.5t126 219.5t197.5 143.5t260 51.5q147 0 263.5 -51.5t197.5 -143.5t124 -219.5t43 -280.5q0 -152 -44 -279t-126 -219t-197.5 -143.5t-258.5 -51.5q-148 0 -265 51.5t-198 143.5t-124 219t-43 279zM292 668q0 -135 35.5 -237.5t97 -171.5 t145 -104t180.5 -35q96 0 178.5 35t144 104t96.5 171.5t35 237.5t-35 238t-96.5 172t-145 104.5t-179.5 35.5t-179.5 -35.5t-145 -104.5t-96.5 -172t-35 -238zM358 1338zM509 1656h174l146 -247h-139z" />
<glyph unicode="&#xd3;" horiz-adv-x="1496" d="M120 668q0 153 44.5 280.5t126 219.5t197.5 143.5t260 51.5q147 0 263.5 -51.5t197.5 -143.5t124 -219.5t43 -280.5q0 -152 -44 -279t-126 -219t-197.5 -143.5t-258.5 -51.5q-148 0 -265 51.5t-198 143.5t-124 219t-43 279zM292 668q0 -135 35.5 -237.5t97 -171.5 t145 -104t180.5 -35q96 0 178.5 35t144 104t96.5 171.5t35 237.5t-35 238t-96.5 172t-145 104.5t-179.5 35.5t-179.5 -35.5t-145 -104.5t-96.5 -172t-35 -238zM520 1338zM670 1409l146 247h174l-181 -247h-139z" />
<glyph unicode="&#xd4;" horiz-adv-x="1496" d="M120 668q0 153 44.5 280.5t126 219.5t197.5 143.5t260 51.5q147 0 263.5 -51.5t197.5 -143.5t124 -219.5t43 -280.5q0 -152 -44 -279t-126 -219t-197.5 -143.5t-258.5 -51.5q-148 0 -265 51.5t-198 143.5t-124 219t-43 279zM292 668q0 -135 35.5 -237.5t97 -171.5 t145 -104t180.5 -35q96 0 178.5 35t144 104t96.5 171.5t35 237.5t-35 238t-96.5 172t-145 104.5t-179.5 35.5t-179.5 -35.5t-145 -104.5t-96.5 -172t-35 -238zM401 1338zM454 1409l216 247h161l216 -247h-158l-137 151h-4l-136 -151h-158z" />
<glyph unicode="&#xd5;" horiz-adv-x="1496" d="M120 668q0 153 44.5 280.5t126 219.5t197.5 143.5t260 51.5q147 0 263.5 -51.5t197.5 -143.5t124 -219.5t43 -280.5q0 -152 -44 -279t-126 -219t-197.5 -143.5t-258.5 -51.5q-148 0 -265 51.5t-198 143.5t-124 219t-43 279zM292 668q0 -135 35.5 -237.5t97 -171.5 t145 -104t180.5 -35q96 0 178.5 35t144 104t96.5 171.5t35 237.5t-35 238t-96.5 172t-145 104.5t-179.5 35.5t-179.5 -35.5t-145 -104.5t-96.5 -172t-35 -238zM399 1338zM436 1429v14q-1 35 6.5 72t28 65.5t54 44.5t81.5 16q41 0 80 -14.5t72 -32t62.5 -32t55.5 -14.5 q34 0 47.5 23t13.5 62h125v-22q0 -33 -7 -66.5t-27.5 -62t-54 -45t-81.5 -16.5q-41 0 -80 14.5t-72 32t-62.5 32t-55.5 14.5q-34 0 -47.5 -23t-13.5 -62h-125z" />
<glyph unicode="&#xd6;" horiz-adv-x="1496" d="M120 668q0 153 44.5 280.5t126 219.5t197.5 143.5t260 51.5q147 0 263.5 -51.5t197.5 -143.5t124 -219.5t43 -280.5q0 -152 -44 -279t-126 -219t-197.5 -143.5t-258.5 -51.5q-148 0 -265 51.5t-198 143.5t-124 219t-43 279zM292 668q0 -135 35.5 -237.5t97 -171.5 t145 -104t180.5 -35q96 0 178.5 35t144 104t96.5 171.5t35 237.5t-35 238t-96.5 172t-145 104.5t-179.5 35.5t-179.5 -35.5t-145 -104.5t-96.5 -172t-35 -238zM398 1338zM476 1448v169h161v-169h-161zM859 1448v169h161v-169h-161z" />
<glyph unicode="&#xd7;" d="M105 848l94 93l326 -327l327 327l93 -93l-327 -327l327 -326l-94 -93l-326 326l-326 -326l-93 93l326 326z" />
<glyph unicode="&#xd8;" horiz-adv-x="1496" d="M120 71l130 146q-64 89 -97 203t-33 248q0 153 44.5 280.5t126 219.5t197.5 143.5t260 51.5q121 0 221 -35t178 -100l120 135l109 -95l-130 -147q63 -89 96.5 -203.5t33.5 -249.5q0 -152 -44 -279t-126 -219t-197.5 -143.5t-258.5 -51.5q-123 0 -223.5 35t-178.5 100 l-120 -135zM292 668q0 -99 18.5 -179t53.5 -144l677 764q-59 54 -133.5 81.5t-159.5 27.5q-96 0 -179.5 -35.5t-145 -104.5t-96.5 -172t-35 -238zM454 229q60 -54 135 -81.5t161 -27.5q96 0 178.5 35t144 104t96.5 171.5t35 237.5q0 99 -19 179.5t-54 144.5z" />
<glyph unicode="&#xd9;" horiz-adv-x="1374" d="M165 512v826h163v-830q0 -45 6.5 -92.5t20.5 -86.5q35 -97 116.5 -153t215.5 -56q73 0 129.5 17t98.5 48t70 74.5t43 96.5q10 33 14 73.5t4 78.5v830h163v-826q0 -47 -5 -98t-16 -95q-19 -74 -57 -137t-99 -109t-146.5 -72t-200.5 -26q-110 0 -193 24t-142.5 66.5 t-97.5 101t-59 127.5q-15 50 -21.5 107t-6.5 111zM293 1338zM444 1656h174l146 -247h-139z" />
<glyph unicode="&#xda;" horiz-adv-x="1374" d="M165 512v826h163v-830q0 -45 6.5 -92.5t20.5 -86.5q35 -97 116.5 -153t215.5 -56q73 0 129.5 17t98.5 48t70 74.5t43 96.5q10 33 14 73.5t4 78.5v830h163v-826q0 -47 -5 -98t-16 -95q-19 -74 -57 -137t-99 -109t-146.5 -72t-200.5 -26q-110 0 -193 24t-142.5 66.5 t-97.5 101t-59 127.5q-15 50 -21.5 107t-6.5 111zM455 1338zM605 1409l146 247h174l-181 -247h-139z" />
<glyph unicode="&#xdb;" horiz-adv-x="1374" d="M165 512v826h163v-830q0 -45 6.5 -92.5t20.5 -86.5q35 -97 116.5 -153t215.5 -56q73 0 129.5 17t98.5 48t70 74.5t43 96.5q10 33 14 73.5t4 78.5v830h163v-826q0 -47 -5 -98t-16 -95q-19 -74 -57 -137t-99 -109t-146.5 -72t-200.5 -26q-110 0 -193 24t-142.5 66.5 t-97.5 101t-59 127.5q-15 50 -21.5 107t-6.5 111zM335 1338zM388 1409l216 247h161l216 -247h-158l-137 151h-4l-136 -151h-158z" />
<glyph unicode="&#xdc;" horiz-adv-x="1374" d="M165 512v826h163v-830q0 -45 6.5 -92.5t20.5 -86.5q35 -97 116.5 -153t215.5 -56q73 0 129.5 17t98.5 48t70 74.5t43 96.5q10 33 14 73.5t4 78.5v830h163v-826q0 -47 -5 -98t-16 -95q-19 -74 -57 -137t-99 -109t-146.5 -72t-200.5 -26q-110 0 -193 24t-142.5 66.5 t-97.5 101t-59 127.5q-15 50 -21.5 107t-6.5 111zM337 1338zM415 1448v169h161v-169h-161zM798 1448v169h161v-169h-161z" />
<glyph unicode="&#xdd;" horiz-adv-x="1217" d="M40 1338h178l388 -650h5l388 650h178l-487 -800v-538h-163v538zM382 1338zM532 1409l146 247h174l-181 -247h-139z" />
<glyph unicode="&#xde;" horiz-adv-x="1162" d="M170 0v1338h163v-271h193q90 0 161.5 -10t130.5 -31q120 -43 182 -127t62 -210q0 -102 -40 -176.5t-116 -122.5t-185.5 -71.5t-248.5 -23.5q-67 0 -139 6v-301h-163zM333 450q33 -4 69 -6t68 -2q115 0 195 15t129.5 45.5t72 77t22.5 109.5q0 78 -37.5 127t-106.5 75 q-43 16 -99 22.5t-130 6.5h-183v-470z" />
<glyph unicode="&#xdf;" horiz-adv-x="1248" d="M160 0v994q0 108 30.5 196t89.5 151t145 97.5t197 34.5q95 0 164.5 -23.5t115 -62.5t67.5 -89.5t22 -105.5q0 -56 -18 -98.5t-45.5 -77t-59 -63.5t-59 -57.5t-45.5 -60t-18 -71.5q0 -33 14 -57t38 -42.5t55 -34t65 -30.5q43 -19 86.5 -42.5t79 -57.5t57.5 -83.5 t22 -121.5t-28 -131t-79 -101t-122 -65t-156 -23q-45 0 -82 5.5t-67 13.5t-52.5 17.5t-36.5 17.5v130q30 -12 56.5 -21.5t53 -16.5t54.5 -10.5t60 -3.5q56 0 101 13t77.5 37t50 57.5t17.5 74.5q0 42 -16 72.5t-42 53t-60.5 40t-70.5 33.5q-41 19 -82 39.5t-73.5 50 t-52.5 71.5t-20 102q0 59 18 103t45 79.5t59 64.5t59 58t45 60t18 71q0 32 -12 59.5t-37.5 48t-66.5 32t-99 11.5q-79 0 -136.5 -25.5t-95.5 -72t-56.5 -111.5t-18.5 -144v-985h-155z" />
<glyph unicode="&#xe0;" horiz-adv-x="1003" d="M70 950zM95 281q0 71 25.5 127t71.5 95t110.5 60t142.5 21q74 -1 137 -13t112 -30h4v66q0 39 -5 69t-17 53q-26 48 -83 79.5t-154 31.5q-72 0 -135.5 -13.5t-126.5 -37.5v130q24 12 56.5 22.5t68.5 18t76 11.5t80 4q144 0 235.5 -51t131.5 -135q15 -32 21.5 -70.5 t6.5 -84.5v-634h-130l-17 105h-4q-19 -24 -48 -47.5t-67 -42t-83 -29.5t-96 -11q-69 0 -126.5 20.5t-99 60t-64.5 96.5t-23 129zM255 281q0 -44 14 -77t38.5 -54.5t58 -32t71.5 -10.5q50 0 93 14.5t76.5 34.5t57 40t34.5 31v190q-43 12 -102 23t-130 12q-99 0 -155 -42 t-56 -129zM278 1473h168l123 -349h-130z" />
<glyph unicode="&#xe1;" horiz-adv-x="1003" d="M95 281q0 71 25.5 127t71.5 95t110.5 60t142.5 21q74 -1 137 -13t112 -30h4v66q0 39 -5 69t-17 53q-26 48 -83 79.5t-154 31.5q-72 0 -135.5 -13.5t-126.5 -37.5v130q24 12 56.5 22.5t68.5 18t76 11.5t80 4q144 0 235.5 -51t131.5 -135q15 -32 21.5 -70.5t6.5 -84.5v-634 h-130l-17 105h-4q-19 -24 -48 -47.5t-67 -42t-83 -29.5t-96 -11q-69 0 -126.5 20.5t-99 60t-64.5 96.5t-23 129zM199 950zM255 281q0 -44 14 -77t38.5 -54.5t58 -32t71.5 -10.5q50 0 93 14.5t76.5 34.5t57 40t34.5 31v190q-43 12 -102 23t-130 12q-99 0 -155 -42t-56 -129z M414 1124l123 349h168l-161 -349h-130z" />
<glyph unicode="&#xe2;" horiz-adv-x="1003" d="M95 281q0 71 25.5 127t71.5 95t110.5 60t142.5 21q74 -1 137 -13t112 -30h4v66q0 39 -5 69t-17 53q-26 48 -83 79.5t-154 31.5q-72 0 -135.5 -13.5t-126.5 -37.5v130q24 12 56.5 22.5t68.5 18t76 11.5t80 4q144 0 235.5 -51t131.5 -135q15 -32 21.5 -70.5t6.5 -84.5v-634 h-130l-17 105h-4q-19 -24 -48 -47.5t-67 -42t-83 -29.5t-96 -11q-69 0 -126.5 20.5t-99 60t-64.5 96.5t-23 129zM156 950zM217 1124l210 349h157l210 -349h-140l-147 246h-4l-146 -246h-140zM255 281q0 -44 14 -77t38.5 -54.5t58 -32t71.5 -10.5q50 0 93 14.5t76.5 34.5 t57 40t34.5 31v190q-43 12 -102 23t-130 12q-99 0 -155 -42t-56 -129z" />
<glyph unicode="&#xe3;" horiz-adv-x="1003" d="M95 281q0 71 25.5 127t71.5 95t110.5 60t142.5 21q74 -1 137 -13t112 -30h4v66q0 39 -5 69t-17 53q-26 48 -83 79.5t-154 31.5q-72 0 -135.5 -13.5t-126.5 -37.5v130q24 12 56.5 22.5t68.5 18t76 11.5t80 4q144 0 235.5 -51t131.5 -135q15 -32 21.5 -70.5t6.5 -84.5v-634 h-130l-17 105h-4q-19 -24 -48 -47.5t-67 -42t-83 -29.5t-96 -11q-69 0 -126.5 20.5t-99 60t-64.5 96.5t-23 129zM135 950zM174 1178v23q0 34 7.5 67.5t27 61t52.5 44t81 16.5q41 0 80 -14.5t72 -32.5t64.5 -33t55.5 -15q31 0 45.5 22t14.5 65h122v-23q0 -34 -7.5 -67.5 t-27 -61t-52.5 -44t-81 -16.5q-41 0 -80 14.5t-72 32.5t-64.5 33t-55.5 15q-31 0 -45.5 -22t-14.5 -65h-122zM255 281q0 -44 14 -77t38.5 -54.5t58 -32t71.5 -10.5q50 0 93 14.5t76.5 34.5t57 40t34.5 31v190q-43 12 -102 23t-130 12q-99 0 -155 -42t-56 -129z" />
<glyph unicode="&#xe4;" horiz-adv-x="1003" d="M95 281q0 71 25.5 127t71.5 95t110.5 60t142.5 21q74 -1 137 -13t112 -30h4v66q0 39 -5 69t-17 53q-26 48 -83 79.5t-154 31.5q-72 0 -135.5 -13.5t-126.5 -37.5v130q24 12 56.5 22.5t68.5 18t76 11.5t80 4q144 0 235.5 -51t131.5 -135q15 -32 21.5 -70.5t6.5 -84.5v-634 h-130l-17 105h-4q-19 -24 -48 -47.5t-67 -42t-83 -29.5t-96 -11q-69 0 -126.5 20.5t-99 60t-64.5 96.5t-23 129zM149 950zM229 1171v167h159v-167h-159zM255 281q0 -44 14 -77t38.5 -54.5t58 -32t71.5 -10.5q50 0 93 14.5t76.5 34.5t57 40t34.5 31v190q-43 12 -102 23 t-130 12q-99 0 -155 -42t-56 -129zM610 1171v167h159v-167h-159z" />
<glyph unicode="&#xe5;" horiz-adv-x="1003" d="M95 281q0 71 25.5 127t71.5 95t110.5 60t142.5 21q74 -1 137 -13t112 -30h4v66q0 39 -5 69t-17 53q-26 48 -83 79.5t-154 31.5q-72 0 -135.5 -13.5t-126.5 -37.5v130q24 12 56.5 22.5t68.5 18t76 11.5t80 4q144 0 235.5 -51t131.5 -135q15 -32 21.5 -70.5t6.5 -84.5v-634 h-130l-17 105h-4q-19 -24 -48 -47.5t-67 -42t-83 -29.5t-96 -11q-69 0 -126.5 20.5t-99 60t-64.5 96.5t-23 129zM129 950zM250 1295q0 46 18 82t48.5 61t72.5 38.5t90 13.5t90 -13.5t72.5 -38.5t48.5 -61t18 -82t-18 -82t-48.5 -61t-72.5 -38.5t-90 -13.5t-90 13.5 t-72.5 38.5t-48.5 61t-18 82zM255 281q0 -44 14 -77t38.5 -54.5t58 -32t71.5 -10.5q50 0 93 14.5t76.5 34.5t57 40t34.5 31v190q-43 12 -102 23t-130 12q-99 0 -155 -42t-56 -129zM373 1295q0 -47 30.5 -72t75.5 -25t75.5 25t30.5 72t-30.5 72t-75.5 25t-75.5 -25t-30.5 -72 z" />
<glyph unicode="&#xe6;" horiz-adv-x="1592" d="M95 281q0 71 25.5 127t71.5 95t110.5 60t142.5 21q76 0 138.5 -12.5t111.5 -30.5h4v58q0 116 -60.5 178.5t-199.5 62.5q-72 0 -135.5 -13.5t-126.5 -37.5v130q25 12 55.5 22t67.5 17.5t77.5 12t80.5 4.5q71 0 123.5 -12.5t91.5 -35.5t67 -54t49 -69h4q55 84 133.5 127.5 t178.5 43.5q83 0 155 -30t123 -94t75.5 -155.5t22.5 -200.5q0 -23 -1 -52h-632q0 -91 24.5 -154.5t68 -103t104.5 -57.5t135 -18q75 0 139.5 12t127.5 36v-129q-51 -25 -126 -40.5t-161 -13.5q-115 3 -207.5 36.5t-154.5 108.5h-4q-28 -26 -63 -52t-79 -46.5t-98 -33.5 t-119 -13q-79 0 -142 20.5t-107 60t-67.5 96.5t-23.5 129zM255 281q0 -44 14.5 -77t40 -54.5t61.5 -32t79 -10.5q51 0 95 11t80 28.5t63.5 39t45.5 42.5q-31 78 -37 188q-40 11 -104 23.5t-127 12.5q-99 0 -155 -42t-56 -129zM853 576h463q0 56 -14.5 104.5t-42.5 84.5 t-69 56.5t-95 20.5q-53 0 -95.5 -21t-73.5 -57t-49.5 -84.5t-23.5 -103.5z" />
<glyph unicode="&#xe7;" horiz-adv-x="898" d="M95 463q0 94 19.5 169t53.5 132t79.5 97t97 65.5t106.5 37t107 11.5q69 0 131.5 -14.5t108.5 -40.5v-129q-64 24 -117 36t-107 12q-60 0 -116 -19t-101 -62.5t-72.5 -116t-27.5 -176.5q0 -77 20.5 -142t61 -112.5t101.5 -74t141 -26.5q57 0 116.5 12.5t115.5 35.5v-129 q-16 -10 -41 -19.5t-55.5 -16.5t-65 -12t-69.5 -6l-28 -101q40 -6 73.5 -18.5t57.5 -32.5t37 -48.5t13 -65.5q0 -52 -23 -89.5t-61.5 -62t-88.5 -36t-104 -11.5q-43 0 -77.5 5.5t-55.5 13.5v113q12 -4 27.5 -7t32 -5.5t32 -3.5t27.5 -1q29 0 56.5 3.5t49.5 13t35.5 25 t13.5 39.5q0 21 -14 35.5t-39.5 23.5t-62 13.5t-81.5 6.5l60 199q-78 13 -145.5 49t-116.5 95.5t-77 142.5t-28 192z" />
<glyph unicode="&#xe8;" horiz-adv-x="1019" d="M95 462q0 130 36 225.5t96 159.5t138 96t163 32q80 0 149.5 -26.5t120.5 -83.5t80.5 -147t29.5 -216v-20.5t-1 -38.5h-652q0 -91 27.5 -154.5t75 -103t111.5 -57.5t138 -18q77 0 140.5 12.5t126.5 35.5v-129q-51 -25 -126 -39.5t-161 -14.5q-102 0 -191.5 26t-156.5 84 t-105.5 151.5t-38.5 225.5zM101 950zM263 576h480q0 56 -14.5 104.5t-42.5 84.5t-69 56.5t-95 20.5q-53 0 -98.5 -21t-79.5 -57t-55 -84.5t-26 -103.5zM309 1473h168l123 -349h-130z" />
<glyph unicode="&#xe9;" horiz-adv-x="1019" d="M95 462q0 130 36 225.5t96 159.5t138 96t163 32q80 0 149.5 -26.5t120.5 -83.5t80.5 -147t29.5 -216v-20.5t-1 -38.5h-652q0 -91 27.5 -154.5t75 -103t111.5 -57.5t138 -18q77 0 140.5 12.5t126.5 35.5v-129q-51 -25 -126 -39.5t-161 -14.5q-102 0 -191.5 26t-156.5 84 t-105.5 151.5t-38.5 225.5zM237 950zM263 576h480q0 56 -14.5 104.5t-42.5 84.5t-69 56.5t-95 20.5q-53 0 -98.5 -21t-79.5 -57t-55 -84.5t-26 -103.5zM452 1124l123 349h168l-161 -349h-130z" />
<glyph unicode="&#xea;" horiz-adv-x="1019" d="M95 462q0 130 36 225.5t96 159.5t138 96t163 32q80 0 149.5 -26.5t120.5 -83.5t80.5 -147t29.5 -216v-20.5t-1 -38.5h-652q0 -91 27.5 -154.5t75 -103t111.5 -57.5t138 -18q77 0 140.5 12.5t126.5 35.5v-129q-51 -25 -126 -39.5t-161 -14.5q-102 0 -191.5 26t-156.5 84 t-105.5 151.5t-38.5 225.5zM170 950zM231 1124l210 349h157l210 -349h-140l-147 246h-4l-146 -246h-140zM263 576h480q0 56 -14.5 104.5t-42.5 84.5t-69 56.5t-95 20.5q-53 0 -98.5 -21t-79.5 -57t-55 -84.5t-26 -103.5z" />
<glyph unicode="&#xeb;" horiz-adv-x="1019" d="M95 462q0 130 36 225.5t96 159.5t138 96t163 32q80 0 149.5 -26.5t120.5 -83.5t80.5 -147t29.5 -216v-20.5t-1 -38.5h-652q0 -91 27.5 -154.5t75 -103t111.5 -57.5t138 -18q77 0 140.5 12.5t126.5 35.5v-129q-51 -25 -126 -39.5t-161 -14.5q-102 0 -191.5 26t-156.5 84 t-105.5 151.5t-38.5 225.5zM173 950zM253 1171v167h159v-167h-159zM263 576h480q0 56 -14.5 104.5t-42.5 84.5t-69 56.5t-95 20.5q-53 0 -98.5 -21t-79.5 -57t-55 -84.5t-26 -103.5zM634 1171v167h159v-167h-159z" />
<glyph unicode="&#xec;" horiz-adv-x="475" d="M-181 950zM27 1473h168l123 -349h-130zM160 0v950h155v-950h-155z" />
<glyph unicode="&#xed;" horiz-adv-x="475" d="M-38 950zM160 0v950h155v-950h-155zM177 1124l123 349h168l-161 -349h-130z" />
<glyph unicode="&#xee;" horiz-adv-x="475" d="M-104 950zM-43 1124l210 349h157l210 -349h-140l-147 246h-4l-146 -246h-140zM160 0v950h155v-950h-155z" />
<glyph unicode="&#xef;" horiz-adv-x="475" d="M-105 950zM-25 1171v167h159v-167h-159zM160 0v950h155v-950h-155zM356 1171v167h159v-167h-159z" />
<glyph unicode="&#xf0;" horiz-adv-x="1077" d="M95 449q0 107 31 195t86 151t129.5 98t161.5 35q78 0 135.5 -24t104.5 -69l3 3q-38 75 -87.5 148t-106.5 142l-264 -72l-35 124l204 56q-56 59 -112.5 112t-110.5 100h194q41 -35 86 -78t91 -94l251 69l35 -125l-194 -53q55 -70 104 -149t86 -165.5t58.5 -180.5 t21.5 -193q0 -109 -29.5 -201t-85 -159.5t-136 -105.5t-181.5 -38q-104 0 -186 34.5t-138.5 96.5t-86 149.5t-29.5 193.5zM257 449q0 -81 20.5 -145t57 -107.5t88 -66.5t112.5 -23t111.5 25.5t86.5 72.5t55.5 113.5t19.5 149.5q0 90 -24.5 153.5t-64 102t-88.5 55.5t-99 17 q-61 0 -111.5 -23.5t-87 -68t-56.5 -109t-20 -146.5z" />
<glyph unicode="&#xf1;" horiz-adv-x="1080" d="M150 0v950h120l30 -132h3q26 33 57.5 61.5t70.5 50t85.5 33.5t101.5 12q65 0 122 -18t99 -58t66.5 -104.5t24.5 -158.5v-636h-155v611q0 123 -47.5 177t-138.5 54q-80 0 -155 -44.5t-129 -122.5v-675h-155zM182 950zM221 1178v23q0 34 7.5 67.5t27 61t52.5 44t81 16.5 q41 0 80 -14.5t72 -32.5t64.5 -33t55.5 -15q31 0 45.5 22t14.5 65h122v-23q0 -34 -7.5 -67.5t-27 -61t-52.5 -44t-81 -16.5q-41 0 -80 14.5t-72 32.5t-64.5 33t-55.5 15q-31 0 -45.5 -22t-14.5 -65h-122z" />
<glyph unicode="&#xf2;" horiz-adv-x="1092" d="M95 474q0 113 32 205t90.5 158t142 102t186.5 36q105 0 189 -36t142 -102t89 -158t31 -205q0 -112 -32 -204t-90.5 -157.5t-141.5 -101.5t-186 -36q-106 0 -189.5 36t-142 101.5t-89.5 157.5t-31 204zM116 950zM257 474q0 -87 21.5 -155.5t60.5 -115.5t92 -71.5 t116 -24.5t115.5 24.5t91 71.5t60 115.5t21.5 155.5q0 88 -21.5 156.5t-60 116t-91.5 72t-116 24.5t-116 -24.5t-91.5 -72t-60 -116t-21.5 -156.5zM324 1473h168l123 -349h-130z" />
<glyph unicode="&#xf3;" horiz-adv-x="1092" d="M95 474q0 113 32 205t90.5 158t142 102t186.5 36q105 0 189 -36t142 -102t89 -158t31 -205q0 -112 -32 -204t-90.5 -157.5t-141.5 -101.5t-186 -36q-106 0 -189.5 36t-142 101.5t-89.5 157.5t-31 204zM257 474q0 -87 21.5 -155.5t60.5 -115.5t92 -71.5t116 -24.5 t115.5 24.5t91 71.5t60 115.5t21.5 155.5q0 88 -21.5 156.5t-60 116t-91.5 72t-116 24.5t-116 -24.5t-91.5 -72t-60 -116t-21.5 -156.5zM275 950zM490 1124l123 349h168l-161 -349h-130z" />
<glyph unicode="&#xf4;" horiz-adv-x="1092" d="M95 474q0 113 32 205t90.5 158t142 102t186.5 36q105 0 189 -36t142 -102t89 -158t31 -205q0 -112 -32 -204t-90.5 -157.5t-141.5 -101.5t-186 -36q-106 0 -189.5 36t-142 101.5t-89.5 157.5t-31 204zM192 950zM253 1124l210 349h157l210 -349h-140l-147 246h-4 l-146 -246h-140zM257 474q0 -87 21.5 -155.5t60.5 -115.5t92 -71.5t116 -24.5t115.5 24.5t91 71.5t60 115.5t21.5 155.5q0 88 -21.5 156.5t-60 116t-91.5 72t-116 24.5t-116 -24.5t-91.5 -72t-60 -116t-21.5 -156.5z" />
<glyph unicode="&#xf5;" horiz-adv-x="1092" d="M95 474q0 113 32 205t90.5 158t142 102t186.5 36q105 0 189 -36t142 -102t89 -158t31 -205q0 -112 -32 -204t-90.5 -157.5t-141.5 -101.5t-186 -36q-106 0 -189.5 36t-142 101.5t-89.5 157.5t-31 204zM189 950zM228 1178v23q0 34 7.5 67.5t27 61t52.5 44t81 16.5 q41 0 80 -14.5t72 -32.5t64.5 -33t55.5 -15q31 0 45.5 22t14.5 65h122v-23q0 -34 -7.5 -67.5t-27 -61t-52.5 -44t-81 -16.5q-41 0 -80 14.5t-72 32.5t-64.5 33t-55.5 15q-31 0 -45.5 -22t-14.5 -65h-122zM257 474q0 -87 21.5 -155.5t60.5 -115.5t92 -71.5t116 -24.5 t115.5 24.5t91 71.5t60 115.5t21.5 155.5q0 88 -21.5 156.5t-60 116t-91.5 72t-116 24.5t-116 -24.5t-91.5 -72t-60 -116t-21.5 -156.5z" />
<glyph unicode="&#xf6;" horiz-adv-x="1092" d="M95 474q0 113 32 205t90.5 158t142 102t186.5 36q105 0 189 -36t142 -102t89 -158t31 -205q0 -112 -32 -204t-90.5 -157.5t-141.5 -101.5t-186 -36q-106 0 -189.5 36t-142 101.5t-89.5 157.5t-31 204zM195 950zM257 474q0 -87 21.5 -155.5t60.5 -115.5t92 -71.5 t116 -24.5t115.5 24.5t91 71.5t60 115.5t21.5 155.5q0 88 -21.5 156.5t-60 116t-91.5 72t-116 24.5t-116 -24.5t-91.5 -72t-60 -116t-21.5 -156.5zM275 1171v167h159v-167h-159zM656 1171v167h159v-167h-159z" />
<glyph unicode="&#xf7;" d="M115 455v132h820v-132h-820zM445 92v165h160v-165h-160zM445 785v165h160v-165h-160z" />
<glyph unicode="&#xf8;" horiz-adv-x="1092" d="M95 60l85 97q-42 63 -63.5 142.5t-21.5 174.5q0 113 32 205t90.5 158t142 102t186.5 36q83 0 152 -22.5t124 -64.5l76 87l99 -85l-86 -98q42 -63 64 -143t22 -175q0 -112 -32 -204t-90.5 -157.5t-141.5 -101.5t-186 -36q-84 0 -153.5 22t-123.5 64l-76 -86zM257 474 q0 -109 34 -191l433 493q-73 67 -178 67q-63 0 -116 -24.5t-91.5 -72t-60 -116t-21.5 -156.5zM368 173q74 -66 179 -66q63 0 115.5 24.5t91 71.5t60 115.5t21.5 155.5q0 56 -9 104t-26 88z" />
<glyph unicode="&#xf9;" horiz-adv-x="1060" d="M102 950zM140 367v583h155v-582q0 -79 21 -132q24 -60 77.5 -94.5t136.5 -34.5q88 0 141.5 38t76.5 102q17 49 17 121v582h155v-584q0 -48 -5.5 -89.5t-17.5 -76.5q-18 -49 -49.5 -90.5t-77.5 -71.5t-106.5 -46.5t-136.5 -16.5q-74 0 -133 16t-103.5 45t-75.5 69.5 t-49 88.5q-14 36 -20 79t-6 94zM310 1473h168l123 -349h-130z" />
<glyph unicode="&#xfa;" horiz-adv-x="1060" d="M140 367v583h155v-582q0 -79 21 -132q24 -60 77.5 -94.5t136.5 -34.5q88 0 141.5 38t76.5 102q17 49 17 121v582h155v-584q0 -48 -5.5 -89.5t-17.5 -76.5q-18 -49 -49.5 -90.5t-77.5 -71.5t-106.5 -46.5t-136.5 -16.5q-74 0 -133 16t-103.5 45t-75.5 69.5t-49 88.5 q-14 36 -20 79t-6 94zM248 950zM463 1124l123 349h168l-161 -349h-130z" />
<glyph unicode="&#xfb;" horiz-adv-x="1060" d="M140 367v583h155v-582q0 -79 21 -132q24 -60 77.5 -94.5t136.5 -34.5q88 0 141.5 38t76.5 102q17 49 17 121v582h155v-584q0 -48 -5.5 -89.5t-17.5 -76.5q-18 -49 -49.5 -90.5t-77.5 -71.5t-106.5 -46.5t-136.5 -16.5q-74 0 -133 16t-103.5 45t-75.5 69.5t-49 88.5 q-14 36 -20 79t-6 94zM182 950zM243 1124l210 349h157l210 -349h-140l-147 246h-4l-146 -246h-140z" />
<glyph unicode="&#xfc;" horiz-adv-x="1060" d="M140 367v583h155v-582q0 -79 21 -132q24 -60 77.5 -94.5t136.5 -34.5q88 0 141.5 38t76.5 102q17 49 17 121v582h155v-584q0 -48 -5.5 -89.5t-17.5 -76.5q-18 -49 -49.5 -90.5t-77.5 -71.5t-106.5 -46.5t-136.5 -16.5q-74 0 -133 16t-103.5 45t-75.5 69.5t-49 88.5 q-14 36 -20 79t-6 94zM180 950zM260 1171v167h159v-167h-159zM641 1171v167h159v-167h-159z" />
<glyph unicode="&#xfd;" horiz-adv-x="982" d="M30 950h159l295 -745h6l299 745h163l-593 -1415h-154l203 484zM197 950zM412 1124l123 349h168l-161 -349h-130z" />
<glyph unicode="&#xfe;" horiz-adv-x="1087" d="M150 -465v1913h155v-587h3q51 56 118.5 85t154.5 29q41 0 87 -9.5t91.5 -31t87.5 -58t74.5 -90.5t51.5 -128t19 -169q0 -100 -19.5 -176.5t-51.5 -134t-75 -96.5t-89 -62.5t-93.5 -34t-89.5 -10.5q-86 0 -150.5 28.5t-115.5 84.5h-3v-553h-155zM305 215q49 -50 111.5 -79 t134.5 -29q44 0 92 16.5t90 58.5t68.5 116t26.5 183t-26.5 181.5t-68.5 112t-90 53.5t-92 14q-72 0 -134.5 -29.5t-111.5 -78.5v-519z" />
<glyph unicode="&#xff;" horiz-adv-x="982" d="M30 950h159l295 -745h6l299 745h163l-593 -1415h-154l203 484zM137 950zM217 1171v167h159v-167h-159zM598 1171v167h159v-167h-159z" />
<glyph unicode="&#x152;" horiz-adv-x="2163" d="M120 668q0 153 44.5 280.5t126 219.5t196 143.5t254.5 51.5q154 0 271 -61t188 -165h4v201h812v-147h-649v-432h577v-147h-577v-465h686v-147h-849v205h-4q-73 -107 -186.5 -168.5t-269.5 -61.5q-144 0 -259.5 51.5t-196.5 143.5t-124.5 219t-43.5 279zM292 668 q0 -135 35.5 -237.5t97 -171.5t145 -104t180.5 -35q96 0 178.5 35t144 104t96.5 171.5t35 237.5t-35 238t-96.5 172t-145 104.5t-179.5 35.5t-179.5 -35.5t-145 -104.5t-96.5 -172t-35 -238z" />
<glyph unicode="&#x153;" horiz-adv-x="1759" d="M95 474q0 113 31.5 205t90 158t141 102t184.5 36q133 0 225 -63t142 -169h4q54 117 147 174.5t208 57.5q84 0 157 -30t124.5 -94t75.5 -153t24 -193q0 -30 -2 -62h-652q0 -91 27.5 -154.5t75 -103t111.5 -57.5t138 -18q77 0 140.5 12.5t126.5 35.5v-129 q-51 -25 -126 -39.5t-161 -14.5q-72 0 -135.5 12.5t-117 39.5t-95.5 70t-70 103h-4q-51 -104 -142.5 -164.5t-219.5 -60.5q-105 0 -188 36t-140.5 101.5t-88.5 157.5t-31 204zM257 474q0 -87 21.5 -155.5t60.5 -115.5t92 -71.5t116 -24.5t115.5 24.5t91 71.5t60 115.5 t21.5 155.5q0 88 -21.5 156.5t-60 116t-91.5 72t-116 24.5t-116 -24.5t-91.5 -72t-60 -116t-21.5 -156.5zM1003 576h480q0 56 -14.5 104.5t-42.5 84.5t-69 56.5t-95 20.5q-53 0 -98.5 -21t-79.5 -57t-55 -84.5t-26 -103.5z" />
<glyph unicode="&#x178;" horiz-adv-x="1217" d="M40 1338h178l388 -650h5l388 650h178l-487 -800v-538h-163v538zM259 1338zM337 1448v169h161v-169h-161zM720 1448v169h161v-169h-161z" />
<glyph unicode="&#x2c6;" horiz-adv-x="700" d="M0 950zM61 1124l210 349h157l210 -349h-140l-147 246h-4l-146 -246h-140z" />
<glyph unicode="&#x2dc;" horiz-adv-x="700" d="M0 950zM39 1178v23q0 34 7.5 67.5t27 61t52.5 44t81 16.5q41 0 80 -14.5t72 -32.5t64.5 -33t55.5 -15q31 0 45.5 22t14.5 65h122v-23q0 -34 -7.5 -67.5t-27 -61t-52.5 -44t-81 -16.5q-41 0 -80 14.5t-72 32.5t-64.5 33t-55.5 15q-31 0 -45.5 -22t-14.5 -65h-122z" />
<glyph unicode="&#x2000;" horiz-adv-x="875" />
<glyph unicode="&#x2001;" horiz-adv-x="1750" />
<glyph unicode="&#x2002;" horiz-adv-x="875" />
<glyph unicode="&#x2003;" horiz-adv-x="1750" />
<glyph unicode="&#x2004;" horiz-adv-x="583" />
<glyph unicode="&#x2005;" horiz-adv-x="437" />
<glyph unicode="&#x2006;" horiz-adv-x="291" />
<glyph unicode="&#x2007;" horiz-adv-x="291" />
<glyph unicode="&#x2008;" horiz-adv-x="218" />
<glyph unicode="&#x2009;" horiz-adv-x="350" />
<glyph unicode="&#x200a;" horiz-adv-x="97" />
<glyph unicode="&#x2010;" horiz-adv-x="681" d="M120 426v145h441v-145h-441z" />
<glyph unicode="&#x2011;" horiz-adv-x="681" d="M120 426v145h441v-145h-441z" />
<glyph unicode="&#x2012;" horiz-adv-x="681" d="M120 426v145h441v-145h-441z" />
<glyph unicode="&#x2013;" horiz-adv-x="1000" d="M0 433v125h1000v-125h-1000z" />
<glyph unicode="&#x2014;" horiz-adv-x="1700" d="M0 433v125h1700v-125h-1700z" />
<glyph unicode="&#x2018;" horiz-adv-x="449" d="M60 1338h143l176 -494h-173z" />
<glyph unicode="&#x2019;" horiz-adv-x="449" d="M70 844l146 494h173l-176 -494h-143z" />
<glyph unicode="&#x201a;" horiz-adv-x="449" d="M23 -268l146 494h173l-176 -494h-143z" />
<glyph unicode="&#x201c;" horiz-adv-x="809" d="M80 1338h143l156 -494h-173zM419 1338h145l175 -494h-175z" />
<glyph unicode="&#x201d;" horiz-adv-x="809" d="M70 844l146 494h173l-176 -494h-143zM399 844l175 494h175l-205 -494h-145z" />
<glyph unicode="&#x201e;" horiz-adv-x="809" d="M23 -268l146 494h173l-176 -494h-143zM352 -268l175 494h175l-205 -494h-145z" />
<glyph unicode="&#x2022;" horiz-adv-x="908" d="M140 667q0 67 24 124.5t66 99.5t99.5 66t124.5 24t124.5 -24t99.5 -66t66 -99.5t24 -124.5t-24 -124.5t-66 -99.5t-99.5 -66t-124.5 -24t-124.5 24t-99.5 66t-66 99.5t-24 124.5z" />
<glyph unicode="&#x2026;" horiz-adv-x="1623" d="M175 0v195h191v-195h-191zM716 0v195h191v-195h-191zM1257 0v195h191v-195h-191z" />
<glyph unicode="&#x202f;" horiz-adv-x="350" />
<glyph unicode="&#x2039;" horiz-adv-x="600" d="M110 474l265 376h145l-225 -376l225 -376h-145z" />
<glyph unicode="&#x203a;" horiz-adv-x="600" d="M80 98l225 376l-225 376h145l265 -376l-265 -376h-145z" />
<glyph unicode="&#x205f;" horiz-adv-x="437" />
<glyph unicode="&#x20ac;" d="M110 319v133h105q-1 29 -1 35.5v18.5q0 25 1 46t3 42h-108v133h134q24 78 66 141.5t102.5 108.5t140 69t176.5 24q33 0 65.5 -3t62 -8t55 -12t44.5 -15v-134q-48 16 -104 26.5t-113 10.5q-121 0 -205.5 -50t-124.5 -158h371v-133h-400q-2 -19 -3 -39t-1 -41q0 -33 2 -62 h326v-133h-303q35 -112 120 -160.5t222 -48.5q26 0 55.5 3t59.5 8t58 11.5t50 14.5v-134q-47 -18 -108.5 -28t-126.5 -10q-213 0 -334.5 90t-161.5 254h-125z" />
<glyph unicode="&#x2122;" horiz-adv-x="1752" d="M103 1229v109h577v-109h-227v-575h-122v575h-228zM795 654v684h182l118 -298q33 -85 50.5 -132t25.5 -74h6q9 27 26 74t51 132l117 298h184v-684h-120v329q0 85 1.5 139t3.5 80h-7q-36 -100 -85 -220l-131 -328h-85l-131 328q-48 118 -85 220h-7q2 -26 3.5 -80t1.5 -139 v-329h-119z" />
<glyph unicode="&#x25fc;" horiz-adv-x="950" d="M0 0v950h950v-950h-950z" />
</font>
</defs>
</svg>
