<?xml version="1.0" standalone="no"?>
<!DOCTYPE svg PUBLIC "-//W3C//DTD SVG 1.1//EN" "http://www.w3.org/Graphics/SVG/1.1/DTD/svg11.dtd" >
<svg>
<metadata>
Created by FontForge 20090622 at Wed Jun  1 07:21:24 2016
 By deploy user
Copyright (c) 2011-2014 by tyPoland Lukasz Dziedzic (http://www.typoland.com/) with Reserved Font Name "Lato". Licensed under the SIL Open Font License, Version 1.1 (http://scripts.sil.org/OFL). 
</metadata>
<defs>
<font id="Lato-Italic" horiz-adv-x="736" >
  <font-face 
    font-family="Lato"
    font-weight="400"
    font-style="italic"
    font-stretch="normal"
    units-per-em="2000"
    panose-1="2 15 5 2 2 2 4 3 2 3"
    ascent="1610"
    descent="-390"
    x-height="1013"
    cap-height="1433"
    bbox="-1003 -537 2581 2155"
    underline-thickness="89"
    underline-position="-422"
    slope="-7"
    unicode-range="U+0020-U+FEFF"
  />
<missing-glyph horiz-adv-x="1063" 
d="M250 1141q25 22 53.5 41t62.5 33.5t73.5 23t85.5 8.5q63 0 114.5 -17.5t88 -49.5t57 -77.5t20.5 -101.5q0 -55 -15 -95t-37.5 -69.5t-49.5 -51l-51 -40.5t-41.5 -37.5t-21.5 -41.5l-17 -105h-122l-12 117q-4 34 9 59.5t35.5 47t50 41.5t51.5 43t40 52t16 69
q0 51 -36.5 81t-93.5 30q-41 0 -69 -9t-48 -20t-34 -20t-25 -9q-25 0 -37 22zM396 292q0 47 31 79t79 32q22 0 42 -8.5t34.5 -23.5t23 -35.5t8.5 -43.5t-8.5 -43t-23 -35t-34.5 -23.5t-42 -8.5q-48 0 -79 31.5t-31 78.5zM45 1433h974v-1433h-974v1433zM95 54h867v1324h-867
v-1324z" />
    <glyph glyph-name="f_b.liga" unicode="fb" horiz-adv-x="1710" 
d="M977 756q38 62 81.5 112t91.5 85.5t100 55t106 19.5q130 0 202 -94t72 -275q0 -82 -17 -164t-48.5 -156.5t-76 -139t-99 -112t-118.5 -74.5t-134 -27q-81 0 -146 34t-108 97l-14 -65q-8 -26 -20 -39t-43 -13h-94l163 1354q-42 6 -86 13.5t-84 7.5q-60 0 -109.5 -20.5
t-86.5 -59t-60.5 -93t-30.5 -121.5l-11 -88h247l-15 -128h-242l-103 -833l-46 -207q-11 -36 -32.5 -55.5t-59.5 -19.5h-70l137 1112l-99 12q-20 5 -31 14.5t-9 29.5l8 75h147l11 88q10 85 44 160t90.5 131t134 88.5t175.5 32.5q103 0 194.5 -9t159.5 -11h16zM912 222
q38 -53 91.5 -75.5t107.5 -22.5q52 0 98 22t84 59.5t67.5 88t50.5 108t31.5 119t10.5 121.5q0 119 -42.5 181t-120.5 62q-48 0 -97 -30t-95 -83.5t-85.5 -127t-68.5 -160.5z" />
    <glyph glyph-name="f_f_b.liga" unicode="ffb" horiz-adv-x="2290" 
d="M1558 756q38 62 81.5 112t91.5 85.5t100 55t106 19.5q130 0 202 -94t72 -275q0 -82 -17 -164t-48.5 -156.5t-76 -139t-99 -112t-118.5 -74.5t-134 -27q-81 0 -146 34t-108 97l-14 -65q-8 -26 -20 -39t-43 -13h-94l163 1353l-86 14.5t-85 7.5q-60 0 -109.5 -20.5
t-86.5 -59t-60.5 -93t-30.5 -121.5l-11 -89h265l-16 -126h-259l-102 -834l-47 -207q-11 -36 -32.5 -55.5t-59.5 -19.5h-70l137 1116h-406l-101 -833l-47 -207q-11 -36 -32.5 -55.5t-59.5 -19.5h-70l136 1113l-100 13q-20 4 -31 14t-9 30l8 71h147l11 84q11 87 43 154.5
t80.5 114t111.5 70.5t135 24q62 0 113 -20l-17 -93q-3 -10 -10 -14t-18 -5t-25.5 -0.5t-31.5 0.5q-42 0 -77.5 -11t-62.5 -37t-45.5 -69.5t-26.5 -108.5l-12 -89h413l11 89q10 85 44 160t90.5 131t134 88.5t175.5 32.5q51 0 100.5 -3t94.5 -6.5l85 -6.5t74 -4h17zM1493 222
q38 -53 91.5 -75.5t107.5 -22.5q52 0 98 22t84 59.5t68 88t50 108t31 119t11 121.5q0 119 -42.5 181t-120.5 62q-48 0 -97 -30t-95 -83.5t-85.5 -127t-68.5 -160.5z" />
    <glyph glyph-name="uniFB00" unicode="ff" horiz-adv-x="1234" 
d="M986 993h267l-16 -125h-260l-102 -835l-46 -207q-11 -36 -32.5 -55.5t-59.5 -19.5h-70l135 1117h-405l-102 -835l-46 -207q-11 -36 -32.5 -55.5t-59.5 -19.5h-70l136 1115l-99 13q-20 3 -31.5 13.5t-9.5 30.5l9 70h147l10 83q11 87 43 154.5t80.5 114t111.5 70.5t135 24
q61 0 113 -20l-17 -93q-3 -10 -10 -14t-18 -5t-25.5 -0.5t-31.5 0.5q-42 0 -77.5 -11t-63 -37t-46 -69.5t-26.5 -108.5l-12 -88h412l13 109q11 87 43.5 154.5t81.5 114t112.5 70.5t137.5 24q62 0 113 -20l-17 -92q-3 -10 -10 -14t-18 -5.5t-25.5 -1t-31.5 0.5
q-43 0 -79 -12.5t-64 -40.5t-47 -73t-27 -110z" />
    <glyph glyph-name="f_h.liga" unicode="fh" horiz-adv-x="1707" 
d="M980 789q79 118 175.5 178.5t196.5 60.5q65 0 114 -25.5t79.5 -74.5t41.5 -120.5t0 -162.5l-76 -645h-178l76 645q15 120 -14 178t-108 58q-45 0 -93 -24.5t-92.5 -69.5t-84 -109t-68.5 -143l-65 -535h-177l163 1354l-84 14t-82 7q-60 0 -109 -20.5t-86 -59t-60.5 -93
t-31.5 -121.5l-11 -88h247l-15 -128h-241l-103 -833l-47 -207q-11 -36 -32.5 -55.5t-59.5 -19.5h-70l138 1112l-99 12q-21 5 -32 14.5t-9 29.5l9 75h147l11 88q10 85 44 160t90 131t133.5 88.5t175.5 32.5q51 0 100.5 -3t94.5 -6.5l85 -6.5t74 -4h16z" />
    <glyph glyph-name="f_f_h.liga" unicode="ffh" horiz-adv-x="2288" 
d="M1562 789q79 118 175.5 178.5t196.5 60.5q65 0 114 -25.5t79.5 -74.5t41.5 -120.5t0 -162.5l-76 -645h-178l76 645q15 120 -14 178t-108 58q-45 0 -93 -24.5t-92.5 -69.5t-84 -109t-68.5 -143l-65 -535h-177l163 1354l-84.5 14t-82.5 7q-60 0 -109.5 -20.5t-86.5 -59
t-60.5 -93t-30.5 -121.5l-11 -89h265l-16 -126h-259l-102 -834l-47 -207q-11 -36 -32.5 -55.5t-59.5 -19.5h-70l137 1116h-406l-101 -833l-47 -207q-11 -36 -32.5 -55.5t-59.5 -19.5h-70l136 1113l-100 13q-20 4 -31 14t-9 30l8 71h147l11 84q11 87 43 154.5t80.5 114
t111.5 70.5t135 24q62 0 113 -20l-17 -93q-3 -10 -10 -14t-18 -5t-25.5 -0.5t-31.5 0.5q-42 0 -77.5 -11t-62.5 -37t-45.5 -69.5t-26.5 -108.5l-12 -89h413l11 89q10 85 44 160t90.5 131t134 88.5t175.5 32.5q51 0 100.5 -3t94.5 -6.5l85 -6.5t74 -4h17z" />
    <glyph glyph-name="uniFB01" unicode="fi" horiz-adv-x="1067" 
d="M405 993h567l-121 -993h-175l106 864h-386l-102 -832l-47 -207q-11 -36 -32.5 -55.5t-59.5 -19.5h-70l137 1112l-98 12q-21 5 -32 14.5t-9 29.5l8 75h147l7 56q11 93 48 170t97.5 132t145 85.5t191.5 30.5q18 0 37.5 -1.5t39 -4t37 -6t30.5 -8.5l-18 -90q-2 -10 -9.5 -14
t-19.5 -5t-28 0t-37 1q-83 0 -144 -18t-103 -54t-66.5 -91t-33.5 -130z" />
    <glyph glyph-name="f_igrave.liga" unicode="f&#xec;" horiz-adv-x="1067" 
d="M405 993h567l-121 -993h-175l106 864h-387l-101 -831l-44 -207q-11 -36 -32.5 -55.5t-59.5 -19.5h-70l136 1110l-100 13q-21 5 -32 14.5t-9 29.5l8 75h149l15 124q20 166 99 255t207 89q20 0 41 -2t37 -7l-12 -94q-2 -16 -16 -20t-37 -4q-64 0 -101.5 -53t-51.5 -163z
M827 1449q30 0 44 -10.5t24 -33.5l109 -242h-93q-19 0 -30.5 6.5t-22.5 21.5l-186 258h155z" />
    <glyph glyph-name="f_icircumflex.liga" unicode="f&#xee;" horiz-adv-x="1067" 
d="M405 993h567l-121 -993h-175l106 864h-387l-101 -831l-44 -207q-11 -36 -32.5 -55.5t-59.5 -19.5h-70l136 1110l-100 13q-21 5 -32 14.5t-9 29.5l8 75h149l15 124q20 166 99 255t207 89q20 0 41 -2t37 -7l-12 -94q-2 -16 -16 -20t-37 -4q-64 0 -101.5 -53t-51.5 -163z
M1204 1169h-110q-10 0 -19.5 4t-18.5 15l-99 132q-3 5 -6.5 9.5t-6.5 9.5l-17 -19l-130 -132q-19 -19 -42 -19h-114l235 264h152z" />
    <glyph glyph-name="f_itilde.liga" unicode="f&#x129;" horiz-adv-x="1067" 
d="M405 993h567l-121 -993h-175l106 864h-387l-101 -831l-44 -207q-11 -36 -32.5 -55.5t-59.5 -19.5h-70l136 1110l-100 13q-21 5 -32 14.5t-9 29.5l8 75h149l15 124q20 166 99 255t207 89q20 0 41 -2t37 -7l-12 -94q-2 -16 -16 -20t-37 -4q-64 0 -101.5 -53t-51.5 -163z
M1035 1325q67 0 79 86h100q-5 -47 -21 -86.5t-41 -67.5t-56.5 -43.5t-68.5 -15.5q-32 0 -58.5 14.5t-49.5 31.5l-43.5 31.5t-41.5 14.5q-67 0 -78 -88h-102q5 48 21.5 87.5t41.5 68t57 44t68 15.5q33 0 59 -14.5t49 -31.5l43.5 -31.5t41.5 -14.5z" />
    <glyph glyph-name="f_idieresis.liga" unicode="f&#xef;" horiz-adv-x="1067" 
d="M878 1289q0 -21 -8.5 -39t-22.5 -31.5t-33.5 -21.5t-40.5 -8q-20 0 -38.5 8t-32.5 21.5t-22 31.5t-8 39q0 22 8 41t22 33t32.5 22.5t38.5 8.5q21 0 40.5 -8.5t33.5 -22.5t22.5 -33t8.5 -41zM1171 1289q0 -21 -8 -39t-22.5 -31.5t-33 -21.5t-39.5 -8t-40 8t-33 21.5
t-22 31.5t-8 39q0 22 8 41t22 33t33 22.5t40 8.5t39.5 -8.5t33 -22.5t22.5 -33t8 -41zM405 993h567l-121 -993h-175l106 864h-387l-101 -831l-44 -207q-11 -36 -32.5 -55.5t-59.5 -19.5h-70l136 1110l-100 13q-21 5 -32 14.5t-9 29.5l8 75h149l15 124q20 166 99 255t207 89
q20 0 41 -2t37 -7l-12 -94q-2 -16 -16 -20t-37 -4q-64 0 -101.5 -53t-51.5 -163z" />
    <glyph glyph-name="f_imacron.liga" unicode="f&#x12b;" horiz-adv-x="1067" 
d="M405 993h567l-121 -993h-175l106 864h-387l-101 -831l-44 -207q-11 -36 -32.5 -55.5t-59.5 -19.5h-70l136 1110l-100 13q-21 5 -32 14.5t-9 29.5l8 75h149l15 124q20 166 99 255t207 89q20 0 41 -2t37 -7l-12 -94q-2 -16 -16 -20t-37 -4q-64 0 -101.5 -53t-51.5 -163z
M672 1348h528l-13 -117h-529z" />
    <glyph glyph-name="f_ibreve.liga" unicode="f&#x12d;" horiz-adv-x="1067" 
d="M405 993h567l-121 -993h-175l106 864h-387l-101 -831l-44 -207q-11 -36 -32.5 -55.5t-59.5 -19.5h-70l136 1110l-100 13q-21 5 -32 14.5t-9 29.5l8 75h149l15 124q20 166 99 255t207 89q20 0 41 -2t37 -7l-12 -94q-2 -16 -16 -20t-37 -4q-64 0 -101.5 -53t-51.5 -163z
M916 1164q-70 0 -116 21.5t-71.5 58t-33 85.5t-1.5 104h117q-4 -33 -1 -61.5t16.5 -48.5t38.5 -31.5t64 -11.5t66.5 11.5t45.5 31.5t27.5 48.5t13.5 61.5h116q-6 -55 -24.5 -104t-52 -85.5t-84.5 -58t-121 -21.5z" />
    <glyph glyph-name="f_iogonek.liga" unicode="f&#x12f;" horiz-adv-x="1067" 
d="M857 -211q12 0 16 -13l20 -66q-32 -23 -76.5 -37.5t-92.5 -14.5q-78 0 -119.5 35t-41.5 93q0 63 42.5 117.5t110.5 96.5h-40l106 864h-386l-102 -832l-47 -207q-11 -36 -32.5 -55.5t-59.5 -19.5h-70l137 1112l-98 12q-21 5 -32 14.5t-9 29.5l8 75h147l7 56q11 93 48 170
t97.5 132t145 85.5t191.5 30.5q18 0 37.5 -1.5t39 -4t37 -6t30.5 -8.5l-18 -90q-2 -10 -9.5 -14t-19.5 -5t-28 0t-37 1q-83 0 -144 -18t-103 -54t-66.5 -91t-33.5 -130l-7 -53h567l-121 -993h-22q-21 -12 -43.5 -28.5t-40.5 -37.5t-30 -46t-12 -53q0 -32 19 -51t51 -19
q20 0 34 3.5t23.5 8t15.5 8.5t11 4z" />
    <glyph glyph-name="f_dotlessi.liga" unicode="f&#x131;" horiz-adv-x="1067" 
d="M405 993h567l-121 -993h-175l106 864h-387l-101 -831l-44 -207q-11 -36 -32.5 -55.5t-59.5 -19.5h-70l136 1110l-100 13q-21 5 -32 14.5t-9 29.5l8 75h149l15 124q20 166 99 255t207 89q20 0 41 -2t37 -7l-12 -94q-2 -16 -16 -20t-37 -4q-64 0 -101.5 -53t-51.5 -163z
" />
    <glyph glyph-name="uniFB03" unicode="ffi" horiz-adv-x="1647" 
d="M1537 868l-106 -868h-172l106 868h-388l-102 -836l-47 -207q-11 -36 -32.5 -55.5t-59.5 -19.5h-70l137 1118h-406l-102 -835l-46 -207q-11 -36 -32.5 -55.5t-59.5 -19.5h-70l136 1115l-99 13q-20 3 -31.5 13.5t-9.5 30.5l9 70h147l10 83q11 87 43 154.5t80.5 114
t111.5 70.5t135 24q61 0 113 -20l-17 -93q-3 -10 -10 -14t-18 -5t-25.5 -0.5t-31.5 0.5q-42 0 -77.5 -11t-63 -37t-46 -69.5t-26.5 -108.5l-12 -88h414l7 56q11 93 48 170t97.5 132t145 85.5t191.5 30.5q17 0 37 -1.5t39.5 -4t37 -6t29.5 -8.5l-17 -90q-2 -10 -9.5 -14
t-19.5 -5t-28 0t-37 1q-165 0 -247 -72t-100 -221l-7 -53h567l-15 -125h-1z" />
    <glyph glyph-name="f_f_igrave.liga" unicode="ff&#xec;" horiz-adv-x="1648" 
d="M1537 868l-106 -868h-172l106 868h-388l-102 -835l-44 -207q-11 -36 -32.5 -55.5t-59.5 -19.5h-70l136 1117h-408l-102 -835l-46 -207q-11 -36 -32.5 -55.5t-59.5 -19.5h-70l136 1115l-99 13q-20 3 -31.5 13.5t-9.5 30.5l9 70h147l10 83q11 87 43 154.5t80.5 114
t111.5 70.5t135 24q61 0 113 -20l-17 -93q-3 -10 -10 -14t-18 -5t-25.5 -0.5t-31.5 0.5q-42 0 -77.5 -11t-63 -37t-46 -69.5t-26.5 -108.5l-12 -88h416l15 124q20 166 99 255t206 89q21 0 42 -2t36 -7l-11 -94q-2 -16 -16 -20t-38 -4q-64 0 -101 -53t-51 -163l-16 -125h567
l-15 -125h-1zM1407 1449q30 0 44 -10.5t24 -33.5l109 -242h-93q-19 0 -30.5 6.5t-22.5 21.5l-186 258h155z" />
    <glyph glyph-name="f_f_icircumflex.liga" unicode="ff&#xee;" horiz-adv-x="1648" 
d="M1537 868l-106 -868h-172l106 868h-388l-102 -835l-44 -207q-11 -36 -32.5 -55.5t-59.5 -19.5h-70l136 1117h-408l-102 -835l-46 -207q-11 -36 -32.5 -55.5t-59.5 -19.5h-70l136 1115l-99 13q-20 3 -31.5 13.5t-9.5 30.5l9 70h147l10 83q11 87 43 154.5t80.5 114
t111.5 70.5t135 24q61 0 113 -20l-17 -93q-3 -10 -10 -14t-18 -5t-25.5 -0.5t-31.5 0.5q-42 0 -77.5 -11t-63 -37t-46 -69.5t-26.5 -108.5l-12 -88h416l15 124q20 166 99 255t206 89q21 0 42 -2t36 -7l-11 -94q-2 -16 -16 -20t-38 -4q-64 0 -101 -53t-51 -163l-16 -125h567
l-15 -125h-1zM1778 1169h-110q-10 0 -19.5 4t-18.5 15l-99 132q-3 5 -6.5 9.5t-6.5 9.5l-17 -19l-130 -132q-19 -19 -42 -19h-114l235 264h152z" />
    <glyph glyph-name="f_f_itilde.liga" unicode="ff&#x129;" horiz-adv-x="1648" 
d="M1537 868l-106 -868h-172l106 868h-388l-102 -835l-44 -207q-11 -36 -32.5 -55.5t-59.5 -19.5h-70l136 1117h-408l-102 -835l-46 -207q-11 -36 -32.5 -55.5t-59.5 -19.5h-70l136 1115l-99 13q-20 3 -31.5 13.5t-9.5 30.5l9 70h147l10 83q11 87 43 154.5t80.5 114
t111.5 70.5t135 24q61 0 113 -20l-17 -93q-3 -10 -10 -14t-18 -5t-25.5 -0.5t-31.5 0.5q-42 0 -77.5 -11t-63 -37t-46 -69.5t-26.5 -108.5l-12 -88h416l15 124q20 166 99 255t206 89q21 0 42 -2t36 -7l-11 -94q-2 -16 -16 -20t-38 -4q-64 0 -101 -53t-51 -163l-16 -125h567
l-15 -125h-1zM1618 1325q67 0 79 86h100q-5 -47 -21 -86.5t-41 -67.5t-56.5 -43.5t-68.5 -15.5q-32 0 -58.5 14.5t-49.5 31.5l-43.5 31.5t-41.5 14.5q-67 0 -78 -88h-102q5 48 21.5 87.5t41.5 68t57 44t68 15.5q33 0 59 -14.5t49 -31.5l43.5 -31.5t41.5 -14.5z" />
    <glyph glyph-name="f_f_idieresis.liga" unicode="ff&#xef;" horiz-adv-x="1647" 
d="M1491 1289q0 -21 -8.5 -39t-22.5 -31.5t-33 -21.5t-40 -8t-39.5 8t-32.5 21.5t-22 31.5t-8 39q0 22 8 41t22 33t32.5 22.5t39.5 8.5t40 -8.5t33 -22.5t22.5 -33t8.5 -41zM1784 1289q0 -21 -8.5 -39t-22.5 -31.5t-33 -21.5t-40 -8t-39.5 8t-32.5 21.5t-22 31.5t-8 39
q0 22 8 41t22 33t32.5 22.5t39.5 8.5t40 -8.5t33 -22.5t22.5 -33t8.5 -41zM1537 868l-106 -868h-172l106 868h-388l-102 -835l-44 -207q-11 -36 -32.5 -55.5t-59.5 -19.5h-70l136 1117h-408l-102 -835l-46 -207q-11 -36 -32.5 -55.5t-59.5 -19.5h-70l136 1115l-99 13
q-20 3 -31.5 13.5t-9.5 30.5l9 70h147l10 83q11 87 43 154.5t80.5 114t111.5 70.5t135 24q61 0 113 -20l-17 -93q-3 -10 -10 -14t-18 -5t-25.5 -0.5t-31.5 0.5q-42 0 -77.5 -11t-63 -37t-46 -69.5t-26.5 -108.5l-12 -88h416l15 124q20 166 99 255t206 89q21 0 42 -2t36 -7
l-11 -94q-2 -16 -16 -20t-38 -4q-64 0 -101 -53t-51 -163l-16 -125h567l-15 -125h-1z" />
    <glyph glyph-name="f_f_imacron.liga" unicode="ff&#x12b;" horiz-adv-x="1648" 
d="M1537 868l-106 -868h-172l106 868h-388l-102 -835l-44 -207q-11 -36 -32.5 -55.5t-59.5 -19.5h-70l136 1117h-408l-102 -835l-46 -207q-11 -36 -32.5 -55.5t-59.5 -19.5h-70l136 1115l-99 13q-20 3 -31.5 13.5t-9.5 30.5l9 70h147l10 83q11 87 43 154.5t80.5 114
t111.5 70.5t135 24q61 0 113 -20l-17 -93q-3 -10 -10 -14t-18 -5t-25.5 -0.5t-31.5 0.5q-42 0 -77.5 -11t-63 -37t-46 -69.5t-26.5 -108.5l-12 -88h416l15 124q20 166 99 255t206 89q21 0 42 -2t36 -7l-11 -94q-2 -16 -16 -20t-38 -4q-64 0 -101 -53t-51 -163l-16 -125h567
l-15 -125h-1zM1243 1348h528l-13 -117h-529z" />
    <glyph glyph-name="f_f_ibreve.liga" unicode="ff&#x12d;" horiz-adv-x="1648" 
d="M1537 868l-106 -868h-172l106 868h-388l-102 -835l-44 -207q-11 -36 -32.5 -55.5t-59.5 -19.5h-70l136 1117h-408l-102 -835l-46 -207q-11 -36 -32.5 -55.5t-59.5 -19.5h-70l136 1115l-99 13q-20 3 -31.5 13.5t-9.5 30.5l9 70h147l10 83q11 87 43 154.5t80.5 114
t111.5 70.5t135 24q61 0 113 -20l-17 -93q-3 -10 -10 -14t-18 -5t-25.5 -0.5t-31.5 0.5q-42 0 -77.5 -11t-63 -37t-46 -69.5t-26.5 -108.5l-12 -88h416l15 124q20 166 99 255t206 89q21 0 42 -2t36 -7l-11 -94q-2 -16 -16 -20t-38 -4q-64 0 -101 -53t-51 -163l-16 -125h567
l-15 -125h-1zM1491 1164q-70 0 -116 21.5t-71.5 58t-33 85.5t-1.5 104h117q-4 -33 -1 -61.5t16.5 -48.5t38.5 -31.5t64 -11.5t66.5 11.5t45.5 31.5t27.5 48.5t13.5 61.5h116q-6 -55 -24.5 -104t-52 -85.5t-84.5 -58t-121 -21.5z" />
    <glyph glyph-name="f_f_iogonek.liga" unicode="ff&#x12f;" horiz-adv-x="1648" 
d="M1537 868l-106 -868h-24q-21 -12 -43.5 -28.5t-40.5 -37.5t-30 -46t-12 -53q0 -32 19 -51t51 -19q20 0 34 3.5t23.5 8t15.5 8.5t11 4q12 0 16 -13l20 -66q-32 -23 -76.5 -37.5t-92.5 -14.5q-78 0 -119.5 35t-41.5 93q0 63 42.5 117.5t110.5 96.5h-35l106 868h-388
l-102 -836l-47 -207q-11 -36 -32.5 -55.5t-59.5 -19.5h-70l137 1118h-406l-102 -835l-46 -207q-11 -36 -32.5 -55.5t-59.5 -19.5h-70l136 1115l-99 13q-20 3 -31.5 13.5t-9.5 30.5l9 70h147l10 83q11 87 43 154.5t80.5 114t111.5 70.5t135 24q61 0 113 -20l-17 -93
q-3 -10 -10 -14t-18 -5t-25.5 -0.5t-31.5 0.5q-42 0 -77.5 -11t-63 -37t-46 -69.5t-26.5 -108.5l-12 -88h414l7 56q11 93 48 170t97.5 132t145 85.5t191.5 30.5q17 0 37 -1.5t39.5 -4t37 -6t29.5 -8.5l-17 -90q-2 -10 -9.5 -14t-19.5 -5t-28 0t-37 1q-165 0 -247 -72
t-100 -221l-7 -53h567l-15 -125h-1z" />
    <glyph glyph-name="f_f_dotlessi.liga" unicode="ff&#x131;" horiz-adv-x="1648" 
d="M1537 868l-106 -868h-172l106 868h-388l-102 -835l-44 -207q-11 -36 -32.5 -55.5t-59.5 -19.5h-70l136 1117h-408l-102 -835l-46 -207q-11 -36 -32.5 -55.5t-59.5 -19.5h-70l136 1115l-99 13q-20 3 -31.5 13.5t-9.5 30.5l9 70h147l10 83q11 87 43 154.5t80.5 114
t111.5 70.5t135 24q61 0 113 -20l-17 -93q-3 -10 -10 -14t-18 -5t-25.5 -0.5t-31.5 0.5q-42 0 -77.5 -11t-63 -37t-46 -69.5t-26.5 -108.5l-12 -88h416l15 124q20 166 99 255t206 89q21 0 42 -2t36 -7l-11 -94q-2 -16 -16 -20t-38 -4q-64 0 -101 -53t-51 -163l-16 -125h567
l-15 -125h-1z" />
    <glyph glyph-name="f_j.liga" unicode="fj" horiz-adv-x="1067" 
d="M971 993l-129 -1068q-8 -61 -30.5 -113.5t-60.5 -91.5t-90.5 -61.5t-119.5 -22.5q-35 0 -60 5t-49 15l18 96q3 9 8 13.5t12.5 5.5t19 0.5t28.5 -0.5q70 0 104 37t45 117l115 943h-384l-103 -836l-47 -207q-11 -36 -32.5 -55.5t-59.5 -19.5h-70l137 1117l-99 12
q-20 3 -31.5 13.5t-9.5 30.5l9 70h147l7 56q11 93 48 170t97.5 132t145 85.5t191.5 30.5q18 0 37.5 -1.5t39 -4t37 -6t30.5 -8.5l-18 -90q-2 -10 -9.5 -14t-19.5 -5t-28 0t-37 1q-83 0 -144 -18t-103 -54t-66.5 -91t-33.5 -130l-7 -53h565z" />
    <glyph glyph-name="f_f_j.liga" unicode="ffj" horiz-adv-x="1649" 
d="M405 993h414l7 56q11 93 48 170t97.5 132t145 85.5t191.5 30.5q17 0 37 -1.5t39.5 -4t37 -6t29.5 -8.5l-17 -90q-2 -10 -9.5 -14t-19.5 -5t-28 0t-37 1q-165 0 -247 -72t-100 -221l-7 -53h567l-15 -125l-114 -944q-8 -60 -30.5 -113t-60.5 -92t-91 -61.5t-120 -22.5
q-35 0 -59.5 5t-48.5 15l18 96q3 9 8 13.5t12.5 5.5t19 0.5t28.5 -0.5q70 0 104 37t45 117l115 944h-387l-102 -836l-47 -207q-11 -36 -32.5 -55.5t-59.5 -19.5h-70l137 1118h-406l-102 -835l-46 -207q-11 -36 -32.5 -55.5t-59.5 -19.5h-70l136 1115l-99 13
q-20 3 -31.5 13.5t-9.5 30.5l9 70h147l10 83q11 87 43 154.5t80.5 114t111.5 70.5t135 24q61 0 113 -20l-17 -93q-3 -10 -10 -14t-18 -5t-25.5 -0.5t-31.5 0.5q-42 0 -77.5 -11t-63 -37t-46 -69.5t-26.5 -108.5z" />
    <glyph glyph-name="f_k.liga" unicode="fk" horiz-adv-x="1595" 
d="M397 865l-103 -833l-47 -207q-11 -36 -32.5 -55.5t-59.5 -19.5h-70l138 1112l-99 12q-21 5 -32 14.5t-9 29.5l9 75h147l11 88q10 85 44 160t90 131t133.5 88.5t175.5 32.5q51 0 100.5 -3t94.5 -6.5l85 -6.5t74 -4h15l-106 -867h30q21 0 34 5.5t28 22.5l336 343
q14 17 30 26.5t39 9.5h158l-391 -397q-30 -35 -61 -53q16 -12 27.5 -27.5t21.5 -35.5l304 -500h-153q-22 0 -36.5 7.5t-23.5 27.5l-258 415q-12 21 -25 27.5t-41 6.5h-34l-59 -484h-176l166 1354q-42 6 -84.5 13.5t-83.5 7.5q-60 0 -109 -20.5t-86 -59t-60.5 -93
t-31.5 -121.5l-11 -88h247l-15 -128h-241z" />
    <glyph glyph-name="f_f_k.liga" unicode="ffk" horiz-adv-x="2179" 
d="M406 992h414l11 89q10 85 44 160t90.5 131t133.5 88.5t175 32.5q54 0 105.5 -3t98.5 -7t88.5 -7t75.5 -3h3l-106 -867h30q21 0 34 5.5t28 22.5l336 343q14 17 30 26.5t39 9.5h158l-391 -397q-30 -35 -61 -53q16 -12 27.5 -27.5t21.5 -35.5l304 -500h-153q-22 0 -36.5 7.5
t-23.5 27.5l-258 415q-12 21 -25 27.5t-41 6.5h-34l-59 -484h-176l166 1354q-42 6 -85.5 13.5t-84.5 7.5q-59 0 -108.5 -20.5t-86.5 -59t-60.5 -93t-30.5 -121.5l-11 -89h265l-16 -126h-259l-103 -834l-47 -207q-11 -36 -32.5 -55.5t-59.5 -19.5h-69l137 1116h-407
l-101 -833l-46 -207q-11 -36 -32.5 -55.5t-59.5 -19.5h-70l136 1113l-101 13q-20 4 -31 14t-9 30l9 71h147l11 84q11 87 43 154.5t80.5 114t111.5 70.5t135 24q61 0 113 -20l-17 -93q-3 -10 -10 -14t-18 -5t-25.5 -0.5t-31.5 0.5q-42 0 -77.5 -11t-63 -37t-46 -69.5
t-26.5 -108.5z" />
    <glyph glyph-name="uniFB02" unicode="fl" horiz-adv-x="1098" 
d="M397 865l-103 -833l-47 -207q-11 -36 -32.5 -55.5t-59.5 -19.5h-70l137 1112l-98 12q-21 5 -32 14.5t-9 29.5l9 75h146l7 55q10 84 43 159t87.5 131t130.5 88.5t173 32.5q72 0 136.5 -6t127.5 -7h120l-178 -1446h-173l161 1316q-45 4 -92 9t-91 5q-117 0 -189.5 -73.5
t-88.5 -208.5l-6 -55h238l-15 -128h-232z" />
    <glyph glyph-name="uniFB04" unicode="ffl" horiz-adv-x="1677" 
d="M402 992h415l7 56q10 84 43 159t88 131t131 88.5t173 32.5q77 0 147 -6.5t138 -6.5h98l-177 -1446h-173l160 1316q-45 4 -92 9t-90 5q-118 0 -190.5 -73.5t-87.5 -208.5l-6 -56h267l-16 -126h-261l-103 -834l-46 -207q-11 -36 -32.5 -55.5t-59.5 -19.5h-70l136 1116h-408
l-100 -833l-47 -207q-11 -36 -32.5 -55.5t-59.5 -19.5h-70l136 1114l-96 12q-20 4 -31.5 14t-9.5 30l9 71h143l11 84q11 87 43 154.5t80.5 114t111.5 70.5t135 24q62 0 113 -20l-17 -93q-3 -10 -10 -14t-18 -5t-25.5 -0.5t-31.5 0.5q-42 0 -77.5 -11t-63 -37t-46 -69.5
t-26.5 -108.5z" />
    <glyph glyph-name="f_t.liga" unicode="ft" horiz-adv-x="1309" 
d="M406 993h433l76 315q5 15 15.5 24.5t26.5 9.5h94l-43 -349h266l-14 -125h-268l-61 -502l-8 -66t-4.5 -40t-2 -21t-0.5 -9q0 -51 23.5 -75.5t64.5 -24.5q26 0 46 7.5t34.5 16.5t24.5 16.5t18 7.5q15 0 22 -17l37 -85q-48 -43 -110.5 -67.5t-125.5 -24.5q-97 0 -153 53
t-58 154q0 6 0.5 15.5t2 27.5t4.5 47t9 76l63 511h-420l-102 -835l-47 -207q-11 -36 -32.5 -55.5t-59.5 -19.5h-70l135 1116l-98 12q-20 3 -31.5 13.5t-9.5 30.5l9 70h146l12 98q11 87 43.5 154.5t82 114t113 70.5t137.5 24q61 0 113 -20l-17 -92q-2 -10 -9 -14.5
t-18.5 -5.5t-26 -0.5t-31.5 0.5q-43 0 -79.5 -12.5t-64.5 -40.5t-47.5 -73t-27.5 -110z" />
    <glyph glyph-name="f_f_t.liga" unicode="fft" horiz-adv-x="1890" 
d="M985 992h436l76 316q5 15 15.5 24.5t26.5 9.5h94l-44 -350h268l-16 -126h-267l-62 -500l-8 -66t-4.5 -40t-2 -21t-0.5 -9q0 -51 24 -75.5t65 -24.5q26 0 46 7.5t34.5 16.5t24.5 16.5t18 7.5t12.5 -4t9.5 -13l37 -85q-48 -43 -110.5 -67.5t-125.5 -24.5q-97 0 -153 53
t-58 154q0 6 0.5 15.5t2 27.5t4.5 47t9 76l63 509h-424l-101 -833l-47 -207q-11 -36 -32.5 -55.5t-59.5 -19.5h-70l134 1115h-404l-101 -833l-47 -207q-11 -36 -32.5 -55.5t-59.5 -19.5h-70l136 1114l-98 12q-20 4 -31.5 14t-9.5 30l9 71h145l11 84q11 87 43 154.5t80.5 114
t111.5 70.5t135 24q62 0 113 -20l-17 -93q-3 -10 -10 -14t-18 -5t-25.5 -0.5t-31.5 0.5q-42 0 -77 -11t-62.5 -37t-46 -69.5t-26.5 -108.5l-12 -89h410l14 110q11 87 43.5 154.5t82 114t113 70.5t137.5 24q61 0 113 -20l-17 -92q-3 -10 -10 -14t-18 -5.5t-25.5 -1t-31.5 0.5
q-43 0 -79 -12.5t-64 -40.5t-47 -73t-27 -110z" />
    <glyph glyph-name="t_f.liga" unicode="tf" horiz-adv-x="1274" 
d="M1024 992h267l-15 -126h-261l-101 -834l-47 -207q-11 -36 -32.5 -55.5t-59.5 -19.5h-70l136 1116h-449l-62 -500l-8 -66t-4.5 -40t-1.5 -21v-9q0 -51 23.5 -75.5t64.5 -24.5q26 0 46 7.5t34.5 16.5t24.5 16.5t18 7.5t12.5 -4t9.5 -13l37 -85q-48 -43 -110.5 -67.5
t-125.5 -24.5q-97 0 -153 53t-58 154q0 6 0.5 15.5t2 27.5t4.5 47t9 76l63 509h-110q-15 0 -24 10t-7 29l8 68l154 20l76 315q5 15 15.5 24.5t26.5 9.5h94l-44 -350h449l12 98q11 87 43.5 154.5t82 114t113 70.5t137.5 24q61 0 113 -20l-17 -92q-2 -10 -9.5 -14.5
t-18.5 -5.5t-25.5 -0.5t-31.5 0.5q-43 0 -79.5 -12.5t-65 -40.5t-47.5 -73t-27 -110z" />
    <glyph glyph-name="t_iogonek.liga" unicode="t&#x12f;" horiz-adv-x="1147" 
d="M1007 1459q24 0 46 -10t39 -27.5t27.5 -41t10.5 -49.5t-10.5 -48.5t-28 -40t-40 -27.5t-45.5 -10q-24 0 -45.5 10t-38 27.5t-26.5 40t-10 48.5t10 49t27 40.5t38.5 28t45.5 10.5zM1052 992l-15 -126l-106 -866h-15q-21 -12 -43.5 -28.5t-41 -37.5t-30.5 -46.5t-12 -54.5
q0 -32 19.5 -51.5t52.5 -19.5q21 0 35 3.5t24 8t15.5 8.5t10.5 4q14 0 17 -12l18 -64q-31 -23 -75.5 -37.5t-91.5 -14.5q-76 0 -117.5 35t-41.5 93q0 63 43 118t110 96h-50l107 866h-473l-62 -500l-8 -66t-4.5 -40t-1.5 -21v-9q0 -51 23.5 -75.5t64.5 -24.5q26 0 46 7.5
t34.5 16.5t24.5 16.5t18 7.5t12.5 -4t9.5 -13l37 -85q-48 -43 -110.5 -67.5t-125.5 -24.5q-97 0 -153 53t-58 154q0 6 0.5 15.5t2 27.5t4.5 47t9 76l63 509h-110q-15 0 -24 10t-7 29l8 68l154 20l76 315q5 15 15.5 24.5t26.5 9.5h94l-43 -350h644z" />
    <glyph glyph-name="t_dotlessi.liga" unicode="t&#x131;" horiz-adv-x="1146" 
d="M1036 866l-106 -866h-173l107 866h-473l-62 -500l-8 -66t-4.5 -40t-2 -21t-0.5 -9q0 -51 24 -75.5t65 -24.5q26 0 46 7.5t34.5 16.5t24.5 16.5t18 7.5t12.5 -4t9.5 -13l37 -85q-48 -43 -110.5 -67.5t-125.5 -24.5q-97 0 -153 53t-58 154q0 6 0.5 15.5t2 27.5t4.5 47t9 76
l63 509h-110q-15 0 -24 10t-7 29l8 68l154 20l76 315q5 15 15.5 24.5t26.5 9.5h94l-43 -350h644z" />
    <glyph glyph-name="t_t.liga" unicode="tt" horiz-adv-x="1307" 
d="M138 191q0 6 0.5 15.5t2 27.5t4.5 47t9 76l63 509h-110q-15 0 -24 10t-7 29l8 68l154 20l76 315q5 15 15.5 24.5t26.5 9.5h94l-44 -350h431l77 316q5 15 15.5 24.5t26.5 9.5h93l-43 -350h265l-16 -126h-265l-61 -500l-8 -66t-4.5 -40t-2 -21t-0.5 -9q0 -51 24 -75.5
t64 -24.5q27 0 46.5 7.5t34.5 16.5t25 16.5t17 7.5q9 0 13.5 -4t8.5 -13l38 -85q-49 -43 -111.5 -67.5t-125.5 -24.5q-97 0 -152.5 53t-57.5 154q0 6 0.5 15.5t2 27.5t4.5 47t9 76l62 509h-425l-62 -500l-8 -66t-4.5 -40t-2 -21t-0.5 -9q0 -51 24 -75.5t65 -24.5
q26 0 46 7.5t34.5 16.5t24.5 16.5t18 7.5t12.5 -4t9.5 -13l37 -85q-48 -43 -110.5 -67.5t-125.5 -24.5q-97 0 -153 53t-58 154z" />
    <glyph glyph-name="t_t_f.liga" unicode="ttf" horiz-adv-x="1873" 
d="M1467 1090q11 87 43.5 154.5t82 114t113 70.5t137.5 24q61 0 113 -20l-17 -92q-2 -10 -9 -14.5t-18.5 -5.5t-26 -0.5t-31.5 0.5q-43 0 -79.5 -12.5t-65 -40.5t-47.5 -73t-27 -110l-11 -93h266l-15 -126h-260l-102 -834l-47 -207q-11 -36 -32.5 -55.5t-59.5 -19.5h-70
l136 1116h-449l-61 -500l-8 -66t-4.5 -40t-2 -21t-0.5 -9q0 -51 23.5 -75.5t64.5 -24.5q26 0 46 7.5t34.5 16.5t24.5 16.5t18 7.5q15 0 22 -17l37 -85q-48 -43 -110.5 -67.5t-125.5 -24.5q-97 0 -153 53t-58 154q0 6 0.5 15.5t2 27.5t4.5 47t9 76l63 509h-425l-62 -500
l-8 -66t-4.5 -40t-1.5 -21v-9q0 -51 23.5 -75.5t64.5 -24.5q26 0 46 7.5t34.5 16.5t24.5 16.5t18 7.5t12.5 -4t9.5 -13l37 -85q-48 -43 -110.5 -67.5t-125.5 -24.5q-97 0 -153 53t-58 154q0 6 0.5 15.5t2 27.5t4.5 47t9 76l63 509h-110q-15 0 -24 10t-7 29l8 68l154 20
l76 315q5 15 15.5 24.5t26.5 9.5h94l-43 -350h430l76 316q5 15 15.5 24.5t27.5 9.5h93l-43 -350h448z" />
    <glyph glyph-name="t_t_iogonek.liga" unicode="tt&#x12f;" horiz-adv-x="1728" 
d="M1633 992l-15 -126l-107 -865l5 -1q-21 -12 -43.5 -28.5t-40.5 -37.5t-30 -46t-12 -53q0 -32 19 -51t51 -19q20 0 34 3.5t23.5 8t15.5 8.5t11 4q12 0 16 -13l20 -66q-32 -23 -76.5 -37.5t-92.5 -14.5q-78 0 -119.5 35t-41.5 93q0 63 42.5 117.5t111.5 96.5h-65l107 866
h-455l-61 -500l-8 -66t-4.5 -40t-2 -21t-0.5 -9q0 -51 23.5 -75.5t64.5 -24.5q26 0 46 7.5t34.5 16.5t24.5 16.5t18 7.5q15 0 22 -17l37 -85q-48 -43 -110.5 -67.5t-125.5 -24.5q-97 0 -153 53t-58 154q0 6 0.5 15.5t2 27.5t4.5 47t9 76l63 509h-425l-62 -500l-8 -66
t-4.5 -40t-1.5 -21v-9q0 -51 23.5 -75.5t64.5 -24.5q26 0 46 7.5t34.5 16.5t24.5 16.5t18 7.5t12.5 -4t9.5 -13l37 -85q-48 -43 -110.5 -67.5t-125.5 -24.5q-97 0 -153 53t-58 154q0 6 0.5 15.5t2 27.5t4.5 47t9 76l63 509h-110q-15 0 -24 10t-7 29l8 68l154 20l76 315
q5 15 15.5 24.5t26.5 9.5h94l-43 -350h430l76 316q5 15 15.5 24.5t27.5 9.5h93l-43 -350h626zM1588 1459q24 0 46.5 -10t39.5 -27.5t27.5 -41t10.5 -49.5t-10.5 -48.5t-28 -40t-40 -27.5t-46.5 -10q-23 0 -45 10t-38.5 27.5t-26.5 40t-10 48.5t10 49t27 40.5t39 28t45 10.5z
" />
    <glyph glyph-name="t_t_dotlessi.liga" unicode="tt&#x131;" horiz-adv-x="1727" 
d="M1510 0h-172l107 866h-455l-61 -500l-8 -66t-4.5 -40t-2 -21t-0.5 -9q0 -51 23.5 -75.5t64.5 -24.5q26 0 46 7.5t34.5 16.5t24.5 16.5t18 7.5q15 0 22 -17l37 -85q-48 -43 -110.5 -67.5t-125.5 -24.5q-97 0 -153 53t-58 154q0 6 0.5 15.5t2 27.5t4.5 47t9 76l63 509h-425
l-62 -500l-8 -66t-4.5 -40t-2 -21t-0.5 -9q0 -51 24 -75.5t65 -24.5q26 0 46 7.5t34.5 16.5t24.5 16.5t18 7.5t12.5 -4t9.5 -13l37 -85q-48 -43 -110.5 -67.5t-125.5 -24.5q-97 0 -153 53t-58 154q0 6 0.5 15.5t2 27.5t4.5 47t9 76l63 509h-110q-15 0 -24 10t-7 29l8 68
l154 20l76 315q5 15 15.5 24.5t26.5 9.5h94l-43 -350h430l76 316q5 15 15.5 24.5t26.5 9.5h94l-43 -350h626z" />
    <glyph glyph-name="f_uni01D0.liga" unicode="f&#x1d0;" horiz-adv-x="1065" 
d="M403 993h567l-121 -993h-173l106 864h-390l-101 -831l-44 -207q-11 -36 -32.5 -55.5t-59.5 -19.5h-70l136 1112l-97 12q-20 4 -31.5 14t-9.5 30l9 74h145l16 124q20 166 99 255t206 89q20 0 41 -2t37 -7l-11 -94q-2 -16 -16.5 -20t-37.5 -4q-64 0 -101 -53t-51 -163z
M988 1169h-159l-158 262h119q12 0 22 -3.5t14 -10.5l83 -129l12 -25l20 25l115 129q5 7 16.5 10.5t23.5 3.5h115z" />
    <glyph glyph-name="f_uni0209.liga" unicode="f&#x209;" horiz-adv-x="1065" 
d="M404 993h413v-1h153l-121 -992h-173l106 864h-388l-101 -831l-44 -207q-11 -36 -32.5 -55.5t-59.5 -19.5h-70l136 1111l-99 12q-21 5 -32 14.5t-9 29.5l8 75h148l15 124q11 94 40 159.5t72.5 106.5t100.5 59.5t126 18.5q30 0 51.5 -2.5t37 -9t26.5 -17.5t20 -27l135 -241
h-82q-20 0 -32 6t-23 20l-103 144q-53 1 -88 -10t-58.5 -36.5t-36.5 -67.5t-20 -102zM939 1448q32 0 46.5 -10.5t23.5 -32.5l95 -241h-71q-20 0 -33 5.5t-23 20.5l-152 258h114z" />
    <glyph glyph-name="f_uni020B.liga" unicode="f&#x20b;" horiz-adv-x="1065" 
d="M403 993h567l-121 -993h-173l106 864h-390l-101 -831l-44 -207q-11 -36 -32.5 -55.5t-59.5 -19.5h-70l136 1112l-97 12q-20 4 -31.5 14t-9.5 30l9 74h145l16 124q20 166 99 255t206 89q20 0 41 -2t37 -7l-11 -94q-2 -16 -16.5 -20t-37.5 -4q-64 0 -101 -53t-51 -163z
M942 1442q71 0 117.5 -21.5t72.5 -58t33.5 -85t0.5 -102.5h-121q4 33 1 61.5t-16 49.5t-37.5 32.5t-62.5 11.5t-65.5 -11.5t-45.5 -32.5t-28 -49.5t-14 -61.5h-122q7 54 26 102.5t53.5 85t85.5 58t122 21.5z" />
    <glyph glyph-name="f_uni1E2F.liga" unicode="f&#x1e2f;" horiz-adv-x="1067" 
d="M405 993h567l-121 -993h-175l106 864h-387l-101 -831l-44 -207q-11 -36 -32.5 -55.5t-59.5 -19.5h-70l136 1110l-100 13q-21 5 -32 14.5t-9 29.5l8 75h149l15 124q20 166 99 255t207 89q20 0 41 -2t37 -7l-12 -94q-2 -16 -16 -20t-37 -4q-64 0 -101.5 -53t-51.5 -163z
M1253 1591l-229 -224q-14 -15 -28.5 -20.5t-34.5 -5.5h-102l146 207q15 22 31.5 32.5t48.5 10.5h168zM865 1208q0 -20 -8.5 -38t-22.5 -31.5t-32 -21t-38 -7.5t-38.5 7.5t-32 21t-21.5 31.5t-8 38q0 21 8 39.5t21.5 32.5t32 22t38.5 8t38 -8t32 -22t22.5 -32.5t8.5 -39.5z
M1168 1208q0 -20 -8 -38t-22 -31.5t-32 -21t-39 -7.5q-20 0 -38 7.5t-31.5 21t-21.5 31.5t-8 38q0 21 8 39.5t21.5 32.5t31.5 22t38 8q21 0 39 -8t32 -22t22 -32.5t8 -39.5z" />
    <glyph glyph-name="f_f_uni01D0.liga" unicode="ff&#x1d0;" horiz-adv-x="1647" 
d="M985 993h568l-15 -127h-1l-106 -866h-172l105 866h-389l-102 -833l-43 -207q-11 -36 -32.5 -55.5t-59.5 -19.5h-70l136 1115h-408l-101 -833l-46 -207q-11 -36 -32.5 -55.5t-59.5 -19.5h-70l136 1114l-99 12q-20 4 -31.5 14t-9.5 30l9 72h147l10 83q11 87 43 154.5
t80.5 114t111.5 70.5t135 24q61 0 113 -20l-17 -93q-3 -10 -10 -14t-18 -5t-25.5 -0.5t-31.5 0.5q-42 0 -77.5 -11t-63 -37t-46 -69.5t-26.5 -108.5l-12 -88h415l15 124q20 166 99 255t206 89q21 0 42 -2t36 -7l-11 -94q-2 -16 -16 -20t-38 -4q-64 0 -101 -53t-51 -163z
M1571 1169h-160l-158 262h120q11 0 21.5 -3.5t13.5 -10.5l84 -129l12 -25l19 25l116 129q5 7 16 10.5t23 3.5h116z" />
    <glyph glyph-name="f_f_uni0209.liga" unicode="ff&#x209;" horiz-adv-x="1650" 
d="M408 993h415l15 124q12 94 40.5 159.5t72 106.5t100.5 59.5t126 18.5q30 0 51.5 -2.5t37 -9t26.5 -17.5t20 -27l136 -241h-83q-20 0 -32 6t-23 20l-102 144q-53 1 -88 -10t-58.5 -36.5t-36.5 -67.5t-21 -102l-16 -125h566v-1h1l-122 -992h-172l105 866h-388l-101 -833
l-44 -207q-11 -36 -32.5 -55.5t-59.5 -19.5h-70l136 1115h-408l-100 -833l-47 -207q-11 -36 -32.5 -55.5t-59.5 -19.5h-70l136 1113l-104 13q-20 4 -31 14t-9 30l9 72h151l10 83q11 87 43 154.5t80.5 114t111.5 70.5t135 24q62 0 113 -20l-17 -93q-3 -10 -10 -14t-18 -5
t-25.5 -0.5t-31.5 0.5q-42 0 -77.5 -11t-63 -37t-46 -69.5t-26.5 -108.5zM1524 1448q31 0 45.5 -10.5t23.5 -32.5l96 -241h-72q-20 0 -32.5 5.5t-23.5 20.5l-151 258h114z" />
    <glyph glyph-name="f_f_uni020B.liga" unicode="ff&#x20b;" horiz-adv-x="1647" 
d="M985 993h568l-15 -127h-1l-106 -866h-172l105 866h-389l-102 -833l-43 -207q-11 -36 -32.5 -55.5t-59.5 -19.5h-70l136 1115h-408l-101 -833l-46 -207q-11 -36 -32.5 -55.5t-59.5 -19.5h-70l136 1114l-99 12q-20 4 -31.5 14t-9.5 30l9 72h147l10 83q11 87 43 154.5
t80.5 114t111.5 70.5t135 24q61 0 113 -20l-17 -93q-3 -10 -10 -14t-18 -5t-25.5 -0.5t-31.5 0.5q-42 0 -77.5 -11t-63 -37t-46 -69.5t-26.5 -108.5l-12 -88h415l15 124q20 166 99 255t206 89q21 0 42 -2t36 -7l-11 -94q-2 -16 -16 -20t-38 -4q-64 0 -101 -53t-51 -163z
M1517 1442q71 0 117 -21.5t72 -58t33.5 -85t1.5 -102.5h-122q4 33 1 61.5t-16 49.5t-37 32.5t-62 11.5t-65.5 -11.5t-45.5 -32.5t-28 -49.5t-14 -61.5h-122q7 54 26 102.5t53.5 85t85.5 58t122 21.5z" />
    <glyph glyph-name="f_f_uni1E2F.liga" unicode="ff&#x1e2f;" horiz-adv-x="1647" 
d="M985 993h568l-122 -993h-175l106 866h-387l-101 -833l-44 -207q-11 -36 -32.5 -55.5t-59.5 -19.5h-70l136 1115h-407l-101 -833l-47 -207q-11 -36 -32.5 -55.5t-59.5 -19.5h-70l136 1113l-100 13q-20 4 -31 14t-9 30l9 72h147l10 83q11 87 43 154.5t80.5 114t111.5 70.5
t135 24q62 0 113 -20l-17 -93q-3 -10 -10 -14t-18 -5t-25.5 -0.5t-31.5 0.5q-42 0 -77.5 -11t-62.5 -37t-45.5 -69.5t-26.5 -108.5l-12 -88h414l15 124q20 166 99 255t206 89q21 0 42 -2t36 -7l-11 -94q-2 -16 -16 -20t-38 -4q-64 0 -101 -53t-51 -163zM1833 1591l-229 -224
q-14 -15 -28 -20.5t-34 -5.5h-103l146 207q15 22 32 32.5t48 10.5h168zM1748 1208q0 -20 -8 -38t-22 -31.5t-32 -21t-39 -7.5q-20 0 -38 7.5t-31.5 21t-21.5 31.5t-8 38q0 21 8 39.5t21.5 32.5t31.5 22t38 8q21 0 39 -8t32 -22t22 -32.5t8 -39.5zM1445 1208q0 -20 -8 -38
t-22 -31.5t-32.5 -21t-38.5 -7.5t-38 7.5t-31.5 21t-21.5 31.5t-8 38q0 21 8 39.5t21.5 32.5t31.5 22t38 8t38.5 -8t32.5 -22t22 -32.5t8 -39.5z" />
    <glyph glyph-name="f_uni0237.liga" unicode="f&#x237;" horiz-adv-x="1067" 
d="M405 993h566l-129 -1068q-8 -61 -30.5 -113.5t-60.5 -91.5t-90.5 -61.5t-119.5 -22.5q-35 0 -60 5t-49 15l18 96q3 9 8 13.5t12.5 5.5t19 0.5t28.5 -0.5q70 0 104 37t45 117l115 943h-386l-102 -835l-44 -207q-11 -36 -32.5 -55.5t-59.5 -19.5h-70l136 1115l-100 13
q-20 3 -31.5 13.5t-9.5 30.5l9 70h148l15 124q20 166 99 255t207 89q20 0 41 -2t36 -7l-11 -94q-2 -16 -16 -20t-38 -4q-63 0 -100.5 -53t-51.5 -163z" />
    <glyph glyph-name="f_f_uni0237.liga" unicode="ff&#x237;" horiz-adv-x="1649" 
d="M986 993h567l-15 -125l-114 -944q-8 -60 -30.5 -113t-60.5 -92t-91 -61.5t-120 -22.5q-35 0 -59.5 5t-48.5 15l18 96q3 9 8 13.5t12.5 5.5t19 0.5t28.5 -0.5q70 0 104 37t45 117l115 944h-388l-102 -835l-44 -207q-11 -36 -32.5 -55.5t-59.5 -19.5h-70l136 1117h-407
l-102 -835l-46 -207q-11 -36 -32.5 -55.5t-59.5 -19.5h-70l136 1115l-99 13q-20 3 -31.5 13.5t-9.5 30.5l9 70h147l10 83q11 87 43 154.5t80.5 114t111.5 70.5t135 24q61 0 113 -20l-17 -93q-3 -10 -10 -14t-18 -5t-25.5 -0.5t-31.5 0.5q-42 0 -77.5 -11t-63 -37t-46 -69.5
t-26.5 -108.5l-12 -88h415l15 124q20 166 99.5 255t206.5 89q20 0 41 -2t37 -7l-11 -94q-2 -16 -16.5 -20t-37.5 -4q-64 0 -101.5 -53t-50.5 -163z" />
    <glyph glyph-name="f_jcircumflex.liga" unicode="f&#x135;" horiz-adv-x="1067" 
d="M405 993h566l-129 -1068q-8 -61 -30.5 -113.5t-60.5 -91.5t-90.5 -61.5t-119.5 -22.5q-35 0 -60 5t-49 15l18 96q3 9 8 13.5t12.5 5.5t19 0.5t28.5 -0.5q70 0 104 37t45 117l115 943h-386l-102 -835l-44 -207q-11 -36 -32.5 -55.5t-59.5 -19.5h-70l136 1115l-100 13
q-20 3 -31.5 13.5t-9.5 30.5l9 70h148l15 124q20 166 99 255t207 89q20 0 41 -2t36 -7l-11 -94q-2 -16 -16 -20t-38 -4q-63 0 -100.5 -53t-51.5 -163zM1198 1169h-110q-10 0 -19.5 4t-18.5 15l-99 132q-3 5 -6.5 9.5t-6.5 9.5l-17 -19l-130 -132q-19 -19 -42 -19h-114
l235 264h152z" />
    <glyph glyph-name="f_lcaron.liga" unicode="f&#x13e;" horiz-adv-x="1098" 
d="M1307 1473q17 0 22.5 -7.5t5.5 -17.5t-4 -25t-15.5 -43.5t-33 -75.5l-57.5 -120q-11 -22 -26.5 -28.5t-38.5 -6.5h-44l93 324h98zM397 865l-103 -833l-47 -207q-11 -36 -32.5 -55.5t-59.5 -19.5h-70l137 1112l-98 12q-21 5 -32 14.5t-9 29.5l9 75h146l7 55q10 84 43 159
t87.5 131t130.5 88.5t173 32.5q72 0 136.5 -6t127.5 -7h120l-178 -1446h-173l161 1316q-45 4 -92 9t-91 5q-117 0 -189.5 -73.5t-88.5 -208.5l-6 -55h238l-15 -128h-232z" />
    <glyph glyph-name="f_lcommaaccent.liga" unicode="f&#x13c;" horiz-adv-x="1098" 
d="M397 865l-103 -833l-47 -207q-11 -36 -32.5 -55.5t-59.5 -19.5h-70l137 1112l-98 12q-21 5 -32 14.5t-9 29.5l9 75h146l7 55q10 84 43 159t87.5 131t130.5 88.5t173 32.5q72 0 136.5 -6t127.5 -7h120l-178 -1446h-173l161 1316q-45 4 -92 9t-91 5q-117 0 -189.5 -73.5
t-88.5 -208.5l-6 -55h238l-15 -128h-232zM835 -96q18 0 23.5 -8t5.5 -18q0 -11 -4 -28t-14 -44t-27.5 -66l-43.5 -93q-11 -22 -27 -29t-40 -7h-62l81 293h108z" />
    <glyph glyph-name="f_uni021B.liga" unicode="f&#x21b;" horiz-adv-x="1309" 
d="M406 993h433l76 315q5 15 15.5 24.5t26.5 9.5h94l-43 -349h266l-14 -125h-268l-61 -502l-8 -66t-4.5 -40t-2 -21t-0.5 -9q0 -51 23.5 -75.5t64.5 -24.5q26 0 46 7.5t34.5 16.5t24.5 16.5t18 7.5q15 0 22 -17l37 -85q-48 -43 -110.5 -67.5t-125.5 -24.5q-97 0 -153 53
t-58 154q0 6 0.5 15.5t2 27.5t4.5 47t9 76l63 511h-420l-102 -835l-47 -207q-11 -36 -32.5 -55.5t-59.5 -19.5h-70l135 1116l-98 12q-20 3 -31.5 13.5t-9.5 30.5l9 70h146l12 98q11 87 43.5 154.5t82 114t113 70.5t137.5 24q61 0 113 -20l-17 -92q-2 -10 -9 -14.5
t-18.5 -5.5t-26 -0.5t-31.5 0.5q-43 0 -79.5 -12.5t-64.5 -40.5t-47.5 -73t-27.5 -110zM962 -96q18 0 23.5 -8t5.5 -18q0 -11 -4 -28t-14 -44t-27.5 -66l-43.5 -93q-11 -22 -27 -29t-40 -7h-62l81 293h108z" />
    <glyph glyph-name="f_tcaron.liga" unicode="f&#x165;" horiz-adv-x="1309" 
d="M1317 1473q17 0 23 -7.5t6 -17.5t-4 -25t-15.5 -43.5t-33 -75.5l-57.5 -120q-12 -22 -27 -28.5t-38 -6.5h-44l93 324h97zM406 993h433l76 315q5 15 15.5 24.5t26.5 9.5h94l-43 -349h266l-14 -125h-268l-61 -502l-8 -66t-4.5 -40t-2 -21t-0.5 -9q0 -51 23.5 -75.5
t64.5 -24.5q26 0 46 7.5t34.5 16.5t24.5 16.5t18 7.5q15 0 22 -17l37 -85q-48 -43 -110.5 -67.5t-125.5 -24.5q-97 0 -153 53t-58 154q0 6 0.5 15.5t2 27.5t4.5 47t9 76l63 511h-420l-102 -835l-47 -207q-11 -36 -32.5 -55.5t-59.5 -19.5h-70l135 1116l-98 12
q-20 3 -31.5 13.5t-9.5 30.5l9 70h146l12 98q11 87 43.5 154.5t82 114t113 70.5t137.5 24q61 0 113 -20l-17 -92q-2 -10 -9 -14.5t-18.5 -5.5t-26 -0.5t-31.5 0.5q-43 0 -79.5 -12.5t-64.5 -40.5t-47.5 -73t-27.5 -110z" />
    <glyph glyph-name="f_uni1ECB.liga" unicode="f&#x1ecb;" horiz-adv-x="1067" 
d="M405 993h567l-121 -993h-175l106 864h-386l-102 -832l-47 -207q-11 -36 -32.5 -55.5t-59.5 -19.5h-70l137 1112l-98 12q-21 5 -32 14.5t-9 29.5l8 75h147l7 56q11 93 48 170t97.5 132t145 85.5t191.5 30.5q18 0 37.5 -1.5t39 -4t37 -6t30.5 -8.5l-18 -90q-2 -10 -9.5 -14
t-19.5 -5t-28 0t-37 1q-83 0 -144 -18t-103 -54t-66.5 -91t-33.5 -130zM843 -256q0 -24 -10 -45t-26 -37t-37 -25.5t-43 -9.5t-42 9.5t-35.5 25.5t-25 37t-9.5 45t9.5 45.5t25 38t36 26t42.5 9.5t43 -9.5t37 -25.5t25.5 -38t9.5 -46z" />
    <glyph glyph-name="f_uni1E2D.liga" unicode="f&#x1e2d;" horiz-adv-x="1067" 
d="M405 993h567l-121 -993h-175l106 864h-386l-102 -832l-47 -207q-11 -36 -32.5 -55.5t-59.5 -19.5h-70l137 1112l-98 12q-21 5 -32 14.5t-9 29.5l8 75h147l7 56q11 93 48 170t97.5 132t145 85.5t191.5 30.5q18 0 37.5 -1.5t39 -4t37 -6t30.5 -8.5l-18 -90q-2 -10 -9.5 -14
t-19.5 -5t-28 0t-37 1q-83 0 -144 -18t-103 -54t-66.5 -91t-33.5 -130zM870 -179q67 0 79 86h100q-5 -47 -21 -86.5t-41 -67.5t-56.5 -43.5t-68.5 -15.5q-32 0 -58.5 14.5t-49.5 31.5l-43.5 31.5t-41.5 14.5q-67 0 -78 -88h-102q5 48 21.5 87.5t41.5 68t57 44t68 15.5
q33 0 59 -14.5t49 -31.5l43.5 -31.5t41.5 -14.5z" />
    <glyph glyph-name="f_uni0268.liga" unicode="f&#x268;" horiz-adv-x="1132" 
d="M745 564l37 300h-386l-102 -832l-47 -207q-11 -36 -32.5 -55.5t-59.5 -19.5h-70l137 1112l-98 12q-21 5 -32 14.5t-9 29.5l8 75h147l7 56q11 93 48 170t97.5 132t145 85.5t191.5 30.5q18 0 37.5 -1.5t39 -4t37 -6t30.5 -8.5l-18 -90q-2 -10 -9.5 -14t-19.5 -5t-28 0
t-37 1q-83 0 -144 -18t-103 -54t-66.5 -91t-33.5 -130l-7 -53h567l-52 -429h162l-16 -126h-162l-53 -438h-175l53 438h-114l15 126h115z" />
    <glyph glyph-name="f_iacute.liga" unicode="f&#xed;" horiz-adv-x="1067" 
d="M405 993h567l-121 -993h-175l106 864h-387l-101 -831l-44 -207q-11 -36 -32.5 -55.5t-59.5 -19.5h-70l136 1110l-100 13q-21 5 -32 14.5t-9 29.5l8 75h149l15 124q20 166 99 255t207 89q20 0 41 -2t37 -7l-12 -94q-2 -16 -16 -20t-37 -4q-64 0 -101.5 -53t-51.5 -163z
M1192 1449l-244 -258q-14 -15 -27 -21.5t-32 -6.5h-98l163 242q15 23 31.5 33.5t46.5 10.5h160z" />
    <glyph glyph-name="f_uni1EC9.liga" unicode="f&#x1ec9;" horiz-adv-x="1067" 
d="M405 993h567l-121 -993h-175l106 864h-387l-101 -831l-44 -207q-11 -36 -32.5 -55.5t-59.5 -19.5h-70l136 1110l-100 13q-21 5 -32 14.5t-9 29.5l8 75h149l15 124q20 166 99 255t207 89q20 0 41 -2t37 -7l-12 -94q-2 -16 -16 -20t-37 -4q-64 0 -101.5 -53t-51.5 -163z
M775 1418q29 23 74 36.5t96 13.5q41 0 70.5 -9.5t48 -26.5t25.5 -40t4 -50q-5 -49 -39.5 -85t-84.5 -55l-24 -82h-79l15 132q50 7 71 26.5t23 44.5q2 23 -11 40.5t-50 17.5q-18 0 -32.5 -4.5t-26 -9.5t-20 -9.5t-14.5 -4.5q-8 0 -12.5 4.5t-8.5 12.5z" />
    <glyph glyph-name="f_f_uni1ECB.liga" unicode="ff&#x1ecb;" horiz-adv-x="1648" 
d="M1537 868l-106 -868h-172l106 868h-388l-102 -836l-47 -207q-11 -36 -32.5 -55.5t-59.5 -19.5h-70l137 1118h-406l-102 -835l-46 -207q-11 -36 -32.5 -55.5t-59.5 -19.5h-70l136 1115l-99 13q-20 3 -31.5 13.5t-9.5 30.5l9 70h147l10 83q11 87 43 154.5t80.5 114
t111.5 70.5t135 24q61 0 113 -20l-17 -93q-3 -10 -10 -14t-18 -5t-25.5 -0.5t-31.5 0.5q-42 0 -77.5 -11t-63 -37t-46 -69.5t-26.5 -108.5l-12 -88h414l7 56q11 93 48 170t97.5 132t145 85.5t191.5 30.5q17 0 37 -1.5t39.5 -4t37 -6t29.5 -8.5l-17 -90q-2 -10 -9.5 -14
t-19.5 -5t-28 0t-37 1q-165 0 -247 -72t-100 -221l-7 -53h567l-15 -125h-1zM1425 -256q0 -24 -10 -45t-26 -37t-37 -25.5t-43 -9.5t-42 9.5t-35.5 25.5t-25 37t-9.5 45t9.5 45.5t25 38t36 26t42.5 9.5t43 -9.5t37 -25.5t25.5 -38t9.5 -46z" />
    <glyph glyph-name="f_f_uni1E2D.liga" unicode="ff&#x1e2d;" horiz-adv-x="1648" 
d="M1537 868l-106 -868h-172l106 868h-388l-102 -836l-47 -207q-11 -36 -32.5 -55.5t-59.5 -19.5h-70l137 1118h-406l-102 -835l-46 -207q-11 -36 -32.5 -55.5t-59.5 -19.5h-70l136 1115l-99 13q-20 3 -31.5 13.5t-9.5 30.5l9 70h147l10 83q11 87 43 154.5t80.5 114
t111.5 70.5t135 24q61 0 113 -20l-17 -93q-3 -10 -10 -14t-18 -5t-25.5 -0.5t-31.5 0.5q-42 0 -77.5 -11t-63 -37t-46 -69.5t-26.5 -108.5l-12 -88h414l7 56q11 93 48 170t97.5 132t145 85.5t191.5 30.5q17 0 37 -1.5t39.5 -4t37 -6t29.5 -8.5l-17 -90q-2 -10 -9.5 -14
t-19.5 -5t-28 0t-37 1q-165 0 -247 -72t-100 -221l-7 -53h567l-15 -125h-1zM1425 -179q67 0 79 86h100q-5 -47 -21 -86.5t-41 -67.5t-56.5 -43.5t-68.5 -15.5q-32 0 -58.5 14.5t-49.5 31.5l-43.5 31.5t-41.5 14.5q-67 0 -78 -88h-102q5 48 21.5 87.5t41.5 68t57 44t68 15.5
q33 0 59 -14.5t49 -31.5l43.5 -31.5t41.5 -14.5z" />
    <glyph glyph-name="f_f_uni0268.liga" unicode="ff&#x268;" horiz-adv-x="1677" 
d="M1328 564l37 304h-388l-102 -836l-47 -207q-11 -36 -32.5 -55.5t-59.5 -19.5h-70l137 1118h-406l-102 -835l-46 -207q-11 -36 -32.5 -55.5t-59.5 -19.5h-70l136 1115l-99 13q-20 3 -31.5 13.5t-9.5 30.5l9 70h147l10 83q11 87 43 154.5t80.5 114t111.5 70.5t135 24
q61 0 113 -20l-17 -93q-3 -10 -10 -14t-18 -5t-25.5 -0.5t-31.5 0.5q-42 0 -77.5 -11t-63 -37t-46 -69.5t-26.5 -108.5l-12 -88h414l7 56q11 93 48 170t97.5 132t145 85.5t191.5 30.5q17 0 37 -1.5t39.5 -4t37 -6t29.5 -8.5l-17 -90q-2 -10 -9.5 -14t-19.5 -5t-28 0t-37 1
q-165 0 -247 -72t-100 -221l-7 -53h567l-15 -125h-1l-37 -304h140l-16 -126h-140l-53 -438h-172l53 438h-139l15 126h140z" />
    <glyph glyph-name="f_f_iacute.liga" unicode="ff&#xed;" horiz-adv-x="1647" 
d="M1537 868l-106 -868h-172l106 868h-388l-102 -835l-44 -207q-11 -36 -32.5 -55.5t-59.5 -19.5h-70l136 1117h-408l-102 -835l-46 -207q-11 -36 -32.5 -55.5t-59.5 -19.5h-70l136 1115l-99 13q-20 3 -31.5 13.5t-9.5 30.5l9 70h147l10 83q11 87 43 154.5t80.5 114
t111.5 70.5t135 24q61 0 113 -20l-17 -93q-3 -10 -10 -14t-18 -5t-25.5 -0.5t-31.5 0.5q-42 0 -77.5 -11t-63 -37t-46 -69.5t-26.5 -108.5l-12 -88h416l15 124q20 166 99 255t206 89q21 0 42 -2t36 -7l-11 -94q-2 -16 -16 -20t-38 -4q-64 0 -101 -53t-51 -163l-16 -125h567
l-15 -125h-1zM1784 1449l-244 -258q-14 -15 -27 -21.5t-32 -6.5h-98l163 242q15 23 31.5 33.5t46.5 10.5h160z" />
    <glyph glyph-name="f_f_uni1EC9.liga" unicode="ff&#x1ec9;" horiz-adv-x="1637" 
d="M1537 868l-106 -868h-172l106 868h-388l-102 -835l-44 -207q-11 -36 -32.5 -55.5t-59.5 -19.5h-70l136 1117h-408l-102 -835l-46 -207q-11 -36 -32.5 -55.5t-59.5 -19.5h-70l136 1115l-99 13q-20 3 -31.5 13.5t-9.5 30.5l9 70h147l10 83q11 87 43 154.5t80.5 114
t111.5 70.5t135 24q61 0 113 -20l-17 -93q-3 -10 -10 -14t-18 -5t-25.5 -0.5t-31.5 0.5q-42 0 -77.5 -11t-63 -37t-46 -69.5t-26.5 -108.5l-12 -88h416l15 124q20 166 99 255t206 89q21 0 42 -2t36 -7l-11 -94q-2 -16 -16 -20t-38 -4q-64 0 -101 -53t-51 -163l-16 -125h567
l-15 -125h-1zM1358 1418q29 23 74 36.5t96 13.5q41 0 70.5 -9.5t48 -26.5t25.5 -40t4 -50q-5 -49 -39.5 -85t-84.5 -55l-24 -82h-79l15 132q50 7 71 26.5t23 44.5q2 23 -11 40.5t-50 17.5q-18 0 -32.5 -4.5t-26 -9.5t-20 -9.5t-14.5 -4.5q-8 0 -12.5 4.5t-8.5 12.5z" />
    <glyph glyph-name="f_lacute.liga" unicode="f&#x13a;" horiz-adv-x="1098" 
d="M397 865l-103 -833l-47 -207q-11 -36 -32.5 -55.5t-59.5 -19.5h-70l137 1112l-98 12q-21 5 -32 14.5t-9 29.5l9 75h146l7 55q10 84 43 159t87.5 131t130.5 88.5t173 32.5q72 0 136.5 -6t127.5 -7h120l-178 -1446h-173l161 1316q-45 4 -92 9t-91 5q-117 0 -189.5 -73.5
t-88.5 -208.5l-6 -55h238l-15 -128h-232zM1412 1852l-331 -286q-17 -14 -29.5 -17t-32.5 -3h-116l244 274q18 22 34 27t46 5h185z" />
    <glyph glyph-name="t_i.liga" unicode="ti" horiz-adv-x="1146" 
d="M1036 866l-106 -866h-173l107 866h-473l-62 -500l-8 -66t-4.5 -40t-2 -21t-0.5 -9q0 -51 24 -75.5t65 -24.5q26 0 46 7.5t34.5 16.5t24.5 16.5t18 7.5t12.5 -4t9.5 -13l37 -85q-48 -43 -110.5 -67.5t-125.5 -24.5q-97 0 -153 53t-58 154q0 6 0.5 15.5t2 27.5t4.5 47t9 76
l63 509h-110q-15 0 -24 10t-7 29l8 68l154 20l76 315q5 15 15.5 24.5t26.5 9.5h94l-43 -350h644zM1139 1331q0 -26 -10.5 -48.5t-28 -40t-40 -27.5t-46.5 -10q-23 0 -45 10t-38.5 27.5t-26.5 40t-10 48.5t10 49t27 40.5t39 28t45 10.5q24 0 46.5 -10t39.5 -27.5t27.5 -41
t10.5 -49.5z" />
    <glyph glyph-name="t_igrave.liga" unicode="t&#xec;" horiz-adv-x="1146" 
d="M1036 866l-106 -866h-173l107 866h-473l-62 -500l-8 -66t-4.5 -40t-2 -21t-0.5 -9q0 -51 24 -75.5t65 -24.5q26 0 46 7.5t34.5 16.5t24.5 16.5t18 7.5t12.5 -4t9.5 -13l37 -85q-48 -43 -110.5 -67.5t-125.5 -24.5q-97 0 -153 53t-58 154q0 6 0.5 15.5t2 27.5t4.5 47t9 76
l63 509h-110q-15 0 -24 10t-7 29l8 68l154 20l76 315q5 15 15.5 24.5t26.5 9.5h94l-43 -350h644zM905 1449q30 0 44 -10.5t24 -33.5l109 -242h-93q-19 0 -30.5 6.5t-22.5 21.5l-186 258h155z" />
    <glyph glyph-name="t_iacute.liga" unicode="t&#xed;" horiz-adv-x="1146" 
d="M1036 866l-106 -866h-173l107 866h-473l-62 -500l-8 -66t-4.5 -40t-2 -21t-0.5 -9q0 -51 24 -75.5t65 -24.5q26 0 46 7.5t34.5 16.5t24.5 16.5t18 7.5t12.5 -4t9.5 -13l37 -85q-48 -43 -110.5 -67.5t-125.5 -24.5q-97 0 -153 53t-58 154q0 6 0.5 15.5t2 27.5t4.5 47t9 76
l63 509h-110q-15 0 -24 10t-7 29l8 68l154 20l76 315q5 15 15.5 24.5t26.5 9.5h94l-43 -350h644zM1289 1449l-244 -258q-14 -15 -27 -21.5t-32 -6.5h-98l163 242q15 23 31.5 33.5t46.5 10.5h160z" />
    <glyph glyph-name="t_icircumflex.liga" unicode="t&#xee;" horiz-adv-x="1146" 
d="M1036 866l-106 -866h-173l107 866h-473l-62 -500l-8 -66t-4.5 -40t-2 -21t-0.5 -9q0 -51 24 -75.5t65 -24.5q26 0 46 7.5t34.5 16.5t24.5 16.5t18 7.5t12.5 -4t9.5 -13l37 -85q-48 -43 -110.5 -67.5t-125.5 -24.5q-97 0 -153 53t-58 154q0 6 0.5 15.5t2 27.5t4.5 47t9 76
l63 509h-110q-15 0 -24 10t-7 29l8 68l154 20l76 315q5 15 15.5 24.5t26.5 9.5h94l-43 -350h644zM1281 1169h-110q-10 0 -19.5 4t-18.5 15l-99 132q-3 5 -6.5 9.5t-6.5 9.5q-5 -5 -9 -10t-8 -9l-130 -132q-19 -19 -42 -19h-114l235 264h152z" />
    <glyph glyph-name="t_idieresis.liga" unicode="t&#xef;" horiz-adv-x="1146" 
d="M1036 866l-106 -866h-173l107 866h-473l-62 -500l-8 -66t-4.5 -40t-2 -21t-0.5 -9q0 -51 24 -75.5t65 -24.5q26 0 46 7.5t34.5 16.5t24.5 16.5t18 7.5t12.5 -4t9.5 -13l37 -85q-48 -43 -110.5 -67.5t-125.5 -24.5q-97 0 -153 53t-58 154q0 6 0.5 15.5t2 27.5t4.5 47t9 76
l63 509h-110q-15 0 -24 10t-7 29l8 68l154 20l76 315q5 15 15.5 24.5t26.5 9.5h94l-43 -350h644zM993 1289q0 -23 -9 -43t-25 -35t-36.5 -24t-43.5 -9q-22 0 -42 9t-35.5 24t-24.5 35t-9 43t9 44t24.5 36.5t35.5 24.5t42 9q23 0 43.5 -9t36.5 -24.5t25 -36.5t9 -44z
M1285 1289q0 -23 -9 -43t-24.5 -35t-36 -24t-43.5 -9t-43.5 9t-35.5 24t-24 35t-9 43t9 44t24 36.5t35.5 24.5t43.5 9t43.5 -9t36 -24.5t24.5 -36.5t9 -44z" />
    <glyph glyph-name="t_imacron.liga" unicode="t&#x12b;" horiz-adv-x="1146" 
d="M1036 866l-106 -866h-173l107 866h-473l-62 -500l-8 -66t-4.5 -40t-2 -21t-0.5 -9q0 -51 24 -75.5t65 -24.5q26 0 46 7.5t34.5 16.5t24.5 16.5t18 7.5t12.5 -4t9.5 -13l37 -85q-48 -43 -110.5 -67.5t-125.5 -24.5q-97 0 -153 53t-58 154q0 6 0.5 15.5t2 27.5t4.5 47t9 76
l63 509h-110q-15 0 -24 10t-7 29l8 68l154 20l76 315q5 15 15.5 24.5t26.5 9.5h94l-43 -350h644zM747 1348h528l-13 -117h-529z" />
    <glyph glyph-name="t_itilde.liga" unicode="t&#x129;" horiz-adv-x="1146" 
d="M1036 866l-106 -866h-173l107 866h-473l-62 -500l-8 -66t-4.5 -40t-2 -21t-0.5 -9q0 -51 24 -75.5t65 -24.5q26 0 46 7.5t34.5 16.5t24.5 16.5t18 7.5t12.5 -4t9.5 -13l37 -85q-48 -43 -110.5 -67.5t-125.5 -24.5q-97 0 -153 53t-58 154q0 6 0.5 15.5t2 27.5t4.5 47t9 76
l63 509h-110q-15 0 -24 10t-7 29l8 68l154 20l76 315q5 15 15.5 24.5t26.5 9.5h94l-43 -350h644zM1115 1325q67 0 79 86h100q-5 -47 -21 -86.5t-41 -67.5t-56.5 -43.5t-68.5 -15.5q-32 0 -58.5 14.5t-49.5 31.5l-43.5 31.5t-41.5 14.5q-67 0 -78 -88h-102q5 48 21.5 87.5
t41.5 68t57 44t68 15.5q33 0 59 -14.5t49 -31.5l43.5 -31.5t41.5 -14.5z" />
    <glyph glyph-name="t_ibreve.liga" unicode="t&#x12d;" horiz-adv-x="1146" 
d="M1036 866l-106 -866h-173l107 866h-473l-62 -500l-8 -66t-4.5 -40t-2 -21t-0.5 -9q0 -51 24 -75.5t65 -24.5q26 0 46 7.5t34.5 16.5t24.5 16.5t18 7.5t12.5 -4t9.5 -13l37 -85q-48 -43 -110.5 -67.5t-125.5 -24.5q-97 0 -153 53t-58 154q0 6 0.5 15.5t2 27.5t4.5 47t9 76
l63 509h-110q-15 0 -24 10t-7 29l8 68l154 20l76 315q5 15 15.5 24.5t26.5 9.5h94l-43 -350h644zM995 1164q-70 0 -116 21.5t-71.5 58t-33 85.5t-1.5 104h117q-4 -33 -1 -61.5t16.5 -48.5t38.5 -31.5t64 -11.5t66.5 11.5t45.5 31.5t27.5 48.5t13.5 61.5h116
q-6 -55 -24.5 -104t-52 -85.5t-84.5 -58t-121 -21.5z" />
    <glyph glyph-name="t_uni01D0.liga" unicode="t&#x1d0;" horiz-adv-x="1146" 
d="M1036 866l-106 -866h-173l107 866h-473l-62 -500l-8 -66t-4.5 -40t-2 -21t-0.5 -9q0 -51 24 -75.5t65 -24.5q26 0 46 7.5t34.5 16.5t24.5 16.5t18 7.5t12.5 -4t9.5 -13l37 -85q-48 -43 -110.5 -67.5t-125.5 -24.5q-97 0 -153 53t-58 154q0 6 0.5 15.5t2 27.5t4.5 47t9 76
l63 509h-110q-15 0 -24 10t-7 29l8 68l154 20l76 315q5 15 15.5 24.5t26.5 9.5h94l-43 -350h644zM1296 1433l-235 -264h-153l-176 264h114q11 0 20.5 -5t14.5 -10l103 -136q3 -5 6.5 -10t6.5 -10q5 5 9 10t9 10l133 136q7 5 17.5 10t20.5 5h110z" />
    <glyph glyph-name="t_uni1E2D.liga" unicode="t&#x1e2d;" horiz-adv-x="1146" 
d="M1036 866l-106 -866h-173l107 866h-473l-62 -500l-8 -66t-4.5 -40t-2 -21t-0.5 -9q0 -51 24 -75.5t65 -24.5q26 0 46 7.5t34.5 16.5t24.5 16.5t18 7.5t12.5 -4t9.5 -13l37 -85q-48 -43 -110.5 -67.5t-125.5 -24.5q-97 0 -153 53t-58 154q0 6 0.5 15.5t2 27.5t4.5 47t9 76
l63 509h-110q-15 0 -24 10t-7 29l8 68l154 20l76 315q5 15 15.5 24.5t26.5 9.5h94l-43 -350h644zM1127 1331q0 -26 -10.5 -48.5t-28 -40t-40 -27.5t-46.5 -10q-23 0 -45 10t-38.5 27.5t-26.5 40t-10 48.5t10 49t27 40.5t39 28t45 10.5q24 0 46.5 -10t39.5 -27.5t27.5 -41
t10.5 -49.5zM902 -179q67 0 79 86h100q-5 -47 -21 -86.5t-41 -67.5t-56.5 -43.5t-68.5 -15.5q-32 0 -58.5 14.5t-49.5 31.5l-43.5 31.5t-41.5 14.5q-67 0 -78 -88h-102q5 48 21.5 87.5t41.5 68t57 44t68 15.5q33 0 59 -14.5t49 -31.5l43.5 -31.5t41.5 -14.5z" />
    <glyph glyph-name="t_uni1E2F.liga" unicode="t&#x1e2f;" horiz-adv-x="1146" 
d="M1036 866l-106 -866h-173l107 866h-473l-62 -500l-8 -66t-4.5 -40t-2 -21t-0.5 -9q0 -51 24 -75.5t65 -24.5q26 0 46 7.5t34.5 16.5t24.5 16.5t18 7.5t12.5 -4t9.5 -13l37 -85q-48 -43 -110.5 -67.5t-125.5 -24.5q-97 0 -153 53t-58 154q0 6 0.5 15.5t2 27.5t4.5 47t9 76
l63 509h-110q-15 0 -24 10t-7 29l8 68l154 20l76 315q5 15 15.5 24.5t26.5 9.5h94l-43 -350h644zM1345 1763l-244 -258q-14 -15 -27 -21.5t-32 -6.5h-98l163 242q15 23 31.5 33.5t46.5 10.5h160zM943 1289q0 -23 -9 -43t-25 -35t-36.5 -24t-43.5 -9t-43 9t-35.5 24t-24.5 35
t-9 43t9 44t24.5 36.5t35.5 24.5t43 9t43.5 -9t36.5 -24.5t25 -36.5t9 -44zM1304 1289q0 -23 -9 -43t-24.5 -35t-36 -24t-43.5 -9t-43.5 9t-36 24t-24.5 35t-9 43t9 44t24.5 36.5t36 24.5t43.5 9t43.5 -9t36 -24.5t24.5 -36.5t9 -44z" />
    <glyph glyph-name="t_uni0268.liga" unicode="t&#x268;" horiz-adv-x="1182" 
d="M998 1205q-23 0 -45 10t-38.5 27.5t-26.5 40t-10 48.5t10 49t27 40.5t39 28t45 10.5q24 0 46.5 -10t39.5 -27.5t27.5 -41t10.5 -49.5t-10.5 -48.5t-28 -40t-40 -27.5t-46.5 -10zM1127 438h-143l-54 -438h-173l54 438h-135l15 126h136l37 302h-473l-62 -500l-8 -66
t-4.5 -40t-2 -21t-0.5 -9q0 -51 24 -75.5t65 -24.5q26 0 46 7.5t34.5 16.5t24.5 16.5t18 7.5t12.5 -4t9.5 -13l37 -85q-48 -43 -110.5 -67.5t-125.5 -24.5q-97 0 -153 53t-58 154q0 6 0.5 15.5t2 27.5t4.5 47t9 76l63 509h-110q-15 0 -24 10t-7 29l8 68l154 20l76 315
q5 15 15.5 24.5t26.5 9.5h94l-43 -350h644l-15 -126l-37 -302h144z" />
    <glyph glyph-name="t_uni020B.liga" unicode="t&#x20b;" horiz-adv-x="1146" 
d="M1036 866l-106 -866h-173l107 866h-473l-62 -500l-8 -66t-4.5 -40t-2 -21t-0.5 -9q0 -51 24 -75.5t65 -24.5q26 0 46 7.5t34.5 16.5t24.5 16.5t18 7.5t12.5 -4t9.5 -13l37 -85q-48 -43 -110.5 -67.5t-125.5 -24.5q-97 0 -153 53t-58 154q0 6 0.5 15.5t2 27.5t4.5 47t9 76
l63 509h-110q-15 0 -24 10t-7 29l8 68l154 20l76 315q5 15 15.5 24.5t26.5 9.5h94l-43 -350h644zM1016 1448q70 0 116 -21.5t71.5 -58.5t33 -85.5t1.5 -103.5h-116q4 33 0.5 61.5t-17 48.5t-38.5 31.5t-64 11.5t-66.5 -11.5t-45.5 -31.5t-27.5 -48.5t-13.5 -61.5h-116
q6 55 24.5 103.5t52.5 85.5t84.5 58.5t120.5 21.5z" />
    <glyph glyph-name="t_uni0209.liga" unicode="t&#x209;" horiz-adv-x="1146" 
d="M1036 866l-106 -866h-173l107 866h-473l-62 -500l-8 -66t-4.5 -40t-2 -21t-0.5 -9q0 -51 24 -75.5t65 -24.5q26 0 46 7.5t34.5 16.5t24.5 16.5t18 7.5t12.5 -4t9.5 -13l37 -85q-48 -43 -110.5 -67.5t-125.5 -24.5q-97 0 -153 53t-58 154q0 6 0.5 15.5t2 27.5t4.5 47t9 76
l63 509h-110q-15 0 -24 10t-7 29l8 68l154 20l76 315q5 15 15.5 24.5t26.5 9.5h94l-43 -350h644zM1018 1449q30 0 44.5 -10.5t23.5 -33.5l100 -242h-69q-19 0 -31.5 6t-21.5 22l-154 258h108zM741 1449q31 0 44 -11t24 -33l138 -242h-78q-20 0 -31.5 6.5t-22.5 21.5
l-194 258h120z" />
    <glyph glyph-name="t_t_i.liga" unicode="tti" horiz-adv-x="1727" 
d="M1510 0h-172l107 866h-455l-61 -500l-8 -66t-4.5 -40t-2 -21t-0.5 -9q0 -51 23.5 -75.5t64.5 -24.5q26 0 46 7.5t34.5 16.5t24.5 16.5t18 7.5q15 0 22 -17l37 -85q-48 -43 -110.5 -67.5t-125.5 -24.5q-97 0 -153 53t-58 154q0 6 0.5 15.5t2 27.5t4.5 47t9 76l63 509h-425
l-62 -500l-8 -66t-4.5 -40t-2 -21t-0.5 -9q0 -51 24 -75.5t65 -24.5q26 0 46 7.5t34.5 16.5t24.5 16.5t18 7.5t12.5 -4t9.5 -13l37 -85q-48 -43 -110.5 -67.5t-125.5 -24.5q-97 0 -153 53t-58 154q0 6 0.5 15.5t2 27.5t4.5 47t9 76l63 509h-110q-15 0 -24 10t-7 29l8 68
l154 20l76 315q5 15 15.5 24.5t26.5 9.5h94l-43 -350h430l76 316q5 15 15.5 24.5t26.5 9.5h94l-43 -350h626zM1710 1331q0 -26 -10.5 -48.5t-28 -40t-40 -27.5t-46.5 -10q-23 0 -45 10t-38.5 27.5t-26.5 40t-10 48.5t10 49t27 40.5t39 28t45 10.5q24 0 46.5 -10t39.5 -27.5
t27.5 -41t10.5 -49.5z" />
    <glyph glyph-name="t_t_igrave.liga" unicode="tt&#xec;" horiz-adv-x="1726" 
d="M1510 0h-172l107 866h-455l-61 -500l-8 -66t-4.5 -40t-2 -21t-0.5 -9q0 -51 23.5 -75.5t64.5 -24.5q26 0 46 7.5t34.5 16.5t24.5 16.5t18 7.5q15 0 22 -17l37 -85q-48 -43 -110.5 -67.5t-125.5 -24.5q-97 0 -153 53t-58 154q0 6 0.5 15.5t2 27.5t4.5 47t9 76l63 509h-425
l-62 -500l-8 -66t-4.5 -40t-2 -21t-0.5 -9q0 -51 24 -75.5t65 -24.5q26 0 46 7.5t34.5 16.5t24.5 16.5t18 7.5t12.5 -4t9.5 -13l37 -85q-48 -43 -110.5 -67.5t-125.5 -24.5q-97 0 -153 53t-58 154q0 6 0.5 15.5t2 27.5t4.5 47t9 76l63 509h-110q-15 0 -24 10t-7 29l8 68
l154 20l76 315q5 15 15.5 24.5t26.5 9.5h94l-43 -350h430l76 316q5 15 15.5 24.5t26.5 9.5h94l-43 -350h626zM1482 1449q30 0 44 -10.5t24 -33.5l109 -242h-93q-19 0 -30.5 6.5t-22.5 21.5l-186 258h155z" />
    <glyph glyph-name="t_t_iacute.liga" unicode="tt&#xed;" horiz-adv-x="1726" 
d="M1510 0h-172l107 866h-455l-61 -500l-8 -66t-4.5 -40t-2 -21t-0.5 -9q0 -51 23.5 -75.5t64.5 -24.5q26 0 46 7.5t34.5 16.5t24.5 16.5t18 7.5q15 0 22 -17l37 -85q-48 -43 -110.5 -67.5t-125.5 -24.5q-97 0 -153 53t-58 154q0 6 0.5 15.5t2 27.5t4.5 47t9 76l63 509h-425
l-62 -500l-8 -66t-4.5 -40t-2 -21t-0.5 -9q0 -51 24 -75.5t65 -24.5q26 0 46 7.5t34.5 16.5t24.5 16.5t18 7.5t12.5 -4t9.5 -13l37 -85q-48 -43 -110.5 -67.5t-125.5 -24.5q-97 0 -153 53t-58 154q0 6 0.5 15.5t2 27.5t4.5 47t9 76l63 509h-110q-15 0 -24 10t-7 29l8 68
l154 20l76 315q5 15 15.5 24.5t26.5 9.5h94l-43 -350h430l76 316q5 15 15.5 24.5t26.5 9.5h94l-43 -350h626zM1875 1449l-244 -258q-14 -15 -27 -21.5t-32 -6.5h-98l163 242q15 23 31.5 33.5t46.5 10.5h160z" />
    <glyph glyph-name="t_t_icircumflex.liga" unicode="tt&#xee;" horiz-adv-x="1726" 
d="M1510 0h-172l107 866h-455l-61 -500l-8 -66t-4.5 -40t-2 -21t-0.5 -9q0 -51 23.5 -75.5t64.5 -24.5q26 0 46 7.5t34.5 16.5t24.5 16.5t18 7.5q15 0 22 -17l37 -85q-48 -43 -110.5 -67.5t-125.5 -24.5q-97 0 -153 53t-58 154q0 6 0.5 15.5t2 27.5t4.5 47t9 76l63 509h-425
l-62 -500l-8 -66t-4.5 -40t-2 -21t-0.5 -9q0 -51 24 -75.5t65 -24.5q26 0 46 7.5t34.5 16.5t24.5 16.5t18 7.5t12.5 -4t9.5 -13l37 -85q-48 -43 -110.5 -67.5t-125.5 -24.5q-97 0 -153 53t-58 154q0 6 0.5 15.5t2 27.5t4.5 47t9 76l63 509h-110q-15 0 -24 10t-7 29l8 68
l154 20l76 315q5 15 15.5 24.5t26.5 9.5h94l-43 -350h430l76 316q5 15 15.5 24.5t26.5 9.5h94l-43 -350h626zM1848 1169h-110q-10 0 -19.5 4t-18.5 15l-99 132q-3 5 -6.5 9.5t-6.5 9.5q-5 -5 -9 -10t-8 -9l-130 -132q-19 -19 -42 -19h-114l235 264h152z" />
    <glyph glyph-name="t_t_idieresis.liga" unicode="tt&#xef;" horiz-adv-x="1726" 
d="M1510 0h-172l107 866h-455l-61 -500l-8 -66t-4.5 -40t-2 -21t-0.5 -9q0 -51 23.5 -75.5t64.5 -24.5q26 0 46 7.5t34.5 16.5t24.5 16.5t18 7.5q15 0 22 -17l37 -85q-48 -43 -110.5 -67.5t-125.5 -24.5q-97 0 -153 53t-58 154q0 6 0.5 15.5t2 27.5t4.5 47t9 76l63 509h-425
l-62 -500l-8 -66t-4.5 -40t-2 -21t-0.5 -9q0 -51 24 -75.5t65 -24.5q26 0 46 7.5t34.5 16.5t24.5 16.5t18 7.5t12.5 -4t9.5 -13l37 -85q-48 -43 -110.5 -67.5t-125.5 -24.5q-97 0 -153 53t-58 154q0 6 0.5 15.5t2 27.5t4.5 47t9 76l63 509h-110q-15 0 -24 10t-7 29l8 68
l154 20l76 315q5 15 15.5 24.5t26.5 9.5h94l-43 -350h430l76 316q5 15 15.5 24.5t26.5 9.5h94l-43 -350h626zM1565 1289q0 -23 -9 -43t-25 -35t-36.5 -24t-43.5 -9q-22 0 -42 9t-35.5 24t-24.5 35t-9 43t9 44t24.5 36.5t35.5 24.5t42 9q23 0 43.5 -9t36.5 -24.5t25 -36.5
t9 -44zM1857 1289q0 -23 -9 -43t-24.5 -35t-36 -24t-43.5 -9t-43.5 9t-35.5 24t-24 35t-9 43t9 44t24 36.5t35.5 24.5t43.5 9t43.5 -9t36 -24.5t24.5 -36.5t9 -44z" />
    <glyph glyph-name="t_t_imacron.liga" unicode="tt&#x12b;" horiz-adv-x="1726" 
d="M1510 0h-172l107 866h-455l-61 -500l-8 -66t-4.5 -40t-2 -21t-0.5 -9q0 -51 23.5 -75.5t64.5 -24.5q26 0 46 7.5t34.5 16.5t24.5 16.5t18 7.5q15 0 22 -17l37 -85q-48 -43 -110.5 -67.5t-125.5 -24.5q-97 0 -153 53t-58 154q0 6 0.5 15.5t2 27.5t4.5 47t9 76l63 509h-425
l-62 -500l-8 -66t-4.5 -40t-2 -21t-0.5 -9q0 -51 24 -75.5t65 -24.5q26 0 46 7.5t34.5 16.5t24.5 16.5t18 7.5t12.5 -4t9.5 -13l37 -85q-48 -43 -110.5 -67.5t-125.5 -24.5q-97 0 -153 53t-58 154q0 6 0.5 15.5t2 27.5t4.5 47t9 76l63 509h-110q-15 0 -24 10t-7 29l8 68
l154 20l76 315q5 15 15.5 24.5t26.5 9.5h94l-43 -350h430l76 316q5 15 15.5 24.5t26.5 9.5h94l-43 -350h626zM1328 1348h528l-13 -117h-529z" />
    <glyph glyph-name="t_t_itilde.liga" unicode="tt&#x129;" horiz-adv-x="1726" 
d="M1510 0h-172l107 866h-455l-61 -500l-8 -66t-4.5 -40t-2 -21t-0.5 -9q0 -51 23.5 -75.5t64.5 -24.5q26 0 46 7.5t34.5 16.5t24.5 16.5t18 7.5q15 0 22 -17l37 -85q-48 -43 -110.5 -67.5t-125.5 -24.5q-97 0 -153 53t-58 154q0 6 0.5 15.5t2 27.5t4.5 47t9 76l63 509h-425
l-62 -500l-8 -66t-4.5 -40t-2 -21t-0.5 -9q0 -51 24 -75.5t65 -24.5q26 0 46 7.5t34.5 16.5t24.5 16.5t18 7.5t12.5 -4t9.5 -13l37 -85q-48 -43 -110.5 -67.5t-125.5 -24.5q-97 0 -153 53t-58 154q0 6 0.5 15.5t2 27.5t4.5 47t9 76l63 509h-110q-15 0 -24 10t-7 29l8 68
l154 20l76 315q5 15 15.5 24.5t26.5 9.5h94l-43 -350h430l76 316q5 15 15.5 24.5t26.5 9.5h94l-43 -350h626zM1686 1325q67 0 79 86h100q-5 -47 -21 -86.5t-41 -67.5t-56.5 -43.5t-68.5 -15.5q-32 0 -58.5 14.5t-49.5 31.5l-43.5 31.5t-41.5 14.5q-67 0 -78 -88h-102
q5 48 21.5 87.5t41.5 68t57 44t68 15.5q33 0 59 -14.5t49 -31.5l43.5 -31.5t41.5 -14.5z" />
    <glyph glyph-name="t_t_ibreve.liga" unicode="tt&#x12d;" horiz-adv-x="1727" 
d="M1510 0h-172l107 866h-455l-61 -500l-8 -66t-4.5 -40t-2 -21t-0.5 -9q0 -51 23.5 -75.5t64.5 -24.5q26 0 46 7.5t34.5 16.5t24.5 16.5t18 7.5q15 0 22 -17l37 -85q-48 -43 -110.5 -67.5t-125.5 -24.5q-97 0 -153 53t-58 154q0 6 0.5 15.5t2 27.5t4.5 47t9 76l63 509h-425
l-62 -500l-8 -66t-4.5 -40t-2 -21t-0.5 -9q0 -51 24 -75.5t65 -24.5q26 0 46 7.5t34.5 16.5t24.5 16.5t18 7.5t12.5 -4t9.5 -13l37 -85q-48 -43 -110.5 -67.5t-125.5 -24.5q-97 0 -153 53t-58 154q0 6 0.5 15.5t2 27.5t4.5 47t9 76l63 509h-110q-15 0 -24 10t-7 29l8 68
l154 20l76 315q5 15 15.5 24.5t26.5 9.5h94l-43 -350h430l76 316q5 15 15.5 24.5t26.5 9.5h94l-43 -350h626zM1582 1164q-70 0 -116 21.5t-71.5 58t-33 85.5t-1.5 104h117q-4 -33 -1 -61.5t16.5 -48.5t38.5 -31.5t64 -11.5t66.5 11.5t45.5 31.5t27.5 48.5t13.5 61.5h116
q-6 -55 -24.5 -104t-52 -85.5t-84.5 -58t-121 -21.5z" />
    <glyph glyph-name="t_t_uni01D0.liga" unicode="tt&#x1d0;" horiz-adv-x="1726" 
d="M1510 0h-172l107 866h-455l-61 -500l-8 -66t-4.5 -40t-2 -21t-0.5 -9q0 -51 23.5 -75.5t64.5 -24.5q26 0 46 7.5t34.5 16.5t24.5 16.5t18 7.5q15 0 22 -17l37 -85q-48 -43 -110.5 -67.5t-125.5 -24.5q-97 0 -153 53t-58 154q0 6 0.5 15.5t2 27.5t4.5 47t9 76l63 509h-425
l-62 -500l-8 -66t-4.5 -40t-2 -21t-0.5 -9q0 -51 24 -75.5t65 -24.5q26 0 46 7.5t34.5 16.5t24.5 16.5t18 7.5t12.5 -4t9.5 -13l37 -85q-48 -43 -110.5 -67.5t-125.5 -24.5q-97 0 -153 53t-58 154q0 6 0.5 15.5t2 27.5t4.5 47t9 76l63 509h-110q-15 0 -24 10t-7 29l8 68
l154 20l76 315q5 15 15.5 24.5t26.5 9.5h94l-43 -350h430l76 316q5 15 15.5 24.5t26.5 9.5h94l-43 -350h626zM1883 1433l-235 -264h-153l-176 264h114q11 0 20.5 -5t14.5 -10l103 -136q3 -5 6.5 -10t6.5 -10q5 5 9 10t9 10l133 136q7 5 17.5 10t20.5 5h110z" />
    <glyph glyph-name="t_t_uni1E2D.liga" unicode="tt&#x1e2d;" horiz-adv-x="1727" 
d="M1510 0h-172l107 866h-455l-61 -500l-8 -66t-4.5 -40t-2 -21t-0.5 -9q0 -51 23.5 -75.5t64.5 -24.5q26 0 46 7.5t34.5 16.5t24.5 16.5t18 7.5q15 0 22 -17l37 -85q-48 -43 -110.5 -67.5t-125.5 -24.5q-97 0 -153 53t-58 154q0 6 0.5 15.5t2 27.5t4.5 47t9 76l63 509h-425
l-62 -500l-8 -66t-4.5 -40t-2 -21t-0.5 -9q0 -51 24 -75.5t65 -24.5q26 0 46 7.5t34.5 16.5t24.5 16.5t18 7.5t12.5 -4t9.5 -13l37 -85q-48 -43 -110.5 -67.5t-125.5 -24.5q-97 0 -153 53t-58 154q0 6 0.5 15.5t2 27.5t4.5 47t9 76l63 509h-110q-15 0 -24 10t-7 29l8 68
l154 20l76 315q5 15 15.5 24.5t26.5 9.5h94l-43 -350h430l76 316q5 15 15.5 24.5t26.5 9.5h94l-43 -350h626zM1480 -179q67 0 79 86h100q-5 -47 -21 -86.5t-41 -67.5t-56.5 -43.5t-68.5 -15.5q-32 0 -58.5 14.5t-49.5 31.5l-43.5 31.5t-41.5 14.5q-67 0 -78 -88h-102
q5 48 21.5 87.5t41.5 68t57 44t68 15.5q33 0 59 -14.5t49 -31.5l43.5 -31.5t41.5 -14.5zM1700 1331q0 -26 -10.5 -48.5t-28 -40t-40 -27.5t-46.5 -10q-23 0 -45 10t-38.5 27.5t-26.5 40t-10 48.5t10 49t27 40.5t39 28t45 10.5q24 0 46.5 -10t39.5 -27.5t27.5 -41t10.5 -49.5
z" />
    <glyph glyph-name="t_t_uni1E2F.liga" unicode="tt&#x1e2f;" horiz-adv-x="1726" 
d="M1510 0h-172l107 866h-455l-61 -500l-8 -66t-4.5 -40t-2 -21t-0.5 -9q0 -51 23.5 -75.5t64.5 -24.5q26 0 46 7.5t34.5 16.5t24.5 16.5t18 7.5q15 0 22 -17l37 -85q-48 -43 -110.5 -67.5t-125.5 -24.5q-97 0 -153 53t-58 154q0 6 0.5 15.5t2 27.5t4.5 47t9 76l63 509h-425
l-62 -500l-8 -66t-4.5 -40t-2 -21t-0.5 -9q0 -51 24 -75.5t65 -24.5q26 0 46 7.5t34.5 16.5t24.5 16.5t18 7.5t12.5 -4t9.5 -13l37 -85q-48 -43 -110.5 -67.5t-125.5 -24.5q-97 0 -153 53t-58 154q0 6 0.5 15.5t2 27.5t4.5 47t9 76l63 509h-110q-15 0 -24 10t-7 29l8 68
l154 20l76 315q5 15 15.5 24.5t26.5 9.5h94l-43 -350h430l76 316q5 15 15.5 24.5t26.5 9.5h94l-43 -350h626zM1927 1763l-244 -258q-14 -15 -27 -21.5t-32 -6.5h-98l163 242q15 23 31.5 33.5t46.5 10.5h160zM1526 1289q0 -23 -9 -43t-25 -35t-36.5 -24t-43.5 -9t-43 9
t-35.5 24t-24.5 35t-9 43t9 44t24.5 36.5t35.5 24.5t43 9t43.5 -9t36.5 -24.5t25 -36.5t9 -44zM1887 1289q0 -23 -9 -43t-24.5 -35t-36 -24t-43.5 -9t-43.5 9t-36 24t-24.5 35t-9 43t9 44t24.5 36.5t36 24.5t43.5 9t43.5 -9t36 -24.5t24.5 -36.5t9 -44z" />
    <glyph glyph-name="t_t_uni0268.liga" unicode="tt&#x268;" horiz-adv-x="1767" 
d="M1579 1205q-23 0 -45 10t-38.5 27.5t-26.5 40t-10 48.5t10 49t27 40.5t39 28t45 10.5q24 0 46.5 -10t39.5 -27.5t27.5 -41t10.5 -49.5t-10.5 -48.5t-28 -40t-40 -27.5t-46.5 -10zM1710 438h-146l-54 -438h-172l54 438h-133l15 126h134l37 302h-455l-61 -500l-8 -66
t-4.5 -40t-2 -21t-0.5 -9q0 -51 23.5 -75.5t64.5 -24.5q26 0 46 7.5t34.5 16.5t24.5 16.5t18 7.5q15 0 22 -17l37 -85q-48 -43 -110.5 -67.5t-125.5 -24.5q-97 0 -153 53t-58 154q0 6 0.5 15.5t2 27.5t4.5 47t9 76l63 509h-425l-62 -500l-8 -66t-4.5 -40t-2 -21t-0.5 -9
q0 -51 24 -75.5t65 -24.5q26 0 46 7.5t34.5 16.5t24.5 16.5t18 7.5t12.5 -4t9.5 -13l37 -85q-48 -43 -110.5 -67.5t-125.5 -24.5q-97 0 -153 53t-58 154q0 6 0.5 15.5t2 27.5t4.5 47t9 76l63 509h-110q-15 0 -24 10t-7 29l8 68l154 20l76 315q5 15 15.5 24.5t26.5 9.5h94
l-43 -350h430l76 316q5 15 15.5 24.5t26.5 9.5h94l-43 -350h626l-53 -428h147z" />
    <glyph glyph-name="t_t_uni020B.liga" unicode="tt&#x20b;" horiz-adv-x="1726" 
d="M1510 0h-172l107 866h-455l-61 -500l-8 -66t-4.5 -40t-2 -21t-0.5 -9q0 -51 23.5 -75.5t64.5 -24.5q26 0 46 7.5t34.5 16.5t24.5 16.5t18 7.5q15 0 22 -17l37 -85q-48 -43 -110.5 -67.5t-125.5 -24.5q-97 0 -153 53t-58 154q0 6 0.5 15.5t2 27.5t4.5 47t9 76l63 509h-425
l-62 -500l-8 -66t-4.5 -40t-2 -21t-0.5 -9q0 -51 24 -75.5t65 -24.5q26 0 46 7.5t34.5 16.5t24.5 16.5t18 7.5t12.5 -4t9.5 -13l37 -85q-48 -43 -110.5 -67.5t-125.5 -24.5q-97 0 -153 53t-58 154q0 6 0.5 15.5t2 27.5t4.5 47t9 76l63 509h-110q-15 0 -24 10t-7 29l8 68
l154 20l76 315q5 15 15.5 24.5t26.5 9.5h94l-43 -350h430l76 316q5 15 15.5 24.5t26.5 9.5h94l-43 -350h626zM1603 1448q70 0 116 -21.5t71.5 -58.5t33 -85.5t1.5 -103.5h-116q4 33 0.5 61.5t-17 48.5t-38.5 31.5t-64 11.5t-66.5 -11.5t-45.5 -31.5t-27.5 -48.5t-13.5 -61.5
h-116q6 55 24.5 103.5t52.5 85.5t84.5 58.5t120.5 21.5z" />
    <glyph glyph-name="t_t_uni0209.liga" unicode="tt&#x209;" horiz-adv-x="1727" 
d="M1510 0h-172l107 866h-455l-61 -500l-8 -66t-4.5 -40t-2 -21t-0.5 -9q0 -51 23.5 -75.5t64.5 -24.5q26 0 46 7.5t34.5 16.5t24.5 16.5t18 7.5q15 0 22 -17l37 -85q-48 -43 -110.5 -67.5t-125.5 -24.5q-97 0 -153 53t-58 154q0 6 0.5 15.5t2 27.5t4.5 47t9 76l63 509h-425
l-62 -500l-8 -66t-4.5 -40t-2 -21t-0.5 -9q0 -51 24 -75.5t65 -24.5q26 0 46 7.5t34.5 16.5t24.5 16.5t18 7.5t12.5 -4t9.5 -13l37 -85q-48 -43 -110.5 -67.5t-125.5 -24.5q-97 0 -153 53t-58 154q0 6 0.5 15.5t2 27.5t4.5 47t9 76l63 509h-110q-15 0 -24 10t-7 29l8 68
l154 20l76 315q5 15 15.5 24.5t26.5 9.5h94l-43 -350h430l76 316q5 15 15.5 24.5t26.5 9.5h94l-43 -350h626zM1594 1449q30 0 44.5 -10.5t23.5 -33.5l100 -242h-69q-19 0 -31.5 6t-21.5 22l-154 258h108zM1317 1449q31 0 44 -11t24 -33l138 -242h-78q-20 0 -31.5 6.5
t-22.5 21.5l-194 258h120z" />
    <glyph glyph-name=".notdef" horiz-adv-x="1063" 
d="M250 1141q25 22 53.5 41t62.5 33.5t73.5 23t85.5 8.5q63 0 114.5 -17.5t88 -49.5t57 -77.5t20.5 -101.5q0 -55 -15 -95t-37.5 -69.5t-49.5 -51l-51 -40.5t-41.5 -37.5t-21.5 -41.5l-17 -105h-122l-12 117q-4 34 9 59.5t35.5 47t50 41.5t51.5 43t40 52t16 69
q0 51 -36.5 81t-93.5 30q-41 0 -69 -9t-48 -20t-34 -20t-25 -9q-25 0 -37 22zM396 292q0 47 31 79t79 32q22 0 42 -8.5t34.5 -23.5t23 -35.5t8.5 -43.5t-8.5 -43t-23 -35t-34.5 -23.5t-42 -8.5q-48 0 -79 31.5t-31 78.5zM45 1433h974v-1433h-974v1433zM95 54h867v1324h-867
v-1324z" />
    <glyph glyph-name="glyph1" horiz-adv-x="0" 
 />
    <glyph glyph-name="glyph1" horiz-adv-x="0" 
 />
    <glyph glyph-name="space" unicode=" " horiz-adv-x="468" 
 />
    <glyph glyph-name="space" unicode="&#xa0;" horiz-adv-x="468" 
 />
    <glyph glyph-name="A" unicode="A" horiz-adv-x="1262" 
d="M867 531l-131 593l-12 62.5t-12 76.5q-15 -42 -30 -77l-27 -63l-277 -592h489zM1178 0h-144q-25 0 -39 12.5t-20 32.5l-78 350h-583l-164 -350q-9 -18 -27.5 -31.5t-41.5 -13.5h-146l702 1433h190z" />
    <glyph glyph-name="Aogonek" unicode="&#x104;" horiz-adv-x="1262" 
d="M867 531l-131 593l-12 62.5t-12 76.5q-15 -42 -30 -77l-27 -63l-277 -592h489zM1224 -290q-32 -23 -76.5 -37.5t-92.5 -14.5q-78 0 -119.5 35t-41.5 93q0 63 42.5 117.5t111.5 96.5h-14q-25 0 -39 12.5t-20 32.5l-78 350h-583l-164 -350q-9 -18 -27.5 -31.5t-41.5 -13.5
h-146l702 1433h190l351 -1433h-18q-21 -12 -43.5 -28.5t-40.5 -37.5t-30 -46t-12 -53q0 -32 19 -51t51 -19q20 0 34 3.5t23.5 8t15.5 8.5t11 4q12 0 16 -13z" />
    <glyph glyph-name="AE" unicode="&#xc6;" horiz-adv-x="1735" 
d="M862 531v749q-14 -36 -29 -68t-32 -61l-363 -620h424zM1038 1280v-484h512l-18 -147h-494v-497h554l-20 -152h-710v395h-504l-205 -350q-11 -18 -30.5 -31.5t-43.5 -13.5h-145l860 1433h954l-18 -153h-692z" />
    <glyph glyph-name="B" unicode="B" horiz-adv-x="1204" 
d="M584 148q80 0 140 21t99.5 60t59.5 94t20 124q0 95 -63.5 151.5t-193.5 56.5h-281l-62 -507h281zM443 1286l-61 -499h231q81 0 141.5 21.5t101 60t60.5 92.5t20 119q0 103 -62 154.5t-192 51.5h-239zM699 1433q111 0 191.5 -22.5t132.5 -64t77 -101t25 -132.5
q0 -63 -18.5 -121.5t-55 -107.5t-92 -87t-129.5 -61q129 -29 193.5 -101t64.5 -185q0 -99 -35.5 -181.5t-102.5 -142.5t-163.5 -93t-217.5 -33h-471l176 1433h425z" />
    <glyph glyph-name="C" unicode="C" horiz-adv-x="1249" 
d="M677 145q66 0 117 11t90 27t66.5 35.5t48 35.5l34.5 27t25 11q9 0 15 -3.5t10 -8.5l65 -81q-94 -102 -216.5 -158.5t-285.5 -56.5q-129 0 -230.5 46t-172 128.5t-108 196.5t-37.5 251q0 187 58 342t159.5 266.5t238.5 173t295 61.5q76 0 138 -13t113 -38t92.5 -60
t77.5 -78l-64 -78q-8 -10 -18 -16.5t-25 -6.5q-18 0 -38 20t-54.5 43.5t-89 43.5t-141.5 20q-117 0 -217.5 -46.5t-174.5 -133t-116.5 -209.5t-42.5 -276q0 -111 29 -199t80.5 -149.5t122.5 -94.5t156 -33z" />
    <glyph glyph-name="Ccedilla" unicode="&#xc7;" horiz-adv-x="1249" 
d="M595 -14q-117 9 -209.5 58.5t-156 131t-97.5 191t-34 239.5q0 187 58 342t159.5 266.5t238.5 173t295 61.5q76 0 138 -13t113 -38t92.5 -60t77.5 -78l-64 -78q-8 -10 -18 -16.5t-25 -6.5q-18 0 -38 20t-54.5 43.5t-89 43.5t-141.5 20q-117 0 -217.5 -46.5t-174.5 -133
t-116.5 -209.5t-42.5 -276q0 -111 29 -199t80.5 -149.5t122.5 -94.5t156 -33q66 0 117 11t90 27t66.5 35.5t48 35.5l34.5 27t25 11q9 0 15 -3.5t10 -8.5l65 -81q-86 -94 -196.5 -149.5t-254.5 -63.5l-24 -62q76 -17 110.5 -48.5t34.5 -77.5q0 -36 -16.5 -65t-46.5 -49
t-71 -30.5t-89 -10.5q-38 0 -71 8.5t-60 22.5l24 55q7 18 25 18q6 0 12.5 -3.5l15.5 -8t22 -8t32 -3.5q40 0 61 19t21 48q0 34 -35.5 48.5t-100.5 23.5z" />
    <glyph glyph-name="D" unicode="D" horiz-adv-x="1415" 
d="M1342 817q0 -183 -56.5 -333.5t-156.5 -258t-237.5 -166.5t-299.5 -59h-494l176 1433h495q132 0 238 -45t180.5 -126.5t114.5 -195t40 -249.5zM1149 813q0 108 -27 195t-78.5 147.5t-125.5 93t-167 32.5h-307l-140 -1130h307q119 0 218 45.5t170 131t110.5 208
t39.5 277.5z" />
    <glyph glyph-name="Eth" unicode="&#xd0;" horiz-adv-x="1426" 
d="M624 151q120 0 218.5 45.5t169.5 131t110 208t39 277.5q0 108 -27.5 195t-78.5 147.5t-125 93t-167 32.5h-307l-62 -504h348l-13 -110h-348l-63 -516h306zM781 1433q132 0 238 -45t180.5 -126.5t114 -195t39.5 -249.5q0 -183 -56.5 -333.5t-156 -258t-236.5 -166.5
t-298 -59h-495l82 667h-179l13 110h179l81 656h494z" />
    <glyph glyph-name="E" unicode="E" horiz-adv-x="1076" 
d="M443 1280l-59 -483h507l-19 -147h-506l-61 -498h629l-19 -152h-817l176 1433h816l-19 -153h-628z" />
    <glyph glyph-name="Eogonek" unicode="&#x118;" horiz-adv-x="1076" 
d="M443 1280l-59 -483h507l-19 -147h-506l-61 -498h629l-19 -152h-67q-21 -12 -43.5 -28.5t-40.5 -37.5t-30 -46t-12 -53q0 -32 19 -51t51 -19q20 0 34 3.5t23.5 8t15.5 8.5t11 4q12 0 16 -13l20 -66q-32 -23 -76.5 -37.5t-92.5 -14.5q-78 0 -119.5 35t-41.5 93
q0 63 42.5 117.5t111.5 96.5h-638l176 1433h816l-19 -153h-628z" />
    <glyph glyph-name="F" unicode="F" horiz-adv-x="1060" 
d="M443 1280l-62 -510h536l-20 -152h-535l-76 -618h-188l176 1433h816l-19 -153h-628z" />
    <glyph glyph-name="G" unicode="G" horiz-adv-x="1361" 
d="M848 686h411l-68 -547q-54 -39 -111.5 -68t-121 -48.5t-134.5 -29t-153 -9.5q-130 0 -236 46.5t-181 130t-115.5 199.5t-40.5 254q0 185 57.5 338.5t159 264t241 171.5t304.5 61q84 0 151.5 -14t123 -39t100 -59t81.5 -74l-60 -78q-15 -21 -35.5 -26t-42.5 9
q-22 13 -48.5 33.5t-64.5 39t-91 32t-128 13.5q-123 0 -225.5 -47t-176 -134t-114 -210t-40.5 -274q0 -113 29.5 -203t83.5 -153t130 -96.5t169 -33.5q52 0 97 6t85 16.5t76 26t72 35.5l40 324h-200q-18 0 -28 10.5t-8 25.5z" />
    <glyph glyph-name="H" unicode="H" horiz-adv-x="1420" 
d="M1350 1433l-177 -1433h-188l80 654h-699l-80 -654h-188l176 1433h188l-79 -643h699l79 643h189z" />
    <glyph glyph-name="Hbar" unicode="&#x126;" horiz-adv-x="1440" 
d="M1126 1038h-699l-30 -248h699zM1467 1038h-152l-128 -1038h-188l80 654h-699l-80 -654h-188l127 1038h-144l13 112h145l35 283h188l-35 -283h699l35 283h189l-35 -283h151z" />
    <glyph glyph-name="I" unicode="I" horiz-adv-x="533" 
d="M286 0h-188l175 1433h188z" />
    <glyph glyph-name="Iogonek" unicode="&#x12e;" horiz-adv-x="533" 
d="M257 0q-21 -12 -43.5 -28.5t-40.5 -37.5t-30 -46t-12 -53q0 -32 19 -51t51 -19q20 0 34 3.5t23.5 8t15.5 8.5t11 4q12 0 16 -13l20 -66q-32 -23 -76.5 -37.5t-92.5 -14.5q-78 0 -119.5 35t-41.5 93q0 63 42.5 117.5t111.5 96.5h-47l175 1433h188l-175 -1433h-29z" />
    <glyph glyph-name="J" unicode="J" horiz-adv-x="801" 
d="M625 475q-15 -119 -52.5 -210.5t-97 -154t-139 -94.5t-178.5 -32q-54 0 -100.5 7t-93.5 21l13 109q3 15 12 26t29 11q11 0 23.5 -2.5l29 -6t38 -6t50.5 -2.5q52 0 98 17t82.5 56t62 102t36.5 155l118 962h187z" />
    <glyph glyph-name="K" unicode="K" horiz-adv-x="1236" 
d="M382 802h66q35 0 57.5 9.5t43.5 32.5l496 544q21 27 44 36t53 9h159l-572 -620q-40 -46 -78 -63q24 -10 42.5 -26.5t33.5 -44.5l432 -679h-161q-37 0 -52 10.5t-26 29.5l-376 572q-15 25 -35 35.5t-63 10.5h-81l-81 -658h-186l175 1433h187z" />
    <glyph glyph-name="L" unicode="L" horiz-adv-x="951" 
d="M870 158l-19 -158h-753l176 1433h187l-157 -1275h566z" />
    <glyph glyph-name="Lslash" unicode="&#x141;" horiz-adv-x="983" 
d="M901 158l-19 -158h-753l68 556l-189 -95l16 128q2 27 28 39l165 86l88 719h187l-77 -628l367 192l-15 -125q-5 -31 -30 -42l-342 -182l-60 -490h566z" />
    <glyph glyph-name="Lcaron" unicode="&#x13d;" horiz-adv-x="951" 
d="M853 1473q17 0 22.5 -7.5t5.5 -17.5t-3.5 -25t-15 -43.5t-33 -75.5l-57.5 -120q-12 -22 -27.5 -28.5t-38.5 -6.5h-60l93 324h114zM870 158l-19 -158h-753l176 1433h187l-157 -1275h566z" />
    <glyph glyph-name="M" unicode="M" horiz-adv-x="1725" 
d="M1655 1433l-177 -1433h-163l130 1059q3 20 7.5 44t10.5 50l-559 -901q-26 -43 -72 -43h-27q-22 0 -38.5 11t-23.5 32l-346 901l-2 -47.5t-3 -43.5l-129 -1062h-165l176 1433h138q25 0 36 -6.5t25 -25.5l347 -901q7 -20 12 -40l10 -41l20 41t22 40l564 901q17 20 30 26
t38 6h139z" />
    <glyph glyph-name="N" unicode="N" horiz-adv-x="1420" 
d="M1350 1433l-177 -1433h-93q-23 0 -37 8.5t-27 26.5l-618 1096q-2 -20 -3 -37.5t-3 -33.5l-129 -1060h-165l176 1433h97q25 0 36 -6t23 -26l619 -1095q2 23 3.5 44t3.5 39l129 1044h165z" />
    <glyph glyph-name="Eng" unicode="&#x14a;" horiz-adv-x="1420" 
d="M1178 46l-5 -42q-9 -81 -34.5 -148t-68.5 -114.5t-103.5 -73.5t-141.5 -26q-45 0 -80 8.5t-74 26.5l28 75q8 22 19.5 28.5t23.5 6.5t30.5 -7.5t52.5 -7.5q76 0 122 52.5t59 160.5l7 55l-617 1082q-1 -23 -3 -45.5t-4 -42.5l-127 -1034h-164l176 1432h96q25 0 36.5 -6
t24.5 -26l621 -1089q1 25 2.5 48.5t4.5 44.5l126 1028h164l-170 -1386h-1z" />
    <glyph glyph-name="O" unicode="O" horiz-adv-x="1491" 
d="M1420 818q0 -183 -56.5 -336t-157 -263.5t-238 -172t-299.5 -61.5q-132 0 -237.5 47t-180 130.5t-114 198.5t-39.5 252q0 183 57 336.5t158 264.5t238.5 173t298.5 62q132 0 237.5 -47.5t179.5 -131.5t113.5 -199.5t39.5 -252.5zM1228 814q0 109 -28 197.5t-79.5 150.5
t-126 96t-167.5 34q-118 0 -216.5 -47.5t-170 -135.5t-111 -212.5t-39.5 -278.5q0 -109 27.5 -197t79.5 -150t126 -95.5t167 -33.5q119 0 218 47t170 134.5t110.5 212t39.5 278.5z" />
    <glyph glyph-name="Oslash" unicode="&#xd8;" horiz-adv-x="1491" 
d="M451 219q48 -38 107.5 -57.5t131.5 -19.5q119 0 218 47t170 134.5t110.5 212t39.5 278.5q0 88 -17.5 161.5t-51.5 131.5zM1087 1197q-51 46 -116 70.5t-144 24.5q-118 0 -216.5 -47.5t-170 -135.5t-111 -212.5t-39.5 -278.5q0 -97 21.5 -176t62.5 -140zM1278 1257
q69 -84 105.5 -195.5t36.5 -243.5q0 -183 -56.5 -336t-157 -263.5t-238 -172t-299.5 -61.5q-97 0 -179 25t-149 72l-109 -137q-25 -29 -54.5 -41.5t-56.5 -12.5h-75l211 265q-77 85 -118 201t-41 256q0 183 57 336.5t158 264.5t238.5 173t298.5 62q104 0 191.5 -29.5
t156.5 -83.5l89 112q11 13 20 22.5t18.5 15.5t20.5 8.5t27 2.5h96z" />
    <glyph glyph-name="OE" unicode="&#x152;" horiz-adv-x="2019" 
d="M644 137q109 0 199.5 49t156 139t101.5 216.5t36 282.5q0 106 -23.5 193.5t-68.5 149.5t-110 96t-148 34q-109 0 -200 -49.5t-156.5 -140t-102 -217.5t-36.5 -282q0 -107 24 -193.5t69 -148.5t110.5 -95.5t148.5 -33.5zM1389 1280l-59 -484h504l-17 -147h-505l-60 -497
h624l-19 -152h-791l28 227q-90 -115 -213.5 -178t-273.5 -63q-118 0 -212 46t-159.5 127.5t-100.5 195t-35 248.5q0 185 52 340t144 267.5t217.5 175.5t271.5 63q151 0 258.5 -74t166.5 -201l32 259h791l-18 -153h-626z" />
    <glyph glyph-name="P" unicode="P" horiz-adv-x="1124" 
d="M576 686q85 0 150 26t109 72.5t67 111t23 140.5q0 58 -17 104t-51 78.5t-86 50t-121 17.5h-208l-74 -600h208zM668 1433q114 0 198 -27t138.5 -77t81.5 -120t27 -156q0 -113 -37 -207.5t-107.5 -162.5t-174 -106.5t-236.5 -38.5h-208l-66 -538h-186l175 1433h395z" />
    <glyph glyph-name="Thorn" unicode="&#xde;" horiz-adv-x="1121" 
d="M544 421q85 0 150 26t109 72.5t67 111t23 140.5q0 116 -68 181.5t-208 65.5h-208l-73 -597h208zM636 1165q114 0 197.5 -27t138.5 -76.5t82 -119t27 -154.5q0 -113 -37 -207.5t-108 -163t-174 -106.5t-236 -38h-208l-34 -273h-186l175 1433h187l-33 -268h209z" />
    <glyph glyph-name="Q" unicode="Q" horiz-adv-x="1491" 
d="M290 618q0 -109 27.5 -197t79.5 -150t126 -95.5t167 -33.5q119 0 218 47t170 134.5t110.5 212t39.5 278.5q0 109 -28 197.5t-79.5 150.5t-126 96t-167.5 34q-118 0 -216.5 -47.5t-170 -135.5t-111 -212.5t-39.5 -278.5zM897 20q-108 -35 -228 -35q-132 0 -237.5 47
t-180 130.5t-114 198.5t-39.5 252q0 183 57 336.5t158 264.5t238.5 173t298.5 62q132 0 237.5 -47.5t179.5 -131.5t113.5 -199.5t39.5 -252.5q0 -121 -25.5 -229t-72 -200.5t-113.5 -166.5t-149 -126l290 -393h-151q-35 0 -60.5 10t-45.5 34z" />
    <glyph glyph-name="R" unicode="R" horiz-adv-x="1167" 
d="M558 737q85 0 150 24t109.5 67.5t67 103t22.5 130.5q0 109 -68.5 166.5t-205.5 57.5h-190l-68 -549h183zM650 1433q114 0 197.5 -24t138 -68.5t81 -108t26.5 -141.5q0 -87 -26 -162t-75 -134t-118 -100.5t-156 -61.5q32 -22 53 -61l309 -572h-166q-51 0 -70 40l-270 516
q-13 25 -30 35t-54 10h-132l-74 -601h-186l175 1433h377z" />
    <glyph glyph-name="S" unicode="S" horiz-adv-x="1016" 
d="M927 1211q-11 -14 -21 -21.5t-24 -7.5q-17 0 -36 17.5t-48.5 38t-71.5 38t-105 17.5q-64 0 -114 -20t-84.5 -54.5t-52.5 -80.5t-18 -99q0 -52 24 -87.5t63 -61t89.5 -45l102.5 -40t102.5 -45.5t89.5 -62t63 -89t24 -126q0 -102 -35 -192.5t-100.5 -158.5t-158.5 -108
t-209 -40q-128 0 -228.5 50.5t-165.5 136.5l66 89q8 11 20 18t26 7q19 0 41 -22.5t56 -50t84 -50t125 -22.5q69 0 124.5 22t94 61t59.5 93.5t21 120.5q0 55 -24 91.5t-63 61.5t-89 43.5l-102 37.5t-102 43t-89 61t-63 91t-24 133q0 88 32 169t92 143t146.5 99t194.5 37
q110 0 198 -42t145 -115z" />
    <glyph glyph-name="Scedilla" unicode="&#x15e;" horiz-adv-x="1016" 
d="M927 1211q-11 -14 -21 -21.5t-24 -7.5q-17 0 -36 17.5t-48.5 38t-71.5 38t-105 17.5q-64 0 -114 -20t-84.5 -54.5t-52.5 -80.5t-18 -99q0 -52 24 -87.5t63 -61t89.5 -45l102.5 -40t102.5 -45.5t89.5 -62t63 -89t24 -126q0 -96 -31.5 -182.5t-90 -153.5t-142 -109.5
t-188.5 -51.5l-24 -62q76 -17 110.5 -48.5t34.5 -77.5q0 -36 -16.5 -65t-46.5 -49t-71 -30.5t-89 -10.5q-38 0 -71 8.5t-60 22.5l24 55q7 18 25 18q6 0 12.5 -3.5l15.5 -8t22 -8t32 -3.5q40 0 61 19t21 48q0 34 -35.5 48.5t-100.5 23.5l54 123q-110 10 -197.5 58.5
t-145.5 126.5l66 89q8 11 20 18t26 7q19 0 41 -22.5t56 -50t84 -50t125 -22.5q69 0 124.5 22t94 61t59.5 93.5t21 120.5q0 55 -24 91.5t-63 61.5t-89 43.5l-102 37.5t-102 43t-89 61t-63 91t-24 133q0 88 32 169t92 143t146.5 99t194.5 37q110 0 198 -42t145 -115z" />
    <glyph glyph-name="T" unicode="T" horiz-adv-x="1092" 
d="M1144 1276h-422l-158 -1276h-186l156 1276h-424l18 157h1035z" />
    <glyph glyph-name="Tbar" unicode="&#x166;" horiz-adv-x="1127" 
d="M740 1276l-53 -425h297l-13 -110h-297l-92 -741h-186l91 741h-301l13 110h301l52 425h-424l18 157h1035l-19 -157h-422z" />
    <glyph glyph-name="U" unicode="U" horiz-adv-x="1370" 
d="M628 147q81 0 148 31t118 85.5t83.5 130.5t43.5 166l107 873h187l-107 -873q-15 -123 -65 -228.5t-128 -183t-181 -121.5t-226 -44q-122 0 -214.5 44t-151.5 121.5t-82.5 183t-8.5 228.5l106 873h187l-107 -872q-11 -90 3 -166t51 -131t96.5 -86t140.5 -31z" />
    <glyph glyph-name="Uogonek" unicode="&#x172;" horiz-adv-x="1368" 
d="M1315 1433l-107 -873q-14 -107 -53.5 -201t-101 -168.5t-143.5 -125t-180 -70.5q-21 -12 -43.5 -28.5t-40.5 -37.5t-30 -46t-12 -53q0 -32 19 -51t51 -19q20 0 34 3.5t23.5 8t15.5 8.5t11 4q12 0 16 -13l20 -66q-32 -23 -76.5 -37.5t-92.5 -14.5q-78 0 -119.5 35
t-41.5 93q0 59 37.5 110t97.5 92q-120 2 -211 46.5t-148.5 122t-80.5 182t-8 226.5l106 873h187l-107 -872q-11 -90 3 -166t51 -131t96.5 -86t140.5 -31t148 31t118 85.5t83.5 130.5t43.5 166l107 873h187z" />
    <glyph glyph-name="V" unicode="V" horiz-adv-x="1259" 
d="M1352 1433l-712 -1433h-169l-362 1433h150q25 0 39.5 -13t17.5 -32l240 -1024q8 -32 15 -70.5t12 -80.5q14 42 29 80.5t32 70.5l489 1024q8 17 26.5 31t42.5 14h150z" />
    <glyph glyph-name="W" unicode="W" horiz-adv-x="1910" 
d="M1982 1433l-588 -1433h-169l-194 1103l-4.5 35t-4.5 39l-14 -39l-13 -35l-466 -1103h-168l-236 1433h147q25 0 40 -12.5t17 -32.5l155 -1014q2 -26 4 -56.5l4 -62.5l21.5 63t21.5 56l428 1014q8 17 26 31t42 14h43q25 0 39.5 -12.5t19.5 -32.5l179 -1014q5 -26 8 -55
l6 -61l18 61t18 55l403 1014q5 17 25.5 31t44.5 14h147z" />
    <glyph glyph-name="X" unicode="X" horiz-adv-x="1218" 
d="M760 773l378 -773h-168q-20 0 -31 11.5t-17 24.5l-292 626q-7 -17 -18 -31l-432 -595q-13 -20 -28.5 -28t-33.5 -8h-186l569 765l-336 668h169q20 0 29 -7t17 -21l256 -540l10 18l11 19l364 502q11 15 21.5 22t25.5 7h193z" />
    <glyph glyph-name="Y" unicode="Y" horiz-adv-x="1164" 
d="M672 573l-71 -573h-187l71 571l-378 862h165q25 0 39 -12t21 -32l237 -574q19 -57 30 -108q12 26 26.5 52.5l31.5 55.5l380 574q11 17 27.5 30.5t40.5 13.5h155z" />
    <glyph glyph-name="Z" unicode="Z" horiz-adv-x="1111" 
d="M1145 1373q-2 -14 -8.5 -25l-14.5 -24l-875 -1172h737l-20 -152h-990l8 59q2 14 8 25t14 23l877 1173h-714l19 153h967z" />
    <glyph glyph-name="a" unicode="a" horiz-adv-x="1022" 
d="M753 889q-22 5 -43.5 6.5t-42.5 1.5q-60 0 -116 -19.5t-105 -54.5t-89 -83.5t-68.5 -106.5t-44.5 -123.5t-16 -134.5q0 -241 154 -241q49 0 96 30.5t89.5 85t78.5 129t64 163.5zM685 267q-36 -64 -77.5 -116t-88 -88.5t-98 -56.5t-106.5 -20q-60 0 -109 23.5t-83.5 69
t-53.5 112t-19 152.5q0 90 22.5 175.5t64 161.5t99.5 139.5t129.5 110t153.5 72t172 25.5q65 0 126.5 -10.5t121.5 -36.5l-121 -980h-92q-35 0 -47.5 18t-12.5 44z" />
    <glyph glyph-name="aogonek" unicode="&#x105;" horiz-adv-x="1022" 
d="M754 889q-22 5 -43.5 6.5t-42.5 1.5q-60 0 -116 -19.5t-105 -54.5t-89 -83.5t-68.5 -106.5t-44.5 -123.5t-16 -134.5q0 -241 154 -241q49 0 96 30.5t89.5 85t78.5 129t64 163.5zM799 0q-21 -12 -43.5 -28.5t-40.5 -37.5t-30 -46t-12 -53q0 -32 19 -51t51 -19q20 0 34 3.5
t23.5 8t15.5 8.5t11 4q12 0 16 -13l20 -66q-32 -23 -76.5 -37.5t-92.5 -14.5q-78 0 -119.5 35t-41.5 93q0 33 12 63.5t34 58t51.5 52.5t65.5 46q-17 8 -23 22.5t-6 33.5l19 205q-36 -64 -77.5 -116t-88 -88.5t-98 -56.5t-106.5 -20q-60 0 -109 23.5t-83.5 69t-53.5 112
t-19 152.5q0 90 22.5 175.5t64 161.5t99.5 139.5t129.5 110t153.5 72t172 25.5q65 0 126.5 -10.5t121.5 -36.5l-121 -980h-20z" />
    <glyph glyph-name="ae" unicode="&#xe6;" horiz-adv-x="1485" 
d="M619 479q-120 -5 -203 -23t-134.5 -48t-74 -71t-22.5 -91q0 -72 39 -106.5t104 -34.5q52 0 98.5 18.5t84 55.5t63.5 92.5t35 129.5zM1083 900q-60 0 -109 -22.5t-85.5 -64t-61.5 -100.5t-37 -132q130 7 214.5 25t134 43.5t69.5 57.5t20 68q0 57 -37.5 91t-107.5 34z
M1400 187q-51 -52 -99.5 -90t-99.5 -62.5t-106.5 -36.5t-119.5 -12q-104 0 -184 57t-119 171q-32 -62 -76.5 -105.5t-94.5 -71.5t-103 -40.5t-102 -12.5q-133 0 -205 59.5t-72 179.5q0 71 32 135.5t104 114t189 80t288 35.5l8 60q15 120 -23 180.5t-127 60.5
q-60 0 -102.5 -16.5t-74 -37l-55.5 -37t-46 -16.5q-18 0 -29 9t-19 23l-23 55q87 81 175.5 121t192.5 40q109 0 169.5 -48t82.5 -133q60 84 146.5 131t197.5 47q60 0 111 -18.5t88.5 -51.5t58.5 -77.5t21 -95.5q0 -57 -27.5 -111t-96 -96.5t-185.5 -70t-295 -30.5
q-1 -10 -1 -19.5v-20.5q0 -155 61 -232.5t169 -77.5q48 0 86 10t67.5 24.5t52 32l41.5 32t34.5 24.5t31.5 10q10 0 18 -4.5t16 -12.5z" />
    <glyph glyph-name="b" unicode="b" horiz-adv-x="1057" 
d="M259 222q38 -53 91.5 -75.5t107.5 -22.5q52 0 98 22t84 59.5t67.5 88t50.5 108t31.5 119t10.5 121.5q0 119 -42.5 181t-120.5 62q-48 0 -97 -30t-95 -83.5t-85.5 -127t-68.5 -160.5zM324 756q38 62 81.5 112t91.5 85.5t100 55t106 19.5q130 0 202 -94t72 -275
q0 -82 -17 -164t-48.5 -156.5t-76 -139t-99 -112t-118.5 -74.5t-134 -27q-81 0 -146 34t-108 97l-14 -65q-8 -26 -20 -39t-43 -13h-94l178 1473h174z" />
    <glyph glyph-name="c" unicode="c" horiz-adv-x="909" 
d="M818 182q-52 -57 -99 -95t-94 -60.5t-97.5 -31.5t-108.5 -9q-88 0 -155.5 30t-113 84.5t-69 131t-23.5 168.5q0 123 38.5 236t107.5 200t164.5 139t208.5 52q101 0 169 -35.5t119 -103.5l-56 -67q-7 -8 -15.5 -13t-19.5 -5q-14 0 -27.5 12.5t-35.5 28t-54.5 28
t-83.5 12.5q-69 0 -130 -37.5t-107 -102.5t-72.5 -154t-26.5 -191q0 -62 14 -112.5t42 -86t68.5 -55t94.5 -19.5q67 0 112.5 20t76.5 43.5t52.5 43.5t42.5 20q19 0 34 -17l44 -54v0z" />
    <glyph glyph-name="ccedilla" unicode="&#xe7;" horiz-adv-x="909" 
d="M809 821q-7 -8 -15.5 -13t-19.5 -5q-14 0 -27.5 12.5t-35.5 28t-54.5 28t-83.5 12.5q-69 0 -130 -37.5t-107 -102.5t-72.5 -154t-26.5 -191q0 -62 14 -112.5t42 -86t68.5 -55t94.5 -19.5q67 0 112.5 20t76.5 43.5t52.5 43.5t42.5 20q19 0 34 -17l44 -54q-47 -52 -90 -88
t-85.5 -58.5t-87 -34t-94.5 -14.5l-24 -63q76 -17 110.5 -48.5t34.5 -77.5q0 -36 -16.5 -65t-46.5 -49t-71 -30.5t-89 -10.5q-38 0 -71 8.5t-60 22.5l24 55q7 18 25 18q6 0 12.5 -3.5l15.5 -8t22 -8t32 -3.5q40 0 61 19t21 48q0 34 -35.5 48.5t-100.5 23.5l56 127
q-74 10 -130.5 43.5t-95 87t-58 124.5t-19.5 155q0 123 38.5 236t107.5 200t164.5 139t208.5 52q101 0 169 -35.5t119 -103.5z" />
    <glyph glyph-name="c_h.dlig" horiz-adv-x="1954" 
d="M1227 789q79 118 175.5 178.5t196.5 60.5q65 0 114 -25.5t79.5 -74.5t41.5 -120.5t0 -162.5l-76 -645h-178l76 645q15 120 -14 178t-108 58q-45 0 -93 -24.5t-92.5 -69.5t-84 -109t-68.5 -143l-65 -535h-177l165 1365q-12 22 -29.5 41.5t-40 34.5t-49.5 23.5t-60 8.5
q-57 0 -100 -22.5t-72.5 -60t-44.5 -86t-15 -101.5q0 -57 18.5 -118.5t53.5 -113.5q46 -30 85 -83l-56 -67q-7 -8 -15.5 -13t-19.5 -5q-14 0 -27.5 12.5t-35.5 28t-54.5 28t-83.5 12.5q-69 0 -130 -37.5t-107 -102.5t-72.5 -154t-26.5 -191q0 -62 14 -112.5t42 -86t68.5 -55
t94.5 -19.5q67 0 112.5 20t76.5 43.5t52.5 43.5t42.5 20q19 0 34 -17l44 -54q-52 -57 -99 -95t-94 -60.5t-97.5 -31.5t-108.5 -9q-88 0 -155.5 30t-113 84.5t-69 131t-23.5 168.5q0 123 38.5 236t107.5 200t164.5 139t208.5 52q27 0 53 -3q-29 51 -47.5 107.5t-18.5 114.5
q0 65 25.5 125.5t74.5 107t120 74.5t163 28q79 0 137.5 -17t102 -37t74.5 -37t55 -17l-7 -4z" />
    <glyph glyph-name="c_k.dlig" horiz-adv-x="1848" 
d="M818 182q-52 -57 -99 -95t-94 -60.5t-97.5 -31.5t-108.5 -9q-88 0 -155.5 30t-113 84.5t-69 131t-23.5 168.5q0 123 38.5 236t107.5 200t164.5 139t208.5 52q28 0 54 -3q-29 51 -47.5 107.5t-18.5 114.5q0 65 25.5 125.5t74.5 107t120 74.5t163 28q78 0 135 -16t100 -36
t74 -37t55 -19h1h4l-5 -3l-105 -864h30q21 0 34 5.5t28 22.5l336 343q14 17 30 26.5t39 9.5h158l-391 -397q-30 -35 -61 -53q16 -12 27.5 -27.5t21.5 -35.5l304 -500h-153q-22 0 -36.5 7.5t-23.5 27.5l-258 415q-12 21 -25 27.5t-41 6.5h-34l-59 -484h-176l167 1358
q-12 23 -29.5 44t-40 36.5t-51 25t-62.5 9.5q-57 0 -100 -22.5t-72.5 -60t-44.5 -86t-15 -101.5q0 -58 19 -119.5t54 -114.5q23 -16 43.5 -36.5t39.5 -44.5l-56 -67q-7 -8 -15.5 -13t-19.5 -5q-14 0 -27.5 12.5t-35.5 28t-54.5 28t-83.5 12.5q-69 0 -130 -37.5t-107 -102.5
t-72.5 -154t-26.5 -191q0 -62 14 -112.5t42 -86t68.5 -55t94.5 -19.5q67 0 112.5 20t76.5 43.5t52.5 43.5t42.5 20q19 0 34 -17l44 -54v0z" />
    <glyph glyph-name="c_t.dlig" horiz-adv-x="1638" 
d="M1255 366l-8 -66t-4.5 -40t-2 -21t-0.5 -9q0 -51 24 -75.5t65 -24.5q26 0 46 7.5t34.5 16.5t24.5 16.5t18 7.5t12.5 -4t9.5 -13l37 -85q-48 -43 -110.5 -67.5t-125.5 -24.5q-97 0 -153 53t-58 154q0 6 0.5 15.5t2 27.5t4.5 47t9 76l60 488h-110q-14 0 -23 10t-7 30l9 71
l154 21l14 43l53 184q20 68 15.5 121t-29.5 89t-68 55t-100 19q-71 0 -128.5 -24t-99 -64.5t-66 -94t-29 -112t11.5 -118t55 -112.5q39 -31 73 -75l-56 -67q-7 -8 -15.5 -13t-19.5 -5q-14 0 -27.5 12.5t-35.5 28t-54.5 28t-83.5 12.5q-69 0 -130 -37.5t-107 -102.5
t-72.5 -154t-26.5 -191q0 -62 14 -112.5t42 -86t68.5 -55t94.5 -19.5q67 0 112.5 20t76.5 43.5t52.5 43.5t42.5 20q19 0 34 -17l44 -54q-52 -57 -99 -95t-94 -60.5t-97.5 -31.5t-108.5 -9q-88 0 -155.5 30t-113 84.5t-69 131t-23.5 168.5q0 123 38.5 236t107.5 200
t164.5 139t208.5 52q40 0 75 -6q-27 62 -33.5 126.5t7.5 125t48 113.5t87.5 92t125.5 62t162 23q87 0 150 -26.5t102 -71.5t54.5 -103.5t7.5 -122.5l-32 -264h267l-15 -130h-269z" />
    <glyph glyph-name="ccedilla_t.dlig" horiz-adv-x="1638" 
d="M818 182q-51 -57 -97.5 -94.5t-93 -60t-96 -32t-106.5 -9.5l-24 -62q76 -17 110.5 -48.5t34.5 -77.5q0 -36 -16.5 -65t-46.5 -49t-71 -30.5t-89 -10.5q-38 0 -71 8.5t-60 22.5l24 55q7 18 25 18q6 0 12.5 -3.5l15.5 -8t22 -8t32 -3.5q40 0 61 19t21 48q0 34 -35.5 48.5
t-100.5 23.5l58 133q-66 14 -116 49t-84 87.5t-51.5 120t-17.5 147.5q0 123 38.5 236t107.5 200t164.5 139t208.5 52q40 0 75 -6q-27 62 -33.5 126.5t7.5 124.5t48 113t87.5 92.5t125.5 62.5t162 23q87 0 150 -26.5t102 -71.5t54.5 -103.5t7.5 -122.5l-33 -264h268l-15 -130
h-269l-59 -479l-8 -66t-4.5 -40t-2 -21t-0.5 -9q0 -51 24 -75.5t65 -24.5q26 0 46 7.5t34.5 16.5t24.5 16.5t18 7.5t12.5 -4t9.5 -13l37 -85q-48 -43 -110.5 -67.5t-125.5 -24.5q-97 0 -153 53t-58 154q0 6 0.5 15.5t2 27.5t4.5 47t9 76l60 488h-110q-14 0 -23 10t-7 30
l9 71l154 20l14 46l53 182q20 68 15.5 121t-29.5 89t-68 55t-100 19q-71 0 -128.5 -24t-99 -64.5t-66 -94t-29 -112t11.5 -118.5t55 -113q38 -29 73 -74l-56 -67q-7 -8 -15.5 -13t-19.5 -5q-14 0 -27.5 12.5t-35.5 28t-54.5 28t-83.5 12.5q-69 0 -130 -37.5t-107 -102.5
t-72.5 -154t-26.5 -191q0 -62 14 -112.5t42 -86t68.5 -55t94.5 -19.5q67 0 112.5 20t76.5 43.5t52.5 43.5t42.5 20q19 0 34 -17l44 -54v0z" />
    <glyph glyph-name="d" unicode="d" horiz-adv-x="1058" 
d="M774 792q-38 54 -91.5 75.5t-108.5 21.5q-79 0 -142 -47t-107.5 -121.5t-68.5 -166.5t-24 -181q0 -119 42.5 -181.5t121.5 -62.5q48 0 97 30t94.5 83.5t85 126.5t68.5 160zM1032 1473l-181 -1473h-93q-35 0 -47 18t-12 44l19 213q-38 -66 -83 -119t-94.5 -91t-103 -58.5
t-108.5 -20.5q-130 0 -202 94.5t-72 274.5q0 82 17 164t48.5 157t76 139.5t99.5 111.5t118.5 74t133.5 27q75 0 136.5 -29.5t104.5 -83.5l69 558h174z" />
    <glyph glyph-name="dcaron" unicode="&#x10f;" horiz-adv-x="1058" 
d="M1265 1473q17 0 22.5 -7.5t5.5 -17.5t-3.5 -25t-15 -43.5t-33 -75.5l-57.5 -120q-12 -22 -27 -28.5t-39 -6.5h-44l93 324h98zM774 792q-38 54 -91.5 75.5t-108.5 21.5q-79 0 -142 -47t-107.5 -121.5t-68.5 -166.5t-24 -181q0 -119 42.5 -181.5t121.5 -62.5q48 0 97 30
t94.5 83.5t85 126.5t68.5 160zM1032 1473l-181 -1473h-93q-35 0 -47 18t-12 44l19 213q-38 -66 -83 -119t-94.5 -91t-103 -58.5t-108.5 -20.5q-130 0 -202 94.5t-72 274.5q0 82 17 164t48.5 157t76 139.5t99.5 111.5t118.5 74t133.5 27q75 0 136.5 -29.5t104.5 -83.5l69 558
h174z" />
    <glyph glyph-name="dcroat" unicode="&#x111;" horiz-adv-x="1058" 
d="M772 774q-38 52 -91.5 73.5t-106.5 21.5q-79 0 -142 -44t-107.5 -114.5t-68.5 -159.5t-24 -178q0 -119 42.5 -181.5t121.5 -62.5q48 0 97 30t94.5 83.5t85 126.5t68.5 160zM1125 1144h-133l-141 -1144h-93q-35 0 -47 18t-12 44l19 213q-38 -66 -83 -119t-94.5 -91
t-103 -58.5t-108.5 -20.5q-130 0 -202 94.5t-72 274.5q0 124 37.5 241t104 208.5t156.5 147t195 55.5q74 0 135 -28.5t104 -81.5l30 247h-154q-37 0 -49.5 16t-7.5 48l8 46h217l27 219h174l-27 -219h132z" />
    <glyph glyph-name="eth" unicode="&#xf0;" horiz-adv-x="1054" 
d="M453 121q65 0 120.5 25.5t99.5 80t75 139.5t47 204q-10 43 -29.5 83.5t-49.5 71.5t-72 49.5t-98 18.5q-75 0 -134.5 -30t-100.5 -82.5t-62.5 -123t-21.5 -151.5q0 -67 17 -120t47.5 -89.5t72 -56t89.5 -19.5zM794 1214q81 -84 128 -204.5t47 -285.5t-35 -300.5
t-103 -232.5t-168 -150.5t-230 -53.5q-83 0 -152 28.5t-119 82t-78 129t-28 170.5q0 108 34.5 204.5t97 168.5t149.5 114.5t192 42.5q97 0 175 -45.5t126 -137.5q-2 136 -40 234.5t-114 167.5l-191 -138l-32 57q-8 13 -4.5 26t14.5 21l129 95q-41 24 -88.5 43t-103.5 34
q-30 10 -36 28.5t6 44.5l26 55q88 -16 169.5 -48t151.5 -83l174 124l29 -57q7 -12 5.5 -26.5t-18.5 -24.5z" />
    <glyph glyph-name="e" unicode="e" horiz-adv-x="957" 
d="M574 899q-63 0 -116 -26t-94 -71.5t-70 -107t-45 -132.5q154 19 247 43.5t143 53t66 61.5t16 69q0 18 -8 37.5t-25.5 35.5t-45.5 26.5t-68 10.5zM856 187q-51 -53 -100 -90.5t-99.5 -62.5t-106 -36.5t-119.5 -11.5q-87 0 -156 29t-117 82.5t-74 129.5t-26 170
q0 78 16.5 155.5t48 147.5t77 130t104 103.5t129 68.5t151.5 25q77 0 133 -22t92 -56t53.5 -75t17.5 -78q0 -66 -27 -121.5t-99 -100t-198 -77.5t-324 -53q0 -11 -0.5 -21.5t-0.5 -21.5q0 -134 58.5 -204.5t176.5 -70.5q48 0 85.5 10t67 24.5t52 32l41 32t34.5 24.5t32 10
q19 0 34 -17z" />
    <glyph glyph-name="eogonek" unicode="&#x119;" horiz-adv-x="957" 
d="M574 899q-63 0 -116 -26t-94 -71.5t-70 -107t-45 -132.5q154 19 247 43.5t143 53t66 61.5t16 69q0 18 -8 37.5t-25.5 35.5t-45.5 26.5t-68 10.5zM626 -290q-32 -23 -76.5 -37.5t-92.5 -14.5q-78 0 -119.5 35t-41.5 93t36 109t96 91q-86 0 -154.5 29.5t-116.5 83
t-73.5 129t-25.5 169.5q0 78 16.5 155.5t48 147.5t77 130t104 103.5t129 68.5t151.5 25q77 0 133 -22t92 -56t53.5 -75t17.5 -78q0 -66 -27 -121.5t-99 -100t-198 -77.5t-324 -53q0 -11 -0.5 -21.5t-0.5 -21.5q0 -134 58.5 -204.5t176.5 -70.5q48 0 85.5 10t67 24.5t52 32
l41 32t34.5 24.5t32 10q19 0 34 -17l44 -55q-75 -77 -144.5 -122.5t-150.5 -64.5h1q-21 -12 -43.5 -28.5t-40.5 -37.5t-30 -46t-12 -53q0 -32 19 -51t51 -19q20 0 34 3.5t23.5 8t15.5 8.5t11 4q12 0 16 -13z" />
    <glyph glyph-name="f" unicode="f" horiz-adv-x="641" 
d="M395 865l-101 -832l-47 -207q-11 -36 -32.5 -55.5t-59.5 -19.5h-69l134 1111l-100 13q-18 5 -28.5 15t-8.5 31l9 72h144l12 98q11 87 43.5 154.5t82 114t113 70.5t137.5 24q61 0 113 -20l-17 -92q-4 -20 -27 -20h-58q-43 0 -79.5 -12.5t-64.5 -40.5t-47.5 -73t-27.5 -110
l-11 -93h253l-17 -128h-246z" />
    <glyph glyph-name="g" unicode="g" horiz-adv-x="968" 
d="M439 457q54 0 95.5 23.5t70 62t43.5 86.5t15 97q0 88 -44.5 133t-122.5 45q-54 0 -95 -22t-69.5 -59t-43 -84t-14.5 -98q0 -90 43.5 -137t121.5 -47zM640 -25q0 27 -5 49.5t-13 42.5q-132 21 -228 15.5t-158.5 -29.5t-92.5 -62t-30 -82q0 -72 60.5 -110t171.5 -38
q66 0 120.5 17.5t93 46.5t60 68t21.5 82zM980 976l-7 -59q-5 -36 -40 -48l-127 -22q19 -52 19 -115q0 -50 -11.5 -90t-28.5 -74t-37 -64t-37 -59.5t-28.5 -61t-11.5 -68.5q0 -27 9.5 -51.5t24 -48t32 -47.5t32 -51t24 -58.5t9.5 -69.5q-1 -71 -34 -134.5t-94 -112.5
t-148 -77.5t-196 -28.5q-87 0 -158.5 18t-122 51t-78 79.5t-27.5 102.5q0 64 27 113t73 84.5t107 58.5t129.5 34t140.5 10.5t141 -10.5q-9 19 -14.5 39.5t-5.5 44.5q0 31 9.5 64t31.5 75q-38 -26 -85 -40.5t-107 -14.5q-58 0 -108.5 19t-88.5 56t-60 92.5t-22 129.5
q0 72 26.5 141.5t77.5 124t126 87.5t173 33q54 0 103 -13t88 -39h274z" />
    <glyph glyph-name="g.salt" horiz-adv-x="1036" 
d="M755 788q-38 58 -92 83t-109 25q-51 0 -94 -21.5t-78.5 -58t-63 -85.5t-46 -104t-28 -114t-9.5 -115q0 -113 40.5 -178t116.5 -65q46 0 93.5 27t91.5 78t82 123t66 162zM955 1012l-118 -955q-11 -93 -47.5 -170t-97.5 -132.5t-145.5 -86t-191.5 -30.5q-117 0 -197.5 36
t-129.5 90l44 60q18 26 49 26q17 0 35 -13.5t44 -29.5t64.5 -29.5t96.5 -13.5q66 0 119 21.5t91.5 59t61.5 89.5t31 112l28 233q-73 -125 -165.5 -196t-201.5 -71q-63 0 -112.5 25t-83.5 72t-52 115.5t-18 155.5q0 80 16 159t45.5 151.5t71.5 134t94 107t113.5 71.5
t129.5 26q79 0 144 -35t107 -98l22 80q15 36 50 36h103z" />
    <glyph glyph-name="h" unicode="h" horiz-adv-x="1059" 
d="M332 789q79 118 175.5 178.5t196.5 60.5q65 0 114 -25.5t79.5 -74.5t41.5 -120.5t0 -162.5l-76 -645h-178l76 645q15 120 -14 178t-108 58q-45 0 -93 -24.5t-92.5 -69.5t-84 -109t-68.5 -143l-65 -535h-177l178 1473h178z" />
    <glyph glyph-name="hcircumflex" unicode="&#x125;" horiz-adv-x="1059" 
d="M207 1559q-9 -6 -22.5 -9.5t-25.5 -3.5h-130l245 209h170l194 -209h-131q-11 0 -23.5 4t-20.5 9l-104 97q-4 3 -10 9l-6.5 -4.5l-6.5 -4.5zM332 789q79 118 175.5 178.5t196.5 60.5q65 0 114 -25.5t79.5 -74.5t41.5 -120.5t0 -162.5l-76 -645h-178l76 645q15 120 -14 178
t-108 58q-45 0 -93 -24.5t-92.5 -69.5t-84 -109t-68.5 -143l-65 -535h-177l178 1473h178z" />
    <glyph glyph-name="hbar" unicode="&#x127;" horiz-adv-x="1059" 
d="M329 765q79 119 175.5 180t197.5 61q65 0 114 -25.5t79.5 -74t41.5 -120t0 -162.5l-74 -624h-178l74 624q15 119 -14 177t-108 58q-46 0 -93.5 -24.5t-92.5 -70t-84.5 -110t-68.5 -144.5l-62 -510h-177l138 1143h-154l15 113h153l26 217h178l-26 -217h247l-10 -64
q-8 -49 -61 -49h-190z" />
    <glyph glyph-name="i" unicode="i" horiz-adv-x="460" 
d="M366 1013l-122 -1013h-175l122 1013h175zM434 1331q0 -26 -10.5 -48.5t-28 -40t-40 -27.5t-46.5 -10q-23 0 -45 10t-38.5 27.5t-26.5 40t-10 48.5t10 49t27 40.5t39 28t45 10.5q24 0 46.5 -10t39.5 -27.5t27.5 -41t10.5 -49.5z" />
    <glyph glyph-name="iogonek" unicode="&#x12f;" horiz-adv-x="460" 
d="M219 0q-21 -12 -43.5 -28.5t-40.5 -37.5t-30 -46t-12 -53q0 -32 19 -51t51 -19q20 0 34 3.5t23.5 8t15.5 8.5t11 4q12 0 16 -13l20 -66q-32 -23 -76.5 -37.5t-92.5 -14.5q-78 0 -119.5 35t-41.5 93q0 63 42.5 117.5t111.5 96.5h-38l122 1013h175l-122 -1013h-25z
M310 1459q24 0 46.5 -10t39.5 -27.5t27.5 -41t10.5 -49.5t-10.5 -48.5t-28 -40t-40 -27.5t-46.5 -10q-23 0 -45 10t-38.5 27.5t-26.5 40t-10 48.5t10 49t27 40.5t39 28t45 10.5z" />
    <glyph glyph-name="dotlessi" unicode="&#x131;" horiz-adv-x="460" 
d="M366 1013l-122 -1013h-175l122 1013h175z" />
    <glyph glyph-name="i_j.dlig" horiz-adv-x="990" 
d="M298 1205q-24 0 -45.5 10t-38.5 27.5t-27 40t-10 48.5t10 49t27 40.5t39 28t46 10.5t46 -10t39 -27.5t27.5 -41t10.5 -49.5t-10.5 -48.5t-28 -40t-40 -27.5t-45.5 -10zM735 1013h172l-124 -1012q-10 -84 -35.5 -151.5t-71 -114.5t-113.5 -72.5t-162 -25.5q-34 0 -67 6.5
t-57 16.5l18 92q4 10 10 13.5t16 4t24.5 -0.5t35.5 -1q56 0 96 12.5t67 40.5t43 72.5t24 107.5l16 133q-68 -73 -144 -110.5t-155 -37.5q-64 0 -113 25.5t-79.5 74.5t-41.5 120t1 163l76 644h172l-76 -644q-15 -119 13.5 -177t110.5 -58q66 0 134 47.5t124 131.5zM851 1459
q24 0 46.5 -10t39.5 -27.5t27.5 -41t10.5 -49.5t-10.5 -48.5t-28 -40t-40 -27.5t-46.5 -10q-23 0 -45 10t-38.5 27.5t-26.5 40t-10 48.5t10 49t27 40.5t39 28t45 10.5z" />
    <glyph glyph-name="j" unicode="j" horiz-adv-x="458" 
d="M366 1013l-134 -1088q-7 -61 -30 -113.5t-60.5 -91.5t-90.5 -61.5t-120 -22.5q-35 0 -59.5 5t-48.5 15l18 96q3 9 7.5 13.5t12 5.5t19 0.5t28.5 -0.5q71 0 105 36.5t45 117.5l133 1088h175zM429 1331q0 -26 -10.5 -48.5t-28 -40t-39.5 -27.5t-46 -10t-45.5 10t-38 27.5
t-26.5 40t-10 48.5t10 49t27 40.5t38.5 28t45.5 10.5t46 -10t39.5 -27.5t27.5 -41t10 -49.5z" />
    <glyph glyph-name="uni0237" unicode="&#x237;" horiz-adv-x="458" 
d="M366 1013l-134 -1088q-7 -61 -30 -113.5t-60.5 -91.5t-90.5 -61.5t-120 -22.5q-35 0 -59.5 5t-48.5 15l18 96q3 9 7.5 13.5t12 5.5t19 0.5t28.5 -0.5q71 0 105 36.5t45 117.5l133 1088h175z" />
    <glyph glyph-name="k" unicode="k" horiz-adv-x="948" 
d="M413 1473l-106 -867h30q21 0 34 5.5t28 22.5l336 343q14 17 30 26.5t39 9.5h158l-391 -397q-30 -35 -61 -53q16 -12 27.5 -27.5t21.5 -35.5l304 -500h-153q-22 0 -36.5 7.5t-23.5 27.5l-258 415q-12 21 -25 27.5t-41 6.5h-34l-59 -484h-176l181 1473h175z" />
    <glyph glyph-name="kgreenlandic" unicode="&#x138;" horiz-adv-x="947" 
d="M358 1013l-50 -407h30q17 0 31 5t31 23l335 343q14 17 30 26.5t39 9.5h157l-388 -397q-29 -35 -61 -54q15 -12 26 -27.5t21 -34.5l304 -500h-152q-22 0 -36.5 7.5t-23.5 27.5l-259 415q-12 21 -25 27.5t-41 6.5h-33l-60 -484h-176l126 1013h175z" />
    <glyph glyph-name="lslash" unicode="&#x142;" horiz-adv-x="577" 
d="M584 976v-102q0 -33 -28 -44l-152 -68l-93 -762h-175l84 695l-170 -74v105q0 27 25 40l163 73l77 634h175l-69 -567z" />
    <glyph glyph-name="lcaron" unicode="&#x13e;" horiz-adv-x="450" 
d="M667 1473q17 0 22.5 -7.5t5.5 -17.5t-4 -25t-15.5 -43.5t-33 -75.5l-57.5 -120q-11 -22 -26.5 -28.5t-38.5 -6.5h-44l93 324h98zM64 0l179 1473h175l-179 -1473h-175z" />
    <glyph glyph-name="m" unicode="m" horiz-adv-x="1574" 
d="M59 0l122 1014h88q61 0 61 -60l-14 -180q75 125 164.5 189.5t187.5 64.5q103 0 152 -70.5t49 -201.5q75 139 169.5 205.5t199.5 66.5q130 0 184 -100t32 -283l-76 -645h-176l77 645q14 119 -7.5 177t-96.5 58q-43 0 -85.5 -21.5t-82.5 -63t-74.5 -103t-61.5 -141.5v-1
l-65 -550h-176l76 645q15 119 -4 177t-94 58q-48 0 -92.5 -24t-84 -69.5t-73.5 -111t-62 -147.5l-63 -528h-174z" />
    <glyph glyph-name="n" unicode="n" horiz-adv-x="1060" 
d="M314 757q81 134 183 202.5t210 68.5q64 0 112.5 -25.5t79 -74.5t41.5 -120.5t0 -162.5l-76 -645h-177l76 645q14 120 -15 177.5t-107 57.5q-48 0 -97.5 -26t-95.5 -74t-85.5 -115.5t-67.5 -150.5l-58 -514h-178l122 1014h88q60 0 60 -60z" />
    <glyph glyph-name="eng" unicode="&#x14b;" horiz-adv-x="1060" 
d="M314 757q81 134 183 202.5t210 68.5q64 0 112.5 -25.5t79 -74.5t41.5 -120.5t0 -162.5l-66 -570l-10 -78q-10 -83 -36 -150t-69.5 -114t-105 -73t-143.5 -26q-44 0 -74 5t-68 18l15 84q5 22 12.5 30.5t30.5 8.5q11 0 29.5 -5.5t53.5 -5.5q75 0 118.5 50t56.5 158l10 81
l69 587q14 120 -15 177.5t-107 57.5q-48 0 -97.5 -26t-95.5 -74t-85.5 -115.5t-67.5 -150.5l-58 -514h-178l122 1014h88q61 0 60 -60z" />
    <glyph glyph-name="o" unicode="o" horiz-adv-x="1038" 
d="M453 125q73 0 132.5 40t102 106.5t65.5 153.5t23 182q0 140 -55.5 210.5t-159.5 70.5q-74 0 -133.5 -39.5t-101.5 -105.5t-65 -153t-23 -182q0 -140 55 -211.5t160 -71.5zM436 -14q-83 0 -152 28.5t-119 82.5t-78 132t-28 178q0 128 40 241t110 197.5t164.5 133.5
t203.5 49q83 0 152 -28.5t119 -82.5t78 -132t28 -177q0 -127 -40 -240t-109.5 -198t-164.5 -134.5t-204 -49.5z" />
    <glyph glyph-name="oslash" unicode="&#xf8;" horiz-adv-x="1036" 
d="M319 159q56 -45 133 -45q73 0 134.5 38.5t106 105t69 156.5t24.5 193q0 45 -6.5 82.5t-18.5 69.5zM695 855q-56 45 -134 45q-74 0 -135 -38t-105.5 -104.5t-69 -156.5t-24.5 -193q0 -89 26 -155zM873 888q38 -53 59.5 -123t21.5 -157q0 -127 -40 -240t-110 -198
t-164.5 -134.5t-203.5 -49.5q-124 0 -214 61l-36 -49q-22 -30 -51.5 -42.5t-58.5 -12.5h-67l133 181q-40 53 -61.5 124t-21.5 159q0 128 40 241t109.5 198t164 134t204.5 49q124 0 216 -63l33 45q20 28 36 39t48 11h90z" />
    <glyph glyph-name="oe" unicode="&#x153;" horiz-adv-x="1609" 
d="M425 121q78 0 137 35t100.5 98t65 151t30.5 194q4 67 -5 121t-32 92.5t-61 59.5t-91 21q-78 0 -140.5 -38t-106.5 -108t-67.5 -168t-23.5 -219q0 -47 10 -90t33 -76t60 -53t91 -20zM1212 902q-59 0 -110 -23.5t-91 -67.5t-67.5 -107.5t-39.5 -144.5q145 18 236 43t143 54
t71 61.5t19 65.5q0 24 -9.5 45.5t-29.5 38t-50 26t-72 9.5zM895 436q0 -155 60.5 -232.5t169.5 -77.5q48 0 85.5 10t67 24.5t52 32l41.5 32t34.5 24.5t31.5 10q19 0 34 -17l44 -55q-50 -52 -99 -90t-100 -62.5t-106.5 -36.5t-119.5 -12q-104 0 -184.5 58t-118.5 172
q-69 -109 -172 -169.5t-233 -60.5q-81 0 -142 29.5t-101.5 80t-61 116.5t-20.5 138q0 164 42.5 290.5t115.5 213t168.5 131t202.5 44.5t179 -51t107 -142q63 91 155 142t212 51q65 0 117.5 -17.5t89 -49t56.5 -76t20 -97.5q0 -41 -11.5 -79t-39.5 -71.5t-74 -62.5
t-116 -53.5t-165 -43t-221 -31.5v-12z" />
    <glyph glyph-name="p" unicode="p" horiz-adv-x="1057" 
d="M259 222q38 -53 91 -75.5t108 -22.5q52 0 98 22t84 59.5t68 88t50.5 108t31.5 119t11 121.5q0 119 -43 181t-121 62q-48 0 -97 -29.5t-94.5 -82.5t-85 -126t-68.5 -160zM313 738q38 66 83 119.5t95 91.5t103.5 58.5t109.5 20.5q130 0 201.5 -94t71.5 -275q0 -82 -17 -164
t-48.5 -156.5t-76 -139t-99 -112t-118.5 -74.5t-134 -27q-75 0 -136 29.5t-104 83.5l-54 -442h-173l165 1357h88q60 0 60 -60z" />
    <glyph glyph-name="thorn" unicode="&#xfe;" horiz-adv-x="1057" 
d="M259 223q38 -54 91 -76.5t108 -22.5q52 0 98 22t84 59.5t68 88t50.5 108t31.5 119t11 121.5q0 119 -43 181t-121 62q-48 0 -97 -30t-94.5 -83t-85.5 -126t-69 -159zM325 758q38 61 81.5 111t91.5 85.5t100 54.5t106 19q130 0 201.5 -94t71.5 -275q0 -82 -17 -164
t-48.5 -156.5t-76 -139t-99 -112t-118.5 -74.5t-134 -27q-75 0 -136.5 29.5t-103.5 83.5l-47 -378q-3 -26 -22.5 -45t-49.5 -19h-108l221 1816h175z" />
    <glyph glyph-name="q" unicode="q" horiz-adv-x="1023" 
d="M754 889q-22 5 -43.5 6.5t-42.5 1.5q-61 0 -117 -19.5t-105 -54.5t-89 -83.5t-68.5 -106.5t-44.5 -123.5t-16 -134.5q0 -120 39.5 -180.5t115.5 -60.5q48 0 95 30t89 83.5t78 127t64 160.5zM672 244q-35 -59 -75.5 -106.5t-85 -81.5t-93.5 -52t-102 -18q-60 0 -109 23.5
t-84 69t-54 112t-19 152.5q0 90 22.5 175.5t64 161.5t100 139.5t130 110t153.5 72t172 25.5q65 0 126 -10.5t121 -36.5l-163 -1323h-112q-18 0 -30 6.5t-18.5 17t-8.5 24.5t0 28z" />
    <glyph glyph-name="r" unicode="r" horiz-adv-x="684" 
d="M313 731q40 85 86.5 147.5t97.5 98t105 43t110 -16.5l-32 -171q-130 52 -229.5 -38t-161.5 -325l-56 -469h-174l122 1014h88q61 0 61 -60z" />
    <glyph glyph-name="s" unicode="s" horiz-adv-x="800" 
d="M712 851q-8 -12 -16 -17.5t-20 -5.5q-14 0 -30.5 11t-40 24.5t-57.5 25t-82 11.5q-45 0 -82 -12.5t-63.5 -34.5t-41 -51.5t-14.5 -62.5q0 -47 31 -75t78 -48.5t101 -39.5t101 -48t78 -74t31 -117q0 -70 -27.5 -134t-79 -112.5t-124 -77.5t-162.5 -29q-97 0 -171.5 34.5
t-121.5 88.5l44 68q9 13 19.5 20t27.5 7q16 0 32 -14t40 -31.5t60.5 -31.5t92.5 -14q49 0 88.5 15t67 40t42 58.5t14.5 71.5q0 51 -31 81t-78 50t-101 37.5t-101 45t-78 71.5t-31 117q0 64 25.5 123.5t73.5 105.5t116.5 73.5t154.5 27.5q91 0 160.5 -30.5t119.5 -82.5z" />
    <glyph glyph-name="scedilla" unicode="&#x15f;" horiz-adv-x="800" 
d="M43 175q9 13 19.5 20t27.5 7q16 0 32 -14t40 -31.5t60.5 -31.5t92.5 -14q49 0 88.5 15t67 40t42 58.5t14.5 71.5q0 51 -31 81t-78 50t-101 37.5t-101 45t-78 71.5t-31 117q0 64 25.5 123.5t73.5 105.5t116.5 73.5t154.5 27.5q91 0 160.5 -30.5t119.5 -82.5l-45 -64
q-8 -12 -16 -17.5t-20 -5.5q-14 0 -30.5 11t-40 24.5t-57.5 25t-82 11.5q-45 0 -82 -12.5t-63.5 -34.5t-41 -51.5t-14.5 -62.5q0 -47 31 -75t78 -48.5t101 -39.5t101 -48t78 -74t31 -117q0 -65 -24 -124.5t-68 -107t-107.5 -79t-142.5 -39.5l-24 -63q76 -17 110.5 -48.5
t34.5 -77.5q0 -36 -16.5 -65t-46.5 -49t-71 -30.5t-89 -10.5q-38 0 -71 8.5t-60 22.5l24 55q7 18 25 18q6 0 12.5 -3.5l15.5 -8t22 -8t32 -3.5q40 0 61 19t21 48q0 34 -35.5 48.5t-100.5 23.5l54 124q-79 8 -140 40.5t-102 79.5z" />
    <glyph glyph-name="s_t.dlig" horiz-adv-x="1519" 
d="M712 851q-8 -12 -16 -17.5t-20 -5.5q-14 0 -30.5 11t-40 24.5t-57.5 25t-82 11.5q-45 0 -82 -12.5t-63.5 -34.5t-41 -51.5t-14.5 -62.5q0 -47 31 -75t78 -48.5t101 -39.5t101 -48t78 -74t31 -117q0 -70 -27.5 -134t-79 -112.5t-124 -77.5t-162.5 -29q-97 0 -171.5 34.5
t-121.5 88.5l44 68q9 13 19.5 20t27.5 7q16 0 32 -14t40 -31.5t60.5 -31.5t92.5 -14q49 0 88.5 15t67 40t42 58.5t14.5 71.5q0 51 -31 81t-78 50t-101 37.5t-101 45t-78 71.5t-31 117q0 64 25.5 123.5t73.5 105.5t116.5 73.5t154.5 27.5q31 0 59.5 -4t54.5 -11
q-25 60 -30 124t9 125t46 115.5t81 96t115 65.5t148 24q84 0 142.5 -26t93.5 -70.5t47.5 -103.5t4.5 -124l-34 -263h265l-15 -125h-265l-60 -485l-8 -66t-4.5 -40t-2 -21t-0.5 -9q0 -51 24 -75.5t65 -24.5q26 0 46 7.5t34.5 16.5t24.5 16.5t18 7.5t12.5 -4t9.5 -13l37 -85
q-48 -43 -110.5 -67.5t-125.5 -24.5q-97 0 -153 53t-58 154q0 6 0.5 15.5t2 27.5t4.5 47t9 76l61 494h-110q-14 0 -22.5 9.5t-6.5 29.5l9 67l151 19l69 228q22 67 20.5 120t-23.5 89.5t-63 56t-97 19.5q-74 0 -132 -27t-98 -72t-60 -104t-17 -123t30 -128t82 -120z" />
    <glyph glyph-name="glyph121" horiz-adv-x="1519" 
d="M712 851q-8 -12 -16 -17.5t-20 -5.5q-14 0 -30.5 11t-40 24.5t-57.5 25t-82 11.5q-45 0 -82 -12.5t-63.5 -34.5t-41 -51.5t-14.5 -62.5q0 -47 31 -75t78 -48.5t101 -39.5t101 -48t78 -74t31 -117q0 -59 -19.5 -113.5t-56.5 -100t-90 -78.5t-119 -48l-28 -73
q76 -17 110.5 -48.5t34.5 -77.5q0 -36 -16.5 -65t-46.5 -49t-71 -30.5t-89 -10.5q-38 0 -71 8.5t-60 22.5l24 55q7 18 25 18q6 0 12.5 -3.5l15.5 -8t22 -8t32 -3.5q40 0 61 19t21 48q0 34 -35.5 48.5t-100.5 23.5l53 121h-1q-97 0 -171.5 34.5t-121.5 88.5l44 68
q9 13 19.5 20t27.5 7q16 0 32 -14t40 -31.5t60.5 -31.5t92.5 -14q49 0 88.5 15t67 40t42 58.5t14.5 71.5q0 51 -31 81t-78 50t-101 37.5t-101 45t-78 71.5t-31 117q0 64 25.5 123.5t73.5 105.5t116.5 73.5t154.5 27.5q31 0 59.5 -4t54.5 -11q-25 60 -30 124t9 125t46 115.5
t81 96t115 65.5t148 24q84 0 142.5 -26t93.5 -70.5t47.5 -103.5t4.5 -124l-34 -263h265l-15 -125h-265l-60 -485l-8 -66t-4.5 -40t-2 -21t-0.5 -9q0 -51 24 -75.5t65 -24.5q26 0 46 7.5t34.5 16.5t24.5 16.5t18 7.5t12.5 -4t9.5 -13l37 -85q-48 -43 -110.5 -67.5
t-125.5 -24.5q-97 0 -153 53t-58 154q0 6 0.5 15.5t2 27.5t4.5 47t9 76l61 494h-110q-14 0 -22.5 9.5t-6.5 29.5l9 67l151 19l69 228q22 67 20.5 120t-23.5 89.5t-63 56t-97 19.5q-74 0 -132 -27t-98 -72t-60 -104t-17 -123t30 -128t82 -120z" />
    <glyph glyph-name="germandbls" unicode="&#xdf;" horiz-adv-x="1158" 
d="M249 991q23 92 70.5 175.5t113.5 147.5t148 101.5t175 37.5q88 0 151.5 -27t103.5 -68.5t59 -92t19 -97.5q0 -68 -23.5 -116t-58 -84t-75.5 -63t-75.5 -52.5t-58 -53.5t-23.5 -66q0 -35 21.5 -58.5t53.5 -44t69.5 -42t69.5 -52t53.5 -74.5t21.5 -109q0 -86 -31 -154.5
t-83.5 -116t-123 -73t-148.5 -25.5q-90 0 -159 34.5t-118 88.5l48 66q9 12 20.5 19t28.5 7t34 -14.5t40 -31.5t55 -31.5t80 -14.5q42 0 77.5 15.5t61 42.5t39.5 63.5t14 78.5q0 48 -23 79.5t-57 54.5t-74 43t-74 46t-57 62t-23 92q0 62 24.5 106t61.5 78.5t80 63.5t80 61
t61.5 72t24.5 96q0 28 -10 57.5t-33 53.5t-59.5 39t-88.5 15q-62 0 -116.5 -33.5t-97 -91.5t-71.5 -134.5t-39 -161.5l-107 -872l-47 -207q-11 -36 -32.5 -55.5t-59.5 -19.5h-70l136 1112l-109 13q-21 5 -32.5 15t-7.5 29l7 71h163z" />
    <glyph glyph-name="longs" unicode="&#x17f;" horiz-adv-x="540" 
d="M255 1091q11 87 42 154.5t79 113.5t111 70t137 24q32 0 60.5 -5.5t53.5 -15.5l-16 -88q-2 -10 -9 -14t-18.5 -5t-26 0t-31.5 1q-42 0 -76.5 -13t-61 -41.5t-44.5 -74t-26 -111.5l-128 -1053l-47 -207q-11 -36 -32.5 -55.5t-59.5 -19.5h-70l135 1112l-108 13
q-21 5 -32.5 15t-7.5 29l7 71h157z" />
    <glyph glyph-name="t" unicode="t" horiz-adv-x="709" 
d="M139 191v15.5t1.5 27.5t5 47l9.5 76l62 507h-113q-14 0 -22.5 9.5t-6.5 29.5l8 71l156 21l76 313q5 15 15.5 24.5t26.5 9.5h93l-43 -349h266l-15 -129h-267l-61 -498l-8 -66t-4.5 -40t-2 -21t-0.5 -9q0 -51 24 -75.5t64 -24.5q27 0 46.5 7.5t34.5 16.5t25 16.5t17 7.5
q9 0 13.5 -4t8.5 -13l38 -85q-49 -43 -111.5 -67.5t-125.5 -24.5q-97 0 -152.5 53t-57.5 154z" />
    <glyph glyph-name="tcaron" unicode="&#x165;" horiz-adv-x="709" 
d="M742 1473q17 0 22.5 -7.5t5.5 -17.5t-3.5 -25t-15 -43.5t-33 -75.5l-57.5 -120q-12 -22 -27 -28.5t-39 -6.5h-43l93 324h97zM139 191v15.5t1.5 27.5t5 47l9.5 76l62 507h-113q-14 0 -22.5 9.5t-6.5 29.5l8 71l156 21l76 313q5 15 15.5 24.5t26.5 9.5h93l-43 -349h266
l-15 -129h-267l-61 -498l-8 -66t-4.5 -40t-2 -21t-0.5 -9q0 -51 24 -75.5t64 -24.5q27 0 46.5 7.5t34.5 16.5t25 16.5t17 7.5q9 0 13.5 -4t8.5 -13l38 -85q-49 -43 -111.5 -67.5t-125.5 -24.5q-97 0 -152.5 53t-57.5 154z" />
    <glyph glyph-name="tbar" unicode="&#x167;" horiz-adv-x="719" 
d="M148 191v15.5t1.5 27.5t5 47l9.5 76l27 222h-118q-16 0 -26.5 10.5t-8.5 30.5l10 72h157l21 172h-113q-14 0 -22.5 9.5t-6.5 29.5l8 71l156 21l76 313q5 15 15.5 24.5t26.5 9.5h93l-43 -349h266l-15 -129h-267l-21 -172h256l-15 -113h-255l-26 -213l-8 -66t-4.5 -40
t-2 -21t-0.5 -9q0 -51 24 -75.5t64 -24.5q27 0 46.5 7.5t34.5 16.5t25 16.5t17 7.5q9 0 13.5 -4t8.5 -13l38 -85q-49 -43 -111.5 -67.5t-125.5 -24.5q-97 0 -152.5 53t-57.5 154z" />
    <glyph glyph-name="u" unicode="u" horiz-adv-x="1059" 
d="M975 1013l-122 -1013h-88q-65 0 -65 64l15 185q-80 -130 -180.5 -196.5t-206.5 -66.5q-64 0 -113 25.5t-79.5 74.5t-41.5 120t1 163l76 644h177l-76 -644q-14 -119 14.5 -177t107.5 -58q46 0 95 25t94 71t84.5 111.5t67.5 145.5l63 526h177z" />
    <glyph glyph-name="uogonek" unicode="&#x173;" horiz-adv-x="1059" 
d="M830 0q-21 -12 -43.5 -28.5t-40.5 -37.5t-30 -46t-12 -53q0 -32 19 -51t51 -19q20 0 34 3.5t23.5 8t15.5 8.5t11 4q12 0 16 -13l20 -66q-32 -23 -76.5 -37.5t-92.5 -14.5q-78 0 -119.5 35t-41.5 93q0 66 46.5 122.5t118.5 98.5q-29 15 -29 57l15 185
q-80 -130 -180.5 -196.5t-206.5 -66.5q-64 0 -113 25.5t-79.5 74.5t-41.5 120t1 163l76 644h177l-76 -644q-14 -119 14.5 -177t107.5 -58q46 0 95 25t94 71t84.5 111.5t67.5 145.5l63 526h177l-122 -1013h-23z" />
    <glyph glyph-name="v" unicode="v" horiz-adv-x="958" 
d="M988 1013l-508 -1013h-148l-262 1013h144q20 0 32 -11t16 -26l150 -652q6 -38 10 -75t7 -75q11 37 24 74t30 76l313 652q8 16 22 26.5t32 10.5h138z" />
    <glyph glyph-name="w" unicode="w" horiz-adv-x="1446" 
d="M1463 1013l-425 -1013h-135q-24 0 -30 34l-123 687q-2 17 -3.5 32.5t-3.5 32.5q-11 -33 -24 -66l-292 -686q-14 -34 -41 -34h-130l-178 1013h133q20 0 32 -10t16 -27l93 -652l4 -68t3 -65q11 32 24 65l27 68l277 656q5 15 19 25t31 10h74q19 0 30 -10t13 -25l114 -656
q5 -35 9 -67.5t7 -65.5q9 32 19.5 65l22.5 68l257 652q5 16 19.5 26.5t31.5 10.5h129z" />
    <glyph glyph-name="x" unicode="x" horiz-adv-x="928" 
d="M571 544l269 -544h-158q-20 0 -31.5 10t-18.5 25l-190 406q-9 -21 -21 -39l-276 -368q-11 -14 -23 -24t-30 -10h-155l409 545l-243 468h159q20 0 29 -5.5t15 -19.5l170 -349q11 22 25 43l229 303q16 28 42 28h160z" />
    <glyph glyph-name="y" unicode="y" horiz-adv-x="959" 
d="M992 1013l-684 -1315q-11 -21 -25.5 -31t-36.5 -10h-131l220 403l-263 953h147q22 0 32 -10.5t15 -26.5l163 -638q5 -21 8 -42t5 -42l18 42.5t19 42.5l320 639q8 16 22.5 25.5t29.5 9.5h141z" />
    <glyph glyph-name="z" unicode="z" horiz-adv-x="848" 
d="M836 1013l-10 -76q-2 -19 -10.5 -36.5t-19.5 -31.5l-584 -730h499l-16 -139h-713l9 74q1 13 9 31t21 33l587 735h-491l17 140h702z" />
    <glyph glyph-name="ordfeminine" unicode="&#xaa;" horiz-adv-x="685" 
d="M500 1103q-66 -2 -111.5 -11t-74 -24.5t-41.5 -36.5t-13 -47q0 -34 21 -49t53 -15q46 0 81.5 19t71.5 54zM213 1353q54 50 114 73t128 23q49 0 85.5 -18.5t59.5 -50t32.5 -73t3.5 -86.5l-47 -381h-58q-17 0 -24.5 5.5t-14.5 22.5l-5 49q-25 -21 -48 -37t-47 -27
t-50.5 -16.5t-57.5 -5.5q-64 0 -105 34.5t-41 102.5q0 40 18.5 77.5t62 67.5t114.5 49t177 21l4 38q5 57 -14 91t-73 34q-35 0 -59 -9t-42 -19.5l-32.5 -19.5t-29.5 -9q-14 0 -21.5 7.5t-12.5 16.5z" />
    <glyph glyph-name="ordmasculine" unicode="&#xba;" horiz-adv-x="751" 
d="M478 1448q58 0 104.5 -18.5t78.5 -53t49.5 -83t17.5 -108.5q0 -82 -24 -148t-66.5 -112.5t-102.5 -71.5t-132 -25q-59 0 -106 18.5t-79.5 53t-50 83.5t-17.5 109q0 81 24 147t67.5 112.5t104 71.5t132.5 25zM416 931q90 0 134 68.5t44 185.5q0 75 -32 117.5t-96 42.5
q-50 0 -84.5 -19t-56 -52.5t-31.5 -80.5t-10 -103q0 -75 32.5 -117t99.5 -42z" />
    <glyph glyph-name="ordfeminine.case" horiz-adv-x="755" 
d="M510 1067l-37 181l-4 22.5t-3 24.5q-8 -24 -20 -47l-82 -181h146zM682 841h-96q-27 0 -34 25l-23 110h-206l-50 -110q-5 -10 -15 -17.5t-24 -7.5h-98l290 591h112z" />
    <glyph glyph-name="a.superior" horiz-adv-x="513" 
d="M154 1360q93 81 211 81q42 0 73.5 -14.5t51.5 -41t27.5 -63.5t1.5 -81l-1 -13h-1l-38 -313h-55q-17 0 -25 5t-13 21l-6 36q-40 -34 -76.5 -52t-87.5 -18q-57 0 -91 30t-34 89q0 33 14.5 65.5t49.5 58t94 42.5t148 19l2 17v1l1 7l1 5q7 52 -10 77t-53 25q-27 0 -46 -7
t-33.5 -16t-27 -16t-27.5 -7q-12 0 -20 6.5t-13 16.5zM388 1135q-51 -2 -85 -9.5t-55 -19t-30 -28t-9 -36.5q0 -26 15.5 -38.5t39.5 -12.5q33 0 59.5 14t54.5 42z" />
    <glyph glyph-name="b.superior" horiz-adv-x="571" 
d="M253 1047q17 -25 37 -35t46 -10q57 0 95 54.5t38 170.5q0 60 -20.5 88t-58.5 28q-30 0 -55.5 -15t-52.5 -46zM293 1370q32 32 69.5 51t84.5 19q67 0 107.5 -55t40.5 -155q0 -70 -18.5 -129t-51 -102t-77 -67.5t-96.5 -24.5q-45 0 -71 19t-46 51l-7 -38q-5 -14 -12.5 -19
t-20.5 -5h-80l92 749h122z" />
    <glyph glyph-name="c.superior" horiz-adv-x="492" 
d="M506 1322q-7 -7 -12 -10.5t-16 -3.5q-9 0 -16.5 6t-18 12.5t-25.5 12.5t-38 6q-65 0 -102.5 -53.5t-37.5 -155.5q0 -63 25 -98.5t70 -35.5q27 0 44 7.5t29.5 16t22 16t20.5 7.5q16 0 21 -12l30 -45q-47 -49 -98.5 -67t-102.5 -18q-40 0 -74 15.5t-59 44.5t-39 70.5
t-14 94.5q0 65 18 121.5t52.5 98t84.5 65t114 23.5q54 0 92.5 -19t66.5 -54z" />
    <glyph glyph-name="d.superior" horiz-adv-x="571" 
d="M455 1301q-15 26 -36 36t-45 10q-58 0 -96 -54.5t-38 -169.5q0 -62 21 -90t61 -28q30 0 55 15t49 44zM622 1664l-92 -749h-75q-24 0 -27 22l-1 53q-34 -37 -74 -60t-91 -23q-68 0 -107.5 55.5t-39.5 155.5q0 70 18 129.5t50.5 102.5t76.5 67t97 24q39 0 64.5 -12.5
t45.5 -35.5l33 271h122z" />
    <glyph glyph-name="e.superior" horiz-adv-x="534" 
d="M454 1233q6 49 -13.5 83.5t-69.5 34.5q-47 0 -80 -29.5t-47 -88.5h210zM234 1158v-14q0 -71 29 -105.5t80 -34.5q27 0 47.5 7t36.5 15.5l28.5 15.5t23.5 7q15 0 21 -12l29 -45q-23 -24 -49 -40.5t-53 -26.5t-54.5 -14t-52.5 -4q-45 0 -82.5 15.5t-64.5 45t-42.5 72.5
t-15.5 99q0 63 19 118t54 95.5t83.5 64t107.5 23.5q84 0 133.5 -52.5t49.5 -146.5q0 -27 -2.5 -43.5t-7 -25.5t-11 -11.5t-15.5 -2.5h-292z" />
    <glyph glyph-name="f.superior" horiz-adv-x="370" 
d="M210 1466q11 90 65.5 140.5t139.5 50.5q17 0 32 -2.5t29 -7.5l-10 -62q-3 -14 -13.5 -18t-32.5 -4q-37 0 -60.5 -21.5t-31.5 -80.5l-4 -34h121l-12 -88h-116l-52 -424h-122l52 424l-39 6q-13 3 -21 10t-6 21l7 51h69z" />
    <glyph glyph-name="g.superior" horiz-adv-x="533" 
d="M319 1185q44 0 67.5 26.5t23.5 72.5q0 32 -17.5 51t-53.5 19q-44 0 -67.5 -26.5t-23.5 -72.5q0 -30 17.5 -50t53.5 -20zM408 899q0 19 -17 28t-43.5 12t-59 3.5t-62.5 4.5q-21 -12 -34.5 -29t-13.5 -40q0 -26 24 -44t79 -18q60 0 93.5 24t33.5 59zM593 1414l-6 -47
q-3 -21 -30 -27l-44 -8q5 -20 5 -39q0 -43 -16.5 -77.5t-45 -59t-66.5 -37.5t-81 -13q-14 0 -26 1.5t-24 3.5q-25 -17 -25 -36t21.5 -25t53.5 -7.5t70 -3.5t70 -11.5t53.5 -32t21.5 -64.5q0 -38 -18 -73.5t-51.5 -63.5t-81 -44.5t-106.5 -16.5q-51 0 -88 10.5t-61.5 27.5
t-36 40t-11.5 47q0 41 23 68t64 43q-15 10 -23.5 24.5t-8.5 37.5q0 29 19 58t57 46q-30 19 -47 49.5t-17 69.5q0 43 16.5 77.5t45.5 59t68 37.5t83 13q30 0 56.5 -7t46.5 -20h140z" />
    <glyph glyph-name="h.superior" horiz-adv-x="570" 
d="M294 1378q31 28 65.5 45t79.5 17q39 0 67 -14.5t45.5 -40.5t23.5 -62.5t1 -79.5l-41 -328h-121l40 328q6 48 -10 74t-54 26q-29 0 -55 -14t-51 -38l-46 -376h-123l93 749h121z" />
    <glyph glyph-name="i.superior" horiz-adv-x="274" 
d="M297 1411l-61 -496h-122l61 496h122zM336 1591q0 -18 -7.5 -33.5t-19.5 -27.5t-28 -19t-33 -7q-29 0 -47.5 21t-18.5 50q0 18 7 34t19 27.5t27 18.5t32 7q29 0 49 -20.5t20 -50.5z" />
    <glyph glyph-name="j.superior" horiz-adv-x="274" 
d="M296 1411l-63 -514q-4 -34 -16 -63.5t-33 -52t-52.5 -35.5t-74.5 -13q-32 0 -59 10l13 66q2 11 8.5 13.5t23.5 2.5q35 0 49.5 16t19.5 56l63 514h121zM335 1591q0 -18 -7.5 -33.5t-19.5 -27.5t-28 -19t-33 -7q-29 0 -47.5 21t-18.5 50q0 18 7 34t19 27.5t27.5 18.5
t32.5 7q29 0 48.5 -20.5t19.5 -50.5z" />
    <glyph glyph-name="k.superior" horiz-adv-x="543" 
d="M453 1240q-16 -23 -42 -38q20 -10 29 -36l123 -251h-110q-14 0 -25 4t-14 18l-90 196q-3 13 -10.5 16t-21.5 3h-26l-29 -237h-122l92 749h122l-53 -430h21q12 0 19.5 3t15.5 14l131 159q13 22 44 22h111z" />
    <glyph glyph-name="l.superior" horiz-adv-x="277" 
d="M328 1664l-92 -749h-121l92 749h121z" />
    <glyph glyph-name="m.superior" horiz-adv-x="825" 
d="M277 1364q30 32 64 54t79 22t70.5 -25.5t34.5 -68.5q29 50 74 72t90 22q80 0 116.5 -51.5t24.5 -145.5l-40 -328h-121l40 328q12 100 -63 100q-33 0 -59.5 -25.5t-32.5 -74.5l-41 -328h-121l41 328q5 48 -9.5 74t-52.5 26q-23 0 -45 -12t-42 -34l-47 -382h-122l63 517h75
q22 0 25 -24z" />
    <glyph glyph-name="uni207F" unicode="&#x207f;" horiz-adv-x="597" 
d="M274 1358q38 36 80.5 59t99.5 23q42 0 72.5 -14.5t49.5 -41t25.5 -62.5t1.5 -79l-40 -328h-122l40 328q6 48 -12.5 74t-63.5 26q-33 0 -63.5 -14.5t-59.5 -40.5l-46 -373h-121l63 517h64q25 0 30 -26z" />
    <glyph glyph-name="o.superior" horiz-adv-x="573" 
d="M389 1440q48 0 86.5 -16t65.5 -45.5t41.5 -71t14.5 -92.5q0 -70 -20.5 -127t-57 -97t-86.5 -62t-110 -22q-48 0 -86.5 16t-65.5 45.5t-41.5 71.5t-14.5 93q0 70 20.5 127t56.5 97t86.5 61.5t110.5 21.5zM334 1003q64 0 100.5 52.5t36.5 161.5q0 60 -23 94t-71 34
q-64 0 -101 -53t-37 -162q0 -60 23.5 -93.5t71.5 -33.5z" />
    <glyph glyph-name="p.superior" horiz-adv-x="570" 
d="M253 1047q16 -25 37 -35t45 -10q29 0 53.5 13.5t42.5 41t28 69.5t10 100q0 61 -20.5 89t-55.5 28t-60.5 -15.5t-50.5 -44.5zM280 1357q35 38 75 61t92 23q68 0 107.5 -55.5t39.5 -155.5q0 -70 -18.5 -129t-50.5 -102t-76.5 -67.5t-96.5 -24.5q-40 0 -65.5 13t-44.5 36
l-26 -210h-122l84 686h75q25 0 28 -23z" />
    <glyph glyph-name="q.superior" horiz-adv-x="570" 
d="M456 1301q-16 25 -36.5 35.5t-45.5 10.5q-63 0 -98.5 -57t-35.5 -164q0 -63 21.5 -92t56.5 -29q32 0 57.5 16t50.5 45zM593 1432l-84 -686h-122l29 232q-32 -32 -70 -51.5t-84 -19.5q-68 0 -107.5 55.5t-39.5 155.5q0 70 18 129.5t50.5 102.5t76.5 67t97 24
q45 0 72.5 -16.5t47.5 -45.5l9 30q9 23 33 23h74z" />
    <glyph glyph-name="r.superior" horiz-adv-x="383" 
d="M280 1340q29 48 62.5 74.5t75.5 26.5q33 0 51 -15l-19 -94q-7 -16 -22 -16q-8 0 -21 2.5t-26 2.5q-36 0 -60 -22.5t-44 -62.5l-39 -321h-122l63 517h72q18 0 24 -7t8 -25z" />
    <glyph glyph-name="s.superior" horiz-adv-x="449" 
d="M457 1331q-11 -15 -25 -15q-9 0 -18 5l-20.5 11.5t-26.5 11.5t-36 5q-37 0 -56.5 -17.5t-19.5 -44.5q0 -20 15 -31.5t38 -21t49.5 -18.5t49.5 -24t38 -37.5t15 -58.5q0 -40 -14.5 -74.5t-42 -60t-67.5 -40t-92 -14.5q-49 0 -91.5 17.5t-67.5 45.5l34 47q13 18 33 18
q11 0 20 -6.5l20 -14.5t27 -14.5t42 -6.5q42 0 62 21.5t20 48.5q0 21 -15.5 33t-38 21t-49.5 18t-49.5 24t-38 39t-15.5 63q0 36 13.5 68.5t39 57t63.5 39t87 14.5q50 0 89 -17.5t62 -46.5z" />
    <glyph glyph-name="t.superior" horiz-adv-x="399" 
d="M280 1058q-3 -24 5.5 -37.5t26.5 -13.5q20 0 30 8.5t18 8.5q6 0 9 -2.5t6 -8.5l30 -60q-29 -23 -64 -34.5t-70 -11.5q-63 0 -92.5 38t-21.5 105l35 289h-46q-10 0 -16 6.5t-4 18.5l6 50l77 13l44 142q6 21 29 21h63l-20 -163h126l-11 -88h-126z" />
    <glyph glyph-name="u.superior" horiz-adv-x="570" 
d="M594 1432l-63 -517h-75q-22 0 -28 22l-1 43q-33 -32 -70 -52.5t-86 -20.5q-39 0 -67.5 14.5t-46 40.5t-23.5 62t-1 79l41 329h121l-40 -329q-6 -48 10 -74t54 -26q28 0 54.5 14t51.5 38l47 377h122z" />
    <glyph glyph-name="v.superior" horiz-adv-x="504" 
d="M596 1432l-251 -517h-111l-125 517h101q14 0 22 -6.5t10 -17.5l55 -277q3 -26 4.5 -50t3.5 -47l16 48t18 50l124 276q5 11 15 17.5t21 6.5h97z" />
    <glyph glyph-name="w.superior" horiz-adv-x="784" 
d="M128 1432h100q14 0 22.5 -7.5t8.5 -21.5l33 -270q1 -23 2 -43.5t3 -40.5q13 39 31 84l109 273q10 27 36 27h49q27 0 32 -28l40 -272l4 -42.5l4 -40.5l26 82l102 272q5 14 15 21t22 7h95l-217 -517h-95q-16 0 -20 22l-46 300q-4 26 -6 55q-4 -14 -9 -28.5l-10 -28.5
l-121 -298q-10 -22 -30 -22h-93z" />
    <glyph glyph-name="x.superior" horiz-adv-x="533" 
d="M418 1188l131 -273h-117q-14 0 -21 7t-12 16l-76 178q-3 -8 -6.5 -15t-7.5 -13l-103 -150q-6 -9 -15 -16t-21 -7h-109l196 267l-126 250h118q13 0 18.5 -4t9.5 -13l78 -171q3 8 7 16t9 17l93 136q12 19 30 19h111z" />
    <glyph glyph-name="y.superior" horiz-adv-x="505" 
d="M600 1432l-336 -652q-11 -19 -20.5 -26.5t-26.5 -7.5h-91l116 208l-134 478h107q14 0 21.5 -7t9.5 -17l63 -268q6 -27 9 -54q5 14 11.5 28l12.5 28l127 266q5 11 15 17.5t22 6.5h94z" />
    <glyph glyph-name="z.superior" horiz-adv-x="461" 
d="M518 1432l-7 -52q-2 -13 -7.5 -26t-16.5 -24l-258 -320h231l-12 -95h-370l6 52q1 8 7 20t19 26l258 324h-225l11 95h364z" />
    <glyph glyph-name="grave" unicode="`" 
d="M439 1449q30 0 44 -10.5t24 -33.5l109 -242h-93q-19 0 -30.5 6.5t-22.5 21.5l-186 258h155z" />
    <glyph glyph-name="grave.case" 
d="M424 1852q30 0 45 -5t29 -27l178 -274h-118q-20 0 -31.5 2.5t-22.5 16.5l-255 287h175z" />
    <glyph glyph-name="acute" unicode="&#xb4;" 
d="M799 1449l-244 -258q-14 -15 -27 -21.5t-32 -6.5h-98l163 242q15 23 31.5 33.5t46.5 10.5h160z" />
    <glyph glyph-name="acute.case" 
d="M934 1852l-331 -286q-17 -14 -29.5 -17t-32.5 -3h-116l244 274q18 22 34 27t46 5h185z" />
    <glyph glyph-name="circumflex" unicode="&#x2c6;" 
d="M781 1169h-110q-10 0 -19.5 4t-18.5 15l-99 132q-3 5 -6.5 9.5t-6.5 9.5q-5 -5 -9 -10t-8 -9l-130 -132q-19 -19 -42 -19h-114l235 264h152z" />
    <glyph glyph-name="circumflex.case" 
d="M838 1546h-120q-11 0 -26 4.5t-28 24.5l-92 141q-2 5 -4.5 8.5t-4.5 8.5q-3 -7 -12 -17l-124 -141q-18 -20 -33.5 -24.5t-26.5 -4.5h-116l251 271h147z" />
    <glyph glyph-name="caron" unicode="&#x2c7;" 
d="M811 1433l-235 -264h-153l-176 264h114q11 0 20.5 -5t14.5 -10l103 -136q3 -5 6.5 -10t6.5 -10q5 5 9 10t9 10l133 136q7 5 17.5 10t20.5 5h110z" />
    <glyph glyph-name="caron.case" 
d="M868 1817l-250 -271h-152l-188 271h119q11 0 25.5 -3t25.5 -20l95 -151q2 -5 4 -9l4 -8l6 8l7 9l128 150q14 18 30 21t27 3h119z" />
    <glyph glyph-name="uni0315" unicode="&#x315;" 
d="M626 1475q17 0 23 -8.5t6 -17.5t-3.5 -23.5t-15.5 -43t-34 -76l-58 -122.5q-12 -22 -28 -29t-40 -7h-62l93 327h119z" />
    <glyph glyph-name="tilde" unicode="&#x2dc;" 
d="M619 1325q67 0 79 86h100q-5 -47 -21 -86.5t-41 -67.5t-56.5 -43.5t-68.5 -15.5q-32 0 -58.5 14.5t-49.5 31.5l-43.5 31.5t-41.5 14.5q-67 0 -78 -88h-102q5 48 21.5 87.5t41.5 68t57 44t68 15.5q33 0 59 -14.5t49 -31.5l43.5 -31.5t41.5 -14.5z" />
    <glyph glyph-name="tilde.case" 
d="M671 1663q21 0 38 8.5t29.5 23t20 32.5t9.5 36h101q-5 -43 -20.5 -82.5t-40 -70t-58 -48.5t-73.5 -18q-41 0 -72 16.5t-57 36l-49 36t-48 16.5q-21 0 -38 -9t-29.5 -23.5t-20 -32.5t-9.5 -36h-103q5 43 21 83t41 70.5t58 48.5t73 18q42 0 73.5 -16.5t57 -36l48.5 -36
t48 -16.5z" />
    <glyph glyph-name="dieresis.case" 
d="M475 1663q0 -23 -9 -43t-25 -35t-36.5 -23.5t-43.5 -8.5q-22 0 -42 8.5t-35.5 23.5t-24.5 35t-9 43q0 24 9 44.5t24.5 36.5t35.5 25t42 9q23 0 43.5 -9t36.5 -25t25 -36.5t9 -44.5zM855 1663q0 -23 -9 -43t-24.5 -35t-36 -23.5t-43.5 -8.5t-43.5 8.5t-35.5 23.5t-24 35
t-9 43q0 24 9 44.5t24 36.5t35.5 25t43.5 9t43.5 -9t36 -25t24.5 -36.5t9 -44.5z" />
    <glyph glyph-name="macron" unicode="&#xaf;" 
d="M256 1348h528l-13 -117h-529z" />
    <glyph glyph-name="macron" unicode="&#x2c9;" 
d="M256 1348h528l-13 -117h-529z" />
    <glyph glyph-name="macron.case" 
d="M303 1694h512l-12 -105h-513z" />
    <glyph glyph-name="breve" unicode="&#x2d8;" 
d="M499 1164q-70 0 -116 21.5t-71.5 58t-33 85.5t-1.5 104h117q-4 -33 -1 -61.5t16.5 -48.5t38.5 -31.5t64 -11.5t66.5 11.5t45.5 31.5t27.5 48.5t13.5 61.5h116q-6 -55 -24.5 -104t-52 -85.5t-84.5 -58t-121 -21.5z" />
    <glyph glyph-name="breve.case" 
d="M542 1544q-131 0 -195.5 65t-49.5 200h126q-4 -37 0.5 -65.5t19.5 -48.5t42 -30.5t69 -10.5q83 0 120.5 40.5t45.5 114.5h126q-14 -127 -93.5 -196t-210.5 -69z" />
    <glyph glyph-name="ring" unicode="&#x2da;" 
d="M332 1315q4 42 23 76t47 59t62.5 38.5t71.5 13.5t69.5 -13.5t55.5 -38.5t34 -59t6 -76q-5 -41 -23.5 -75t-46.5 -58t-63.5 -37.5t-73.5 -13.5q-37 0 -68.5 13.5t-54 37.5t-33.5 58t-6 75zM424 1315q-5 -44 16.5 -72t65.5 -28q41 0 69.5 28t33.5 72q5 45 -17.5 73
t-63.5 28q-43 0 -71 -28t-33 -73z" />
    <glyph glyph-name="ring.case" 
d="M384 1697q5 39 23 72t44.5 56t59 36t66.5 13q36 0 66.5 -13t52 -36t31.5 -56t6 -72t-21.5 -71t-44.5 -55t-60 -36t-69 -13q-35 0 -64.5 13t-51 36t-32 55t-6.5 71zM467 1697q-5 -44 17 -72t65 -28q41 0 69.5 28t33.5 72q5 45 -17 73t-64 28q-43 0 -71 -28t-33 -73z" />
    <glyph glyph-name="glyph188" 
d="M331 1308q5 42 23.5 76t46.5 59t62.5 38.5t71.5 13.5q38 0 70.5 -13.5t55 -38.5t33.5 -59t6 -76q-5 -41 -23.5 -75t-47 -58.5t-64 -38t-72.5 -13.5t-68.5 13.5t-54 38t-33.5 58.5t-6 75zM423 1308q-5 -44 17 -72t65 -28q41 0 69.5 28t33.5 72q5 45 -17 73t-63 28
q-44 0 -72 -28t-33 -73zM897 1847l-243 -258q-14 -15 -27 -21t-32 -6h-98l164 241q14 23 30 33.5t46 10.5h160z" />
    <glyph glyph-name="glyph189" 
d="M387 1656q4 37 21 68.5t42.5 54t57 35t64.5 12.5q34 0 63 -12.5t49 -35t30 -54t6 -68.5t-21 -67.5t-42 -52.5t-57 -34t-66 -12q-33 0 -61.5 12t-49 34t-30.5 52.5t-6 67.5zM464 1656q-5 -42 15.5 -69.5t62.5 -27.5q41 0 69 27.5t33 69.5q5 45 -17.5 71.5t-61.5 26.5
q-42 0 -69 -26.5t-32 -71.5zM971 2107l-291 -212q-16 -14 -28.5 -17t-32.5 -3h-117l203 200q18 22 34 27t46 5h186z" />
    <glyph glyph-name="hungarumlaut" unicode="&#x2dd;" 
d="M643 1449l-212 -258q-13 -16 -26.5 -22t-33.5 -6h-68l155 242q14 23 30 33.5t46 10.5h109zM932 1449l-252 -258q-14 -15 -27.5 -21.5t-32.5 -6.5h-78l192 242q17 22 32 33t46 11h120z" />
    <glyph glyph-name="hungarumlaut.case" 
d="M679 1818l-217 -245q-15 -14 -27.5 -20.5t-32.5 -6.5h-78l162 228q14 21 34.5 32.5t50.5 11.5h108zM1021 1818l-257 -245q-16 -14 -30.5 -20.5t-33.5 -6.5h-89l197 228q18 21 38.5 32.5t50.5 11.5h124z" />
    <glyph glyph-name="dotaccent" unicode="&#x2d9;" 
d="M643 1331q0 -26 -10.5 -48.5t-28 -40t-40 -27.5t-46.5 -10q-23 0 -45 10t-38.5 27.5t-26.5 40t-10 48.5t10 49t27 40.5t39 28t45 10.5q24 0 46.5 -10t39.5 -27.5t27.5 -41t10.5 -49.5z" />
    <glyph glyph-name="dotaccent.case" 
d="M683 1688q0 -26 -10.5 -48.5t-28 -40t-39.5 -27.5t-46 -10t-45.5 10t-38 27.5t-26.5 40t-10 48.5t10 49t27 40.5t38.5 28t45.5 10.5t46 -10t39.5 -27.5t27.5 -41t10 -49.5z" />
    <glyph glyph-name="cedilla" unicode="&#xb8;" 
d="M389 -76q76 -17 110.5 -48.5t34.5 -77.5q0 -36 -16.5 -65t-46.5 -49t-71 -30.5t-89 -10.5q-38 0 -71 8.5t-60 22.5l24 55q7 18 25 18q6 0 12.5 -3.5l15.5 -8t22 -8t32 -3.5q40 0 61 19t21 48q0 34 -35.5 48.5t-100.5 23.5l71 162h100z" />
    <glyph glyph-name="ogonek" unicode="&#x2db;" 
d="M474 -211q12 0 16 -13l20 -66q-32 -23 -76.5 -37.5t-92.5 -14.5q-78 0 -119.5 35t-41.5 93q0 34 13 66t36.5 60.5t56 54t70.5 46.5l90 -13q-21 -12 -43.5 -28.5t-40.5 -37.5t-30 -46t-12 -53q0 -32 19 -51t51 -19q20 0 34 3.5t23.5 8t15.5 8.5t11 4z" />
    <glyph glyph-name="glyph196" 
d="M411 -96q18 0 23.5 -8t5.5 -18q0 -11 -4 -28t-14 -44t-27.5 -66l-43.5 -93q-11 -22 -27 -29t-40 -7h-62l81 293h108z" />
    <glyph glyph-name="glyph197" 
d="M569 1158h-146l119 282h104z" />
    <glyph glyph-name="Gamma" unicode="&#x393;" horiz-adv-x="1026" 
d="M1071 1285h-628l-158 -1285h-188l176 1432h815z" />
    <glyph glyph-name="Delta" unicode="&#x394;" horiz-adv-x="1279" 
d="M198 150h771l-230 974q-6 23 -11.5 51t-10.5 61q-26 -66 -49 -113zM1197 0h-1265l724 1431h169z" />
    <glyph glyph-name="Theta" unicode="&#x398;" horiz-adv-x="1491" 
d="M509 801h514l-19 -152h-513zM1420 818q0 -183 -56.5 -336t-157 -263.5t-238 -172t-299.5 -61.5q-132 0 -237.5 47t-180 130.5t-114 198.5t-39.5 252q0 183 57 336.5t158 264.5t238.5 173t298.5 62q132 0 237.5 -47.5t179.5 -131.5t113.5 -199.5t39.5 -252.5zM1228 814
q0 109 -28 197.5t-79.5 150.5t-126 96t-167.5 34q-118 0 -216.5 -47.5t-170 -135.5t-111 -212.5t-39.5 -278.5q0 -109 27.5 -197t79.5 -150t126 -95.5t167 -33.5q119 0 218 47t170 134.5t110.5 212t39.5 278.5z" />
    <glyph glyph-name="Lambda" unicode="&#x39b;" horiz-adv-x="1261" 
d="M1177 0h-150q-25 0 -39.5 12.5t-19.5 31.5l-238 1024q-8 32 -15.5 70t-12.5 80q-28 -85 -61 -150l-489 -1024q-8 -17 -26.5 -30.5t-41.5 -13.5h-150l713 1432h169z" />
    <glyph glyph-name="Xi" unicode="&#x39e;" horiz-adv-x="1150" 
d="M1173 1432l-19 -158h-990l19 158h990zM1016 158l-18 -158h-990l18 158h990zM335 806h530l-20 -163h-531z" />
    <glyph glyph-name="Pi" unicode="&#x3a0;" horiz-adv-x="1419" 
d="M1173 0h-188l158 1285h-700l-158 -1285h-188l176 1432h1075z" />
    <glyph glyph-name="Sigma" unicode="&#x3a3;" horiz-adv-x="1126" 
d="M491 1285q-45 0 -81 3.5t-71 10.5q38 -23 67 -50.5t49 -62.5l213 -364q22 -38 30 -55.5t6 -34.5q-2 -20 -15 -41t-45 -59l-342 -408q-26 -31 -49 -51t-49 -35q36 5 67.5 7t58.5 2h664l-18 -147h-990l9 70q2 21 14.5 42t28.5 37l508 565l-378 582q-8 12 -13 26.5t-3 28.5
l9 81h991l-18 -147h-643z" />
    <glyph glyph-name="Phi" unicode="&#x3a6;" horiz-adv-x="1544" 
d="M814 225q73 1 138.5 21.5t121 57t100.5 87.5t76 112.5t48 132t17 146.5q0 88 -25.5 166t-74.5 137t-119.5 94t-160.5 36zM757 1215q-110 -2 -201.5 -46.5t-158 -120.5t-103.5 -176.5t-37 -213.5q0 -88 25.5 -166t74.5 -137t119.5 -94t160.5 -36zM953 1361q130 -2 231 -48
t170.5 -123.5t106 -180.5t36.5 -218q0 -146 -51 -275t-143 -226t-221.5 -153.5t-285.5 -57.5l-24 -194h-177l24 194q-130 1 -231.5 47t-171 124t-105.5 181t-36 218q0 146 51.5 275t144.5 225.5t221.5 153t282.5 58.5l23 186h178z" />
    <glyph glyph-name="Psi" unicode="&#x3a8;" horiz-adv-x="1512" 
d="M1519 1432l-63 -511q-15 -127 -64.5 -230t-130.5 -177t-192.5 -116t-252.5 -48l-43 -350h-188l43 350q-139 6 -239.5 48.5t-163 116.5t-86 176.5t-8.5 229.5l63 511h124q31 0 45 -19t11 -46l-55 -446q-12 -97 0 -172.5t51.5 -128.5t108 -82.5t168.5 -35.5l114 930h188
l-114 -930q102 5 177.5 35t128.5 83t84 128.5t43 172.5l55 446q3 27 21.5 46t49.5 19h125z" />
    <glyph glyph-name="Omega" unicode="&#x3a9;" horiz-adv-x="1418" 
d="M882 158h382l-11 -97q-2 -27 -22 -44t-49 -17h-464l53 433q84 18 155.5 55t124 97t82.5 144t30 196q0 90 -26.5 159t-75 116.5t-116 71.5t-149.5 24q-101 0 -188 -33t-151 -97t-100 -158t-36 -216q0 -77 21 -137.5t59 -105t91 -73.5t117 -43l-52 -433h-465
q-29 0 -43.5 17t-11.5 44l11 97h383l21 179q-76 22 -135.5 64t-101 101t-63.5 132.5t-22 157.5q0 145 53 266t145.5 207t217.5 134t268 48q122 0 222 -38t171 -106t110 -162.5t39 -206.5q0 -114 -32.5 -212t-92 -175t-142.5 -131.5t-185 -79.5z" />
    <glyph glyph-name="alpha" unicode="&#x3b1;" horiz-adv-x="1109" 
d="M391 129q48 0 93.5 24.5t87.5 68.5t80.5 106.5t73.5 139.5q7 81 9.5 157t-11 135t-47.5 94.5t-99 35.5q-70 0 -133 -41t-110 -111t-75 -162.5t-28 -194.5q0 -125 40.5 -188.5t118.5 -63.5zM1072 1013q-46 -166 -105 -313t-128 -270q-2 -58 -0.5 -108.5t12 -88t32.5 -59
t63 -21.5h61l-17 -99q-2 -11 -8 -22t-18 -20t-31.5 -14.5t-48.5 -5.5q-42 0 -70.5 17.5t-46 51.5t-26 84t-11.5 115q-97 -130 -202 -202t-214 -72q-59 0 -106.5 22.5t-81.5 68.5t-52.5 115t-18.5 162q0 89 18 173.5t51 159.5t79 138t102 108t120 70.5t133 25.5q66 0 113 -23
t78.5 -63t49.5 -93.5t26 -114.5q7 23 13.5 47l13.5 48q16 60 28 96t23 55.5t22 25.5t26 6h121z" />
    <glyph glyph-name="beta" unicode="&#x3b2;" horiz-adv-x="1040" 
d="M258 222q35 -48 91 -72.5t119 -24.5q73 0 130 27.5t96 74.5t59 110t20 135q0 64 -20 110.5t-54.5 77t-81.5 45t-101 14.5h-57l17 136h36q56 0 105 17t85 51t56.5 86t20.5 123q0 88 -47 137.5t-130 49.5q-55 0 -97.5 -22.5t-74 -72t-53.5 -128t-36 -190.5zM169 911
q16 130 49.5 230t87.5 168t130 103t177 35q80 0 141.5 -23.5t103.5 -64t63.5 -96t21.5 -118.5q0 -135 -67 -225t-182 -127q121 -31 185.5 -114.5t64.5 -206.5q0 -102 -32 -190.5t-90.5 -154t-140.5 -103.5t-182 -38q-72 0 -140.5 29.5t-115.5 89.5l-20 -167l-47 -206
q-11 -36 -32.5 -56t-59.5 -20h-68l79 655z" />
    <glyph glyph-name="beta.salt" horiz-adv-x="1063" 
d="M278 613q-23 -252 30 -371.5t174 -119.5q67 0 126 29.5t102.5 84t69 130.5t25.5 169q0 67 -19 115t-58 72t-99.5 20.5t-143.5 -40.5zM521 845q88 39 145.5 81t91 86t47 88t13.5 86q0 59 -33 93t-99 34q-61 0 -120.5 -33t-111.5 -102t-93 -175.5t-66 -253.5zM683 845
q69 7 123 -12.5t91 -59.5t56.5 -98.5t19.5 -129.5q0 -130 -40.5 -233.5t-109 -176t-159.5 -111t-191 -38.5q-95 0 -164 34t-115 98.5t-68 157.5t-22 210q0 224 48 402t131.5 302.5t195 191t239.5 66.5q71 0 121.5 -19t83 -51t47.5 -74t15 -87q0 -53 -16 -101.5t-52 -94.5
t-93.5 -89.5t-140.5 -86.5z" />
    <glyph glyph-name="gamma" unicode="&#x3b3;" horiz-adv-x="1010" 
d="M1029 1013q-42 -128 -96.5 -251t-118 -239.5t-134.5 -226t-146 -209.5l-53 -430h-172l52 428q-11 178 -28.5 326.5t-47 254.5t-73.5 165t-108 59h-29l8 63q1 15 5.5 27t15 20.5t28.5 13t46 4.5q84 0 142.5 -51.5t95.5 -152t55 -247.5t20 -338q53 78 100 165t88 179.5
t76 188t64 190.5q10 35 26.5 48t40.5 13h143z" />
    <glyph glyph-name="delta" unicode="&#x3b4;" horiz-adv-x="1027" 
d="M455 119q63 0 119 26.5t98 76t66 119.5t24 158q0 67 -17 120.5t-46 97t-66.5 79.5t-77.5 68q-64 -24 -122.5 -61.5t-103.5 -93t-71.5 -130.5t-26.5 -175q0 -57 13.5 -108.5t41 -91t69.5 -62.5t100 -23zM912 1301q-6 -23 -17 -31t-33 -8q-13 0 -40 7.5t-63 16.5t-78 16.5
t-84 7.5q-43 0 -73 -9t-49.5 -24t-28.5 -35t-9 -42q0 -33 21.5 -61.5t56.5 -57.5t79.5 -59.5t91 -67t91 -79.5t79.5 -97.5t56.5 -121.5t21.5 -151q0 -114 -36 -209t-101 -164t-155.5 -107t-199.5 -38q-94 0 -166.5 31.5t-122 87t-75 129.5t-25.5 160q0 201 107 332t321 192
l-78 59.5t-65.5 62.5t-45.5 71t-17 85q0 53 22 98.5t64.5 79t106 52.5t147.5 19q36 0 77.5 -3.5t84.5 -9t84.5 -13t76.5 -15.5z" />
    <glyph glyph-name="epsilon" unicode="&#x3b5;" horiz-adv-x="844" 
d="M736 141q-36 -40 -79.5 -69t-90 -48t-94.5 -28t-93 -9q-71 0 -133 19.5t-107.5 55.5t-71.5 86.5t-26 112.5q0 48 15.5 90.5t46.5 78t77.5 62t108.5 41.5q-48 15 -80.5 38t-52.5 51t-28.5 59t-8.5 61q0 54 25.5 105.5t75 91.5t121.5 64.5t165 24.5q103 0 179.5 -33
t123.5 -86l-46 -63q-12 -17 -21.5 -21.5t-22.5 -4.5q-12 0 -27.5 12t-39.5 26.5t-60 26.5t-89 12q-54 0 -94.5 -13.5t-68 -36t-41.5 -53t-14 -63.5q0 -30 13 -56.5t38 -45.5t61.5 -30t83.5 -11h152l-14 -116h-152q-63 0 -110 -13.5t-77.5 -38.5t-46 -60t-15.5 -78
q0 -35 12.5 -65t36.5 -52t59 -34t80 -12q60 0 101.5 16t70.5 34.5t49 34.5t37 16q21 0 31 -16z" />
    <glyph glyph-name="zeta" unicode="&#x3b6;" horiz-adv-x="722" 
d="M841 1374q1 -15 -2.5 -28.5t-15.5 -31t-35.5 -41.5t-61.5 -59l-109.5 -100.5t-113 -113.5t-105.5 -125.5t-88.5 -136.5t-61 -147t-22.5 -156q0 -54 14.5 -94t42 -69.5t67.5 -51t90 -38.5q72 -25 118.5 -52.5t73.5 -56.5t37.5 -60t10.5 -63q0 -74 -29.5 -141.5
t-81.5 -140.5l-127 54l25 39t23.5 43.5t17 46.5t6.5 47q0 17 -7 35t-26 36t-53.5 36.5t-88.5 36.5q-68 23 -120.5 53t-89 71.5t-55.5 96t-19 125.5q0 128 46.5 244t128 228t192 223.5t239.5 229.5q-63 -9 -137.5 -16t-162.5 -7h-78q-38 0 -52 18.5t-12 38.5l11 85h605z" />
    <glyph glyph-name="eta" unicode="&#x3b7;" horiz-adv-x="1081" 
d="M60 960q3 26 25 43.5t73 17.5q47 0 85 -14t64 -43t38 -74.5t6 -109.5q79 122 177 185t201 63q64 0 112.5 -25.5t79 -74.5t41.5 -120.5t0 -162.5l-121 -988h-172l121 988h1q15 120 -15.5 177.5t-111.5 57.5q-42 0 -86.5 -21t-86.5 -59.5t-79.5 -93.5t-67.5 -123l-71 -583
h-171l90 740q10 79 -15 116t-85 37h-40z" />
    <glyph glyph-name="theta" unicode="&#x3b8;" horiz-adv-x="1119" 
d="M279 667q-2 -32 -3 -66.5t-1 -69.5q0 -199 57.5 -304t169.5 -105q74 0 133.5 36.5t104 106.5t73.5 171.5t43 230.5h-577zM864 787q3 55 3 116q0 201 -56 305.5t-165 104.5q-75 0 -134.5 -35.5t-104.5 -103t-74.5 -165.5t-43.5 -222h575zM656 1448q87 0 157 -38
t118.5 -110.5t74.5 -177t26 -237.5q0 -214 -39 -381.5t-110 -282.5t-171 -175t-221 -60q-90 0 -160.5 38t-120 110t-75.5 177t-26 239q0 214 39 381t111 282t173 175t224 60z" />
    <glyph glyph-name="theta.salt" horiz-adv-x="1200" 
d="M517 1177q0 -80 93.5 -120.5t272.5 -44.5q-7 70 -24.5 127t-45.5 97t-65.5 61.5t-83.5 21.5q-73 0 -110 -39.5t-37 -102.5zM1212 1012l-8 -70q-2 -23 -18 -39.5t-45 -16.5h-95q-1 -199 -35.5 -364.5t-103.5 -284.5t-173.5 -185t-244.5 -66q-93 0 -158.5 32t-105 90
t-53.5 138.5t-2 176.5l24 191q9 74 -11.5 101t-77.5 27h-48l8 66q4 28 35 45.5t91 17.5q44 0 80 -13.5t60 -44t34 -79.5t1 -120l-23 -191q-8 -66 -2 -121t27 -94.5t58 -62t91 -22.5q81 0 148 45t115.5 138.5t76.5 237.5t30 342q-119 1 -216.5 19t-166.5 53.5t-106.5 88.5
t-37.5 124q0 61 20.5 111.5t60 86.5t97 56t131.5 20t137 -26.5t112 -80.5t80.5 -135.5t42.5 -190.5h171z" />
    <glyph glyph-name="iota" unicode="&#x3b9;" horiz-adv-x="494" 
d="M175 1012h172l-91 -738q-9 -77 15.5 -117t90.5 -40h77l-6 -54q-2 -18 -15.5 -32t-34 -23.5t-47.5 -14.5t-56 -5q-57 0 -97.5 20t-65 56.5t-33.5 87.5t-1 113z" />
    <glyph glyph-name="lambda" unicode="&#x3bb;" horiz-adv-x="1000" 
d="M941 119l-9 -69q-5 -37 -28 -48.5t-65 -11.5q-46 0 -82.5 9t-65 34.5t-49.5 72.5t-35 124l-87 379q-8 47 -11 80.5t-4 61.5q-18 -56 -49 -125l-285 -590q-7 -16 -21.5 -26t-40.5 -10h-142l478 929l-58 280q-6 29 -15.5 49.5t-24.5 33t-38 18.5t-57 6h-59l8 65
q1 13 7.5 24.5t19.5 20.5t34 14t53 5q39 0 75 -8t65.5 -27t51 -52t32.5 -82l229 -1046q13 -59 39.5 -85t80.5 -26h53z" />
    <glyph glyph-name="mu" unicode="&#x3bc;" horiz-adv-x="1109" 
d="M1045 124l-8 -72q-3 -23 -36 -42.5t-90 -19.5q-39 0 -73 12t-60.5 36.5t-43 62.5t-19.5 89q-65 -88 -139.5 -136t-162.5 -48q-127 0 -187 83q1 -39 -1.5 -79t-7.5 -74l-34 -279h-88q-38 0 -56.5 20t-13.5 56l157 1280h179l-79 -640q-8 -103 32 -161.5t128 -58.5
q82 0 148.5 49t117.5 137l83 674h178l-91 -739q-9 -78 21.5 -114t89.5 -36h56z" />
    <glyph glyph-name="nu" unicode="&#x3bd;" horiz-adv-x="953" 
d="M972 1012q-93 -287 -230.5 -541.5t-308.5 -470.5h-107l-255 1012h140q20 0 32.5 -10.5t15.5 -25.5l147 -661q7 -32 11.5 -63t7.5 -63q57 80 105.5 170.5t90.5 188.5t78 201.5t68 208.5q8 30 24.5 42t34.5 12h146z" />
    <glyph glyph-name="xi" unicode="&#x3be;" horiz-adv-x="729" 
d="M806 1360q-4 -32 -27 -49.5t-49 -17.5h-81q-68 0 -125 -22.5t-97.5 -61.5t-63 -91.5t-22.5 -111.5q0 -82 60.5 -130t176.5 -48h83l-16 -137h-124q-76 0 -131.5 -21.5t-92 -59t-54 -89t-17.5 -112.5q0 -48 16.5 -84t49 -65t79.5 -53t109 -49q49 -20 83 -42t54 -47t29 -53
t9 -59q0 -75 -29 -144.5t-83 -143.5l-127 53l25 40t23.5 44t17.5 47t7 49q0 18 -5.5 34.5t-19 31.5t-36.5 28.5t-59 25.5q-69 23 -127.5 55t-100.5 75t-65.5 99.5t-23.5 128.5q0 57 16 115.5t50.5 111t90 95t135.5 66.5q-86 30 -125 87t-39 132q0 58 21.5 107t57.5 88.5
t83.5 69.5t100.5 50q-19 -2 -38.5 -2h-41.5h-121q-38 0 -52 18t-10 49l8 65h627z" />
    <glyph glyph-name="xi.salt" horiz-adv-x="733" 
d="M813 1432l-8 -71q-5 -32 -28 -49.5t-49 -17.5h-90q-149 0 -222 -69.5t-73 -186.5q0 -44 15 -82t44 -66.5t73 -45t101 -16.5h83l-16 -137h-100q-85 0 -145.5 -20.5t-99 -57.5t-56.5 -88.5t-18 -113.5q0 -49 15.5 -86t47 -66.5t79.5 -53.5t112 -47q49 -18 83 -39t54 -46.5
t29 -54t9 -61.5q0 -75 -29 -144.5t-83 -143.5l-127 53l25 41t23.5 45.5t17.5 47.5t7 48q0 18 -5 34t-18.5 30.5t-36.5 27.5t-60 26q-62 22 -119.5 51.5t-101.5 71.5t-70 99.5t-26 135.5q0 60 17 121.5t55 115.5t99 96t150 63q-95 33 -141.5 101t-46.5 156q0 94 32 168
t92.5 125.5t147 78.5t195.5 27h163z" />
    <glyph glyph-name="pi" unicode="&#x3c0;" horiz-adv-x="1145" 
d="M1123 919q-3 -24 -19.5 -40.5t-44.5 -16.5h-134l-20.5 -111t-17.5 -106t-12.5 -126.5t-4.5 -170.5q0 -71 6 -114.5t18 -67.5t29.5 -32t40.5 -8h37l-9 -72q-3 -29 -38 -44.5t-85 -15.5q-94 0 -140 61.5t-46 189.5q0 61 9.5 123t24 135l32.5 160.5t35 198.5h-329
q-24 -172 -50.5 -304t-55.5 -228.5t-61 -161.5t-65.5 -104t-69.5 -55.5t-74 -16.5q-12 0 -24.5 2t-23 6.5t-16.5 11.5t-5 16l14 121h19q28 0 61 38.5t67 123t67.5 220.5t62.5 331h-200l9 75q1 11 7.5 22.5t16 21.5t23 16t30.5 6h946z" />
    <glyph glyph-name="rho" unicode="&#x3c1;" horiz-adv-x="1046" 
d="M248 261q40 -74 98.5 -108t116.5 -34q70 0 129 34t101.5 97t66 152t23.5 200q0 74 -15.5 128.5t-43 90t-67 53t-87.5 17.5q-51 0 -98 -20.5t-85 -62.5t-65.5 -106.5t-37.5 -152.5zM111 542q15 120 54.5 211t100.5 152.5t142 92.5t179 31q81 0 149.5 -29.5t118 -85
t77.5 -136.5t28 -183q0 -126 -35.5 -236.5t-99 -193.5t-151 -131t-191.5 -48q-75 0 -140.5 35t-111.5 95l-57 -459h-172z" />
    <glyph glyph-name="sigma" unicode="&#x3c3;" horiz-adv-x="1114" 
d="M626 874q-102 0 -175.5 -32t-121 -92t-70 -146t-22.5 -193q0 -140 58.5 -215.5t172.5 -75.5q80 0 140.5 33.5t101.5 96.5t61.5 153t20.5 203q0 47 -7.5 90.5t-23.5 79t-39.5 61t-55.5 37.5h-40zM1152 1008l-10 -75q-3 -25 -20.5 -42t-54.5 -17h-236q62 -50 98 -127
t36 -176q0 -126 -37 -233t-104.5 -185t-162 -122.5t-208.5 -44.5q-90 0 -163 30t-124 85.5t-78.5 135t-27.5 178.5q0 132 41 241t117.5 187.5t185 121.5t243.5 43h505z" />
    <glyph glyph-name="sigma1" unicode="&#x3c2;" horiz-adv-x="864" 
d="M813 835q-9 -10 -17.5 -16t-22.5 -6t-29 12.5t-38 28t-56 28t-83 12.5q-74 0 -133.5 -31.5t-101.5 -86.5t-64.5 -130.5t-22.5 -162.5q0 -76 20.5 -126t58 -85t90 -59.5t115.5 -48.5q55 -21 91.5 -43.5t58 -47.5t30.5 -53.5t9 -62.5q0 -76 -29 -145t-82 -144l-128 54
q12 18 25 39.5t23.5 44.5t17 48t6.5 51q0 18 -5 33.5t-19 30t-38.5 28.5t-64.5 28q-73 26 -138 59t-114 83t-77.5 122t-28.5 177q0 119 34.5 221.5t99.5 178.5t158.5 119t211.5 43q100 0 172 -34t124 -96z" />
    <glyph glyph-name="tau" unicode="&#x3c4;" horiz-adv-x="864" 
d="M871 933q-4 -29 -21.5 -45.5t-46.5 -16.5h-290l-73 -592q-9 -78 15.5 -117.5t90.5 -39.5h77l-6 -54q-2 -18 -15.5 -32t-34.5 -23.5t-47.5 -14.5t-55.5 -5q-57 0 -97.5 20t-65 56.5t-33.5 87t-1 112.5l74 602h-287l10 75q3 23 19.5 39.5t45.5 16.5h750z" />
    <glyph glyph-name="upsilon" unicode="&#x3c5;" horiz-adv-x="1026" 
d="M923 1012q1 -29 2.5 -63t2.5 -68t1.5 -65.5t0.5 -53.5q0 -216 -44.5 -365t-116.5 -240.5t-163 -132t-185 -40.5q-89 0 -155 26.5t-108 76t-59 120.5t-6 160l79 645h173l-79 -645q-8 -58 2 -104t34 -77.5t61.5 -48t85.5 -16.5q52 0 107 27t99.5 91.5t73 171.5t28.5 268
q0 28 -1 62.5l-2 71t-2.5 72.5t-1.5 68q0 16 5.5 27.5t13.5 18.5t17 10t18 3h119z" />
    <glyph glyph-name="phi" unicode="&#x3c6;" horiz-adv-x="1376" 
d="M704 116q100 1 178 40t130.5 105.5t80 155t27.5 190.5q0 64 -12.5 117.5t-36 92t-58 60t-78.5 21.5q-63 0 -104.5 -45t-53.5 -142zM615 711q20 162 105 239.5t225 77.5q81 0 145.5 -32.5t109.5 -88.5t69 -132.5t24 -164.5q0 -137 -44 -251t-124 -196.5t-191.5 -129
t-245.5 -47.5l-40 -329h-162l40 329q-110 1 -196.5 36.5t-146 96.5t-91 143.5t-31.5 179.5q0 103 28.5 193t80.5 164t124.5 130.5t159.5 92.5l39 -70q10 -20 0 -41.5t-27 -31.5q-56 -30 -99 -74t-72.5 -99.5t-45 -120.5t-15.5 -136q0 -70 19.5 -130t58 -104.5t96 -71
t134.5 -27.5z" />
    <glyph glyph-name="phi.salt" horiz-adv-x="1377" 
d="M709 116q98 1 174.5 33.5t128.5 91.5t79 142t27 187q0 73 -20 133t-60 103t-98.5 66.5t-134.5 25.5zM643 898q-98 -1 -174 -34t-128 -92t-79 -142.5t-27 -186.5q0 -74 20 -133.5t59.5 -102t98 -66.5t134.5 -25zM821 1028q109 -2 196.5 -35t148 -92t93 -142t32.5 -183
q0 -134 -43 -242.5t-121.5 -185.5t-189 -119t-244.5 -43l-40 -329h-162l40 329q-109 1 -196 34t-147.5 92.5t-93 142t-32.5 183.5q0 134 43 242.5t121.5 185.5t188.5 119t244 43l50 404h162z" />
    <glyph glyph-name="chi" unicode="&#x3c7;" horiz-adv-x="885" 
d="M647 -117q15 -58 40.5 -84.5t78.5 -26.5h33l-9 -69q-2 -18 -6.5 -30t-13 -18.5t-22.5 -9t-35 -2.5q-39 0 -73 7.5t-62.5 28t-51 57t-38.5 95.5l-112 400q-8 -28 -17.5 -54t-19.5 -46l-245 -436q-6 -14 -19.5 -25t-36.5 -11h-122l403 712l-116 416q-9 29 -19.5 49.5
t-26 33t-37.5 18.5t-54 6h-33l9 64q1 13 3 25t9.5 20.5t22.5 13.5t44 5q95 0 151.5 -38.5t83.5 -130.5l107 -384q8 28 17.5 54t19.5 47l225 406q7 14 20.5 25.5t35.5 11.5h123l-384 -681z" />
    <glyph glyph-name="psi" unicode="&#x3c8;" horiz-adv-x="1418" 
d="M1316 1013q1 -29 2.5 -63.5l3 -68.5t2 -65.5t0.5 -53.5q0 -145 -23 -257.5t-63.5 -196t-97 -141.5t-123.5 -95t-142 -56.5t-153 -25.5l-41 -333h-172l41 331q-251 17 -362.5 143t-85.5 344l66 538h119q22 0 35 -21.5t10 -46.5l-58 -470q-9 -76 6.5 -136.5t53.5 -104
t97 -70.5t136 -36l160 1304h172l-160 -1305q87 8 161.5 38t129 94t86 167.5t31.5 258.5q0 74 -6 141t-4 127q3 32 20 46t35 14h124z" />
    <glyph glyph-name="omega" unicode="&#x3c9;" horiz-adv-x="1426" 
d="M1263 1013q15 -45 28 -96.5t22.5 -105t14.5 -107.5t5 -104q0 -144 -33.5 -258.5t-91.5 -194t-136 -121.5t-166 -42q-54 0 -95.5 14.5t-71.5 41t-50 62.5t-30 79q-21 -43 -50 -79t-65 -62.5t-80.5 -41t-97.5 -14.5q-68 0 -123.5 29.5t-95 84.5t-61 133t-21.5 174
q0 87 15 166.5t41.5 154t62 146t77.5 141.5h111q12 0 24 -4.5t18.5 -14.5t5 -26t-16.5 -38q-33 -51 -63 -106.5t-52.5 -117.5t-35.5 -133.5t-13 -154.5q0 -85 15 -142t38 -91.5t52 -49t57 -14.5q41 0 74.5 20.5t59 57.5t42 89.5t24.5 115.5l33 273h172l-35 -290
q-6 -60 -1 -109t20.5 -84t43 -54t67.5 -19q39 0 84.5 21t84 72t64 137t25.5 216q0 49 -6.5 102t-16.5 102t-22 91.5t-24 72.5q-6 21 -2.5 36t12 24t20 13.5t21.5 4.5h122z" />
    <glyph glyph-name="tonos" unicode="&#x384;" 
d="M447 1148l101 345h102q25 0 32 -17.5t-5 -46.5l-132 -281h-98z" />
    <glyph glyph-name="dieresistonos" unicode="&#x385;" 
d="M446 1154l101 345h102q25 0 31.5 -17.5t-5.5 -46.5l-132 -281h-97zM870 1282q-2 -19 -11.5 -36t-23 -29.5t-30 -20t-33.5 -7.5q-18 0 -33 7.5t-25.5 20t-16 29.5t-3.5 36q2 20 11 37.5t22.5 31t30 21t34.5 7.5t33.5 -7.5t26 -21t15.5 -31t3 -37.5zM407 1282
q-2 -19 -11 -36t-22.5 -29.5t-30.5 -20t-35 -7.5q-17 0 -32 7.5t-25.5 20t-15.5 29.5t-3 36q2 20 11 37.5t22.5 31t30 21t33.5 7.5q18 0 33.5 -7.5t26 -21t15.5 -31t3 -37.5z" />
    <glyph glyph-name="uni0374" unicode="&#x374;" horiz-adv-x="394" 
d="M432 1508q9 -143 -41 -279t-165 -251l-49 34q-14 11 -13.5 24.5t8.5 24.5q28 36 51.5 71t36.5 71t14 74.5t-15 80.5l12 102q3 20 15.5 34t37.5 14h108z" />
    <glyph glyph-name="uni0375" unicode="&#x375;" horiz-adv-x="397" 
d="M299 325q9 -143 -41 -279t-165 -251l-49 34q-14 11 -13.5 24.5t8.5 24.5q28 36 51.5 71t36.5 71t14 74.5t-15 80.5l12 102q3 20 15.5 34t37.5 14h108z" />
    <glyph glyph-name="afii10018" unicode="&#x411;" horiz-adv-x="1161" 
d="M366 665l-64 -517h251q80 0 139.5 21t99 61t59 96.5t19.5 128.5q0 100 -60 155t-193 55h-251zM442 1284l-58 -471h252q110 0 189.5 -25t131 -69.5t76 -105.5t24.5 -134q0 -108 -35.5 -196.5t-103 -151.5t-164.5 -97t-219 -34h-438l176 1432h859l-18 -148h-672z" />
    <glyph glyph-name="afii10020" unicode="&#x413;" horiz-adv-x="1007" 
d="M1052 1285h-609l-158 -1285h-188l176 1432h797z" />
    <glyph glyph-name="afii10050" unicode="&#x490;" horiz-adv-x="1007" 
d="M1052 1285h-609l-158 -1285h-188l176 1432h652l40 324h145z" />
    <glyph glyph-name="afii10021" unicode="&#x414;" horiz-adv-x="1456" 
d="M955 147l140 1138h-426q-42 -249 -86 -436t-89 -324t-91.5 -228.5t-93.5 -149.5h646zM1358 147l-54 -441q-4 -25 -22.5 -40t-44.5 -15h-112l43 349h-1051l-37 -294q-2 -25 -21 -40t-45 -15h-112l61 496h134q30 15 62.5 49t66 96.5t68.5 158t70.5 233t72 322.5t73.5 426
h791l-158 -1285h215z" />
    <glyph glyph-name="afii10024" unicode="&#x416;" horiz-adv-x="1926" 
d="M1529 858q-31 -42 -62.5 -68.5t-73.5 -40.5q45 -15 76.5 -45.5t55.5 -81.5l309 -622h-124q-42 0 -69 18t-41 49l-264 513q-20 41 -49 60t-78 19h-151l-81 -659h-177l81 659h-150q-49 0 -82.5 -19t-63.5 -60l-389 -513q-22 -31 -53.5 -49t-72.5 -18h-125l461 622
q36 51 75.5 81.5t87.5 45.5q-38 14 -63.5 40.5t-46.5 68.5l-308 575h147q29 0 52.5 -15t34.5 -41l262 -501q23 -45 52 -59t71 -14h129l77 630h177l-77 -630h130q41 0 73.5 14t66.5 59l385 501q18 26 44.5 41t55.5 15h147z" />
    <glyph glyph-name="afii10025" unicode="&#x417;" horiz-adv-x="1073" 
d="M179 1299q88 70 195.5 108.5t232.5 38.5q94 0 167 -24.5t123 -68t76 -103t26 -130.5q0 -128 -68.5 -220.5t-187.5 -136.5q103 -41 158.5 -120.5t55.5 -183.5q0 -98 -36 -184t-103.5 -150.5t-164 -101.5t-217.5 -37q-148 0 -261.5 51.5t-185.5 137.5l64 87q9 11 21 18
t26 7q20 0 44.5 -22.5t63 -50t95.5 -50t141 -22.5q79 0 141.5 22.5t105.5 63.5t66 98.5t23 128.5q0 50 -17 92t-50 72t-82 47t-113 17h-178l19 154h172q62 0 115 17t92 50t61 80.5t22 108.5q0 44 -15 80.5t-44.5 63t-74 41t-102.5 14.5q-74 0 -128.5 -17t-94.5 -38t-66 -38
t-43 -17q-26 0 -39 29z" />
    <glyph glyph-name="afii10026" unicode="&#x418;" horiz-adv-x="1419" 
d="M1348 1433l-175 -1433h-188l124 1010q5 42 13 88t21 98q-21 -45 -44 -83.5t-45 -68.5l-726 -985q-16 -22 -40 -40.5t-53 -18.5h-138l176 1433h188l-124 -1010q-5 -42 -13 -87.5t-21 -96.5q45 89 89 149l726 986q17 22 40.5 40.5t50.5 18.5h139z" />
    <glyph glyph-name="afii10028" unicode="&#x41a;" horiz-adv-x="1250" 
d="M834 842q-52 -69 -129 -93q48 -14 78.5 -43.5t56.5 -83.5l320 -622h-169q-28 0 -45 15t-31 44l-275 529q-10 19 -20.5 33t-24.5 22t-32 12t-42 4h-156l-81 -659h-187l176 1433h187l-77 -630h135q41 0 71.5 13.5t63.5 54.5l400 508q17 23 39.5 38.5t50.5 15.5h158z" />
    <glyph glyph-name="afii10029" unicode="&#x41b;" horiz-adv-x="1353" 
d="M1107 0h-188l158 1285h-426q-46 -277 -93 -481t-96 -348t-99.5 -235.5t-103.5 -143.5t-110 -71t-117 -19q-51 0 -77.5 9.5t-23.5 27.5l14 118h65q36 0 73.5 16t76.5 63.5t79 135t81.5 231t84.5 350.5t87 494h791z" />
    <glyph glyph-name="afii10058" unicode="&#x409;" horiz-adv-x="1957" 
d="M1376 148q80 0 139.5 21t99 61t59 96.5t19.5 128.5q0 100 -60 155t-193 55h-251l-64 -517h251zM1458 813q110 0 190 -25t131.5 -69.5t76 -105.5t24.5 -134q0 -108 -35.5 -196.5t-103 -151.5t-164.5 -97t-220 -34h-438l158 1285h-426q-46 -277 -93 -481t-96 -348
t-99.5 -235.5t-103.5 -143.5t-110 -71t-117 -19q-51 0 -77.5 9.5t-23.5 27.5l14 118h65q36 0 73.5 16t76.5 63.5t79 135t81.5 231t84.5 350.5t87 494h791l-76 -619h251z" />
    <glyph glyph-name="afii10059" unicode="&#x40a;" horiz-adv-x="2018" 
d="M1437 148q80 0 139.5 21t99 61t59 96.5t19.5 128.5q0 100 -60 155t-193 55h-246l-64 -517h246zM1520 813q110 0 189.5 -25t131 -69.5t76 -105.5t24.5 -134q0 -108 -35.5 -196.5t-103 -151.5t-164.5 -97t-220 -34h-433l80 654h-699l-80 -654h-188l176 1433h188l-79 -643
h699l79 643h189l-77 -620h247z" />
    <glyph glyph-name="afii10147" unicode="&#x472;" horiz-adv-x="1491" 
d="M291 659q-1 -10 -1 -20v-21q0 -109 27.5 -197t79.5 -150t126 -95.5t167 -33.5q103 0 191.5 36t157 102.5t114.5 162.5t64 216h-926zM1228 814q0 109 -28 197.5t-79.5 150.5t-126 96t-167.5 34q-99 0 -185 -34t-153.5 -97.5t-114.5 -154.5t-68 -205h922v13zM850 1449
q132 0 237.5 -47.5t179.5 -131.5t113.5 -199.5t39.5 -252.5q0 -183 -56.5 -336t-157 -263.5t-238 -172t-299.5 -61.5q-132 0 -237.5 47t-180 130.5t-114 198.5t-39.5 252q0 183 57 336.5t158 264.5t238.5 173t298.5 62z" />
    <glyph glyph-name="afii10033" unicode="&#x41f;" horiz-adv-x="1368" 
d="M1122 0h-189l158 1285h-648l-158 -1285h-188l176 1432h1024z" />
    <glyph glyph-name="afii10037" unicode="&#x423;" horiz-adv-x="1172" 
d="M1260 1432l-689 -1246q-32 -58 -65.5 -96.5t-69 -61t-72.5 -32t-77 -9.5q-60 0 -88.5 12t-25.5 40l13 103h65q55 0 97 26t83 97l83 150l-407 1017h170q25 0 38 -12t21 -32l236 -661q26 -79 38 -155q14 39 32.5 77.5l38.5 77.5l351 661q11 17 28.5 30.5t40.5 13.5h159z
" />
    <glyph glyph-name="afii10148" unicode="&#x474;" horiz-adv-x="1300" 
d="M1014 1248q42 97 108 143.5t163 46.5q29 0 47 -2t27 -7.5t11 -15t0 -24.5l-12 -105h-51q-40 0 -74 -26.5t-58 -79.5l-537 -1178h-169l-361 1432h145q25 0 39.5 -12.5t19.5 -32.5l239 -1022q8 -33 15 -71t12 -80q27 84 61 151z" />
    <glyph glyph-name="afii10038" unicode="&#x424;" horiz-adv-x="1457" 
d="M782 320q94 1 173.5 40.5t137.5 106t91 154.5t33 186q0 76 -22.5 144t-65 119.5t-103.5 81.5t-138 32zM711 1184q-94 -2 -173.5 -41t-137.5 -105t-91 -153.5t-33 -186.5q0 -77 22.5 -145t64.5 -119t103 -82t139 -32zM906 1330q115 -3 207.5 -45.5t157 -112.5t99 -162.5
t34.5 -195.5q0 -87 -22 -167t-62.5 -150.5t-98 -129t-129 -101t-154.5 -67t-174 -26.5l-21 -173h-177l21 173q-115 3 -207.5 45.5t-157 112.5t-99.5 162.5t-35 196.5q0 87 22.5 167.5t63 151t98.5 128.5t129 100t153.5 66.5t173.5 26.5l21 168h178z" />
    <glyph glyph-name="afii10040" unicode="&#x426;" horiz-adv-x="1445" 
d="M1339 147l-53 -441q-4 -25 -22.5 -40t-44.5 -15h-112l43 349h-1053l176 1432h188l-158 -1285h648l158 1285h188l-157 -1285h199z" />
    <glyph glyph-name="afii10145" unicode="&#x40f;" horiz-adv-x="1368" 
d="M1297 1432l-175 -1432h-427l-36 -294q-3 -25 -22 -40t-45 -15h-111l42 349h-426l176 1432h188l-158 -1285h648l158 1285h188z" />
    <glyph glyph-name="afii10041" unicode="&#x427;" horiz-adv-x="1232" 
d="M1160 1432l-176 -1432h-187l77 624q-110 -30 -211.5 -48t-188.5 -17t-156.5 22.5t-115 69.5t-65 125t-5.5 189l56 467h189l-58 -468q-12 -101 15.5 -161.5t98 -84.5t184.5 -13t273 55l83 672h187z" />
    <glyph glyph-name="afii10042" unicode="&#x428;" horiz-adv-x="1995" 
d="M1924 1432l-175 -1432h-1652l176 1432h188l-158 -1285h542l158 1285h188l-158 -1285h546l157 1285h188z" />
    <glyph glyph-name="afii10043" unicode="&#x429;" horiz-adv-x="2072" 
d="M1966 147l-53 -441q-4 -25 -22.5 -40t-44.5 -15h-112l44 349h-1681l176 1432h188l-158 -1285h542l158 1285h188l-158 -1285h546l157 1285h188l-157 -1285h199z" />
    <glyph glyph-name="afii10044" unicode="&#x42a;" horiz-adv-x="1367" 
d="M787 148q80 0 139.5 21t99 61t59 96.5t19.5 128.5q0 100 -60 155t-193 55h-251l-64 -517h251zM870 813q110 0 189.5 -25t131 -69.5t76 -105.5t24.5 -134q0 -108 -35.5 -196.5t-103 -151.5t-164.5 -97t-219 -34h-438l157 1280h-384l19 152h571l-76 -619h252z" />
    <glyph glyph-name="afii10045" unicode="&#x42b;" horiz-adv-x="1640" 
d="M553 148q80 0 139.5 21t99 61t59 96.5t19.5 128.5q0 100 -60 155t-193 55h-251l-64 -517h251zM636 813q110 0 189.5 -25t131 -69.5t76 -105.5t24.5 -134q0 -108 -35.5 -196.5t-103 -151.5t-164.5 -97t-219 -34h-438l176 1432h187l-76 -619h252zM1394 0h-188l175 1433h188
z" />
    <glyph glyph-name="afii10046" unicode="&#x42c;" horiz-adv-x="1135" 
d="M553 148q80 0 139.5 21t99 61t59 96.5t19.5 128.5q0 100 -60 155t-193 55h-251l-64 -517h251zM636 813q110 0 189.5 -25t131 -69.5t76 -105.5t24.5 -134q0 -108 -35.5 -196.5t-103 -151.5t-164.5 -97t-219 -34h-438l176 1432h187l-76 -619h252z" />
    <glyph glyph-name="afii10047" unicode="&#x42d;" horiz-adv-x="1256" 
d="M157 1270q95 84 209.5 131t257.5 47q130 0 233.5 -46.5t175.5 -130t110.5 -199t38.5 -253.5q0 -183 -53 -336.5t-148.5 -264t-227.5 -172.5t-291 -62q-82 0 -149.5 15t-124 42.5t-101.5 67t-82 89.5l84 80q13 13 29 13q17 0 30 -15q31 -34 63 -59t69.5 -41t82.5 -24
t101 -8q93 0 177.5 34.5t153.5 100.5t117 162t67 218h-663l17 142h658v11q0 109 -27 197t-77.5 150t-122 95.5t-160.5 33.5q-84 0 -144.5 -19.5t-103 -42.5t-69.5 -42.5t-44 -19.5q-15 0 -23.5 6.5t-13.5 15.5z" />
    <glyph glyph-name="afii10053" unicode="&#x404;" horiz-adv-x="1255" 
d="M1149 199q-93 -101 -216 -158t-286 -57q-128 0 -230 46t-172.5 128.5t-108 197t-37.5 251.5q0 186 56.5 340.5t155.5 266t234.5 173t293.5 61.5q141 0 245.5 -48.5t175.5 -132.5l-72 -86q-8 -9 -17.5 -15.5t-24.5 -6.5q-12 0 -25 9.5t-30.5 23.5t-41 30.5t-56 30.5
t-75.5 23.5t-99 9.5q-94 0 -178 -33t-151 -95.5t-114.5 -152.5t-68.5 -204h662l-18 -142h-660v-36q0 -111 28.5 -200t80 -150.5t122.5 -94.5t155 -33q56 0 103 7.5t88.5 23.5t79.5 41t77 60q14 11 30.5 14.5t29.5 -12.5l64 -80v0z" />
    <glyph glyph-name="afii10048" unicode="&#x42e;" horiz-adv-x="1972" 
d="M1215 143q109 0 199.5 48t155.5 137t101 215t36 282q0 106 -24 192t-69 147t-110 94t-148 33q-109 0 -199.5 -48.5t-156 -138t-101.5 -216t-36 -281.5q0 -107 24 -192.5t69 -146t110.5 -93t148.5 -32.5zM688 789q24 147 84.5 268.5t150.5 208t205 134.5t248 48
q123 0 220 -46t164.5 -128.5t103 -196t35.5 -248.5q0 -185 -52.5 -340t-146 -266.5t-222.5 -174t-282 -62.5q-123 0 -220 46t-164.5 128t-103 195.5t-35.5 248.5v19t1 19h-310l-78 -642h-188l175 1433h188l-79 -644h306z" />
    <glyph glyph-name="afii10049" unicode="&#x42f;" horiz-adv-x="1238" 
d="M898 767l64 516h-256q-161 0 -239 -78.5t-78 -223.5q0 -100 60 -157t193 -57h256zM991 0h-187l76 619h-174q-24 0 -46 -4.5t-43.5 -16t-43.5 -32t-46 -53.5l-336 -446q-21 -31 -52.5 -49t-72.5 -18h-141l401 524q35 47 71 77t79 49q-138 31 -205 117t-67 207
q0 103 35.5 187.5t103 144.5t163.5 93t218 33h443z" />
    <glyph glyph-name="afii10051" unicode="&#x402;" horiz-adv-x="1381" 
d="M886 813q111 0 190.5 -25t131 -69.5t76 -105.5t24.5 -134q0 -108 -35.5 -196.5t-103 -151.5t-164.5 -97t-219 -34h-87l18 148h87q80 0 139.5 21t99 61t59 96.5t19.5 128.5q0 100 -59.5 155t-192.5 55h-281l-82 -665h-186l156 1281h-365l18 151h966l-18 -151h-413
l-58 -468h280z" />
    <glyph glyph-name="afii10060" unicode="&#x40b;" horiz-adv-x="1386" 
d="M606 808q108 30 204 47t176 15.5t142 -23.5t101.5 -70t54.5 -125t1 -188l-57 -465h-187l57 466q12 100 -8.5 161.5t-81 86t-163.5 13.5t-256 -54l-82 -672h-187l157 1281h-366l18 151h967l-19 -151h-413z" />
    <glyph glyph-name="afii10146" unicode="&#x462;" horiz-adv-x="1347" 
d="M764 148q80 0 139.5 21t99 61t59 96.5t19.5 128.5q0 100 -60 155t-193 55h-251l-64 -517h251zM847 813q110 0 189.5 -25t131 -69.5t76 -105.5t24.5 -134q0 -108 -35.5 -196.5t-103 -151.5t-164.5 -97t-219 -34h-438l131 1068h-331l18 141h331l27 223h187l-27 -223h406
l-17 -141h-407l-31 -255h252z" />
    <glyph glyph-name="afii10066" unicode="&#x431;" horiz-adv-x="1078" 
d="M638 866q-78 0 -144 -40.5t-114 -105.5t-75 -147.5t-27 -167.5q0 -141 53.5 -213.5t149.5 -72.5q75 0 137.5 43.5t107 114.5t69 161t24.5 183q0 121 -47 183t-134 62zM1061 1502v-90q0 -30 -14.5 -51t-43.5 -28l-275 -44q-88 -14 -155.5 -45t-117.5 -74.5t-85 -96.5
t-58 -112.5t-36 -122t-20 -124.5q33 63 79 115t102.5 88.5t122.5 56.5t138 20q64 0 118.5 -21.5t94.5 -66t62.5 -112t22.5 -160.5q0 -80 -17 -159t-49.5 -151t-78.5 -133.5t-104.5 -107t-128 -71.5t-148.5 -26q-77 0 -143.5 27t-116 86t-78 153.5t-28.5 229.5q0 81 8 176.5
t30 194t62.5 193t105 173.5t157.5 135.5t221 79.5z" />
    <glyph glyph-name="afii10066.salt" horiz-adv-x="1048" 
d="M789 791q-33 42 -85.5 68.5t-118.5 26.5q-80 0 -144 -39.5t-109 -105.5t-69.5 -152.5t-24.5 -180.5q0 -72 15 -125.5t42 -88t64.5 -51.5t82.5 -17q69 0 131.5 39t110 120.5t75.5 207t28 298.5h2zM1189 1432l-14 -106q-4 -27 -19.5 -40t-41.5 -13q-33 0 -76.5 3.5t-92 9
l-100.5 11.5t-101 11q55 -57 96 -116.5t68 -127t40.5 -146t13.5 -172.5q0 -178 -43.5 -319t-117.5 -239t-172.5 -150t-208.5 -52q-79 0 -145 27.5t-113.5 81.5t-74 133t-26.5 182q0 114 34.5 223t98 194t153.5 137t201 52q80 0 141 -28t108 -81q-10 83 -34 146.5t-57.5 115
t-74 95l-84.5 86.5l11 82h631z" />
    <glyph glyph-name="afii10067" unicode="&#x432;" horiz-adv-x="952" 
d="M232 439q-1 -9 -1.5 -18t-0.5 -18q-1 -64 11.5 -116.5t38.5 -90t66 -57.5t94 -19q50 1 93.5 19.5t76 49t51 70.5t18.5 85q0 36 -12.5 67t-41.5 51t-75.5 26.5t-113.5 -6.5zM423 589q89 17 143.5 40t84 49.5t39.5 55t10 56.5q0 21 -6.5 41.5t-21.5 36.5t-39.5 26t-60.5 10
q-59 0 -110.5 -27t-93.5 -75t-73 -112.5t-48 -139.5zM600 559q54 -2 99 -16.5t77 -41t49.5 -65.5t17.5 -90q0 -69 -30.5 -134t-86 -115.5t-133.5 -81t-172 -30.5q-89 0 -157.5 29t-115 81t-70 124.5t-23.5 159.5q0 83 18 163t51.5 152t81.5 133t108 105t130.5 69t149.5 25
q66 0 115 -17t80.5 -45.5t47 -65t15.5 -75.5q0 -40 -14 -78t-44.5 -72.5t-78.5 -63.5t-115 -50z" />
    <glyph glyph-name="afii10068" unicode="&#x433;" horiz-adv-x="812" 
d="M452 1026q57 0 109 -13.5t91.5 -41t62.5 -68.5t23 -96q0 -53 -23 -97.5t-61 -83t-86.5 -72.5t-99.5 -65l-99.5 -61t-86.5 -60.5t-61 -63t-23 -69.5q0 -46 43.5 -77.5t118.5 -31.5q50 0 92 13.5t75 30t57.5 30t38.5 13.5t23 -5.5t17 -16.5l40 -62q-78 -70 -175 -106.5
t-196 -36.5q-72 0 -129.5 18t-97.5 50t-61.5 74.5t-21.5 92.5q0 54 23.5 99.5t61.5 85.5t87 75.5t100.5 67.5l100.5 62t87 59.5t61.5 60t23.5 63.5q0 39 -35 66t-101 27q-44 0 -82 -11.5t-68.5 -26t-53 -26.5t-36.5 -12q-8 0 -17 4t-16 19l-38 72q33 28 72.5 50.5t82.5 38
t88 23.5t89 8z" />
    <glyph glyph-name="afii10098" unicode="&#x491;" horiz-adv-x="763" 
d="M845 1263l-78 -376h-197q-72 0 -115.5 -51t-63.5 -161l-69 -394q-24 -139 -96 -214.5t-193 -75.5q-39 0 -55.5 7.5t-14.5 26.5l12 102h22q60 0 101 39.5t55 122.5l67 380q32 181 115.5 262t218.5 81h88l42 173q20 78 93 78h68z" />
    <glyph glyph-name="afii10069" unicode="&#x434;" horiz-adv-x="1052" 
d="M789 792q-33 42 -85.5 68.5t-118.5 26.5q-80 0 -144 -39.5t-109 -105.5t-69.5 -152.5t-24.5 -180.5q0 -73 15 -126t42 -87.5t64.5 -51.5t82.5 -17q69 0 131.5 39t110 120.5t75.5 207t28 298.5h2zM260 1439q163 16 293 -10t221 -103.5t139.5 -209t48.5 -326.5
q0 -194 -43.5 -344t-117.5 -252t-172.5 -154.5t-208.5 -52.5q-79 0 -145 27.5t-113.5 81t-74 132.5t-26.5 183q0 114 34.5 223t98 194t153.5 137t201 52q80 0 141.5 -28.5t109.5 -82.5q-12 117 -49 197t-100.5 128.5t-154.5 68.5t-209 16q-23 0 -30.5 10.5t-4.5 30.5z" />
    <glyph glyph-name="afii10072" unicode="&#x436;" horiz-adv-x="1742" 
d="M923 400q43 83 95 161.5t108.5 148t115 128t114 100.5t106.5 65.5t93 23.5q45 0 87.5 -15.5t84.5 -50.5l-42 -74q-10 -16 -19.5 -22t-20.5 -6q-8 0 -17.5 3.5l-21.5 8t-26.5 8t-32.5 3.5q-47 0 -92 -38t-80.5 -106.5t-57 -163.5t-21.5 -209q0 -66 7.5 -111.5t22.5 -74
t37 -41t51 -12.5q25 0 45.5 8t36.5 18t28 18.5t21 8.5q10 0 19.5 -2.5t15.5 -13.5l39 -76q-29 -28 -60.5 -47t-63.5 -31t-62.5 -17t-57.5 -5q-106 0 -168 76t-62 234q0 101 18.5 193.5t53.5 173.5q-46 -54 -93.5 -121.5t-91.5 -144t-81 -159.5t-62 -168l-7 -72h-150l63 617
q-43 -83 -95 -162t-108.5 -149t-114.5 -128t-114 -100.5t-107.5 -66t-93.5 -23.5q-45 0 -87.5 15t-85.5 50l43 74q10 17 19.5 22.5t20.5 5.5q8 1 17.5 -2.5l21.5 -8t26.5 -8.5t32.5 -4q47 0 92 38t80.5 107t57 164t21.5 209q0 66 -7.5 111t-22.5 73.5t-37 41t-51 12.5
q-26 0 -46 -8t-36 -18l-28 -18t-21 -9q-10 0 -19.5 3t-15.5 13l-39 76q29 28 60.5 47.5t63.5 31.5t62.5 17t57.5 5q106 0 168 -76.5t62 -234.5q0 -101 -18.5 -193t-53.5 -173q46 55 94.5 123t92.5 145.5t81 161t61 169.5l7 65l150 -1z" />
    <glyph glyph-name="afii10073" unicode="&#x437;" horiz-adv-x="866" 
d="M113 886q28 30 68 56t87.5 45t101.5 30t111 11q79 0 135.5 -19.5t93.5 -51.5t54.5 -73.5t17.5 -85.5q0 -36 -11.5 -73.5t-38 -71t-69 -60.5t-104.5 -42q94 -18 142.5 -76t48.5 -142q0 -64 -27.5 -126t-82 -111t-135.5 -79.5t-187 -30.5q-100 0 -183.5 32t-149.5 93l45 73
q5 9 15 16.5t21 7.5q18 0 38 -14t48.5 -30.5t70 -30.5t103.5 -14t110.5 17t82 46.5t51 69t17.5 85.5q0 76 -51.5 112t-145.5 36q-30 0 -67.5 -4.5t-72.5 -9.5q0 34 2.5 66.5t15.5 65.5q28 -3 54.5 -5.5t54.5 -2.5q62 -1 108 13.5t76.5 38.5t45.5 55t15 64q0 26 -9 49
t-30 40.5t-54 28t-81 10.5q-63 0 -106.5 -13.5t-73 -30t-48.5 -31t-32 -15.5q-11 -1 -19.5 2.5t-18.5 18.5z" />
    <glyph glyph-name="afii10074" unicode="&#x438;" horiz-adv-x="1059" 
d="M975 1013l-122 -1013h-88q-65 0 -65 64l15 185q-80 -130 -180.5 -196.5t-206.5 -66.5q-64 0 -113 25.5t-79.5 74.5t-41.5 120t1 163l76 644h177l-76 -644q-14 -119 14.5 -177t107.5 -58q46 0 95 25t94 71t84.5 111.5t67.5 145.5l63 526h177z" />
    <glyph glyph-name="afii10076" unicode="&#x43a;" horiz-adv-x="963" 
d="M644 848l55 75.5t49 51.5t55 29.5t73 9.5h75l-18 -92q-4 -22 -16.5 -28.5t-30 -11.5t-38 -15t-41.5 -38l-149 -196q-15 -20 -29 -36t-29 -27.5t-32.5 -20t-39.5 -13.5q57 -11 92.5 -42t59.5 -88l186 -406h-101q-46 0 -69.5 15.5t-37.5 44.5l-148 318q-17 39 -48 64.5
t-73 25.5l-106 -20l-54 -448h-171l123 1013h171l-55 -448l87 18q20 4 35 9t27.5 12.5t23.5 18.5t22 26z" />
    <glyph glyph-name="afii10077" unicode="&#x43b;" horiz-adv-x="1083" 
d="M268 541q32 127 75 216.5t106.5 146t152.5 82.5t212 26h186l-124 -1012h-171l107 877h-33q-74 0 -127.5 -17.5t-93.5 -57.5t-69 -106.5t-53 -163.5q-36 -155 -75.5 -259.5t-86 -168t-101.5 -90.5t-122 -27q-45 0 -62 7.5t-15 26.5l12 101h33q47 0 80.5 22t61 71.5
t52.5 129.5t55 196z" />
    <glyph glyph-name="afii10106" unicode="&#x459;" horiz-adv-x="1571" 
d="M919 228q-6 -49 30.5 -82.5t110.5 -33.5q54 0 103.5 27.5t86.5 71.5t59 99t22 110q0 29 -6 55.5t-20.5 47t-38.5 32.5t-60 12q-47 0 -94.5 -25.5t-87 -67t-67 -93.5t-33.5 -105zM953 514q31 40 68.5 73t78 56t82.5 36t82 13q54 0 97 -18t73.5 -50t46.5 -78t16 -101
q0 -92 -39.5 -175t-107 -146t-156.5 -100.5t-187 -37.5q-71 0 -123 18t-84.5 51.5t-45.5 80.5t-6 105l77 636h-26q-74 0 -130.5 -17.5t-100.5 -57.5t-76 -106.5t-56 -163.5q-36 -155 -75.5 -259.5t-86 -168t-101.5 -90.5t-122 -27q-45 0 -62 7.5t-15 26.5l12 101h33
q47 0 80.5 22t61 71.5t52.5 129.5t55 196q32 127 78 216.5t113.5 146t159.5 82.5t215 26h7v1h173v-1z" />
    <glyph glyph-name="afii10078" unicode="&#x43c;" horiz-adv-x="1393" 
d="M1310 1016l-124 -1016h-161l88 704q2 20 7 44t11 47l-436 -734q-10 -14 -23.5 -23t-30.5 -9h-25q-16 0 -27.5 9t-17.5 23l-222 730l-8.5 -54.5t-9.5 -49.5l-30 -158.5t-32.5 -155t-38.5 -156t-49 -161.5q-9 -26 -27 -41t-46 -15h-106l73.5 241.5t67 247.5t59.5 257
t52 270h139q18 0 36 -7.5t25 -31.5l205 -619q7 -24 12.5 -45.5t9.5 -41.5q6 15 13.5 31t17.5 32l379 643q15 23 33.5 31t36.5 8h149z" />
    <glyph glyph-name="afii10079" unicode="&#x43d;" horiz-adv-x="1056" 
d="M972 1013l-122 -1013h-177l56 465h-437l-56 -465h-177l122 1013h177l-50 -416h437l50 416h177z" />
    <glyph glyph-name="afii10107" unicode="&#x45a;" horiz-adv-x="1524" 
d="M872 228q-6 -49 30.5 -82.5t110.5 -33.5q54 0 103.5 27.5t86.5 71.5t59 99t22 110q0 29 -6 55.5t-20.5 47t-38.5 32.5t-60 12q-47 0 -94.5 -25.5t-87 -67t-67 -93.5t-33.5 -105zM906 514q31 40 68.5 73t78 56t82.5 36t82 13q54 0 97 -18t73.5 -50t46.5 -78t16 -101
q0 -92 -39.5 -175t-107 -146t-156.5 -100.5t-187 -37.5q-71 0 -123 18t-84.5 51.5t-45.5 80.5t-6 105l28 229h-436l-57 -470h-178l122 1013h178l-50 -412h436l50 412h173z" />
    <glyph glyph-name="afii10195" unicode="&#x473;" horiz-adv-x="1038" 
d="M233 453q-1 -12 -1.5 -24.5t-0.5 -24.5q0 -143 56.5 -216.5t163.5 -73.5q60 0 110.5 26t91 72t69.5 108t44 133h-533zM781 569q1 11 1 20.5v20.5q0 144 -56.5 216.5t-162.5 72.5q-59 0 -109.5 -25.5t-90.5 -69.5t-69 -104.5t-45 -130.5h532zM577 1028q83 0 152 -28.5
t119 -82.5t78 -132t28 -177q0 -127 -40 -240t-109.5 -198t-164.5 -134.5t-204 -49.5q-83 0 -152 28.5t-119 82.5t-78 132t-28 178q0 85 18 164t51.5 148t80.5 126t104.5 97.5t124 63t139.5 22.5z" />
    <glyph glyph-name="afii10081" unicode="&#x43f;" horiz-adv-x="1060" 
d="M314 757q81 134 183 202.5t210 68.5q64 0 112.5 -25.5t79 -74.5t41.5 -120.5t0 -162.5l-76 -645h-177l76 645q14 120 -15 177.5t-107 57.5q-48 0 -97.5 -26t-95.5 -74t-85.5 -115.5t-67.5 -150.5l-58 -514h-178l122 1014h88q60 0 60 -60z" />
    <glyph glyph-name="afii10084" unicode="&#x442;" horiz-adv-x="1574" 
d="M59 0l122 1014h88q61 0 61 -60l-14 -180q75 125 164.5 189.5t187.5 64.5q103 0 152 -70.5t49 -201.5q75 139 169.5 205.5t199.5 66.5q130 0 184 -100t32 -283l-76 -645h-176l77 645q14 119 -7.5 177t-96.5 58q-43 0 -85.5 -21.5t-82.5 -63t-74.5 -103t-61.5 -141.5v-1
l-65 -550h-176l76 645q15 119 -4 177t-94 58q-48 0 -92.5 -24t-84 -69.5t-73.5 -111t-62 -147.5l-63 -528h-174z" />
    <glyph glyph-name="afii10196" unicode="&#x475;" horiz-adv-x="998" 
d="M703 849q22 55 48 89t55.5 53t61.5 25.5t66 6.5q24 0 39.5 -3t24.5 -7t12 -8.5t2 -8.5l-12 -96h-27q-40 0 -69 -18.5t-49 -62.5l-378 -819h-156l-252 1012h141q20 0 33 -11t15 -25l150 -661q7 -30 11 -59.5t7 -58.5l20.5 57.5l21.5 60.5z" />
    <glyph glyph-name="afii10086" unicode="&#x444;" horiz-adv-x="1457" 
d="M762 161q27 -20 58.5 -29t64.5 -9q75 0 133 45.5t98 119t60.5 166t20.5 185.5q0 67 -11.5 114t-33 76t-52.5 42.5t-70 13.5q-55 0 -107.5 -25t-84.5 -70zM670 852q-26 20 -58 29t-65 9q-75 0 -133.5 -45.5t-98.5 -119t-60.5 -165.5t-20.5 -186q0 -67 11.5 -113.5
t33.5 -76t53 -42.5t70 -13q27 0 54.5 6.5t53 18.5t47.5 30t38 41zM855 933q47 46 106 70.5t132 24.5q63 0 115 -21.5t89 -67t57 -116t20 -169.5q0 -85 -15 -167.5t-43.5 -156.5t-68.5 -137t-91 -109t-111.5 -72t-128.5 -26q-54 0 -96 20t-71 49l-39 -322q-5 -35 -30.5 -58.5
t-67.5 -23.5h-86l52 431q-48 -47 -107 -71.5t-132 -24.5q-63 0 -115 21.5t-89 66.5t-57 115.5t-20 169.5q0 85 15 167.5t43.5 156.5t68.5 137.5t91 109.5t111.5 72t128.5 26q54 0 96 -20.5t71 -49.5l52 432q5 35 30.5 59t67.5 24h87z" />
    <glyph glyph-name="afii10088" unicode="&#x446;" horiz-adv-x="1124" 
d="M1039 131l-103 -427q-3 -25 -18.5 -39t-38.5 -14h-105l93 349h-102q-65 0 -65 64l15 185q-80 -130 -180.5 -196.5t-206.5 -66.5q-64 0 -113 25.5t-79.5 74.5t-41.5 120t1 163l76 644h177l-76 -644q-14 -119 14.5 -177t107.5 -58q46 0 95 25t94 71t84.5 111.5t67.5 145.5
l63 526h177l-109 -906l3 24h170z" />
    <glyph glyph-name="afii10193" unicode="&#x45f;" horiz-adv-x="1059" 
d="M975 1013l-122 -1013h-88q-65 0 -65 64l15 185q-51 -83 -110.5 -139.5t-124.5 -87.5l-40 -318q-3 -25 -18.5 -39t-37.5 -14h-107l42 335q-62 2 -109 28.5t-76 75t-39.5 119t0.5 160.5l76 644h177l-76 -644q-14 -119 14.5 -177t107.5 -58q46 0 95 25t94 71t84.5 111.5
t67.5 145.5l63 526h177z" />
    <glyph glyph-name="afii10089" unicode="&#x447;" horiz-adv-x="958" 
d="M874 1013l-121 -1013h-178l57 477q-63 -78 -145.5 -123t-182.5 -45q-66 0 -113 24.5t-75 68.5t-37 104.5t0 133.5l45 373h178l-45 -373q-5 -39 -1 -72.5t18.5 -58t40 -38.5t63.5 -14q44 0 86 15.5t78.5 44.5t65.5 69.5t49 90.5l40 336h177z" />
    <glyph glyph-name="afii10090" unicode="&#x448;" horiz-adv-x="1574" 
d="M1490 1013l-122 -1013h-88q-62 0 -61 61l14 180q-75 -125 -164.5 -190t-187.5 -65q-103 0 -152.5 70.5t-48.5 202.5q-75 -140 -169.5 -206.5t-199.5 -66.5q-130 0 -184.5 100t-31.5 283l76 644h176l-77 -644q-14 -119 7.5 -177t96.5 -58q43 0 85.5 21.5t82.5 63.5
t74.5 104t61.5 142l65 548h176l-76 -644q-8 -59 -7.5 -103.5t11.5 -73.5t33.5 -43.5t60.5 -14.5q48 0 92 24t84 69.5t74 111t62 147.5l63 527h174z" />
    <glyph glyph-name="afii10091" unicode="&#x449;" horiz-adv-x="1635" 
d="M1547 131l-103 -427q-3 -25 -19 -39t-38 -14h-106l93 349h-94q-62 0 -61 61l14 180q-75 -125 -164.5 -190t-187.5 -65q-103 0 -152.5 70.5t-48.5 202.5q-75 -140 -169.5 -206.5t-199.5 -66.5q-130 0 -184.5 100t-31.5 283l76 644h176l-77 -644q-14 -119 7.5 -177
t96.5 -58q43 0 85.5 21.5t82.5 63.5t74.5 104t61.5 142l65 548h176l-76 -644q-8 -59 -7.5 -103.5t11.5 -73.5t33.5 -43.5t60.5 -14.5q48 0 92 24t84 69.5t74 111t62 147.5l63 527h174l-106 -882h163z" />
    <glyph glyph-name="afii10092" unicode="&#x44a;" horiz-adv-x="1035" 
d="M529 112q54 0 102 26.5t84 69.5t57.5 98.5t21.5 113.5q0 29 -6 55.5t-20.5 47t-38.5 32.5t-59 12q-50 0 -101 -24.5t-92.5 -66t-68 -95.5t-26.5 -112q0 -78 41.5 -117.5t105.5 -39.5zM572 921q-72 -100 -110.5 -200.5t-54.5 -205.5q32 41 71.5 74t82 56t87 35t86.5 12
q51 0 93 -18t71.5 -50.5t45.5 -78.5t16 -102q0 -53 -14.5 -107.5t-42 -105.5t-67.5 -95.5t-90.5 -77.5t-111 -52t-129.5 -19q-66 0 -120.5 19.5t-93.5 60.5t-60 104.5t-21 150.5q0 65 9.5 132.5t32 137t59 142t89.5 147.5h-344l8 64q5 30 25.5 49.5t56.5 19.5h440z" />
    <glyph glyph-name="afii10093" unicode="&#x44b;" horiz-adv-x="1293" 
d="M1209 1013l-122 -1013h-177l121 1013h178zM253 228q-6 -49 30.5 -82.5t110.5 -33.5q54 0 103.5 27.5t86.5 71.5t59 99t22 110q0 29 -6 55.5t-20.5 47t-38.5 32.5t-60 12q-47 0 -94.5 -25.5t-87 -67t-67 -93.5t-33.5 -105zM287 514q31 40 68.5 73t78 56t82.5 36t82 13
q54 0 97 -18t73.5 -50t46.5 -78t16 -101q0 -92 -39.5 -175t-107 -146t-156.5 -100.5t-187 -37.5q-71 0 -123 18t-84.5 51.5t-45.5 80.5t-6 105l93 772h173z" />
    <glyph glyph-name="afii10094" unicode="&#x44c;" horiz-adv-x="905" 
d="M253 228q-6 -49 30.5 -82.5t110.5 -33.5q54 0 103.5 27.5t86.5 71.5t59 99t22 110q0 29 -6 55.5t-20.5 47t-38.5 32.5t-60 12q-47 0 -94.5 -25.5t-87 -67t-67 -93.5t-33.5 -105zM287 514q31 40 68.5 73t78 56t82.5 36t82 13q54 0 97 -18t73.5 -50t46.5 -78t16 -101
q0 -92 -39.5 -175t-107 -146t-156.5 -100.5t-187 -37.5q-71 0 -123 18t-84.5 51.5t-45.5 80.5t-6 105l93 772h173z" />
    <glyph glyph-name="afii10095" unicode="&#x44d;" horiz-adv-x="914" 
d="M88 905q40 30 79 53t80.5 38t87 23t96.5 8q97 0 171.5 -32.5t124 -91.5t75 -142t25.5 -183q0 -123 -38 -231t-106.5 -188.5t-163.5 -126.5t-210 -46q-100 0 -174 35.5t-125 104.5l51 61q6 8 15 13t19 5q13 0 29 -12.5t40.5 -28t59.5 -28t86 -12.5q67 0 123 24.5t99 69
t71.5 105.5t41.5 134h-446l14 120h441q-1 73 -17 131.5t-48 99t-79 62.5t-110 22q-51 0 -89 -12.5t-66 -27.5t-48.5 -27t-36.5 -12q-20 0 -28.5 7.5t-13.5 16.5z" />
    <glyph glyph-name="afii10101" unicode="&#x454;" horiz-adv-x="914" 
d="M818 182q-52 -57 -99 -95t-94 -60.5t-97.5 -31.5t-108.5 -9q-88 0 -155.5 30t-113 84.5t-69 131t-23.5 168.5q0 123 38.5 236t107.5 200t164.5 139t208.5 52q101 0 169 -35.5t119 -103.5l-51 -62q-6 -7 -15 -12.5t-20 -5.5q-14 0 -27.5 12.5t-35 28t-54 28t-83.5 12.5
q-57 0 -108.5 -23t-94 -64.5t-74.5 -98.5t-50 -126h432l-14 -120h-437q-2 -13 -2 -26v-26q0 -62 14.5 -114t43 -90t71.5 -59t101 -21q45 0 80 9.5t62 23.5t47.5 30.5l37 30.5t30 23.5t27.5 9.5q19 0 34 -17l39 -49v0z" />
    <glyph glyph-name="afii10096" unicode="&#x44e;" horiz-adv-x="1401" 
d="M849 125q66 0 119.5 40.5t91.5 108.5t58.5 156t20.5 184q0 137 -47.5 205.5t-138.5 68.5q-66 0 -119.5 -40t-91.5 -107.5t-58.5 -155.5t-20.5 -185q1 -135 48 -205t138 -70zM512 573q21 98 63.5 181.5t102.5 144t134.5 95t158.5 34.5q75 0 138.5 -28t110 -81t72.5 -130
t26 -175q0 -128 -37.5 -242t-103.5 -200t-155.5 -136t-192.5 -50q-75 0 -136.5 28t-105 81t-68 130.5t-24.5 175.5v23.5t1 23.5h-212l-55 -448h-172l125 1012h172l-54 -439h212z" />
    <glyph glyph-name="afii10097" unicode="&#x44f;" horiz-adv-x="999" 
d="M739 896h-204q-61 0 -102.5 -19.5t-66.5 -49t-35.5 -65t-10.5 -67.5q0 -73 48 -114.5t133 -41.5h194zM916 1012l-124 -1012h-163l53 429h-129q-30 0 -52 -6t-38.5 -17t-29.5 -26.5t-25 -35.5l-141 -230q-22 -38 -47 -62.5t-53 -38t-58 -18.5t-62 -5q-47 0 -64.5 7.5
t-15.5 27.5l12 99h34q39 0 69.5 17t55.5 55l113 170q23 36 53 59.5t71 37.5q-62 9 -105 32t-70 55t-39 70.5t-12 79.5q0 54 22 109.5t68.5 100.5t119.5 73.5t176 28.5h381z" />
    <glyph glyph-name="afii10099" unicode="&#x452;" horiz-adv-x="1031" 
d="M319 732q75 96 163.5 153.5t188.5 57.5q64 0 112 -24.5t79.5 -70t47 -110.5t15.5 -145q0 -236 -91.5 -465t-254.5 -460l-132 55q79 123 136 234t94.5 214.5t55.5 201t18 192.5q0 116 -37.5 179t-113.5 63q-38 0 -78 -19t-79 -53.5t-76.5 -82.5t-70.5 -105l-67 -547h-172
l135 1101h-164l16 134h165l29 237h172l-29 -237h320l-16 -134h-321z" />
    <glyph glyph-name="afii10194" unicode="&#x463;" horiz-adv-x="1057" 
d="M395 228q-6 -49 30.5 -82.5t110.5 -33.5q54 0 103.5 27.5t86.5 71.5t59 99t22 110q0 29 -6 55.5t-20.5 47t-38.5 32.5t-60 12q-47 0 -94.5 -25.5t-87 -67t-67 -93.5t-33.5 -105zM429 514q31 40 68.5 73t78 56t82.5 36t82 13q54 0 97 -18t73.5 -50t46.5 -78t16 -101
q0 -92 -39.5 -175t-107 -146t-156.5 -100.5t-187 -37.5q-71 0 -123 18t-84.5 51.5t-45.5 80.5t-6 105l58 480h-1l20 159h-244l16 133h244l35 284h174l-35 -284h287l-17 -133h-286l-20 -159h-1z" />
    <glyph glyph-name="glyph304" 
d="M510 1258q37 0 64 9.5t45.5 30.5t29.5 54t16 81h96q18 0 25 -17t5 -37q-6 -50 -28.5 -90t-60.5 -68.5t-89.5 -43.5t-114.5 -15q-126 0 -189.5 58.5t-52.5 158.5q2 20 13 37t28 17h97q-11 -95 14.5 -135t101.5 -40z" />
    <glyph glyph-name="glyph305" 
d="M505 1221q25 0 42.5 5.5t29 19t18 35.5t10.5 55h85q16 0 22 -14.5t4 -31.5q-4 -36 -21.5 -64.5t-46.5 -48.5t-68 -31t-85 -11q-94 0 -144 41.5t-41 113.5q2 17 11 31.5t24 14.5h85q-8 -65 8.5 -90t66.5 -25z" />
    <glyph glyph-name="glyph306" 
d="M550 1619q38 0 65 9t45.5 29t29 52.5t16.5 80.5h95q17 0 25 -16.5t5 -37.5q-11 -99 -88 -153.5t-203 -54.5q-127 0 -191 54t-52 154q2 21 12.5 37.5t28.5 16.5h95q-5 -48 -1.5 -80.5t17.5 -52.5t38.5 -29t62.5 -9z" />
    <glyph glyph-name="exclam" unicode="!" horiz-adv-x="505" 
d="M430 1433l-70 -574q-6 -45 -13 -87.5t-15.5 -85.5t-18.5 -89l-22 -98h-116q1 52 2.5 98t4 89t6 85.5t9.5 87.5l70 574h163zM75 110q0 26 9.5 49t26 40t39 27t49.5 10q26 0 48.5 -10t39.5 -27t27 -40t10 -49q0 -27 -10 -49.5t-27 -39.5t-39.5 -26.5t-48.5 -9.5
q-27 0 -49.5 9.5t-39 26.5t-26 39.5t-9.5 49.5z" />
    <glyph glyph-name="question" unicode="?" horiz-adv-x="837" 
d="M158 1303q33 29 70.5 55t81 46t93.5 31.5t106 11.5q70 0 126.5 -21t96 -58t60.5 -87.5t21 -109.5q0 -84 -23.5 -143t-59.5 -102.5t-79 -75l-82.5 -61t-70 -61.5t-41.5 -75l-37 -154h-119l11 166q2 48 28.5 84.5t64 69t81 63.5t81 67.5t62 82t24.5 106.5q0 78 -47.5 123
t-128.5 45q-56 0 -97 -15t-70.5 -33t-49 -33t-32.5 -15t-20 5t-14 17zM213 110q0 26 9.5 49t26 40t39.5 27t49 10t49 -10t40 -27t27 -40t10 -49q0 -27 -10 -49.5t-27 -39.5t-40 -26.5t-49 -9.5t-49 9.5t-39.5 26.5t-26 39.5t-9.5 49.5z" />
    <glyph glyph-name="uni203D" unicode="&#x203d;" horiz-adv-x="912" 
d="M325 236q26 0 49 -10t40 -27t27 -40t10 -49q0 -27 -10 -49.5t-27 -39.5t-40 -26.5t-49 -9.5t-49 9.5t-39.5 26.5t-26 39.5t-9.5 49.5q0 26 9.5 49t26 40t39.5 27t49 10zM458 1402q31 11 73 18t82 7q64 0 116.5 -17.5t90 -51t57.5 -82t20 -110.5q0 -90 -28 -151t-71 -106
t-95 -79t-100 -69t-85 -76t-51 -100l-30 -105h-108q-7 34 -13.5 72l-13 78.5l-12.5 81.5l-12 80l-90 619l164 40l56 -497l3 -35l4.5 -51.5t4 -61t3.5 -65.5q27 43 60.5 75t68.5 60.5l68 54.5t59 56.5t42 67.5t16 86q0 67 -42 105.5t-111 38.5q-29 0 -49.5 -4t-28.5 -4
q-36 0 -37 29z" />
    <glyph glyph-name="comma" unicode="," horiz-adv-x="449" 
d="M65 -242q-13 12 -13 28q0 12 16 31l37 45.5t41 61t27 77.5q-4 -1 -13 -1q-52 0 -84.5 34.5t-32.5 88.5q0 47 32.5 80t86.5 33q30 0 53 -11t38.5 -30.5t23.5 -45t8 -55.5q0 -45 -12.5 -93.5t-37 -96t-59.5 -92.5t-80 -83z" />
    <glyph glyph-name="semicolon" unicode=";" horiz-adv-x="519" 
d="M103 -242q-13 12 -13 28q0 12 16 31l37 45.5t41 61t27 77.5q-4 -1 -13 -1q-52 0 -84.5 34.5t-32.5 88.5q0 47 32.5 80t86.5 33q30 0 53 -11t38.5 -30.5t23.5 -45t8 -55.5q0 -45 -12.5 -93.5t-37 -96t-59.5 -92.5t-80 -83zM161 860q0 26 9.5 49t26 40t39.5 27t49 10
t49 -10t40 -27t27 -40t10 -49q0 -27 -10 -49.5t-27 -39.5t-40 -26.5t-49 -9.5t-49 9.5t-39.5 26.5t-26 39.5t-9.5 49.5z" />
    <glyph glyph-name="period" unicode="." horiz-adv-x="468" 
d="M52 110q0 26 9.5 49t26 40t39.5 27t49 10t49 -10t40 -27t27 -40t10 -49q0 -27 -10 -49.5t-27 -39.5t-40 -26.5t-49 -9.5t-49 9.5t-39.5 26.5t-26 39.5t-9.5 49.5z" />
    <glyph glyph-name="ellipsis" unicode="&#x2026;" horiz-adv-x="1497" 
d="M52 110q0 26 9.5 49t26 40t39.5 27t49 10t49 -10t40 -27t27 -40t10 -49q0 -27 -10 -49.5t-27 -39.5t-40 -26.5t-49 -9.5t-49 9.5t-39.5 26.5t-26 39.5t-9.5 49.5zM566 110q0 26 9.5 49t26 40t39.5 27t49 10t49 -10t40 -27t27 -40t10 -49q0 -27 -10 -49.5t-27 -39.5
t-40 -26.5t-49 -9.5t-49 9.5t-39.5 26.5t-26 39.5t-9.5 49.5zM1080 110q0 26 9.5 49t26.5 40t39.5 27t49.5 10q26 0 48.5 -10t39.5 -27t27 -40t10 -49q0 -27 -10 -49.5t-27 -39.5t-39.5 -26.5t-48.5 -9.5q-27 0 -49.5 9.5t-39.5 26.5t-26.5 39.5t-9.5 49.5z" />
    <glyph glyph-name="quoteleft" unicode="&#x2018;" horiz-adv-x="408" 
d="M201 1016q-31 69 -32.5 137.5t22 134t69 126t109.5 112.5l47 -31q11 -8 11 -22q0 -8 -4 -15t-15 -19q-22 -26 -44.5 -61.5t-35.5 -78t-12.5 -91t23.5 -99.5q7 -16 -0.5 -29.5t-27.5 -21.5z" />
    <glyph glyph-name="quoteright" unicode="&#x2019;" horiz-adv-x="412" 
d="M376 1503q31 -69 32.5 -137.5t-22 -134t-69 -126t-109.5 -112.5l-47 31q-11 8 -11 22q0 8 4 15t15 19q22 25 44.5 60.5t35.5 78.5t12.5 91.5t-23.5 99.5q-7 16 0.5 29.5t27.5 21.5z" />
    <glyph glyph-name="quotedblleft" unicode="&#x201c;" horiz-adv-x="688" 
d="M201 1016q-31 69 -32.5 137.5t22 134t69 126t109.5 112.5l47 -31q11 -8 11 -22q0 -8 -4 -15t-15 -19q-22 -26 -44.5 -61.5t-35.5 -78t-12.5 -91t23.5 -99.5q7 -16 -0.5 -29.5t-27.5 -21.5zM480 1016q-31 69 -32.5 137.5t22 134t69 126t109.5 112.5l47 -31q11 -8 11 -22
q0 -8 -4 -15t-15 -19q-22 -26 -44.5 -61.5t-35.5 -78t-12.5 -91t23.5 -99.5q7 -16 -0.5 -29.5t-27.5 -21.5z" />
    <glyph glyph-name="quotedblright" unicode="&#x201d;" horiz-adv-x="691" 
d="M376 1503q31 -69 32.5 -137.5t-22 -134t-69 -126t-109.5 -112.5l-47 31q-11 8 -11 22q0 8 4 15t15 19q22 25 44.5 60.5t35.5 78.5t12.5 91.5t-23.5 99.5q-7 16 0.5 29.5t27.5 21.5zM655 1503q31 -69 32.5 -137.5t-22 -134t-69 -126t-109.5 -112.5l-47 31q-11 8 -11 22
q0 8 4 15t15 19q22 25 44.5 60.5t35.5 78.5t12.5 91.5t-23.5 99.5q-7 16 0.5 29.5t27.5 21.5z" />
    <glyph glyph-name="quotesinglbase" unicode="&#x201a;" horiz-adv-x="402" 
d="M201 236q31 -69 32.5 -137.5t-22 -134t-69 -126t-109.5 -112.5l-47 31q-11 8 -11 22q0 8 4 15t15 19q22 25 44.5 60.5t35.5 78.5t12.5 91.5t-23.5 99.5q-7 16 0.5 29.5t27.5 21.5z" />
    <glyph glyph-name="quotedblbase" unicode="&#x201e;" horiz-adv-x="681" 
d="M201 236q31 -69 32.5 -137.5t-22 -134t-69 -126t-109.5 -112.5l-47 31q-11 8 -11 22q0 8 4 15t15 19q22 25 44.5 60.5t35.5 78.5t12.5 91.5t-23.5 99.5q-7 16 0.5 29.5t27.5 21.5zM480 236q31 -69 32.5 -137.5t-22 -134t-69 -126t-109.5 -112.5l-47 31q-11 8 -11 22
q0 8 4 15t15 19q22 25 44.5 60.5t35.5 78.5t12.5 91.5t-23.5 99.5q-7 16 0.5 29.5t27.5 21.5z" />
    <glyph glyph-name="guilsinglleft" unicode="&#x2039;" horiz-adv-x="518" 
d="M246 565q-16 -23 -32 -36q11 -11 22 -36l112 -263q10 -23 3.5 -43t-29.5 -31l-60 -27l-183 389l3 22l279 388l52 -27q21 -11 23 -30.5t-15 -42.5z" />
    <glyph glyph-name="guilsinglright" unicode="&#x203a;" horiz-adv-x="516" 
d="M417 540l-2 -22l-277 -389l-53 27q-21 11 -22.5 31t13.5 43l177 263q15 24 30 36q-13 12 -22 36l-112 263q-10 23 -2.5 42.5t30.5 30.5l58 27z" />
    <glyph glyph-name="guillemotleft" unicode="&#xab;" horiz-adv-x="789" 
d="M246 565q-16 -23 -32 -36q11 -11 22 -36l112 -263q10 -23 3.5 -43t-29.5 -31l-60 -27l-183 389l3 22l279 388l52 -27q21 -11 23 -30.5t-15 -42.5zM517 565q-16 -23 -32 -36q11 -11 22 -36l112 -263q10 -23 3.5 -43t-29.5 -31l-60 -27l-183 389l3 22l279 388l52 -27
q21 -11 23 -30.5t-15 -42.5z" />
    <glyph glyph-name="guillemotright" unicode="&#xbb;" horiz-adv-x="788" 
d="M417 540l-2 -22l-277 -389l-53 27q-21 11 -22.5 31t13.5 43l177 263q15 24 30 36q-13 12 -22 36l-112 263q-10 23 -2.5 42.5t30.5 30.5l58 27zM689 540l-2 -22l-277 -389l-53 27q-21 11 -22.5 31t13.5 43l177 263q15 24 30 36q-13 12 -22 36l-112 263q-10 23 -2.5 42.5
t30.5 30.5l58 27z" />
    <glyph glyph-name="slash" unicode="/" horiz-adv-x="836" 
d="M153 -25q-16 -32 -45 -49t-56 -17h-73l725 1479q15 29 40 46t57 17h73z" />
    <glyph glyph-name="bar" unicode="|" horiz-adv-x="517" 
d="M188 1533h138v-1876h-138v1876z" />
    <glyph glyph-name="brokenbar" unicode="&#xa6;" horiz-adv-x="516" 
d="M187 1533h139v-794h-139v794zM187 452h139v-795h-139v795z" />
    <glyph glyph-name="backslash" unicode="\" horiz-adv-x="829" 
d="M165 1451h73q32 0 53.5 -17t29.5 -46l360 -1479h-71q-28 0 -53 17t-33 49z" />
    <glyph glyph-name="hyphen" unicode="-" horiz-adv-x="702" 
d="M130 672h457l-18 -146h-457z" />
    <glyph glyph-name="hyphen" unicode="&#x2010;" horiz-adv-x="702" 
d="M130 672h457l-18 -146h-457z" />
    <glyph glyph-name="hyphen" unicode="&#xad;" horiz-adv-x="702" 
d="M130 672h457l-18 -146h-457z" />
    <glyph glyph-name="endash" unicode="&#x2013;" horiz-adv-x="1160" 
d="M216 652h736l-15 -125h-736z" />
    <glyph glyph-name="emdash" unicode="&#x2014;" horiz-adv-x="1471" 
d="M127 652h1226l-16 -125h-1225z" />
    <glyph glyph-name="underscore" unicode="_" horiz-adv-x="888" 
d="M713 -168l-15 -116h-725l14 116h726z" />
    <glyph glyph-name="bullet" unicode="&#x2022;" horiz-adv-x="1160" 
d="M206 595q0 77 29.5 145t79.5 118.5t117.5 80t143.5 29.5q77 0 145 -29.5t118.5 -80t80 -118.5t29.5 -145t-29.5 -144.5t-80 -117.5t-118.5 -79.5t-145 -29.5q-76 0 -143.5 29.5t-117.5 79.5t-79.5 117.5t-29.5 144.5z" />
    <glyph glyph-name="periodcentered" unicode="&#xb7;" horiz-adv-x="514" 
d="M105 593q0 31 11.5 59t32 48t47 32t56.5 12q31 0 59 -12t48 -32t32 -48t12 -59q0 -30 -12 -57t-32 -47.5t-48 -32t-59 -11.5q-30 0 -56.5 11.5t-47 32t-32 47.5t-11.5 57z" />
    <glyph glyph-name="periodcentered" unicode="&#x2219;" horiz-adv-x="514" 
d="M105 593q0 31 11.5 59t32 48t47 32t56.5 12q31 0 59 -12t48 -32t32 -48t12 -59q0 -30 -12 -57t-32 -47.5t-48 -32t-59 -11.5q-30 0 -56.5 11.5t-47 32t-32 47.5t-11.5 57z" />
    <glyph glyph-name="parenleft" unicode="(" horiz-adv-x="517" 
d="M237 441q0 -74 7 -153.5t20.5 -159.5t34.5 -157t48 -144q11 -30 1.5 -46t-25.5 -26l-81 -46q-42 86 -71.5 177.5t-48.5 183.5t-28 182t-9 173q0 140 16 272.5t58.5 267.5t116.5 278.5t191 305.5l71 -47q13 -10 19 -26t-13 -45q-74 -114 -131 -227.5t-96 -233.5
t-59.5 -250.5t-20.5 -278.5z" />
    <glyph glyph-name="parenright" unicode=")" horiz-adv-x="516" 
d="M286 817q0 73 -7 153t-21.5 160t-35 157t-47.5 144q-11 29 -2 45t25 26l83 47q41 -87 70.5 -178t48 -183t27.5 -182t9 -174q0 -140 -16 -272.5t-58 -267.5t-116 -278t-191 -305l-71 46q-7 5 -12 11t-7 14.5t1 20t13 26.5q73 114 130 230t96.5 238.5t60 252t20.5 269.5z
" />
    <glyph glyph-name="bracketleft" unicode="[" horiz-adv-x="580" 
d="M626 1465q-2 -20 -17.5 -33t-35.5 -13h-151l-197 -1592h153q20 0 31.5 -13.5t9.5 -33.5l-8 -67h-343l223 1819h342z" />
    <glyph glyph-name="bracketright" unicode="]" horiz-adv-x="581" 
d="M293 -287h-343l8 67q2 20 17 33.5t36 13.5h152l196 1592h-152q-22 0 -33 13t-9 33l8 67h344z" />
    <glyph glyph-name="braceleft" unicode="{" horiz-adv-x="568" 
d="M618 1532l-9 -77q-2 -20 -17.5 -28t-25.5 -8h-17q-75 0 -123 -57.5t-53 -163.5q-4 -47 -4 -91.5t1 -88t1.5 -85t-2.5 -81.5q-3 -46 -16.5 -84.5t-36 -67.5t-52 -49t-62.5 -29q54 -16 85.5 -62t31.5 -109q0 -60 -15 -117t-32.5 -114.5t-32.5 -116t-15 -121.5
q0 -70 33.5 -112.5t95.5 -42.5h18q11 0 23.5 -9t10.5 -28l-10 -77h-50q-68 0 -119 20t-85 55.5t-51 84.5t-17 107q0 66 16 126t35 117.5t35 114t16 115.5q0 52 -28 85t-81 33l13 104q74 0 110.5 59.5t36.5 183.5q0 22 -1.5 48.5l-3 54l-3 54t-1.5 48.5q0 97 23 173
t67.5 128.5t110 80t151.5 27.5h49z" />
    <glyph glyph-name="braceright" unicode="}" horiz-adv-x="569" 
d="M228 1532q68 0 119 -20t84.5 -55.5t50.5 -84.5t17 -107q0 -66 -15.5 -126t-34.5 -117t-34.5 -113.5t-15.5 -115.5q0 -52 27 -85t81 -33l-13 -104q-73 0 -110 -59.5t-37 -184.5q0 -21 1 -47.5t2.5 -54l3 -54t1.5 -48.5q0 -97 -23 -173t-67 -128.5t-110 -80.5t-151 -28h-50
l11 77q2 19 16 28t26 9h17q75 0 123 57.5t53 163.5q4 46 4 91t-1 88t-1 84.5t3 81.5q2 46 16 84.5t36.5 67.5t51.5 49t62 29q-54 17 -86 63t-32 109q0 59 15 116.5t33 115t33 116t15 121.5q0 69 -33.5 112t-95.5 43h-17q-12 0 -24.5 8t-9.5 28l9 77h50z" />
    <glyph glyph-name="asterisk" unicode="*" horiz-adv-x="790" 
d="M588 1209q-18 -10 -35 -16t-34 -8q17 -2 32.5 -7.5t30.5 -16.5l145 -102l-50 -72l-145 100q-15 10 -27 20t-20 24q10 -29 5 -67l-25 -199h-85l25 198q5 39 20 67q-11 -13 -25 -23t-31 -20l-169 -100l-32 73l168 101q19 11 36.5 16.5t37.5 7.5q-37 3 -68 24l-145 102
l51 73l145 -101q15 -10 27 -21.5t20 -26.5q-10 34 -6 71l25 199h85l-25 -198q-2 -20 -7 -36.5t-15 -33.5q12 14 27 25t32 21l169 100l32 -73z" />
    <glyph glyph-name="dagger" unicode="&#x2020;" horiz-adv-x="1160" 
d="M694 983q36 3 73 8.5l73.5 11t71.5 9.5t66 4q42 0 59 -23.5t13 -52.5l-7 -58h-362l-54 -444l-72 -774q-20 -11 -44 -16.5t-49 -5.5q-26 0 -47.5 5.5t-38.5 16.5l116 774l55 444h-362l7 58q3 29 26 52.5t65 23.5q62 -1 133.5 -13.5t142.5 -19.5l36 467q39 22 91 22
q51 0 87 -22z" />
    <glyph glyph-name="daggerdbl" unicode="&#x2021;" horiz-adv-x="1160" 
d="M697 983q72 7 147 19.5t138 13.5q42 0 59 -23.5t13 -52.5l-7 -58h-363l-40 -333l-40 -317h362l-6 -58q-4 -30 -26.5 -53.5t-64.5 -23.5q-62 2 -134 14t-143 19l-33 -466q-20 -11 -44 -16.5t-49 -5.5q-53 0 -87 22l80 466q-72 -7 -147.5 -19t-138.5 -14q-42 0 -58.5 23.5
t-13.5 53.5l8 58h363l38 317l41 333h-362l7 58q3 29 25.5 52.5t64.5 23.5q63 -1 134.5 -13.5t142.5 -19.5l35 467q41 22 92 22t87 -22z" />
    <glyph glyph-name="section" unicode="&#xa7;" horiz-adv-x="924" 
d="M571 462q59 29 84 72t25 96q0 49 -27 83t-69.5 61t-94 51t-100.5 53q-70 -35 -98 -75t-28 -92q0 -46 29 -79.5t74 -61t99.5 -53t105.5 -55.5zM829 1267q-15 -22 -38 -22q-15 0 -31.5 11.5t-40 25t-56.5 25t-81 11.5q-47 0 -84.5 -14t-64.5 -37t-41.5 -54t-14.5 -65
q0 -46 34 -78.5t85 -60.5t110.5 -56t110.5 -65t85 -87t34 -122q0 -91 -44 -162.5t-140 -112.5q36 -33 58.5 -75.5t22.5 -99.5q0 -74 -27 -138.5t-78 -112.5t-124.5 -75.5t-167.5 -27.5q-97 0 -173.5 34t-124.5 88l48 66q9 13 20.5 19t28.5 6q18 0 34.5 -14t41 -31t61 -31
t93.5 -14q50 0 89.5 14.5t67 40t42 60t14.5 75.5t-20.5 71t-53.5 54t-75.5 44l-86.5 41t-86.5 45t-75.5 55.5t-53.5 72.5t-20.5 97q0 88 48.5 158.5t150.5 109.5q-37 34 -60 78t-23 106q0 65 26 124t74 104t117.5 71.5t156.5 26.5q91 0 161 -31t117 -85z" />
    <glyph glyph-name="paragraph" unicode="&#xb6;" horiz-adv-x="1391" 
d="M1406 1280h-220l-182 -1481h-156l181 1481h-277l-181 -1481h-157l105 861q-92 0 -167 25t-128 70t-81.5 108t-28.5 140q0 90 36 168.5t102 136.5t158 91.5t204 33.5h810z" />
    <glyph glyph-name="asciicircum" unicode="^" horiz-adv-x="1160" 
d="M1047 787h-130q-17 0 -29 10t-20 24l-196 352q-13 23 -22 44.5l-17 42.5q-12 -41 -37 -87l-193 -352q-8 -14 -20 -24t-32 -10h-136l359 646h114z" />
    <glyph glyph-name="asciitilde" unicode="~" horiz-adv-x="1160" 
d="M760 613q65 0 101 42.5t37 112.5h145q0 -67 -18.5 -123t-53 -96t-85.5 -62t-115 -22q-53 0 -103.5 16t-98 35.5l-90.5 36t-80 16.5q-65 0 -101.5 -42t-37.5 -113h-144q0 67 18.5 123t53 96t85 62.5t115.5 22.5q52 0 103 -16.5t98.5 -36l90.5 -36t80 -16.5z" />
    <glyph glyph-name="quotesingle" unicode="'" horiz-adv-x="389" 
d="M369 1431l-36 -289l-34 -155q-8 -31 -23 -48t-45 -17q-26 0 -37.5 17t-13.5 48l3 155l37 289h149z" />
    <glyph glyph-name="quotedbl" unicode="&#x22;" horiz-adv-x="695" 
d="M369 1431l-36 -289l-34 -155q-8 -31 -23 -48t-45 -17q-26 0 -37.5 17t-13.5 48l3 155l37 289h149zM675 1431l-36 -289l-34 -155q-8 -31 -23 -48t-45 -17q-26 0 -37.5 17t-13.5 48l3 155l37 289h149z" />
    <glyph glyph-name="ampersand" unicode="&#x26;" horiz-adv-x="1314" 
d="M463 704q-115 -62 -172.5 -151.5t-57.5 -195.5q0 -56 17.5 -99.5t48 -73.5t72.5 -45.5t91 -15.5q95 0 179.5 43t153.5 113zM1231 0h-148q-21 0 -36.5 2.5t-27.5 8.5t-22.5 16t-22.5 24l-95 122q-95 -87 -209.5 -138t-244.5 -51q-82 0 -150 24.5t-117 70t-76 110.5
t-27 146q0 79 26.5 149.5t73 129t109 104.5t134.5 77q-39 66 -57.5 130t-18.5 127q0 82 28.5 154.5t81 125.5t126.5 84t164 31q73 0 131.5 -23.5t98.5 -64.5t60.5 -96.5t19.5 -119.5l-101 -19q-23 -5 -34.5 2t-17.5 29q-5 28 -17 56t-33 50.5t-51 37t-71 14.5q-51 0 -92 -19
t-70.5 -52.5t-45.5 -79t-16 -97.5q0 -113 97 -240l322 -408q41 66 68.5 136.5t40.5 140.5q4 18 13 29t28 11h119q-15 -115 -61 -226t-117 -207z" />
    <glyph glyph-name="at" unicode="@" horiz-adv-x="1537" 
d="M993 824q-35 9 -76 9q-73 0 -138 -35.5t-113.5 -92.5t-77 -128.5t-28.5 -144.5q0 -57 25 -93t76 -36q27 0 57 10t59 35.5t57 69t51 110.5zM1020 543q-27 -77 -32.5 -125.5t4.5 -75.5t32 -36.5t50 -9.5q52 0 100.5 35t86 98.5t60.5 151.5t23 193q0 116 -34 204t-95 147
t-145.5 89t-185.5 30q-135 0 -256.5 -58.5t-213 -163.5t-145.5 -249t-54 -315q0 -141 40 -250t111.5 -182.5t170.5 -111.5t217 -38q141 0 249 31.5t182 78.5q16 9 28.5 10.5t21 -2t13.5 -11.5t8 -17l13 -51q-107 -72 -237.5 -113t-290.5 -41q-146 0 -266 47.5t-206 137
t-133.5 217t-47.5 287.5q0 127 30 243.5t83.5 217t128.5 183t165 141t192 90.5t211 32q117 0 220.5 -39.5t181 -114.5t122.5 -183t45 -246q0 -127 -34.5 -234.5t-93.5 -186t-137 -123t-165 -44.5q-70 0 -111 37.5t-45 113.5q-63 -79 -130 -114t-139 -35q-48 0 -83.5 17.5
t-59 47.5t-34.5 71t-11 89q0 60 16 123t47.5 121.5t77 110.5t104.5 91t131 61.5t156 22.5q63 0 109 -10t86 -30z" />
    <glyph glyph-name="copyright" unicode="&#xa9;" horiz-adv-x="1662" 
d="M1100 474q15 1 26 -11l61 -64q-57 -66 -140 -102.5t-198 -36.5q-98 0 -179 34t-138.5 95t-89 145t-31.5 184q0 101 34.5 185.5t95.5 145t144.5 94t181.5 33.5q109 0 184.5 -33.5t132.5 -89.5l-46 -65q-5 -6 -13 -12t-20 -6q-14 0 -29.5 11t-40 24.5t-63 25t-96.5 11.5
q-71 0 -127.5 -22.5t-96 -64.5t-61 -102t-21.5 -135q0 -77 21.5 -137.5t59.5 -101.5t91 -62.5t115 -21.5q52 0 87 8t61.5 19.5t48 25.5t46.5 26zM114 716q0 101 26 194.5t73.5 175t114.5 148t148 114.5t174 74t194 26t194.5 -26t174.5 -74t148 -114.5t114.5 -148t73.5 -175
t26 -194.5q0 -100 -26 -193.5t-73.5 -174.5t-114.5 -147.5t-148 -114.5t-174.5 -74t-194.5 -26t-194 26t-174 74t-148 114.5t-114.5 147.5t-73.5 174t-26 194zM214 716q0 -89 22 -171t63 -153.5t98 -129.5t127 -99.5t151 -64t169 -22.5t169.5 22.5t152 64t128 99.5
t98.5 129.5t63.5 153.5t22.5 171q0 134 -49.5 251.5t-135 205t-201.5 138t-248 50.5t-247 -50.5t-200 -138t-134 -205t-49 -251.5z" />
    <glyph glyph-name="uni2117" unicode="&#x2117;" horiz-adv-x="1662" 
d="M846 705q61 0 101.5 13t64.5 36.5t34 55.5t10 70q0 37 -9.5 67.5t-32 52t-60 33t-92.5 11.5h-132v-339h116zM862 1164q89 0 154.5 -21.5t108 -59.5t63.5 -90t21 -113q0 -58 -21 -110.5t-64 -92t-109.5 -62.5t-157.5 -23h-127v-320h-155v892h287zM844 76q88 0 169.5 22.5
t152 64t128 99.5t98.5 129.5t63.5 153.5t22.5 171q0 134 -49.5 251.5t-135 205t-201.5 138t-248 50.5t-247 -50.5t-200 -138t-134 -205t-49 -251.5q0 -89 22 -171t63 -153.5t98 -129.5t127 -99.5t151 -64t169 -22.5zM844 1448q101 0 194.5 -26t174.5 -74t148 -114.5
t114.5 -148t73.5 -175t26 -194.5q0 -100 -26 -193.5t-73.5 -174.5t-114.5 -147.5t-148 -114.5t-174.5 -74t-194.5 -26t-194 26t-174 74t-148 114.5t-114.5 147.5t-73.5 174t-26 194t26 194.5t73.5 175t114.5 148t148 114.5t174 74t194 26z" />
    <glyph glyph-name="registered" unicode="&#xae;" horiz-adv-x="1662" 
d="M816 740q55 0 93.5 10.5t62 30.5t34 49t10.5 67q0 37 -9 65t-30.5 46t-57 27t-87.5 9h-132v-304h116zM832 1164q173 0 255.5 -62.5t82.5 -184.5q0 -94 -53 -159.5t-159 -90.5q17 -11 29 -26t23 -35l229 -334h-149q-33 0 -48 25l-202 302q-8 14 -21 20.5t-39 6.5h-80v-354
h-155v892h287zM844 76q88 0 169.5 22.5t152 64t128 99.5t98.5 129.5t63.5 153.5t22.5 171q0 134 -49.5 251.5t-135 205t-201.5 138t-248 50.5t-247 -50.5t-200 -138t-134 -205t-49 -251.5q0 -89 22 -171t63 -153.5t98 -129.5t127 -99.5t151 -64t169 -22.5zM844 1448
q101 0 194.5 -26t174.5 -74t148 -114.5t114.5 -148t73.5 -175t26 -194.5q0 -100 -26 -193.5t-73.5 -174.5t-114.5 -147.5t-148 -114.5t-174.5 -74t-194.5 -26t-194 26t-174 74t-148 114.5t-114.5 147.5t-73.5 174t-26 194t26 194.5t73.5 175t114.5 148t148 114.5t174 74
t194 26z" />
    <glyph glyph-name="trademark" unicode="&#x2122;" horiz-adv-x="1385" 
d="M179 1431h448l-13 -101h-164l-60 -489h-120l59 489h-164zM1338 1431l-71 -590h-106l45 370l17 73l-206 -339q-17 -27 -46 -27h-17q-14 0 -24 7t-14 20l-123 335l-2 -69l-45 -370h-106l72 590h102q16 0 23 -3.5t15 -16.5l114 -307q8 -23 13 -51q5 14 11.5 26t14.5 25
l189 307q11 13 19 16.5t24 3.5h101z" />
    <glyph glyph-name="uni2120" unicode="&#x2120;" horiz-adv-x="1381" 
d="M193 970q5 7 12.5 11.5t15.5 4.5q10 0 20 -8.5t23.5 -19t33 -19t48.5 -8.5q47 0 71.5 27.5t24.5 67.5q0 25 -16.5 39t-41 24t-53 19.5t-53 26t-41 43.5t-16.5 72q0 39 14.5 74t41.5 62t65 43t86 16t88.5 -16.5t66.5 -45.5l-28 -55q-11 -16 -28 -16q-8 0 -17 6l-21 13.5
t-29.5 14t-42.5 6.5q-38 0 -63.5 -22t-25.5 -57q0 -22 16.5 -35.5t41.5 -23.5l53.5 -20.5t53.5 -27.5t41.5 -43.5t16.5 -69.5q0 -44 -15.5 -83.5t-44 -69t-69 -46.5t-90.5 -17q-52 0 -99 22t-75 57zM1337 1432l-73 -590h-105l45 370l17 72l-206 -339q-16 -27 -45 -27h-18
q-28 0 -38 27l-123 336l-1 -69l-46 -370h-106l72 590h103q16 0 23 -3.5t15 -16.5l113 -307q8 -23 13 -51q12 25 27 51l189 307q11 13 19 16.5t23 3.5h102z" />
    <glyph glyph-name="degree" unicode="&#xb0;" horiz-adv-x="820" 
d="M146 1128q0 67 25.5 126t69 102.5t102.5 68.5t127 25q69 0 128.5 -25t103.5 -68.5t69.5 -102.5t25.5 -126q0 -66 -25.5 -124.5t-69.5 -102t-103.5 -69t-128.5 -25.5q-68 0 -127 25.5t-102.5 69t-69 102t-25.5 124.5zM271 1127q0 -42 15 -78.5t42 -63.5t63.5 -42.5
t78.5 -15.5t78.5 15.5t63.5 42.5t42 63.5t15 78.5t-15 79t-42 64.5t-63.5 43t-78.5 15.5t-78.5 -15.5t-63.5 -43t-42 -64.5t-15 -79z" />
    <glyph glyph-name="currency" unicode="&#xa4;" horiz-adv-x="1160" 
d="M359 672q0 -46 17.5 -86.5t48 -71t71.5 -48.5t87 -18q47 0 88.5 18t72 48.5t48.5 71t18 86.5q0 47 -18 88t-48.5 72t-72 48.5t-88.5 17.5q-46 0 -87 -17.5t-71.5 -48.5t-48 -72t-17.5 -88zM940 227l-152 152q-44 -30 -95.5 -47t-109.5 -17q-57 0 -107.5 16.5t-93.5 45.5
l-154 -153l-89 91l151 152q-30 44 -47 96t-17 109t16.5 108t45.5 94l-152 153l90 90l152 -152q44 31 95.5 48t109.5 17q57 0 108 -16.5t95 -46.5l152 153l90 -91l-151 -151q30 -44 47 -96t17 -110q0 -57 -16.5 -107.5t-45.5 -94.5l152 -151z" />
    <glyph glyph-name="Euro" unicode="&#x20ac;" horiz-adv-x="1160" 
d="M58 897h141q33 127 92.5 229t140 173t179 109t210.5 38q133 0 222 -49.5t148 -136.5l-67 -66q-8 -9 -16.5 -14.5t-22.5 -5.5q-16 0 -32.5 19t-45.5 42t-75.5 42t-122.5 19q-77 0 -144.5 -26t-123.5 -77t-98 -125.5t-68 -170.5h560l-5 -55q-3 -17 -18 -30.5t-39 -13.5
h-519q-6 -35 -9.5 -71t-5.5 -74h474l-7 -54q-2 -17 -17.5 -31t-38.5 -14h-412q7 -204 90.5 -311.5t228.5 -107.5q82 0 137.5 22.5t92.5 49.5t59.5 49.5t40.5 22.5q9 0 14 -2t11 -10l65 -68q-83 -101 -193.5 -157.5t-252.5 -56.5q-113 0 -199.5 41t-146 115.5t-90.5 179.5
t-34 233h-145l12 99h135q3 74 15 145h-131z" />
    <glyph glyph-name="Euro.oldstyle" horiz-adv-x="1080" 
d="M70 707h119q28 97 77.5 175t118.5 132t155.5 83t188.5 29q56 0 102.5 -9.5t85 -28t70.5 -45t59 -60.5l-49 -51q-11 -11 -26 -19.5t-30 -8.5t-32.5 13t-43 28.5t-62 28.5t-89.5 13q-132 0 -222 -72.5t-132 -207.5h458l-5 -34q-2 -18 -18 -32.5t-37 -14.5h-417
q-5 -30 -8.5 -62t-4.5 -66h382l-3 -35q-2 -17 -18 -31.5t-38 -14.5h-323q8 -141 75 -216.5t187 -75.5q64 0 110 17t79 37t55.5 37t37.5 17q14 0 23.5 -7t20.5 -20l37 -52q-70 -80 -166 -124.5t-218 -44.5q-97 0 -172 31t-126.5 88t-80.5 136.5t-33 176.5h-122l10 81h112
q2 33 5 65t8 63h-110z" />
    <glyph glyph-name="dollar" unicode="$" horiz-adv-x="1160" 
d="M663 1298q-72 -6 -125.5 -28.5t-89 -56t-52.5 -76.5t-17 -90q0 -42 15.5 -73.5t42 -56t62.5 -43t77 -34.5zM551 131q74 7 131.5 32t97.5 65t60.5 92t20.5 112q0 44 -17 76.5t-46 56.5t-68 41.5t-83 32.5zM800 1441q102 -12 173.5 -53t122.5 -99l-48 -64q-22 -29 -48 -29
q-14 0 -32.5 13t-45.5 30t-64 33.5t-86 23.5l-93 -491q64 -21 127 -45.5t112.5 -61.5t80.5 -91t31 -133q0 -95 -35 -180.5t-101 -152t-160 -108t-211 -48.5l-34 -178q-2 -18 -18 -32t-36 -14h-64l43 226q-119 11 -212.5 60t-156.5 124l61 78q9 11 22 18t27 7q18 0 40 -19
t54 -43.5t78.5 -48t114.5 -31.5l102 540q-62 19 -121 43.5t-106 62t-75.5 93t-28.5 137.5q0 83 33 160.5t95 137.5t151 97.5t200 42.5l27 144q3 19 18 33.5t36 14.5h64z" />
    <glyph glyph-name="cent" unicode="&#xa2;" horiz-adv-x="1160" 
d="M661 894q-90 -6 -158.5 -40.5t-115 -93.5t-70.5 -140.5t-24 -180.5q0 -132 58 -212.5t164 -101.5zM794 1020q81 -11 143.5 -42.5t109.5 -80.5l-51 -60q-9 -11 -17 -15.5t-22 -4.5q-12 0 -27 9l-36.5 21t-51.5 24t-73 19l-147 -771q64 4 109.5 19.5t77 32.5t52.5 30.5
t36 13.5q22 0 31 -15l40 -60q-67 -70 -164 -107.5t-206 -44.5l-34 -177q-5 -19 -19.5 -33.5t-34.5 -14.5h-64l43 226q-82 9 -149.5 43.5t-115.5 91t-74.5 134t-26.5 173.5q0 126 38.5 233.5t111.5 187t177 125.5t236 49l34 180q4 19 18.5 33.5t35.5 14.5h64z" />
    <glyph glyph-name="sterling" unicode="&#xa3;" horiz-adv-x="1160" 
d="M875 661q-2 -17 -17.5 -31.5t-38.5 -14.5h-424l-31 -256q-9 -75 -36 -128t-75 -95q30 6 59.5 9.5t59.5 3.5h685l-8 -73q-2 -13 -8.5 -26.5t-18 -24.5t-26 -18t-31.5 -7h-965l13 112q36 10 64.5 25.5t49.5 39t35 57t20 79.5l36 302h-163l8 70q2 18 17.5 32t38.5 14h113
l33 265q12 94 51.5 176.5t104.5 143.5t153 96t197 35q83 0 144.5 -19t105.5 -52t73 -78.5t47 -98.5l-75 -44q-26 -12 -47.5 -10t-38.5 24q-17 28 -35 52.5t-43 41.5t-60.5 27t-87.5 10q-65 0 -118.5 -21.5t-94 -61t-66 -95.5t-33.5 -125l-33 -266h473l-7 -70v0z" />
    <glyph glyph-name="glyph363" horiz-adv-x="1160" 
d="M705 770l-179 -735q-50 -203 -180.5 -295.5t-340.5 -92.5l11 91q7 55 65 55q46 1 88.5 14t78.5 42t64 76t45 116l177 724l-155 15q-40 9 -36 44l9 71h214l42 170q48 197 176 292.5t345 95.5l-12 -95q-3 -28 -18.5 -39.5t-45.5 -11.5q-47 0 -90 -13t-79.5 -42.5t-65 -76.5
t-45.5 -116l-43 -164h327l-16 -125h-336z" />
    <glyph glyph-name="yen" unicode="&#xa5;" horiz-adv-x="1160" 
d="M696 624h310l-12 -99h-342l-13 -105h342l-12 -99h-342l-40 -321h-172l39 321h-342l12 99h342l13 105h-342l12 99h310l-310 807h144q24 0 38.5 -11.5t19.5 -31.5l212 -573q10 -34 16 -62t9 -56q10 28 22.5 56.5t29.5 61.5l351 573q11 17 28 30t41 13h146z" />
    <glyph glyph-name="yen.oldstyle" horiz-adv-x="1080" 
d="M643 520h247l-12 -96h-285l-12 -98h285l-12 -96h-285l-29 -230h-155l28 230h-286l11 96h287l12 98h-286l11 96h249l-267 591h132q27 0 45 -16.5t25 -35.5l153 -388q13 -36 21 -63t13 -53q9 26 23 53.5t35 62.5l247 386q13 20 39 37t57 17h118z" />
    <glyph glyph-name="afii61248" unicode="&#x2105;" horiz-adv-x="1547" 
d="M1234 1403q11 11 25 20t37 9h124l-1139 -1404q-11 -13 -25.5 -20.5t-32.5 -7.5h-127zM592 887q10 0 18 -8l45 -58q-48 -55 -111.5 -84t-146.5 -29q-68 0 -120.5 24t-89 66t-55.5 100t-19 127q0 94 29.5 172.5t81 135.5t121.5 88.5t151 31.5q75 0 129 -26.5t87 -68.5
l-52 -63q-5 -6 -11.5 -11t-17.5 -5t-21 9t-26 20t-40 20t-63 9q-49 0 -91.5 -20.5t-73.5 -59.5t-49 -94.5t-18 -125.5q0 -50 13 -90t35.5 -68t53.5 -42.5t68 -14.5q49 0 82.5 12.5t67.5 43.5q5 4 11 6.5t12 2.5zM1468 406q0 -90 -29.5 -167.5t-82 -134t-124.5 -88.5
t-157 -32q-70 0 -125.5 24.5t-94.5 68t-59.5 102t-20.5 127.5q0 90 29.5 167.5t82 134.5t124.5 89t156 32q70 0 125.5 -24.5t94.5 -68t60 -102.5t21 -128zM1331 401q0 98 -46.5 155t-131.5 57q-55 0 -99.5 -21t-76.5 -60.5t-49.5 -95.5t-17.5 -126q0 -98 47.5 -154.5
t132.5 -56.5q55 0 99.5 21t76 60t48.5 95t17 126z" />
    <glyph glyph-name="afii61352" unicode="&#x2116;" horiz-adv-x="2147" 
d="M1833 1333q-44 0 -80.5 -17.5t-62.5 -49.5t-40 -78t-14 -103q0 -80 38 -126.5t107 -46.5q45 0 81 17t62 49.5t40 78.5t14 103q0 80 -38 126.5t-107 46.5zM1768 794q-62 0 -111 21.5t-83.5 59.5t-52.5 90t-18 113q0 79 26 147t72 117.5t109 77.5t138 28q61 0 110.5 -21.5
t83.5 -59.5t52.5 -90t18.5 -113q0 -79 -26 -147t-72 -117.5t-109.5 -77.5t-137.5 -28zM1207 1432h164l-176 -1432h-95q-22 0 -36 8t-26 26l-620 1088q-1 -23 -3 -45.5t-4 -42.5l-127 -1034h-164l176 1432h96q25 0 36.5 -6t24.5 -26l621 -1089q2 52 6 93zM1452 663h597
l-15 -123h-597z" />
    <glyph glyph-name="numbersign" unicode="#" horiz-adv-x="1160" 
d="M767 882h-251l-107 -331h251zM1156 1007l-22 -71q-8 -28 -27 -41t-56 -13h-142l-107 -331h182q27 0 38 -16t1 -56l-16 -55h-239l-136 -424h-79q-26 0 -39 21.5t-2 53.5l114 349h-251l-115 -358q-11 -36 -35 -51t-53 -15h-77l138 424h-148q-27 0 -38 16.5t0 55.5l15 55
h205l107 331h-233l20 71q8 28 27.5 41t57.5 13h161l118 363q10 29 32.5 45t51.5 16h78l-138 -424h250l138 424h77q27 0 41.5 -17.5t4.5 -46.5l-118 -360h214z" />
    <glyph glyph-name="zero.oldstyle.pnum" horiz-adv-x="1180" 
d="M1079 642q0 -155 -47 -276.5t-125.5 -205.5t-181 -128t-213.5 -44q-91 0 -168.5 33.5t-134.5 96t-89 152t-32 202.5q0 155 46.5 277t124.5 206t180.5 128.5t213.5 44.5q91 0 169 -33.5t135 -96.5t89.5 -153t32.5 -203zM907 637q0 90 -22 156t-59.5 109.5t-87 65
t-103.5 21.5q-68 0 -135.5 -30t-120.5 -92.5t-86 -159t-33 -229.5q0 -90 22 -155.5t59 -109t86 -64.5t103 -21q68 0 135.5 29.5t121 92t87 158.5t33.5 229z" />
    <glyph glyph-name="one.oldstyle.pnum" horiz-adv-x="729" 
d="M614 1117l-138 -1117h-167l101 826q3 22 7 44.5t9 45.5l-232 -171q-26 -18 -46.5 -16t-33.5 24l-49 75l413 289h136z" />
    <glyph glyph-name="two.oldstyle.pnum" horiz-adv-x="1000" 
d="M799 154q29 0 43.5 -17.5t10.5 -42.5l-11 -94h-827l11 97l452 348q60 47 106.5 90t78.5 86.5t48.5 89t16.5 97.5q0 38 -11.5 70.5t-33.5 56t-53.5 37t-70.5 13.5q-53 0 -94 -17.5t-71.5 -47t-52.5 -67t-37 -77.5q-10 -20 -20 -28t-30 -8q-5 0 -11 0.5t-11 2.5l-94 17
q21 75 60 141.5t95 116.5t129 79t161 29q71 0 127.5 -22t96 -61.5t60.5 -94.5t21 -120q0 -70 -21.5 -130t-59.5 -114t-91 -103.5t-117 -98.5l-335 -251q46 11 93 17t82 6h360z" />
    <glyph glyph-name="three.oldstyle.pnum" horiz-adv-x="990" 
d="M131 760q21 75 59 141.5t93.5 116.5t127.5 79t160 29q72 0 131 -21.5t100.5 -60t64 -92.5t22.5 -120q0 -128 -66 -215t-185 -127q103 -30 152 -100t49 -175q0 -85 -33 -162.5t-93 -137t-142.5 -94.5t-181.5 -35q-93 0 -157.5 24.5t-107.5 68.5t-67.5 104.5t-37.5 132.5
l83 35q35 14 53.5 6.5t26.5 -29.5q8 -40 23.5 -77.5t42 -66.5t64.5 -46.5t92 -17.5q60 0 110.5 21.5t87 60t57.5 91t21 114.5q0 48 -15 85.5t-48 63.5t-85.5 40.5t-128.5 14.5l14 120q66 2 123 20t99.5 51.5t66.5 83.5t24 117q0 44 -13.5 78t-37.5 57t-56.5 35t-71.5 12
q-52 0 -92.5 -17t-71.5 -46t-53 -67t-37 -79q-9 -20 -19 -28t-30 -8q-5 0 -11.5 0.5t-11.5 2.5z" />
    <glyph glyph-name="four.oldstyle.pnum" horiz-adv-x="1057" 
d="M615 272l66 538q3 23 8 48.5t13 53.5l-522 -640h435zM952 272l-11 -88q-2 -20 -15 -31.5t-33 -11.5h-148l-42 -340h-146l42 340h-545q-17 0 -31.5 13t-15.5 33l-4 76l707 853h154l-103 -844h191z" />
    <glyph glyph-name="five.oldstyle.pnum" horiz-adv-x="942" 
d="M888 1111l-10 -85q-4 -29 -23 -48t-54 -19h-407l-99 -346q91 22 176 22q84 0 147.5 -25.5t106 -70.5t64 -107t21.5 -135q0 -115 -39.5 -209.5t-108 -161.5t-159 -103.5t-192.5 -36.5q-54 0 -102.5 11.5t-90 30.5t-75 44t-58.5 52l56 68q15 17 37.5 23.5t42.5 -8.5
q42 -33 94.5 -58.5t120.5 -25.5q70 0 128 26t99 73t63.5 111.5t22.5 141.5q0 51 -15 92.5t-44 71.5t-72.5 46t-101.5 16q-45 0 -94.5 -8.5t-101.5 -25.5l-99 30l173 614h594z" />
    <glyph glyph-name="six.oldstyle.pnum" horiz-adv-x="986" 
d="M480 119q69 0 125.5 26.5t97 73t62.5 108.5t22 133q0 56 -16 101t-45 76.5t-70.5 48.5t-93.5 17q-68 0 -124.5 -27.5t-97 -73.5t-63 -105t-22.5 -122q0 -54 15 -101t43.5 -81.5t70.5 -54t96 -19.5zM480 843l-33.5 -39.5l-31.5 -38.5q45 29 98 45t112 16q68 0 127 -23.5
t103 -68t69.5 -109t25.5 -146.5q0 -104 -37.5 -194.5t-103 -157t-154.5 -104.5t-193 -38q-86 0 -153.5 28t-114.5 79.5t-72 123.5t-25 160q0 59 12 115.5t37.5 114t63.5 117.5t91 125l359 446q21 26 47.5 40.5t58.5 14.5h146z" />
    </font>
</defs>
</svg>
