<?xml version="1.0" standalone="no"?>
<!DOCTYPE svg PUBLIC "-//W3C//DTD SVG 1.1//EN" "http://www.w3.org/Graphics/SVG/1.1/DTD/svg11.dtd" >
<svg>
<metadata>
Created by FontForge 20090622 at Fri Apr 17 10:11:13 2015
 By deploy user
Copyright (c) 2011-2014 by tyPoland Lukasz Dziedzic (http://www.typoland.com/) with Reserved Font Name "Lato". Licensed under the SIL Open Font License, Version 1.1 (http://scripts.sil.org/OFL). 
</metadata>
<defs>
<font id="Lato-Semibold" horiz-adv-x="800" >
  <font-face 
    font-family="Lato Semibold"
    font-weight="600"
    font-stretch="normal"
    units-per-em="2000"
    panose-1="2 15 5 2 2 2 4 3 2 3"
    ascent="1610"
    descent="-390"
    x-height="1020"
    cap-height="1440"
    bbox="-1152 -555 2687 2180"
    underline-thickness="96"
    underline-position="-414"
    unicode-range="U+0020-U+FEFF"
  />
<missing-glyph horiz-adv-x="1080" 
d="M244 1144q53 45 123 76.5t166 31.5q67 0 120.5 -18t91.5 -51.5t58.5 -81t20.5 -105.5q0 -55 -14.5 -94.5t-36.5 -68.5t-48 -51l-49.5 -40.5t-41 -36.5t-21.5 -41l-19 -100h-147l-15 116q-5 36 7.5 62t34 47t47.5 40t49.5 41t39 49t15.5 64q0 43 -30 68t-81 25
q-38 0 -64.5 -7.5t-45 -17l-32.5 -17t-27 -7.5q-30 0 -44 25zM390 304q0 26 9.5 49t26 40t39 26.5t49.5 9.5q25 0 47.5 -9.5t39 -26.5t26 -40t9.5 -49t-9.5 -49t-26 -39.5t-39 -26t-47.5 -9.5q-27 0 -49.5 9.5t-39 26t-26 39.5t-9.5 49zM43 1440h993v-1440h-993v1440z
M101 62h871v1316h-871v-1316z" />
    <glyph glyph-name="f_b.liga" unicode="fb" horiz-adv-x="1848" 
d="M200 0v849l-100 14q-25 5 -40.5 18t-15.5 37v88h156v75q0 91 27.5 168.5t87 134t153.5 88t227 31.5q47 0 88.5 -3.5t85 -8t91 -8t106.5 -3.5v-595q63 69 141 110t178 41q89 0 160.5 -34.5t121.5 -99.5t77 -157.5t27 -208.5q0 -124 -30.5 -225.5t-87.5 -174t-138 -112
t-181 -39.5q-49 0 -89 9.5t-74 27.5t-62.5 43t-54.5 57l-9 -79q-5 -23 -18 -33t-36 -10h-140v1333q-41 13 -84.5 20.5t-84.5 7.5q-70 0 -121.5 -21t-85.5 -58.5t-50.5 -89t-16.5 -111.5v-75h279v-155h-272v-851h-215zM1066 256q45 -58 98.5 -81.5t116.5 -23.5q127 0 198 92
t71 285q0 176 -61.5 257t-175.5 81q-79 0 -137.5 -35.5t-109.5 -101.5v-473z" />
    <glyph glyph-name="f_f_b.liga" unicode="ffb" horiz-adv-x="2488" 
d="M200 0v849l-100 14q-25 5 -40.5 18t-15.5 37v88h156v69q0 88 25.5 157t73 117t115.5 73t153 25q35 0 66.5 -5t61.5 -14l-4 -109q-2 -26 -26.5 -31.5t-61.5 -5.5q-45 0 -81 -10.5t-61.5 -35.5t-39 -66t-13.5 -101v-63h432v75q0 91 27.5 168.5t86.5 134t153 88t227 31.5
q47 0 88.5 -3.5t85 -8t91 -8t106.5 -3.5v-595q63 69 141 110t178 41q89 0 160.5 -34.5t121.5 -99.5t77 -157.5t27 -208.5q0 -124 -30.5 -225.5t-87.5 -174t-138 -112t-181 -39.5q-49 0 -89 9.5t-74 27.5t-62.5 43t-54.5 57l-9 -79q-5 -23 -18 -33t-36 -10h-140v1333
q-40 13 -84 20.5t-85 7.5q-70 0 -121.5 -21t-85.5 -58.5t-50.5 -89t-16.5 -111.5v-75h279v-155h-272v-851h-214v851h-425v-851h-215zM1705 256q45 -58 98.5 -81.5t116.5 -23.5q127 0 198 92t71 285q0 176 -61.5 257t-175.5 81q-79 0 -137.5 -35.5t-109.5 -101.5v-473z" />
    <glyph glyph-name="uniFB00" unicode="ff" horiz-adv-x="1349" 
d="M200 0v849l-100 14q-25 5 -40.5 18t-15.5 37v88h156v69q0 88 25.5 157t73 117t115.5 73t153 25q35 0 66.5 -5t61.5 -14l-4 -109q-2 -26 -26.5 -31.5t-61.5 -5.5q-45 0 -81 -10.5t-61.5 -35.5t-39 -66t-13.5 -101v-63h432v99q0 88 25.5 157t73 117t115.5 73t152 25
q35 0 67 -5t62 -14l-5 -109q-2 -26 -26.5 -31.5t-61.5 -5.5q-45 0 -81 -10.5t-61.5 -35.5t-39 -66t-13.5 -101v-93h279v-155h-272v-851h-214v851h-425v-851h-215z" />
    <glyph glyph-name="f_h.liga" unicode="fh" horiz-adv-x="1842" 
d="M200 0v849l-100 14q-25 5 -40.5 18t-15.5 37v88h156v75q0 91 27.5 168.5t87 134t153.5 88t227 31.5q47 0 88.5 -3.5t85 -8t91 -8t106.5 -3.5v-581q63 62 138 99.5t175 37.5q84 0 147.5 -28t107 -79t65.5 -122.5t22 -157.5v-649h-214v649q0 103 -47.5 160t-144.5 57
q-72 0 -133.5 -33t-115.5 -90v-743h-215v1333q-41 13 -84.5 20.5t-84.5 7.5q-70 0 -121.5 -21t-85.5 -58.5t-50.5 -89t-16.5 -111.5v-75h279v-155h-272v-851h-215z" />
    <glyph glyph-name="f_f_h.liga" unicode="ffh" horiz-adv-x="2482" 
d="M200 0v849l-100 14q-25 5 -40.5 18t-15.5 37v88h156v69q0 88 25.5 157t73 117t115.5 73t153 25q35 0 66.5 -5t61.5 -14l-4 -109q-2 -26 -26.5 -31.5t-61.5 -5.5q-45 0 -81 -10.5t-61.5 -35.5t-39 -66t-13.5 -101v-63h432v75q0 91 27.5 168.5t86.5 134t153 88t227 31.5
q47 0 88.5 -3.5t85 -8t91 -8t106.5 -3.5v-581q63 62 138 99.5t175 37.5q84 0 147.5 -28t107 -79t65.5 -122.5t22 -157.5v-649h-214v649q0 103 -47.5 160t-144.5 57q-72 0 -133.5 -33t-115.5 -90v-743h-215v1333q-40 13 -84 20.5t-85 7.5q-70 0 -121.5 -21t-85.5 -58.5
t-50.5 -89t-16.5 -111.5v-75h279v-155h-272v-851h-214v851h-425v-851h-215z" />
    <glyph glyph-name="uniFB01" unicode="fi" horiz-adv-x="1175" 
d="M201 0v849l-100 14q-25 5 -40.5 18t-15.5 37v88h156v43q0 94 30 173t91 137t152.5 90.5t214.5 32.5q40 0 82.5 -5t72.5 -15l-7 -112q-2 -21 -25 -23.5t-61 -2.5q-93 0 -158 -17.5t-106 -53t-59.5 -88t-18.5 -122.5v-37h625v-1006h-215v851h-403v-851h-215z" />
    <glyph glyph-name="f_igrave.liga" unicode="f&#xec;" horiz-adv-x="1175" 
d="M723 1482q63 0 101 -20.5t56 -54.5l146 -242h-122q-25 0 -40.5 7t-31.5 25l-118 127q-81 -2 -139 -21t-95 -54t-54 -86.5t-17 -119.5v-37h625v-1006h-215v851h-403v-851h-215v849l-100 14q-25 5 -40.5 18t-15.5 37v88h156v43q0 94 28.5 173t91.5 137t162 90.5t240 32.5z
" />
    <glyph glyph-name="f_icircumflex.liga" unicode="f&#xee;" horiz-adv-x="1174" 
d="M201 0v849l-100 14q-25 5 -40.5 18t-15.5 37v88h156v125q0 165 79 253t222 88q26 0 46 -2.5t40 -8.5v-119q0 -17 -15.5 -22.5t-40.5 -5.5q-64 0 -93.5 -42.5t-29.5 -140.5v-125h625v-1006h-215v851h-403v-851h-215zM1260 1169h-144q-13 0 -25.5 4t-25.5 18l-110 116
q-9 9 -18 21l-19 -21l-112 -116q-11 -11 -24 -16.5t-27 -5.5h-149l227 271h200z" />
    <glyph glyph-name="f_itilde.liga" unicode="f&#x129;" horiz-adv-x="1174" 
d="M1035 1344q32 0 50 18.5t19 61.5h131q0 -52 -14 -94.5t-39.5 -73t-61 -47t-77.5 -16.5q-35 0 -66 13.5t-58 29.5l-51 29.5t-45 13.5q-32 0 -50 -19.5t-18 -62.5h-133q0 52 14.5 95t40 73.5t61 47.5t77.5 17q36 0 67 -13.5t58 -29.5l50.5 -29.5t44.5 -13.5zM201 0v849
l-100 14q-25 5 -40.5 18t-15.5 37v88h156v125q0 165 79 253t222 88q26 0 46 -2.5t40 -8.5v-119q0 -17 -15.5 -22.5t-40.5 -5.5q-64 0 -93.5 -42.5t-29.5 -140.5v-125h625v-1006h-215v851h-403v-851h-215z" />
    <glyph glyph-name="f_idieresis.liga" unicode="f&#xef;" horiz-adv-x="1174" 
d="M882 1291q0 -26 -10 -48.5t-27.5 -39t-41 -26.5t-49.5 -10q-25 0 -47.5 10t-39.5 26.5t-27 39t-10 48.5t10 49.5t27 41t39.5 27.5t47.5 10q26 0 49.5 -10t41 -27.5t27.5 -41t10 -49.5zM1222 1291q0 -26 -10 -48.5t-27 -39t-40 -26.5t-49 -10t-49 10t-40 26.5t-27 39
t-10 48.5t10 49.5t27 41t40 27.5t49 10t49 -10t40 -27.5t27 -41t10 -49.5zM201 0v849l-100 14q-25 5 -40.5 18t-15.5 37v88h156v125q0 165 79 253t222 88q26 0 46 -2.5t40 -8.5v-119q0 -17 -15.5 -22.5t-40.5 -5.5q-64 0 -93.5 -42.5t-29.5 -140.5v-125h625v-1006h-215v851
h-403v-851h-215z" />
    <glyph glyph-name="f_imacron.liga" unicode="f&#x12b;" horiz-adv-x="1174" 
d="M633 1361h586v-139h-586v139zM201 0v849l-100 14q-25 5 -40.5 18t-15.5 37v88h156v125q0 165 79 253t222 88q26 0 46 -2.5t40 -8.5v-119q0 -17 -15.5 -22.5t-40.5 -5.5q-64 0 -93.5 -42.5t-29.5 -140.5v-125h625v-1006h-215v851h-403v-851h-215z" />
    <glyph glyph-name="f_ibreve.liga" unicode="f&#x12d;" horiz-adv-x="1174" 
d="M926 1163q-81 0 -136.5 22t-89.5 60t-48.5 88t-14.5 107h151q0 -32 6.5 -57.5t22 -43.5t42 -28t67.5 -10q40 0 67 10t42.5 28t22 43.5t6.5 57.5h151q0 -57 -14.5 -107t-48.5 -88t-89.5 -60t-136.5 -22zM201 0v849l-100 14q-25 5 -40.5 18t-15.5 37v88h156v125
q0 165 79 253t222 88q26 0 46 -2.5t40 -8.5v-119q0 -17 -15.5 -22.5t-40.5 -5.5q-64 0 -93.5 -42.5t-29.5 -140.5v-125h625v-1006h-215v851h-403v-851h-215z" />
    <glyph glyph-name="f_iogonek.liga" unicode="f&#x12f;" horiz-adv-x="1174" 
d="M201 0v849l-100 14q-25 5 -40.5 18t-15.5 37v88h156v43q0 94 30 173t91 137t152.5 90.5t214.5 32.5q40 0 82.5 -5t72.5 -15l-7 -112q-2 -21 -25 -23.5t-61 -2.5q-93 0 -158 -17.5t-106 -53t-59.5 -88t-18.5 -122.5v-37h625v-1006h-25q-20 -11 -39.5 -26t-35.5 -33
t-26 -39.5t-10 -45.5q0 -33 21.5 -52.5t59.5 -19.5q21 0 34 3t22 6t15 6t11 3q16 0 21 -14l33 -80q-32 -23 -79.5 -37t-101.5 -14q-94 0 -145.5 40t-51.5 106q0 56 37.5 106.5t101.5 90.5h-57v851h-403v-851h-215z" />
    <glyph glyph-name="f_dotlessi.liga" unicode="f&#x131;" horiz-adv-x="1175" 
d="M201 0v849l-100 14q-25 5 -40.5 18t-15.5 37v88h156v125q0 165 79 253t222 88q26 0 46 -2.5t40 -8.5v-119q0 -17 -15.5 -22.5t-40.5 -5.5q-64 0 -93.5 -42.5t-29.5 -140.5v-125h625v-1006h-215v851h-403v-851h-215z" />
    <glyph glyph-name="uniFB03" unicode="ffi" horiz-adv-x="1814" 
d="M201 0v849l-100 14q-25 5 -40.5 18t-15.5 37v88h156v69q0 88 25.5 157t73 117t115.5 73t153 25q35 0 66.5 -5t61.5 -14l-4 -109q-2 -26 -26.5 -31.5t-61.5 -5.5q-45 0 -81 -10.5t-61.5 -35.5t-39 -66t-13.5 -101v-63h432v43q0 94 30 173t90.5 137t152.5 90.5t215 32.5
q39 0 81.5 -5t72.5 -15l-7 -112q-2 -21 -25 -23.5t-61 -2.5q-93 0 -158 -17.5t-106 -53t-59.5 -88t-18.5 -122.5v-37h625v-1006h-214v851h-404v-851h-214v851h-425v-851h-215z" />
    <glyph glyph-name="f_f_igrave.liga" unicode="ff&#xec;" horiz-adv-x="1813" 
d="M201 0v849l-101 14q-25 5 -40.5 18t-15.5 37v88h157v69q0 88 25.5 157t73 117t115.5 73t153 25q35 0 66.5 -5t61.5 -14l-4 -109q-2 -26 -26.5 -31.5t-61.5 -5.5q-45 0 -81 -10.5t-61.5 -35.5t-39 -66t-13.5 -101v-63h431v99q0 88 28.5 157t88 117t150 73t213.5 25
q83 0 128.5 -12t59.5 -36l157 -264h-121q-25 0 -40.5 7t-31.5 25l-123 132q-8 1 -15 1h-15q-142 0 -207 -53.5t-65 -177.5v-93h625v-1006h-215v851h-403v-851h-214v851h-424v-851h-215z" />
    <glyph glyph-name="f_f_icircumflex.liga" unicode="ff&#xee;" horiz-adv-x="1813" 
d="M1459 0v851h-404v-851h-214v851h-425v-851h-215v849l-100 14q-25 5 -40.5 18t-15.5 37v88h156v69q0 88 25.5 157t73 117t115.5 73t153 25q35 0 66.5 -5t61.5 -14l-4 -109q-2 -26 -26.5 -31.5t-61.5 -5.5q-45 0 -81 -10.5t-61.5 -35.5t-39 -66t-13.5 -101v-63h432v125
q0 165 78.5 253t221.5 88q26 0 46.5 -2.5t39.5 -8.5v-119q0 -17 -15 -22.5t-40 -5.5q-65 0 -94.5 -42.5t-29.5 -140.5v-125h625v-1006h-214zM1897 1169h-144q-13 0 -25.5 4t-25.5 18l-110 116q-9 9 -18 21l-19 -21l-112 -116q-11 -11 -24 -16.5t-27 -5.5h-149l227 271h200z
" />
    <glyph glyph-name="f_f_itilde.liga" unicode="ff&#x129;" horiz-adv-x="1813" 
d="M1459 0v851h-404v-851h-214v851h-425v-851h-215v849l-100 14q-25 5 -40.5 18t-15.5 37v88h156v69q0 88 25.5 157t73 117t115.5 73t153 25q35 0 66.5 -5t61.5 -14l-4 -109q-2 -26 -26.5 -31.5t-61.5 -5.5q-45 0 -81 -10.5t-61.5 -35.5t-39 -66t-13.5 -101v-63h432v125
q0 165 78.5 253t221.5 88q26 0 46.5 -2.5t39.5 -8.5v-119q0 -17 -15 -22.5t-40 -5.5q-65 0 -94.5 -42.5t-29.5 -140.5v-125h625v-1006h-214zM1676 1344q32 0 50 18.5t19 61.5h131q0 -52 -14 -94.5t-39.5 -73t-61 -47t-77.5 -16.5q-35 0 -66 13.5t-58 29.5l-51 29.5t-45 13.5
q-32 0 -50 -19.5t-18 -62.5h-133q0 52 14.5 95t40 73.5t61 47.5t77.5 17q36 0 67 -13.5t58 -29.5l50.5 -29.5t44.5 -13.5z" />
    <glyph glyph-name="f_f_idieresis.liga" unicode="ff&#xef;" horiz-adv-x="1813" 
d="M1518 1291q0 -26 -10 -48.5t-27.5 -39t-40.5 -26.5t-49 -10q-25 0 -47.5 10t-39.5 26.5t-27 39t-10 48.5t10 49.5t27 41t39.5 27.5t47.5 10q26 0 49 -10t40.5 -27.5t27.5 -41t10 -49.5zM1858 1291q0 -26 -10 -48.5t-27 -39t-40 -26.5t-49 -10t-48.5 10t-39.5 26.5t-27 39
t-10 48.5t10 49.5t27 41t39.5 27.5t48.5 10t49 -10t40 -27.5t27 -41t10 -49.5zM1459 0v851h-404v-851h-214v851h-425v-851h-215v849l-100 14q-25 5 -40.5 18t-15.5 37v88h156v69q0 88 25.5 157t73 117t115.5 73t153 25q35 0 66.5 -5t61.5 -14l-4 -109q-2 -26 -26.5 -31.5
t-61.5 -5.5q-45 0 -81 -10.5t-61.5 -35.5t-39 -66t-13.5 -101v-63h432v125q0 165 78.5 253t221.5 88q26 0 46.5 -2.5t39.5 -8.5v-119q0 -17 -15 -22.5t-40 -5.5q-65 0 -94.5 -42.5t-29.5 -140.5v-125h625v-1006h-214z" />
    <glyph glyph-name="f_f_imacron.liga" unicode="ff&#x12b;" horiz-adv-x="1813" 
d="M1459 0v851h-404v-851h-214v851h-425v-851h-215v849l-100 14q-25 5 -40.5 18t-15.5 37v88h156v69q0 88 25.5 157t73 117t115.5 73t153 25q35 0 66.5 -5t61.5 -14l-4 -109q-2 -26 -26.5 -31.5t-61.5 -5.5q-45 0 -81 -10.5t-61.5 -35.5t-39 -66t-13.5 -101v-63h432v125
q0 165 78.5 253t221.5 88q26 0 46.5 -2.5t39.5 -8.5v-119q0 -17 -15 -22.5t-40 -5.5q-65 0 -94.5 -42.5t-29.5 -140.5v-125h625v-1006h-214zM1276 1361h586v-139h-586v139z" />
    <glyph glyph-name="f_f_ibreve.liga" unicode="ff&#x12d;" horiz-adv-x="1813" 
d="M1459 0v851h-404v-851h-214v851h-425v-851h-215v849l-100 14q-25 5 -40.5 18t-15.5 37v88h156v69q0 88 25.5 157t73 117t115.5 73t153 25q35 0 66.5 -5t61.5 -14l-4 -109q-2 -26 -26.5 -31.5t-61.5 -5.5q-45 0 -81 -10.5t-61.5 -35.5t-39 -66t-13.5 -101v-63h432v125
q0 165 78.5 253t221.5 88q26 0 46.5 -2.5t39.5 -8.5v-119q0 -17 -15 -22.5t-40 -5.5q-65 0 -94.5 -42.5t-29.5 -140.5v-125h625v-1006h-214zM1569 1163q-81 0 -136.5 22t-89.5 60t-48.5 88t-14.5 107h151q0 -32 6.5 -57.5t22 -43.5t42 -28t67.5 -10q40 0 67 10t42.5 28
t22 43.5t6.5 57.5h151q0 -57 -14.5 -107t-48.5 -88t-89.5 -60t-136.5 -22z" />
    <glyph glyph-name="f_f_iogonek.liga" unicode="ff&#x12f;" horiz-adv-x="1813" 
d="M201 0v849l-100 14q-25 5 -40.5 18t-15.5 37v88h156v69q0 88 25.5 157t73 117t115.5 73t153 25q35 0 66.5 -5t61.5 -14l-4 -109q-2 -26 -26.5 -31.5t-61.5 -5.5q-45 0 -81 -10.5t-61.5 -35.5t-39 -66t-13.5 -101v-63h432v43q0 94 30 173t90.5 137t152.5 90.5t215 32.5
q39 0 81.5 -5t72.5 -15l-7 -112q-2 -21 -25 -23.5t-61 -2.5q-93 0 -158 -17.5t-106 -53t-59.5 -88t-18.5 -122.5v-37h625v-1006h-22q-20 -11 -39.5 -26t-35.5 -33t-26 -39.5t-10 -45.5q0 -33 21.5 -52.5t59.5 -19.5q21 0 34 3t22 6t15 6t11 3q16 0 21 -14l33 -80
q-32 -23 -79.5 -37t-101.5 -14q-94 0 -145.5 40t-51.5 106q0 56 37.5 106.5t101.5 90.5h-59v851h-404v-851h-214v851h-425v-851h-215z" />
    <glyph glyph-name="f_f_dotlessi.liga" unicode="ff&#x131;" horiz-adv-x="1814" 
d="M1459 0v851h-404v-851h-214v851h-425v-851h-215v849l-100 14q-25 5 -40.5 18t-15.5 37v88h156v69q0 88 25.5 157t73 117t115.5 73t153 25q35 0 66.5 -5t61.5 -14l-4 -109q-2 -26 -26.5 -31.5t-61.5 -5.5q-45 0 -81 -10.5t-61.5 -35.5t-39 -66t-13.5 -101v-63h432v125
q0 165 78.5 253t221.5 88q26 0 46.5 -2.5t39.5 -8.5v-119q0 -17 -15 -22.5t-40 -5.5q-65 0 -94.5 -42.5t-29.5 -140.5v-125h625v-1006h-214z" />
    <glyph glyph-name="f_j.liga" unicode="fj" horiz-adv-x="1175" 
d="M201 0v849l-100 14q-25 5 -40.5 18t-15.5 37v88h156v43q0 94 30 173t91 137t152.5 90.5t214.5 32.5q40 0 82.5 -5t72.5 -15l-7 -112q-2 -21 -25 -23.5t-61 -2.5q-93 0 -158 -17.5t-106 -53t-59.5 -88t-18.5 -122.5v-37h625v-1059q0 -64 -17 -120.5t-54 -98.5t-95.5 -66
t-141.5 -24q-34 0 -62.5 5t-57.5 14l8 117q2 10 6 15t11.5 7.5t19.5 3t31 0.5q76 0 106.5 33.5t30.5 113.5v904h-403v-851h-215z" />
    <glyph glyph-name="f_f_j.liga" unicode="ffj" horiz-adv-x="1814" 
d="M201 0v849l-100 14q-25 5 -40.5 18t-15.5 37v88h156v69q0 88 25.5 157t73 117t115.5 73t153 25q35 0 66.5 -5t61.5 -14l-4 -109q-2 -26 -26.5 -31.5t-61.5 -5.5q-45 0 -81 -10.5t-61.5 -35.5t-39 -66t-13.5 -101v-63h432v43q0 94 30 173t90.5 137t152.5 90.5t215 32.5
q39 0 81.5 -5t72.5 -15l-7 -112q-2 -21 -25 -23.5t-61 -2.5q-93 0 -158 -17.5t-106 -53t-59.5 -88t-18.5 -122.5v-37h625v-1059q0 -64 -17 -120.5t-53.5 -98.5t-95 -66t-142.5 -24q-34 0 -62.5 5t-57.5 14l8 117q2 10 6 15t11.5 7.5t19.5 3t31 0.5q38 0 64.5 8t43 25.5
t23.5 45.5t7 68v904h-404v-851h-214v851h-425v-851h-215z" />
    <glyph glyph-name="f_k.liga" unicode="fk" horiz-adv-x="1763" 
d="M200 0v849l-100 14q-25 5 -40.5 18t-15.5 37v88h156v75q0 91 27.5 168.5t87 134t153.5 88t227 31.5q47 0 88.5 -3.5t85 -8t91 -8t106.5 -3.5v-858h46q22 0 36 6t29 25l286 327q15 20 33 30t46 10h195l-344 -388q-30 -39 -66 -62q20 -14 35 -31.5t29 -39.5l367 -499h-192
q-26 0 -44.5 8.5t-32.5 31.5l-295 400q-15 23 -30 29.5t-45 6.5h-53v-476h-215v1333q-41 13 -84.5 20.5t-84.5 7.5q-70 0 -121.5 -21t-85.5 -58.5t-50.5 -89t-16.5 -111.5v-75h279v-155h-272v-851h-215z" />
    <glyph glyph-name="f_f_k.liga" unicode="ffk" horiz-adv-x="2404" 
d="M201 0v849l-100 14q-25 5 -40.5 18t-15.5 37v88h156v69q0 88 25.5 157t73 117t115.5 73t153 25q35 0 66.5 -5t61.5 -14l-4 -109q-2 -26 -26.5 -31.5t-61.5 -5.5q-45 0 -81 -10.5t-61.5 -35.5t-39 -66t-13.5 -101v-63h432v75q0 91 27.5 168.5t86.5 134t153 88t227 31.5
q44 0 84 -3.5t80.5 -7.5t85 -7.5t98.5 -4.5h23v-858h46q22 0 36 6t29 25l286 327q15 20 33 30t46 10h195l-344 -388q-30 -39 -66 -62q20 -14 35 -31.5t29 -39.5l367 -499h-192q-26 0 -44.5 8.5t-32.5 31.5l-295 400q-15 23 -30 29.5t-45 6.5h-53v-476h-215v1333
q-40 13 -84 20.5t-85 7.5q-70 0 -121.5 -21t-85.5 -58.5t-50.5 -89t-16.5 -111.5v-75h279v-155h-272v-851h-214v851h-425v-851h-215z" />
    <glyph glyph-name="uniFB02" unicode="fl" horiz-adv-x="1203" 
d="M201 0v849l-100 14q-25 5 -40.5 18t-15.5 37v88h156v48q0 83 26 158t78.5 132t132 91t187.5 34q81 0 154 -6t145 -7h143v-1456h-213v1306q-54 2 -106 5t-90 3q-120 0 -184.5 -68t-64.5 -192v-48h253v-155h-246v-851h-215z" />
    <glyph glyph-name="uniFB04" unicode="ffl" horiz-adv-x="1841" 
d="M200 0v849l-100 14q-25 5 -40.5 18t-15.5 37v88h156v69q0 88 25.5 157t73 117t115.5 73t153 25q35 0 66.5 -5t61.5 -14l-4 -109q-2 -26 -26.5 -31.5t-61.5 -5.5q-45 0 -81 -10.5t-61.5 -35.5t-39 -66t-13.5 -101v-63h432v48q0 83 25.5 158t78 132t132 91t187.5 34
q81 0 154.5 -6t145.5 -7h142v-1456h-213v1306q-54 2 -106 5t-90 3q-120 0 -184.5 -68t-64.5 -192v-48h279v-155h-272v-851h-214v851h-425v-851h-215z" />
    <glyph glyph-name="f_t.liga" unicode="ft" horiz-adv-x="1393" 
d="M1071 851v-579q0 -55 27 -84t72 -29q25 0 43 6.5t31 14t22.5 14t18.5 6.5q18 0 29 -20l64 -105q-50 -44 -118 -67.5t-140 -23.5q-127 0 -195.5 71.5t-68.5 201.5v594h-441v-851h-215v849l-100 14q-25 5 -40.5 18t-15.5 37v88h156v86q0 87 25.5 156t73 117t115.5 73.5
t153 25.5q35 0 66.5 -5t61.5 -15l-4 -108q-2 -27 -26.5 -32t-61.5 -5q-45 0 -81 -10.5t-61.5 -35.5t-39 -66t-13.5 -102v-79h456l48 297q5 17 17 27.5t32 10.5h110v-335h283v-155h-283z" />
    <glyph glyph-name="f_f_t.liga" unicode="fft" horiz-adv-x="2033" 
d="M201 0v849l-100 14q-25 5 -40.5 18t-15.5 37v88h156v69q0 88 25.5 157t73 117t115.5 73t153 25q35 0 66.5 -5t61.5 -14l-4 -109q-2 -26 -26.5 -31.5t-61.5 -5.5q-45 0 -81 -10.5t-61.5 -35.5t-39 -66t-13.5 -101v-63h432v86q0 87 25.5 156t73 117t115.5 73.5t152 25.5
q67 0 129 -20l-5 -108q-2 -27 -26.5 -32t-61.5 -5q-45 0 -81 -10.5t-61.5 -35.5t-39 -66t-13.5 -102v-79h457l48 297q4 17 16 27.5t32 10.5h110v-335h283v-155h-283v-579q0 -55 27 -84t72 -29q25 0 43.5 6.5t31.5 14t22.5 14t17.5 6.5q11 0 17 -4.5t13 -15.5l63 -105
q-50 -44 -117.5 -67.5t-139.5 -23.5q-128 0 -196 71.5t-68 201.5v594h-442v-851h-214v851h-425v-851h-215z" />
    <glyph glyph-name="t_f.liga" unicode="tf" horiz-adv-x="1391" 
d="M881 0v851h-472v-579q0 -55 27 -84t72 -29q25 0 43 6.5t31 14t22.5 14t18.5 6.5q18 0 29 -20l64 -105q-50 -44 -118 -67.5t-140 -23.5q-127 0 -195.5 71.5t-68.5 201.5v594h-112q-18 0 -31 11.5t-13 34.5v87l165 24l47 295q5 17 17 27.5t32 10.5h110v-335h472v86
q0 87 25.5 156t73 117t115.5 73.5t152 25.5q67 0 129 -20l-5 -108q-2 -27 -26.5 -32t-61.5 -5q-45 0 -81 -10.5t-61.5 -35.5t-39 -66t-13.5 -102v-79h279v-155h-272v-851h-214z" />
    <glyph glyph-name="t_iogonek.liga" unicode="t&#x12f;" horiz-adv-x="1261" 
d="M1012 1185q-29 0 -54.5 11.5t-45 31t-31 45.5t-11.5 55q0 30 11.5 56t31 45.5t45 31t54.5 11.5t55.5 -11.5t46.5 -31t31.5 -45.5t11.5 -56q0 -29 -11.5 -55t-31.5 -45.5t-46.5 -31t-55.5 -11.5zM1207 -292q-31 -23 -78.5 -37t-101.5 -14q-94 0 -145.5 40t-51.5 106
q0 56 37.5 106.5t102.5 90.5h-64v851h-497v-579q0 -55 27 -84t72 -29q25 0 43 6.5t31 14t22.5 14t18.5 6.5q18 0 29 -20l64 -105q-50 -44 -118 -67.5t-140 -23.5q-127 0 -195.5 71.5t-68.5 201.5v594h-112q-18 0 -31 11.5t-13 34.5v87l165 24l47 295q5 17 17 27.5t32 10.5
h110v-335h712v-1006h-19q-20 -11 -40 -26t-35.5 -33t-25.5 -39.5t-10 -45.5q0 -33 21.5 -52.5t58.5 -19.5q21 0 34.5 3t22.5 6t15 6t11 3q16 0 21 -14z" />
    <glyph glyph-name="t_dotlessi.liga" unicode="t&#x131;" horiz-adv-x="1262" 
d="M1121 0h-215v851h-497v-579q0 -55 27 -84t72 -29q25 0 43 6.5t31 14t22.5 14t18.5 6.5q18 0 29 -20l64 -105q-50 -44 -118 -67.5t-140 -23.5q-127 0 -195.5 71.5t-68.5 201.5v594h-112q-18 0 -31 11.5t-13 34.5v87l165 24l47 295q5 17 17 27.5t32 10.5h110v-335h712
v-1006z" />
    <glyph glyph-name="t_t.liga" unicode="tt" horiz-adv-x="1387" 
d="M458 -16q-127 0 -195.5 71.5t-68.5 201.5v594h-112q-18 0 -31 11.5t-13 34.5v87l165 24l47 295q5 17 17 27.5t32 10.5h110v-335h450l48 297q4 17 16 27.5t32 10.5h110v-335h283v-155h-283v-579q0 -55 27 -84t72 -29q25 0 43.5 6.5t31.5 14t22.5 14t17.5 6.5q11 0 17 -4.5
t13 -15.5l64 -105q-51 -44 -118.5 -67.5t-139.5 -23.5q-128 0 -196 71.5t-68 201.5v594h-442v-579q0 -55 27 -84t72 -29q25 0 43 6.5t31 14t22.5 14t18.5 6.5q18 0 29 -20l64 -105q-50 -44 -118 -67.5t-140 -23.5z" />
    <glyph glyph-name="t_t_f.liga" unicode="ttf" horiz-adv-x="2047" 
d="M2027 1336q-2 -27 -26 -32t-62 -5q-45 0 -80.5 -10.5t-61 -35.5t-39 -66t-13.5 -102v-79h278v-155h-272v-851h-214v851h-472v-579q0 -55 27 -84t72 -29q25 0 43.5 6.5t31.5 14t22.5 14t17.5 6.5q11 0 17 -4.5t13 -15.5l64 -105q-51 -44 -118.5 -67.5t-139.5 -23.5
q-128 0 -196 71.5t-68 201.5v594h-442v-579q0 -55 27 -84t72 -29q25 0 43 6.5t31 14t22.5 14t18.5 6.5q18 0 29 -20l64 -105q-50 -44 -118 -67.5t-140 -23.5q-127 0 -195.5 71.5t-68.5 201.5v594h-112q-18 0 -31 11.5t-13 34.5v87l165 24l47 295q5 17 17 27.5t32 10.5h110
v-335h451l47 297q4 17 16 27.5t32 10.5h110v-335h472v86q0 87 25.5 156t73 117t115.5 73.5t152 25.5q67 0 129 -20z" />
    <glyph glyph-name="t_t_iogonek.liga" unicode="tt&#x12f;" horiz-adv-x="1897" 
d="M1648 1185q-29 0 -54.5 11.5t-45 31t-30.5 45.5t-11 55q0 30 11 56t30.5 45.5t45 31t54.5 11.5t55.5 -11.5t46.5 -31t31.5 -45.5t11.5 -56q0 -29 -11.5 -55t-31.5 -45.5t-46.5 -31t-55.5 -11.5zM1846 -292q-32 -23 -79.5 -37t-101.5 -14q-94 0 -145.5 40t-51.5 106
q0 56 37.5 106.5t102.5 90.5h-65v851h-478v-579q0 -55 27 -84t72 -29q25 0 43.5 6.5t31.5 14t22.5 14t17.5 6.5q11 0 17 -4.5t13 -15.5l64 -105q-51 -44 -118.5 -67.5t-139.5 -23.5q-128 0 -196 71.5t-68 201.5v594h-442v-579q0 -55 27 -84t72 -29q25 0 43 6.5t31 14
t22.5 14t18.5 6.5q18 0 29 -20l64 -105q-50 -44 -118 -67.5t-140 -23.5q-127 0 -195.5 71.5t-68.5 201.5v594h-112q-18 0 -31 11.5t-13 34.5v87l165 24l47 295q5 17 17 27.5t32 10.5h110v-335h451l47 297q4 17 16 27.5t32 10.5h110v-335h692v-1006h-17q-20 -11 -39.5 -26
t-35.5 -33t-26 -39.5t-10 -45.5q0 -33 21.5 -52.5t59.5 -19.5q21 0 34 3t22 6t15 6t11 3q16 0 21 -14z" />
    <glyph glyph-name="t_t_dotlessi.liga" unicode="tt&#x131;" horiz-adv-x="1898" 
d="M1757 0h-214v851h-478v-579q0 -55 27 -84t72 -29q25 0 43.5 6.5t31.5 14t22.5 14t17.5 6.5q11 0 17 -4.5t13 -15.5l64 -105q-51 -44 -118.5 -67.5t-139.5 -23.5q-128 0 -196 71.5t-68 201.5v594h-442v-579q0 -55 27 -84t72 -29q25 0 43 6.5t31 14t22.5 14t18.5 6.5
q18 0 29 -20l64 -105q-50 -44 -118 -67.5t-140 -23.5q-127 0 -195.5 71.5t-68.5 201.5v594h-112q-18 0 -31 11.5t-13 34.5v87l165 24l47 295q5 17 17 27.5t32 10.5h110v-335h451l47 297q4 17 16 27.5t32 10.5h110v-335h692v-1006z" />
    <glyph glyph-name="f_uni01D0.liga" unicode="f&#x1d0;" horiz-adv-x="1174" 
d="M201 0v849l-100 14q-25 5 -40.5 18t-15.5 37v88h156v125q0 165 79 253t222 88q26 0 46 -2.5t40 -8.5v-119q0 -17 -15.5 -22.5t-40.5 -5.5q-64 0 -93.5 -42.5t-29.5 -140.5v-125h625v-1006h-215v851h-403v-851h-215zM1031 1169h-199l-207 271h149q13 0 26.5 -4t18.5 -12
l96 -122q5 -8 10 -17t10 -19q4 10 9 19t10 17l96 122q5 8 18.5 12t26.5 4h143z" />
    <glyph glyph-name="f_uni0209.liga" unicode="f&#x209;" horiz-adv-x="1174" 
d="M536 1472q37 0 63 -3t45.5 -10.5t34 -20t27.5 -31.5l179 -242h-102q-25 0 -40.5 7t-31.5 25l-111 117q-54 -2 -91 -12t-59 -31.5t-31.5 -55.5t-9.5 -84v-125h625v-1006h-215v851h-403v-851h-215v849l-100 14q-25 5 -40.5 18t-15.5 37v88h156v125q0 83 24.5 146.5
t68.5 107t106 65.5t136 22zM936 1456q36 0 55 -12t32 -37l132 -242h-88q-25 0 -41.5 6.5t-30.5 25.5l-200 259h141z" />
    <glyph glyph-name="f_uni020B.liga" unicode="f&#x20b;" horiz-adv-x="1174" 
d="M201 0v849l-100 14q-25 5 -40.5 18t-15.5 37v88h156v125q0 165 79 253t222 88q26 0 46 -2.5t40 -8.5v-119q0 -17 -15.5 -22.5t-40.5 -5.5q-64 0 -93.5 -42.5t-29.5 -140.5v-125h625v-1006h-215v851h-403v-851h-215zM933 1450q81 0 136 -22t89 -60t48.5 -88.5t14.5 -106.5
h-150q0 31 -6.5 56.5t-22 44t-42.5 28.5t-67 10q-41 0 -67.5 -10t-42.5 -28.5t-22.5 -44t-6.5 -56.5h-150q0 56 14.5 106.5t48.5 88.5t89.5 60t136.5 22z" />
    <glyph glyph-name="f_uni1E2F.liga" unicode="f&#x1e2f;" horiz-adv-x="1174" 
d="M878 1209q0 -23 -9.5 -43t-25.5 -35t-37 -24t-44 -9t-43 9t-35.5 24t-24.5 35t-9 43q0 24 9 45t24.5 36.5t35.5 25t43 9.5t44 -9.5t37 -25t25.5 -36.5t9.5 -45zM1215 1209q0 -23 -9 -43t-24.5 -35t-36 -24t-43.5 -9t-44 9t-36.5 24t-24.5 35t-9 43q0 24 9 45t24.5 36.5
t36.5 25t44 9.5t43.5 -9.5t36 -25t24.5 -36.5t9 -45zM1267 1596l-220 -215q-18 -17 -38.5 -24.5t-47.5 -7.5h-115l126 199q14 24 32 36t55 12h208zM201 0v849l-100 14q-25 5 -40.5 18t-15.5 37v88h156v125q0 165 79 253t222 88q26 0 46 -2.5t40 -8.5v-119q0 -17 -15.5 -22.5
t-40.5 -5.5q-64 0 -93.5 -42.5t-29.5 -140.5v-125h625v-1006h-215v851h-403v-851h-215z" />
    <glyph glyph-name="f_f_uni01D0.liga" unicode="ff&#x1d0;" horiz-adv-x="1813" 
d="M201 0v849l-100 14q-25 5 -40.5 18t-15.5 37v88h156v69q0 88 25.5 157t73 117t115.5 73t153 25q35 0 66.5 -5t61.5 -14l-4 -109q-2 -26 -26.5 -31.5t-61.5 -5.5q-45 0 -81 -10.5t-61.5 -35.5t-39 -66t-13.5 -101v-63h432v125q0 165 78.5 253t221.5 88q26 0 46.5 -2.5
t39.5 -8.5v-119q0 -17 -15 -22.5t-40 -5.5q-65 0 -94.5 -42.5t-29.5 -140.5v-125h625v-1006h-214v851h-404v-851h-214v851h-425v-851h-215zM1259 1440h148q14 0 27 -4t18 -12l97 -122q5 -8 9.5 -17l9.5 -19l9.5 19t9.5 17l96 122q6 8 19 12t27 4h143l-207 -271h-200z" />
    <glyph glyph-name="f_f_uni0209.liga" unicode="ff&#x209;" horiz-adv-x="1813" 
d="M201 0v849l-100 14q-25 5 -40.5 18t-15.5 37v88h156v69q0 88 25.5 157t73 117t115.5 73t153 25q35 0 66.5 -5t61.5 -14l-4 -109q-2 -26 -26.5 -31.5t-61.5 -5.5q-45 0 -81 -10.5t-61.5 -35.5t-39 -66t-13.5 -101v-63h432v125q0 165 87 253t256 88q37 0 63 -3t45.5 -10.5
t34 -20t27.5 -31.5l178 -242h-101q-25 0 -40 7.5t-32 24.5l-111 117q-55 -2 -93 -12t-62 -31.5t-34.5 -55.5t-10.5 -84v-125h625v-1006h-214v851h-404v-851h-214v851h-425v-851h-215zM1585 1456q37 0 55.5 -12t31.5 -37l132 -242h-88q-25 0 -41.5 6.5t-30.5 25.5l-199 259
h140z" />
    <glyph glyph-name="f_f_uni020B.liga" unicode="ff&#x20b;" horiz-adv-x="1813" 
d="M201 0v849l-100 14q-25 5 -40.5 18t-15.5 37v88h156v69q0 88 25.5 157t73 117t115.5 73t153 25q35 0 66.5 -5t61.5 -14l-4 -109q-2 -26 -26.5 -31.5t-61.5 -5.5q-45 0 -81 -10.5t-61.5 -35.5t-39 -66t-13.5 -101v-63h432v125q0 165 78.5 253t221.5 88q26 0 46.5 -2.5
t39.5 -8.5v-119q0 -17 -15 -22.5t-40 -5.5q-65 0 -94.5 -42.5t-29.5 -140.5v-125h625v-1006h-214v851h-404v-851h-214v851h-425v-851h-215zM1560 1450q81 0 136 -22t89 -60t48.5 -88.5t14.5 -106.5h-150q0 31 -6.5 56.5t-22 44t-42.5 28.5t-67 10q-41 0 -67.5 -10t-42 -28.5
t-22 -44t-6.5 -56.5h-151q0 56 14.5 106.5t48.5 88.5t89.5 60t136.5 22z" />
    <glyph glyph-name="f_f_uni1E2F.liga" unicode="ff&#x1e2f;" horiz-adv-x="1813" 
d="M201 0v849l-100 14q-25 5 -40.5 18t-15.5 37v88h156v69q0 88 25.5 157t73 117t115.5 73t153 25q35 0 66.5 -5t61.5 -14l-4 -109q-2 -26 -26.5 -31.5t-61.5 -5.5q-45 0 -81 -10.5t-61.5 -35.5t-39 -66t-13.5 -101v-63h432v125q0 165 78.5 253t221.5 88q26 0 46.5 -2.5
t39.5 -8.5v-119q0 -17 -15 -22.5t-40 -5.5q-65 0 -94.5 -42.5t-29.5 -140.5v-125h625v-1006h-214v851h-404v-851h-214v851h-425v-851h-215zM1906 1596l-221 -215q-18 -17 -38 -24.5t-47 -7.5h-115l125 199q14 24 32.5 36t54.5 12h209zM1854 1209q0 -23 -9 -43t-24.5 -35
t-36.5 -24t-44 -9t-43.5 9t-36 24t-24.5 35t-9 43q0 24 9 45t24.5 36.5t36 25t43.5 9.5t44 -9.5t36.5 -25t24.5 -36.5t9 -45zM1516 1209q0 -23 -9.5 -43t-25 -35t-36.5 -24t-44 -9t-43 9t-35.5 24t-24.5 35t-9 43q0 24 9 45t24.5 36.5t35.5 25t43 9.5t44 -9.5t36.5 -25
t25 -36.5t9.5 -45z" />
    <glyph glyph-name="f_uni0237.liga" unicode="f&#x237;" horiz-adv-x="1175" 
d="M201 0v849l-100 14q-25 5 -40.5 18t-15.5 37v88h156v125q0 165 79 253t222 88q26 0 46 -2.5t40 -8.5v-119q0 -17 -15.5 -22.5t-40.5 -5.5q-64 0 -93.5 -42.5t-29.5 -140.5v-125h625v-1059q0 -64 -17 -120.5t-54 -98.5t-95.5 -66t-141.5 -24q-34 0 -62.5 5t-57.5 14l8 117
q2 10 6 15t11.5 7.5t19.5 3t31 0.5q76 0 106.5 33.5t30.5 113.5v904h-403v-851h-215z" />
    <glyph glyph-name="f_f_uni0237.liga" unicode="ff&#x237;" horiz-adv-x="1814" 
d="M1673 -53q0 -64 -17 -120.5t-53.5 -98.5t-95 -66t-142.5 -24q-34 0 -62.5 5t-57.5 14l8 117q2 10 6 15t11.5 7.5t19.5 3t31 0.5q38 0 64.5 8t43 25.5t23.5 45.5t7 68v904h-404v-851h-214v851h-425v-851h-215v849l-100 14q-25 5 -40.5 18t-15.5 37v88h156v69
q0 88 25.5 157t73 117t115.5 73t153 25q35 0 66.5 -5t61.5 -14l-4 -109q-2 -26 -26.5 -31.5t-61.5 -5.5q-45 0 -81 -10.5t-61.5 -35.5t-39 -66t-13.5 -101v-63h432v125q0 165 78.5 253t221.5 88q26 0 46.5 -2.5t39.5 -8.5v-119q0 -17 -15 -22.5t-40 -5.5q-65 0 -94.5 -42.5
t-29.5 -140.5v-125h625v-1059v0z" />
    <glyph glyph-name="f_jcircumflex.liga" unicode="f&#x135;" horiz-adv-x="1174" 
d="M201 0v849l-100 14q-25 5 -40.5 18t-15.5 37v88h156v125q0 165 79 253t222 88q26 0 46 -2.5t40 -8.5v-119q0 -17 -15.5 -22.5t-40.5 -5.5q-64 0 -93.5 -42.5t-29.5 -140.5v-125h625v-1059q0 -64 -17 -120.5t-54 -98.5t-95.5 -66t-141.5 -24q-34 0 -62.5 5t-57.5 14l8 117
q2 10 6 15t11.5 7.5t19.5 3t31 0.5q76 0 106.5 33.5t30.5 113.5v904h-403v-851h-215zM1256 1169h-144q-13 0 -25.5 4t-25.5 18l-110 116q-9 9 -18 21l-19 -21l-112 -116q-11 -11 -24 -16.5t-27 -5.5h-149l227 271h200z" />
    <glyph glyph-name="f_lcaron.liga" unicode="f&#x13e;" horiz-adv-x="1202" 
d="M201 0v849l-100 14q-25 5 -40.5 18t-15.5 37v88h156v48q0 83 26 158t78.5 132t132 91t187.5 34q81 0 154 -6t145 -7h143v-1456h-213v1306q-54 2 -106 5t-90 3q-120 0 -184.5 -68t-64.5 -192v-48h253v-155h-246v-851h-215zM1381 1482q25 0 31 -11.5t6 -23.5
q0 -9 -3.5 -25.5t-13.5 -45.5l-27 -75.5t-45 -115.5q-12 -25 -29.5 -32.5t-46.5 -7.5h-75l59 337h144z" />
    <glyph glyph-name="f_lcommaaccent.liga" unicode="f&#x13c;" horiz-adv-x="1203" 
d="M201 0v849l-100 14q-25 5 -40.5 18t-15.5 37v88h156v48q0 83 26 158t78.5 132t132 91t187.5 34q81 0 154 -6t145 -7h143v-1456h-213v1306q-54 2 -106 5t-90 3q-120 0 -184.5 -68t-64.5 -192v-48h253v-155h-246v-851h-215zM1019 -93q26 0 32 -11.5t6 -23.5
q0 -9 -2.5 -25.5t-9.5 -42.5t-20.5 -63.5t-34.5 -88.5q-11 -25 -28.5 -33t-46.5 -8h-76l50 296h130z" />
    <glyph glyph-name="f_uni021B.liga" unicode="f&#x21b;" horiz-adv-x="1393" 
d="M1071 851v-579q0 -55 27 -84t72 -29q25 0 43 6.5t31 14t22.5 14t18.5 6.5q18 0 29 -20l64 -105q-50 -44 -118 -67.5t-140 -23.5q-127 0 -195.5 71.5t-68.5 201.5v594h-441v-851h-215v849l-100 14q-25 5 -40.5 18t-15.5 37v88h156v86q0 87 25.5 156t73 117t115.5 73.5
t153 25.5q35 0 66.5 -5t61.5 -15l-4 -108q-2 -27 -26.5 -32t-61.5 -5q-45 0 -81 -10.5t-61.5 -35.5t-39 -66t-13.5 -102v-79h456l48 297q5 17 17 27.5t32 10.5h110v-335h283v-155h-283zM1157 -93q26 0 32 -11.5t6 -23.5q0 -9 -2.5 -25.5t-9.5 -42.5t-20.5 -63.5t-34.5 -88.5
q-11 -25 -28.5 -33t-46.5 -8h-76l50 296h130z" />
    <glyph glyph-name="f_tcaron.liga" unicode="f&#x165;" horiz-adv-x="1393" 
d="M1071 851v-579q0 -55 27 -84t72 -29q25 0 43 6.5t31 14t22.5 14t18.5 6.5q18 0 29 -20l64 -105q-50 -44 -118 -67.5t-140 -23.5q-127 0 -195.5 71.5t-68.5 201.5v594h-441v-851h-215v849l-100 14q-25 5 -40.5 18t-15.5 37v88h156v86q0 87 25.5 156t73 117t115.5 73.5
t153 25.5q35 0 66.5 -5t61.5 -15l-4 -108q-2 -27 -26.5 -32t-61.5 -5q-45 0 -81 -10.5t-61.5 -35.5t-39 -66t-13.5 -102v-79h456l48 297q5 17 17 27.5t32 10.5h110v-335h283v-155h-283zM1464 1482q25 0 31 -11.5t6 -23.5q0 -9 -3.5 -25.5t-13.5 -45.5l-27 -75.5t-45 -115.5
q-12 -25 -29.5 -32.5t-46.5 -7.5h-75l59 337h144z" />
    <glyph glyph-name="f_uni1ECB.liga" unicode="f&#x1ecb;" horiz-adv-x="1175" 
d="M201 0v849l-100 14q-25 5 -40.5 18t-15.5 37v88h156v43q0 94 30 173t91 137t152.5 90.5t214.5 32.5q40 0 82.5 -5t72.5 -15l-7 -112q-2 -21 -25 -23.5t-61 -2.5q-93 0 -158 -17.5t-106 -53t-59.5 -88t-18.5 -122.5v-37h625v-1006h-215v851h-403v-851h-215zM1055 -243
q0 -26 -10.5 -49t-28 -40t-41 -27t-49.5 -10t-48.5 10t-39.5 27t-27 40t-10 49t10 49.5t27 41t39.5 27.5t48.5 10t49.5 -10t41 -27.5t28 -41t10.5 -49.5z" />
    <glyph glyph-name="f_uni1E2D.liga" unicode="f&#x1e2d;" horiz-adv-x="1175" 
d="M201 0v849l-100 14q-25 5 -40.5 18t-15.5 37v88h156v43q0 94 30 173t91 137t152.5 90.5t214.5 32.5q40 0 82.5 -5t72.5 -15l-7 -112q-2 -21 -25 -23.5t-61 -2.5q-93 0 -158 -17.5t-106 -53t-59.5 -88t-18.5 -122.5v-37h625v-1006h-215v851h-403v-851h-215zM1032 -163
q32 0 50 18.5t19 61.5h131q0 -52 -14 -94.5t-39.5 -73t-61 -47t-77.5 -16.5q-35 0 -66 13.5t-58 29.5l-51 29.5t-45 13.5q-32 0 -50 -19.5t-18 -62.5h-133q0 52 14.5 95t40 73.5t61 47.5t77.5 17q36 0 67 -13.5t58 -29.5l50.5 -29.5t44.5 -13.5z" />
    <glyph glyph-name="f_uni0268.liga" unicode="f&#x268;" horiz-adv-x="1214" 
d="M819 569v282h-403v-851h-215v849l-100 14q-25 5 -40.5 18t-15.5 37v88h156v43q0 94 30 173t91 137t152.5 90.5t214.5 32.5q40 0 82.5 -5t72.5 -15l-7 -112q-2 -21 -25 -23.5t-61 -2.5q-93 0 -158 -17.5t-106 -53t-59.5 -88t-18.5 -122.5v-37h625v-437h148v-155h-148v-414
h-215v414h-144v155h144z" />
    <glyph glyph-name="f_iacute.liga" unicode="f&#xed;" horiz-adv-x="1174" 
d="M201 0v849l-100 14q-25 5 -40.5 18t-15.5 37v88h156v125q0 165 79 253t222 88q26 0 46 -2.5t40 -8.5v-119q0 -17 -15.5 -22.5t-40.5 -5.5q-64 0 -93.5 -42.5t-29.5 -140.5v-125h625v-1006h-215v851h-403v-851h-215zM1246 1456l-241 -259q-16 -18 -31.5 -25t-40.5 -7h-128
l145 242q14 25 32.5 37t54.5 12h209z" />
    <glyph glyph-name="f_uni1EC9.liga" unicode="f&#x1ec9;" horiz-adv-x="1174" 
d="M201 0v849l-100 14q-25 5 -40.5 18t-15.5 37v88h156v125q0 165 79 253t222 88q26 0 46 -2.5t40 -8.5v-119q0 -17 -15.5 -22.5t-40.5 -5.5q-64 0 -93.5 -42.5t-29.5 -140.5v-125h625v-1006h-215v851h-403v-851h-215zM723 1433q32 23 84 37.5t112 14.5q49 0 85 -10
t59.5 -28t35 -42t11.5 -52q0 -51 -34.5 -89.5t-86.5 -59.5l-18 -84h-104v142q53 7 72 25.5t19 41.5q0 22 -15 37.5t-51 15.5q-20 0 -35 -4t-27 -9.5l-21.5 -9.5t-17.5 -4q-11 0 -16.5 5.5t-11.5 14.5z" />
    <glyph glyph-name="f_f_uni1ECB.liga" unicode="ff&#x1ecb;" horiz-adv-x="1814" 
d="M201 0v849l-100 14q-25 5 -40.5 18t-15.5 37v88h156v69q0 88 25.5 157t73 117t115.5 73t153 25q35 0 66.5 -5t61.5 -14l-4 -109q-2 -26 -26.5 -31.5t-61.5 -5.5q-45 0 -81 -10.5t-61.5 -35.5t-39 -66t-13.5 -101v-63h432v43q0 94 30 173t90.5 137t152.5 90.5t215 32.5
q39 0 81.5 -5t72.5 -15l-7 -112q-2 -21 -25 -23.5t-61 -2.5q-93 0 -158 -17.5t-106 -53t-59.5 -88t-18.5 -122.5v-37h625v-1006h-214v851h-404v-851h-214v851h-425v-851h-215zM1697 -243q0 -26 -10.5 -49t-28 -40t-41 -27t-49.5 -10t-48.5 10t-39.5 27t-27 40t-10 49
t10 49.5t27 41t39.5 27.5t48.5 10t49.5 -10t41 -27.5t28 -41t10.5 -49.5z" />
    <glyph glyph-name="f_f_uni1E2D.liga" unicode="ff&#x1e2d;" horiz-adv-x="1814" 
d="M201 0v849l-100 14q-25 5 -40.5 18t-15.5 37v88h156v69q0 88 25.5 157t73 117t115.5 73t153 25q35 0 66.5 -5t61.5 -14l-4 -109q-2 -26 -26.5 -31.5t-61.5 -5.5q-45 0 -81 -10.5t-61.5 -35.5t-39 -66t-13.5 -101v-63h432v43q0 94 30 173t90.5 137t152.5 90.5t215 32.5
q39 0 81.5 -5t72.5 -15l-7 -112q-2 -21 -25 -23.5t-61 -2.5q-93 0 -158 -17.5t-106 -53t-59.5 -88t-18.5 -122.5v-37h625v-1006h-214v851h-404v-851h-214v851h-425v-851h-215zM1674 -163q32 0 50 18.5t19 61.5h131q0 -52 -14 -94.5t-39.5 -73t-61 -47t-77.5 -16.5
q-35 0 -66 13.5t-58 29.5l-51 29.5t-45 13.5q-32 0 -50 -19.5t-18 -62.5h-133q0 52 14.5 95t40 73.5t61 47.5t77.5 17q36 0 67 -13.5t58 -29.5l50.5 -29.5t44.5 -13.5z" />
    <glyph glyph-name="f_f_uni0268.liga" unicode="ff&#x268;" horiz-adv-x="1856" 
d="M1459 569v282h-404v-851h-214v851h-425v-851h-215v849l-100 14q-25 5 -40.5 18t-15.5 37v88h156v69q0 88 25.5 157t73 117t115.5 73t153 25q35 0 66.5 -5t61.5 -14l-4 -109q-2 -26 -26.5 -31.5t-61.5 -5.5q-45 0 -81 -10.5t-61.5 -35.5t-39 -66t-13.5 -101v-63h432v43
q0 94 30 173t90.5 137t152.5 90.5t215 32.5q39 0 81.5 -5t72.5 -15l-7 -112q-2 -21 -25 -23.5t-61 -2.5q-93 0 -158 -17.5t-106 -53t-59.5 -88t-18.5 -122.5v-37h625v-437h150v-155h-150v-414h-214v414h-143v155h143z" />
    <glyph glyph-name="f_f_iacute.liga" unicode="ff&#xed;" horiz-adv-x="1813" 
d="M1459 0v851h-404v-851h-214v851h-425v-851h-215v849l-100 14q-25 5 -40.5 18t-15.5 37v88h156v69q0 88 25.5 157t73 117t115.5 73t153 25q35 0 66.5 -5t61.5 -14l-4 -109q-2 -26 -26.5 -31.5t-61.5 -5.5q-45 0 -81 -10.5t-61.5 -35.5t-39 -66t-13.5 -101v-63h432v125
q0 165 78.5 253t221.5 88q26 0 46.5 -2.5t39.5 -8.5v-119q0 -17 -15 -22.5t-40 -5.5q-65 0 -94.5 -42.5t-29.5 -140.5v-125h625v-1006h-214zM1888 1456l-241 -259q-16 -18 -31.5 -25t-40.5 -7h-128l145 242q14 25 32.5 37t54.5 12h209z" />
    <glyph glyph-name="f_f_uni1EC9.liga" unicode="ff&#x1ec9;" horiz-adv-x="1804" 
d="M1459 0v851h-404v-851h-214v851h-425v-851h-215v849l-100 14q-25 5 -40.5 18t-15.5 37v88h156v69q0 88 25.5 157t73 117t115.5 73t153 25q35 0 66.5 -5t61.5 -14l-4 -109q-2 -26 -26.5 -31.5t-61.5 -5.5q-45 0 -81 -10.5t-61.5 -35.5t-39 -66t-13.5 -101v-63h432v125
q0 165 78.5 253t221.5 88q26 0 46.5 -2.5t39.5 -8.5v-119q0 -17 -15 -22.5t-40 -5.5q-65 0 -94.5 -42.5t-29.5 -140.5v-125h625v-1006h-214zM1366 1433q32 23 84 37.5t112 14.5q49 0 85 -10t59.5 -28t35 -42t11.5 -52q0 -51 -34.5 -89.5t-86.5 -59.5l-18 -84h-104v142
q53 7 72 25.5t19 41.5q0 22 -15 37.5t-51 15.5q-20 0 -35 -4t-27 -9.5l-21.5 -9.5t-17.5 -4q-11 0 -16.5 5.5t-11.5 14.5z" />
    <glyph glyph-name="f_lacute.liga" unicode="f&#x13a;" horiz-adv-x="1203" 
d="M201 0v849l-100 14q-25 5 -40.5 18t-15.5 37v88h156v48q0 83 26 158t78.5 132t132 91t187.5 34q81 0 154 -6t145 -7h143v-1456h-213v1306q-54 2 -106 5t-90 3q-120 0 -184.5 -68t-64.5 -192v-48h253v-155h-246v-851h-215zM1364 1857l-325 -286q-18 -16 -34 -20t-40 -4
h-155l220 273q9 13 18 20t20 11t24.5 5t31.5 1h240z" />
    <glyph glyph-name="t_i.liga" unicode="ti" horiz-adv-x="1261" 
d="M1121 0h-215v851h-497v-579q0 -55 27 -84t72 -29q25 0 43 6.5t31 14t22.5 14t18.5 6.5q18 0 29 -20l64 -105q-50 -44 -118 -67.5t-140 -23.5q-127 0 -195.5 71.5t-68.5 201.5v594h-112q-18 0 -31 11.5t-13 34.5v87l165 24l47 295q5 17 17 27.5t32 10.5h110v-335h712
v-1006zM1165 1333q0 -29 -11.5 -54.5t-31.5 -45t-46.5 -31t-55.5 -11.5t-54.5 11.5t-45 31t-31 45t-11.5 54.5q0 30 11.5 56.5t31 46t45 31t54.5 11.5t55.5 -11.5t46.5 -31t31.5 -46t11.5 -56.5z" />
    <glyph glyph-name="t_igrave.liga" unicode="t&#xec;" horiz-adv-x="1261" 
d="M1121 0h-215v851h-497v-579q0 -55 27 -84t72 -29q25 0 43 6.5t31 14t22.5 14t18.5 6.5q18 0 29 -20l64 -105q-50 -44 -118 -67.5t-140 -23.5q-127 0 -195.5 71.5t-68.5 201.5v594h-112q-18 0 -31 11.5t-13 34.5v87l165 24l47 295q5 17 17 27.5t32 10.5h110v-335h712
v-1006zM927 1456q37 0 55 -12t32 -37l146 -242h-122q-25 0 -40.5 7t-31.5 25l-241 259h202z" />
    <glyph glyph-name="t_iacute.liga" unicode="t&#xed;" horiz-adv-x="1260" 
d="M1120 0h-215v851h-497v-579q0 -55 27 -84t72 -29q25 0 43 6.5t31 14t22.5 14t18.5 6.5q18 0 29 -20l64 -105q-50 -44 -118 -67.5t-140 -23.5q-127 0 -195.5 71.5t-68.5 201.5v594h-112q-18 0 -31 11.5t-13 34.5v87l165 24l47 295q5 17 17 27.5t32 10.5h110v-335h712
v-1006zM1339 1456l-241 -259q-16 -18 -31.5 -25t-40.5 -7h-128l145 242q14 25 32.5 37t54.5 12h209z" />
    <glyph glyph-name="t_icircumflex.liga" unicode="t&#xee;" horiz-adv-x="1261" 
d="M1121 0h-215v851h-497v-579q0 -55 27 -84t72 -29q25 0 43 6.5t31 14t22.5 14t18.5 6.5q18 0 29 -20l64 -105q-50 -44 -118 -67.5t-140 -23.5q-127 0 -195.5 71.5t-68.5 201.5v594h-112q-18 0 -31 11.5t-13 34.5v87l165 24l47 295q5 17 17 27.5t32 10.5h110v-335h712
v-1006zM1348 1169h-144q-13 0 -25.5 4t-25.5 18l-110 116q-9 9 -18 21l-9.5 -11t-9.5 -10l-112 -116q-11 -11 -24 -16.5t-27 -5.5h-149l227 271h200z" />
    <glyph glyph-name="t_idieresis.liga" unicode="t&#xef;" horiz-adv-x="1261" 
d="M1121 0h-215v851h-497v-579q0 -55 27 -84t72 -29q25 0 43 6.5t31 14t22.5 14t18.5 6.5q18 0 29 -20l64 -105q-50 -44 -118 -67.5t-140 -23.5q-127 0 -195.5 71.5t-68.5 201.5v594h-112q-18 0 -31 11.5t-13 34.5v87l165 24l47 295q5 17 17 27.5t32 10.5h110v-335h712
v-1006zM984 1291q0 -26 -10.5 -48.5t-28 -39t-40.5 -26.5t-49 -10q-25 0 -47.5 10t-39.5 26.5t-27 39t-10 48.5t10 49.5t27 41t39.5 27.5t47.5 10q26 0 49 -10t40.5 -27.5t28 -41t10.5 -49.5zM1310 1291q0 -26 -10 -48.5t-27 -39t-40 -26.5t-49 -10t-49 10t-40 26.5t-27 39
t-10 48.5t10 49.5t27 41t40 27.5t49 10t49 -10t40 -27.5t27 -41t10 -49.5z" />
    <glyph glyph-name="t_imacron.liga" unicode="t&#x12b;" horiz-adv-x="1261" 
d="M1121 0h-215v851h-497v-579q0 -55 27 -84t72 -29q25 0 43 6.5t31 14t22.5 14t18.5 6.5q18 0 29 -20l64 -105q-50 -44 -118 -67.5t-140 -23.5q-127 0 -195.5 71.5t-68.5 201.5v594h-112q-18 0 -31 11.5t-13 34.5v87l165 24l47 295q5 17 17 27.5t32 10.5h110v-335h712
v-1006zM728 1361h586v-139h-586v139z" />
    <glyph glyph-name="t_itilde.liga" unicode="t&#x129;" horiz-adv-x="1260" 
d="M1120 0h-215v851h-497v-579q0 -55 27 -84t72 -29q25 0 43 6.5t31 14t22.5 14t18.5 6.5q18 0 29 -20l64 -105q-50 -44 -118 -67.5t-140 -23.5q-127 0 -195.5 71.5t-68.5 201.5v594h-112q-18 0 -31 11.5t-13 34.5v87l165 24l47 295q5 17 17 27.5t32 10.5h110v-335h712
v-1006zM1128 1344q32 0 50 18.5t19 61.5h131q0 -52 -14 -94.5t-39.5 -73t-61 -47t-77.5 -16.5q-35 0 -66 13.5t-58 29.5l-51 29.5t-45 13.5q-32 0 -50 -19.5t-18 -62.5h-133q0 52 14.5 95t40 73.5t61 47.5t77.5 17q36 0 67 -13.5t58 -29.5l50.5 -29.5t44.5 -13.5z" />
    <glyph glyph-name="t_ibreve.liga" unicode="t&#x12d;" horiz-adv-x="1261" 
d="M1121 0h-215v851h-497v-579q0 -55 27 -84t72 -29q25 0 43 6.5t31 14t22.5 14t18.5 6.5q18 0 29 -20l64 -105q-50 -44 -118 -67.5t-140 -23.5q-127 0 -195.5 71.5t-68.5 201.5v594h-112q-18 0 -31 11.5t-13 34.5v87l165 24l47 295q5 17 17 27.5t32 10.5h110v-335h712
v-1006zM1021 1163q-81 0 -136.5 22t-89.5 60t-48.5 88t-14.5 107h151q0 -32 6.5 -57.5t22 -43.5t42 -28t67.5 -10q40 0 67 10t42.5 28t22 43.5t6.5 57.5h151q0 -57 -14.5 -107t-48.5 -88t-89.5 -60t-136.5 -22z" />
    <glyph glyph-name="t_uni01D0.liga" unicode="t&#x1d0;" horiz-adv-x="1261" 
d="M1121 0h-215v851h-497v-579q0 -55 27 -84t72 -29q25 0 43 6.5t31 14t22.5 14t18.5 6.5q18 0 29 -20l64 -105q-50 -44 -118 -67.5t-140 -23.5q-127 0 -195.5 71.5t-68.5 201.5v594h-112q-18 0 -31 11.5t-13 34.5v87l165 24l47 295q5 17 17 27.5t32 10.5h110v-335h712
v-1006zM1348 1440l-227 -271h-200l-227 271h149q14 0 26 -5t19 -11l116 -122l20 -23q5 7 9.5 12.5t9.5 10.5l116 122q8 5 20 10.5t25 5.5h144z" />
    <glyph glyph-name="t_uni1E2D.liga" unicode="t&#x1e2d;" horiz-adv-x="1260" 
d="M1120 0h-215v851h-497v-579q0 -55 27 -84t72 -29q25 0 43 6.5t31 14t22.5 14t18.5 6.5q18 0 29 -20l64 -105q-50 -44 -118 -67.5t-140 -23.5q-127 0 -195.5 71.5t-68.5 201.5v594h-112q-18 0 -31 11.5t-13 34.5v87l165 24l47 295q5 17 17 27.5t32 10.5h110v-335h712
v-1006zM1163 1333q0 -29 -11.5 -54.5t-31.5 -45t-46.5 -31t-55.5 -11.5t-54.5 11.5t-45 31t-31 45t-11.5 54.5q0 30 11.5 56.5t31 46t45 31t54.5 11.5t55.5 -11.5t46.5 -31t31.5 -46t11.5 -56.5zM1124 -163q32 0 50 18.5t19 61.5h131q0 -52 -14 -94.5t-39.5 -73t-61 -47
t-77.5 -16.5q-35 0 -66 13.5t-58 29.5l-51 29.5t-45 13.5q-32 0 -50 -19.5t-18 -62.5h-133q0 52 14.5 95t40 73.5t61 47.5t77.5 17q36 0 67 -13.5t58 -29.5l50.5 -29.5t44.5 -13.5z" />
    <glyph glyph-name="t_uni1E2F.liga" unicode="t&#x1e2f;" horiz-adv-x="1260" 
d="M1120 0h-215v851h-497v-579q0 -55 27 -84t72 -29q25 0 43 6.5t31 14t22.5 14t18.5 6.5q18 0 29 -20l64 -105q-50 -44 -118 -67.5t-140 -23.5q-127 0 -195.5 71.5t-68.5 201.5v594h-112q-18 0 -31 11.5t-13 34.5v87l165 24l47 295q5 17 17 27.5t32 10.5h110v-335h712
v-1006zM1382 1774l-241 -259q-16 -18 -31.5 -25t-40.5 -7h-128l145 242q14 25 32.5 37t54.5 12h209zM948 1291q0 -26 -10 -48.5t-27.5 -39t-41 -26.5t-49.5 -10q-25 0 -47.5 10t-39.5 26.5t-27 39t-10 48.5t10 49.5t27 41t39.5 27.5t47.5 10q26 0 49.5 -10t41 -27.5
t27.5 -41t10 -49.5zM1342 1291q0 -26 -10 -48.5t-27.5 -39t-40.5 -26.5t-49 -10t-48.5 10t-39.5 26.5t-27 39t-10 48.5t10 49.5t27 41t39.5 27.5t48.5 10t49 -10t40.5 -27.5t27.5 -41t10 -49.5z" />
    <glyph glyph-name="t_uni0268.liga" unicode="t&#x268;" horiz-adv-x="1312" 
d="M1020 1191q-29 0 -54.5 11.5t-45 31t-31 45t-11.5 54.5q0 30 11.5 56.5t31 46t45 31t54.5 11.5t55.5 -11.5t46.5 -31t31.5 -46t11.5 -56.5q0 -29 -11.5 -54.5t-31.5 -45t-46.5 -31t-55.5 -11.5zM1275 414h-154v-414h-215v414h-138v155h138v282h-497v-579q0 -55 27 -84
t72 -29q25 0 43 6.5t31 14t22.5 14t18.5 6.5q18 0 29 -20l64 -105q-50 -44 -118 -67.5t-140 -23.5q-127 0 -195.5 71.5t-68.5 201.5v594h-112q-18 0 -31 11.5t-13 34.5v87l165 24l47 295q5 17 17 27.5t32 10.5h110v-335h712v-437h154v-155z" />
    <glyph glyph-name="t_uni020B.liga" unicode="t&#x20b;" horiz-adv-x="1261" 
d="M1121 0h-215v851h-497v-579q0 -55 27 -84t72 -29q25 0 43 6.5t31 14t22.5 14t18.5 6.5q18 0 29 -20l64 -105q-50 -44 -118 -67.5t-140 -23.5q-127 0 -195.5 71.5t-68.5 201.5v594h-112q-18 0 -31 11.5t-13 34.5v87l165 24l47 295q5 17 17 27.5t32 10.5h110v-335h712
v-1006zM1021 1455q81 0 136.5 -22t89.5 -60t48.5 -88.5t14.5 -106.5h-151q0 31 -6.5 56.5t-22 44t-42.5 28.5t-67 10q-41 0 -67.5 -10t-42 -28.5t-22 -44t-6.5 -56.5h-151q0 56 14.5 106.5t48.5 88.5t89.5 60t136.5 22z" />
    <glyph glyph-name="t_uni0209.liga" unicode="t&#x209;" horiz-adv-x="1261" 
d="M1121 0h-215v851h-497v-579q0 -55 27 -84t72 -29q25 0 43 6.5t31 14t22.5 14t18.5 6.5q18 0 29 -20l64 -105q-50 -44 -118 -67.5t-140 -23.5q-127 0 -195.5 71.5t-68.5 201.5v594h-112q-18 0 -31 11.5t-13 34.5v87l165 24l47 295q5 17 17 27.5t32 10.5h110v-335h712
v-1006zM1038 1456q36 0 55 -12t32 -37l132 -242h-89q-24 0 -41 6.5t-31 25.5l-199 259h141zM720 1456q18 0 31 -3t23 -9.5t18 -15.5t16 -21l178 -242h-102q-24 0 -39.5 7t-32.5 25l-247 259h155z" />
    <glyph glyph-name="t_t_i.liga" unicode="tti" horiz-adv-x="1897" 
d="M1757 0h-214v851h-478v-579q0 -55 27 -84t72 -29q25 0 43.5 6.5t31.5 14t22.5 14t17.5 6.5q11 0 17 -4.5t13 -15.5l64 -105q-51 -44 -118.5 -67.5t-139.5 -23.5q-128 0 -196 71.5t-68 201.5v594h-442v-579q0 -55 27 -84t72 -29q25 0 43 6.5t31 14t22.5 14t18.5 6.5
q18 0 29 -20l64 -105q-50 -44 -118 -67.5t-140 -23.5q-127 0 -195.5 71.5t-68.5 201.5v594h-112q-18 0 -31 11.5t-13 34.5v87l165 24l47 295q5 17 17 27.5t32 10.5h110v-335h451l47 297q4 17 16 27.5t32 10.5h110v-335h692v-1006zM1797 1333q0 -29 -11.5 -54.5t-31.5 -45
t-46.5 -31t-55.5 -11.5t-54.5 11.5t-45 31t-31 45t-11.5 54.5q0 30 11.5 56.5t31 46t45 31t54.5 11.5t55.5 -11.5t46.5 -31t31.5 -46t11.5 -56.5z" />
    <glyph glyph-name="t_t_igrave.liga" unicode="tt&#xec;" horiz-adv-x="1897" 
d="M1757 0h-214v851h-478v-579q0 -55 27 -84t72 -29q25 0 43.5 6.5t31.5 14t22.5 14t17.5 6.5q11 0 17 -4.5t13 -15.5l64 -105q-51 -44 -118.5 -67.5t-139.5 -23.5q-128 0 -196 71.5t-68 201.5v594h-442v-579q0 -55 27 -84t72 -29q25 0 43 6.5t31 14t22.5 14t18.5 6.5
q18 0 29 -20l64 -105q-50 -44 -118 -67.5t-140 -23.5q-127 0 -195.5 71.5t-68.5 201.5v594h-112q-18 0 -31 11.5t-13 34.5v87l165 24l47 295q5 17 17 27.5t32 10.5h110v-335h451l47 297q4 17 16 27.5t32 10.5h110v-335h692v-1006zM1559 1456q37 0 55 -12t32 -37l146 -242
h-122q-25 0 -40.5 7t-31.5 25l-241 259h202z" />
    <glyph glyph-name="t_t_iacute.liga" unicode="tt&#xed;" horiz-adv-x="1896" 
d="M1756 0h-214v851h-478v-579q0 -55 27 -84t72 -29q25 0 43.5 6.5t31.5 14t22.5 14t17.5 6.5q11 0 17 -4.5t13 -15.5l64 -105q-51 -44 -118.5 -67.5t-139.5 -23.5q-128 0 -196 71.5t-68 201.5v594h-442v-579q0 -55 27 -84t72 -29q25 0 43 6.5t31 14t22.5 14t18.5 6.5
q18 0 29 -20l64 -105q-50 -44 -118 -67.5t-140 -23.5q-127 0 -195.5 71.5t-68.5 201.5v594h-112q-18 0 -31 11.5t-13 34.5v87l165 24l47 295q5 17 17 27.5t32 10.5h110v-335h451l47 297q4 17 16 27.5t32 10.5h110v-335h692v-1006zM1972 1456l-241 -259q-16 -18 -31.5 -25
t-40.5 -7h-128l145 242q14 25 32.5 37t54.5 12h209z" />
    <glyph glyph-name="t_t_icircumflex.liga" unicode="tt&#xee;" horiz-adv-x="1897" 
d="M1757 0h-214v851h-478v-579q0 -55 27 -84t72 -29q25 0 43.5 6.5t31.5 14t22.5 14t17.5 6.5q11 0 17 -4.5t13 -15.5l64 -105q-51 -44 -118.5 -67.5t-139.5 -23.5q-128 0 -196 71.5t-68 201.5v594h-442v-579q0 -55 27 -84t72 -29q25 0 43 6.5t31 14t22.5 14t18.5 6.5
q18 0 29 -20l64 -105q-50 -44 -118 -67.5t-140 -23.5q-127 0 -195.5 71.5t-68.5 201.5v594h-112q-18 0 -31 11.5t-13 34.5v87l165 24l47 295q5 17 17 27.5t32 10.5h110v-335h451l47 297q4 17 16 27.5t32 10.5h110v-335h692v-1006zM1980 1169h-144q-13 0 -25.5 4t-25.5 18
l-110 116q-9 9 -18 21l-9.5 -11t-9.5 -10l-112 -116q-11 -11 -24 -16.5t-27 -5.5h-149l227 271h200z" />
    <glyph glyph-name="t_t_idieresis.liga" unicode="tt&#xef;" horiz-adv-x="1897" 
d="M1757 0h-214v851h-478v-579q0 -55 27 -84t72 -29q25 0 43.5 6.5t31.5 14t22.5 14t17.5 6.5q11 0 17 -4.5t13 -15.5l64 -105q-51 -44 -118.5 -67.5t-139.5 -23.5q-128 0 -196 71.5t-68 201.5v594h-442v-579q0 -55 27 -84t72 -29q25 0 43 6.5t31 14t22.5 14t18.5 6.5
q18 0 29 -20l64 -105q-50 -44 -118 -67.5t-140 -23.5q-127 0 -195.5 71.5t-68.5 201.5v594h-112q-18 0 -31 11.5t-13 34.5v87l165 24l47 295q5 17 17 27.5t32 10.5h110v-335h451l47 297q4 17 16 27.5t32 10.5h110v-335h692v-1006zM1616 1291q0 -26 -10.5 -48.5t-28 -39
t-40.5 -26.5t-49 -10q-25 0 -47.5 10t-39.5 26.5t-27 39t-10 48.5t10 49.5t27 41t39.5 27.5t47.5 10q26 0 49 -10t40.5 -27.5t28 -41t10.5 -49.5zM1942 1291q0 -26 -10 -48.5t-27 -39t-40 -26.5t-49 -10t-49 10t-40 26.5t-27 39t-10 48.5t10 49.5t27 41t40 27.5t49 10
t49 -10t40 -27.5t27 -41t10 -49.5z" />
    <glyph glyph-name="t_t_imacron.liga" unicode="tt&#x12b;" horiz-adv-x="1897" 
d="M1757 0h-214v851h-478v-579q0 -55 27 -84t72 -29q25 0 43.5 6.5t31.5 14t22.5 14t17.5 6.5q11 0 17 -4.5t13 -15.5l64 -105q-51 -44 -118.5 -67.5t-139.5 -23.5q-128 0 -196 71.5t-68 201.5v594h-442v-579q0 -55 27 -84t72 -29q25 0 43 6.5t31 14t22.5 14t18.5 6.5
q18 0 29 -20l64 -105q-50 -44 -118 -67.5t-140 -23.5q-127 0 -195.5 71.5t-68.5 201.5v594h-112q-18 0 -31 11.5t-13 34.5v87l165 24l47 295q5 17 17 27.5t32 10.5h110v-335h451l47 297q4 17 16 27.5t32 10.5h110v-335h692v-1006zM1360 1361h586v-139h-586v139z" />
    <glyph glyph-name="t_t_itilde.liga" unicode="tt&#x129;" horiz-adv-x="1896" 
d="M1756 0h-214v851h-478v-579q0 -55 27 -84t72 -29q25 0 43.5 6.5t31.5 14t22.5 14t17.5 6.5q11 0 17 -4.5t13 -15.5l64 -105q-51 -44 -118.5 -67.5t-139.5 -23.5q-128 0 -196 71.5t-68 201.5v594h-442v-579q0 -55 27 -84t72 -29q25 0 43 6.5t31 14t22.5 14t18.5 6.5
q18 0 29 -20l64 -105q-50 -44 -118 -67.5t-140 -23.5q-127 0 -195.5 71.5t-68.5 201.5v594h-112q-18 0 -31 11.5t-13 34.5v87l165 24l47 295q5 17 17 27.5t32 10.5h110v-335h451l47 297q4 17 16 27.5t32 10.5h110v-335h692v-1006zM1761 1344q32 0 50 18.5t19 61.5h131
q0 -52 -14 -94.5t-39.5 -73t-61 -47t-77.5 -16.5q-35 0 -66 13.5t-58 29.5l-51 29.5t-45 13.5q-32 0 -50 -19.5t-18 -62.5h-133q0 52 14.5 95t40 73.5t61 47.5t77.5 17q36 0 67 -13.5t58 -29.5l50.5 -29.5t44.5 -13.5z" />
    <glyph glyph-name="t_t_ibreve.liga" unicode="tt&#x12d;" horiz-adv-x="1897" 
d="M1757 0h-214v851h-478v-579q0 -55 27 -84t72 -29q25 0 43.5 6.5t31.5 14t22.5 14t17.5 6.5q11 0 17 -4.5t13 -15.5l64 -105q-51 -44 -118.5 -67.5t-139.5 -23.5q-128 0 -196 71.5t-68 201.5v594h-442v-579q0 -55 27 -84t72 -29q25 0 43 6.5t31 14t22.5 14t18.5 6.5
q18 0 29 -20l64 -105q-50 -44 -118 -67.5t-140 -23.5q-127 0 -195.5 71.5t-68.5 201.5v594h-112q-18 0 -31 11.5t-13 34.5v87l165 24l47 295q5 17 17 27.5t32 10.5h110v-335h451l47 297q4 17 16 27.5t32 10.5h110v-335h692v-1006zM1653 1163q-81 0 -136.5 22t-89.5 60
t-48.5 88t-14.5 107h151q0 -32 6.5 -57.5t22 -43.5t42 -28t67.5 -10q40 0 67 10t42.5 28t22 43.5t6.5 57.5h151q0 -57 -14.5 -107t-48.5 -88t-89.5 -60t-136.5 -22z" />
    <glyph glyph-name="t_t_uni01D0.liga" unicode="tt&#x1d0;" horiz-adv-x="1897" 
d="M1757 0h-214v851h-478v-579q0 -55 27 -84t72 -29q25 0 43.5 6.5t31.5 14t22.5 14t17.5 6.5q11 0 17 -4.5t13 -15.5l64 -105q-51 -44 -118.5 -67.5t-139.5 -23.5q-128 0 -196 71.5t-68 201.5v594h-442v-579q0 -55 27 -84t72 -29q25 0 43 6.5t31 14t22.5 14t18.5 6.5
q18 0 29 -20l64 -105q-50 -44 -118 -67.5t-140 -23.5q-127 0 -195.5 71.5t-68.5 201.5v594h-112q-18 0 -31 11.5t-13 34.5v87l165 24l47 295q5 17 17 27.5t32 10.5h110v-335h451l47 297q4 17 16 27.5t32 10.5h110v-335h692v-1006zM1980 1440l-227 -271h-200l-227 271h149
q14 0 26 -5t19 -11l116 -122l20 -23q5 7 9.5 12.5t9.5 10.5l116 122q8 5 20 10.5t25 5.5h144z" />
    <glyph glyph-name="t_t_uni1E2D.liga" unicode="tt&#x1e2d;" horiz-adv-x="1896" 
d="M1756 0h-214v851h-478v-579q0 -55 27 -84t72 -29q25 0 43.5 6.5t31.5 14t22.5 14t17.5 6.5q11 0 17 -4.5t13 -15.5l64 -105q-51 -44 -118.5 -67.5t-139.5 -23.5q-128 0 -196 71.5t-68 201.5v594h-442v-579q0 -55 27 -84t72 -29q25 0 43 6.5t31 14t22.5 14t18.5 6.5
q18 0 29 -20l64 -105q-50 -44 -118 -67.5t-140 -23.5q-127 0 -195.5 71.5t-68.5 201.5v594h-112q-18 0 -31 11.5t-13 34.5v87l165 24l47 295q5 17 17 27.5t32 10.5h110v-335h451l47 297q4 17 16 27.5t32 10.5h110v-335h692v-1006zM1759 -163q32 0 50 18.5t19 61.5h131
q0 -52 -14 -94.5t-39.5 -73t-61 -47t-77.5 -16.5q-35 0 -66 13.5t-58 29.5l-51 29.5t-45 13.5q-32 0 -50 -19.5t-18 -62.5h-133q0 52 14.5 95t40 73.5t61 47.5t77.5 17q36 0 67 -13.5t58 -29.5l50.5 -29.5t44.5 -13.5zM1796 1333q0 -29 -11.5 -54.5t-31.5 -45t-46.5 -31
t-55.5 -11.5t-54.5 11.5t-45 31t-31 45t-11.5 54.5q0 30 11.5 56.5t31 46t45 31t54.5 11.5t55.5 -11.5t46.5 -31t31.5 -46t11.5 -56.5z" />
    <glyph glyph-name="t_t_uni1E2F.liga" unicode="tt&#x1e2f;" horiz-adv-x="1896" 
d="M1756 0h-214v851h-478v-579q0 -55 27 -84t72 -29q25 0 43.5 6.5t31.5 14t22.5 14t17.5 6.5q11 0 17 -4.5t13 -15.5l64 -105q-51 -44 -118.5 -67.5t-139.5 -23.5q-128 0 -196 71.5t-68 201.5v594h-442v-579q0 -55 27 -84t72 -29q25 0 43 6.5t31 14t22.5 14t18.5 6.5
q18 0 29 -20l64 -105q-50 -44 -118 -67.5t-140 -23.5q-127 0 -195.5 71.5t-68.5 201.5v594h-112q-18 0 -31 11.5t-13 34.5v87l165 24l47 295q5 17 17 27.5t32 10.5h110v-335h451l47 297q4 17 16 27.5t32 10.5h110v-335h692v-1006zM2015 1774l-241 -259q-16 -18 -31.5 -25
t-40.5 -7h-128l145 242q14 25 32.5 37t54.5 12h209zM1581 1291q0 -26 -10 -48.5t-27.5 -39t-41 -26.5t-49.5 -10q-25 0 -47.5 10t-39.5 26.5t-27 39t-10 48.5t10 49.5t27 41t39.5 27.5t47.5 10q26 0 49.5 -10t41 -27.5t27.5 -41t10 -49.5zM1975 1291q0 -26 -10 -48.5
t-27.5 -39t-40.5 -26.5t-49 -10t-48.5 10t-39.5 26.5t-27 39t-10 48.5t10 49.5t27 41t39.5 27.5t48.5 10t49 -10t40.5 -27.5t27.5 -41t10 -49.5z" />
    <glyph glyph-name="t_t_uni0268.liga" unicode="tt&#x268;" horiz-adv-x="1945" 
d="M1652 1191q-29 0 -54.5 11.5t-45 31t-31 45t-11.5 54.5q0 30 11.5 56.5t31 46t45 31t54.5 11.5t55.5 -11.5t46.5 -31t31.5 -46t11.5 -56.5q0 -29 -11.5 -54.5t-31.5 -45t-46.5 -31t-55.5 -11.5zM1910 414h-153v-414h-214v414h-140v155h140v282h-478v-579q0 -55 27 -84
t72 -29q25 0 43.5 6.5t31.5 14t22.5 14t17.5 6.5q11 0 17 -4.5t13 -15.5l64 -105q-51 -44 -118.5 -67.5t-139.5 -23.5q-128 0 -196 71.5t-68 201.5v594h-442v-579q0 -55 27 -84t72 -29q25 0 43 6.5t31 14t22.5 14t18.5 6.5q18 0 29 -20l64 -105q-50 -44 -118 -67.5
t-140 -23.5q-127 0 -195.5 71.5t-68.5 201.5v594h-112q-18 0 -31 11.5t-13 34.5v87l165 24l47 295q5 17 17 27.5t32 10.5h110v-335h451l47 297q4 17 16 27.5t32 10.5h110v-335h692v-437h153v-155z" />
    <glyph glyph-name="t_t_uni020B.liga" unicode="tt&#x20b;" horiz-adv-x="1897" 
d="M1757 0h-214v851h-478v-579q0 -55 27 -84t72 -29q25 0 43.5 6.5t31.5 14t22.5 14t17.5 6.5q11 0 17 -4.5t13 -15.5l64 -105q-51 -44 -118.5 -67.5t-139.5 -23.5q-128 0 -196 71.5t-68 201.5v594h-442v-579q0 -55 27 -84t72 -29q25 0 43 6.5t31 14t22.5 14t18.5 6.5
q18 0 29 -20l64 -105q-50 -44 -118 -67.5t-140 -23.5q-127 0 -195.5 71.5t-68.5 201.5v594h-112q-18 0 -31 11.5t-13 34.5v87l165 24l47 295q5 17 17 27.5t32 10.5h110v-335h451l47 297q4 17 16 27.5t32 10.5h110v-335h692v-1006zM1653 1455q81 0 136.5 -22t89.5 -60
t48.5 -88.5t14.5 -106.5h-151q0 31 -6.5 56.5t-22 44t-42.5 28.5t-67 10q-41 0 -67.5 -10t-42 -28.5t-22 -44t-6.5 -56.5h-151q0 56 14.5 106.5t48.5 88.5t89.5 60t136.5 22z" />
    <glyph glyph-name="t_t_uni0209.liga" unicode="tt&#x209;" horiz-adv-x="1897" 
d="M1757 0h-214v851h-478v-579q0 -55 27 -84t72 -29q25 0 43.5 6.5t31.5 14t22.5 14t17.5 6.5q11 0 17 -4.5t13 -15.5l64 -105q-51 -44 -118.5 -67.5t-139.5 -23.5q-128 0 -196 71.5t-68 201.5v594h-442v-579q0 -55 27 -84t72 -29q25 0 43 6.5t31 14t22.5 14t18.5 6.5
q18 0 29 -20l64 -105q-50 -44 -118 -67.5t-140 -23.5q-127 0 -195.5 71.5t-68.5 201.5v594h-112q-18 0 -31 11.5t-13 34.5v87l165 24l47 295q5 17 17 27.5t32 10.5h110v-335h451l47 297q4 17 16 27.5t32 10.5h110v-335h692v-1006zM1670 1456q36 0 55 -12t32 -37l132 -242
h-89q-24 0 -41 6.5t-31 25.5l-199 259h141zM1352 1456q18 0 31 -3t23 -9.5t18 -15.5t16 -21l178 -242h-102q-24 0 -39.5 7t-32.5 25l-247 259h155z" />
    <glyph glyph-name=".notdef" horiz-adv-x="1080" 
d="M244 1144q53 45 123 76.5t166 31.5q67 0 120.5 -18t91.5 -51.5t58.5 -81t20.5 -105.5q0 -55 -14.5 -94.5t-36.5 -68.5t-48 -51l-49.5 -40.5t-41 -36.5t-21.5 -41l-19 -100h-147l-15 116q-5 36 7.5 62t34 47t47.5 40t49.5 41t39 49t15.5 64q0 43 -30 68t-81 25
q-38 0 -64.5 -7.5t-45 -17l-32.5 -17t-27 -7.5q-30 0 -44 25zM390 304q0 26 9.5 49t26 40t39 26.5t49.5 9.5q25 0 47.5 -9.5t39 -26.5t26 -40t9.5 -49t-9.5 -49t-26 -39.5t-39 -26t-47.5 -9.5q-27 0 -49.5 9.5t-39 26t-26 39.5t-9.5 49zM43 1440h993v-1440h-993v1440z
M101 62h871v1316h-871v-1316z" />
    <glyph glyph-name="glyph1" horiz-adv-x="0" 
 />
    <glyph glyph-name="glyph1" horiz-adv-x="0" 
 />
    <glyph glyph-name="space" unicode=" " horiz-adv-x="498" 
 />
    <glyph glyph-name="space" unicode="&#xa0;" horiz-adv-x="498" 
 />
    <glyph glyph-name="A" unicode="A" horiz-adv-x="1373" 
d="M933 540l-198 526q-24 61 -49 155q-11 -47 -24 -86.5t-24 -69.5l-198 -525h493zM1376 0h-181q-31 0 -50 15.5t-29 38.5l-120 318h-620l-120 -318q-8 -20 -28 -37t-50 -17h-181l571 1440h237z" />
    <glyph glyph-name="Aogonek" unicode="&#x104;" horiz-adv-x="1371" 
d="M932 540l-198 526q-24 61 -49 155q-11 -47 -24 -86.5t-24 -69.5l-198 -525h493zM1435 -292q-32 -23 -79.5 -37t-101.5 -14q-94 0 -145.5 40t-51.5 106q0 56 37.5 106.5t102.5 90.5h-3q-31 0 -50 15.5t-29 38.5l-120 318h-620l-120 -318q-8 -20 -28 -37t-50 -17h-181
l571 1440h237l571 -1440h-46q-20 -11 -39.5 -26t-35.5 -33t-26 -39.5t-10 -45.5q0 -33 21.5 -52.5t59.5 -19.5q21 0 34 3t22 6t15 6t11 3q16 0 21 -14z" />
    <glyph glyph-name="AE" unicode="&#xc6;" horiz-adv-x="1863" 
d="M928 540l-89 725q-31 -95 -63 -164l-281 -561h433zM1781 189l-1 -189h-785l-46 372h-538l-159 -318q-11 -25 -33.5 -39.5t-54.5 -14.5h-178l746 1440h1048v-189h-720l54 -434h533v-183h-510l55 -445h589z" />
    <glyph glyph-name="B" unicode="B" horiz-adv-x="1306" 
d="M695 185q79 0 133.5 18.5t89 50.5t50 75.5t15.5 93.5q0 102 -69.5 160.5t-219.5 58.5h-289v-457h290zM405 1257v-450h234q150 0 224 58t74 167q0 119 -69.5 172t-217.5 53h-245zM650 1440q138 0 236 -26.5t161 -75.5t92.5 -119.5t29.5 -158.5q0 -51 -15.5 -98.5t-48 -89
t-81.5 -74.5t-116 -55q306 -65 306 -325q0 -92 -34.5 -168.5t-100 -132t-161.5 -86.5t-219 -31h-528v1440h479z" />
    <glyph glyph-name="C" unicode="C" horiz-adv-x="1329" 
d="M1171 321q19 0 33 -15l93 -101q-88 -106 -216 -163.5t-306 -57.5q-158 0 -285.5 54.5t-217.5 152t-138.5 232.5t-48.5 297t51.5 297.5t145 233t224 151.5t287.5 54q156 0 275.5 -50.5t207.5 -134.5l-77 -109q-8 -11 -19 -19t-30 -8q-20 0 -45.5 18.5t-65 41t-99 41
t-148.5 18.5q-103 0 -189 -36t-148 -105t-96.5 -168t-34.5 -225q0 -127 36 -226.5t99 -168t148 -104.5t183 -36q60 0 107.5 6.5t87.5 21t75.5 36.5t70.5 54q20 18 40 18z" />
    <glyph glyph-name="Ccedilla" unicode="&#xc7;" horiz-adv-x="1329" 
d="M1297 205q-81 -97 -194 -153.5t-269 -65.5l-15 -53q94 -20 133.5 -56.5t39.5 -90.5q0 -33 -17 -59.5t-47.5 -45t-73 -28.5t-93.5 -10q-41 0 -77.5 7t-69.5 20l20 67q6 21 26 21q7 0 14.5 -3t18 -6.5t24 -6.5t31.5 -3q38 0 56.5 14.5t18.5 35.5q0 34 -39 47.5t-114 24.5
l41 125q-144 11 -259.5 69.5t-197 155t-125.5 226.5t-44 283q0 162 51.5 297.5t145 233t224 151.5t287.5 54q156 0 275.5 -50.5t207.5 -134.5l-77 -109q-8 -11 -19 -19t-30 -8q-20 0 -45.5 18.5t-65 41t-99 41t-148.5 18.5q-103 0 -189 -36t-148 -105t-96.5 -168t-34.5 -225
q0 -127 36 -226.5t99 -168t148 -104.5t183 -36q60 0 107.5 6.5t87.5 21t75.5 36.5t70.5 54q20 18 40 18q19 0 33 -15z" />
    <glyph glyph-name="D" unicode="D" horiz-adv-x="1521" 
d="M1435 720q0 -160 -52 -292.5t-146.5 -227.5t-227 -147.5t-294.5 -52.5h-544v1440h544q162 0 294.5 -52.5t227 -147.5t146.5 -227.5t52 -292.5zM1196 720q0 124 -33.5 223t-96 167t-151.5 104.5t-200 36.5h-309v-1062h309q111 0 200 36t151.5 104.5t96 167t33.5 223.5z
" />
    <glyph glyph-name="Eth" unicode="&#xd0;" horiz-adv-x="1539" 
d="M733 189q111 0 200 36t151.5 104.5t96 167t33.5 223.5q0 124 -33.5 223t-96 167t-151.5 104.5t-200 36.5h-309v-458h277v-135h-277v-469h309zM733 1440q162 0 294.5 -52.5t227 -147.5t146.5 -227.5t52 -292.5t-52 -292.5t-146.5 -227.5t-227 -147.5t-294.5 -52.5h-544
v658h-188v135h188v647h544z" />
    <glyph glyph-name="E" unicode="E" horiz-adv-x="1152" 
d="M1070 189l-1 -189h-898v1440h898v-189h-663v-434h530v-183h-530v-445h664z" />
    <glyph glyph-name="Eogonek" unicode="&#x118;" horiz-adv-x="1152" 
d="M1084 -292q-32 -23 -79.5 -37t-101.5 -14q-94 0 -145.5 40t-51.5 106q0 56 37.5 106.5t102.5 90.5h-675v1440h898v-189h-663v-434h530v-183h-530v-445h664l-1 -189h-91q-20 -11 -39.5 -26t-35.5 -33t-26 -39.5t-10 -45.5q0 -33 21.5 -52.5t59.5 -19.5q21 0 34 3t22 6
t15 6t11 3q16 0 21 -14z" />
    <glyph glyph-name="F" unicode="F" horiz-adv-x="1131" 
d="M406 1251v-461h563v-189h-563v-601h-235v1440h898v-189h-663z" />
    <glyph glyph-name="G" unicode="G" horiz-adv-x="1456" 
d="M1350 709v-570q-215 -155 -500 -155q-175 0 -316.5 54.5t-241.5 152t-154 232.5t-54 297q0 163 52 298.5t149 233t234 151t308 53.5q87 0 161.5 -13.5t138.5 -37.5t118 -58t99 -76l-67 -107q-16 -25 -41 -31t-54 12l-61.5 36t-74.5 35.5t-97 27t-130 10.5
q-114 0 -205.5 -37.5t-156.5 -107t-100 -168.5t-35 -221q0 -129 37 -230.5t105 -172t164.5 -107.5t215.5 -37q89 0 158.5 19t136.5 53v286h-201q-23 0 -36 12.5t-13 32.5v133h461z" />
    <glyph glyph-name="H" unicode="H" horiz-adv-x="1535" 
d="M1363 1440v-1440h-234v641h-723v-641h-235v1440h235v-630h723v630h234z" />
    <glyph glyph-name="Hbar" unicode="&#x126;" horiz-adv-x="1552" 
d="M1138 1037h-723v-227h723v227zM1529 1037h-157v-1037h-234v641h-723v-641h-235v1037h-157v138h157v265h235v-265h723v265h234v-265h157v-138z" />
    <glyph glyph-name="I" unicode="I" horiz-adv-x="577" 
d="M406 0h-235v1440h235v-1440z" />
    <glyph glyph-name="Iogonek" unicode="&#x12e;" horiz-adv-x="578" 
d="M478 -292q-32 -23 -79.5 -37t-101.5 -14q-94 0 -145.5 40t-51.5 106q0 56 37.5 106.5t102.5 90.5h-68v1440h235v-1440h-35q-20 -11 -39.5 -26t-35.5 -33t-26 -39.5t-10 -45.5q0 -33 21.5 -52.5t59.5 -19.5q21 0 34 3t22 6t15 6t11 3q16 0 21 -14z" />
    <glyph glyph-name="J" unicode="J" horiz-adv-x="852" 
d="M695 506q0 -121 -29.5 -217.5t-88 -164t-145 -104t-200.5 -36.5q-52 0 -103 6.5t-106 20.5l12 140q3 20 15.5 32t36.5 12q18 0 46.5 -7.5t74.5 -7.5q61 0 108.5 18t80 56.5t49 99t16.5 146.5v940h233v-934z" />
    <glyph glyph-name="K" unicode="K" horiz-adv-x="1349" 
d="M405 824h67q38 0 62 10.5t43 33.5l436 520q23 29 47.5 40.5t61.5 11.5h200l-515 -608q-21 -26 -40.5 -43.5t-42.5 -28.5q30 -11 54 -30.5t47 -51.5l534 -678h-204q-22 0 -37.5 3t-27 9t-20 15t-15.5 20l-450 550q-10 13 -20 22t-23.5 15t-30.5 8.5t-40 2.5h-86v-645h-234
v1440h234v-616z" />
    <glyph glyph-name="L" unicode="L" horiz-adv-x="1033" 
d="M1003 196v-196h-832v1440h234v-1244h598z" />
    <glyph glyph-name="Lslash" unicode="&#x141;" horiz-adv-x="1064" 
d="M1033 196v-196h-832v539l-183 -93v163q0 32 28 44l155 82v705h234v-599l371 187v-159q0 -37 -31 -50l-340 -176v-447h598z" />
    <glyph glyph-name="Lcaron" unicode="&#x13d;" horiz-adv-x="1033" 
d="M1003 196v-196h-832v1440h234v-1244h598zM775 1482q25 0 31 -11.5t6 -23.5q0 -9 -3.5 -25.5t-13.5 -45.5l-27 -75.5t-45 -115.5q-12 -25 -29.5 -32.5t-46.5 -7.5h-75l59 337h144z" />
    <glyph glyph-name="M" unicode="M" horiz-adv-x="1874" 
d="M1703 1440v-1440h-206v987q0 24 1.5 52.5t4.5 57.5l-463 -855q-27 -53 -83 -53h-33q-57 0 -83 53l-470 857q3 -29 4.5 -58t1.5 -54v-987h-206v1440h175q31 0 48 -5.5t31 -33.5l462 -837q15 -29 28.5 -59.5t24.5 -62.5q12 32 25.5 63.5t28.5 60.5l455 835q14 28 31 33.5
t48 5.5h175z" />
    <glyph glyph-name="N" unicode="N" horiz-adv-x="1535" 
d="M1363 1440v-1440h-119q-27 0 -46 9.5t-36 31.5l-791 1016q3 -29 4.5 -57.5t1.5 -52.5v-947h-206v1440h122q15 0 25.5 -1.5t19.5 -5.5t17 -12t17 -20l792 -1017q-3 31 -4.5 61t-1.5 56v939h205z" />
    <glyph glyph-name="Eng" unicode="&#x14a;" horiz-adv-x="1535" 
d="M1363 1440v-1415q0 -84 -19.5 -154.5t-61 -121t-107 -78.5t-158.5 -28q-51 0 -91.5 9t-87.5 29l24 94q7 26 19.5 34t28.5 8q14 0 33 -6.5t54 -6.5q160 0 160 196v47l-786 1010q3 -29 4.5 -57.5t1.5 -52.5v-947h-206v1440h122q15 0 25.5 -1.5t19.5 -5.5t17 -12t17 -20
l792 -1017q-3 31 -4.5 61t-1.5 56v939h205z" />
    <glyph glyph-name="O" unicode="O" horiz-adv-x="1609" 
d="M1524 720q0 -160 -52 -295t-146.5 -232.5t-227 -152.5t-294.5 -55q-161 0 -293.5 55t-227.5 152.5t-147 232.5t-52 295t52 295t147 233t227.5 153t293.5 55q162 0 294.5 -55t227 -153t146.5 -233t52 -295zM1285 720q0 124 -33.5 223t-96 168t-151.5 106t-200 37
q-110 0 -199 -37t-152 -106t-97 -168t-34 -223q0 -125 34 -224t97 -167.5t152 -105t199 -36.5q111 0 200 36.5t151.5 105t96 167.5t33.5 224z" />
    <glyph glyph-name="Oslash" unicode="&#xd8;" horiz-adv-x="1609" 
d="M563 243q103 -56 241 -56q111 0 200 36.5t151.5 105t96 167.5t33.5 224q0 114 -27.5 205.5t-80.5 159.5zM1072 1182q-55 35 -122.5 53.5t-145.5 18.5q-110 0 -199 -37t-152 -106t-97 -168t-34 -223q0 -125 33 -222.5t96 -166.5zM1308 1265q103 -100 159.5 -238.5
t56.5 -306.5q0 -160 -52 -295t-146.5 -232.5t-227 -152.5t-294.5 -55q-103 0 -195 23t-170 66l-87 -120q-26 -35 -61 -49.5t-69 -14.5h-93l194 265q-114 99 -176.5 243.5t-62.5 321.5q0 160 52 295t147 233t227.5 153t293.5 55q113 0 211.5 -27t180.5 -78l70 96
q12 16 21.5 27t20 18t24 10.5t32.5 3.5h120z" />
    <glyph glyph-name="OE" unicode="&#x152;" horiz-adv-x="2171" 
d="M759 181q99 0 179 37.5t136 107t86 169.5t30 225q0 124 -30 224.5t-86 170.5t-136 108t-179 38q-100 0 -180.5 -38t-136.5 -108t-86.5 -170.5t-30.5 -224.5q0 -125 30.5 -225t86.5 -169.5t136.5 -107t180.5 -37.5zM2089 189l-1 -189h-870v209q-85 -106 -207.5 -165
t-275.5 -59q-145 0 -264.5 55t-205 152.5t-132.5 232.5t-47 295t47 295t132.5 233t205 153t264.5 55q153 0 275.5 -59.5t207.5 -165.5v209h870v-189h-663v-434h530v-183h-530v-445h664z" />
    <glyph glyph-name="P" unicode="P" horiz-adv-x="1221" 
d="M619 706q78 0 137.5 20t99 56.5t59.5 88.5t20 116q0 63 -19.5 113t-58.5 85t-98.5 53.5t-139.5 18.5h-214v-551h214zM619 1440q141 0 244.5 -33t171 -92.5t100.5 -143t33 -184.5q0 -103 -35 -188.5t-104 -147t-171.5 -96t-238.5 -34.5h-214v-521h-234v1440h448z" />
    <glyph glyph-name="Thorn" unicode="&#xde;" horiz-adv-x="1215" 
d="M619 451q78 0 137.5 20t99 56.5t59.5 88.5t20 115q0 126 -78 198.5t-238 72.5h-214v-551h214zM619 1185q141 0 244.5 -33t171 -93t100.5 -143.5t33 -184.5q0 -102 -35 -187.5t-104 -147t-171.5 -96t-238.5 -34.5h-214v-266h-234v1440h234v-255h214z" />
    <glyph glyph-name="Q" unicode="Q" horiz-adv-x="1609" 
d="M323 720q0 -125 34 -224t97 -167.5t152 -105t199 -36.5q111 0 200 36.5t151.5 105t96 167.5t33.5 224q0 124 -33.5 223t-96 168t-151.5 106t-200 37q-110 0 -199 -37t-152 -106t-97 -168t-34 -223zM1596 -288h-192q-43 0 -76 11.5t-61 41.5l-230 253q-108 -33 -232 -33
q-161 0 -293.5 55t-227.5 152.5t-147 232.5t-52 295t52 295t147 233t227.5 153t293.5 55q162 0 294.5 -55t227 -153t146.5 -233t52 -295q0 -99 -20 -188.5t-58 -167t-93 -142t-125 -112.5z" />
    <glyph glyph-name="R" unicode="R" horiz-adv-x="1270" 
d="M589 750q80 0 140 19.5t100 54.5t60 83.5t20 107.5q0 118 -78 180t-236 62h-190v-507h184zM1267 0h-209q-62 0 -90 48l-336 485q-17 25 -37 36t-60 11h-130v-580h-234v1440h424q142 0 244.5 -29t168.5 -82.5t97.5 -128.5t31.5 -167q0 -75 -22.5 -140t-65 -118t-104.5 -92
t-141 -61q43 -26 74 -73z" />
    <glyph glyph-name="S" unicode="S" horiz-adv-x="1091" 
d="M924 1194q-11 -18 -23 -26.5t-30 -8.5q-19 0 -42.5 16t-58 35.5t-81.5 36t-112 16.5q-60 0 -105.5 -15t-76.5 -42t-46.5 -63.5t-15.5 -79.5q0 -55 29 -91.5t76.5 -62.5t108.5 -45.5l124.5 -41.5t124.5 -50t108.5 -71t76.5 -105t29 -151q0 -96 -33 -180t-95.5 -146.5
t-154 -98.5t-208.5 -36q-69 0 -134.5 13.5t-125 38t-111.5 59.5t-93 78l68 112q9 14 23 22t31 8q23 0 51 -21.5t67.5 -47t95.5 -47t134 -21.5q127 0 196.5 62t69.5 171q0 61 -29 99.5t-76.5 64.5t-108.5 44l-124 38.5t-124 48t-108.5 72t-76.5 110t-29 163.5q0 78 30.5 151
t89 129.5t144.5 90.5t196 34q124 0 227.5 -39t178.5 -111z" />
    <glyph glyph-name="Scedilla" unicode="&#x15e;" horiz-adv-x="1091" 
d="M924 1194q-11 -18 -23 -26.5t-30 -8.5q-19 0 -42.5 16t-58 35.5t-81.5 36t-112 16.5q-60 0 -105.5 -15t-76.5 -42t-46.5 -63.5t-15.5 -79.5q0 -55 29 -91.5t76.5 -62.5t108.5 -45.5l124.5 -41.5t124.5 -50t108.5 -71t76.5 -105t29 -151q0 -86 -26.5 -162.5t-77.5 -137
t-125 -101t-169 -53.5l-16 -58q94 -20 133.5 -56.5t39.5 -90.5q0 -33 -17 -59.5t-47.5 -45t-73 -28.5t-93.5 -10q-41 0 -77.5 7t-69.5 20l20 67q6 21 26 21q7 0 14.5 -3t18 -6.5t24 -6.5t31.5 -3q38 0 56.5 14.5t18.5 35.5q0 34 -39 47.5t-114 24.5l41 124q-65 3 -126 17.5
t-116 39t-103.5 57.5t-87.5 74l68 112q9 14 23 22t31 8q23 0 51 -21.5t67.5 -47t95.5 -47t134 -21.5q127 0 196.5 62t69.5 171q0 61 -29 99.5t-76.5 64.5t-108.5 44l-124 38.5t-124 48t-108.5 72t-76.5 110t-29 163.5q0 78 30.5 151t89 129.5t144.5 90.5t196 34
q124 0 227.5 -39t178.5 -111z" />
    <glyph glyph-name="T" unicode="T" horiz-adv-x="1191" 
d="M1162 1245h-449v-1245h-233v1245h-450v195h1132v-195z" />
    <glyph glyph-name="Tbar" unicode="&#x166;" horiz-adv-x="1218" 
d="M726 1245v-393h319v-135h-319v-717h-233v717h-320v135h320v393h-450v195h1132v-195h-449z" />
    <glyph glyph-name="U" unicode="U" horiz-adv-x="1479" 
d="M739 189q83 0 148.5 28t111 78t69.5 120.5t24 156.5v868h233v-868q0 -127 -40.5 -235t-116.5 -186.5t-184.5 -123t-244.5 -44.5t-244.5 44.5t-184.5 123t-116.5 186.5t-40.5 235v868h234v-867q0 -86 24 -156.5t69 -121t110.5 -78.5t148.5 -28z" />
    <glyph glyph-name="Uogonek" unicode="&#x172;" horiz-adv-x="1479" 
d="M1325 1440v-868q0 -115 -33 -214t-95.5 -175.5t-152.5 -126.5t-203 -66q-18 -11 -36 -25.5t-32 -32t-22.5 -37.5t-8.5 -42q0 -33 21.5 -52.5t59.5 -19.5q21 0 34 3t22 6t15 6t11 3q16 0 21 -14l33 -80q-32 -23 -79.5 -37t-101.5 -14q-94 0 -145.5 40t-51.5 106
q0 51 32 98.5t88 85.5q-128 6 -229.5 53t-172 125t-108.5 182.5t-38 227.5v868h234v-867q0 -86 24 -156.5t69 -121t110.5 -78.5t148.5 -28t148.5 28t111 78t69.5 120.5t24 156.5v868h233z" />
    <glyph glyph-name="V" unicode="V" horiz-adv-x="1373" 
d="M1376 1440l-584 -1440h-211l-584 1440h187q31 0 50 -15.5t29 -38.5l371 -939q30 -79 55 -182q11 51 23.5 97t27.5 85l370 939q8 20 28 37t50 17h188z" />
    <glyph glyph-name="W" unicode="W" horiz-adv-x="2087" 
d="M2064 1440l-448 -1440h-211l-338 1034q-6 17 -11.5 37t-10.5 43q-5 -23 -10.5 -43t-11.5 -37l-341 -1034h-211l-448 1440h196q30 0 50.5 -14.5t27.5 -39.5l270 -923q8 -30 15 -65l14 -73q7 38 15.5 73.5t18.5 64.5l309 923q7 20 28 37t50 17h68q31 0 50 -15.5t29 -38.5
l308 -923q10 -29 18.5 -62.5t15.5 -70.5l13.5 70.5t14.5 62.5l269 923q6 22 27.5 38t50.5 16h183z" />
    <glyph glyph-name="X" unicode="X" horiz-adv-x="1320" 
d="M1308 0h-233q-24 0 -39 13t-24 29l-358 577q-4 -12 -8.5 -23t-10.5 -21l-346 -533q-11 -16 -24.5 -29t-35.5 -13h-218l486 740l-466 700h232q25 0 36.5 -7.5t20.5 -22.5l350 -550l10 24t13 25l326 497q10 17 22 25.5t29 8.5h223l-470 -690z" />
    <glyph glyph-name="Y" unicode="Y" horiz-adv-x="1273" 
d="M753 564v-564h-233v564l-526 876h205q31 0 49 -15t30 -38l295 -516l36.5 -74t29.5 -69q11 35 27 69.5t36 73.5l293 516q10 20 29 36.5t49 16.5h206z" />
    <glyph glyph-name="Z" unicode="Z" horiz-adv-x="1208" 
d="M1149 1353q0 -20 -6.5 -39t-17.5 -36l-773 -1089h782v-189h-1088v92q0 19 6 35.5t16 31.5l776 1092h-755v189h1060v-87z" />
    <glyph glyph-name="a" unicode="a" horiz-adv-x="1005" 
d="M676 446q-115 -4 -194 -18.5t-128 -37t-70.5 -53.5t-21.5 -68q0 -36 11.5 -61.5t32 -42t48 -24t60.5 -7.5q84 0 144.5 31.5t117.5 91.5v189zM106 878q173 161 412 161q88 0 156.5 -28.5t115 -80.5t71 -123.5t24.5 -158.5v-648h-96q-31 0 -47 9.5t-27 38.5l-21 83
q-39 -35 -77 -62.5t-78.5 -46.5t-87 -28.5t-102.5 -9.5q-62 0 -115.5 17t-92.5 51.5t-61.5 85.5t-22.5 120q0 59 31.5 115t104 100.5t191 73.5t292.5 33v68q0 110 -47 164t-138 54q-62 0 -104 -15.5t-73 -33.5t-55 -33.5t-51 -15.5q-22 0 -37.5 11.5t-25.5 28.5z" />
    <glyph glyph-name="aogonek" unicode="&#x105;" horiz-adv-x="1005" 
d="M676 446q-115 -4 -194 -18.5t-128 -37t-70.5 -53.5t-21.5 -68q0 -36 11.5 -61.5t32 -42t48 -24t60.5 -7.5q84 0 144.5 31.5t117.5 91.5v189zM991 -292q-32 -23 -79.5 -37t-101.5 -14q-94 0 -145.5 40t-51.5 106q0 57 39.5 108.5t105.5 91.5q-29 7 -43 45l-21 83
q-39 -35 -77 -62.5t-78.5 -46.5t-87 -28.5t-102.5 -9.5q-62 0 -115.5 17t-92.5 51.5t-61.5 85.5t-22.5 120q0 59 31.5 115t104 100.5t191 73.5t292.5 33v68q0 110 -47 164t-138 54q-62 0 -104 -15.5t-73 -33.5t-55 -33.5t-51 -15.5q-22 0 -37.5 11.5t-25.5 28.5l-39 70
q173 161 412 161q88 0 156.5 -28.5t115 -80.5t71 -123.5t24.5 -158.5v-648q-20 -11 -39.5 -26t-35.5 -33t-26 -39.5t-10 -45.5q0 -33 21.5 -52.5t59.5 -19.5q21 0 34 3t22 6t15 6t11 3q16 0 21 -14z" />
    <glyph glyph-name="ae" unicode="&#xe6;" horiz-adv-x="1615" 
d="M678 473q-115 -5 -194 -21t-127.5 -41.5t-70 -58.5t-21.5 -70q0 -77 44 -112.5t118 -35.5q53 0 99 16.5t79.5 50.5t53 86t19.5 123v63zM1352 605q0 57 -14 107t-41.5 87.5t-68 59t-93.5 21.5q-113 0 -175.5 -72.5t-76.5 -202.5h469zM881 473q6 -81 27.5 -141t57.5 -99.5
t85 -59t108 -19.5q69 0 113 13.5t73.5 30t48.5 30.5t37 14q32 0 44 -20l58 -74q-37 -45 -84 -76t-98.5 -50.5t-105.5 -28t-106 -8.5q-112 0 -207 52.5t-153 161.5q-29 -57 -72.5 -98t-97 -67t-113 -38t-119.5 -12q-72 0 -130.5 18t-100.5 54t-64.5 90t-22.5 125
q0 59 31.5 117t104 105t191 78t292.5 35v42q0 110 -47 167.5t-138 57.5q-62 0 -104 -16.5t-73 -36t-55 -36t-51 -16.5q-22 0 -37.5 11.5t-25.5 28.5l-39 70q86 80 180 120.5t209 40.5q118 0 191.5 -47t110.5 -130q55 81 141 127.5t203 46.5q85 0 158 -33t127 -95
t84.5 -150.5t30.5 -200.5q0 -50 -10 -67t-39 -17h-613z" />
    <glyph glyph-name="b" unicode="b" horiz-adv-x="1128" 
d="M346 256q45 -58 98.5 -81.5t116.5 -23.5q127 0 198 92t71 285q0 176 -61.5 257t-175.5 81q-79 0 -137.5 -35.5t-109.5 -101.5v-473zM346 885q63 69 141 110t178 41q89 0 160.5 -34.5t121.5 -99.5t77 -157.5t27 -208.5q0 -124 -30.5 -225.5t-87.5 -174t-138 -112
t-181 -39.5q-49 0 -89 9.5t-74 27.5t-62.5 43t-54.5 57l-9 -79q-5 -23 -18 -33t-36 -10h-140v1480h215v-595z" />
    <glyph glyph-name="c" unicode="c" horiz-adv-x="960" 
d="M852 820q-10 -13 -19 -20t-26 -7t-35.5 12t-44 26.5t-61.5 26.5t-90 12q-70 0 -122.5 -25t-88 -71.5t-53 -113t-17.5 -149.5q0 -86 19 -153t54.5 -113t86 -70t113.5 -24q62 0 101 15t65 33t44.5 33t39.5 15q26 0 40 -20l61 -79q-37 -45 -82 -76t-95 -50.5t-104 -28
t-109 -8.5q-95 0 -177.5 35.5t-144 103t-97 165t-35.5 222.5q0 113 32 209.5t93.5 166.5t152.5 109.5t210 39.5q111 0 195.5 -36t150.5 -102z" />
    <glyph glyph-name="ccedilla" unicode="&#xe7;" horiz-adv-x="961" 
d="M919 148q-63 -76 -147 -113.5t-177 -46.5l-15 -55q93 -20 132.5 -57t39.5 -90q0 -33 -17 -59.5t-47.5 -45t-73 -28.5t-93.5 -10q-41 0 -77.5 7t-68.5 20l20 67q6 21 26 21q6 0 13.5 -3t18 -6.5t24 -6.5t32.5 -3q37 0 55.5 14.5t18.5 35.5q0 34 -38.5 47.5t-114.5 24.5
l43 127q-85 10 -157.5 49.5t-126 106.5t-84 159t-30.5 208q0 113 32 209.5t93.5 166.5t152.5 109.5t210 39.5q111 0 195.5 -36t150.5 -102l-57 -78q-10 -13 -19 -20t-26 -7t-35.5 12t-44 26.5t-61.5 26.5t-90 12q-70 0 -122.5 -25t-88 -71.5t-53 -113t-17.5 -149.5
q0 -86 19 -153t54.5 -113t86 -70t113.5 -24q62 0 101 15t65 33t44.5 33t39.5 15q26 0 40 -20z" />
    <glyph glyph-name="c_h.dlig" horiz-adv-x="2094" 
d="M1317 899q63 62 138 99.5t175 37.5q84 0 147.5 -28t107 -79t65.5 -122.5t22 -157.5v-649h-214v649q0 103 -47.5 160t-144.5 57q-72 0 -133.5 -33t-115.5 -90v-743h-215v1376q-9 19 -27 33.5t-42 24.5t-53 15t-59 5q-57 0 -100.5 -17.5t-72 -47.5t-43 -70.5t-14.5 -86.5
q0 -68 28.5 -132.5t79.5 -118.5q60 -33 110 -83l-57 -78q-10 -13 -19 -20t-26 -7t-35.5 12t-44 26.5t-61.5 26.5t-90 12q-70 0 -122.5 -25t-88 -71.5t-53 -113t-17.5 -149.5q0 -86 19 -153t54.5 -113t86 -70t113.5 -24q62 0 101 15t65 33t44.5 33t39.5 15q26 0 40 -20
l61 -79q-37 -45 -82 -76t-95 -50.5t-104 -28t-109 -8.5q-95 0 -177.5 35.5t-144 103t-97 165t-35.5 222.5q0 113 32 209.5t93.5 166.5t152.5 109.5t210 39.5q20 0 38.5 -1.5t36.5 -3.5q-24 47 -37 97t-13 101q0 71 25.5 132.5t75 106.5t121 71t163.5 26q68 0 119.5 -13.5
t92 -29t72 -29t60.5 -13.5v-581z" />
    <glyph glyph-name="c_k.dlig" horiz-adv-x="2015" 
d="M852 820q-10 -13 -19 -20t-26 -7t-35.5 12t-44 26.5t-61.5 26.5t-90 12q-70 0 -122.5 -25t-88 -71.5t-53 -113t-17.5 -149.5q0 -86 19 -153t54.5 -113t86 -70t113.5 -24q62 0 101 15t65 33t44.5 33t39.5 15q26 0 40 -20l61 -79q-37 -45 -82 -76t-95 -50.5t-104 -28
t-109 -8.5q-95 0 -177.5 35.5t-144 103t-97 165t-35.5 222.5q0 113 32 209.5t93.5 166.5t152.5 109.5t210 39.5q20 0 38.5 -1.5t36.5 -3.5q-24 47 -37 97t-13 101q0 71 25.5 132.5t75 106.5t121 71t163.5 26q68 0 119.5 -13.5t92 -29t72 -29t60.5 -13.5v-858h46q22 0 36 6
t29 25l286 327q15 20 33 30t46 10h195l-344 -388q-30 -39 -66 -62q20 -14 35 -31.5t29 -39.5l367 -499h-192q-26 0 -44.5 8.5t-32.5 31.5l-295 400q-15 23 -30 29.5t-45 6.5h-53v-476h-215v1375q-9 19 -27 34t-42 25t-53 15t-59 5q-57 0 -100.5 -17.5t-72 -47.5t-43 -70.5
t-14.5 -86.5q0 -68 28.5 -132.5t79.5 -118.5q60 -33 110 -83z" />
    <glyph glyph-name="c_t.dlig" horiz-adv-x="1681" 
d="M1666 75q-51 -44 -118.5 -67.5t-139.5 -23.5q-128 0 -196 71.5t-68 201.5v594h-113q-18 0 -30.5 11.5t-12.5 34.5v87l175 26q18 59 33.5 128t15.5 128q0 44 -11.5 82t-37 66.5t-67.5 44.5t-102 16q-71 0 -125 -22t-91 -59t-55.5 -85t-18.5 -100q0 -57 24 -116.5
t72 -112.5q60 -33 109 -82l-57 -78q-10 -13 -19 -20t-26 -7t-35.5 12t-44 26.5t-61.5 26.5t-90 12q-70 0 -122.5 -25t-88 -71.5t-53 -113t-17.5 -149.5q0 -86 19 -153t54.5 -113t86 -70t113.5 -24q62 0 101 15t65 33t44.5 33t39.5 15q26 0 40 -20l61 -79q-37 -45 -82 -76
t-95 -50.5t-104 -28t-109 -8.5q-95 0 -177.5 35.5t-144 103t-97 165t-35.5 222.5q0 113 32 209.5t93.5 166.5t152.5 109.5t210 39.5q21 0 40.5 -1.5t38.5 -3.5q-41 85 -41 177q0 69 24.5 133.5t73.5 114t123 79.5t172 30q96 0 165 -28.5t113 -75t65 -106t21 -122.5v-227h283
v-155h-283v-579q0 -55 27.5 -84t71.5 -29q25 0 43.5 6.5t31.5 14t22.5 14t18.5 6.5q10 0 16 -4.5t13 -15.5z" />
    <glyph glyph-name="ccedilla_t.dlig" horiz-adv-x="1682" 
d="M1358 1006h283v-155h-283v-579q0 -55 27.5 -84t71.5 -29q25 0 43.5 6.5t31.5 14t22.5 14t18.5 6.5q10 0 16 -4.5t13 -15.5l64 -105q-51 -44 -118.5 -67.5t-139.5 -23.5q-128 0 -196 71.5t-68 201.5v594h-113q-18 0 -30.5 11.5t-12.5 34.5v87l175 26q9 29 18 61.5t15.5 66
t11 66.5t4.5 62q0 44 -11.5 82t-37 66.5t-67.5 44.5t-102 16q-71 0 -125 -22t-91 -59t-55.5 -85t-18.5 -100q0 -58 24 -117t72 -112q60 -33 109 -82l-57 -78q-10 -13 -19 -20t-26 -7t-35.5 12t-44 26.5t-61.5 26.5t-90 12q-70 0 -122.5 -25t-88 -71.5t-53 -113t-17.5 -149.5
q0 -86 19 -153t54.5 -113t86 -70t113.5 -24q62 0 101 15t65 33t44.5 33t39.5 15q26 0 40 -20l61 -79q-63 -76 -147.5 -113.5t-177.5 -46.5l-15 -55q94 -20 133.5 -56.5t39.5 -90.5q0 -33 -17 -59.5t-47.5 -45t-73 -28.5t-93.5 -10q-41 0 -77.5 7t-69.5 20l20 67q6 21 26 21
q7 0 14.5 -3t18 -6.5t24 -6.5t31.5 -3q38 0 56.5 14.5t18.5 35.5q0 34 -39 47.5t-114 24.5l42 127q-85 10 -157.5 49.5t-126 106.5t-83.5 159t-30 208q0 113 32 209.5t93.5 166.5t152.5 109.5t210 39.5q41 0 79 -6q-41 87 -41 178q0 69 24.5 133.5t73.5 114t123 79.5t172 30
q96 0 165 -28.5t113 -75t65 -106t21 -122.5v-227z" />
    <glyph glyph-name="d" unicode="d" horiz-adv-x="1128" 
d="M782 769q-45 58 -99 81t-117 23q-126 0 -197 -92.5t-71 -273.5q0 -94 16 -160.5t46 -108.5t73 -61t97 -19q82 0 141.5 35.5t110.5 100.5v475zM997 1480v-1480h-130q-43 0 -55 41l-19 111q-64 -75 -145.5 -121t-189.5 -46q-86 0 -156 34.5t-120 100.5t-77.5 163.5
t-27.5 223.5q0 114 30.5 211t87.5 168.5t138.5 112t182.5 40.5q90 0 153 -28.5t113 -79.5v549h215z" />
    <glyph glyph-name="dcaron" unicode="&#x10f;" horiz-adv-x="1128" 
d="M782 769q-45 58 -99 81t-117 23q-126 0 -197 -92.5t-71 -273.5q0 -94 16 -160.5t46 -108.5t73 -61t97 -19q82 0 141.5 35.5t110.5 100.5v475zM997 1480v-1480h-130q-43 0 -55 41l-19 111q-64 -75 -145.5 -121t-189.5 -46q-86 0 -156 34.5t-120 100.5t-77.5 163.5
t-27.5 223.5q0 114 30.5 211t87.5 168.5t138.5 112t182.5 40.5q90 0 153 -28.5t113 -79.5v549h215zM1289 1482q25 0 31 -11.5t6 -23.5q0 -9 -3.5 -25.5t-13.5 -45.5l-27 -75.5t-45 -115.5q-12 -25 -29.5 -32.5t-46.5 -7.5h-75l59 337h144z" />
    <glyph glyph-name="dcroat" unicode="&#x111;" horiz-adv-x="1129" 
d="M784 741q-46 58 -99 81.5t-118 23.5q-63 0 -112.5 -21t-84 -64.5t-52.5 -110t-18 -157.5q0 -94 15.5 -158t45.5 -103.5t73 -56.5t98 -17q82 0 141.5 35.5t110.5 101.5v446zM1144 1136h-146v-1136h-130q-43 0 -55 41l-19 111q-63 -75 -145 -121t-189 -46q-86 0 -156.5 32
t-120.5 96t-77.5 159t-27.5 221q0 114 30.5 209t87.5 164t138.5 107.5t183.5 38.5q90 0 153 -29t113 -80v233h-232v136h232v208h214v-208h146v-136z" />
    <glyph glyph-name="eth" unicode="&#xf0;" horiz-adv-x="1137" 
d="M555 152q64 0 116.5 23.5t91 74t61 128t25.5 185.5q-16 40 -41 76.5t-59.5 64t-79.5 43.5t-102 16q-69 0 -121.5 -23t-88 -62.5t-53.5 -93.5t-18 -115q0 -77 21 -136t58 -99.5t85.5 -61t104.5 -20.5zM793 1221q58 -50 106 -112t81.5 -138.5t52 -167.5t18.5 -197
q0 -145 -32.5 -260t-96 -195t-157 -122.5t-216.5 -42.5q-101 0 -187.5 33t-151 95.5t-101 152t-36.5 203.5q0 93 31.5 176t90.5 146t142.5 100t187.5 37q98 0 181 -38t146 -113q-22 119 -75 203.5t-144 144.5l-190 -131l-40 68q-14 21 -9 40.5t27 32.5l88 56
q-38 16 -80.5 29.5t-90.5 25.5q-14 4 -25.5 12.5t-18.5 21t-7.5 30t7.5 38.5l25 75q99 -16 191 -46.5t174 -78.5l171 116l42 -69q12 -20 7.5 -39t-24.5 -31z" />
    <glyph glyph-name="e" unicode="e" horiz-adv-x="1062" 
d="M800 625q0 54 -15.5 100.5t-45.5 81t-74.5 54t-102.5 19.5q-117 0 -184 -67t-85 -188h507zM287 493q4 -87 27 -150.5t61.5 -105.5t92 -62.5t119.5 -20.5q63 0 109 14.5t80 32t58 32t44 14.5q26 0 40 -20l61 -79q-38 -45 -86 -76t-102 -50.5t-111 -28t-111 -8.5
q-106 0 -196.5 35.5t-157 104.5t-104 171t-37.5 235q0 106 33.5 198t96 160t152 107.5t202.5 39.5q94 0 174 -30.5t138 -89.5t90.5 -144.5t32.5 -194.5q0 -50 -11 -67t-40 -17h-655z" />
    <glyph glyph-name="eogonek" unicode="&#x119;" horiz-adv-x="1062" 
d="M800 625q0 54 -15.5 100.5t-45.5 81t-74.5 54t-102.5 19.5q-117 0 -184 -67t-85 -188h507zM287 493q4 -87 27 -150.5t61.5 -105.5t92 -62.5t119.5 -20.5q63 0 109 14.5t80 32t58 32t44 14.5q26 0 40 -20l61 -79q-56 -66 -133.5 -103t-161.5 -51q-18 -11 -36.5 -25.5
t-32.5 -32t-23 -38t-9 -42.5q0 -33 21.5 -52.5t59.5 -19.5q21 0 34 3t22 6t15 6t11 3q16 0 21 -14l33 -80q-32 -23 -79.5 -37t-101.5 -14q-94 0 -145.5 40t-51.5 106q0 51 31.5 98t86.5 85q-101 4 -186 42t-147.5 107t-97.5 168.5t-35 227.5q0 106 33.5 198t96 160
t152 107.5t202.5 39.5q94 0 174 -30.5t138 -89.5t90.5 -144.5t32.5 -194.5q0 -50 -11 -67t-40 -17h-655z" />
    <glyph glyph-name="f" unicode="f" horiz-adv-x="709" 
d="M200 0v849l-100 14q-25 5 -40.5 18t-15.5 37v88h156v86q0 87 25.5 156t73 117t115.5 73.5t153 25.5q35 0 66.5 -5t61.5 -15l-4 -108q-2 -27 -26.5 -32t-61.5 -5q-45 0 -81 -10.5t-61.5 -35.5t-39 -66t-13.5 -102v-79h279v-155h-272v-851h-215z" />
    <glyph glyph-name="g" unicode="g" horiz-adv-x="1049" 
d="M495 519q100 0 150 51t50 133q0 84 -50 133t-150 49q-99 0 -149.5 -49t-50.5 -133q0 -40 13 -74t38 -58.5t62.5 -38t86.5 -13.5zM794 -50q0 34 -19.5 54.5t-52.5 32t-77 17t-93.5 8l-101 5t-99.5 9.5q-48 -25 -78.5 -60t-30.5 -81q0 -30 15.5 -56t48 -45t83 -30
t121.5 -11q142 0 213 44t71 113zM1010 983v-80q0 -40 -48 -49l-102 -17q26 -58 26 -129q0 -75 -29.5 -136t-81.5 -104t-124 -66t-156 -23q-32 0 -62.5 3.5t-59.5 9.5q-29 -17 -43 -36t-14 -39q0 -33 29 -49t76.5 -23t108.5 -9t124 -7t124 -16.5t108.5 -38t76.5 -71.5
t29 -117q0 -66 -33 -129t-95.5 -112t-152.5 -78.5t-205 -29.5q-114 0 -198.5 22t-141 59.5t-84 86.5t-27.5 102q0 72 45.5 123t123.5 80q-42 20 -67.5 55t-25.5 92q0 45 33 94t99 83q-76 42 -120 111.5t-44 162.5q0 76 29.5 137t82.5 104t125.5 66t158.5 23q132 0 230 -55
h285z" />
    <glyph glyph-name="g.salt" horiz-adv-x="1128" 
d="M783 768q-44 57 -98 81t-119 24q-126 0 -196.5 -88.5t-70.5 -261.5q0 -177 62 -257.5t175 -80.5q78 0 137 35.5t110 101.5v446zM997 1020v-953q0 -93 -33.5 -171t-96.5 -134.5t-154 -88.5t-206 -32q-130 0 -222 37t-152 91l50 82q18 32 56 32q21 0 41.5 -13.5t49.5 -29.5
t69.5 -29.5t101.5 -13.5q70 0 123 20t88 55t53 82.5t18 102.5v96q-32 -36 -65 -62.5t-69 -44t-78 -26t-92 -8.5q-93 0 -167.5 34.5t-126.5 100t-80 160.5t-28 216q0 109 30.5 203t87.5 163.5t138.5 109t183.5 39.5q97 0 163.5 -33t118.5 -93l13 67q12 41 55 41h130z" />
    <glyph glyph-name="h" unicode="h" horiz-adv-x="1122" 
d="M346 899q63 62 138 99.5t175 37.5q84 0 147.5 -28t107 -79t65.5 -122.5t22 -157.5v-649h-214v649q0 103 -47.5 160t-144.5 57q-72 0 -133.5 -33t-115.5 -90v-743h-215v1480h215v-581z" />
    <glyph glyph-name="hcircumflex" unicode="&#x125;" horiz-adv-x="1122" 
d="M346 899q63 62 138 99.5t175 37.5q84 0 147.5 -28t107 -79t65.5 -122.5t22 -157.5v-649h-214v649q0 103 -47.5 160t-144.5 57q-72 0 -133.5 -33t-115.5 -90v-743h-215v1480h215v-581zM574 1547h-156q-14 0 -33 5t-39 30l-99 121q-8 11 -13 20q-5 -9 -13 -20l-99 -121
q-20 -25 -39 -30t-33 -5h-149l240 274h193z" />
    <glyph glyph-name="hbar" unicode="&#x127;" horiz-adv-x="1122" 
d="M345 871q62 62 138 100t175 38q84 0 148 -28t107.5 -79t65.5 -122t22 -157v-623h-215v623q0 103 -47.5 159.5t-144.5 56.5q-71 0 -133 -33t-116 -90v-716h-214v1146h-148v136h148v198h214v-198h287v-136h-287v-275z" />
    <glyph glyph-name="i" unicode="i" horiz-adv-x="495" 
d="M355 1020v-1020h-215v1020h215zM391 1328q0 -29 -11.5 -55t-31.5 -45.5t-46.5 -31t-56.5 -11.5q-29 0 -54.5 11.5t-44.5 31t-30.5 45.5t-11.5 55q0 30 11.5 56t30.5 45.5t44.5 31t54.5 11.5q30 0 56.5 -11.5t46.5 -31t31.5 -45.5t11.5 -56z" />
    <glyph glyph-name="iogonek" unicode="&#x12f;" horiz-adv-x="495" 
d="M245 1185q-29 0 -54.5 11.5t-44.5 31t-30.5 45.5t-11.5 55q0 30 11.5 56t30.5 45.5t44.5 31t54.5 11.5q30 0 56.5 -11.5t46.5 -31t31.5 -45.5t11.5 -56q0 -29 -11.5 -55t-31.5 -45.5t-46.5 -31t-56.5 -11.5zM442 -292q-32 -23 -79.5 -37t-101.5 -14q-94 0 -145.5 40
t-51.5 106q0 56 37.5 106.5t102.5 90.5h-64v1020h215v-1020h-19q-20 -11 -39.5 -26t-35.5 -33t-26 -39.5t-10 -45.5q0 -33 21.5 -52.5t59.5 -19.5q21 0 34 3t22 6t15 6t11 3q16 0 21 -14z" />
    <glyph glyph-name="dotlessi" unicode="&#x131;" horiz-adv-x="496" 
d="M355 1020v-1020h-214v1020h214z" />
    <glyph glyph-name="i_j.dlig" horiz-adv-x="1058" 
d="M823 1185q-29 0 -54.5 11.5t-45 31t-31 45.5t-11.5 55q0 30 11.5 56t31 45.5t45 31t54.5 11.5t55.5 -11.5t46.5 -31t31.5 -45.5t11.5 -56q0 -29 -11.5 -55t-31.5 -45.5t-46.5 -31t-55.5 -11.5zM233 1185q-29 0 -54.5 11.5t-45 31t-30.5 45.5t-11 55q0 30 11 56t30.5 45.5
t45 31t54.5 11.5q30 0 56 -11.5t46 -31t31.5 -45.5t11.5 -56q0 -29 -11.5 -55t-31.5 -45.5t-46 -31t-56 -11.5zM713 1020h215v-1005q0 -83 -22.5 -151.5t-69.5 -118.5t-120.5 -77.5t-175.5 -27.5q-35 0 -70 4.5t-64 14.5l15 117q2 10 6 15t12.5 7.5t22 3t34.5 0.5
q109 0 163 49t54 164v81q-25 -27 -51.5 -48t-56.5 -34.5t-65.5 -20.5t-77.5 -7q-86 0 -149.5 28t-106.5 78.5t-64 121.5t-21 157v649h215v-649q0 -103 47.5 -159.5t144.5 -56.5q33 0 59 5t47 17t40 31t39 48v764z" />
    <glyph glyph-name="j" unicode="j" horiz-adv-x="495" 
d="M355 1020v-1073q0 -64 -17 -120.5t-54 -98.5t-95.5 -66t-141.5 -24q-35 0 -63 5t-57 14l8 117q3 20 16.5 23t51.5 3q76 0 106.5 33.5t30.5 113.5v1073h215zM390 1328q0 -29 -11.5 -55t-31.5 -45.5t-46 -31t-56 -11.5q-29 0 -54.5 11.5t-45 31t-30.5 45.5t-11 55
q0 30 11 56t30.5 45.5t45 31t54.5 11.5q30 0 56 -11.5t46 -31t31.5 -45.5t11.5 -56z" />
    <glyph glyph-name="uni0237" unicode="&#x237;" horiz-adv-x="496" 
d="M355 1020v-1073q0 -64 -17 -120.5t-53.5 -98.5t-95 -66t-142.5 -24q-34 0 -62.5 5t-57.5 14l8 117q2 10 6 15t11.5 7.5t19.5 3t31 0.5q38 0 64.5 8t43 25.5t23.5 45.5t7 68v1073h214z" />
    <glyph glyph-name="k" unicode="k" horiz-adv-x="1044" 
d="M346 1480v-858h46q22 0 36 6t29 25l286 327q15 20 33 30t46 10h195l-344 -388q-30 -39 -66 -62q20 -14 35 -31.5t29 -39.5l367 -499h-192q-26 0 -44.5 8.5t-32.5 31.5l-295 400q-15 23 -30 29.5t-45 6.5h-53v-476h-215v1480h215z" />
    <glyph glyph-name="kgreenlandic" unicode="&#x138;" horiz-adv-x="1044" 
d="M346 1020v-398h46q22 0 36 6t29 25l286 327q15 20 33 30t46 10h195l-344 -388q-30 -39 -66 -62q20 -14 35 -31.5t29 -39.5l367 -499h-192q-26 0 -44.5 8.5t-32.5 31.5l-295 400q-15 23 -30 29.5t-45 6.5h-53v-476h-215v1020h215z" />
    <glyph glyph-name="lslash" unicode="&#x142;" horiz-adv-x="639" 
d="M612 1022v-124q0 -37 -31 -50l-152 -66v-782h-215v706l-173 -73v128q0 31 28 44l145 64v611h215v-534z" />
    <glyph glyph-name="lcaron" unicode="&#x13e;" horiz-adv-x="485" 
d="M350 1480v-1480h-215v1480h215zM657 1482q25 0 31 -11.5t6 -23.5q0 -9 -3.5 -25.5t-13.5 -45.5l-27 -75.5t-45 -115.5q-12 -25 -29.5 -32.5t-46.5 -7.5h-75l59 337h144z" />
    <glyph glyph-name="m" unicode="m" horiz-adv-x="1661" 
d="M131 0v1020h130q44 0 56 -41l14 -89q28 32 58 58.5t64.5 46t74 30.5t85.5 11q49 0 90 -14t72.5 -40t54.5 -63t38 -83q23 53 58 91t78 62t91.5 35.5t98.5 11.5q82 0 146.5 -26t109 -75.5t67.5 -121.5t23 -164v-649h-215v649q0 108 -46.5 162.5t-137.5 54.5q-41 0 -77 -14
t-63 -41t-42.5 -67.5t-15.5 -94.5v-649h-215v649q0 112 -45 164.5t-132 52.5q-60 0 -111 -30.5t-94 -83.5v-752h-215z" />
    <glyph glyph-name="n" unicode="n" horiz-adv-x="1122" 
d="M332 885q33 34 68.5 61.5t75.5 47.5t85 31t98 11q84 0 147.5 -28t107 -79t65.5 -122.5t22 -157.5v-649h-214v649q0 103 -47.5 160t-144.5 57q-72 0 -133.5 -33t-115.5 -90v-743h-215v1020h130q44 0 56 -41z" />
    <glyph glyph-name="eng" unicode="&#x14b;" horiz-adv-x="1122" 
d="M332 885q33 34 68.5 61.5t75.5 47.5t85 31t98 11q84 0 147.5 -28t107 -79t65.5 -122.5t22 -157.5v-629q0 -85 -20.5 -155.5t-64 -121t-110.5 -78.5t-160 -28q-51 0 -91.5 9t-86.5 29l23 95q7 26 20 34t28 8q14 0 33.5 -6.5t54.5 -6.5q79 0 119.5 48t40.5 148v654
q0 103 -47.5 160t-144.5 57q-72 0 -133.5 -33t-115.5 -90v-743h-215v1020h130q44 0 56 -41z" />
    <glyph glyph-name="o" unicode="o" horiz-adv-x="1142" 
d="M572 1036q113 0 204.5 -37t156 -105t99.5 -165t35 -218t-35 -218t-99.5 -165.5t-156 -105.5t-204.5 -37q-114 0 -205.5 37t-156.5 105.5t-100 165.5t-35 218t35 218t100 165t156.5 105t205.5 37zM572 153q138 0 205.5 92.5t67.5 264.5t-67.5 265.5t-205.5 93.5
q-140 0 -208 -93.5t-68 -265.5t68 -264.5t208 -92.5z" />
    <glyph glyph-name="oslash" unicode="&#xf8;" horiz-adv-x="1141" 
d="M416 185q64 -39 156 -39q69 0 122.5 24.5t90 71.5t55.5 114.5t19 153.5q0 132 -41 219zM732 832q-64 43 -160 43q-70 0 -124 -25t-90.5 -72t-55.5 -114.5t-19 -153.5q0 -140 44 -226zM937 890q63 -69 96.5 -164.5t33.5 -214.5q0 -121 -35 -218t-99.5 -165.5t-156 -105.5
t-204.5 -37q-74 0 -138.5 16t-119.5 46l-43 -59q-24 -37 -60 -51t-70 -14h-80l150 203q-66 69 -101 166t-35 219q0 121 35 218t100 165t156.5 105t205.5 37q76 0 141.5 -16.5t121.5 -48.5l60 82q11 17 20.5 28.5t20.5 18t25 9.5t33 3h107z" />
    <glyph glyph-name="oe" unicode="&#x153;" horiz-adv-x="1749" 
d="M1486 605q0 57 -14 107t-41 87.5t-67.5 59t-93.5 21.5q-113 0 -175.5 -72.5t-76.5 -202.5h468zM551 153q129 0 191 92t62 265q0 172 -62.5 265.5t-190.5 93.5q-130 0 -192.5 -93.5t-62.5 -265.5t62.5 -264.5t192.5 -92.5zM1016 473q12 -163 86 -241t193 -78
q58 0 100 14.5t73.5 32t54.5 32t44 14.5q25 0 39 -20l62 -79q-37 -45 -83.5 -76t-98 -50.5t-105.5 -28t-106 -8.5q-113 0 -208 53t-154 164q-57 -104 -153.5 -160.5t-228.5 -56.5q-101 0 -185 37t-144 105.5t-93.5 165.5t-33.5 218t33.5 218t94.5 165t146.5 105t189.5 37
q127 0 221.5 -55t150.5 -157q54 97 145.5 154.5t222.5 57.5q85 0 157.5 -33t125.5 -95t83.5 -150.5t30.5 -200.5q0 -50 -9.5 -67t-38.5 -17h-612z" />
    <glyph glyph-name="p" unicode="p" horiz-adv-x="1129" 
d="M346 256q45 -58 98.5 -81.5t118.5 -23.5q126 0 196.5 92t70.5 274q0 94 -16 160.5t-46 108.5t-73 61t-97 19q-82 0 -141.5 -35.5t-110.5 -101.5v-473zM335 872q64 75 145.5 121t189.5 46q86 0 156 -34.5t120 -100.5t77.5 -163.5t27.5 -223.5q0 -113 -30.5 -210.5
t-87.5 -169t-138 -112t-183 -40.5q-90 0 -152.5 29t-113.5 80v-433h-215v1359h130q44 0 56 -41z" />
    <glyph glyph-name="thorn" unicode="&#xfe;" horiz-adv-x="1129" 
d="M346 256q45 -58 98.5 -81.5t118.5 -23.5q126 0 196.5 92t70.5 274q0 94 -16 160.5t-46 108.5t-73 61t-97 19q-82 0 -141.5 -35.5t-110.5 -101.5v-473zM346 885q63 69 142 110t182 41q86 0 156 -34t120 -99.5t77.5 -162.5t27.5 -223q0 -113 -30.5 -210.5t-87.5 -169
t-138 -112t-183 -40.5q-91 0 -153.5 33t-112.5 90v-447h-215v1819h215v-595z" />
    <glyph glyph-name="q" unicode="q" horiz-adv-x="1128" 
d="M782 769q-45 57 -99 80.5t-117 23.5q-126 0 -197 -92.5t-71 -273.5q0 -94 16 -160.5t46 -108.5t73 -61t97 -19q82 0 141.5 35.5t110.5 100.5v475zM997 1020v-1359h-215v478q-63 -69 -141.5 -111.5t-182.5 -42.5q-86 0 -156 34.5t-120 100.5t-77.5 163.5t-27.5 223.5
q0 114 30.5 211t87.5 168.5t138.5 112t182.5 40.5q49 0 89.5 -8.5t75 -25t63.5 -40t55 -53.5l13 67q12 41 55 41h130z" />
    <glyph glyph-name="r" unicode="r" horiz-adv-x="738" 
d="M334 831q48 97 116 152.5t163 55.5q33 0 62 -7.5t52 -22.5l-15 -162q-4 -17 -12.5 -23.5t-22.5 -6.5q-15 0 -43 5.5t-59 5.5q-45 0 -79.5 -13t-62 -38t-48.5 -61t-39 -82v-634h-215v1020h125q34 0 47 -12.5t18 -43.5z" />
    <glyph glyph-name="s" unicode="s" horiz-adv-x="873" 
d="M740 835q-8 -14 -18 -20t-25 -6q-17 0 -37 10.5l-47 23.5t-63.5 23.5t-85.5 10.5q-40 0 -72.5 -9.5t-55 -27t-34.5 -41t-12 -50.5q0 -36 22 -60t58 -41.5t82 -31.5l94 -30t94 -37t82 -51.5t58 -74t22 -105.5q0 -72 -26 -133t-76 -106t-124.5 -70t-170.5 -25
q-53 0 -102.5 9.5t-94 26t-83 39.5t-68.5 50l50 82q9 15 22.5 23.5t33.5 8.5q21 0 41.5 -13.5t48 -29.5t66.5 -29.5t97 -13.5q48 0 83 11.5t58 31.5t34 45.5t11 54.5q0 39 -22 64t-58.5 43t-83 32t-94.5 30t-94.5 37t-83 53.5t-58.5 79t-22 113.5q0 61 24.5 116t72 97
t117 66.5t160.5 24.5q103 0 187 -33t141 -90z" />
    <glyph glyph-name="scedilla" unicode="&#x15f;" horiz-adv-x="873" 
d="M740 835q-8 -14 -18 -20t-25 -6q-17 0 -37 10.5l-47 23.5t-63.5 23.5t-85.5 10.5q-40 0 -72.5 -9.5t-55 -27t-34.5 -41t-12 -50.5q0 -36 22 -60t58 -41.5t82 -31.5l94 -30t94 -37t82 -51.5t58 -74t22 -105.5q0 -65 -21.5 -121.5t-63 -100t-102.5 -71.5t-141 -37l-16 -55
q94 -20 133.5 -56.5t39.5 -90.5q0 -33 -17 -59.5t-47.5 -45t-73 -28.5t-93.5 -10q-41 0 -77.5 7t-69.5 20l20 67q6 21 26 21q7 0 14.5 -3t18 -6.5t24 -6.5t31.5 -3q38 0 56.5 14.5t18.5 35.5q0 34 -39 47.5t-114 24.5l41 126q-89 8 -165 41t-128 81l50 82q9 15 22.5 23.5
t33.5 8.5q21 0 41.5 -13.5t48 -29.5t66.5 -29.5t97 -13.5q48 0 83 11.5t58 31.5t34 45.5t11 54.5q0 39 -22 64t-58.5 43t-83 32t-94.5 30t-94.5 37t-83 53.5t-58.5 79t-22 113.5q0 61 24.5 116t72 97t117 66.5t160.5 24.5q103 0 187 -33t141 -90z" />
    <glyph glyph-name="s_t.dlig" horiz-adv-x="1613" 
d="M740 835q-8 -14 -18 -20t-25 -6q-17 0 -37 10.5l-47 23.5t-63.5 23.5t-85.5 10.5q-40 0 -72.5 -9.5t-55 -27t-34.5 -41t-12 -50.5q0 -36 22 -60t58 -41.5t82 -31.5l94 -30t94 -37t82 -51.5t58 -74t22 -105.5q0 -72 -26 -133t-76 -106t-124.5 -70t-170.5 -25
q-53 0 -102.5 9.5t-94 26t-83 39.5t-68.5 50l50 82q9 15 22.5 23.5t33.5 8.5q21 0 41.5 -13.5t48 -29.5t66.5 -29.5t97 -13.5q48 0 83 11.5t58 31.5t34 45.5t11 54.5q0 39 -22 64t-58.5 43t-83 32t-94.5 30t-94.5 37t-83 53.5t-58.5 79t-22 113.5q0 61 24.5 116t72 97
t117 66.5t160.5 24.5q54 0 107 -11q-38 84 -38 175q0 73 23 139.5t70.5 116.5t120.5 79.5t173 29.5q97 0 168 -29t117 -76t68 -107t22 -123v-224h283v-155h-283v-579q0 -55 27 -84t72 -29q25 0 43 6.5t31 14t22.5 14t18.5 6.5q18 0 29 -20l64 -105q-50 -44 -118 -67.5
t-140 -23.5q-127 0 -195.5 71.5t-68.5 201.5v594h-112q-18 0 -31 11.5t-13 34.5v87l175 26q9 28 18 60.5t15.5 65.5t11 65.5t4.5 61.5q0 44 -12.5 82.5t-40 67.5t-71 45.5t-104.5 16.5q-72 0 -125 -22t-88.5 -59.5t-53 -87t-17.5 -105.5q0 -69 31 -135t90 -123l35 -30z" />
    <glyph glyph-name="glyph121" horiz-adv-x="1614" 
d="M740 835q-8 -14 -18 -20t-25 -6q-17 0 -37 10.5l-47 23.5t-63.5 23.5t-85.5 10.5q-40 0 -72.5 -9.5t-55 -27t-34.5 -41t-12 -50.5q0 -36 22 -60t58 -41.5t82 -31.5l94 -30t94 -37t82 -51.5t58 -74t22 -105.5q0 -65 -21.5 -122t-63 -100.5t-103 -71.5t-141.5 -36l-15 -55
q94 -20 133.5 -56.5t39.5 -90.5q0 -33 -17 -59.5t-47.5 -45t-73 -28.5t-93.5 -10q-41 0 -77.5 7t-69.5 20l20 67q6 21 26 21q7 0 14.5 -3t18 -6.5t24 -6.5t31.5 -3q38 0 56.5 14.5t18.5 35.5q0 34 -39 47.5t-114 24.5l41 126q-89 9 -165 41.5t-128 80.5l50 82
q9 15 22.5 23.5t33.5 8.5q21 0 41.5 -13.5t48 -29.5t66.5 -29.5t97 -13.5q48 0 83 11.5t58 31.5t34 45.5t11 54.5q0 39 -22 64t-58.5 43t-83 32t-94.5 30t-94.5 37t-83 53.5t-58.5 79t-22 113.5q0 61 24.5 116t72 97t117 66.5t160.5 24.5q54 0 107 -11q-38 84 -38 175
q0 73 23 139.5t70.5 116.5t120.5 79.5t173 29.5q97 0 168 -29t117 -76t68 -107t22 -123v-224h283v-155h-283v-579q0 -55 27 -84t72 -29q25 0 43 6.5t31 14t22.5 14t18.5 6.5q18 0 29 -20l64 -105q-50 -44 -118 -67.5t-140 -23.5q-127 0 -195.5 71.5t-68.5 201.5v594h-112
q-18 0 -31 11.5t-13 34.5v87l175 26q9 28 18 60.5t15.5 65.5t11 65.5t4.5 61.5q0 44 -12.5 82.5t-40 67.5t-71 45.5t-104.5 16.5q-72 0 -125 -22t-88.5 -59.5t-53 -87t-17.5 -105.5q0 -69 31 -135t90 -123l35 -30z" />
    <glyph glyph-name="germandbls" unicode="&#xdf;" horiz-adv-x="1184" 
d="M637 1464q111 0 190 -32.5t129.5 -81t74.5 -106t24 -108.5q0 -59 -20.5 -101t-51 -73.5t-66.5 -56l-66.5 -46.5t-51 -46t-20.5 -54q0 -36 25.5 -61t64.5 -47.5l83.5 -47.5t83.5 -61.5t64.5 -88.5t25.5 -129q0 -82 -30 -145t-82 -106.5t-122 -66t-149 -22.5
q-94 0 -176.5 35.5t-142.5 89.5l50 82q9 15 22.5 23.5t33.5 8.5q21 0 41 -13.5t46.5 -29.5t61 -29.5t83.5 -13.5q37 0 67 11.5t51.5 32t33 48t11.5 60.5q0 51 -27.5 84t-68.5 58t-89 47.5t-89 53t-68.5 74t-27.5 110.5q0 55 21.5 95.5t54 72t70.5 58t70.5 54.5t54 61
t21.5 78q0 33 -12 63.5t-38.5 54.5t-68 38.5t-100.5 14.5q-133 0 -208 -82.5t-75 -242.5v-981h-214v987q0 105 35.5 192.5t101.5 151t159.5 98.5t209.5 35z" />
    <glyph glyph-name="longs" unicode="&#x17f;" horiz-adv-x="587" 
d="M201 1092q0 87 25.5 156t73.5 117t116 73.5t152 25.5q67 0 129 -20l-7 -112q-1 -11 -8 -16.5t-18.5 -7.5t-27 -2h-32.5q-45 0 -80 -12t-59 -38t-36.5 -68t-12.5 -103v-1085h-215v849l-100 14q-25 5 -40.5 18t-15.5 37v88h156v86z" />
    <glyph glyph-name="t" unicode="t" horiz-adv-x="731" 
d="M458 -16q-127 0 -195.5 71.5t-68.5 201.5v594h-112q-18 0 -31 11.5t-13 34.5v87l165 24l47 295q5 17 17 27.5t32 10.5h110v-335h283v-155h-283v-579q0 -55 27 -84t72 -29q25 0 43 6.5t31 14t22.5 14t18.5 6.5q18 0 29 -20l64 -105q-50 -44 -118 -67.5t-140 -23.5z" />
    <glyph glyph-name="tcaron" unicode="&#x165;" horiz-adv-x="730" 
d="M457 -16q-127 0 -195.5 71.5t-68.5 201.5v594h-112q-18 0 -31 11.5t-13 34.5v87l165 24l47 295q5 17 17 27.5t32 10.5h110v-335h283v-155h-283v-579q0 -55 27 -84t72 -29q25 0 43 6.5t31 14t22.5 14t18.5 6.5q18 0 29 -20l64 -105q-50 -44 -118 -67.5t-140 -23.5z
M801 1482q25 0 31 -11.5t6 -23.5q0 -9 -3.5 -25.5t-13.5 -45.5l-27 -75.5t-45 -115.5q-12 -25 -29.5 -32.5t-46.5 -7.5h-75l59 337h144z" />
    <glyph glyph-name="tbar" unicode="&#x167;" horiz-adv-x="739" 
d="M61 693h136v158h-112q-18 0 -31 11.5t-13 34.5v87l165 24l47 295q5 17 17 27.5t32 10.5h110v-335h283v-155h-283v-158h287v-135h-287v-286q0 -55 27 -84t72 -29q25 0 43 6.5t31 14t22.5 14t18.5 6.5q18 0 29 -20l64 -105q-50 -44 -118 -67.5t-140 -23.5
q-127 0 -195.5 71.5t-68.5 201.5v301h-136v135z" />
    <glyph glyph-name="u" unicode="u" horiz-adv-x="1122" 
d="M991 1020v-1020h-130q-43 0 -55 41l-16 95q-32 -34 -67.5 -62t-75.5 -48t-85.5 -31t-97.5 -11q-84 0 -148 28t-107.5 79t-65.5 122.5t-22 157.5v649h215v-649q0 -103 47.5 -160t144.5 -57q71 0 132.5 32.5t115.5 89.5v744h215z" />
    <glyph glyph-name="uogonek" unicode="&#x173;" horiz-adv-x="1122" 
d="M1097 -292q-32 -23 -79.5 -37t-101.5 -14q-94 0 -145.5 40t-51.5 106q0 56 37.5 106.5t102.5 90.5q-41 1 -53 41l-16 95q-32 -34 -67.5 -62t-75.5 -48t-85.5 -31t-97.5 -11q-84 0 -148 28t-107.5 79t-65.5 122.5t-22 157.5v649h215v-649q0 -103 47.5 -160t144.5 -57
q71 0 132.5 32.5t115.5 89.5v744h215v-1020q-20 -11 -39.5 -26t-35.5 -33t-26 -39.5t-10 -45.5q0 -33 21.5 -52.5t59.5 -19.5q21 0 34 3t22 6t15 6t11 3q16 0 21 -14z" />
    <glyph glyph-name="v" unicode="v" horiz-adv-x="1045" 
d="M1029 1020l-410 -1020h-194l-410 1020h177q25 0 41.5 -12.5t21.5 -29.5l226 -594q14 -42 25 -83t19 -83q8 42 19.5 82.5t25.5 83.5l230 594q6 18 22 30t39 12h168z" />
    <glyph glyph-name="w" unicode="w" horiz-adv-x="1589" 
d="M1564 1020l-327 -1020h-171q-30 0 -42 39l-203 635q-8 27 -14.5 54t-11.5 53q-11 -54 -27 -108l-206 -634q-11 -39 -47 -39h-163l-327 1020h170q25 0 41.5 -12.5t21.5 -29.5l170 -594q10 -41 17.5 -79.5t13.5 -76.5l21 76.5l23 79.5l191 597q5 18 20.5 29.5t37.5 11.5h94
q23 0 39 -11.5t21 -29.5l186 -597l22.5 -80t19.5 -78q7 38 15 77t19 81l173 594q6 18 22 30t39 12h162z" />
    <glyph glyph-name="x" unicode="x" horiz-adv-x="1021" 
d="M1007 0h-206q-25 0 -39.5 13t-23.5 29l-235 377q-9 -34 -24 -59l-213 -318q-11 -16 -24.5 -29t-35.5 -13h-192l353 526l-339 494h206q25 0 36.5 -7.5t20.5 -22.5l231 -360q9 33 28 63l195 293q20 34 51 34h197l-339 -485z" />
    <glyph glyph-name="y" unicode="y" horiz-adv-x="1044" 
d="M1036 1020l-562 -1310q-11 -23 -26.5 -36t-47.5 -13h-159l188 408l-416 951h187q27 0 41.5 -12.5t21.5 -29.5l243 -579q9 -25 16.5 -49.5t14.5 -50.5l16 51t18 50l233 578q7 18 23.5 30t36.5 12h172z" />
    <glyph glyph-name="z" unicode="z" horiz-adv-x="912" 
d="M850 930q0 -23 -7.5 -45t-21.5 -37l-517 -681h529v-167h-778v90q0 15 7 36t21 40l521 687h-519v167h765v-90z" />
    <glyph glyph-name="ordfeminine" unicode="&#xaa;" horiz-adv-x="735" 
d="M462 1096q-64 -2 -107 -9.5t-69 -19.5t-37 -28t-11 -34q0 -35 22.5 -50t59.5 -15q45 0 77.5 16t64.5 48v92zM121 1362q54 51 118 74t139 23q55 0 99 -17.5t74.5 -49t46.5 -75t16 -94.5v-382h-72q-22 0 -32.5 6t-20.5 26l-13 42q-24 -20 -46 -35.5t-46 -26t-51.5 -16
t-60.5 -5.5q-40 0 -73.5 10.5t-57.5 31.5t-37.5 52t-13.5 72q0 34 18 68t61 61.5t114.5 45.5t178.5 20v30q0 59 -25.5 84.5t-76.5 25.5q-36 0 -59.5 -8t-41.5 -17l-33 -17t-33 -8q-16 0 -26.5 9t-18.5 20z" />
    <glyph glyph-name="ordmasculine" unicode="&#xba;" horiz-adv-x="803" 
d="M403 1458q71 0 129.5 -22t100 -62.5t64.5 -98.5t23 -130q0 -74 -23 -132.5t-64.5 -99t-100 -62.5t-129.5 -22q-72 0 -131 22t-101 62.5t-65 99t-23 132.5q0 72 23 130t65 98.5t101 62.5t131 22zM403 956q149 0 149 187t-149 187q-78 0 -115 -46.5t-37 -140.5t37 -140.5
t115 -46.5z" />
    <glyph glyph-name="ordfeminine.case" horiz-adv-x="812" 
d="M475 1072l-54 151q-9 22 -15 50q-6 -29 -15 -51l-54 -150h138zM710 841h-119q-17 0 -28.5 8.5t-16.5 22.5l-32 89h-216l-32 -89q-4 -12 -15.5 -21.5t-28.5 -9.5h-121l236 599h138z" />
    <glyph glyph-name="a.superior" horiz-adv-x="562" 
d="M345 1129q-48 -2 -79.5 -8t-50 -15t-26 -20.5t-7.5 -24.5q0 -26 15.5 -37.5t43.5 -11.5q32 0 56 11t48 36v70zM62 1368q47 42 104 62t123 20q47 0 84.5 -15.5t63.5 -43t40 -65.5t14 -83v-327h-69q-21 0 -31.5 6t-18.5 25l-10 29q-20 -17 -38.5 -29.5t-38 -21t-42 -13
t-49.5 -4.5q-71 0 -113.5 36.5t-42.5 108.5q0 28 14.5 57.5t49.5 53.5t94 40t149 18v21q0 46 -20 66t-55 20q-28 0 -46.5 -6t-32.5 -13.5t-27 -13.5t-31 -6q-15 0 -26 8.5t-18 19.5z" />
    <glyph glyph-name="b.superior" horiz-adv-x="620" 
d="M228 1058q19 -19 40 -26t45 -7q45 0 74 35.5t29 121.5q0 82 -24 114.5t-66 32.5q-30 0 -52.5 -12t-45.5 -38v-221zM228 1384q30 29 66.5 46.5t87.5 17.5q41 0 76 -18t60.5 -52t40 -83.5t14.5 -112.5q0 -59 -16.5 -109t-46 -87t-70.5 -57.5t-91 -20.5q-48 0 -78 18.5
t-55 47.5l-3 -29q-4 -17 -13 -23t-23 -6h-100v756h151v-288z" />
    <glyph glyph-name="c.superior" horiz-adv-x="533" 
d="M455 1314q-7 -8 -13.5 -13t-18.5 -5q-11 0 -20.5 5.5l-21 12.5t-27 12.5t-39.5 5.5q-60 0 -87.5 -40.5t-27.5 -112.5q0 -75 30 -114.5t82 -39.5q28 0 44.5 6.5t28 15l20.5 15t23 6.5q18 0 27 -14l44 -56q-24 -28 -50 -45.5t-54 -27.5t-56 -13.5t-55 -3.5q-48 0 -91.5 18
t-76 53t-52 85t-19.5 115q0 57 16.5 106t49.5 85.5t81.5 57t112.5 20.5q61 0 107 -20t83 -58z" />
    <glyph glyph-name="d.superior" horiz-adv-x="620" 
d="M392 1299q-19 20 -40.5 27.5t-44.5 7.5q-46 0 -75 -36t-29 -122q0 -41 6.5 -69.5t18.5 -45.5t29.5 -24.5t40.5 -7.5q29 0 51.5 12t42.5 36v222zM543 1672v-756h-93q-29 0 -37 26l-8 46q-32 -35 -71.5 -57.5t-95.5 -22.5q-41 0 -76 18t-60.5 52.5t-39.5 84.5t-14 113
q0 59 16 109.5t45.5 87t70.5 57t92 20.5q41 0 69 -12t51 -32v266h151z" />
    <glyph glyph-name="e.superior" horiz-adv-x="583" 
d="M400 1241q0 18 -5 36t-16.5 31.5t-29.5 22t-44 8.5q-46 0 -72.5 -25t-34.5 -73h202zM196 1149q8 -65 41 -93.5t85 -28.5q28 0 48 6.5t35.5 14l28.5 14t27 6.5q18 0 27 -14l44 -56q-24 -28 -51.5 -45.5t-57 -27.5t-58.5 -13.5t-56 -3.5q-55 0 -103 18t-84 53t-56.5 88
t-20.5 122q0 52 18 99.5t51 82.5t80.5 56t107.5 21q51 0 94 -16t74 -47t48 -75.5t17 -101.5q0 -35 -6.5 -47t-27.5 -12h-305z" />
    <glyph glyph-name="f.superior" horiz-adv-x="406" 
d="M382 1580q-1 -17 -11.5 -23t-33.5 -6q-38 0 -59.5 -18t-21.5 -70v-24h124v-108h-120v-415h-150v415l-37 8q-17 4 -27.5 12.5t-10.5 25.5v62h75v30q0 90 54.5 143.5t152.5 53.5q19 0 35.5 -2t33.5 -7z" />
    <glyph glyph-name="g.superior" horiz-adv-x="580" 
d="M268 1206q40 0 58 18.5t18 49.5q0 32 -18 50.5t-58 18.5q-41 0 -59 -18.5t-18 -50.5q0 -30 18 -49t59 -19zM392 899q0 18 -17.5 25.5t-45.5 10.5t-62.5 3.5t-68.5 4.5q-14 -10 -23 -21.5t-9 -25.5q0 -12 5 -22.5t17.5 -18.5t33.5 -12.5t53 -4.5q61 0 89 18.5t28 42.5z
M541 1424v-58q0 -25 -31 -32l-38 -9q6 -21 6 -46q0 -39 -16 -70.5t-44.5 -53.5t-67 -34t-82.5 -12q-13 0 -25 1t-24 3q-18 -11 -18 -24q0 -18 24.5 -22.5t61 -6.5t79.5 -4t79.5 -14.5t61 -40t24.5 -77.5q0 -36 -17 -69.5t-50 -60t-81.5 -42.5t-110.5 -16q-61 0 -105.5 11.5
t-73.5 30.5t-43 43.5t-14 51.5q0 35 20 58t55 37q-18 11 -29 29.5t-11 47.5q0 23 17 49.5t53 43.5q-41 22 -64.5 57.5t-23.5 83.5q0 40 16.5 71.5t45.5 53.5t68 34t85 12q68 0 118 -26h155z" />
    <glyph glyph-name="h.superior" horiz-adv-x="619" 
d="M228 1392q29 26 62.5 41t80.5 15q43 0 76 -15t55.5 -41.5t34 -63.5t11.5 -80v-332h-151v332q0 39 -18.5 60t-54.5 21q-27 0 -50.5 -11t-45.5 -31v-371h-151v756h151v-280z" />
    <glyph glyph-name="i.superior" horiz-adv-x="301" 
d="M226 1413v-497h-151v497h151zM245 1583q0 -19 -7.5 -35.5t-20.5 -29t-30 -20t-36 -7.5q-18 0 -34.5 7.5t-29 20t-19.5 29t-7 35.5t7 36t19.5 30t29 20t34.5 7q19 0 36 -7t30 -20t20.5 -30t7.5 -36z" />
    <glyph glyph-name="j.superior" horiz-adv-x="302" 
d="M226 1413v-497q0 -37 -9 -69.5t-30 -57t-55.5 -39t-85.5 -14.5q-35 0 -69 9l5 83q1 11 7 16t25 5q18 0 30 3t19 10.5t9.5 20.5t2.5 33v497h151zM244 1583q0 -19 -7.5 -35.5t-20 -29t-29.5 -20t-36 -7.5q-18 0 -34.5 7.5t-29 20t-19.5 29t-7 35.5t7 36t19.5 30t29 20
t34.5 7q19 0 36 -7t29.5 -20t20 -30t7.5 -36z" />
    <glyph glyph-name="k.superior" horiz-adv-x="607" 
d="M587 916h-137q-17 0 -30.5 5.5t-18.5 20.5l-106 185q-5 14 -13.5 17t-23.5 3h-30v-231h-151v756h151v-423h23q14 0 22.5 4t14.5 15l105 146q11 26 49 26h138l-140 -186q-15 -28 -45 -45q24 -11 39 -43z" />
    <glyph glyph-name="l.superior" horiz-adv-x="305" 
d="M228 1672v-756h-151v756h151z" />
    <glyph glyph-name="m.superior" horiz-adv-x="902" 
d="M209 1377q28 30 61 50.5t82 20.5q48 0 79 -24.5t47 -66.5q26 49 72 70t96 21q90 0 137 -52t47 -148v-332h-150v332q0 81 -73 81q-33 0 -55 -21t-22 -60v-332h-151v332q0 40 -17 60.5t-55 20.5q-22 0 -42 -10t-37 -27v-376h-151v524h94q26 0 34 -28z" />
    <glyph glyph-name="uni207F" unicode="&#x207f;" horiz-adv-x="618" 
d="M205 1371q33 34 71 55.5t94 21.5q43 0 76 -15t55.5 -41.5t34 -63t11.5 -79.5v-333h-150v333q0 79 -74 79q-26 0 -50 -11t-46 -31v-370h-150v524h80q29 0 40 -31z" />
    <glyph glyph-name="o.superior" horiz-adv-x="621" 
d="M311 1448q59 0 108 -18.5t84 -53.5t54 -85t19 -112q0 -63 -19 -113t-54 -85t-84 -54t-108 -19t-108 19t-84 54t-54.5 85t-19.5 113q0 62 19.5 112t54.5 85t84 53.5t108 18.5zM311 1025q57 0 83 37.5t26 115.5t-26 115.5t-83 37.5q-111 0 -111 -153t111 -153z" />
    <glyph glyph-name="p.superior" horiz-adv-x="620" 
d="M228 1059q19 -19 40.5 -26.5t44.5 -7.5q46 0 75.5 35.5t29.5 121.5q0 82 -24 114.5t-64 32.5q-35 0 -58 -12.5t-44 -37.5v-220zM215 1370q32 35 72 57.5t96 22.5q41 0 76 -18t60.5 -52.5t39.5 -84.5t14 -113q0 -59 -16 -109t-45.5 -87t-71 -57.5t-91.5 -20.5
q-42 0 -70 12t-51 32v-202h-151v690h94q31 0 37 -26z" />
    <glyph glyph-name="q.superior" horiz-adv-x="620" 
d="M391 1300q-19 19 -40 26.5t-44 7.5q-50 0 -77.5 -37t-27.5 -121q0 -41 7 -69.5t19 -45.5t28.5 -24.5t36.5 -7.5q32 0 54.5 12.5t43.5 37.5v221zM542 1440v-690h-151v224q-30 -30 -67 -48t-87 -18q-41 0 -76 18t-60.5 52.5t-39.5 84.5t-14 113q0 59 16 109.5t45.5 87
t71 57t91.5 20.5q48 0 79 -16t57 -42l5 22q9 26 37 26h93z" />
    <glyph glyph-name="r.superior" horiz-adv-x="419" 
d="M215 1352q25 45 57.5 71.5t75.5 26.5q35 0 58 -17l-10 -116q-4 -20 -24 -20q-8 0 -23.5 2.5t-28.5 2.5q-36 0 -56.5 -19t-35.5 -53v-314h-151v524h90q23 0 31 -8.5t13 -28.5z" />
    <glyph glyph-name="s.superior" horiz-adv-x="490" 
d="M405 1324q-6 -9 -12 -13t-17 -4t-21.5 4.5l-24 10.5t-30 10.5t-37.5 4.5q-31 0 -47.5 -11t-16.5 -31q0 -19 18 -30.5t45 -20.5t59 -18.5t59 -26.5t45 -43.5t18 -68.5q0 -79 -55.5 -129t-162.5 -50q-54 0 -105 18.5t-82 45.5l36 59q6 11 15 16.5t23 5.5q13 0 24 -6
t23.5 -13.5t30 -13.5t43.5 -6q38 0 53.5 14t15.5 31q0 21 -18 32t-45.5 20t-59.5 18.5t-59.5 27.5t-45.5 47.5t-18 77.5q0 33 13 63.5t38.5 53t64 36t89.5 13.5q56 0 102.5 -19.5t75.5 -48.5z" />
    <glyph glyph-name="t.superior" horiz-adv-x="438" 
d="M402 954q-29 -23 -66.5 -34.5t-77.5 -11.5q-74 0 -112.5 42t-38.5 111v270h-46q-12 0 -20.5 8t-8.5 23v62l84 17l30 126q5 25 33 25h78v-153h132v-108h-132v-259q0 -18 9.5 -29.5t26.5 -11.5q19 0 26.5 5.5t17.5 5.5q7 0 11 -3t9 -11z" />
    <glyph glyph-name="u.superior" horiz-adv-x="618" 
d="M541 1440v-524h-93q-28 0 -37 26l-7 35q-32 -31 -68 -50t-88 -19q-43 0 -76 15t-55.5 41.5t-34 63t-11.5 79.5v333h150v-333q0 -38 18.5 -59t54.5 -21q27 0 50.5 11t45.5 30v372h151z" />
    <glyph glyph-name="v.superior" horiz-adv-x="554" 
d="M549 1440l-204 -524h-137l-203 524h125q16 0 28 -7.5t14 -20.5l82 -233l13 -59.5l12 -56.5q5 29 11.5 57.5t14.5 59.5l84 232q3 13 14 20.5t26 7.5h120z" />
    <glyph glyph-name="w.superior" horiz-adv-x="861" 
d="M23 1440h124q17 0 29 -8.5t14 -25.5l59 -225q4 -27 8.5 -51.5t9.5 -48.5q10 47 25 100l71 227q5 16 16 24.5t25 8.5h60q35 0 44 -34l69 -226q6 -26 11 -50.5l10 -47.5l19 98l63 226q3 17 15 25t26 8h118l-166 -524h-119q-20 0 -27 27l-80 259q-5 17 -9 33t-7 33
q-6 -36 -15 -68l-81 -257q-8 -27 -32 -27h-117z" />
    <glyph glyph-name="x.superior" horiz-adv-x="592" 
d="M572 916h-146q-16 0 -25.5 8t-15.5 19l-97 167q-3 -11 -6 -20.5t-8 -17.5l-80 -129q-5 -11 -15 -19t-25 -8h-134l175 271l-168 253h145q16 0 23.5 -4t13.5 -15l98 -160q2 10 6 20.5t9 21.5l71 116q10 21 33 21h139l-168 -246z" />
    <glyph glyph-name="y.superior" horiz-adv-x="555" 
d="M552 1440l-276 -650q-10 -23 -20.5 -31.5t-31.5 -8.5h-113l100 212l-209 478h134q17 0 26.5 -8.5t14.5 -19.5l90 -223q5 -16 9.5 -32l9.5 -33q9 36 21 68l88 220q5 12 16 20t25 8h116z" />
    <glyph glyph-name="z.superior" horiz-adv-x="506" 
d="M459 1377q0 -17 -5.5 -33t-16.5 -29l-220 -282h237v-117h-412v65q0 9 5.5 24.5t19.5 32.5l220 285h-230v117h402v-63z" />
    <glyph glyph-name="grave" unicode="`" 
d="M306 1456q37 0 55 -12t32 -37l146 -242h-122q-25 0 -40.5 7t-31.5 25l-241 259h202z" />
    <glyph glyph-name="grave.case" 
d="M244 1857q18 0 31.5 -1t24 -5t19.5 -11.5t19 -19.5l222 -273h-155q-26 0 -40.5 3t-31.5 19l-316 288h227z" />
    <glyph glyph-name="acute" unicode="&#xb4;" 
d="M720 1456l-241 -259q-16 -18 -31.5 -25t-40.5 -7h-128l145 242q14 25 32.5 37t54.5 12h209z" />
    <glyph glyph-name="acute.case" 
d="M814 1857l-325 -286q-18 -16 -34 -20t-40 -4h-155l220 273q9 13 18 20t20 11t24.5 5t31.5 1h240z" />
    <glyph glyph-name="circumflex" unicode="&#x2c6;" 
d="M727 1169h-144q-13 0 -25.5 4t-25.5 18l-110 116q-9 9 -18 21l-9.5 -11t-9.5 -10l-112 -116q-11 -11 -24 -16.5t-27 -5.5h-149l227 271h200z" />
    <glyph glyph-name="circumflex.case" 
d="M740 1547h-156q-14 0 -33 5t-39 30l-99 121q-8 11 -13 20q-5 -9 -13 -20l-99 -121q-20 -25 -39 -30t-33 -5h-149l240 274h193z" />
    <glyph glyph-name="caron" unicode="&#x2c7;" 
d="M727 1440l-227 -271h-200l-227 271h149q14 0 26 -5t19 -11l116 -122l20 -23q5 7 9.5 12.5t9.5 10.5l116 122q8 5 20 10.5t25 5.5h144z" />
    <glyph glyph-name="caron.case" 
d="M740 1821l-240 -274h-200l-240 274h156q13 0 32.5 -4t33.5 -23l105 -132q8 -11 13 -20q5 9 13 20l104 131q15 20 34 24t33 4h156z" />
    <glyph glyph-name="uni0315" unicode="&#x315;" 
d="M491 1482q25 0 31 -11.5t6 -23.5q0 -9 -3.5 -25.5t-13.5 -45.5l-27 -75.5t-45 -115.5q-12 -25 -29.5 -32.5t-46.5 -7.5h-75l59 337h144z" />
    <glyph glyph-name="tilde" unicode="&#x2dc;" 
d="M509 1344q32 0 50 18.5t19 61.5h131q0 -52 -14 -94.5t-39.5 -73t-61 -47t-77.5 -16.5q-35 0 -66 13.5t-58 29.5l-51 29.5t-45 13.5q-32 0 -50 -19.5t-18 -62.5h-133q0 52 14.5 95t40 73.5t61 47.5t77.5 17q36 0 67 -13.5t58 -29.5l50.5 -29.5t44.5 -13.5z" />
    <glyph glyph-name="tilde.case" 
d="M525 1683q23 0 40 9t28 23t16.5 31t5.5 34h131q0 -47 -13 -90t-37.5 -76t-61 -53t-83.5 -20q-48 0 -85 16t-67.5 35.5l-57 35.5t-53.5 16q-23 0 -39.5 -9t-27.5 -23t-16.5 -31.5t-5.5 -34.5h-132q0 46 13 89.5t38 77t61.5 53.5t83.5 20q48 0 85 -16t67.5 -35.5
l56.5 -35.5t53 -16z" />
    <glyph glyph-name="dieresis" unicode="&#xa8;" 
d="M329 1291q0 -26 -10 -48.5t-27.5 -39t-41 -26.5t-49.5 -10q-25 0 -47.5 10t-39.5 26.5t-27 39t-10 48.5t10 49.5t27 41t39.5 27.5t47.5 10q26 0 49.5 -10t41 -27.5t27.5 -41t10 -49.5zM723 1291q0 -26 -10 -48.5t-27.5 -39t-40.5 -26.5t-49 -10t-48.5 10t-39.5 26.5
t-27 39t-10 48.5t10 49.5t27 41t39.5 27.5t48.5 10t49 -10t40.5 -27.5t27.5 -41t10 -49.5z" />
    <glyph glyph-name="dieresis.case" 
d="M308 1667q0 -25 -10 -47t-27 -38.5t-40 -26t-48 -9.5q-24 0 -46 9.5t-38.5 26t-26 38.5t-9.5 47t9.5 47.5t26 39.5t38.5 27t46 10q25 0 48 -10t40 -27t27 -39.5t10 -47.5zM737 1667q0 -25 -10 -47t-26.5 -38.5t-38.5 -26t-47 -9.5q-26 0 -48 9.5t-39 26t-26.5 38.5
t-9.5 47t9.5 47.5t26.5 39.5t39 27t48 10q25 0 47 -10t38.5 -27t26.5 -39.5t10 -47.5z" />
    <glyph glyph-name="macron" unicode="&#xaf;" 
d="M107 1361h586v-139h-586v139z" />
    <glyph glyph-name="macron" unicode="&#x2c9;" 
d="M107 1361h586v-139h-586v139z" />
    <glyph glyph-name="macron.case" 
d="M110 1704h580v-126h-580v126z" />
    <glyph glyph-name="breve" unicode="&#x2d8;" 
d="M400 1163q-81 0 -136.5 22t-89.5 60t-48.5 88t-14.5 107h151q0 -32 6.5 -57.5t22 -43.5t42 -28t67.5 -10q40 0 67 10t42.5 28t22 43.5t6.5 57.5h151q0 -57 -14.5 -107t-48.5 -88t-89.5 -60t-136.5 -22z" />
    <glyph glyph-name="breve.case" 
d="M400 1545q-73 0 -131.5 16t-99.5 49.5t-63 84t-22 119.5h165q0 -65 33 -101.5t118 -36.5q84 0 117 36.5t33 101.5h165q0 -63 -22 -113t-63 -84.5t-99 -53t-131 -18.5z" />
    <glyph glyph-name="ring" unicode="&#x2da;" 
d="M188 1321q0 44 17 80.5t46 62.5t67.5 40t80.5 14q43 0 82 -14t68 -40t46.5 -62.5t17.5 -80.5t-17.5 -79.5t-46.5 -61t-68 -39.5t-82 -14q-42 0 -80.5 14t-67.5 39.5t-46 61t-17 79.5zM306 1321q0 -42 25 -68t70 -26q42 0 68 26t26 68q0 43 -26 69t-68 26q-45 0 -70 -26
t-25 -69z" />
    <glyph glyph-name="ring.case" 
d="M201 1702q0 41 16 75.5t43 59t63 38t75 13.5q41 0 77.5 -13.5t64 -38t43.5 -59t16 -75.5q0 -40 -16 -73.5t-43.5 -57.5t-64 -37t-77.5 -13q-39 0 -75 13t-63 37t-43 57.5t-16 73.5zM305 1702q0 -41 25.5 -67.5t70.5 -26.5q42 0 68 26.5t26 67.5q0 43 -26 69t-68 26
q-45 0 -70.5 -26t-25.5 -69z" />
    <glyph glyph-name="glyph189" 
d="M188 1321q0 44 17 80.5t46 62.5t67.5 40.5t80.5 14.5q43 0 82 -14.5t68 -40.5t46.5 -62.5t17.5 -80.5q0 -43 -17.5 -79t-46.5 -61.5t-68 -39.5t-82 -14q-42 0 -80.5 14t-67.5 39.5t-46 61.5t-17 79zM306 1321q0 -42 25 -68t70 -26q42 0 68 26t26 68q0 43 -26 69t-68 26
q-45 0 -70 -26t-25 -69zM771 1870l-241 -260q-16 -17 -31.5 -24.5t-40.5 -7.5h-129l146 243q14 25 32 37t55 12h209z" />
    <glyph glyph-name="glyph190" 
d="M211 1664q0 39 15 71t40.5 55.5t59.5 36t71 12.5q39 0 73.5 -12.5t60.5 -36t41 -55.5t15 -71q0 -38 -15 -70t-41 -54.5t-60.5 -35t-73.5 -12.5q-37 0 -71 12.5t-59.5 35t-40.5 54.5t-15 70zM308 1664q0 -39 24 -64.5t67 -25.5q41 0 66 25.5t25 64.5q0 42 -25 66.5
t-66 24.5q-43 0 -67 -24.5t-24 -66.5zM825 2118l-299 -211q-18 -16 -34 -19.5t-40 -3.5h-155l194 197q9 13 18 20t20 11t24.5 5t31.5 1h240z" />
    <glyph glyph-name="hungarumlaut" unicode="&#x2dd;" 
d="M527 1456l-199 -259q-14 -19 -30.5 -25.5t-41.5 -6.5h-89l132 242q14 25 32.5 37t55.5 12h140zM859 1456l-247 -259q-16 -18 -31.5 -25t-40.5 -7h-102l179 242q8 12 16 21t17.5 15.5t22.5 9.5t31 3h155z" />
    <glyph glyph-name="hungarumlaut.case" 
d="M527 1821l-206 -242q-17 -15 -32 -23.5t-40 -8.5h-102l143 225q14 23 37.5 36t59.5 13h140zM913 1821l-254 -242q-18 -16 -36 -24t-43 -8h-115l184 225q18 23 42 36t60 13h162z" />
    <glyph glyph-name="dotaccent" unicode="&#x2d9;" 
d="M544 1333q0 -29 -11.5 -54.5t-31.5 -45t-46.5 -31t-55.5 -11.5t-54.5 11.5t-45 31t-31 45t-11.5 54.5q0 30 11.5 56.5t31 46t45 31t54.5 11.5t55.5 -11.5t46.5 -31t31.5 -46t11.5 -56.5z" />
    <glyph glyph-name="dotaccent.case" 
d="M537 1692q0 -27 -11 -51.5t-30.5 -43.5t-45 -30t-53.5 -11q-27 0 -51 11t-42.5 30t-29.5 43.5t-11 51.5q0 28 11 53.5t29.5 44.5t42.5 30t51 11q28 0 53.5 -11t45 -30t30.5 -44.5t11 -53.5z" />
    <glyph glyph-name="cedilla" unicode="&#xb8;" 
d="M440 -67q94 -20 133.5 -56.5t39.5 -90.5q0 -33 -17 -59.5t-47.5 -45t-73 -28.5t-93.5 -10q-41 0 -77.5 7t-69.5 20l20 67q6 21 26 21q7 0 14.5 -3t18 -6.5t24 -6.5t31.5 -3q38 0 56.5 14.5t18.5 35.5q0 34 -39 47.5t-114 24.5l56 170h121z" />
    <glyph glyph-name="ogonek" unicode="&#x2db;" 
d="M543 -198q16 0 21 -14l33 -80q-32 -23 -79.5 -37t-101.5 -14q-94 0 -145.5 40t-51.5 106q0 60 44 114.5t118 95.5l110 -13q-20 -11 -39.5 -26t-35.5 -33t-26 -39.5t-10 -45.5q0 -33 21.5 -52.5t59.5 -19.5q21 0 34 3t22 6t15 6t11 3z" />
    <glyph glyph-name="glyph197" 
d="M467 -93q26 0 32 -11.5t6 -23.5q0 -9 -2.5 -25.5t-9.5 -42.5t-20.5 -63.5t-34.5 -88.5q-11 -25 -28.5 -33t-46.5 -8h-76l50 296h130z" />
    <glyph glyph-name="glyph198" 
d="M492 1163h-188l103 282h135z" />
    <glyph glyph-name="Gamma" unicode="&#x393;" horiz-adv-x="1099" 
d="M1069 1257h-663v-1257h-235v1440h898v-183z" />
    <glyph glyph-name="Delta" unicode="&#x394;" horiz-adv-x="1377" 
d="M263 187h827l-356 879q-13 32 -26.5 76t-26.5 95q-12 -52 -25.5 -95t-27.5 -77zM1325 208q29 -70 29 -140v-68h-1332v67q0 32 7 66.5t21 70.5l522 1236h237z" />
    <glyph glyph-name="Theta" unicode="&#x398;" horiz-adv-x="1609" 
d="M530 820h547v-189h-547v189zM1524 720q0 -160 -52 -295t-146.5 -232.5t-227 -152.5t-294.5 -55q-161 0 -293.5 55t-227.5 152.5t-147 232.5t-52 295t52 295t147 233t227.5 153t293.5 55q162 0 294.5 -55t227 -153t146.5 -233t52 -295zM1285 720q0 124 -33.5 223t-96 168
t-151.5 106t-200 37q-110 0 -199 -37t-152 -106t-97 -168t-34 -223q0 -125 34 -224t97 -167.5t152 -105t199 -36.5q111 0 200 36.5t151.5 105t96 167.5t33.5 224z" />
    <glyph glyph-name="Lambda" unicode="&#x39b;" horiz-adv-x="1370" 
d="M1374 0h-201q-31 0 -50 15.5t-29 38.5l-370 940q-15 39 -29.5 85.5t-26.5 97.5q-11 -51 -23.5 -97.5t-27.5 -85.5l-370 -940q-8 -20 -28 -37t-49 -17h-175l584 1440h211z" />
    <glyph glyph-name="Xi" unicode="&#x39e;" horiz-adv-x="1242" 
d="M1166 1440v-196h-1086v196h1086zM1166 196v-196h-1086v196h1086zM328 827h587v-203h-587v203z" />
    <glyph glyph-name="Pi" unicode="&#x3a0;" horiz-adv-x="1535" 
d="M1363 0h-234v1257h-723v-1257h-235v1440h1192v-1440z" />
    <glyph glyph-name="Sigma" unicode="&#x3a3;" horiz-adv-x="1221" 
d="M486 1257q-51 0 -92 4t-82 12q45 -24 80.5 -51t65.5 -62l251 -308q19 -22 30.5 -38.5t18 -29.5t9 -23.5t2.5 -20.5q0 -24 -11 -51.5t-49 -71.5l-294 -355q-32 -36 -53.5 -56t-43.5 -34q41 6 75.5 8.5t64.5 2.5h691v-183h-1086v88q0 26 12.5 51.5t30.5 45.5l456 534
l-471 553q-12 14 -20 31.5t-8 35.5v101h1086v-183h-663z" />
    <glyph glyph-name="Phi" unicode="&#x3a6;" horiz-adv-x="1685" 
d="M954 262q101 2 183 39t139.5 99t89 145t31.5 178q0 94 -31.5 177.5t-89 146t-139.5 99.5t-183 39v-923zM732 1185q-101 -2 -183 -39t-140 -99.5t-89 -146t-31 -177.5q0 -95 31 -178t89 -145t140 -99t183 -39v923zM954 1367q154 -2 278 -53t211 -138.5t133.5 -204
t46.5 -248.5t-46.5 -248.5t-133.5 -204t-211 -139t-278 -52.5v-192h-222v192q-154 1 -278 52.5t-211 139t-133.5 204t-46.5 248.5t47 248.5t134.5 204t211 138.5t276.5 53v186h222v-186z" />
    <glyph glyph-name="Psi" unicode="&#x3a8;" horiz-adv-x="1650" 
d="M1557 1440v-516q0 -127 -39.5 -230.5t-117 -178t-193 -117.5t-267.5 -50v-348h-234v348q-151 7 -266 50.5t-192 117.5t-116.5 177.5t-39.5 230.5v516h156q38 0 58 -23t20 -57v-436q0 -90 20.5 -159t66 -118t118 -76t175.5 -33v902h234v-903q104 6 176.5 33t118.5 76
t66.5 118.5t20.5 159.5v436q0 34 20.5 57t57.5 23h157z" />
    <glyph glyph-name="Omega" unicode="&#x3a9;" horiz-adv-x="1624" 
d="M1530 196v-121q0 -33 -21.5 -54t-57.5 -21h-526v269q75 13 140 58t113 114t75.5 157.5t27.5 188.5q0 117 -38 204.5t-102 145.5t-149.5 87t-179.5 29q-95 0 -180 -29t-149 -87t-102 -145.5t-38 -204.5q0 -100 27.5 -188.5t75.5 -157.5t113 -114t140 -58v-269h-526
q-36 0 -57.5 21t-21.5 54v121h257q42 0 85 -4t85 -11q-90 32 -165 90.5t-129.5 137t-85 175.5t-30.5 205q0 147 54.5 269.5t149.5 211t222.5 137.5t274.5 49t274.5 -49t222.5 -137.5t149.5 -211t54.5 -269.5q0 -108 -30.5 -205t-85 -175.5t-129.5 -137t-165 -90.5
q42 7 85 11t85 4h257z" />
    <glyph glyph-name="alpha" unicode="&#x3b1;" horiz-adv-x="1195" 
d="M805 714q-14 31 -36.5 60t-52.5 51t-67.5 35t-81.5 13q-54 0 -103 -22t-86.5 -67.5t-59.5 -116.5t-22 -170q0 -91 19 -155.5t51.5 -105t75.5 -59.5t91 -19q46 0 87.5 17.5t74.5 55t55 95.5t30 139zM1186 151v-86q0 -29 -36.5 -51.5t-102.5 -22.5q-38 0 -74 10.5
t-66.5 31.5t-54 54t-38.5 78q-33 -49 -73 -83t-83.5 -55.5t-88.5 -31.5t-88 -10q-86 0 -160 35t-129 100.5t-86 159t-31 211.5q0 124 35 225.5t96 173t144 110.5t179 39q102 0 179.5 -40t127.5 -103l17 83q13 41 56 41h130l-54 -535q-2 -48 -6.5 -95.5t-4.5 -89.5
q0 -39 11.5 -67.5t31.5 -46.5t46.5 -26.5t56.5 -8.5h66z" />
    <glyph glyph-name="beta" unicode="&#x3b2;" horiz-adv-x="1126" 
d="M345 262q40 -57 89.5 -83.5t121.5 -26.5q71 0 124 23t88.5 62.5t53 93t17.5 113.5q0 75 -23.5 125t-63.5 79.5t-92 42t-109 12.5h-62v170h36q54 0 98 11t75 35.5t48 64t17 96.5q0 109 -53.5 163t-147.5 54q-57 0 -98 -21t-67.5 -67t-39 -119t-12.5 -178v-650zM130 919
q0 126 26.5 225.5t80.5 168.5t136 105.5t193 36.5q104 0 179.5 -30t124.5 -80t72.5 -114t23.5 -132q0 -110 -55 -189.5t-155 -115.5q72 -18 128 -52.5t94.5 -82.5t58.5 -108t20 -129q0 -88 -32 -167t-90.5 -139t-141 -95.5t-183.5 -35.5q-167 0 -265 105v-446h-215v1275z
" />
    <glyph glyph-name="beta.salt" horiz-adv-x="1143" 
d="M313 613q3 -122 22 -209t53 -142.5t82 -81t109 -25.5q62 0 114 24.5t89.5 69t58.5 106.5t21 136t-22.5 128t-64.5 83t-102.5 30t-136.5 -31zM536 864q72 29 120.5 62.5t78 69.5t42.5 74.5t13 77.5q0 66 -36.5 103.5t-112.5 37.5q-62 0 -117 -28.5t-98 -89.5t-72 -158
t-38 -233zM784 869q68 -5 121 -35.5t90 -81t56 -117.5t19 -146q0 -117 -39 -210t-106.5 -158.5t-158.5 -100.5t-195 -35q-120 0 -208 47t-146 133.5t-86 209.5t-28 275q0 197 42 348t116.5 253t177.5 154t226 52q91 0 154 -26.5t102.5 -69t57 -95t17.5 -104.5
q0 -88 -50.5 -159t-161.5 -134z" />
    <glyph glyph-name="gamma" unicode="&#x3b3;" horiz-adv-x="1104" 
d="M1082 1020q-27 -119 -70 -241t-98 -241t-118.5 -232t-131.5 -214v-430h-215v432q-20 100 -42 196t-48.5 182t-56.5 158.5t-65 125.5t-75 82.5t-85 29.5h-38v80q0 16 4.5 31t16.5 25.5t33 17t54 6.5q96 0 169 -52t127 -148.5t91 -235.5t62 -313q44 74 81 157t67 169.5
t53 174t39 171.5q7 39 24.5 54t40.5 15h181z" />
    <glyph glyph-name="delta" unicode="&#x3b4;" horiz-adv-x="1111" 
d="M557 151q60 0 109 20.5t84.5 59.5t55 95t19.5 127q0 76 -22 135t-59 105t-85 82.5t-100 67.5q-53 -20 -101 -51t-85 -76t-59 -105.5t-22 -140.5q0 -65 16 -123t49 -101.5t83 -69t117 -25.5zM906 1279q-4 -29 -17 -38t-40 -9q-15 0 -48.5 7.5l-75.5 17t-88 17t-87 7.5
q-77 0 -109.5 -23t-32.5 -57q0 -32 27 -60t71.5 -56.5t101 -59.5t116 -68.5t116 -84t101 -106.5t71.5 -135.5t27 -170.5q0 -104 -33.5 -191t-95.5 -149.5t-151.5 -97.5t-201.5 -35q-115 0 -205.5 36t-152.5 100t-95 151t-33 189q0 165 86.5 281.5t260.5 180.5
q-44 26 -82.5 53.5t-67 60.5t-45.5 72.5t-17 89.5q0 54 21 99.5t65 78.5t111.5 52t160.5 19q36 0 81.5 -3t94 -8t96 -12.5t87.5 -16.5z" />
    <glyph glyph-name="epsilon" unicode="&#x3b5;" horiz-adv-x="911" 
d="M867 148q-37 -45 -82.5 -75.5t-95 -49.5t-100.5 -27.5t-98 -8.5q-83 0 -158 21t-132 60.5t-90.5 96.5t-33.5 130q0 86 49.5 146.5t131.5 92.5q-43 19 -73.5 44.5t-49.5 55.5t-27.5 61.5t-8.5 62.5q0 55 25.5 105.5t76 89t126 61t176.5 22.5q115 0 198.5 -34.5
t140.5 -89.5l-48 -83q-12 -19 -22.5 -25t-25.5 -6t-33 11t-45.5 24.5t-66.5 25t-95 11.5q-50 0 -87 -10t-62 -27.5t-37.5 -41.5t-12.5 -52q0 -60 57 -98.5t161 -38.5h165v-142h-165q-118 0 -174 -39.5t-56 -107.5q0 -35 14 -64.5t41 -51.5t65.5 -34t87.5 -12q63 0 104 15
t69.5 33t48.5 33t41 15q26 0 40 -20z" />
    <glyph glyph-name="zeta" unicode="&#x3b6;" horiz-adv-x="797" 
d="M818 1350q2 -11 -1 -24t-15 -31.5t-35 -45t-61 -63.5l-90 -86.5t-95.5 -99.5t-91 -111.5t-77 -122t-53.5 -131.5t-20 -139q0 -62 16.5 -106.5t49 -77t81 -55.5t112.5 -43q91 -29 148.5 -60t89.5 -65.5t43.5 -72t11.5 -79.5q0 -68 -22.5 -133t-64.5 -132l-166 66
q9 15 18.5 33.5t17.5 38.5t13 41t5 41q0 18 -7 36.5t-28.5 37t-61 37t-105.5 38.5q-87 26 -153.5 61t-111.5 83.5t-68.5 113.5t-23.5 152q0 113 38 217.5t106 206t160.5 202t202.5 205.5q-117 -18 -252 -18h-114q-24 0 -41 6.5t-27.5 17t-15 23t-4.5 24.5v105h672z" />
    <glyph glyph-name="eta" unicode="&#x3b7;" horiz-adv-x="1177" 
d="M18 957q0 14 6 27t19 23.5t34.5 16.5t51.5 6q81 0 143 -37t90 -116q34 35 73.5 64.5t83 50.5t92.5 32.5t103 11.5q84 0 147.5 -28t107 -79t65.5 -122.5t22 -157.5v-988h-214v988q0 103 -47.5 160t-144.5 57q-72 0 -133.5 -33t-115.5 -90v-743h-215v730q0 72 -31 106
t-91 34h-46v87z" />
    <glyph glyph-name="theta" unicode="&#x3b8;" horiz-adv-x="1200" 
d="M313 659q4 -132 24.5 -227t57 -157t88.5 -91.5t119 -29.5q65 0 116.5 29.5t88 91.5t57 157t24.5 227h-575zM887 808q-5 125 -26.5 216t-57.5 150t-86.5 87.5t-114.5 28.5q-131 0 -204.5 -116t-83.5 -366h573zM602 1457q113 0 204.5 -47t156 -140t99.5 -230.5t35 -317.5
q0 -181 -35 -319t-99.5 -231t-156 -140t-204.5 -47q-114 0 -206 47t-157.5 140t-100.5 231t-35 319q0 180 35 317.5t100.5 230.5t157.5 140t206 47z" />
    <glyph glyph-name="theta.salt" horiz-adv-x="1308" 
d="M504 1179q0 -82 95.5 -118.5t289.5 -40.5q-14 64 -36 115.5t-52.5 87.5t-69.5 55t-88 19q-68 0 -103.5 -32t-35.5 -86zM1274 1020v-86q0 -27 -16.5 -48.5t-53.5 -21.5h-91q2 -32 3.5 -66t1.5 -69q0 -171 -31 -309t-94.5 -235t-159.5 -149t-225 -52q-103 0 -180 31.5
t-128 89t-76 139t-25 180.5v181q0 60 -19.5 87.5t-75.5 27.5h-66v87q0 28 37 50.5t105 22.5q49 0 92 -14t74.5 -46t49.5 -84.5t18 -130.5v-181q0 -61 13 -111t39.5 -85t66 -54.5t93.5 -19.5q64 0 117.5 31t92 99.5t59.5 178t21 267.5q0 35 -1.5 68.5t-3.5 65.5
q-140 1 -251.5 21.5t-189.5 60t-119.5 99t-41.5 140.5q0 57 21.5 106.5t62.5 85.5t100 56.5t134 20.5q176 0 296.5 -107t167.5 -327h183z" />
    <glyph glyph-name="iota" unicode="&#x3b9;" horiz-adv-x="546" 
d="M124 1020h215v-728q0 -71 30 -107.5t97 -36.5h88v-66q0 -23 -14.5 -40.5t-38.5 -29.5t-55 -18t-64 -6q-63 0 -111.5 21.5t-81 60.5t-49 92.5t-16.5 117.5v740z" />
    <glyph glyph-name="lambda" unicode="&#x3bb;" horiz-adv-x="1089" 
d="M1091 149v-86q0 -46 -26.5 -60t-75.5 -14q-42 0 -83 8.5t-78 30.5t-68 61t-52 101l-156 406q-9 24 -14 44.5t-8 40.5q-5 -20 -12 -40.5t-15 -41.5l-222 -557q-8 -17 -23 -29.5t-41 -12.5h-184l394 925l-93 264q-11 31 -23.5 51t-30 32t-41.5 16.5t-58 4.5h-75v80
q0 17 6 31.5t20.5 25.5t39 17.5t62.5 6.5q42 0 84 -8t79 -29t67 -56.5t50 -89.5l378 -1018q20 -54 50.5 -79t87.5 -25h61z" />
    <glyph glyph-name="mu" unicode="&#x3bc;" horiz-adv-x="1203" 
d="M1200 150v-86q0 -29 -36.5 -51.5t-102.5 -22.5q-42 0 -80.5 12t-71 37t-56 63.5t-35.5 90.5q-57 -87 -129 -134.5t-165 -47.5q-67 0 -118 19.5t-88 56.5q8 -42 11 -86t3 -82v-258h-106q-45 0 -70 23.5t-25 67.5v1268h215v-609q0 -102 48 -162.5t144 -60.5q85 0 147 46
t102 130v656h215v-730q0 -72 36 -106t96 -34h66z" />
    <glyph glyph-name="nu" unicode="&#x3bd;" horiz-adv-x="1036" 
d="M1014 1020q-30 -135 -76 -271.5t-104.5 -267.5t-128.5 -253t-148 -228h-132l-410 1020h176q25 0 41.5 -12.5t21.5 -29.5l227 -594q14 -40 23.5 -79t17.5 -77q48 76 86 165.5t68 184t52.5 191t40.5 187.5q5 35 23 49.5t40 14.5h182z" />
    <glyph glyph-name="xi" unicode="&#x3be;" horiz-adv-x="799" 
d="M786 1350q0 -19 -7 -34.5t-19 -26t-27 -16.5t-31 -6h-91q-63 0 -114 -18.5t-88 -51t-57 -77.5t-20 -97q0 -89 69.5 -134.5t198.5 -45.5h95v-170h-143q-69 0 -119 -16t-82.5 -45.5t-48 -70.5t-15.5 -90q0 -51 18 -88t55 -67t94.5 -55.5t135.5 -53.5q62 -22 103.5 -47.5
t66.5 -55t35.5 -63.5t10.5 -74q0 -74 -22.5 -141t-64.5 -134l-167 66q19 31 37 72t18 79q0 21 -5.5 39t-20.5 34t-41.5 30t-68.5 26q-78 22 -149.5 54t-126.5 80.5t-88 116t-33 161.5q0 45 11 93.5t37 94t68 85t104 66.5q-78 36 -119 95.5t-41 142.5q0 46 15 86t41 73.5
t61.5 61.5t76.5 49h-154q-48 0 -68 22.5t-20 60.5v80h700v-90z" />
    <glyph glyph-name="xi.salt" horiz-adv-x="804" 
d="M549 673q-69 0 -119 -16t-82.5 -45.5t-48 -70.5t-15.5 -90q0 -51 18 -88t55 -67t94 -55.5t135 -53.5q63 -22 104.5 -47.5t66.5 -55t35.5 -63.5t10.5 -74q0 -74 -22.5 -141t-64.5 -134l-167 66q9 15 18.5 33.5t18 38.5t13.5 40t5 39q0 21 -6 39t-21 34t-41.5 30t-68.5 26
q-78 22 -149.5 54t-126 80.5t-87.5 116t-33 161.5q0 46 12 96.5t40 97t73.5 86.5t112.5 66q-88 37 -133 106.5t-45 176.5q0 91 32 162t92 119.5t145 74t191 25.5h192v-89q0 -20 -7 -35t-19 -26t-27.5 -16.5t-31.5 -5.5h-101q-68 0 -118 -15.5t-83.5 -44t-50 -67.5t-16.5 -85
q0 -106 69 -159.5t199 -53.5h95v-170h-143z" />
    <glyph glyph-name="pi" unicode="&#x3c0;" horiz-adv-x="1248" 
d="M1188 912q0 -29 -17.5 -48.5t-50.5 -19.5h-137q0 -33 -0.5 -64t-0.5 -62q0 -128 3.5 -219.5t11 -154.5t19 -101t26.5 -58t34.5 -26.5t42.5 -6.5h42v-87q0 -35 -39.5 -53.5t-96.5 -18.5q-127 0 -187.5 85.5t-60.5 264.5q0 45 4 95.5t10 111t12 133t9 161.5h-342
q-4 -172 -15.5 -302.5t-30.5 -225t-44.5 -157t-57.5 -100t-70 -52.5t-81 -15q-14 0 -29.5 2.5t-28.5 7.5t-21.5 12.5t-8.5 18.5v146h20q31 0 61 35.5t54.5 114.5t41.5 206t23 309h-212v91q0 13 5.5 27t16 25.5t25.5 19t35 7.5h1035v-102z" />
    <glyph glyph-name="rho" unicode="&#x3c1;" horiz-adv-x="1132" 
d="M332 275q48 -66 110 -95t127 -29q126 0 196.5 92t70.5 274q0 94 -18.5 160.5t-52 108.5t-80.5 61t-103 19q-52 0 -97.5 -19t-79.5 -55t-53.5 -89t-19.5 -122v-306zM118 581q0 104 31.5 188t91 143.5t145.5 92t196 32.5q98 0 184.5 -35t151.5 -101.5t102.5 -163.5
t37.5 -220q0 -113 -30.5 -210.5t-87.5 -169t-138.5 -112t-183.5 -40.5q-86 0 -158 30t-128 83v-437h-214v920z" />
    <glyph glyph-name="sigma" unicode="&#x3c3;" horiz-adv-x="1214" 
d="M645 852q-93 0 -159 -23t-108.5 -68t-62 -112t-19.5 -155q0 -170 69.5 -255.5t205.5 -85.5q140 0 207 89t67 265q0 59 -9 115t-27 102t-46.5 79.5t-67.5 48.5h-50zM1214 1017v-103q0 -10 -4.5 -21t-13.5 -20t-22 -15t-29 -6h-226q69 -56 107.5 -144.5t38.5 -210.5
q0 -112 -34.5 -206t-98.5 -162t-155 -106t-205 -38q-111 0 -203 35t-157.5 101.5t-101.5 161.5t-36 215q0 121 38.5 217.5t112 163.5t180 102.5t241.5 35.5h568z" />
    <glyph glyph-name="sigma1" unicode="&#x3c2;" horiz-adv-x="937" 
d="M851 820q-10 -13 -19.5 -20t-26.5 -7t-35 12t-43.5 26.5t-62 26.5t-89.5 12q-70 0 -122.5 -24t-88 -66t-53.5 -98.5t-18 -120.5q0 -93 23 -152t68.5 -98t113 -66.5t157.5 -57.5q62 -22 103.5 -47.5t66.5 -55t35.5 -63.5t10.5 -74q0 -74 -22.5 -141t-64.5 -134l-167 66
q19 31 37 72t18 79q0 21 -5.5 39t-20.5 34t-41.5 30t-68.5 26q-95 28 -179 64t-147 94.5t-100 147.5t-37 223q0 100 32 188.5t94 155.5t153 106t209 39q112 0 196 -36t150 -102z" />
    <glyph glyph-name="tau" unicode="&#x3c4;" horiz-adv-x="945" 
d="M917 928q0 -38 -19.5 -57.5t-55.5 -19.5h-300v-556q0 -70 30 -106.5t97 -36.5h88v-67q0 -23 -14.5 -40t-38.5 -29t-55 -18t-64 -6q-63 0 -111.5 21.5t-81 60t-49 92t-16.5 117.5v568h-306v93q0 27 18 48.5t55 21.5h823v-86z" />
    <glyph glyph-name="upsilon" unicode="&#x3c5;" horiz-adv-x="1112" 
d="M957 1020l20 -121.5t17 -116t11.5 -116t4.5 -122.5q0 -147 -39.5 -252.5t-105.5 -174t-151.5 -101t-177.5 -32.5q-99 0 -176.5 27t-130.5 77t-81 122t-28 161v649h215v-649q0 -51 15.5 -91.5t44 -68.5t68 -42.5t87.5 -14.5q45 0 90 18.5t81 63.5t58.5 120t22.5 188
q0 51 -5.5 101.5t-13 100.5t-17 101t-16.5 102q-2 19 3 33t14 22t20.5 12t22.5 4h147z" />
    <glyph glyph-name="phi" unicode="&#x3c6;" horiz-adv-x="1511" 
d="M852 146q91 1 160.5 28.5t116.5 78.5t71 123t24 163q0 76 -21 138t-55.5 106t-77.5 68t-88 24q-61 0 -95.5 -38.5t-34.5 -130.5v-560zM651 706q0 87 22.5 149t65.5 102.5t104.5 59.5t138.5 19q102 0 186 -38.5t144 -105t93.5 -157.5t33.5 -196q0 -125 -42 -227
t-119.5 -174t-185.5 -112t-240 -41v-323h-201v323q-131 1 -238 40.5t-183 109t-117 165.5t-41 211q0 91 26.5 171t74.5 146t115.5 117.5t149.5 84.5l55 -87q8 -12 9 -26.5t-3 -27t-11.5 -22.5t-16.5 -14q-88 -48 -136 -136.5t-48 -206.5q0 -80 24 -146t70.5 -114t114.5 -75
t155 -29v560z" />
    <glyph glyph-name="phi.salt" horiz-adv-x="1512" 
d="M857 146q88 1 156.5 26.5t115.5 72t71.5 113.5t24.5 152t-24.5 152t-71.5 114t-115.5 72.5t-156.5 26.5v-729zM656 875q-88 -1 -156.5 -26.5t-115.5 -72.5t-71.5 -114t-24.5 -152t24.5 -152t71.5 -113.5t115.5 -72t156.5 -26.5v729zM857 1036q132 -1 239.5 -38
t183.5 -105.5t117.5 -165t41.5 -216.5t-41.5 -217t-117.5 -165t-183.5 -105.5t-239.5 -38.5v-323h-201v323q-132 1 -239.5 38.5t-184 105.5t-118 165t-41.5 217t41.5 216.5t118 165t184 105.5t239.5 38v404h201v-404z" />
    <glyph glyph-name="chi" unicode="&#x3c7;" horiz-adv-x="973" 
d="M990 -195v-86q0 -23 -4 -37.5t-13.5 -22.5t-26 -11t-41.5 -3q-44 0 -84 8t-75.5 29.5t-66.5 61t-57 102.5l-160 364q-5 -32 -12.5 -61t-15.5 -52l-190 -391q-7 -17 -21.5 -29.5t-41.5 -12.5h-153l338 715l-171 389q-14 30 -28.5 50t-32.5 32t-42 17.5t-58 5.5h-36v79
q0 17 0.5 31.5t8 25.5t25.5 17.5t53 6.5q53 0 97 -9.5t79.5 -31.5t63.5 -56.5t50 -85.5l157 -357q4 31 11 60t15 52l177 374q7 17 21.5 29.5t41.5 12.5h153l-325 -691l185 -421q12 -27 24.5 -46.5t29 -32t38 -19t50.5 -6.5h37z" />
    <glyph glyph-name="psi" unicode="&#x3c8;" horiz-adv-x="1555" 
d="M1399 1020q12 -63 22 -121.5t17 -116t11 -116t4 -122.5q0 -148 -45.5 -250t-122.5 -166.5t-180.5 -97t-218.5 -41.5v-327h-214v325q-141 10 -245.5 48.5t-173.5 102.5t-103 152.5t-34 198.5v531h148q13 0 25 -8t21 -20.5t14.5 -27t5.5 -27.5v-448q0 -73 23.5 -129.5
t67.5 -97.5t107.5 -66.5t143.5 -35.5v1280h214v-1281q78 8 142.5 31t111 68t72.5 115t26 171q0 75 -6.5 130.5t-15.5 101.5t-18 87t-13 86q0 39 19 55t41 16h154z" />
    <glyph glyph-name="omega" unicode="&#x3c9;" horiz-adv-x="1558" 
d="M1345 1020q59 -115 96.5 -244.5t37.5 -260.5q0 -119 -29 -217t-81.5 -167.5t-126 -108t-162.5 -38.5q-56 0 -102.5 13t-84 36.5t-66 55.5t-49.5 70q-21 -38 -50 -70t-66.5 -55.5t-83 -36.5t-99.5 -13q-89 0 -163 38.5t-126.5 108t-81.5 167.5t-29 217q0 131 37.5 260.5
t96.5 244.5h153q11 0 24.5 -5t23 -16.5t11.5 -29.5t-8 -44q-14 -23 -34.5 -68t-40.5 -101.5t-34 -119.5t-14 -121q0 -109 20 -179t51 -110.5t68.5 -56t71.5 -15.5q43 0 75 20.5t52 57t30 87t10 111.5v255h214v-255h1q0 -61 10 -111.5t30 -87t51.5 -57t75.5 -20.5
q34 0 71.5 15.5t68.5 56t51 110.5t20 179q0 58 -14.5 121t-34 119.5t-40.5 101.5t-34 68q-11 26 -8.5 44t12 29.5t22.5 16.5t24 5h153z" />
    <glyph glyph-name="tonos" unicode="&#x384;" 
d="M335 1146l62 357h133q31 0 42 -19.5t0 -52.5l-111 -285h-126z" />
    <glyph glyph-name="dieresistonos" unicode="&#x385;" 
d="M332 1152l63 358h132q32 0 42.5 -20t-0.5 -53l-111 -285h-126zM808 1290q0 -21 -8.5 -40t-22.5 -33t-33 -22t-40 -8q-22 0 -41 8t-33 22t-22 33t-8 40q0 22 8 41t22 33.5t33 23t41 8.5q21 0 40 -8.5t33 -23t22.5 -33.5t8.5 -41zM284 1290q0 -21 -8.5 -40t-23 -33t-34 -22
t-40.5 -8t-39.5 8t-33 22t-22.5 33t-8 40q0 22 8 41t22.5 33.5t33 23t39.5 8.5t40.5 -8.5t34 -23t23 -33.5t8.5 -41z" />
    <glyph glyph-name="uni0374" unicode="&#x374;" horiz-adv-x="438" 
d="M329 1516q32 -157 -7 -304.5t-157 -272.5l-66 42q-20 13 -21.5 30t7.5 30q27 38 48.5 73.5t31 72.5t4.5 76t-31 83v112q0 25 13.5 41.5t43.5 16.5h134z" />
    <glyph glyph-name="uni0375" unicode="&#x375;" horiz-adv-x="438" 
d="M329 354q32 -157 -7 -304.5t-157 -272.5l-66 42q-20 13 -21.5 30t7.5 30q27 38 48.5 73.5t31 72.5t4.5 76t-31 83v112q0 25 13.5 41.5t43.5 16.5h134z" />
    <glyph glyph-name="afii10018" unicode="&#x411;" horiz-adv-x="1250" 
d="M660 185q79 0 133.5 17.5t88.5 49t49.5 74t15.5 92.5q0 54 -15 97t-49 72.5t-88.5 45.5t-133.5 16h-256v-464h255zM661 834q136 0 233.5 -30t160.5 -82.5t92.5 -124.5t29.5 -155q0 -101 -34.5 -182.5t-100.5 -139.5t-162.5 -89t-219.5 -31h-489v1440h956v-183h-722v-423
h256z" />
    <glyph glyph-name="afii10020" unicode="&#x413;" horiz-adv-x="1079" 
d="M1049 1257h-643v-1257h-235v1440h878v-183z" />
    <glyph glyph-name="afii10050" unicode="&#x490;" horiz-adv-x="1079" 
d="M1049 1257h-643v-1257h-235v1440h698v322h180v-505z" />
    <glyph glyph-name="afii10021" unicode="&#x414;" horiz-adv-x="1595" 
d="M1084 183v1074h-432q-12 -227 -33 -400.5t-49.5 -303t-63 -220t-74.5 -150.5h652zM1548 183v-461q0 -30 -20.5 -49t-53.5 -19h-140v346h-1106v-278q0 -30 -20.5 -49t-53.5 -19h-140v529h152q29 15 58.5 48t56.5 94t51.5 154t44.5 227.5t34 315.5t21 418h887v-1257h229z
" />
    <glyph glyph-name="afii10024" unicode="&#x416;" horiz-adv-x="2108" 
d="M2098 0h-155q-51 0 -87.5 22.5t-58.5 60.5l-328 482q-27 43 -61 61.5t-85 18.5h-160v-645h-219v645h-159q-51 0 -85 -18.5t-61 -61.5l-328 -482q-22 -38 -58.5 -60.5t-87.5 -22.5h-156l401 616q33 57 72.5 91t90.5 51q-43 17 -73.5 45.5t-59.5 71.5l-394 565h184
q35 0 66 -18t49 -50l326 -475q29 -44 62 -58.5t76 -14.5h135v616h219v-616h136q43 0 76 14.5t62 58.5l325 475q19 32 49.5 50t66.5 18h183l-393 -565q-29 -43 -59.5 -71.5t-74.5 -45.5q51 -17 91 -51t73 -91z" />
    <glyph glyph-name="afii10025" unicode="&#x417;" horiz-adv-x="1157" 
d="M88 1305q83 72 194.5 111t250.5 39q114 0 205.5 -27.5t156 -77t99 -118t34.5 -150.5q0 -104 -49.5 -186.5t-144.5 -131.5q52 -24 95 -57t73.5 -73.5t47.5 -88t17 -100.5q0 -96 -35.5 -179.5t-104 -146t-167.5 -98t-226 -35.5q-76 0 -147.5 13.5t-135 38t-119 59.5
t-100.5 78l68 112q9 14 23 22t31 8q16 0 34 -10t41.5 -25.5l52.5 -33t67 -33t85 -25.5t106 -10q147 0 227.5 65t80.5 190q0 52 -21 94.5t-60 72.5t-94.5 46.5t-124.5 15.5h-200l-1 191h187q62 0 113 14t87 40.5t55.5 65t19.5 88.5q0 45 -18.5 81.5t-53.5 62.5t-87 40.5
t-118 14.5q-77 0 -131 -16.5t-93 -36t-65 -35.5t-45 -16q-18 0 -29.5 8.5t-22.5 26.5z" />
    <glyph glyph-name="afii10026" unicode="&#x418;" horiz-adv-x="1535" 
d="M1363 1440v-1440h-234v956q0 48 2.5 100t10.5 112q-19 -52 -40.5 -96.5t-42.5 -78.5l-610 -920q-8 -13 -18.5 -26t-24 -23.5t-28.5 -17t-32 -6.5h-175v1440h235v-955q0 -48 -2.5 -100.5t-10.5 -110.5q19 51 40.5 95.5t41.5 77.5l610 920q8 13 18.5 26t24 23.5t28.5 17
t32 6.5h175z" />
    <glyph glyph-name="afii10028" unicode="&#x41a;" horiz-adv-x="1368" 
d="M1359 0h-211q-34 0 -57 18t-43 53l-341 503q-13 20 -26 33.5t-29 22t-36 12t-45 3.5h-166v-645h-234v1440h234v-616h141q44 0 74 14t59 54l345 484q17 28 41.5 46t58.5 18h198l-412 -584q-25 -37 -57 -61t-71 -38q56 -15 95.5 -49t74.5 -94z" />
    <glyph glyph-name="afii10029" unicode="&#x41b;" horiz-adv-x="1470" 
d="M1299 0h-235v1257h-432q-14 -273 -39 -474t-59.5 -342t-78 -230t-96 -139t-112.5 -68t-127 -18q-126 0 -126 45v148h74q37 0 74.5 13.5t72.5 57.5t67 127.5t58 223.5t44.5 345.5t27.5 493.5h887v-1440z" />
    <glyph glyph-name="afii10058" unicode="&#x409;" horiz-adv-x="2121" 
d="M1554 185q79 0 133.5 17.5t88.5 49t49.5 74t15.5 92.5q0 54 -15 97t-49 72.5t-88.5 45.5t-133.5 16h-256v-464h255zM1555 834q136 0 234 -30t161 -82.5t92.5 -124.5t29.5 -155q0 -101 -34.5 -182.5t-101 -139.5t-163 -89t-219.5 -31h-490v1257h-432q-14 -273 -39 -474
t-59.5 -342t-78 -230t-96 -139t-112.5 -68t-127 -18q-126 0 -126 45v148h74q37 0 74.5 13.5t72.5 57.5t67 127.5t58 223.5t44.5 345.5t27.5 493.5h887v-606h256z" />
    <glyph glyph-name="afii10059" unicode="&#x40a;" horiz-adv-x="2185" 
d="M1619 185q79 0 133.5 17.5t88.5 49t49 74t15 92.5q0 54 -15 97t-49 72.5t-88.5 45.5t-133.5 16h-256v-464h256zM1619 834q136 0 234 -30t161 -82.5t92.5 -124.5t29.5 -155q0 -101 -34.5 -182.5t-101 -139.5t-162.5 -89t-219 -31h-490v641h-723v-641h-235v1440h235v-630
h723v630h234v-606h256z" />
    <glyph glyph-name="afii10147" unicode="&#x472;" horiz-adv-x="1609" 
d="M325 644q10 -108 48 -192.5t100 -143.5t145.5 -90t185.5 -31t185.5 31t145 90t99.5 143.5t48 192.5h-957zM1279 820q-13 102 -51.5 182.5t-99.5 136.5t-143 85.5t-181 29.5t-180.5 -29.5t-143 -85.5t-100.5 -136.5t-52 -182.5h951zM804 1456q162 0 294.5 -55t227 -153
t146.5 -233t52 -295t-52 -295t-146.5 -232.5t-227 -152.5t-294.5 -55q-161 0 -293.5 55t-227.5 152.5t-147 232.5t-52 295t52 295t147 233t227.5 153t293.5 55z" />
    <glyph glyph-name="afii10033" unicode="&#x41f;" horiz-adv-x="1481" 
d="M1310 0h-235v1257h-669v-1257h-235v1440h1139v-1440z" />
    <glyph glyph-name="afii10037" unicode="&#x423;" horiz-adv-x="1271" 
d="M1281 1440l-583 -1245q-29 -62 -62.5 -102.5t-72 -64t-82.5 -33t-95 -9.5q-125 0 -125 45v148h73q24 0 48 5t46.5 17.5t43.5 35t39 58.5l63 130l-578 1015h219q30 0 48 -15t31 -38l316 -584q41 -77 67 -162q11 42 26.5 82t34.5 81l272 583q9 20 29 36.5t49 16.5h193z" />
    <glyph glyph-name="afii10148" unicode="&#x474;" horiz-adv-x="1412" 
d="M1004 1240q34 106 104 157t179 51q62 0 84 -10.5t22 -34.5v-147h-54q-91 0 -130 -104l-421 -1152h-210l-584 1440h187q31 0 50 -15.5t28 -38.5l371 -939q15 -39 29.5 -85.5t26.5 -97.5q11 51 23.5 97.5t27.5 85.5z" />
    <glyph glyph-name="afii10038" unicode="&#x424;" horiz-adv-x="1588" 
d="M905 356q85 1 155.5 33t121 86t78 125.5t27.5 153.5q0 81 -27.5 153t-78 126t-121 85.5t-155.5 33.5v-796zM684 1152q-86 -2 -156.5 -33.5t-120.5 -85.5t-77.5 -126t-27.5 -153q0 -82 27.5 -153.5t77.5 -125.5t120.5 -86t156.5 -33v796zM905 1334q90 -3 171 -25t149 -60
t122.5 -91t92.5 -116.5t58.5 -136.5t20.5 -151q0 -118 -45 -222t-126 -182.5t-194 -125.5t-249 -51v-173h-221v173q-136 4 -249.5 51t-195 125.5t-126.5 182.5t-45 222t45.5 222t127.5 182t195 125t248 51v169h221v-169z" />
    <glyph glyph-name="afii10040" unicode="&#x426;" horiz-adv-x="1575" 
d="M1523 183v-461q0 -30 -21 -49t-54 -19h-139v346h-1138v1440h235v-1257h669v1257h235v-1257h213z" />
    <glyph glyph-name="afii10145" unicode="&#x40f;" horiz-adv-x="1481" 
d="M1310 1440v-1440h-463v-278q0 -30 -20.5 -49t-53.5 -19h-140v346h-462v1440h235v-1257h669v1257h235z" />
    <glyph glyph-name="afii10041" unicode="&#x427;" horiz-adv-x="1338" 
d="M1167 1440v-1440h-235v598q-116 -30 -224 -45.5t-202 -12.5t-171.5 27.5t-133 75.5t-86 130.5t-30.5 193.5v473h234v-473q0 -91 34 -149t108 -83t190.5 -17t280.5 49v673h235z" />
    <glyph glyph-name="afii10042" unicode="&#x428;" horiz-adv-x="2162" 
d="M1991 1440v-1440h-1820v1440h235v-1257h556v1257h235v-1257h559v1257h235z" />
    <glyph glyph-name="afii10043" unicode="&#x429;" horiz-adv-x="2256" 
d="M2203 183v-461q0 -30 -20.5 -49t-53.5 -19h-140v346h-1818v1440h235v-1257h556v1257h235v-1257h559v1257h235v-1257h212z" />
    <glyph glyph-name="afii10044" unicode="&#x42a;" horiz-adv-x="1494" 
d="M928 185q79 0 133.5 17.5t88.5 49t49.5 74t15.5 92.5q0 54 -15 97t-49 72.5t-88.5 45.5t-133.5 16h-256v-464h255zM929 834q136 0 233.5 -30t160.5 -82.5t92.5 -124.5t29.5 -155q0 -101 -34.5 -182.5t-100.5 -139.5t-162.5 -89t-219.5 -31h-489v1251h-410v189h644v-606
h256z" />
    <glyph glyph-name="afii10045" unicode="&#x42b;" horiz-adv-x="1819" 
d="M660 185q79 0 133.5 17.5t88.5 49t49.5 74t15.5 92.5q0 54 -15 97t-49 72.5t-88.5 45.5t-133.5 16h-256v-464h255zM661 834q136 0 233.5 -30t160.5 -82.5t92.5 -124.5t29.5 -155q0 -101 -34.5 -182.5t-100.5 -139.5t-162.5 -89t-219.5 -31h-489v1440h234v-606h256z
M1648 0h-235v1440h235v-1440z" />
    <glyph glyph-name="afii10046" unicode="&#x42c;" horiz-adv-x="1227" 
d="M660 185q79 0 133.5 17.5t88.5 49t49.5 74t15.5 92.5q0 54 -15 97t-49 72.5t-88.5 45.5t-133.5 16h-256v-464h255zM661 834q136 0 233.5 -30t160.5 -82.5t92.5 -124.5t29.5 -155q0 -101 -34.5 -182.5t-100.5 -139.5t-162.5 -89t-219.5 -31h-489v1440h234v-606h256z" />
    <glyph glyph-name="afii10047" unicode="&#x42d;" horiz-adv-x="1343" 
d="M67 1271q88 84 207.5 134.5t275.5 50.5q157 0 287.5 -54t224 -151.5t145 -233t51.5 -297.5t-49 -297t-139 -232.5t-217.5 -152t-284.5 -54.5q-179 0 -306 57.5t-215 163.5l92 101q14 15 34 15q19 0 39 -18q35 -32 70.5 -54t76 -36.5t88 -21t106.5 -6.5q90 0 170 30.5
t141.5 89.5t101 144t50.5 195h-695v176h693q-13 103 -52.5 184t-99.5 136.5t-139 84.5t-172 29q-89 0 -148 -18.5t-99 -41t-65 -41t-46 -18.5q-19 0 -29.5 8t-18.5 19z" />
    <glyph glyph-name="afii10053" unicode="&#x404;" horiz-adv-x="1344" 
d="M1171 321q19 0 33 -15l93 -101q-88 -106 -216 -163.5t-306 -57.5q-158 0 -285.5 54.5t-217.5 152t-138.5 232.5t-48.5 297t51.5 297.5t145 233t224 151.5t287.5 54q156 0 275.5 -50.5t207.5 -134.5l-77 -109q-8 -11 -19 -19t-30 -8q-20 0 -45.5 18.5t-65 41t-99 41
t-148.5 18.5q-93 0 -171.5 -29t-139 -84.5t-99.5 -136.5t-52 -184h692v-176h-695q11 -110 50.5 -195t101 -144t141.5 -89.5t170 -30.5q60 0 107.5 6.5t87.5 21t75.5 36.5t70.5 54q20 18 40 18z" />
    <glyph glyph-name="afii10048" unicode="&#x42e;" horiz-adv-x="2112" 
d="M1355 181q100 0 180 37.5t135.5 107t85.5 169.5t30 225q0 124 -30 224.5t-85.5 170.5t-135.5 108t-180 38t-179.5 -38t-135.5 -108t-86 -170.5t-30 -224.5q0 -125 30 -225t86 -169.5t135.5 -107t179.5 -37.5zM690 810q13 142 65 261t138.5 204.5t203 133t258.5 47.5
q153 0 277 -55t211 -153t134.5 -233t47.5 -295t-47.5 -295t-134.5 -232.5t-211 -152.5t-277 -55q-141 0 -257.5 47t-202.5 132t-139 203t-66 260h-284v-627h-235v1440h235v-630h284z" />
    <glyph glyph-name="afii10049" unicode="&#x42f;" horiz-adv-x="1345" 
d="M940 791v464h-262q-79 0 -133.5 -17t-88.5 -48t-49.5 -73t-15.5 -92q0 -54 15.5 -97.5t49.5 -73.5t88.5 -46.5t133.5 -16.5h262zM1174 0h-234v606h-170q-26 0 -48.5 -4.5t-44 -15.5t-42 -31.5t-41.5 -51.5l-282 -420q-22 -38 -58 -60.5t-87 -22.5h-176l350 515
q60 91 147 131q-83 19 -144.5 54t-102 84t-60.5 109.5t-20 129.5q0 93 34.5 169.5t101 131.5t162.5 85.5t219 30.5h496v-1440z" />
    <glyph glyph-name="afii10051" unicode="&#x402;" horiz-adv-x="1492" 
d="M940 834q136 0 234 -30t161 -82.5t92.5 -124.5t29.5 -155q0 -101 -34.5 -182.5t-101 -139.5t-163 -89t-219.5 -31h-91v185h91q79 0 133.5 17.5t88.5 49t49.5 74t15.5 92.5q0 54 -15 97t-49 72.5t-88.5 45.5t-133.5 16h-289v-649h-234v1252h-390v188h1059v-188h-435v-418
h289z" />
    <glyph glyph-name="afii10060" unicode="&#x40b;" horiz-adv-x="1505" 
d="M651 827q114 29 216 44t188 11.5t155.5 -28t117.5 -75.5t74 -131t26 -193v-456h-235v457q0 90 -25.5 148t-88 83.5t-167 18t-261.5 -47.5v-658h-234v1252h-390v188h1059v-188h-435v-425z" />
    <glyph glyph-name="afii10146" unicode="&#x462;" horiz-adv-x="1461" 
d="M893 185q79 0 133.5 17.5t88.5 49t49.5 74t15.5 92.5q0 54 -15 97t-49 72.5t-88.5 45.5t-133.5 16h-256v-464h255zM894 834q136 0 233.5 -30t160.5 -82.5t92.5 -124.5t29.5 -155q0 -101 -34.5 -182.5t-100.5 -139.5t-162.5 -89t-219.5 -31h-489v1056h-355v174h355v210
h234v-210h434v-174h-434v-222h256z" />
    <glyph glyph-name="afii10066" unicode="&#x431;" horiz-adv-x="1176" 
d="M601 144q139 0 208 87.5t69 252.5q0 163 -67 251.5t-203 88.5q-134 0 -207.5 -82t-73.5 -240q0 -172 68.5 -265t205.5 -93zM672 1229q-97 -7 -166.5 -40t-115 -89t-69 -134t-27.5 -174q50 87 145 139t222 52q102 0 183 -36t137.5 -101t87 -157t30.5 -204
q0 -114 -35.5 -206.5t-100.5 -158t-157 -100.5t-205 -35q-107 0 -198 35.5t-158 115t-104.5 208.5t-37.5 316q0 158 29 292t94 234.5t170.5 162t257.5 73.5l363 30l12 -112q4 -37 -10.5 -62t-50.5 -27z" />
    <glyph glyph-name="afii10066.salt" horiz-adv-x="1111" 
d="M563 151q57 0 105.5 20t83.5 60t55 99.5t20 139.5q0 74 -24 129.5t-64.5 97.5t-92.5 74t-109 59q-49 -20 -93 -50.5t-77.5 -73.5t-53 -100t-19.5 -130q0 -66 15.5 -125.5t48 -103.5t83.5 -70t122 -26zM482 1236q-71 0 -98.5 -22.5t-27.5 -55.5t29.5 -60t77.5 -53
t109.5 -53t126 -60.5t126 -75.5t109.5 -97t77.5 -126t29.5 -163q0 -112 -36 -201.5t-101 -152t-155.5 -96t-200.5 -33.5q-116 0 -204.5 36t-148.5 99.5t-91 151.5t-31 192q0 161 82 267.5t231 168.5q-46 23 -86.5 49.5t-71 59t-48 73.5t-17.5 94q0 51 22 98.5t66 84
t108.5 58t150.5 21.5h451v-139q0 -33 -18 -49t-49 -16h-412z" />
    <glyph glyph-name="afii10067" unicode="&#x432;" horiz-adv-x="999" 
d="M536 149q88 0 139.5 42.5t51.5 114.5q0 31 -9 58t-31 46.5t-58.5 30.5t-91.5 11h-201v-303h200zM336 878v-291h177q40 0 73.5 11.5t58 32t38 49t13.5 63.5q0 25 -9 49.5t-30.5 43.5t-56.5 30.5t-87 11.5h-177zM520 1020q95 0 164 -18.5t113.5 -51.5t65.5 -78t21 -97
q0 -33 -9 -69t-31 -68.5t-59.5 -59.5t-95.5 -42q109 -20 172.5 -79.5t63.5 -158.5q0 -76 -31 -132t-84.5 -93t-124 -55t-148.5 -18h-406v1020h389z" />
    <glyph glyph-name="afii10068" unicode="&#x433;" horiz-adv-x="834" 
d="M808 858h-462v-858h-215v1020h677v-162z" />
    <glyph glyph-name="afii10098" unicode="&#x491;" horiz-adv-x="834" 
d="M808 1268v-410h-462v-858h-215v1020h483v248h194z" />
    <glyph glyph-name="afii10069" unicode="&#x434;" horiz-adv-x="1253" 
d="M822 155v698h-286q-9 -140 -25.5 -251t-38 -196.5t-47.5 -147t-54 -103.5h451zM1217 162v-443q0 -30 -17.5 -47.5t-44.5 -17.5h-133v346h-807v-285q0 -23 -14.5 -42t-44.5 -19h-136v501h31q35 0 69 10.5t65 42.5t59 90.5t50.5 154.5t39.5 235t27 332h669v-858h187z" />
    <glyph glyph-name="afii10072" unicode="&#x436;" horiz-adv-x="1607" 
d="M1586 0h-148q-57 0 -87.5 18t-47.5 57l-173 298q-21 38 -55 56t-77 18h-91v-448h-208v448h-90q-44 0 -77.5 -18t-55.5 -56l-173 -298q-17 -39 -47.5 -57t-87.5 -18h-148l252 421q26 45 58.5 73.5t81.5 42.5q-37 14 -63.5 38t-50.5 62l-251 383h169q30 0 55 -16t39 -42
l194 -306q20 -33 48 -49t70 -16h77v430h208v-430h74q83 0 121 65l194 306q14 26 39.5 42t55.5 16h168l-251 -383q-24 -38 -50 -62t-63 -38q49 -14 81 -42.5t58 -73.5z" />
    <glyph glyph-name="afii10073" unicode="&#x437;" horiz-adv-x="899" 
d="M69 912q58 55 142 89.5t201 34.5q94 0 166 -22.5t121 -60t74.5 -86.5t25.5 -102q0 -30 -9 -61.5t-29.5 -61.5t-54 -56t-82.5 -43q91 -30 144 -92.5t53 -155.5q0 -73 -33.5 -130.5t-89 -97.5t-128 -61t-150.5 -21q-47 0 -97.5 8.5t-100 28t-95.5 50.5t-83 76l62 79
q12 20 40 20q20 0 41 -15t49.5 -33t69 -33t100.5 -15q50 0 89 12t66 34t41 51.5t14 64.5q0 68 -55.5 107.5t-174.5 39.5h-115v142h115q104 0 161 38t57 99q0 55 -49.5 93t-148.5 38q-56 0 -95.5 -11.5t-66.5 -25t-45.5 -24.5t-32.5 -11q-15 0 -25.5 6t-22.5 25z" />
    <glyph glyph-name="afii10074" unicode="&#x438;" horiz-adv-x="1159" 
d="M1028 1020v-1020h-215v639q0 21 2 46t6 51q-10 -22 -19.5 -40.5t-20.5 -33.5l-443 -609q-12 -19 -32 -36.5t-45 -17.5h-130v1021h215v-639q0 -21 -2.5 -47t-6.5 -52q20 46 41 76l443 608q12 20 32 37t45 17h130z" />
    <glyph glyph-name="afii10076" unicode="&#x43a;" horiz-adv-x="1062" 
d="M745 962q16 26 43.5 42t57.5 16h168l-251 -383q-24 -39 -50 -63t-64 -37q49 -14 81.5 -42.5t58.5 -73.5l253 -421h-148q-57 0 -88.5 19t-53.5 56l-173 298q-21 38 -55 56t-77 18h-101v-448h-215v1021h215v-429h87q42 0 70 16t48 49z" />
    <glyph glyph-name="afii10077" unicode="&#x43b;" horiz-adv-x="1184" 
d="M1053 0h-215v853h-284q-12 -191 -36.5 -329.5t-58.5 -234.5t-76 -155.5t-89 -92.5t-96.5 -44t-99.5 -11q-97 0 -97 32v135h56q33 0 67.5 11t66.5 43.5t61.5 91.5t54 155.5t42.5 235t28 330.5h676v-1020z" />
    <glyph glyph-name="afii10106" unicode="&#x459;" horiz-adv-x="1681" 
d="M1253 156q47 0 82.5 12.5t59 34t35 51.5t11.5 66q0 32 -10.5 60.5t-33 50t-58.5 34t-88 12.5h-198v-321h200zM1250 632q106 0 179 -25.5t118 -68.5t65 -99.5t20 -117.5q0 -71 -25 -129.5t-73.5 -101.5t-119 -66.5t-161.5 -23.5h-415v853h-284q-12 -191 -36.5 -329.5
t-58.5 -234.5t-76 -155.5t-89 -92.5t-96.5 -44t-99.5 -11q-97 0 -97 32v135h56q33 0 67.5 11t66.5 43.5t61.5 91.5t54 155.5t42.5 235t28 330.5h676v-388h197z" />
    <glyph glyph-name="afii10078" unicode="&#x43c;" horiz-adv-x="1423" 
d="M1291 1023v-1023h-193v617q0 32 4 72.5t10 75.5l-325 -584q-10 -18 -26 -28.5t-36 -10.5h-23q-20 0 -35.5 10.5t-25.5 28.5l-331 587q6 -35 10.5 -76.5t4.5 -74.5v-617h-194v1023h176q22 0 43.5 -10t37.5 -39l277 -474q14 -26 25.5 -56l22.5 -60l23 60t26 56l273 474
q15 30 37 39.5t44 9.5h175z" />
    <glyph glyph-name="afii10079" unicode="&#x43d;" horiz-adv-x="1133" 
d="M1001 1020v-1020h-214v463h-441v-463h-215v1020h215v-395h441v395h214z" />
    <glyph glyph-name="afii10107" unicode="&#x45a;" horiz-adv-x="1630" 
d="M1201 156q47 0 82.5 12.5t59 34t35 51.5t11.5 66q0 32 -10.5 60.5t-33 50t-58.5 34t-88 12.5h-198v-321h200zM1199 632q106 0 179 -25.5t118 -68.5t64.5 -99.5t19.5 -117.5q0 -71 -25 -129.5t-73 -101.5t-118.5 -66.5t-161.5 -23.5h-415v463h-441v-463h-215v1020h215
v-395h441v395h214v-388h198z" />
    <glyph glyph-name="afii10195" unicode="&#x473;" horiz-adv-x="1142" 
d="M286 445q13 -146 85.5 -222.5t200.5 -76.5q125 0 197.5 76.5t86.5 222.5h-570zM855 587q-16 141 -88 214.5t-195 73.5q-125 0 -197 -73.5t-88 -214.5h568zM572 1036q113 0 204.5 -37t156 -105t99.5 -165t35 -218t-35 -218t-99.5 -165.5t-156 -105.5t-204.5 -37
q-114 0 -205.5 37t-156.5 105.5t-100 165.5t-35 218t35 218t100 165t156.5 105t205.5 37z" />
    <glyph glyph-name="afii10081" unicode="&#x43f;" horiz-adv-x="1133" 
d="M1001 0h-214v858h-441v-858h-215v1020h870v-1020z" />
    <glyph glyph-name="afii10084" unicode="&#x442;" horiz-adv-x="1019" 
d="M993 858h-376v-858h-215v858h-377v162h968v-162z" />
    <glyph glyph-name="afii10196" unicode="&#x475;" horiz-adv-x="1090" 
d="M725 841q18 60 42.5 97.5t53.5 58.5t64 28.5t74 7.5q30 0 49 -3.5t30 -8.5t15 -11t4 -10v-119h-30q-42 0 -71 -18t-45 -59l-296 -804h-194l-408 1020h177q24 0 41 -12.5t22 -29.5l224 -594q15 -45 26 -87t19 -85q9 42 20 84.5t24 87.5z" />
    <glyph glyph-name="afii10086" unicode="&#x444;" horiz-adv-x="1437" 
d="M813 147q163 11 250.5 105t87.5 258t-87.5 258.5t-250.5 105.5v-727zM625 874q-163 -11 -250.5 -105.5t-87.5 -258.5t87.5 -258t250.5 -105v727zM819 1035q124 -6 225 -45t172 -107t110 -162t39 -210t-39 -210t-110 -162t-172 -107.5t-225 -45.5v-332h-201v332
q-124 6 -225 45.5t-172 107.5t-110 162t-39 210q0 115 39 209t110 162t172 107.5t225 45.5v405h201v-405z" />
    <glyph glyph-name="afii10088" unicode="&#x446;" horiz-adv-x="1224" 
d="M1188 162v-443q0 -30 -17 -47.5t-44 -17.5h-133v346h-863v1020h215v-858h441v858h214v-858h187z" />
    <glyph glyph-name="afii10193" unicode="&#x45f;" horiz-adv-x="1133" 
d="M1001 1020v-1020h-337v-281q0 -30 -17.5 -47.5t-44.5 -17.5h-133v346h-338v1020h215v-858h441v858h214z" />
    <glyph glyph-name="afii10089" unicode="&#x447;" horiz-adv-x="1043" 
d="M911 1020v-1020h-214v415q-131 -33 -244.5 -39.5t-197.5 22.5t-132 98t-48 186v338h214v-305q0 -67 25 -107.5t75.5 -57t127 -11.5t180.5 28v453h214z" />
    <glyph glyph-name="afii10090" unicode="&#x448;" horiz-adv-x="1655" 
d="M1523 1020v-1020h-1392v1020h215v-858h374v858h215v-858h374v858h214z" />
    <glyph glyph-name="afii10091" unicode="&#x449;" horiz-adv-x="1747" 
d="M1711 162v-443q0 -30 -17.5 -47.5t-44.5 -17.5h-133v346h-1385v1020h215v-858h374v858h215v-858h374v858h214v-1020h1v162h187z" />
    <glyph glyph-name="afii10092" unicode="&#x44a;" horiz-adv-x="1178" 
d="M750 156q47 0 82.5 12.5t59 34t35 51.5t11.5 66q0 32 -10.5 60.5t-33 50t-58.5 34t-88 12.5h-199v-321h201zM747 632q106 0 179 -25.5t118 -68.5t65 -99.5t20 -117.5q0 -71 -25 -129.5t-73.5 -101.5t-119 -66.5t-161.5 -23.5h-405v855h-318v165h522v-388h198z" />
    <glyph glyph-name="afii10093" unicode="&#x44b;" horiz-adv-x="1464" 
d="M536 156q47 0 82.5 12.5t59 34t35 51.5t11.5 66q0 32 -10.5 60.5t-33 50t-58.5 34t-88 12.5h-199v-321h201zM533 632q106 0 179 -25.5t118 -68.5t65 -99.5t20 -117.5q0 -71 -25 -129.5t-73.5 -101.5t-119 -66.5t-161.5 -23.5h-405v1020h204v-388h198zM1333 1020v-1020
h-215v1020h215z" />
    <glyph glyph-name="afii10094" unicode="&#x44c;" horiz-adv-x="964" 
d="M536 156q47 0 82.5 12.5t59 34t35 51.5t11.5 66q0 32 -10.5 60.5t-33 50t-58.5 34t-88 12.5h-198v-321h200zM533 632q106 0 179 -25.5t118 -68.5t65 -99.5t20 -117.5q0 -71 -25 -129.5t-73.5 -101.5t-119 -66.5t-161.5 -23.5h-405v1020h205v-388h197z" />
    <glyph glyph-name="afii10095" unicode="&#x44d;" horiz-adv-x="970" 
d="M61 898q66 66 150.5 102t195.5 36q118 0 209 -39.5t153 -109.5t94 -166.5t32 -209.5q0 -125 -35.5 -222.5t-97 -165t-144.5 -103t-178 -35.5q-54 0 -108 8.5t-104.5 28t-95.5 50.5t-82 76l58 72q15 21 40 21q21 0 39.5 -14t45.5 -31t67 -31t102 -14q57 0 104.5 19.5
t83.5 57t59 93t30 126.5h-457v148h455q-18 130 -90 202.5t-193 72.5q-54 0 -90.5 -11t-63 -24t-45 -24t-35.5 -11t-26 7t-19 19z" />
    <glyph glyph-name="afii10101" unicode="&#x454;" horiz-adv-x="970" 
d="M855 826q-10 -12 -19.5 -19t-26.5 -7t-35.5 11t-44.5 24t-62.5 24t-90.5 11q-121 0 -193 -72.5t-90 -202.5h455v-148h-457q7 -71 30 -126.5t59 -93t83.5 -57t104.5 -19.5q62 0 101.5 14t66.5 31t46 31t39 14q27 0 40 -21l58 -72q-37 -45 -82 -76t-95 -50.5t-104 -28
t-109 -8.5q-95 0 -177.5 35.5t-144 103t-97 165t-35.5 222.5q0 113 32 209.5t93.5 166.5t152.5 109.5t210 39.5q111 0 195.5 -36t150.5 -102z" />
    <glyph glyph-name="afii10096" unicode="&#x44e;" horiz-adv-x="1586" 
d="M1035 153q129 0 191.5 92.5t62.5 264.5t-62.5 265.5t-191.5 93.5q-130 0 -192.5 -93.5t-62.5 -265.5t62.5 -264.5t192.5 -92.5zM569 594q11 102 48 184t97 139.5t141 88t180 30.5q109 0 197 -37t150 -105t95.5 -165t33.5 -218t-34.5 -218t-97.5 -165.5t-150.5 -105.5
t-193.5 -37q-102 0 -184.5 31.5t-142.5 90.5t-95.5 143t-44.5 189h-222v-439h-215v1020h215v-426h223z" />
    <glyph glyph-name="afii10097" unicode="&#x44f;" horiz-adv-x="1001" 
d="M665 554v324h-151q-52 0 -87 -15t-56 -38.5t-30 -52.5t-9 -57q0 -75 53.5 -118t144.5 -43h135zM870 1020v-1020h-205v418h-59q-29 0 -48 -5t-32.5 -14t-24 -22t-20.5 -29l-191 -273q-21 -38 -49.5 -56.5t-85.5 -18.5h-148l275 371q38 66 106 90q-74 11 -126 38t-84 63
t-46.5 78.5t-14.5 84.5q0 55 21.5 108t68.5 94.5t121.5 67t179.5 25.5h362z" />
    <glyph glyph-name="afii10099" unicode="&#x452;" horiz-adv-x="1113" 
d="M345 809q62 62 138 100t175 38q184 0 273 -117.5t89 -338.5q0 -217 -65.5 -424.5t-182.5 -395.5l-172 68q49 88 87 176t64.5 180t40 190t13.5 206q0 75 -15 129.5t-42.5 89t-66.5 51t-87 16.5q-71 0 -133 -33t-116 -90v-654h-214v1088h-172v165h172v227h214v-227h334
v-165h-334v-279z" />
    <glyph glyph-name="afii10194" unicode="&#x463;" horiz-adv-x="1132" 
d="M711 156q47 0 82.5 12.5t59 34t35 51.5t11.5 66q0 32 -10.5 60.5t-33 50t-58.5 34t-88 12.5h-218v-321h220zM709 632q106 0 179 -25.5t118 -68.5t64.5 -99.5t19.5 -117.5q0 -71 -25 -129.5t-73 -101.5t-118.5 -66.5t-161.5 -23.5h-425v854h-258v165h258v275h204v-275h318
v-165h-318v-222h218z" />
    <glyph glyph-name="glyph305" 
d="M400 1274q39 0 65.5 8.5t42.5 28t23 51t7 78.5h126q23 0 34 -19.5t11 -42.5q0 -51 -21.5 -91.5t-61.5 -69t-97.5 -44t-128.5 -15.5t-128.5 15.5t-97.5 44t-61.5 69t-21.5 91.5q0 23 11 42.5t34 19.5h126q0 -47 7 -78.5t23 -51t42.5 -28t65.5 -8.5z" />
    <glyph glyph-name="glyph306" 
d="M399 1237q26 0 43 5t26.5 17.5t13.5 33.5t4 53h112q20 0 29.5 -17.5t9.5 -37.5q0 -36 -17 -65t-48.5 -49.5t-75.5 -31.5t-97 -11t-96.5 11t-74.5 31.5t-48 49.5t-17 65q0 20 9.5 37.5t28.5 17.5h112q0 -32 4 -53t13.5 -33.5t26 -17.5t42.5 -5z" />
    <glyph glyph-name="glyph307" 
d="M400 1639q39 0 65.5 8t42.5 26.5t23 49.5t7 78h126q23 0 34 -20t11 -43q0 -50 -21.5 -89t-61.5 -65.5t-97.5 -40t-128.5 -13.5t-128.5 13.5t-97.5 40t-61.5 65.5t-21.5 89q0 23 11 43t34 20h126q0 -47 7 -78t23 -49.5t42.5 -26.5t65.5 -8z" />
    <glyph glyph-name="exclam" unicode="!" horiz-adv-x="551" 
d="M378 1440v-572q0 -90 -8 -176.5t-21 -186.5h-145q-14 100 -21.5 186.5t-7.5 176.5v572h203zM134 124q0 29 10.5 54.5t29.5 44.5t44 30t55 11q29 0 54.5 -11t44 -30t29.5 -44.5t11 -54.5q0 -30 -11 -55t-29.5 -44t-44 -29.5t-54.5 -10.5q-30 0 -55 10.5t-44 29.5t-29.5 44
t-10.5 55z" />
    <glyph glyph-name="question" unicode="?" horiz-adv-x="908" 
d="M76 1311q33 30 72 56t84.5 46t99 31.5t115.5 11.5q83 0 152.5 -23.5t120 -67t78.5 -105t28 -137.5t-22 -131.5t-56 -96.5t-74 -71.5l-75.5 -57t-61 -53t-30.5 -58.5l-21 -150h-146l-15 165q-5 47 15 81t53.5 64t74 57.5t75.5 61.5t59 76t24 101q0 39 -15 70.5t-42 53.5
t-63 34t-78 12q-59 0 -100 -14t-70 -30.5t-48 -30t-32 -13.5q-31 0 -46 27zM268 124q0 29 10.5 54.5t29 44.5t44 30t54.5 11t54.5 -11t44.5 -30t30 -44.5t11 -54.5q0 -30 -11 -55t-30 -44t-44.5 -29.5t-54.5 -10.5t-54.5 10.5t-44 29.5t-29 44t-10.5 55z" />
    <glyph glyph-name="uni203D" unicode="&#x203d;" horiz-adv-x="997" 
d="M433 264q29 0 54.5 -11t44.5 -30t30 -44.5t11 -54.5q0 -30 -11 -55t-30 -44t-44.5 -29.5t-54.5 -10.5t-54.5 10.5t-44 29.5t-29 44t-10.5 55q0 29 10.5 54.5t29 44.5t44 30t54.5 11zM396 1416q33 12 78 18.5t91 6.5q77 0 142 -19.5t112 -58.5t73.5 -96t26.5 -132
q0 -81 -28 -136t-71 -94t-93.5 -66.5l-95.5 -54t-78 -56.5t-39 -74l-6 -162h-133q-29 72 -56 151.5t-51 157.5l-184 613l198 51l134 -516l13.5 -54t16.5 -77q24 30 53.5 53.5t60 44.5l60 41t52 43t36.5 50t14 63q0 31 -11.5 58.5t-33.5 48.5t-53.5 33t-70.5 12q-26 0 -48 -4
t-30 -4q-24 0 -35.5 8.5t-14.5 27.5z" />
    <glyph glyph-name="comma" unicode="," horiz-adv-x="461" 
d="M227 1q-29 0 -53 10.5t-41.5 29t-27 43.5t-9.5 55q0 26 9.5 49t27 40t42 26.5t53.5 9.5q34 0 60 -12.5t43.5 -34t26 -50t8.5 -60.5q0 -46 -13.5 -97t-40 -101.5t-65 -98.5t-87.5 -88l-37 34q-8 8 -11.5 15t-3.5 18q0 17 17 32l26 29t32 41t29.5 51t19.5 59h-5z" />
    <glyph glyph-name="semicolon" unicode=";" horiz-adv-x="533" 
d="M263 1q-29 0 -53 10.5t-41.5 29t-27 43.5t-9.5 55q0 26 9.5 49t27 40t42 26.5t53.5 9.5q34 0 60 -12.5t43.5 -34t26 -50t8.5 -60.5q0 -46 -13.5 -97t-40 -101.5t-65 -98.5t-87.5 -88l-37 34q-8 8 -11.5 15t-3.5 18q0 17 17 32l26 29t32 41t29.5 51t19.5 59h-5zM126 853
q0 29 10.5 54.5t29 44.5t44 30t54.5 11t54.5 -11t44.5 -30t30 -44.5t11 -54.5q0 -30 -11 -55t-30 -44t-44.5 -29.5t-54.5 -10.5t-54.5 10.5t-44 29.5t-29 44t-10.5 55z" />
    <glyph glyph-name="colon" unicode=":" horiz-adv-x="508" 
d="M115 124q0 29 10.5 54.5t29 44.5t44 30t54.5 11t54.5 -11t44.5 -30t30 -44.5t11 -54.5q0 -30 -11 -55t-30 -44t-44.5 -29.5t-54.5 -10.5t-54.5 10.5t-44 29.5t-29 44t-10.5 55zM115 853q0 29 10.5 54.5t29 44.5t44 30t54.5 11t54.5 -11t44.5 -30t30 -44.5t11 -54.5
q0 -30 -11 -55t-30 -44t-44.5 -29.5t-54.5 -10.5t-54.5 10.5t-44 29.5t-29 44t-10.5 55z" />
    <glyph glyph-name="period" unicode="." horiz-adv-x="473" 
d="M98 124q0 29 10.5 54.5t29 44.5t44 30t54.5 11t54.5 -11t44.5 -30t30 -44.5t11 -54.5q0 -30 -11 -55t-30 -44t-44.5 -29.5t-54.5 -10.5t-54.5 10.5t-44 29.5t-29 44t-10.5 55z" />
    <glyph glyph-name="ellipsis" unicode="&#x2026;" horiz-adv-x="1523" 
d="M98 124q0 29 10.5 54.5t29 44.5t44 30t54.5 11t54.5 -11t44.5 -30t30 -44.5t11 -54.5q0 -30 -11 -55t-30 -44t-44.5 -29.5t-54.5 -10.5t-54.5 10.5t-44 29.5t-29 44t-10.5 55zM1147 124q0 29 10.5 54.5t29 44.5t44 30t54.5 11t54.5 -11t44.5 -30t30 -44.5t11 -54.5
q0 -30 -11 -55t-30 -44t-44.5 -29.5t-54.5 -10.5t-54.5 10.5t-44 29.5t-29 44t-10.5 55zM623 124q0 29 10.5 54.5t29 44.5t44 30t54.5 11t54.5 -11t44.5 -30t30 -44.5t11 -54.5q0 -30 -11 -55t-30 -44t-44.5 -29.5t-54.5 -10.5t-54.5 10.5t-44 29.5t-29 44t-10.5 55z" />
    <glyph glyph-name="quoteleft" unicode="&#x2018;" horiz-adv-x="435" 
d="M164 938q-45 76 -61.5 158.5t-3.5 163t54.5 154t110.5 132.5l67 -41q18 -11 16 -28t-12 -28q-23 -28 -42 -71t-25.5 -95t3.5 -109t43 -112q16 -25 9.5 -44.5t-29.5 -27.5z" />
    <glyph glyph-name="quoteright" unicode="&#x2019;" horiz-adv-x="434" 
d="M278 1536q45 -76 61 -158.5t3 -163t-54.5 -154.5t-110.5 -132l-67 41q-17 11 -15.5 28.5t11.5 27.5q23 28 42 71t25.5 94.5t-3 108.5t-43.5 113q-16 26 -9 45t29 27z" />
    <glyph glyph-name="quotedblleft" unicode="&#x201c;" horiz-adv-x="754" 
d="M164 938q-45 76 -61.5 158.5t-3.5 163t54.5 154t110.5 132.5l67 -41q18 -11 16 -28t-12 -28q-23 -28 -42 -71t-25.5 -95t3.5 -109t43 -112q16 -25 9.5 -44.5t-29.5 -27.5zM483 938q-45 76 -61.5 158.5t-3.5 163t54.5 154t110.5 132.5l67 -41q18 -11 16 -28t-12 -28
q-23 -28 -42 -71t-25.5 -95t3.5 -109t43 -112q16 -25 9.5 -44.5t-29.5 -27.5z" />
    <glyph glyph-name="quotedblright" unicode="&#x201d;" horiz-adv-x="753" 
d="M278 1536q45 -76 61 -158.5t3 -163t-54.5 -154.5t-110.5 -132l-67 41q-17 11 -15.5 28.5t11.5 27.5q23 28 42 71t25.5 94.5t-3 108.5t-43.5 113q-16 26 -9 45t29 27zM597 1536q45 -76 61 -158.5t3 -163t-54.5 -154.5t-110.5 -132l-67 41q-17 11 -15.5 28.5t11.5 27.5
q23 28 42 71t25.5 94.5t-3 108.5t-43.5 113q-16 26 -9 45t29 27z" />
    <glyph glyph-name="quotesinglbase" unicode="&#x201a;" horiz-adv-x="433" 
d="M262 284q45 -76 61 -158.5t3 -163t-54.5 -154.5t-110.5 -132l-67 41q-17 11 -15.5 28.5t11.5 27.5q23 28 42 71t25.5 94.5t-3 108.5t-43.5 113q-16 26 -9 45t29 27z" />
    <glyph glyph-name="quotedblbase" unicode="&#x201e;" horiz-adv-x="752" 
d="M262 284q45 -76 61 -158.5t3 -163t-54.5 -154.5t-110.5 -132l-67 41q-17 11 -15.5 28.5t11.5 27.5q23 28 42 71t25.5 94.5t-3 108.5t-43.5 113q-16 26 -9 45t29 27zM581 284q45 -76 61 -158.5t3 -163t-54.5 -154.5t-110.5 -132l-67 41q-17 11 -15.5 28.5t11.5 27.5
q23 28 42 71t25.5 94.5t-3 108.5t-43.5 113q-16 26 -9 45t29 27z" />
    <glyph glyph-name="guilsinglleft" unicode="&#x2039;" horiz-adv-x="572" 
d="M440 248q15 -27 10 -50.5t-32 -36.5l-70 -34l-253 393v28l253 393l70 -34q27 -13 32 -36t-10 -51l-148 -246q-8 -13 -15.5 -23t-15.5 -17q16 -13 31 -39z" />
    <glyph glyph-name="guilsinglright" unicode="&#x203a;" horiz-adv-x="573" 
d="M478 548v-28l-253 -393l-70 34q-27 13 -32 36.5t10 50.5l148 247q15 26 31 39q-8 7 -15.5 17t-15.5 23l-148 246q-15 28 -10 51t32 36l70 34z" />
    <glyph glyph-name="guillemotleft" unicode="&#xab;" horiz-adv-x="886" 
d="M440 248q15 -27 10 -50.5t-32 -36.5l-70 -34l-253 393v28l253 393l70 -34q27 -13 32 -36t-10 -51l-148 -246q-8 -13 -15.5 -23t-15.5 -17q16 -13 31 -39zM753 248q15 -27 10 -50.5t-32 -36.5l-70 -34l-253 393v28l253 393l70 -34q27 -13 32 -36t-10 -51l-148 -246
q-8 -13 -15.5 -23t-15.5 -17q16 -13 31 -39z" />
    <glyph glyph-name="guillemotright" unicode="&#xbb;" horiz-adv-x="886" 
d="M478 548v-28l-253 -393l-70 34q-27 13 -32 36.5t10 50.5l148 247q15 26 31 39q-8 7 -15.5 17t-15.5 23l-148 246q-15 28 -10 51t32 36l70 34zM791 548v-28l-253 -393l-70 34q-27 13 -32 36.5t10 50.5l148 247q15 26 31 39q-8 7 -15.5 17t-15.5 23l-148 246q-15 28 -10 51
t32 36l70 34z" />
    <glyph glyph-name="slash" unicode="/" horiz-adv-x="919" 
d="M268 -11q-15 -41 -48 -61.5t-67 -20.5h-91l592 1496q14 37 43.5 57t67.5 20h91z" />
    <glyph glyph-name="bar" unicode="|" horiz-adv-x="512" 
d="M173 1541h166v-1887h-166v1887z" />
    <glyph glyph-name="brokenbar" unicode="&#xa6;" horiz-adv-x="518" 
d="M176 1541h166v-802h-166v802zM176 464h166v-803h-166v803z" />
    <glyph glyph-name="backslash" unicode="\" horiz-adv-x="919" 
d="M62 1480h92q38 0 67 -20t43 -57l592 -1496h-90q-35 0 -68 20.5t-48 61.5z" />
    <glyph glyph-name="hyphen" unicode="-" horiz-adv-x="745" 
d="M119 693h507v-182h-507v182z" />
    <glyph glyph-name="hyphen" unicode="&#x2010;" horiz-adv-x="745" 
d="M119 693h507v-182h-507v182z" />
    <glyph glyph-name="hyphen" unicode="&#xad;" horiz-adv-x="745" 
d="M119 693h507v-182h-507v182z" />
    <glyph glyph-name="endash" unicode="&#x2013;" horiz-adv-x="1160" 
d="M177 673h806v-155h-806v155z" />
    <glyph glyph-name="emdash" unicode="&#x2014;" horiz-adv-x="1591" 
d="M124 673h1344v-155h-1344v155z" />
    <glyph glyph-name="underscore" unicode="_" horiz-adv-x="926" 
d="M857 -148v-142h-788v142h788z" />
    <glyph glyph-name="bullet" unicode="&#x2022;" horiz-adv-x="1160" 
d="M175 594q0 84 32 158.5t87 130t128.5 87.5t156.5 32q84 0 158 -32t129 -87.5t87 -130t32 -158.5t-32 -157.5t-87 -128.5t-129 -87t-158 -32q-83 0 -156.5 32t-128.5 87t-87 128.5t-32 157.5z" />
    <glyph glyph-name="periodcentered" unicode="&#xb7;" horiz-adv-x="535" 
d="M98 594q0 36 13.5 67.5t36 54.5t53 36.5t65.5 13.5q36 0 67.5 -13.5t54.5 -36.5t36.5 -54.5t13.5 -67.5q0 -35 -13.5 -65.5t-36.5 -53.5t-54.5 -36.5t-67.5 -13.5q-35 0 -65.5 13.5t-53 36.5t-36 53.5t-13.5 65.5z" />
    <glyph glyph-name="periodcentered" unicode="&#x2219;" horiz-adv-x="535" 
d="M98 594q0 36 13.5 67.5t36 54.5t53 36.5t65.5 13.5q36 0 67.5 -13.5t54.5 -36.5t36.5 -54.5t13.5 -67.5q0 -35 -13.5 -65.5t-36.5 -53.5t-54.5 -36.5t-67.5 -13.5q-35 0 -65.5 13.5t-53 36.5t-36 53.5t-13.5 65.5z" />
    <glyph glyph-name="parenleft" unicode="(" horiz-adv-x="542" 
d="M267 628q0 -210 52 -410.5t151 -377.5q9 -18 11 -32t-2 -24.5t-11.5 -17.5t-16.5 -13l-95 -59q-75 115 -127 228.5t-85 229t-48 234t-15 242.5q0 123 15 241.5t48 234t85 229.5t127 229l95 -59q9 -6 16.5 -13t11.5 -17.5t2 -24.5t-11 -32q-99 -178 -151 -378t-52 -410z
" />
    <glyph glyph-name="parenright" unicode=")" horiz-adv-x="542" 
d="M274 628q0 210 -52 410t-150 378q-9 18 -11 32t1.5 24.5t11 17.5t16.5 13l96 59q74 -115 126 -229t85 -229.5t48 -234t15 -241.5q0 -124 -15 -242.5t-48 -234t-85 -229t-126 -228.5l-96 59q-9 6 -16.5 13t-11 17.5t-1.5 24.5t11 32q98 177 150 377.5t52 410.5z" />
    <glyph glyph-name="bracketleft" unicode="[" horiz-adv-x="620" 
d="M353 1400v-1558h152q26 0 42 -17t16 -40v-85h-390v1841h390v-85q0 -23 -16 -39.5t-42 -16.5h-152z" />
    <glyph glyph-name="bracketright" unicode="]" horiz-adv-x="620" 
d="M447 -300h-390v85q0 23 16 40t42 17h152v1558h-152q-26 0 -42 16.5t-16 39.5v85h390v-1841z" />
    <glyph glyph-name="braceleft" unicode="{" horiz-adv-x="607" 
d="M485 1400q-74 0 -114 -47t-40 -128q0 -56 6.5 -106.5t14 -99.5t14 -96.5t6.5 -95.5q0 -37 -11 -70.5t-31 -60.5t-48.5 -46.5t-63.5 -28.5q70 -20 112 -76t42 -131q0 -48 -6.5 -95.5t-14 -96.5t-14 -100t-6.5 -106q0 -81 40 -127.5t114 -46.5h14q14 0 30.5 -11t16.5 -34
v-97h-53q-89 0 -154.5 24t-109 67.5t-65 104t-21.5 133.5q0 50 7.5 98.5t16 96.5t16 96t7.5 96q0 63 -31.5 102t-96.5 39v127q65 0 96.5 39t31.5 102q0 48 -7.5 96t-16 96t-16 96.5t-7.5 98.5q0 73 21.5 133.5t65 104t109 67.5t154.5 24h53v-97q0 -23 -16.5 -33.5
t-30.5 -10.5h-14z" />
    <glyph glyph-name="braceright" unicode="}" horiz-adv-x="607" 
d="M545 557q-65 0 -96.5 -39t-31.5 -102q0 -48 7.5 -96t16 -96t16 -96.5t7.5 -98.5q0 -73 -21.5 -133.5t-65 -104t-109 -67.5t-153.5 -24h-54v97q0 23 17 34t30 11h15q73 0 113.5 46.5t40.5 127.5q0 55 -6.5 106t-14.5 100t-14.5 96.5t-6.5 95.5q0 75 42 131t112 76
q-35 9 -63.5 28.5t-48.5 46.5t-31 60.5t-11 70.5q0 48 6.5 95.5t14.5 96.5t14.5 99.5t6.5 106.5q0 81 -40.5 128t-113.5 47h-15q-13 0 -30 10.5t-17 33.5v97h54q88 0 153.5 -24t109 -67.5t65 -104t21.5 -133.5q0 -50 -7.5 -98.5t-16 -96.5t-16 -96t-7.5 -96q0 -63 31.5 -102
t96.5 -39v-127z" />
    <glyph glyph-name="asterisk" unicode="*" horiz-adv-x="850" 
d="M738 1057l-51 -89l-166 96q-17 11 -32 22t-26 25q14 -31 14 -72v-191h-104v189q0 43 11 72q-19 -25 -55 -45l-165 -95l-51 89l164 95q36 21 71 27q-35 4 -71 27l-165 96l51 89l166 -96q17 -11 31.5 -22.5t25.5 -25.5q-13 32 -13 73v190h104v-189q0 -20 -2.5 -38t-9.5 -34
q23 27 56 46l165 95l51 -89l-164 -95q-17 -10 -34 -17.5t-34 -9.5q17 -3 34 -9.5t34 -17.5z" />
    <glyph glyph-name="dagger" unicode="&#x2020;" horiz-adv-x="1160" 
d="M663 843v-382l28 -790q-47 -28 -111 -28t-111 28l28 790v382h-398v72q0 18 6 35.5t18 30.5t31 21t45 8q33 0 69.5 -5t74.5 -11t77 -13t77 -11l-28 489q47 28 111 28t111 -28l-28 -489q38 4 77 11t77 13t74.5 11t69.5 5q26 0 45 -8t31 -21t18 -30.5t6 -35.5v-72h-398z" />
    <glyph glyph-name="daggerdbl" unicode="&#x2021;" horiz-adv-x="1160" 
d="M663 287h398v-72q0 -37 -24 -65.5t-76 -28.5q-33 0 -69.5 4.5t-74.5 10.5l-77 12.5t-77 11.5l28 -489q-47 -28 -111 -28t-111 28l28 489q-38 -5 -77 -11.5l-77 -12.5t-74.5 -10.5t-69.5 -4.5q-52 0 -76 28.5t-24 65.5v72h398v556h-398v72q0 18 6 35.5t18 30.5t31 21t45 8
q33 0 69.5 -5t74.5 -11t77 -13t77 -11l-28 489q47 28 111 28t111 -28l-28 -489q38 4 77 11t77 13t74.5 11t69.5 5q26 0 45 -8t31 -21t18 -30.5t6 -35.5v-72h-398v-556z" />
    <glyph glyph-name="section" unicode="&#xa7;" horiz-adv-x="999" 
d="M284 725q0 -46 32 -78.5t82 -59t112 -50.5t122 -52q47 23 67.5 56t20.5 74q0 49 -30.5 82.5t-78.5 60.5t-107.5 50t-117.5 51q-55 -26 -78.5 -59t-23.5 -75zM813 1254q-8 -14 -18 -20t-25 -6q-17 0 -37 10.5t-47 23t-63.5 23t-85.5 10.5q-45 0 -80 -10.5t-59 -29
t-36.5 -43t-12.5 -52.5q0 -34 24 -60.5t63 -49t89.5 -43l102.5 -43t102.5 -49.5t89.5 -62.5t63 -81.5t24 -107q0 -80 -38 -145t-121 -104q48 -37 77 -85.5t29 -117.5q0 -72 -26 -133.5t-76.5 -106.5t-125 -70t-170.5 -25q-53 0 -102.5 9.5t-93.5 26t-82.5 39.5t-68.5 50
l50 82q18 32 56 32q21 0 41 -13.5t48.5 -29.5t69 -29.5t101.5 -13.5q91 0 141 40t50 106q0 43 -24.5 73.5t-65 54t-91.5 43.5l-105 41.5t-105 47t-91.5 60.5t-65 82t-24.5 112q0 80 42.5 142.5t130.5 98.5q-48 38 -78 91t-30 129q0 61 24.5 116t72 97t117 66.5t160.5 24.5
q103 0 186.5 -33t141.5 -90z" />
    <glyph glyph-name="paragraph" unicode="&#xb6;" horiz-adv-x="1439" 
d="M1368 1257h-217v-1462h-188v1462h-255v-1462h-187v849q-104 0 -188 31.5t-143 85.5t-91 126.5t-32 154.5q0 89 32 162t91 125.5t143 81.5t188 29h847v-183z" />
    <glyph glyph-name="asciicircum" unicode="^" horiz-adv-x="1160" 
d="M1045 688h-156q-20 0 -34 10.5t-22 27.5l-210 410q-14 29 -25 56.5t-19 53.5q-8 -27 -18 -54t-23 -56l-200 -410q-7 -17 -21.5 -27.5t-37.5 -10.5h-164l392 752h139z" />
    <glyph glyph-name="asciitilde" unicode="~" horiz-adv-x="1160" 
d="M755 633q60 0 93.5 38.5t34.5 106.5h173q0 -73 -19.5 -132.5t-56.5 -102t-90.5 -66t-121.5 -23.5q-53 0 -102.5 15t-94.5 33l-85.5 33t-74.5 15q-60 0 -93.5 -39t-34.5 -106h-173q0 73 19.5 132.5t56.5 102t90.5 65.5t121.5 23q52 0 102 -15t95 -32.5l85.5 -32.5
t74.5 -15z" />
    <glyph glyph-name="quotesingle" unicode="'" horiz-adv-x="416" 
d="M301 1440v-288l-19 -156q-6 -38 -22 -59.5t-53 -21.5q-32 0 -49 21.5t-24 59.5l-19 156v288h186z" />
    <glyph glyph-name="quotedbl" unicode="&#x22;" horiz-adv-x="767" 
d="M301 1440v-288l-19 -156q-6 -38 -22 -59.5t-53 -21.5q-32 0 -49 21.5t-24 59.5l-19 156v288h186zM652 1440v-288l-19 -156q-6 -38 -22 -59.5t-53 -21.5q-32 0 -49 21.5t-24 59.5l-19 156v288h186z" />
    <glyph glyph-name="ampersand" unicode="&#x26;" horiz-adv-x="1436" 
d="M479 690q-92 -54 -136 -126t-44 -156q0 -59 21.5 -105.5t57 -78.5t82 -49t96.5 -17q99 0 180 33.5t144 90.5zM1425 0h-209q-17 0 -30.5 2t-25 6.5t-22 12.5t-22.5 21l-120 122q-95 -84 -215.5 -132t-261.5 -48q-82 0 -160.5 28t-140.5 80.5t-100 128t-38 170.5
q0 69 22.5 130t63 113.5t95.5 94.5t121 72q-57 76 -83 148t-26 146t27 140t78.5 115t125 77.5t166.5 28.5q84 0 151.5 -26t116 -70t76 -101t32.5 -118l-136 -28q-18 -4 -33.5 5t-23.5 30q-8 26 -23 51.5t-37 45.5t-52.5 32.5t-70.5 12.5q-46 0 -82.5 -15t-62 -41.5
t-39 -61.5t-13.5 -75q0 -32 7 -62t23 -60t40.5 -61.5t59.5 -67.5l397 -409q36 66 57 137.5t28 144.5q2 21 14 33.5t32 12.5h133q-1 -125 -37.5 -240.5t-102.5 -214.5z" />
    <glyph glyph-name="at" unicode="@" horiz-adv-x="1680" 
d="M1041 811q-32 7 -75 7q-68 0 -126 -29t-100.5 -77t-66.5 -110.5t-24 -128.5q0 -68 30.5 -107t88.5 -39q28 0 57 9t55.5 31.5t49 60.5t37.5 95zM1133 545q-18 -69 -18 -113t13.5 -68.5t37.5 -34t53 -9.5q45 0 86 27t71.5 76t48.5 117.5t18 150.5q0 134 -42.5 235
t-117.5 169t-178 102t-224 34q-132 0 -246.5 -50t-199 -138t-133 -208t-48.5 -259q0 -167 52 -293t142.5 -211t213.5 -128t264 -43q154 0 268 32t192 78q23 14 41 8.5t26 -26.5l30 -79q-106 -70 -243.5 -112t-313.5 -42q-177 0 -329 56t-263 161t-174 256.5t-63 342.5
q0 108 27.5 208.5t78 189t121.5 162t158 126t188 81.5t211 29q93 0 182.5 -20.5t169 -60.5t146.5 -99t115.5 -134.5t75.5 -167.5t27 -199t-31 -199.5t-86 -160.5t-130 -107t-162 -39q-73 0 -124 34t-69 109q-59 -75 -125.5 -108t-144.5 -33q-61 0 -106.5 21.5t-75.5 59
t-45 89t-15 111.5q0 57 14.5 115t43 112t72 101.5t101 82.5t129.5 55.5t158 20.5q72 0 125 -11t101 -32z" />
    <glyph glyph-name="copyright" unicode="&#xa9;" horiz-adv-x="1655" 
d="M1068 495q9 1 17 -3.5t13 -10.5l72 -77q-56 -69 -140 -106t-200 -37q-99 0 -180 35t-138 96.5t-88.5 146.5t-31.5 184q0 101 35 186t96.5 146t145 95t181.5 34q110 0 187.5 -36t133.5 -93l-56 -79q-5 -7 -14.5 -14t-23.5 -7q-15 0 -30.5 10.5t-38.5 23.5t-58 23.5
t-90 10.5q-65 0 -116 -21t-87 -60t-55 -94.5t-19 -124.5q0 -72 19.5 -128t54 -94.5t81.5 -58t103 -19.5q51 0 84 8t57 19.5t43.5 23.5t42.5 21zM93 720q0 101 26 195t74 176t115 149t148.5 115t175.5 74.5t195 26.5t195 -26.5t176 -74.5t149 -115t115 -149t74 -176t26 -195
t-26.5 -195t-74 -175.5t-114.5 -148.5t-149 -115t-176 -74t-195 -26t-195 26t-175.5 74t-148.5 115t-115 148.5t-74 175.5t-26 195zM212 720q0 -132 47.5 -246.5t130.5 -199t195.5 -133.5t241.5 -49q86 0 166 22t148.5 62.5t125 97.5t96.5 127t62 150.5t22 168.5t-22 169.5
t-62 151.5t-96.5 127.5t-125 98.5t-148.5 63.5t-166 22.5q-129 0 -241.5 -49.5t-195.5 -135t-130.5 -201t-47.5 -247.5z" />
    <glyph glyph-name="uni2117" unicode="&#x2117;" horiz-adv-x="1655" 
d="M832 715q58 0 95 12t58 33.5t29 50.5t8 64q0 34 -8 62t-27.5 47.5t-53 30.5t-84.5 11h-119v-311h102zM849 1169q92 0 159.5 -22.5t111.5 -62.5t65 -93.5t21 -115.5q0 -59 -21.5 -112.5t-65.5 -94t-112 -64.5t-162 -24h-115v-305h-186v894h305zM827 92q86 0 166 22
t148.5 62.5t125 97.5t96.5 127t62 150.5t22 168.5t-22 169.5t-62 151.5t-96.5 127.5t-125 98.5t-148.5 63.5t-166 22.5q-129 0 -241.5 -49.5t-195.5 -135t-130.5 -201t-47.5 -247.5t47.5 -246.5t130.5 -199t195.5 -133.5t241.5 -49zM827 1456q101 0 195 -26.5t176 -74.5
t149 -115t115 -149t74 -176t26 -195t-26.5 -195t-74 -175.5t-114.5 -148.5t-149 -115t-176 -74t-195 -26t-195 26t-175.5 74t-148.5 115t-115 148.5t-74 175.5t-26 195t26 195t74 176t115 149t148.5 115t175.5 74.5t195 26.5z" />
    <glyph glyph-name="registered" unicode="&#xae;" horiz-adv-x="1655" 
d="M802 748q53 0 88.5 9.5t56.5 27.5t29.5 45t8.5 62q0 34 -7.5 59t-26.5 41.5t-51 25t-81 8.5h-119v-278h102zM819 1169q180 0 265 -64t85 -189q0 -91 -49 -157.5t-150 -94.5q20 -12 33.5 -29.5t25.5 -40.5l204 -319h-179q-39 0 -56 29l-171 280q-10 14 -22 21.5t-38 7.5
h-67v-338h-186v894h305zM827 92q86 0 166 22t148.5 62.5t125 97.5t96.5 127t62 150.5t22 168.5t-22 169.5t-62 151.5t-96.5 127.5t-125 98.5t-148.5 63.5t-166 22.5q-129 0 -241.5 -49.5t-195.5 -135t-130.5 -201t-47.5 -247.5t47.5 -246.5t130.5 -199t195.5 -133.5
t241.5 -49zM827 1456q101 0 195 -26.5t176 -74.5t149 -115t115 -149t74 -176t26 -195t-26.5 -195t-74 -175.5t-114.5 -148.5t-149 -115t-176 -74t-195 -26t-195 26t-175.5 74t-148.5 115t-115 148.5t-74 175.5t-26 195t26 195t74 176t115 149t148.5 115t175.5 74.5t195 26.5
z" />
    <glyph glyph-name="trademark" unicode="&#x2122;" horiz-adv-x="1507" 
d="M85 1440h493v-124h-172v-474h-150v474h-171v124zM1361 1440v-598h-131v330l10 88l-167 -317q-16 -33 -51 -33h-22q-35 0 -51 33l-166 315l9 -86v-330h-131v598h127q20 0 29 -4t21 -19l148 -277q15 -31 24 -62q11 32 25 62l150 277q11 15 20.5 19t28.5 4h127z" />
    <glyph glyph-name="uni2120" unicode="&#x2120;" horiz-adv-x="1501" 
d="M504 1323q-11 -21 -31 -21q-9 0 -20 6l-25.5 13.5t-34 13.5t-45.5 6q-35 0 -56.5 -16t-21.5 -43q0 -22 20 -34t50 -22l65 -21.5t65 -31.5t50 -52t20 -84q0 -42 -14.5 -79t-42 -64.5t-68 -43t-91.5 -15.5q-29 0 -58 6t-56 16.5t-51 25t-42 32.5l36 68q5 8 13 13t18 5
q12 0 24.5 -8t29 -17.5t38.5 -17.5t52 -8q42 0 61.5 20t19.5 49q0 26 -20 40t-50 23.5l-64.5 20t-64.5 30.5t-50 53t-20 89q0 34 13.5 66.5t40 58t65 40.5t88.5 15q55 0 103.5 -17.5t80.5 -46.5zM1355 1440v-598h-131v330l10 88l-167 -317q-16 -33 -51 -33h-22q-35 0 -51 33
l-166 315l9 -86v-330h-131v598h127q20 0 29 -4t21 -19l148 -277q15 -31 24 -62q11 32 25 62l150 277q11 15 20.5 19t28.5 4h127z" />
    <glyph glyph-name="degree" unicode="&#xb0;" horiz-adv-x="830" 
d="M78 1125q0 69 26 130t71 106t106.5 71t132.5 26t133 -26t107.5 -71t71.5 -106t26 -130q0 -68 -26 -128t-71.5 -105t-107.5 -71.5t-133 -26.5t-132.5 26.5t-106.5 71.5t-71 105t-26 128zM229 1124q0 -39 14 -73t38.5 -59t58.5 -39.5t74 -14.5t74 14.5t59 39.5t39 59t14 73
q0 40 -14 74.5t-39 60t-59 40t-74 14.5t-74 -14.5t-58.5 -40t-38.5 -60t-14 -74.5z" />
    <glyph glyph-name="currency" unicode="&#xa4;" horiz-adv-x="1160" 
d="M375 673q0 -42 16 -79t44 -64.5t65.5 -44t79.5 -16.5q43 0 81 16.5t66 44t44 64.5t16 79q0 43 -16 80.5t-44 65.5t-66 44t-81 16q-42 0 -79.5 -16t-65.5 -44t-44 -65.5t-16 -80.5zM931 217l-151 151q-44 -28 -94 -43.5t-106 -15.5q-54 0 -103.5 15t-91.5 41l-153 -152
l-107 109l151 151q-28 44 -43.5 94t-15.5 106q0 54 14.5 103.5t41.5 91.5l-152 152l108 108l151 -150q43 28 93.5 43.5t106.5 15.5q54 0 103.5 -15t92.5 -42l152 152l107 -109l-150 -150q28 -44 43.5 -94t15.5 -106q0 -54 -15 -103.5t-41 -91.5l151 -152z" />
    <glyph glyph-name="Euro" unicode="&#x20ac;" horiz-adv-x="1160" 
d="M25 915h139q22 124 70.5 223.5t120 169.5t163 108t198.5 38q137 0 234 -51.5t165 -141.5l-74 -83q-9 -10 -19 -17.5t-27 -7.5q-12 0 -24 8.5t-26 21t-32.5 27.5t-44.5 27.5t-61 21t-82 8.5q-65 0 -120 -22.5t-98.5 -67t-74.5 -110.5t-47 -152h524v-67q0 -20 -16.5 -37.5
t-44.5 -17.5h-477q-2 -18 -2 -36v-37v-27t1 -26h445v-67q0 -20 -16.5 -37.5t-44.5 -17.5h-373q28 -187 115.5 -279.5t218.5 -92.5q51 0 88.5 10t65 24.5t47 32l35 32t27.5 24.5t26 10q10 0 17.5 -3t15.5 -12l92 -86q-71 -106 -177 -163t-249 -57q-117 0 -210 39.5
t-161.5 112.5t-112 176.5t-60.5 231.5h-134v122h124q-1 13 -1 26v27v37t2 36h-125v122z" />
    <glyph glyph-name="Euro.oldstyle" horiz-adv-x="1080" 
d="M14 721h133q20 96 65 173t112.5 131.5t156.5 83.5t196 29q61 0 113.5 -10t97.5 -29.5t83 -47t72 -61.5l-54 -63q-12 -14 -29 -24.5t-36 -10.5q-18 0 -38.5 11.5t-49 25t-66.5 25t-91 11.5q-126 0 -205.5 -63t-110.5 -181h469v-41q0 -22 -17.5 -39.5t-43.5 -17.5h-424
q-1 -15 -1.5 -30.5t-0.5 -31.5v-24t1 -23h399v-41q0 -22 -17.5 -39.5t-43.5 -17.5h-326q26 -128 101.5 -192.5t197.5 -64.5q66 0 110.5 15.5t76 34t53.5 34t41 15.5q17 0 30.5 -8.5t27.5 -25.5l55 -65q-66 -83 -165.5 -128.5t-233.5 -45.5q-108 0 -195 30.5t-151 86.5
t-105 136t-58 178h-129v98h118q-1 11 -1 23v24q0 16 0.5 31t1.5 31h-119v98z" />
    <glyph glyph-name="dollar" unicode="$" horiz-adv-x="1160" 
d="M622 168q119 14 180.5 78t61.5 165q0 43 -16 75t-43.5 56t-65.5 41.5t-82 32.5zM573 1269q-60 -6 -103 -24.5t-71 -45t-41 -59.5t-13 -70q0 -42 15 -74t41.5 -56.5t62.5 -43t78 -34.5zM673 820q72 -22 142.5 -48.5t126.5 -68t90.5 -103.5t34.5 -155q0 -91 -30.5 -171.5
t-89.5 -142t-144.5 -100t-194.5 -45.5l-12 -160q-1 -21 -17 -38.5t-41 -17.5h-80l17 219q-118 14 -219.5 62.5t-173.5 121.5l65 99q9 13 23.5 21.5t31.5 8.5q21 0 45.5 -17l57.5 -39.5t78 -44t106 -31.5l37 485q-70 21 -138.5 47.5t-123 70.5t-88 110t-33.5 166
q0 75 29.5 146t86 126.5t139.5 91t190 40.5l10 134q1 22 17 39t41 17h80l-15 -196q105 -15 182 -57.5t134 -98.5l-52 -80q-22 -35 -54 -35q-15 0 -35.5 11l-48 26t-62.5 30t-78 23z" />
    <glyph glyph-name="cent" unicode="&#xa2;" horiz-adv-x="1160" 
d="M616 869q-138 -14 -207 -107.5t-69 -251.5q0 -146 58 -235t163 -115zM1039 147q-66 -78 -159 -115t-199 -45l-12 -159q-2 -21 -17.5 -38.5t-41.5 -17.5h-79l17 218q-90 12 -167 52t-133.5 106.5t-88 157.5t-31.5 204q0 110 33 204t96.5 164t157 111t214.5 46l13 166
q2 21 18 38.5t41 17.5h79l-18 -230q81 -14 145.5 -46.5t118.5 -82.5l-55 -76q-8 -12 -17.5 -18.5t-26.5 -6.5q-13 0 -28.5 7.5l-36.5 18t-48.5 22t-64.5 18.5l-55 -712q58 4 96.5 19t65.5 31l46.5 28.5t37.5 12.5q27 0 40 -19z" />
    <glyph glyph-name="sterling" unicode="&#xa3;" horiz-adv-x="1160" 
d="M42 676q0 30 18.5 52t54.5 22h120v247q0 94 27.5 177.5t83.5 146t140 99t197 36.5q79 0 141 -20t110 -54.5t83.5 -81t61.5 -100.5l-86 -56q-30 -15 -57.5 -13t-50.5 29q-19 24 -38.5 44.5t-42.5 35.5t-52.5 23.5t-68.5 8.5q-114 0 -171 -73.5t-57 -200.5v-248h424v-87
q0 -21 -17.5 -39t-44.5 -18h-362v-216q0 -69 -26.5 -122t-72.5 -97q67 14 132 14h629v-91q0 -17 -6.5 -33.5t-19 -30t-29.5 -22t-38 -8.5h-961v137q34 9 65 25t55 39.5t38 56t14 75.5v273h-193v70z" />
    <glyph glyph-name="glyph365" horiz-adv-x="1160" 
d="M628 755l-86 -707q-13 -104 -50 -179t-99 -123t-150 -71t-203 -23v113q0 68 69 68q43 0 80 12t65.5 38t48 68t26.5 104l86 695l-138 17q-49 11 -49 55v88h206l20 157q24 199 146.5 298t355.5 99v-119q0 -35 -17 -48.5t-52 -13.5q-44 0 -81.5 -12t-66.5 -38t-49 -68.5
t-28 -103.5l-21 -151h308v-155h-321z" />
    <glyph glyph-name="yen" unicode="&#xa5;" horiz-adv-x="1160" 
d="M726 629h291v-121h-330v-100h330v-122h-330v-286h-214v286h-330v122h330v100h-330v121h291l-403 811h178q31 0 50 -14.5t30 -38.5l246 -523q17 -40 28 -74t19 -67q8 33 18.5 67.5t26.5 73.5l244 523q9 20 29 36.5t49 16.5h180z" />
    <glyph glyph-name="yen.oldstyle" horiz-adv-x="1080" 
d="M687 539h252v-118h-302v-92h302v-117h-302v-212h-193v212h-303v117h303v92h-303v118h253l-359 584h164q17 0 31.5 -6t26.5 -15t21 -20.5t15 -23.5l192 -334q21 -44 35 -76.5t22 -64.5q8 32 21 64.5t33 76.5l191 333q12 24 42 45t68 21h148z" />
    <glyph glyph-name="afii61248" unicode="&#x2105;" horiz-adv-x="1686" 
d="M1229 1405q11 14 26.5 24.5t44.5 10.5h155l-1061 -1407q-11 -14 -27.5 -23.5t-39.5 -9.5h-159zM589 908q13 0 23 -10l65 -72q-90 -117 -269 -117q-83 0 -149.5 28.5t-112.5 79t-70.5 119t-24.5 149.5q0 82 27 151.5t75 119t115.5 77.5t148.5 28q82 0 145.5 -27.5
t105.5 -70.5l-55 -78q-5 -8 -12.5 -13.5t-20.5 -5.5t-25 8.5t-29.5 18t-43.5 18t-66 8.5q-44 0 -80 -15.5t-62 -45.5t-40.5 -73.5t-14.5 -99.5t16 -100t43 -74t63.5 -45.5t77.5 -15.5q49 0 80.5 10t62.5 37q6 5 12.5 8t14.5 3zM1642 361q0 -80 -27.5 -148.5t-77 -119
t-120 -79.5t-155.5 -29t-155 29t-120 79.5t-77.5 119t-27.5 148.5t27.5 148.5t77.5 119t120 79.5t155 29t155.5 -29t120 -79.5t77 -119.5t27.5 -148zM1474 361q0 109 -56 171.5t-156 62.5t-156 -62.5t-56 -171.5q0 -110 56 -172t156 -62t156 62t56 172z" />
    <glyph glyph-name="afii61352" unicode="&#x2116;" horiz-adv-x="2335" 
d="M1183 1440h206v-1440h-120q-27 0 -45.5 9.5t-36.5 31.5l-790 1016q2 -29 3.5 -57.5t1.5 -52.5v-947h-205v1440h121q15 0 26 -1.5t19.5 -5.5t16.5 -12t17 -20l792 -1016q-3 31 -4.5 60.5t-1.5 55.5v939zM1902 1314q-80 0 -125 -50t-45 -138t45 -137t125 -49t125 49t45 137
t-45 138t-125 50zM1903 793q-75 0 -137 25.5t-106.5 70t-68.5 105t-24 130.5q0 71 24 132t68.5 105.5t106.5 70t137 25.5t137 -25.5t106.5 -70.5t68.5 -106t24 -131t-24 -130.5t-68.5 -105t-106.5 -70t-137 -25.5zM1571 681h661v-154h-661v154z" />
    <glyph glyph-name="numbersign" unicode="#" horiz-adv-x="1160" 
d="M715 870h-225l-58 -298h225zM1120 1027l-16 -90q-6 -35 -27.5 -51t-67.5 -16h-118l-57 -298h159q33 0 48 -20t7 -69l-10 -69h-227l-80 -414h-98q-15 0 -28.5 7t-22.5 19.5t-12.5 29t0.5 35.5l64 323h-224l-64 -334q-8 -43 -35.5 -61.5t-62.5 -18.5h-95l80 414h-129
q-33 0 -48 20.5t-8 68.5l11 69h197l57 298h-222l16 90q6 35 27.5 51t67.5 16h134l66 338q7 35 32.5 55t60.5 20h97l-80 -413h225l80 413h95q35 0 54.5 -22t13.5 -55l-66 -336h206z" />
    <glyph glyph-name="zero.oldstyle.pnum" horiz-adv-x="1274" 
d="M1174 563q0 -135 -42.5 -242t-116 -181t-171 -113.5t-208.5 -39.5t-208.5 39.5t-170.5 113.5t-115 181t-42 242q0 136 42 243t115 181t170.5 113.5t208.5 39.5t208.5 -39.5t171 -113.5t116 -181t42.5 -243zM960 563q0 108 -28 184.5t-73.5 125t-103.5 71t-119 22.5
t-119 -22.5t-103.5 -71t-73 -125t-27.5 -184.5q0 -107 27.5 -183t73 -124.5t103.5 -71t119 -22.5t119 22.5t103.5 71t73.5 124.5t28 183z" />
    <glyph glyph-name="one.oldstyle.pnum" horiz-adv-x="788" 
d="M611 1127v-1127h-208v774q0 26 1 52t3 54l-207 -150q-28 -22 -54 -20t-45 28l-73 95l413 294h170z" />
    <glyph glyph-name="two.oldstyle.pnum" horiz-adv-x="1085" 
d="M913 192q36 0 56.5 -22.5t20.5 -52.5v-117h-904v121l437 345q52 41 92.5 79.5t68.5 76.5t42.5 77.5t14.5 83.5q0 38 -13.5 71t-39 57t-61 37.5t-78.5 13.5q-53 0 -92 -15.5t-66 -41t-44.5 -58.5t-28.5 -69q-8 -22 -19.5 -32.5t-35.5 -10.5q-5 0 -13.5 1t-14.5 3l-121 20
q13 79 47.5 148.5t90 120.5t132.5 80.5t174 29.5q86 0 156 -26t120 -72.5t77.5 -110.5t27.5 -141q0 -61 -19 -114.5t-52.5 -102t-80.5 -93.5t-103 -88l-287 -221q48 11 95.5 17t84.5 6h336z" />
    <glyph glyph-name="three.oldstyle.pnum" horiz-adv-x="1066" 
d="M109 759q13 79 46.5 148.5t88.5 120.5t131 80.5t173 29.5q89 0 161.5 -25.5t124 -71.5t79.5 -108.5t28 -136.5q0 -108 -56 -183t-162 -114q125 -35 185.5 -117.5t60.5 -212.5q0 -75 -31 -145t-88 -124t-139 -86.5t-184 -32.5q-98 0 -172 22.5t-128 65.5t-91.5 105
t-62.5 141l99 45q40 17 65 8t38 -36q14 -38 36 -71.5t52.5 -59t70.5 -40t91 -14.5q56 0 101.5 16.5t77.5 46.5t49.5 71t17.5 90q0 57 -16.5 100t-54 71.5t-98.5 43t-149 14.5v148q63 1 116.5 15t93.5 41.5t62.5 69t22.5 97.5q0 46 -15.5 81.5t-43 60t-65 37t-81.5 12.5
q-53 0 -91 -15t-65.5 -40.5t-45 -58.5t-28.5 -70q-9 -22 -20 -32.5t-35 -10.5q-5 0 -13.5 1t-14.5 3z" />
    <glyph glyph-name="four.oldstyle.pnum" horiz-adv-x="1129" 
d="M692 292v463q0 31 3.5 65.5t9.5 72.5l-450 -601h437zM1070 292v-111q0 -24 -15 -37.5t-38 -13.5h-144v-334h-181v334h-577q-20 0 -40 16t-25 40l-17 95l647 845h193v-834h197z" />
    <glyph glyph-name="five.oldstyle.pnum" horiz-adv-x="1002" 
d="M323 627q47 10 90.5 15t87.5 5q102 0 180.5 -30t131.5 -83.5t80 -126.5t27 -159q0 -105 -37 -191.5t-102 -148t-154 -95.5t-193 -34q-61 0 -116 12.5t-104 33.5t-90 48t-73 57l60 85q16 22 42.5 29t52.5 -10q50 -34 109 -59.5t130 -25.5q65 0 116.5 21t87 59t54.5 91
t19 118q0 114 -69.5 178.5t-200.5 64.5q-48 0 -99 -9t-102 -24l-127 36l108 639h658v-107q0 -35 -20 -59t-64 -24h-430z" />
    <glyph glyph-name="six.oldstyle.pnum" horiz-adv-x="1098" 
d="M553 151q64 0 114.5 21.5t85.5 59t53.5 87.5t18.5 107q0 62 -19 110.5t-53.5 82.5t-83 51.5t-107.5 17.5q-64 0 -115 -22t-86.5 -58t-54.5 -83t-19 -96q0 -60 18 -110.5t52.5 -88t83.5 -58.5t112 -21zM475 858q-30 -36 -53 -68q42 24 92.5 37.5t108.5 13.5q79 0 152 -26
t128.5 -77t88.5 -127t33 -176q0 -93 -34.5 -175t-97 -143t-149.5 -96.5t-193 -35.5q-107 0 -192.5 34t-145.5 96t-92 148.5t-32 192.5q0 93 38.5 194t121.5 212l322 429q23 31 53 49t71 18h183z" />
    <glyph glyph-name="seven.oldstyle.pnum" horiz-adv-x="981" 
d="M962 1123v-103q0 -46 -20 -87l-535 -1073q-11 -25 -39.5 -44.5t-58.5 -19.5h-158l537 1031q17 31 33.5 57t36.5 49h-650q-26 0 -44.5 15.5t-18.5 46.5v128h917z" />
    <glyph glyph-name="eight.oldstyle.pnum" horiz-adv-x="1102" 
d="M550 149q58 0 103.5 17.5t77 48.5t48.5 73.5t17 92.5q0 60 -18.5 105t-51.5 74t-78 43.5t-98 14.5t-97.5 -14.5t-77 -43.5t-51 -74t-18.5 -105q0 -50 16.5 -92.5t48 -73.5t76.5 -48.5t103 -17.5zM550 1207q-52 0 -91.5 -16.5t-66.5 -44t-40.5 -64.5t-13.5 -78
q0 -43 11.5 -83t37 -71t66 -49.5t97.5 -18.5q58 0 98.5 18.5t66 49.5t37.5 71t12 83q0 41 -13.5 78t-40.5 64.5t-67 44t-93 16.5zM763 706q121 -38 180.5 -122t59.5 -207q0 -90 -33 -162.5t-92.5 -123.5t-143 -78.5t-184.5 -27.5t-184 27.5t-142 78.5t-92 123.5t-33 162.5
q0 123 59.5 207t180.5 122q-97 40 -146 117t-49 185q0 76 29.5 141.5t83 113.5t128.5 75.5t165 27.5q91 0 166 -27.5t129 -75.5t83.5 -113.5t29.5 -141.5q0 -108 -49 -185t-146 -117z" />
    <glyph glyph-name="nine.oldstyle.pnum" horiz-adv-x="1043" 
d="M272 727q0 -117 63 -179t178 -62q60 0 106.5 19.5t79 53t49 77.5t16.5 93q0 57 -18.5 101.5t-51 75t-77.5 46.5t-99 16q-56 0 -101.5 -18.5t-77.5 -50.5t-49.5 -76.5t-17.5 -95.5zM613 312l39.5 52.5l34.5 49.5q-48 -41 -110.5 -64t-136.5 -23q-72 0 -139 24.5t-119.5 73
t-84 120.5t-31.5 166q0 88 33.5 166.5t93.5 136.5t143.5 92t184.5 34q100 0 181.5 -31.5t138.5 -88t88 -136t31 -175.5q0 -121 -45 -229t-127 -222l-290 -407q-18 -24 -45 -40t-65 -16h-183z" />
    <glyph glyph-name="zero.oldstyle" horiz-adv-x="1080" 
d="M1030 563q0 -145 -38.5 -253t-105.5 -180t-156 -107.5t-191 -35.5q-101 0 -190 35.5t-155.5 107.5t-105 180t-38.5 253t38.5 253.5t105 180.5t155.5 107.5t190 35.5q102 0 191 -35.5t156 -107.5t105.5 -180.5t38.5 -253.5zM817 563q0 108 -20.5 184.5t-57.5 125t-88 71
t-112 22.5t-112 -22.5t-87.5 -71t-57 -125t-20.5 -184.5q0 -107 20.5 -183t57 -124.5t87.5 -71t112 -22.5t112 22.5t88 71t57.5 124.5t20.5 183z" />
    <glyph glyph-name="one.oldstyle" horiz-adv-x="1080" 
d="M975 158v-158h-781v158h301v601q0 58 6 123l-212 -148q-27 -20 -55 -17.5t-45 25.5l-64 94l408 291h169v-969h273z" />
    <glyph glyph-name="two.oldstyle" horiz-adv-x="1080" 
d="M908 192q36 0 56.5 -22.5t20.5 -52.5v-117h-904v121l437 345q52 41 92.5 79.5t68.5 76.5t42.5 77.5t14.5 83.5q0 38 -13.5 71t-39 57t-61 37.5t-78.5 13.5q-53 0 -92 -15.5t-66 -41t-44.5 -58.5t-28.5 -69q-8 -22 -19.5 -32.5t-35.5 -10.5q-5 0 -13.5 1t-14.5 3l-121 20
q13 79 47.5 148.5t90 120.5t132.5 80.5t174 29.5q86 0 156 -26t120 -72.5t77.5 -110.5t27.5 -141q0 -61 -19 -114.5t-52.5 -102t-80.5 -93.5t-103 -88l-287 -221q48 11 95.5 17t84.5 6h336z" />
    <glyph glyph-name="three.oldstyle" horiz-adv-x="1080" 
d="M113 759q13 79 46.5 148.5t88.5 120.5t131 80.5t173 29.5q89 0 161.5 -25.5t124 -71.5t79.5 -108.5t28 -136.5q0 -108 -56 -183t-162 -114q125 -35 185.5 -117.5t60.5 -212.5q0 -75 -31 -145t-88 -124t-139 -86.5t-184 -32.5q-98 0 -172 22.5t-128 65.5t-91.5 105
t-62.5 141l99 45q40 17 65 8t38 -36q14 -38 36 -71.5t52.5 -59t70.5 -40t91 -14.5q56 0 101.5 16.5t77.5 46.5t49.5 71t17.5 90q0 57 -16.5 100t-54 71.5t-98.5 43t-149 14.5v148q63 1 116.5 15t93.5 41.5t62.5 69t22.5 97.5q0 46 -15.5 81.5t-43 60t-65 37t-81.5 12.5
q-53 0 -91 -15t-65.5 -40.5t-45 -58.5t-28.5 -70q-9 -22 -20 -32.5t-35 -10.5q-5 0 -13.5 1t-14.5 3z" />
    <glyph glyph-name="four.oldstyle" horiz-adv-x="1080" 
d="M665 292v463q0 31 3.5 65.5t9.5 72.5l-450 -601h437zM1043 292v-111q0 -24 -15 -37.5t-38 -13.5h-144v-334h-181v334h-577q-20 0 -40 16t-25 40l-17 95l647 845h193v-834h197z" />
    <glyph glyph-name="five.oldstyle" horiz-adv-x="1080" 
d="M360 627q47 10 90.5 15t87.5 5q102 0 180.5 -30t131.5 -83.5t80 -126.5t27 -159q0 -105 -37 -191.5t-102 -148t-154 -95.5t-193 -34q-61 0 -116 12.5t-104 33.5t-90 48t-73 57l60 85q16 22 42.5 29t52.5 -10q50 -34 109 -59.5t130 -25.5q65 0 116.5 21t87 59t54.5 91
t19 118q0 114 -69.5 178.5t-200.5 64.5q-48 0 -99 -9t-102 -24l-127 36l108 639h658v-107q0 -35 -20 -59t-64 -24h-430z" />
    <glyph glyph-name="six.oldstyle" horiz-adv-x="1080" 
d="M546 151q64 0 114.5 21.5t85.5 59t53.5 87.5t18.5 107q0 62 -19 110.5t-53.5 82.5t-83 51.5t-107.5 17.5q-64 0 -115 -22t-86.5 -58t-54.5 -83t-19 -96q0 -60 18 -110.5t52.5 -88t83.5 -58.5t112 -21zM468 858q-30 -36 -53 -68q42 24 92.5 37.5t108.5 13.5q79 0 152 -26
t128.5 -77t88.5 -127t33 -176q0 -93 -34.5 -175t-97 -143t-149.5 -96.5t-193 -35.5q-107 0 -192.5 34t-145.5 96t-92 148.5t-32 192.5q0 93 38.5 194t121.5 212l322 429q23 31 53 49t71 18h183z" />
    <glyph glyph-name="seven.oldstyle" horiz-adv-x="1080" 
d="M1009 1123v-103q0 -46 -20 -87l-535 -1073q-11 -25 -39.5 -44.5t-58.5 -19.5h-158l537 1031q17 31 33.5 57t36.5 49h-650q-26 0 -44.5 15.5t-18.5 46.5v128h917z" />
    <glyph glyph-name="eight.oldstyle" horiz-adv-x="1080" 
d="M539 149q58 0 103.5 17.5t77 48.5t48.5 73.5t17 92.5q0 60 -18.5 105t-51.5 74t-78 43.5t-98 14.5t-97.5 -14.5t-77 -43.5t-51 -74t-18.5 -105q0 -50 16.5 -92.5t48 -73.5t76.5 -48.5t103 -17.5zM539 1207q-52 0 -91.5 -16.5t-66.5 -44t-40.5 -64.5t-13.5 -78
q0 -43 11.5 -83t37 -71t66 -49.5t97.5 -18.5q58 0 98.5 18.5t66 49.5t37.5 71t12 83q0 41 -13.5 78t-40.5 64.5t-67 44t-93 16.5zM752 706q121 -38 180.5 -122t59.5 -207q0 -90 -33 -162.5t-92.5 -123.5t-143 -78.5t-184.5 -27.5t-184 27.5t-142 78.5t-92 123.5t-33 162.5
q0 123 59.5 207t180.5 122q-97 40 -146 117t-49 185q0 76 29.5 141.5t83 113.5t128.5 75.5t165 27.5q91 0 166 -27.5t129 -75.5t83.5 -113.5t29.5 -141.5q0 -108 -49 -185t-146 -117z" />
    <glyph glyph-name="nine.oldstyle" horiz-adv-x="1080" 
d="M289 727q0 -117 63 -179t178 -62q60 0 106.5 19.5t79 53t49 77.5t16.5 93q0 57 -18.5 101.5t-51 75t-77.5 46.5t-99 16q-56 0 -101.5 -18.5t-77.5 -50.5t-49.5 -76.5t-17.5 -95.5zM630 312l39.5 52.5l34.5 49.5q-48 -41 -110.5 -64t-136.5 -23q-72 0 -139 24.5t-119.5 73
t-84 120.5t-31.5 166q0 88 33.5 166.5t93.5 136.5t143.5 92t184.5 34q100 0 181.5 -31.5t138.5 -88t88 -136t31 -175.5q0 -121 -45 -229t-127 -222l-290 -407q-18 -24 -45 -40t-65 -16h-183z" />
    <glyph glyph-name="zero.pnum" horiz-adv-x="1324" 
d="M1227 720q0 -189 -47 -327t-125 -229t-180.5 -135t-213.5 -44t-213 44t-180 135t-124.5 229t-46.5 327t46.5 327.5t124.5 229t180 135t213 44.5t213.5 -44.5t180.5 -135t125 -229t47 -327.5zM1005 720q0 160 -27.5 266.5t-75 170.5t-110 91t-131.5 27q-70 0 -132 -27
t-109 -91t-74.5 -170.5t-27.5 -266.5t27.5 -266.5t74.5 -170.5t109 -91t132 -27q69 0 131.5 27t110 91t75 170.5t27.5 266.5z" />
    <glyph glyph-name="one.pnum" horiz-adv-x="809" 
d="M614 1443v-1443h-215v1065q0 26 1 52t3 53l-196 -168q-12 -11 -28.5 -16.5t-33 -5t-32 7t-25.5 19.5l-64 78l414 358h176z" />
    <glyph glyph-name="two.pnum" horiz-adv-x="1140" 
d="M974 203q35 0 55 -20.5t20 -52.5v-130h-974v73q0 22 9 46t29 44l448 449q57 57 101.5 109t76 104t48 105.5t16.5 112.5q0 57 -17.5 100.5t-48 72t-73 43t-93.5 14.5q-49 0 -90.5 -14t-74 -39t-54 -59.5t-31.5 -75.5q-15 -41 -38.5 -55t-68.5 -6l-113 20q15 102 56.5 179
t104.5 128.5t144.5 78t176.5 26.5q96 0 176.5 -28.5t139 -81t91.5 -127.5t33 -169q0 -80 -23.5 -148t-63.5 -130t-93.5 -120.5l-112.5 -118.5l-348 -356q43 12 86.5 19t82.5 7h423z" />
    <glyph glyph-name="three.pnum" horiz-adv-x="1155" 
d="M116 1044q15 102 56.5 179t104.5 128.5t144.5 78t176.5 26.5q96 0 174.5 -27.5t135 -76.5t87 -117t30.5 -149q0 -69 -16.5 -121.5t-47 -92.5t-74.5 -67t-99 -45q134 -39 201 -124.5t67 -214.5q0 -104 -39 -185t-105.5 -137t-155 -85.5t-187.5 -29.5q-111 0 -192 26.5
t-139.5 76t-97.5 119.5t-66 157l93 39q37 16 70.5 9t48.5 -37q16 -32 36 -68.5t51.5 -67t78 -51t114.5 -20.5q69 0 120.5 22.5t86 58t51.5 79.5t17 87q0 54 -13 99.5t-50.5 77.5t-106 50.5t-179.5 18.5v155q91 1 153.5 18.5t100 48t54 73.5t16.5 94q0 55 -17 97t-47.5 70.5
t-72.5 42.5t-93 14q-49 0 -90.5 -14t-74 -39t-54.5 -59.5t-32 -75.5q-14 -41 -37.5 -55t-68.5 -6z" />
    <glyph glyph-name="four.pnum" horiz-adv-x="1196" 
d="M739 532v526q0 63 9 138l-484 -664h475zM1125 532v-124q0 -18 -11.5 -31t-34.5 -13h-153v-364h-187v364h-623q-23 0 -39.5 13.5t-21.5 33.5l-22 110l691 920h202v-909h199z" />
    <glyph glyph-name="five.pnum" horiz-adv-x="1092" 
d="M351 908q52 11 99.5 16t91.5 5q113 0 199.5 -33.5t145 -92.5t88 -138.5t29.5 -172.5q0 -115 -40 -209t-111 -160.5t-167.5 -102.5t-208.5 -36q-66 0 -125.5 13t-111.5 35.5t-96 52t-79 61.5l66 92q21 30 56 30q22 0 48 -16t60.5 -34.5t81.5 -34.5t112 -16q71 0 127 23
t94.5 64.5t58.5 99.5t20 127q0 63 -18.5 113t-55 85t-91.5 53.5t-127 18.5q-53 0 -108.5 -9t-112.5 -28l-134 38l118 688h697v-93q0 -46 -29 -75t-97 -29h-422z" />
    <glyph glyph-name="seven.pnum" horiz-adv-x="1068" 
d="M1040 1440v-95q0 -42 -9 -68t-18 -44l-569 -1158q-15 -32 -42.5 -53.5t-72.5 -21.5h-155l580 1139q16 31 32 56t36 48h-719q-20 0 -35 15.5t-15 35.5v146h987z" />
    <glyph glyph-name="nine.pnum" horiz-adv-x="1101" 
d="M278 1012q0 -128 68.5 -196.5t191.5 -68.5q66 0 116.5 21t85.5 56.5t53 83t18 101.5q0 63 -19.5 112.5t-55 84.5t-84.5 53.5t-107 18.5q-61 0 -110 -20t-84 -55.5t-54 -84t-19 -106.5zM647 565l37 47.5t32 45.5q-52 -37 -116 -56.5t-136 -19.5q-78 0 -150 26.5t-128 79
t-89.5 130t-33.5 178.5q0 95 35.5 179t99.5 146.5t153 98.5t197 36q107 0 194 -34.5t148 -97t94 -149t33 -190.5q0 -65 -11.5 -123t-33 -112.5t-52 -107t-68.5 -106.5l-339 -486q-15 -22 -44.5 -36t-66.5 -14h-197z" />
    <glyph glyph-name="zero" unicode="0" horiz-adv-x="1160" 
d="M1105 720q0 -189 -40.5 -327t-111.5 -229t-167 -135t-207 -44t-207 44t-166.5 135t-110.5 229t-40 327t40 327.5t110.5 229t166.5 135t207 44.5t207 -44.5t167 -135t111.5 -229t40.5 -327.5zM883 720q0 160 -25.5 266.5t-67.5 170.5t-97 91t-114 27q-60 0 -114.5 -27
t-96.5 -91t-67 -170.5t-25 -266.5t25 -266.5t67 -170.5t96.5 -91t114.5 -27q59 0 114 27t97 91t67.5 170.5t25.5 266.5z" />
    <glyph glyph-name="one" unicode="1" horiz-adv-x="1160" 
d="M1027 163v-163h-785v163h300v902q0 48 3 98l-231 -195q-15 -12 -30.5 -15.5t-29 -0.5t-24 9.5t-16.5 14.5l-67 94l434 373h175v-1280h271z" />
    <glyph glyph-name="two" unicode="2" horiz-adv-x="1160" 
d="M984 203q35 0 55 -20.5t20 -52.5v-130h-974v73q0 22 9 46t29 44l448 449q57 57 101.5 109t76 104t48 105.5t16.5 112.5q0 57 -17.5 100.5t-48 72t-73 43t-93.5 14.5q-49 0 -90.5 -14t-74 -39t-54 -59.5t-31.5 -75.5q-15 -41 -38.5 -55t-68.5 -6l-113 20q15 102 56.5 179
t104.5 128.5t144.5 78t176.5 26.5q96 0 176.5 -28.5t139 -81t91.5 -127.5t33 -169q0 -80 -23.5 -148t-63.5 -130t-93.5 -120.5l-112.5 -118.5l-348 -356q43 12 86.5 19t82.5 7h423z" />
    <glyph glyph-name="three" unicode="3" horiz-adv-x="1160" 
d="M118 1044q15 102 56.5 179t104.5 128.5t144.5 78t176.5 26.5q96 0 174.5 -27.5t135 -76.5t87 -117t30.5 -149q0 -69 -16.5 -121.5t-47 -92.5t-74.5 -67t-99 -45q134 -39 201 -124.5t67 -214.5q0 -104 -39 -185t-105.5 -137t-155 -85.5t-187.5 -29.5q-111 0 -192 26.5
t-139.5 76t-97.5 119.5t-66 157l93 39q37 16 70.5 9t48.5 -37q16 -32 36 -68.5t51.5 -67t78 -51t114.5 -20.5q69 0 120.5 22.5t86 58t51.5 79.5t17 87q0 54 -13 99.5t-50.5 77.5t-106 50.5t-179.5 18.5v155q91 1 153.5 18.5t100 48t54 73.5t16.5 94q0 55 -17 97t-47.5 70.5
t-72.5 42.5t-93 14q-49 0 -90.5 -14t-74 -39t-54.5 -59.5t-32 -75.5q-14 -41 -37.5 -55t-68.5 -6z" />
    <glyph glyph-name="four" unicode="4" horiz-adv-x="1160" 
d="M721 532v526q0 63 9 138l-484 -664h475zM1107 532v-124q0 -18 -11.5 -31t-34.5 -13h-153v-364h-187v364h-623q-23 0 -39.5 13.5t-21.5 33.5l-22 110l691 920h202v-909h199z" />
    <glyph glyph-name="five" unicode="5" horiz-adv-x="1160" 
d="M385 908q52 11 99.5 16t91.5 5q113 0 199.5 -33.5t145 -92.5t88 -138.5t29.5 -172.5q0 -115 -40 -209t-111 -160.5t-167.5 -102.5t-208.5 -36q-66 0 -125.5 13t-111.5 35.5t-96 52t-79 61.5l66 92q21 30 56 30q22 0 48 -16t60.5 -34.5t81.5 -34.5t112 -16q71 0 127 23
t94.5 64.5t58.5 99.5t20 127q0 63 -18.5 113t-55 85t-91.5 53.5t-127 18.5q-53 0 -108.5 -9t-112.5 -28l-134 38l118 688h697v-93q0 -46 -29 -75t-97 -29h-422z" />
    <glyph glyph-name="seven" unicode="7" horiz-adv-x="1160" 
d="M1087 1440v-95q0 -42 -9 -68t-18 -44l-569 -1158q-15 -32 -42.5 -53.5t-72.5 -21.5h-155l580 1139q16 31 32 56t36 48h-719q-20 0 -35 15.5t-15 35.5v146h987z" />
    <glyph glyph-name="nine" unicode="9" horiz-adv-x="1160" 
d="M308 1012q0 -128 68.5 -196.5t191.5 -68.5q66 0 116.5 21t85.5 56.5t53 83t18 101.5q0 63 -19.5 112.5t-55 84.5t-84.5 53.5t-107 18.5q-61 0 -110 -20t-84 -55.5t-54 -84t-19 -106.5zM677 565l37 47.5t32 45.5q-52 -37 -116 -56.5t-136 -19.5q-78 0 -150 26.5t-128 79
t-89.5 130t-33.5 178.5q0 95 35.5 179t99.5 146.5t153 98.5t197 36q107 0 194 -34.5t148 -97t94 -149t33 -190.5q0 -65 -11.5 -123t-33 -112.5t-52 -107t-68.5 -106.5l-339 -486q-15 -22 -44.5 -36t-66.5 -14h-197z" />
    <glyph glyph-name="uni2080" unicode="&#x2080;" horiz-adv-x="668" 
d="M613 141q0 -96 -22 -166.5t-60 -117t-89.5 -69t-109.5 -22.5t-108.5 22.5t-88 69t-59 117t-21.5 166.5q0 97 21.5 167.5t59 117t88 69t108.5 22.5t109.5 -22.5t89.5 -69t60 -117t22 -167.5zM457 141q0 77 -9.5 126t-26 76.5t-39.5 38t-50 10.5t-49.5 -10.5t-38 -38
t-24.5 -76.5t-9 -126q0 -76 9.5 -124.5t26 -76t38.5 -38t47 -10.5t47.5 10.5t40 38t27.5 76t10 124.5z" />
    <glyph glyph-name="uni2081" unicode="&#x2081;" horiz-adv-x="668" 
d="M571 -125v-101h-419v101h142v396l5 47l-91 -73q-11 -8 -21.5 -10t-19.5 0t-16.5 7t-11.5 10l-47 66l228 193h129v-636h122z" />
    <glyph glyph-name="uni2082" unicode="&#x2082;" horiz-adv-x="668" 
d="M541 -84q25 0 38.5 -13.5t13.5 -36.5v-92h-527v51q0 15 6 32t20 31l215 212q24 23 44.5 48t35.5 50.5t24 51t9 49.5q0 43 -25 68t-64 25t-63 -20t-37 -56q-12 -20 -27 -28t-46 -3l-86 14q16 110 88 164t179 54q55 0 99.5 -16t75 -44t47 -67t16.5 -85q0 -41 -12.5 -75
t-33.5 -65.5t-48 -60.5l-56 -59l-143 -145q26 8 50.5 12t46.5 4h160z" />
    <glyph glyph-name="uni2083" unicode="&#x2083;" horiz-adv-x="668" 
d="M82 299q8 55 30.5 96t56.5 68t77.5 40.5t93.5 13.5q54 0 97 -15.5t73 -41.5t46 -60.5t16 -72.5q0 -127 -113 -174q63 -19 95.5 -56.5t32.5 -98.5q0 -59 -22 -102.5t-58 -72t-82.5 -43t-94.5 -14.5q-55 0 -97.5 11t-75 35t-55.5 61.5t-40 89.5l67 29q26 11 48.5 5.5
t31.5 -24.5q5 -11 13 -24.5t21 -25.5t32.5 -20t46.5 -8t47 8t34 21.5t21 31t7 36.5q0 28 -8 47.5t-26 32t-48 18t-74 5.5v103q42 1 70.5 8t46 20t24.5 31.5t7 41.5q0 43 -24 66.5t-67 23.5q-42 0 -66 -19.5t-35 -52.5q-11 -23 -24.5 -30t-44.5 -2z" />
    <glyph glyph-name="uni2084" unicode="&#x2084;" horiz-adv-x="668" 
d="M386 50v200q0 22 1.5 47.5t5.5 53.5l-221 -301h214zM616 50v-79q0 -11 -8 -20t-22 -9h-70v-168h-130v168h-297q-21 0 -33 9.5t-15 23.5l-13 67l339 467h149v-459h100z" />
    <glyph glyph-name="uni2085" unicode="&#x2085;" horiz-adv-x="668" 
d="M261 242q43 8 81 8q57 0 101 -16t74 -45t45.5 -69t15.5 -88q0 -59 -21 -108t-58 -84t-88.5 -54.5t-112.5 -19.5q-71 0 -127.5 28t-95.5 66l46 65q16 22 38 22q15 0 28 -8l29 -17.5t37.5 -17.5t53.5 -8q22 0 43 7t37.5 21.5t26 37t9.5 53.5q0 54 -29 82t-85 28
q-25 0 -50.5 -5.5t-51.5 -13.5l-93 26l63 377h374v-64q0 -32 -20 -53t-68 -21h-180z" />
    <glyph glyph-name="uni2086" unicode="&#x2086;" horiz-adv-x="668" 
d="M339 -116q25 0 47 9t38 24.5t25 37t9 46.5q0 57 -29.5 88t-83.5 31q-57 0 -88.5 -33.5t-31.5 -84.5t30.5 -84.5t83.5 -33.5zM352 284q-20 -25 -44.5 -47.5t-47.5 -48.5q27 21 60.5 33.5t71.5 12.5q37 0 74 -12t67 -38t49 -66.5t19 -97.5q0 -52 -19 -98.5t-54 -81
t-84 -54.5t-109 -20q-62 0 -110.5 19.5t-82 54.5t-51.5 83.5t-18 106.5q0 109 85 221l167 223q11 15 32 25t48 10h135z" />
    <glyph glyph-name="uni2087" unicode="&#x2087;" horiz-adv-x="668" 
d="M597 509v-83q0 -15 -3.5 -28t-8.5 -24l-266 -549q-4 -9 -8.5 -18t-12.5 -16.5t-20.5 -12t-30.5 -4.5h-119l268 522q22 42 45 71h-324q-14 0 -24.5 10.5t-10.5 24.5v107h515z" />
    <glyph glyph-name="uni2088" unicode="&#x2088;" horiz-adv-x="668" 
d="M334 -116q56 0 81 30t25 74q0 58 -29 82t-77 24t-76.5 -24t-28.5 -82q0 -44 25.5 -74t79.5 -30zM334 403q-48 0 -70.5 -27.5t-22.5 -60.5q0 -49 22.5 -75t70.5 -26q49 0 72.5 26t23.5 75q0 33 -24 60.5t-72 27.5zM473 157q65 -23 93.5 -67.5t28.5 -104.5q0 -50 -19 -90
t-53 -69t-82.5 -44.5t-106.5 -15.5t-106 15.5t-82.5 44.5t-53.5 69t-19 90q0 60 28.5 104.5t94.5 67.5q-98 47 -98 160q0 43 17.5 79.5t49 63.5t75 42t94.5 15q52 0 95 -15t74.5 -42t49 -63.5t17.5 -79.5q0 -56 -24 -96.5t-73 -63.5z" />
    <glyph glyph-name="uni2089" unicode="&#x2089;" horiz-adv-x="668" 
d="M224 292q0 -54 28 -81.5t80 -27.5t81.5 29t29.5 79q0 51 -30.5 80t-77.5 29q-53 0 -82 -29t-29 -79zM324 22l33 37.5t31 36.5q-44 -22 -102 -22q-38 0 -75.5 14t-67.5 40.5t-48.5 65.5t-18.5 89q0 44 18.5 86t52 75t81 53t105.5 20t105 -16.5t79 -47.5t49.5 -75t17.5 -98
q0 -39 -6.5 -73.5t-19.5 -67t-31 -63.5t-42 -64l-142 -203q-11 -14 -31.5 -24.5t-46.5 -10.5h-138z" />
    <glyph glyph-name="uni208A" unicode="&#x208a;" horiz-adv-x="668" 
d="M583 69h-189v-200h-122v200h-187v115h187v198h122v-198h189v-115z" />
    <glyph glyph-name="uni208B" unicode="&#x208b;" horiz-adv-x="668" 
d="M105 184h458v-115h-458v115z" />
    <glyph glyph-name="uni208C" unicode="&#x208c;" horiz-adv-x="668" 
d="M105 90h458v-113h-458v113zM105 275h458v-113h-458v113z" />
    <glyph glyph-name="uni208D" unicode="&#x208d;" horiz-adv-x="334" 
d="M185 130q0 -100 23 -199.5t65 -184.5q14 -25 7 -38t-19 -21l-68 -43q-74 115 -106.5 235t-32.5 251t32.5 251t106.5 234l68 -41q12 -8 18.5 -21t-6.5 -38q-42 -86 -65 -185.5t-23 -199.5z" />
    <glyph glyph-name="uni208E" unicode="&#x208e;" horiz-adv-x="334" 
d="M149 130q0 100 -23.5 199.5t-65.5 185.5q-13 25 -6 38t20 21l67 41q74 -114 106 -234t32 -251t-32 -251t-106 -235l-67 43q-13 8 -20 21t6 38q42 85 65.5 184.5t23.5 199.5z" />
    <glyph glyph-name="zero.dnom" horiz-adv-x="668" 
d="M613 367q0 -96 -22 -166.5t-60 -117t-89.5 -69t-109.5 -22.5t-108.5 22.5t-88 69t-59 117t-21.5 166.5q0 97 21.5 167.5t59 117t88 69t108.5 22.5t109.5 -22.5t89.5 -69t60 -117t22 -167.5zM457 367q0 77 -9.5 126t-26 76.5t-39.5 38t-50 10.5t-49.5 -10.5t-38 -38
t-24.5 -76.5t-9 -126q0 -76 9.5 -124.5t26 -76t38.5 -38t47 -10.5t47.5 10.5t40 38t27.5 76t10 124.5z" />
    <glyph glyph-name="one.dnom" horiz-adv-x="668" 
d="M568 101v-101h-419v101h142v396l5 47l-91 -73q-11 -8 -21.5 -10t-19.5 0t-16.5 7t-11.5 10l-47 66l228 193h129v-636h122z" />
    </font>
</defs>
</svg>
