<?xml version="1.0" standalone="no"?>
<!DOCTYPE svg PUBLIC "-//W3C//DTD SVG 1.1//EN" "http://www.w3.org/Graphics/SVG/1.1/DTD/svg11.dtd" >
<svg>
<metadata>
Created by FontForge 20090622 at Wed Jun  3 05:25:07 2015
 By deploy user
Created by MyScriptFont.com
</metadata>
<defs>
<font id="BrookeShappell8" horiz-adv-x="10" >
  <font-face 
    font-family="BrookeShappell8"
    font-weight="500"
    font-stretch="normal"
    units-per-em="1000"
    panose-1="2 0 6 3 0 0 0 0 0 0"
    ascent="800"
    descent="-200"
    x-height="525"
    cap-height="706"
    bbox="8.88462 -196.031 647.083 797.545"
    underline-thickness="50"
    underline-position="-100"
    unicode-range="U+0020-U+20AC"
  />
<missing-glyph horiz-adv-x="364" 
d="M33 0v666h265v-666h-265zM66 33h199v600h-199v-600z" />
    <glyph glyph-name=".notdef" horiz-adv-x="364" 
d="M33 0v666h265v-666h-265zM66 33h199v600h-199v-600z" />
    <glyph glyph-name=".null" horiz-adv-x="0" 
 />
    <glyph glyph-name="nonmarkingreturn" horiz-adv-x="333" 
 />
    <glyph glyph-name="space" unicode=" " horiz-adv-x="420" 
 />
    <glyph glyph-name="exclam" unicode="!" horiz-adv-x="135" 
d="M15 94q7 20 20.5 20t29.5 -20q11 -15 11 -33t-10.5 -32t-24.5 -12q-19 4 -27.5 28.5t1.5 48.5zM88 620q19 9 27.5 7t9.5 -16q3 -44 -8 -371q-1 -22 -9.5 -40.5t-19.5 -23.5t-22 4q-5 6 -5.5 24t3 48.5t8 66t7 85.5t-0.5 98q-5 112 10 118z" />
    <glyph glyph-name="numbersign" unicode="#" horiz-adv-x="606" 
d="M216 570q14 23 31 3q19 -23 11 -60q-6 -31 -1 -35t41 3q19 3 39 13.5t27 21.5q15 20 41 17q20 -2 14 -17q-1 -1 -2 -3q-7 -11 10 -14q14 -2 62 -2q34 0 48.5 -13t5.5 -35q-7 -19 -75 -11l-68 8l1 -70q2 -69 19 -65.5t96 13.5q51 5 65.5 3t14.5 -17q0 -23 -67 -32
q-4 0 -11 -1q-23 -3 -32.5 -4t-24.5 -5t-20 -4.5t-13.5 -7t-10 -9t-4 -13.5t-1.5 -16.5t3 -23t4.5 -28t7.5 -35.5l3 -12q7 -37 10 -55.5t1.5 -31t-7.5 -15.5t-18 -3q-19 0 -29 45t-7 117q4 67 -3 75q-5 5 -30 0l-71 -15q-20 -4 -28.5 -16.5t-11.5 -40.5q-3 -21 -1 -35.5
t6 -14.5q8 0 10.5 -19.5t-1 -43.5t-10.5 -36q-5 -8 -15.5 -11.5t-20.5 0.5q-17 7 -17 44t18 121q4 24 -5 27t-69 -5q-56 -7 -67.5 -4.5t-8.5 21.5q3 16 19 23t57 11l72 7l8 152l-54 -10q-38 -7 -89 -23q-32 -12 -45 -10t-13 27q0 29 28 29t101 15q52 12 61.5 20.5t7.5 41.5
q-4 45 8 64zM367 371.5q0 49.5 -5 60t-28 8.5q-63 -6 -79 -27t-16 -96q0 -12 0.5 -19t1.5 -12.5t5 -7t7 -3t11.5 0.5t15.5 3.5t21 5.5t27 6q27 6 33 18.5t6 62z" />
    <glyph glyph-name="dollar" unicode="$" horiz-adv-x="345" 
d="M187 619q4 16 18.5 20t28 -5t16.5 -27q2 -15 17.5 -34t32 -34t28 -31.5t6.5 -28.5q-9 -24 -30 -21.5t-30 28.5q-13 42 -29 19q-15 -22 -18 -88q-3 -63 3.5 -82.5t42.5 -53.5q62 -59 62 -126t-62 -97q-42 -19 -46 -31q-5 -12 -25.5 -12t-20.5 12q0 6 -13 14t-32 15
q-54 19 -90 58.5t-36 79.5q0 41 8.5 66.5t21.5 25.5q5 0 6.5 -12.5t-2.5 -30.5q-8 -43 15 -79q18 -28 63.5 -55.5t56.5 -16.5q8 8 14 91l6 83l-56 17q-51 15 -87 50.5t-35 69.5q0 51 28.5 96.5t73.5 66.5q23 11 42 26.5t22 26.5zM196 434q0 85 -9 98q-8 12 -45 3
q-3 -1 -8 -2q-18 -5 -38 -33.5t-29.5 -61.5t-1.5 -49q15 -28 9 -35q-4 -4 3.5 -6t31 -5.5t40.5 -6.5l47 -10v108zM277 217q-53 69 -53 -46q0 -71 19 -71q23 0 37.5 19.5t14 47.5t-17.5 50z" />
    <glyph glyph-name="percent" unicode="%" horiz-adv-x="552" 
d="M412 267q28 22 50.5 15.5t47.5 -43.5q32 -47 32.5 -105.5t-29.5 -96.5q-17 -21 -35 -29t-51 -8q-38 0 -51 8t-26 38q-23 54 -4.5 119t66.5 102zM496 174q-15 44 -47.5 40.5t-54.5 -51.5q-21 -43 -15.5 -73.5t35.5 -39.5q48 -16 74.5 24t7.5 100zM65 525q37 34 75 29.5
t57 -44.5q13 -27 12 -44t-18 -55q-32 -70 -84.5 -91t-83.5 24q-22 31 -8 90t50 91zM166 477q-5 14 -14.5 19.5t-16.5 0.5t-7 -18q0 -23 -26 -15q-17 6 -33 -11.5t-17.5 -39.5t10.5 -39q20 -20 47 -5q27 14 46 50.5t11 57.5zM336 466q13 13 40.5 54.5l51 75t30.5 33.5
q50 0 -43 -119q-3 -3 -5 -6q-77 -96 -160 -225l-128.5 -196t-67.5 -68q-33 0 -21 26q6 13 22 29q41 41 104.5 133.5l114.5 172.5t62 90z" />
    <glyph glyph-name="ampersand" unicode="&#x26;" horiz-adv-x="30" 
d="M11 -121q0 58 4 54q1 0 2 -8q6 -41 -1 -90q-2 -17 -4 3q-1 13 -1 41zM10 186q0 21 4 22q6 1 6 -21q0 -11 -3 -19q-5 -13 -7 6v12z" />
    <glyph glyph-name="quotesingle" unicode="'" horiz-adv-x="127" 
d="M71 575.5q6 11.5 26 10.5t20 -13q0 -8 -28.5 -75.5t-28.5 -90.5q-1 -46 -22 -59q-10 -7 -21 3q-9 10 -6 35t21 80q33 98 39 109.5z" />
    <glyph glyph-name="parenleft" unicode="(" horiz-adv-x="244" 
d="M143 588q81 51 90 -14q3 -19 -4.5 -25t-34.5 -6q-33 0 -64 -33.5t-50 -87t-28 -114t-2 -121.5t30 -103q15 -26 33.5 -41t33.5 -14t22 18t16 -6q9 -22 -6.5 -60t-34.5 -38q-25 0 -66 54.5t-56 108.5q-17 60 -10 163t33 181q21 63 38 87t60 51z" />
    <glyph glyph-name="parenright" unicode=")" horiz-adv-x="328" 
d="M23 624q14 14 35 9.5t21 -20.5q0 -5 16 -19t38 -28q45 -28 107 -123t74 -153q21 -99 -86 -270q-50 -79 -74.5 -100t-44.5 -1q-39 38 29 79q64 40 106 125.5t29 152.5q-11 59 -71.5 141.5t-121.5 122.5q-56 37 -66 51t9 33z" />
    <glyph glyph-name="asterisk" unicode="*" horiz-adv-x="356" 
d="M283 286q-11 0 -32 25l-40.5 50t-26.5 25q-5 0 -6 -25.5t3 -60.5q7 -55 4.5 -70.5t-16.5 -15.5q-18 0 -30.5 33t-1.5 52q5 6 -1 10.5t-19 4.5q-25 0 -28.5 24t17.5 46q14 14 -4 15q-10 1 -35 -1q-36 -3 -46.5 1t-10.5 22.5t10.5 22.5t46.5 2l57 -5l-35 30q-36 29 -48 29
q-7 0 -9 9t2 22.5t12 25.5q9 14 17 11t26 -25l30 -36l-3 43q-2 43 -0.5 54.5t26.5 6.5q15 -3 19.5 -16.5t2.5 -48.5q-2 -25 0 -42.5t6.5 -17.5t18 14.5t26.5 35.5q25 36 46.5 46t33.5 -9q3 -5 -3.5 -20t-17.5 -30q-26 -33 -16 -36q3 -1 8 -1q8 0 17 4t13 10q10 16 30 4
t20 -34q0 -17 -12.5 -22t-52.5 -5q-64 0 -64 -9q0 -7 44 -57q63 -73 42 -87q-7 -4 -20 -4z" />
    <glyph glyph-name="plus" unicode="+" horiz-adv-x="475" 
d="M151 536q12 11 31 1.5t16 -24.5q-5 -20 -12 -97l-6 -77l144 7q122 7 135 0q8 -4 5 -22q-1 -11 -5 -16t-16.5 -9t-36.5 -2.5t-67 1.5q-51 1 -92.5 -2t-49.5 -8q-17 -14 -14.5 -63t9.5 -91t9 -48q4 -9 2.5 -22t-7.5 -21q-25 -39 -37 18q-8 38 -8 109v116h-70q-46 0 -58.5 5
t-12.5 24q0 20 11.5 23t62.5 -4l73 -10l-7 102q-7 101 1 110z" />
    <glyph glyph-name="comma" unicode="," horiz-adv-x="98" 
d="M27 119q25 10 37 -1t20 -51q10 -45 -2 -84.5t-35 -39.5q-12 0 -14.5 20t1.5 44t3.5 44t-10.5 20q-17 0 -17 20.5t17 27.5z" />
    <glyph glyph-name="hyphen" unicode="-" horiz-adv-x="252" 
d="M159 234q10 10 46.5 -6t36.5 -29q0 -12 -18.5 -16t-66.5 -4q-86 0 -102 -11q-14 -8 -32.5 11t-10.5 32q6 10 75.5 15.5t71.5 7.5z" />
    <glyph glyph-name="period" unicode="." horiz-adv-x="79" 
d="M20 66q19 22 34 13t15 -43q0 -38 -17 -45t-33 23q-9 17 -9 28t10 24z" />
    <glyph glyph-name="slash" unicode="/" horiz-adv-x="362" 
d="M242 518q31 67 50.5 96t34.5 29q34 0 21 -25q-7 -13 -25 -34q-26 -29 -69.5 -112t-43.5 -102q0 -17 -39.5 -104.5t-50.5 -95.5q-13 -9 -9.5 -14.5t-17.5 -55.5l-38 -90q-7 -16 -16 -25.5t-15 -5.5q-8 5 -12 24.5t-1.5 36.5t10.5 17q10 0 75.5 128.5t77.5 171.5
q10 36 68 161z" />
    <glyph glyph-name="zero" unicode="0" horiz-adv-x="448" 
d="M151 573q39 20 82.5 22.5t80.5 -11t66.5 -42.5t40.5 -68q20 -65 16.5 -153.5t-28.5 -154.5q-25 -68 -66 -110t-84.5 -53t-88.5 3.5t-80 51t-57.5 98.5t-22.5 138q0 66 8 96.5t38 80.5q21 33 47.5 62t47.5 40zM350 507q-37 37 -110.5 35t-115.5 -42q-55 -52 -76 -137.5
t0 -166t76 -117.5q17 -11 28 -21.5t9 -13.5t5 -4q15 -2 50 1q63 5 110.5 54.5t67.5 127t4 163.5q-15 88 -48 121z" />
    <glyph glyph-name="one" unicode="1" horiz-adv-x="145" 
d="M10 582q0 19 32 15q20 -2 26 -20q10 -25 24 -191q18 -207 34 -247q11 -25 9.5 -37t-15.5 -26q-44 -44 -50 41q-1 14 -1 32q-2 95 -18 242t-27 158q-14 14 -14 33z" />
    <glyph glyph-name="two" unicode="2" horiz-adv-x="426" 
d="M105 554q66 35 101.5 34.5t61.5 -37.5q30 -42 13 -142.5t-72 -204.5q-35 -65 -35 -71q1 -2 16 -2t43.5 1.5t61.5 4.5q102 9 114 1q7 -4 7 -19q0 -20 -18 -26t-92 -12q-111 -8 -165 -18q-35 -7 -44 -3.5t-9 21.5q0 12 10 30t24 31q33 31 61 91.5t42 121.5t12.5 112.5
t-23.5 65.5t-65.5 -2.5t-79.5 -53.5q-20 -20 -30.5 -23.5t-19.5 7.5q-17 20 0 38.5t86 54.5z" />
    <glyph glyph-name="three" unicode="3" horiz-adv-x="396" 
d="M94 597q70 17 121 10.5t79.5 -28t28.5 -59t-32 -81.5q-31 -45 -13 -51q31 -10 62 -46.5t39 -71.5q25 -112 -30.5 -170t-188.5 -57q-44 0 -44 7q0 2 7 7q21 14 4 14t-25 -12q-10 -16 -34.5 -8.5t-28.5 28.5q-5 28 17.5 36t57.5 -11q39 -19 100.5 -12t96.5 36q38 31 35 89
t-43 93q-33 27 -63.5 28.5t-129.5 -18.5q-33 -7 -39.5 -3.5t-2.5 27.5q3 21 13.5 28.5t38.5 9.5q36 3 71 20.5t55.5 40.5t28.5 48t-9 45t-79.5 20t-112.5 -21q-35 -14 -44.5 -14t-15.5 16q-10 23 6.5 35.5t73.5 24.5z" />
    <glyph glyph-name="four" unicode="4" horiz-adv-x="497" 
d="M231 593q0 19 7 27.5t22 8.5q19 0 24 -17t5 -88v-104l75 11q104 14 117 7q8 -4 5 -26.5t-15 -27t-57 -1.5q-19 1 -31 2t-25.5 0.5t-20.5 -1.5t-15 -5t-11.5 -7.5t-7.5 -12t-5 -16.5t-2 -22.5t-1 -27.5t1 -34q3 -112 13 -129q11 -18 0 -45.5t-29 -27.5q-15 0 -17 8
q-6 13 -3 166l1 139l-125 4q-46 2 -68 3.5t-37 5t-18 8.5t-3 15q0 19 43.5 51t95.5 51q10 4 17.5 12.5t7.5 16.5t8.5 14t20.5 6q15 0 21.5 8.5t6.5 27.5zM256 464q-3 50 -10 49q-19 -4 -88 -42.5t-69 -44.5q0 -5 25 -8.5t60 -3.5h86z" />
    <glyph glyph-name="five" unicode="5" horiz-adv-x="369" 
d="M270 576q21 21 37 0q16 -22 0 -48q-3 -5 -8 -10q-16 -15 -25.5 -14.5t-35.5 17.5q-32 21 -30 12q0 -1 1 -2q5 -9 -21 -15q-15 -3 -38 -5l-68 -4l-9 -154l40 9q40 9 112 18q69 8 97.5 -19.5t34.5 -107.5q4 -49 -2 -70t-35 -54l-43 -50l-124 1q-50 0 -80 3.5t-46.5 11
t-16.5 20t9 31.5q13 23 29.5 23t34.5 -23q22 -31 92 -27.5t105 36.5t37.5 80t-28.5 77q-18 16 -36.5 19t-60.5 -3q-41 -7 -78.5 -19t-53.5 -18.5t-20 -3.5q-5 6 -10 140l-5 134l117 3q118 2 128 12z" />
    <glyph glyph-name="six" unicode="6" horiz-adv-x="393" 
d="M18 567q6 7 16 10t18 -1q11 -3 14 -11.5t1 -27.5t-5.5 -43t-6 -69.5t-0.5 -95.5q4 -114 40 -183q26 -47 43 -20q6 10 11 30q8 40 41.5 91t71.5 82q35 27 65.5 21.5t47.5 -43.5q18 -38 -1.5 -99t-62 -111.5t-87.5 -61.5q-46 -11 -99.5 17t-75.5 75q-21 44 -34 231t3 209z
M337 271q-4 12 -10 20.5t-10 8.5q-20 0 -58 -37.5t-52 -71.5q-19 -45 -18.5 -53.5t21.5 -8.5q22 0 14 -22q-9 -23 6 -20q14 2 45 27q32 26 52 76t10 81z" />
    <glyph glyph-name="seven" unicode="7" horiz-adv-x="440" 
d="M24 573q26 9 211.5 4.5t192.5 -13.5q4 -5 1 -20t-11 -30q-16 -32 -42 -178t-23 -189q3 -57 -2 -73.5t-27 -16.5q-40 0 -28 50q10 44 34 173t30 176l10 75l-180 -5q-66 -2 -97.5 -2.5t-52.5 1.5t-25.5 6t-4.5 13q0 10 4.5 18.5t9.5 10.5z" />
    <glyph glyph-name="eight" unicode="8" horiz-adv-x="461" 
d="M82 489q0 12 60 54.5t84 42.5q26 0 62 -17t36 -29q0 -11 43 -56q92 -95 -20 -187q-22 -18 -22.5 -22t21.5 -11q67 -21 84 -41t20 -82q3 -52 -3 -74t-32 -53q-41 -48 -95 -70t-100 -15t-78 41.5t-32 89.5q0 27 8 57t20 50q23 38 18.5 50t-42.5 12q-30 0 -67 34t-37 61
q0 23 15 59.5t32.5 61t25.5 16.5q14 -14 -10 -55q-24 -43 -14 -80t51 -54q40 -17 102 -1t108.5 52.5t46.5 72.5q0 26 -27 51.5t-58 27.5q-19 1 -29 11.5t-13.5 21t-10 17t-25.5 -1t-54 -30.5q-68 -47 -68 -4zM398 191q-28 33 -97 29t-104 -40q-29 -31 -38 -87t11 -83
q25 -33 75 -34.5t95 28.5q53 36 59 30q7 -7 10 28q6 69 -6 116q-2 10 -5 13z" />
    <glyph glyph-name="nine" unicode="9" horiz-adv-x="368" 
d="M82 591q41 41 59.5 47.5t76.5 0.5q81 -9 94 -22q8 -7 13 -70t11.5 -168t14.5 -170q6 -49 7.5 -78t-2 -46.5t-10.5 -22.5t-21 -2q-15 3 -18 29.5t0 121.5q5 146 -10 146q-6 0 -13 -8.5t-11 -19.5q-10 -33 -38 -50.5t-62 -16.5t-67 13.5t-58.5 40.5t-32.5 64
q-23 121 67 211zM235 587q-29 19 -64 9.5t-70 -45.5q-32 -31 -40.5 -51.5t-8.5 -63.5q0 -39 7.5 -59.5t29.5 -41.5q55 -51 107 -29.5t70 103.5q11 47 0.5 106t-31.5 72z" />
    <glyph glyph-name="colon" unicode=":" horiz-adv-x="187" 
d="M10 37q0 21 7 27.5t29 6.5q20 0 27.5 -6.5t7.5 -25.5q0 -32 -12 -52q-15 -22 -37 -3t-22 53zM119 376q10 10 37 10q16 0 19.5 -7t-2.5 -26q-19 -64 -47 -47q-13 8 -15.5 33.5t8.5 36.5z" />
    <glyph glyph-name="semicolon" unicode=";" horiz-adv-x="174" 
d="M12 93q14 40 47 -3q12 -16 23 -40q16 -32 18.5 -50t-6.5 -37q-13 -29 -44 -33q-27 -1 -30 20q0 9 4.5 15t10.5 6q10 0 13 12.5t-3 29.5t-19 31q-9 11 -13.5 25t-0.5 24zM114 344q7 22 30 25q20 2 20 -15q-1 -11 -1 -40q0 -22 -19 -27.5t-31 13.5q-8 14 1 44z" />
    <glyph glyph-name="less" unicode="&#x3c;" horiz-adv-x="452" 
d="M338 478q73 52 92 26q5 -6 5 -17q0 -27 -76 -60q-90 -38 -160.5 -60.5t-83.5 -15.5q-10 4 -2 -2q14 -10 128 -86q30 -21 59.5 -39.5t48 -29l36.5 -21t27 -17t17 -13t10 -13t2.5 -14t-2.5 -17.5q-7 -25 -18 -26t-30 21q-24 29 -154.5 112t-161.5 90q-36 7 -55 27t-4 36
q15 14 63 19q50 5 132.5 37t126.5 63z" />
    <glyph glyph-name="equal" unicode="=" horiz-adv-x="466" 
d="M371 291q12 13 40 5t28 -25q0 -12 -35 -19.5t-137 -16.5q-170 -16 -194 -5q-13 6 -10 24q3 13 32.5 18t119.5 7q148 4 156 12zM196 409q231 20 246 16q5 -1 9 -8q18 -28 -39 -40q-40 -8 -243 -18q-67 -3 -116 -6q-43 -3 -43 18q0 13 37 20.5t149 17.5z" />
    <glyph glyph-name="greater" unicode="&#x3e;" horiz-adv-x="544" 
d="M23 503q17 11 25 9.5t40 -18.5q54 -30 161.5 -75.5t155.5 -59.5q79 -23 104 -35.5t25 -27.5q0 -21 -19.5 -34.5t-51.5 -15.5q-40 -2 -127.5 -36t-125.5 -62q-38 -27 -56 -31t-28 13q-8 13 15 41.5t42 28.5q15 0 128 46q93 37 95 47q1 4 -9 9q-3 1 -7 3q-14 5 -90 38.5
l-144.5 61.5t-92.5 33q-35 7 -48.5 29t8.5 36z" />
    <glyph glyph-name="question" unicode="?" horiz-adv-x="314" 
d="M46 59q6 19 20 23t26.5 -8.5t14.5 -34.5q3 -24 -2 -31.5t-22 -7.5q-56 0 -37 59zM131 594q47 15 79 10.5t60 -29.5q26 -23 32 -60t-7 -73t-43 -68t-69 -46l-62 -21l10 -62q6 -41 3.5 -51t-18.5 -6q-19 3 -30 18.5t-39 77.5q-15 34 -15.5 45.5t14.5 26.5q21 21 79 17
q36 -3 54.5 5t45.5 36q35 39 38.5 59t-19.5 53q-21 30 -66 30.5t-94 -28.5q-63 -39 -72 -21q-2 5 -2 13q0 36 121 74z" />
    <glyph glyph-name="at" unicode="@" horiz-adv-x="570" 
d="M164 525q42 28 104.5 32t119.5 -16t83 -57q23 -33 23 -133q0 -153 -34 -197q-26 -34 -54 30q-1 2 -2 5l-20 47l-24 -47q-19 -37 -49.5 -57.5t-62.5 -20.5t-60.5 12t-46.5 42.5t-18 70.5q1 45 29.5 104t63.5 86q36 29 110.5 32.5t95.5 -22.5q17 -20 23.5 -16t-3.5 29
q-9 23 -61 44t-101 21q-56 0 -104 -36.5t-83 -106.5q-73 -142 -43 -308q10 -55 24 -80t55 -63l64 -59l81 13q98 15 146.5 51t84.5 121q16 36 30.5 37.5t23.5 -32.5q4 -18 -4.5 -36t-34.5 -44q-19 -20 -36.5 -33t-22.5 -12t-6 -2t3 -8q7 -12 -17.5 -29t-66.5 -32t-81 -20
q-47 -6 -75.5 -1.5t-69.5 23.5q-27 13 -52.5 31.5t-34.5 31.5q-28 44 -41.5 118t-8.5 156q7 100 51.5 196t101.5 135zM362 334q-2 31 -9 45.5t-23 19.5q-76 25 -129 -53q-32 -47 -34.5 -92.5t23 -72.5t70.5 -21q40 4 73 60t29 114zM463 329q4 64 -11 70q-6 3 -13 -12
q-5 -13 -10 -36q-5 -29 -5 -51.5t5.5 -34.5t14.5 -10q6 1 11.5 22.5t7.5 51.5z" />
    <glyph glyph-name="A" unicode="A" horiz-adv-x="434" 
d="M201 683q14 41 39 46q23 5 28 -24q1 -5 1 -12q0 -43 30.5 -150t48.5 -124q8 -9 11.5 -19.5t0.5 -16.5q-6 -11 31.5 -133.5t31.5 -128.5q-10 -10 -32 2t-22 28q0 19 -32 120q-8 26 -11 36.5t-10.5 25.5t-10 19.5t-13 11t-15.5 6.5t-21.5 -0.5t-27.5 -2.5l-38 -7l-56 -10
l-38 -121q-37 -122 -62 -127t-24 23q1 35 46 139q8 19 61 171zM283 432q0 18 -27 102l-26 85l-31 -82l-18 -49t-9 -33t-1.5 -22.5t9 -11.5t17.5 -6t29 -1q57 0 57 18z" />
    <glyph glyph-name="B" unicode="B" horiz-adv-x="411" 
d="M50 706q23 7 106 2q69 -4 109 -30t64 -84q15 -33 8 -75.5t-31 -71.5q-11 -13 -9.5 -19.5t16.5 -15.5q10 -6 27.5 -27.5t32.5 -47.5q24 -41 27 -59.5t-8 -50.5q-16 -48 -38 -74q-24 -28 -78 -40t-90 2q-39 15 -89 -2q-47 -16 -63 1q-21 23 -23 156q-1 41 -1 113
q0 70 0.5 116t2.5 83.5t4.5 58.5t7 35.5t10.5 20.5t15 9zM260 621q-20 20 -40 28t-50 7q-28 0 -44.5 -1.5t-31 -6.5t-21 -12t-12 -21.5t-7 -31.5t-1.5 -46q0 -2 -1 -7q0 -22 -0.5 -31t1.5 -22.5l2.5 -17t7.5 -10t11 -7t18.5 -2t24.5 -1t33 1.5q6 1 9 1q43 1 76 19t47.5 44
t9.5 57.5t-32 58.5zM337 229q0 14 4 30t5.5 24.5t-6.5 23.5t-29 36q-28 29 -49 35.5t-76 5.5q-32 0 -52 -1.5t-37 -3.5t-24.5 -5t-13 -8t-4.5 -11.5t2 -15.5q9 -32 9 -100v-68h73q80 0 139 17t59 41z" />
    <glyph glyph-name="C" unicode="C" horiz-adv-x="430" 
d="M223 707q7 7 46.5 -1.5t65.5 -21.5t31.5 -39t-14.5 -39q-6 -4 -18 1t-24 15q-15 14 -33.5 18t-49.5 -1q-98 -13 -137.5 -87.5t-15.5 -198.5q17 -86 45 -130t76 -58q83 -24 151 98q53 97 73 47q8 -22 -29.5 -80.5t-82.5 -92.5q-43 -33 -83 -35.5t-85 24.5q-42 26 -65 59
t-42 96q-25 82 -21.5 167.5t33.5 132.5q34 54 65 80t68 33q41 7 46 13z" />
    <glyph glyph-name="D" unicode="D" horiz-adv-x="424" 
d="M21 694q14 16 41 16t120 -18q27 -5 74 -35t75 -60q13 -14 30.5 -57.5t30.5 -92.5q19 -74 21.5 -106.5t-8.5 -70.5q-32 -119 -197 -170q-80 -25 -110.5 -27.5t-44.5 16.5q-11 14 -23.5 288t-17.5 282q-4 6 -1 16.5t10 18.5zM225 605q-40 21 -102 31l-61 10l8 -120
q9 -125 23 -250.5t20 -131.5q7 -7 83 17q60 19 105 58.5t56 83.5q10 42 -7 106.5t-52.5 120.5t-72.5 75z" />
    <glyph glyph-name="E" unicode="E" horiz-adv-x="354" 
d="M17 634q-20 87 13 89q6 1 13 -2q23 -10 144 -19q44 -3 65.5 -5.5t35.5 -7t17.5 -9.5t3.5 -16q0 -18 -15 -22q-17 -5 -110 -1l-124 5l8 -97v-9q3 -29 4 -41.5t4 -30.5t4 -23.5t7.5 -14t10 -10t15 -4t19.5 -2.5h27h5q85 0 88 -19q2 -9 -8 -24q-13 -20 -85 -16l-72 4v-85
q0 -85 20 -107t87 -10q72 12 112 22q29 8 34.5 3t1.5 -33q-2 -15 -4 -21t-5.5 -11.5t-16.5 -7.5t-26.5 -3t-44.5 -2q-39 -2 -75 -9.5t-50 -16.5q-29 -19 -51.5 -20t-33.5 16q-8 12 -8 265t-10 295z" />
    <glyph glyph-name="F" unicode="F" horiz-adv-x="337" 
d="M15 650q-11 49 1.5 80t46.5 21q31 -10 150 -18q74 -5 95 -11t18 -21q-3 -14 -26.5 -17.5t-102.5 0.5q-73 3 -99 0t-27 -14q-4 -41 10 -124l7 -49l89 5q54 3 71.5 0t17.5 -16q0 -9 -6.5 -16t-15.5 -9l-156 -20l8 -102q4 -64 13 -116t14 -70.5t3.5 -33.5t-14.5 -29
q-28 -28 -47.5 -13t-14.5 62q6 49 -8 250t-27 261z" />
    <glyph glyph-name="G" unicode="G" horiz-adv-x="510" 
d="M107 666q42 43 63 53t72 10q129 0 129 -59q0 -19 -7 -23t-32 3q-77 19 -109 18t-63 -24q-51 -36 -73 -103t-23 -187q0 -37 1 -68.5t2.5 -49t3.5 -17.5q7 2 49 -37q36 -35 61.5 -37t85.5 25q113 51 107 163q-2 52 -11 61t-46 -5q-17 -6 -35 -7t-25 4q-22 13 -9 35t42 22
q34 0 122 9q58 6 73 3.5t15 -19.5q0 -10 -8.5 -19.5t-20.5 -12.5q-29 -7 -29 -45q0 -40 -41 -118t-76 -103q-15 -11 -46.5 -22.5t-58.5 -16.5q-45 -9 -65 -5.5t-51 24.5q-46 32 -68 90t-25 153q-4 106 18.5 176.5t77.5 128.5z" />
    <glyph glyph-name="H" unicode="H" horiz-adv-x="423" 
d="M317 704l35 9q8 1 13.5 -9.5t5 -23.5t-5.5 -24q-12 -18 -4.5 -105t20.5 -91q7 -3 10.5 -21.5t1 -35.5t-10.5 -17q-5 0 -6 -24.5t3 -55.5t11 -49q17 -41 22 -121q2 -37 -3 -48t-24 -14q-22 -3 -30 16q-11 27 -27 191q-3 35 -5 50.5t-5 29.5t-8 18t-11 6t-18 2
q-61 3 -149 -8q-41 -6 -53.5 -12t-8.5 -21q7 -26 12.5 -71.5t13.5 -67t28 -26.5q16 -4 23.5 -29t2.5 -53.5t-20 -41.5q-54 -44 -79 78q-15 70 -21 194q-5 101 -14 225q-7 84 -5 107t20 30q25 10 37 -9t4 -53q-10 -36 -12 -108q-1 -52 5.5 -63t44.5 -21q51 -13 133 -2l82 11
l-9 73q-4 36 -12 87q-11 76 -5 87q4 7 18 11z" />
    <glyph glyph-name="I" unicode="I" horiz-adv-x="87" 
d="M20 706q16 15 23 -23q9 -46 15 -233q8 -243 16 -293q7 -43 -5 -66.5t-36 -14.5q-15 5 -19 59.5t-4 254.5q0 306 10 316z" />
    <glyph glyph-name="J" unicode="J" horiz-adv-x="457" 
d="M317 699q114 24 127 2q7 -11 -5 -23t-36.5 -18.5t-51.5 -4.5q-24 2 -38 -1t-24 -16.5t-13 -34.5t-1 -63.5t8.5 -94t18.5 -134.5q7 -52 -13.5 -107.5t-57.5 -83.5l-47 -36l-56 29q-59 30 -84 63t-31 88q-5 39 -1.5 53.5t18.5 20.5q24 9 36.5 -11t5.5 -56q-6 -31 16 -56
t66 -36q23 -6 34 2t28 43q26 55 29 69t-8 127.5t-21 169.5l-9 57l-85 -8q-50 -4 -69.5 -1.5t-24.5 15.5q-9 24 9 30q20 7 111 5q112 -1 169 11z" />
    <glyph glyph-name="K" unicode="K" horiz-adv-x="434" 
d="M10 706q2 11 19.5 4.5t24.5 -133.5q5 -76 11 -102.5t19 -28.5q19 -4 95.5 66.5t107.5 118.5q25 39 46 31q34 -13 6 -53q-23 -33 -100 -106l-115 -107l98 -87q115 -103 160 -152t42 -68q-7 -35 -41 -20q-28 12 -55 52q-29 43 -129 132.5t-119 89.5q-8 0 -10 -53t-1 -122.5
t0 -78.5q0 -9 -14.5 -14.5t-28.5 -3.5t-15 10q0 25 -0.5 321t-0.5 304z" />
    <glyph glyph-name="L" unicode="L" horiz-adv-x="371" 
d="M15.5 675q5.5 11 26.5 11q11 0 16 -17t6 -58q2 -133 13.5 -287t19.5 -163q5 -4 46 -7t93 -3q107 2 119 -7q7 -5 5 -21q-2 -11 -5.5 -16.5t-18 -9t-36 -4.5t-66.5 -1q-121 -1 -147 -12t-54 14q-18 16 -21.5 31t2.5 45q10 54 12 193.5t-7 215.5q-9 85 -3.5 96z" />
    <glyph glyph-name="M" unicode="M" horiz-adv-x="585" 
d="M136 671q0 -15 32 -58.5t64.5 -83.5t32.5 -46q0 -22 26 -9q24 13 43 43q29 47 57 77q59 65 59 117q0 12 5.5 22.5t13.5 14.5q13 5 21 6t15 -3t11 -13t7 -27.5t4.5 -41.5t3.5 -60q9 -232 16.5 -332t18.5 -131q16 -46 7 -82q-7 -27 -26.5 -34t-31.5 13q-6 9 -11 108.5
l-11 226.5t-12 178l-9 78l-67 -90q-28 -37 -50.5 -75.5t-25.5 -55.5q-13 -60 -49 -35q-23 16 -48 65q-26 50 -68 100q-41 48 -56 35q-20 -18 -23 -188q-1 -28 -1 -63q-4 -230 -11 -237t-28 1q-12 5 -16.5 54.5t-5.5 200.5q-1 247 -10 291q-5 30 0.5 39.5t35.5 20.5
q41 14 64 7t23 -33z" />
    <glyph glyph-name="N" unicode="N" horiz-adv-x="477" 
d="M412 619q6 49 12.5 65t19.5 13q8 -2 13 -5t7.5 -12t2.5 -21.5t-2.5 -37t-7 -53l-12.5 -75.5q-24 -143 -33 -273q-5 -56 -10 -91t-13.5 -53.5t-18.5 -18.5t-26 18.5t-35 53.5t-46 91q-82 171 -157 283q-29 42 -32 33q-1 -15 2 -164q1 -85 6.5 -120.5t17.5 -44.5
q15 -11 18.5 -49.5t-6 -73.5t-25.5 -39q-16 -3 -25.5 8t-16.5 45.5t-11.5 90t-7.5 150.5q-9 225 -14.5 268t9 60t42.5 0q10 -7 18.5 -16.5t8.5 -15.5q0 -9 37.5 -73.5l90 -154t76.5 -139.5q17 -34 32 -58t20 -24q7 0 27 129t39 304z" />
    <glyph glyph-name="O" unicode="O" horiz-adv-x="418" 
d="M183 697q55 14 62 16q11 2 66.5 -56.5t72.5 -90.5q24 -45 24 -180q1 -110 -19.5 -170.5t-73.5 -110.5q-58 -53 -129 -51.5t-109 57.5q-37 54 -54 127.5t-12 146.5t25 139t59 113t88 60zM255 617q-13 39 -60 20q-51 -20 -87 -84q-2 -4 -5 -9q-37 -73 -40 -166.5t28 -167
t84 -93.5q37 -15 70.5 2t71.5 70q33 45 38.5 70.5t1.5 123.5q-3 70 -6.5 96t-11.5 40.5t-31 34.5q-19 16 -34.5 34.5t-18.5 28.5z" />
    <glyph glyph-name="P" unicode="P" horiz-adv-x="356" 
d="M12 677q8 20 40 21.5t124 -14.5q95 -17 136.5 -54t31.5 -97q-9 -57 -44 -88t-115 -52l-94 -26l8 -101q15 -169 4 -190q-7 -14 -32 3q-12 8 -17.5 58.5t-10.5 182.5q-2 93 -9 176t-14 105q-17 53 -8 76zM248 606q-14 9 -43.5 18.5t-56.5 12.5q-45 6 -56 2t-16 -27
q-8 -33 1 -105q3 -18 3.5 -26t5 -18.5t6 -13.5t10.5 -6.5t14 -2.5t22 3.5t29 5.5l39 10q72 19 85 64.5t-43 82.5z" />
    <glyph glyph-name="Q" unicode="Q" horiz-adv-x="587" 
d="M241 686q4 6 29 10t58 4q50 0 68 -6t32 -29q9 -14 24.5 -27.5t27.5 -16.5q13 -4 30.5 -29.5t33.5 -61.5q36 -80 33 -179.5t-42 -151.5q-25 -34 -26 -46.5t17.5 -47t17 -63t-22.5 -28.5q-8 0 -22 20.5t-28 47.5t-16 29q-1 3 -19.5 -6.5t-46 -25t-66 -26t-78.5 -12.5
t-86.5 18t-86.5 64q-52 56 -60.5 179.5t31.5 233.5q17 46 70 90.5t91 44.5q29 0 37 15zM255 594q25 37 20 41q-7 7 -69.5 -21.5t-84.5 -47.5q-42 -38 -55 -148.5t15 -196.5q21 -65 74 -100t120 -29.5t126 50.5q22 17 23 26.5t-14 39.5q-9 18 -20.5 33t-21 23t-17.5 15.5
t-12 13t-3.5 13t6.5 17.5q21 34 37.5 25.5t45.5 -68.5q16 -33 31 -56.5t20 -23.5t16 19t21 46q16 41 18 68.5t-8 80.5q-7 38 -15 62.5t-12 32.5t-18 25.5t-19 25.5q-18 26 -70.5 31.5t-90.5 -13.5q-56 -30 -57 -14q-1 8 14 30z" />
    <glyph glyph-name="R" unicode="R" horiz-adv-x="370" 
d="M13 683q8 12 97.5 13t111.5 -10q28 -15 44 -62.5t9 -96.5q-7 -51 -45 -96t-75 -45q-33 0 -33 -9q0 -12 97.5 -120t110.5 -112q20 -5 27 -30t-1.5 -48.5t-27.5 -23.5q-9 0 -18 7.5t-13 18.5q-9 24 -62 90t-105.5 119t-59.5 46q-5 -5 0.5 -51t13.5 -107.5t8 -89.5
q0 -55 -23 -60q-20 -4 -33 33q-5 13 -8 31q-6 40 -7 84.5t0 228.5q2 250 -8 267q-7 11 0 23zM214 626q-18 26 -41 29t-70 -15q-13 -5 -19 -8.5t-11 -8.5t-6 -18.5t-1 -27.5t2 -46l4 -95l50 2q34 2 61 21t40 46t11.5 60t-20.5 61z" />
    <glyph glyph-name="S" unicode="S" horiz-adv-x="433" 
d="M154 671q39 23 71.5 24.5t82.5 -19.5q40 -16 77.5 -61t37.5 -76q0 -29 -26 -24q-33 5 -59 48q-24 39 -61.5 54t-71.5 6.5t-58 -40t-24 -76.5q0 -47 24.5 -72.5t103.5 -62.5q42 -19 78.5 -42.5t45.5 -38.5q23 -35 15 -95t-39 -85q-55 -44 -140.5 -34t-152.5 68
q-43 38 -47.5 59.5t26.5 38.5q18 10 25.5 6t16.5 -26q16 -42 64.5 -68.5t97.5 -20.5q52 6 74 24.5t22 55.5q0 20 -3.5 31.5t-20.5 25.5t-42 27.5t-77 38.5q-80 38 -104.5 70.5t-24.5 101.5q0 49 24.5 93t64.5 69z" />
    <glyph glyph-name="T" unicode="T" horiz-adv-x="436" 
d="M16 674q4 11 49.5 16t159.5 7l201 4l-5 -32q-2 -11 -4 -16.5t-7.5 -9t-11.5 -4t-18 0.5t-24 2.5t-33 3.5t-43 3l-35 1l2 -164q2 -111 15 -368q4 -63 -7 -71q-5 -4 -18 -4q-18 0 -21 4q-10 13 -12 148q0 12 -1 141q-3 212 -16 258q-12 40 -45 46q-17 3 -56 -1
q-57 -6 -69 0t-1 35z" />
    <glyph glyph-name="U" unicode="U" horiz-adv-x="455" 
d="M22 645q7 12 28 12q13 0 16 -41.5t0 -184.5q-2 -73 0.5 -126.5t5.5 -87t13.5 -56.5t24.5 -35.5t37 -24.5q28 -13 43 -12t47 18q19 11 39 27.5t28 28.5q21 33 52 155t38 203q6 57 12 75t20 15q21 -4 18.5 -49.5t-32.5 -187.5q-31 -151 -73.5 -229t-106.5 -103
q-133 -51 -199 95q-16 35 -20 86t-2 190q4 220 11 232z" />
    <glyph glyph-name="V" unicode="V" horiz-adv-x="436" 
d="M14 647q21 36 45 2q13 -18 22 -53q36 -143 93 -302q30 -81 40 -81q5 -1 10 10q19 37 63 149t63 171q19 62 34 88t30 26q8 0 11 -13.5t0 -34t-11 -40.5l-38 -98l-51 -122.5t-69 -180.5q-14 -40 -26.5 -68.5t-16.5 -28.5q-14 0 -31.5 27t-25.5 62q-30 124 -70.5 258
t-57.5 162q-27 44 -14 67z" />
    <glyph glyph-name="W" unicode="W" horiz-adv-x="653" 
d="M13 643q17 28 37 6q19 -20 21 -63q1 -36 28 -212l26 -177l34 77q33 76 77 202q45 126 73 126q20 0 38 -62q11 -36 40 -103l52 -118t23 -58q0 -11 26 -45l26 -33l18 105q14 74 29.5 138.5t23.5 130.5q4 37 7.5 56t9 29t12.5 9t19.5 -8.5t6.5 -54.5t-39 -198
q-53 -240 -53 -285.5t-14 -54.5q-17 -11 -44.5 1t-27.5 30q0 37 -71.5 221t-85.5 184q-15 0 -74.5 -153t-62.5 -200q-3 -54 -16 -74.5t-37 -11.5q-14 6 -24 56t-23 176q-8 78 -23.5 173.5t-26.5 130.5q-14 46 -5 60z" />
    <glyph glyph-name="X" unicode="X" horiz-adv-x="501" 
d="M45 691q21 20 39 2t29 -70q3 -12 41 -98t38 -96q0 -12 19 -27q11 -8 33 12t72 83q86 110 109.5 156t45.5 38q48 -18 -14 -95l-191 -242q-16 -25 -8 -54.5t30.5 -69t46.5 -73.5t39.5 -68.5t10.5 -54.5q-12 -49 -35 -29q-24 21 -83 144l-62 127l-46 -65l-36.5 -56
l-28 -44.5t-19.5 -29.5t-18 -18.5t-18 -2.5q-23 4 -28 27.5t13 42.5q20 20 89 111l69 92l-26 79q-11 32 -25 63.5t-27 55l-26 46l-22 39t-14.5 31t-5 25.5t8.5 19z" />
    <glyph glyph-name="Y" unicode="Y" horiz-adv-x="376" 
d="M10 644q0 5 8 9t19 4q18 0 39.5 -29.5t54.5 -83t61 -86.5l42 -49l32 106q31 106 37 124q2 8 12 13t22 5q26 0 28.5 -23t-19.5 -48q-22 -24 -56.5 -142t-58.5 -251q-27 -146 -50 -157q-7 -4 -17 2q-11 7 -10.5 44t13.5 61q14 27 29 100q13 66 -6 114.5t-104 166.5
q-76 106 -76 120z" />
    <glyph glyph-name="Z" unicode="Z" horiz-adv-x="505" 
d="M53 637q9 11 26 13t50 -4q59 -10 213 -8q128 2 143 -6q10 -5 10 -24q0 -13 -8 -26.5t-19 -18.5q-20 -10 -181.5 -213t-173.5 -233q-2 -7 2 -10.5t24 -5t52.5 -0.5t95.5 4l181 9l-4 -32q-2 -12 -5 -18t-12.5 -9t-21.5 -2.5t-36.5 0.5t-53 0.5t-76 -2t-99.5 -7.5
q-65 -9 -98 -6.5t-42.5 12t-9.5 37.5q0 10 29.5 48t71.5 82q76 79 172 198.5t107 148.5q3 7 -0.5 11t-18.5 7t-39.5 4t-67.5 2q-134 2 -163.5 4.5t-45.5 12.5q-11 7 -11.5 13.5t9.5 18.5z" />
    <glyph glyph-name="bracketleft" unicode="[" horiz-adv-x="26" 
d="M10 343q0 296 2 286q1 -3 2 -54q5 -232 0 -464l-2 -51q-2 35 -2 283z" />
    <glyph glyph-name="backslash" unicode="\" horiz-adv-x="187" 
d="M17 524q-17 22 2 39q16 15 31 2l6 -6q4 -8 23 -99.5l42 -199.5t37 -147q23 -68 16 -78q-4 -6 -24 -6q-19 0 -25 9q-10 16 -37 166q-2 16 -3 17q-29 163 -43 226.5t-25 76.5z" />
    <glyph glyph-name="bracketright" unicode="]" horiz-adv-x="30" 
d="M13 100q0 201 3 189q1 -4 2 -35q5 -154 0 -308l-3 -34q-2 20 -2 188zM10 507q0 32 5 29q1 -1 2 -4q8 -19 0 -44q-4 -14 -6 3q-1 6 -1 16zM11 686q0 81 4 75q1 -2 2 -15q6 -60 0 -121q-3 -32 -5 3q-1 20 -1 58z" />
    <glyph glyph-name="a" unicode="a" horiz-adv-x="468" 
d="M202 597q37 12 96 15t94 -7q20 -5 25 -20q7 -20 7 -147q0 -65 4 -125t9 -99.5t10.5 -74.5l8.5 -55t2 -35.5t-8 -22.5t-22 -9q-22 -3 -27.5 10.5t-8.5 75.5l-4 90l-29 -47q-23 -38 -63.5 -63.5t-77.5 -25.5q-12 0 -37.5 9.5t-48.5 22.5q-87 50 -113.5 157t23.5 207
q29 57 66.5 90.5t93.5 53.5zM367 427v130l-46 -1q-101 -1 -167.5 -52t-87.5 -143q-10 -40 -3 -76.5t23 -69t41.5 -55.5t53.5 -35t59.5 -8t57.5 25q36 28 52.5 96.5t16.5 188.5z" />
    <glyph glyph-name="b" unicode="b" horiz-adv-x="353" 
d="M21 645q30 20 39 1q9 -20 9 -125q0 -137 7 -144q4 -4 42.5 19.5l79 49t45.5 25.5q10 0 50 -41q39 -40 48 -100t-16 -107q-21 -39 -68 -74t-78 -36q-28 0 -48 -14t-24 -36q-4 -29 -18.5 -37t-35 6.5t-23 59.5t-2.5 162.5t-11 237.5q-8 81 -7 114t11 39zM294 296
q5 25 0.5 42t-23.5 38q-21 23 -34 27t-35 -4q-63 -26 -92 -80t-15 -119q9 -37 29.5 -40t76.5 25q49 26 66.5 46.5t26.5 64.5z" />
    <glyph glyph-name="c" unicode="c" horiz-adv-x="435" 
d="M104 575q44 41 107.5 42t120.5 -38q45 -31 51 -45t-18 -33q-13 -11 -26 -7t-39 26q-54 45 -112 34.5t-95 -73.5q-16 -25 -22 -59.5t-6 -97.5q0 -60 3 -82t11.5 -36t32.5 -37q53 -47 101.5 -41.5t108.5 65.5q28 27 44.5 41t28 19t18 0.5t11.5 -17.5q7 -17 -42 -66.5
t-101 -79.5q-57 -33 -129.5 -4.5t-114.5 100.5q-16 28 -22 59t-5 84q4 161 94 246z" />
    <glyph glyph-name="d" unicode="d" horiz-adv-x="434" 
d="M277 591q8 21 24.5 19t28.5 -26q7 -13 22 -94l34.5 -190.5t30.5 -160.5q12 -56 3 -79.5t-39 -12.5q-23 9 -23 69v60l-64 -59q-62 -57 -110.5 -60.5t-102.5 43.5q-52 45 -66 110.5t11 145.5q15 48 30.5 68t54.5 43q51 30 81 26t82 -46l45 -38l-10 54q-5 27 -13 50
t-13.5 32t-8.5 23t3 23zM260 379q-23 39 -51 46.5t-77 -11.5q-31 -13 -51 -57t-20.5 -92.5t18.5 -91.5q18 -34 40.5 -46.5t68.5 -12.5q36 0 86.5 47.5t57.5 87.5q4 26 2.5 46.5t-8.5 31.5t-17 7q-8 -3 -21.5 9.5t-27.5 35.5z" />
    <glyph glyph-name="e" unicode="e" horiz-adv-x="431" 
d="M159 641q8 13 42 2.5t70 -36.5q27 -18 68.5 -93t41.5 -104q0 -17 -8.5 -20.5t-41.5 2.5q-20 4 -68.5 1.5t-95.5 -9.5l-114 -17l9 -73q9 -73 28 -108q27 -53 64 -78.5t74 -22t72.5 36t59.5 89.5q11 26 24 36t23 3t14 -30q3 -19 -33 -66t-81 -86t-66 -39q-39 0 -86.5 24
t-67.5 54q-30 46 -53.5 128.5t-23.5 141.5q0 70 33.5 146.5t70.5 90.5q36 13 45 27zM248 553q-25 29 -49 30.5t-63 -22.5q-28 -17 -44 -44.5t-32 -86.5q-7 -23 -4 -27t20 3q27 10 136 26l109 17l-22 36q-23 36 -51 68z" />
    <glyph glyph-name="f" unicode="f" horiz-adv-x="411" 
d="M177 645q42 39 90 40t92 -36q36 -31 41 -47.5t-20 -25.5q-9 -4 -23 2t-26 19q-27 29 -62.5 30t-65.5 -25t-42 -71q-25 -88 -9.5 -127t75.5 -39q33 -1 43.5 -6.5t10.5 -22.5t-9.5 -23t-37.5 -6q-40 0 -45 -20.5t28 -57.5q18 -22 25 -63.5t-0.5 -75t-25.5 -33.5
q-13 0 -34.5 53t-21.5 83q0 31 -16 76q-11 31 -22.5 37.5t-52.5 4.5q-33 -2 -46 2t-13 16q0 21 51 25l50 5l-2 74q-2 77 14 127t54 85z" />
    <glyph glyph-name="g" unicode="g" horiz-adv-x="385" 
d="M121 639q30 15 71 16.5t114 -9.5l64 -10l4 -236q5 -236 -3 -269t-60 -54.5t-101 -11.5q-39 7 -89.5 37.5t-83.5 65t-26 52.5q5 14 22 19.5t31.5 0.5t14.5 -19q0 -21 58 -62.5t82 -37.5q11 2 28.5 3.5t26.5 3t21 6t17.5 14.5t11.5 26.5t8 43.5t2 65q-1 110 -11 153l-10 43
l-20 -36q-23 -43 -62.5 -71.5t-74.5 -28.5q-42 0 -81.5 39.5t-47.5 90.5q-7 42 22.5 93t71.5 73zM275 577q-16 22 -41.5 29.5t-51 0.5t-50.5 -22.5t-40.5 -38t-21 -47t8.5 -50.5q33 -62 88 -57t98 74q25 39 27 62t-17 49z" />
    <glyph glyph-name="h" unicode="h" horiz-adv-x="413" 
d="M12 659q4 5 12 7.5t14 0.5q11 -4 15.5 -63t7.5 -133.5t9 -99.5t9 -25q4 0 19 37q11 27 32.5 44.5t66.5 37.5q33 15 62 22.5t38 4.5q20 -8 49.5 -86t29.5 -123q0 -25 4.5 -58t9.5 -60.5l9.5 -53t3 -44.5t-9.5 -27q-25 -25 -38 19q-12 37 -22 142q-10 97 -19.5 143.5
t-24 65.5t-40.5 19q-72 0 -109.5 -67t-33.5 -188q3 -128 -29 -128q-9 0 -23 11q-9 8 -12.5 19t-4.5 38.5t-1 63t-3.5 109.5t-11.5 160q-18 197 -9 212z" />
    <glyph glyph-name="i" unicode="i" horiz-adv-x="111" 
d="M12 476q8 13 28 9.5t20 -18.5q2 -76 11 -179t17 -137q21 -94 -22 -94q-10 0 -15.5 5t-9.5 23t-6 46.5t-3 82.5q-2 48 -5.5 93.5t-7 70.5t-6.5 49.5t-3.5 31.5t2.5 17zM32 616q12 22 18 24.5t29 -6.5q22 -8 21.5 -27.5t-22.5 -42.5q-17 -16 -23.5 -16t-18.5 17
q-18 25 -4 51z" />
    <glyph glyph-name="j" unicode="j" horiz-adv-x="312" 
d="M223 491q22 39 42 17q14 -15 19 -54q16 -131 17.5 -179.5t-8.5 -84.5q-17 -59 -33.5 -76t-63.5 -24q-33 -4 -57 2t-59 28q-48 30 -63.5 61t5.5 56q20 24 35.5 19.5t9.5 -33.5q-4 -21 4.5 -34.5t37.5 -30.5q77 -47 122 11q17 22 16.5 110t-18.5 138q-19 52 -6 74zM238 675
q21 8 30.5 -1t9.5 -38q0 -20 -7 -28t-22 -8t-22 8t-7 26q0 14 5.5 26t12.5 15z" />
    <glyph glyph-name="k" unicode="k" horiz-adv-x="332" 
d="M14 634q-6 24 -2.5 30.5t23.5 6.5q19 0 24.5 -11.5t5.5 -56.5q1 -56 9 -147.5t13 -96.5q8 -9 54.5 23t76.5 67q49 55 76 50q13 -2 13 -20q0 -15 -73.5 -80t-100.5 -74q-8 -2 24.5 -39t76.5 -78.5t68 -54.5q8 -5 14 -18.5t6 -28.5q0 -21 -13.5 -30t-29.5 -2.5t-22 26.5
q-8 25 -74.5 91t-83.5 66q-8 0 -8 -31.5t6.5 -69.5t15.5 -53q10 -16 -5.5 -38t-37.5 -22q-11 0 -15.5 24t-4.5 89q0 114 -14 152q-11 33 -6 43.5t12 23t2 26.5q-5 16 -14 109.5t-16 123.5z" />
    <glyph glyph-name="l" unicode="l" horiz-adv-x="130" 
d="M17 599q-12 30 -2.5 44t30.5 14q17 0 22 -10.5t5 -42.5q0 -54 16 -147q18 -112 27.5 -246.5t0.5 -150.5q-6 -12 -12.5 -11.5t-20.5 14.5q-12 13 -16 37t-1 74q4 68 -15 231t-34 194z" />
    <glyph glyph-name="m" unicode="m" horiz-adv-x="657" 
d="M10.5 575q6.5 11 27.5 11q14 0 18 -21.5t5.5 -57.5t10 -57t15.5 -14q5 6 19 38q18 43 47 68t56.5 27t51 -19t32.5 -61q13 -63 26 -58q10 3 18 39q8 37 39 67.5t70 40.5q21 5 39 -1t42 -27q39 -31 55.5 -81.5t26.5 -168.5q4 -44 11.5 -78.5t13.5 -38.5q12 -7 13 -57
t-10 -85q-3 -10 -9 -16.5t-11 -3.5q-13 8 -29 94t-22 185q-4 53 -13 101.5t-20 69.5q-16 33 -29 41.5t-45 8.5q-33 0 -46.5 -9.5t-31.5 -47.5q-25 -49 -33.5 -142.5t9.5 -111.5q7 -6 11.5 -33t4.5 -58q0 -50 -5 -63t-24 -13q-17 0 -22.5 9.5t-5.5 39.5q0 21 -4.5 38
t-10.5 20.5t-8.5 12t0.5 16.5q6 15 -11.5 148t-29.5 163q-11 27 -45.5 24.5t-53.5 -31.5q-29 -44 -39.5 -115.5t2.5 -134.5q10 -59 8 -72t-8.5 -34t-6.5 -48q0 -25 -6 -34t-23 -9t-22 15q-7 22 -8 170q-1 186 -23.5 264.5t-16 89.5z" />
    <glyph glyph-name="n" unicode="n" horiz-adv-x="500" 
d="M23 630q29 18 40 -27q1 -6 14 -111q6 -45 13 -78q9 -37 12 -38t7 12q2 4 5 12q21 66 84.5 122.5t140.5 78.5q24 7 36 3.5t24 -23.5q26 -38 39 -118t22.5 -178.5t19.5 -145.5q26 -110 -21 -110q-14 0 -21.5 6.5t-13 29.5t-7.5 60t-3 105q-2 124 -17 217t-35 105
q-6 3 -29 -4.5t-51 -21.5q-43 -21 -64 -44t-51 -82q-33 -63 -39 -91.5t0 -87.5q14 -139 0 -149q-7 -5 -29 17q-14 14 -20.5 53.5t-8.5 90t-15 141t-36 182.5q-10 37 -9 51.5t13 22.5z" />
    <glyph glyph-name="o" unicode="o" horiz-adv-x="399" 
d="M140 594q36 16 79.5 13t68.5 -23q20 -17 56 -78q40 -68 45 -152.5t-24 -153t-83 -94.5q-57 -27 -125.5 -18t-100.5 49q-46 57 -46 158.5t47 200.5q20 43 39 65t44 33zM324 456q-11 20 -35.5 43.5t-48.5 38.5l-59 35l-43 -36q-50 -43 -74 -132.5t-10.5 -169.5t60.5 -98
q56 -21 122 2.5t92 73.5q22 44 21 121t-25 122z" />
    <glyph glyph-name="p" unicode="p" horiz-adv-x="324" 
d="M56 604q29 7 99 1q85 -8 126 -41t31 -85q-13 -67 -67.5 -116t-115.5 -49q-29 0 -34 -8.5t-2 -51.5q3 -34 9.5 -61.5t11 -39t4 -27t-9.5 -35.5q-21 -45 -37 -16q-15 26 -16 94q-3 100 -14 209.5t-23 147.5t-4.5 54t42.5 24zM237 535q-19 9 -50.5 15.5t-59.5 6.5h-67l9 -44
q8 -44 8 -92q0 -88 103 -45q42 18 61 39t29 59q7 25 1 36t-34 25z" />
    <glyph glyph-name="q" unicode="q" horiz-adv-x="493" 
d="M75 585q24 18 51 23t93 2q72 -3 92.5 -9t33.5 -30q21 -38 19 -61t-30 -41q-13 -9 -18.5 -15.5t-9 -25.5t-4.5 -43.5t0 -78.5q0 -90 4.5 -136t15.5 -65t32 -19q30 0 49 27t19 70q1 47 23 56q40 15 38 -27q-1 -21 -14 -56q-48 -127 -121 -127q-50 0 -72 59.5t-24 202.5
l-1 70l-37 -37q-35 -34 -80 -37t-81 28q-32 26 -40.5 79.5t9 107.5t53.5 83zM225.5 539q-24.5 20 -56 20t-57 -16t-43.5 -46t-18 -66q0 -39 14.5 -64.5t37.5 -31.5t48.5 1t51 33t41.5 65q15 36 10.5 60.5t-29 44.5z" />
    <glyph glyph-name="r" unicode="r" horiz-adv-x="401" 
d="M22 574q33 20 46.5 -0.5t11.5 -87.5q-3 -85 15 -146q8 -27 14 -11q7 21 24 84q14 50 63 103t92 64q25 7 64 -5.5t39 -27.5q0 -11 -14 -33q-8 -13 -16.5 -13.5t-25.5 9.5q-33 20 -53 16t-52 -37q-53 -55 -75.5 -128t-19.5 -178q4 -159 -26 -149q-6 2 -14 12
q-10 13 -32 207.5t-39 243.5q-14 40 -14 54.5t12 22.5z" />
    <glyph glyph-name="s" unicode="s" horiz-adv-x="389" 
d="M99 589q12 8 57 10t94.5 -3.5t89 -23t39.5 -43.5t-24 -27.5t-50 22.5q-11 10 -38.5 18.5t-55.5 11.5q-44 4 -63 -1.5t-45 -29.5q-34 -32 -36.5 -59.5t25.5 -73.5q16 -26 39 -41t68 -28q64 -18 115 -61.5t51 -79.5q0 -12 -8.5 -34.5t-19.5 -40.5q-17 -28 -37.5 -40
t-67.5 -23q-51 -12 -76 -10.5t-69 18.5q-56 22 -71 43t9 46q14 14 24 11.5t37 -27.5q33 -31 86.5 -35.5t94 17.5t40.5 59q0 70 -134 113q-48 15 -83 44t-51.5 63.5t-14 73.5t27.5 73q33 48 47 58z" />
    <glyph glyph-name="t" unicode="t" horiz-adv-x="331" 
d="M152 615q25 15 39 -7t12 -74l-2 -65l61 8q43 6 51.5 2.5t5.5 -25.5q-2 -18 -13 -26t-35 -11q-33 -3 -37.5 -11t3.5 -53l27 -156q15 -96 23 -115q3 -8 -1.5 -21.5t-13.5 -25.5q-14 -18 -20 -19t-15 13q-9 13 -12 52.5t-7.5 107.5t-14.5 125q-11 60 -19.5 77.5t-29.5 19.5
q-18 3 -41.5 -4t-39 -15t-33 -11.5t-25.5 6.5q-19 19 23 41q29 15 71 22q47 8 54 27.5t-14 79.5q-10 27 -9 39t12 19z" />
    <glyph glyph-name="u" unicode="u" horiz-adv-x="446" 
d="M11.5 573q3.5 6 13 9t19.5 1q23 -4 33 -76q11 -76 41 -173.5t57 -140.5q24 -40 61 -56t66 2q35 21 57 88.5t29 172.5q5 80 11 108t18 28q14 0 17 -19.5t1 -80.5q-3 -92 -27.5 -176.5t-60.5 -136.5t-74 -52q-39 0 -71 22.5t-52.5 57t-39 83.5t-30 94t-27.5 98t-30 85
q-8 20 -11.5 38t0 24z" />
    <glyph glyph-name="v" unicode="v" horiz-adv-x="475" 
d="M10 507q0 10 7 15t17 3q20 -3 78 -114t60 -148q1 -9 3 -15t4.5 -9t5.5 -1q4 0 5.5 1t5 -3.5t6 -9t7.5 -14.5l10 -19.5l13.5 -25l17.5 -30.5l34 -56l32 79q28 66 51.5 161t39 144t34.5 49q22 0 24 -9q1 -11 -31 -105q-24 -70 -44 -136q-44 -141 -68.5 -199.5t-41.5 -61.5
q-9 -1 -31 35.5t-50 93.5l-56 117t-56 114t-43 76q-34 45 -34 68z" />
    <glyph glyph-name="w" unicode="w" horiz-adv-x="608" 
d="M27 533q24 10 41 2.5t20 -28.5q17 -121 41.5 -228.5t35.5 -107.5q4 0 21 41t37 98q36 109 53.5 142t38.5 33q24 -1 145 -276q31 -71 44 -70q3 0 5 4q12 19 22.5 95.5t11.5 154.5q1 57 6 71.5t24 14.5q13 0 19.5 -5.5t4.5 -14.5q0 -1 -8.5 -62l-18.5 -128.5t-26 -136.5
t-29 -91q-9 -14 -23 -9q-14 4 -33.5 60t-11.5 69q4 7 2 8t-8 -3q-7 -4 -16 8.5t-16 36.5q-16 50 -51.5 112.5t-47.5 62.5q-17 0 -56 -104t-52 -186q-10 -56 -31 -53q-25 4 -43 86q-39 173 -60 248.5t-36 92.5q-43 47 -5 63z" />
    <glyph glyph-name="x" unicode="x" horiz-adv-x="381" 
d="M13 563q14 35 41 7q22 -23 71 -106l71 -121l31 82q32 82 40 106q6 19 18.5 24.5t23 -4.5t10.5 -30q0 -15 -3.5 -25t-8.5 -10q-11 0 -34.5 -51t-31.5 -94q-6 -33 4.5 -54t61.5 -78q44 -49 56.5 -71t3.5 -35q-17 -28 -34 -27t-28 30q-13 34 -45 78.5t-44 44.5
q-10 0 -31.5 -49t-47.5 -127q-9 -28 -20.5 -47t-17.5 -16q-19 6 -21 39t16 54t50 95.5t32 95.5q0 18 -25.5 62.5t-55 80t-39.5 32.5q-11 -5 -24.5 17t-18.5 49t0 48z" />
    <glyph glyph-name="y" unicode="y" horiz-adv-x="367" 
d="M308 576q1 4 8.5 6t18.5 0q8 -1 12.5 -4.5t7 -13.5t3 -23.5t-2 -40.5t-7 -59l-11.5 -84q-19 -136 -20 -231q-2 -129 -36 -124q-9 1 -20 12q-13 14 -13 34.5t13 80.5q20 92 20 122q0 22 -60.5 76t-165.5 128q-59 41 -42 55q6 4 19 4q37 0 177 -117q65 -54 82 -52
q18 3 18 69q1 15 0 39q-3 111 -1 123z" />
    <glyph glyph-name="z" unicode="z" horiz-adv-x="474" 
d="M20.5 578q10.5 11 132.5 0q249 -22 286 -33q32 -10 22 -32q-5 -9 -26 -36q-41 -51 -133 -197.5t-92 -159.5q0 -18 47.5 -27t102.5 -1q41 6 54.5 2.5t23.5 -21.5q9 -17 7 -25.5t-18 -17.5q-26 -14 -46 -1q-9 6 -50 10t-89 4q-97 0 -110 8q-8 6 -8 25q0 13 9.5 33t22.5 34
q33 34 61 79l103 157q31 46 50.5 81.5t16.5 38.5q-11 11 -138 25.5t-173 9.5q-38 -4 -52 -1t-14 14q0 20 10.5 31z" />
    <glyph glyph-name="braceleft" unicode="{" 
 />
    <glyph glyph-name="bar" unicode="|" 
 />
    <glyph glyph-name="braceright" unicode="}" 
 />
    <glyph glyph-name="asciitilde" unicode="~" horiz-adv-x="505" 
d="M10 199q0 12 67.5 48.5t86.5 37.5q17 1 86 -42q62 -38 90 -40t84 26q38 20 49.5 21t16.5 -14q1 -1 1 -3q7 -16 0 -23t-56 -32q-5 -3 -8 -4q-61 -31 -96 -29t-92 40q-58 39 -84.5 41.5t-64.5 -27.5q-17 -14 -36 -19t-31.5 0t-12.5 19z" />
    <glyph glyph-name="cent" unicode="&#xa2;" 
 />
    <glyph glyph-name="sterling" unicode="&#xa3;" horiz-adv-x="433" 
d="M199 543q41 26 80.5 27.5t92.5 -20.5q51 -21 51 -49q0 -34 -18.5 -36.5t-54.5 26.5q-18 16 -39.5 27t-33.5 11q-33 0 -72 -45t-39 -83v-42l100 8q65 6 82.5 3.5t17.5 -18.5q0 -13 -12 -18t-43 -5q-55 0 -102 -10l-46 -9l10 -73q10 -73 11 -90q1 -22 36 -31.5t76.5 -1
t58.5 31.5l25 33v-40q0 -25 -9.5 -37t-39.5 -24q-49 -21 -99 -21q-29 0 -46 -9t-35 -34q-23 -32 -42.5 -32t-68.5 32q-24 16 -28.5 43.5t7.5 51t37 37t53 4.5q25 -8 28 18q3 23 -8 91q-6 38 -13.5 43.5t-39.5 -3.5q-44 -13 -60 2q-16 17 15 37q30 19 68 19q24 0 31 4.5
t1 18.5q-13 34 9 87.5t59 75.5zM130 87q-8 13 -37 13q-21 0 -26 -19t13 -31q14 -8 36 8t14 29z" />
    <glyph glyph-name="section" unicode="&#xa7;" 
 />
    <glyph glyph-name="guillemotleft" unicode="&#xab;" horiz-adv-x="437" 
d="M181 182q0 13 36 49l71.5 73t35.5 52q0 23 10.5 35t23 8t18.5 -22q5 -13 -22 -52t-57 -77t-30 -48q0 -6 24.5 -22t59.5 -32q56 -26 68 -37.5t4 -32.5q-11 -29 -24.5 -31t-33.5 22q-12 15 -59 37.5t-86 43.5t-39 34zM167 370q33 36 62 40.5t35 -26.5q3 -14 -42.5 -65
l-93 -100.5t-47.5 -58.5q0 -11 65 -57t81 -46q8 0 10.5 -8.5t-0.5 -21.5t-11 -26q-7 -11 -21 -6.5t-48 29.5q-147 106 -147 139q0 9 18.5 28t44.5 37q34 24 47 39.5t9 29.5q-6 26 38 73z" />
    <glyph glyph-name="guillemotright" unicode="&#xbb;" horiz-adv-x="423" 
d="M210 171q-9 0 -85 -50t-93 -50q-36 0 -15 29q19 26 72 58q32 20 55.5 37t23.5 21q0 7 -33.5 40.5t-64.5 70t-26 51.5q4 9 11.5 15.5t15.5 6.5q16 0 51.5 -44t35.5 -65q0 -7 2.5 -11t6.5 -2q9 5 42 -20q19 -14 24 -26.5t0 -29.5q-4 -13 -10.5 -22t-12.5 -9zM191 447
q16 16 35 7.5t31 -35.5q14 -32 69.5 -90t71.5 -58q24 0 12 -36q-14 -39 -51 -68q-42 -34 -97 -112q-27 -38 -37 -39q-11 0 -19 30q-5 18 1.5 31.5t27.5 29.5q42 31 73 65.5t31 48.5q0 25 -125 162q-25 28 -30 40.5t7 23.5z" />
    <glyph glyph-name="questiondown" unicode="&#xbf;" horiz-adv-x="29" 
d="M11 186q0 253 3 242q1 -4 2 -46q5 -196 0 -393l-2 -44q-3 25 -3 241zM10 693q0 78 4 73q1 -2 2 -12q6 -56 -2 -121q-2 -19 -3 3q-1 17 -1 57z" />
    <glyph glyph-name="Agrave" unicode="&#xc0;" 
 />
    <glyph glyph-name="Aacute" unicode="&#xc1;" horiz-adv-x="28" 
d="M10 -86q0 81 4 75q1 -2 2 -14q5 -61 0 -121q-3 -32 -5 2q-1 21 -1 58zM11 421q0 243 3 236q5 -16 4 -320q0 -69 -2 -113l-2 -41q-3 24 -3 238z" />
    <glyph glyph-name="Acircumflex" unicode="&#xc2;" 
 />
    <glyph glyph-name="Adieresis" unicode="&#xc4;" 
 />
    <glyph glyph-name="Ccedilla" unicode="&#xc7;" 
 />
    <glyph glyph-name="Egrave" unicode="&#xc8;" 
 />
    <glyph glyph-name="Eacute" unicode="&#xc9;" horiz-adv-x="47" 
d="M14 -107q0 70 4 64q1 -2 2 -11q6 -49 -1 -105q-3 -19 -4 3q-1 15 -1 49zM20 26q-6 -16 -8 1q-3 23 3 27q2 1 3 -1q9 -9 2 -27zM13 626q1 15 5.5 19.5t11.5 -2.5q14 -14 -2 -31q-5 -5 -8 -6t-4.5 0.5t-2 6.5t-0.5 13zM15 734q5 12 11 59q1 10 5 -2q1 -3 2 -8
q7 -24 -10 -50q-12 -19 -13 -19t5 20z" />
    <glyph glyph-name="Ecircumflex" unicode="&#xca;" 
 />
    <glyph glyph-name="Edieresis" unicode="&#xcb;" 
 />
    <glyph glyph-name="Icircumflex" unicode="&#xce;" 
 />
    <glyph glyph-name="Idieresis" unicode="&#xcf;" 
 />
    <glyph glyph-name="Ntilde" unicode="&#xd1;" 
 />
    <glyph glyph-name="Oacute" unicode="&#xd3;" horiz-adv-x="31" 
d="M14 114q0 209 3 199q1 -4 2 -38q5 -161 0 -321l-2 -37q-3 20 -3 197zM19 454q-6 -15 -9 2q-2 23 4 26q2 1 3 -1q9 -8 2 -27zM19 683q-6 -16 -9 1q-2 23 4 27q2 1 3 -1q9 -9 2 -27z" />
    <glyph glyph-name="Ocircumflex" unicode="&#xd4;" horiz-adv-x="31" 
d="M19 -189q-6 -15 -9 2q-2 23 4 26q2 1 3 0q9 -9 2 -28zM13 -43q0 43 3 40q2 -1 3 -8q5 -30 -1 -65q-3 -15 -4 3q-1 11 -1 30zM13 93q0 49 4 46q1 -1 2 -7q5 -32 -1 -75q-3 -16 -4 3q-1 11 -1 33z" />
    <glyph glyph-name="Odieresis" unicode="&#xd6;" 
 />
    <glyph glyph-name="Ugrave" unicode="&#xd9;" horiz-adv-x="42" 
d="M13 -114q13 21 16 5q2 -9 2 -30q0 -24 -4 -25q-2 -1 -10 12q-13 23 -4 38zM22 -14q0 21 4 22q6 1 6 -21q1 -11 -3 -19q-5 -13 -6 6q-1 5 -1 12zM25 414q0 253 3 242q1 -3 2 -45q5 -197 0 -393l-3 -44q-2 24 -2 240z" />
    <glyph glyph-name="Uacute" unicode="&#xda;" 
 />
    <glyph glyph-name="Ucircumflex" unicode="&#xdb;" 
 />
    <glyph glyph-name="Udieresis" unicode="&#xdc;" 
 />
    <glyph glyph-name="germandbls" unicode="&#xdf;" 
 />
    <glyph glyph-name="agrave" unicode="&#xe0;" 
 />
    <glyph glyph-name="aacute" unicode="&#xe1;" 
 />
    <glyph glyph-name="acircumflex" unicode="&#xe2;" 
 />
    <glyph glyph-name="adieresis" unicode="&#xe4;" 
 />
    <glyph glyph-name="ccedilla" unicode="&#xe7;" 
 />
    <glyph glyph-name="egrave" unicode="&#xe8;" 
 />
    <glyph glyph-name="eacute" unicode="&#xe9;" 
 />
    <glyph glyph-name="ecircumflex" unicode="&#xea;" 
 />
    <glyph glyph-name="edieresis" unicode="&#xeb;" 
 />
    <glyph glyph-name="icircumflex" unicode="&#xee;" 
 />
    <glyph glyph-name="idieresis" unicode="&#xef;" 
 />
    <glyph glyph-name="oacute" unicode="&#xf3;" horiz-adv-x="44" 
d="M10 -171q0 21 4 22q6 0 6 -22q0 -10 -3 -18q-5 -13 -7 6v12zM10 -57q0 33 4 30q1 0 2 -5q6 -24 0 -50q-4 -14 -5 4q-1 8 -1 21zM11 93q0 49 4 46q1 -1 2 -7q6 -32 -1 -75q-2 -16 -4 3q-1 11 -1 33zM11 269q2 53 12 50q5 -5 4.5 -23t-5.5 -39l-12 -50zM15 371
q9 15 12.5 14t3.5 -19q0 -9 -3.5 -13t-8.5 -2q-12 8 -4 20zM31 469q-6 -16 -8 1q-3 23 4 27q1 0 3 -1q9 -9 1 -27zM31 654q-6 -15 -8 2q-3 23 4 26q1 1 3 -1q9 -8 1 -27zM24 736q0 31 5 28q1 0 2 -3q8 -20 0 -45q-4 -13 -6 3q-1 7 -1 17z" />
    <glyph glyph-name="ocircumflex" unicode="&#xf4;" 
 />
    <glyph glyph-name="odieresis" unicode="&#xf6;" 
 />
    <glyph glyph-name="ugrave" unicode="&#xf9;" horiz-adv-x="31" 
d="M14 164q0 243 3 232q1 -4 2 -42q6 -195 -1 -395q-2 -44 -3 2q-1 52 -1 203zM12 586q0 33 4 30q1 0 2 -5q6 -24 -1 -51q-3 -13 -5 5v21zM19 683q-6 -16 -9 1q-2 23 4 27q2 1 3 -1q9 -9 2 -27z" />
    <glyph glyph-name="uacute" unicode="&#xfa;" 
 />
    <glyph glyph-name="ucircumflex" unicode="&#xfb;" 
 />
    <glyph glyph-name="udieresis" unicode="&#xfc;" 
 />
    <glyph glyph-name="eogonek" unicode="&#x119;" 
 />
    <glyph glyph-name="quotedblleft" unicode="&#x201c;" horiz-adv-x="306" 
d="M79 597q32 14 43 8q10 -6 -4 -32t-37 -45t-14 -67q7 -38 -9 -46.5t-41 21.5q-18 22 5.5 84t56.5 77zM177 447q-17 21 0.5 65t47.5 79.5t46 36.5q32 1 23 -29q-5 -20 -26 -45q-15 -18 -28.5 -43t-17.5 -42q-6 -34 -16.5 -38.5t-28.5 16.5z" />
    <glyph glyph-name="quotedblbase" unicode="&#x201e;" horiz-adv-x="314" 
d="M201 101q9 15 36 12.5t41 -19.5q12 -14 19 -43.5t6.5 -60t-16 -53.5t-44.5 -23q-32 0 -34 11.5t26.5 36t27 45t-35.5 49.5q-15 13 -22.5 26t-3.5 19zM58 115q3 5 16.5 9.5t28.5 4.5q27 0 30.5 -9t-3.5 -53q-8 -54 -34 -92.5t-57 -43.5q-29 -4 -29 4q0 9 33 42
q27 27 34 65.5t-13 50.5q-14 8 -6 22z" />
    <glyph glyph-name="bullet" unicode="&#x2022;" 
 />
    <glyph glyph-name="Euro" unicode="&#x20ac;" horiz-adv-x="510" 
d="M279 555q70 36 152 24q62 -10 68 -41q2 -11 -6 -24t-16 -13.5t-25 9.5q-53 33 -132 9.5t-118 -83.5l-23 -36h61q59 0 91.5 -9t32.5 -25t-50 -14.5t-98 5.5t-67 -16q-12 -18 -14 -28.5t9.5 -17t35 -8t69.5 -1.5q118 0 125 -18q2 -8 -28 -17q-32 -8 -103 -9q-47 0 -71.5 -2
t-40.5 -10.5t-20 -20.5t-4 -36q0 -22 7 -47t16 -37q19 -28 61 -41.5t82 -7.5t55 30q12 19 24 14t12 -28q0 -32 -48 -59t-92 -20q-38 6 -79.5 35t-61.5 64q-10 19 -14.5 58t-7 67t-11.5 28q-18 0 -13 20q5 23 26 29q12 4 21.5 14.5t12.5 22.5q5 18 -2 22.5t-35 1.5
q-24 -2 -35 3t-14 19q-3 15 7.5 20t48.5 5q44 0 59 9.5t46 58.5q42 67 107 101z" />
  </font>
</defs>
</svg>
