<?xml version="1.0" standalone="no"?>
<!DOCTYPE svg PUBLIC "-//W3C//DTD SVG 1.1//EN" "http://www.w3.org/Graphics/SVG/1.1/DTD/svg11.dtd" >
<svg>
<metadata>
Created by FontForge 20090622 at Tue Jun  2 10:59:59 2015
 By deploy user
&#194;&#169; 1992, 1994, 1997, 2000, 2004 Adobe Systems Incorporated. All rights reserved.
</metadata>
<defs>
<font id="MyriadPro-Cond" horiz-adv-x="300" >
  <font-face 
    font-family="Myriad Pro Cond"
    font-weight="400"
    font-stretch="condensed"
    units-per-em="1000"
    panose-1="2 11 5 6 3 4 3 2 2 4"
    ascent="750"
    descent="-250"
    x-height="484"
    cap-height="674"
    bbox="-140 -250 970 935"
    underline-thickness="50"
    underline-position="-50"
    unicode-range="U+0020-U+FB04"
  />
<missing-glyph horiz-adv-x="500" 
d="M0 0v700h500v-700h-500zM250 395l170 255h-340zM280 350l170 -255v510zM80 50h340l-170 255zM50 605v-510l170 255z" />
    <glyph glyph-name="f_f_j" unicode="ffj" horiz-adv-x="642" 
d="M567 677l-16 -60q-40 19 -80 19q-55 0 -76 -33t-21 -95v-24h217v-453q0 -75 -11.5 -116t-37.5 -69q-20 -21 -50.5 -33t-55.5 -13l-10 61q48 13 65 38q23 35 23 154v373h-140v-426h-77v426h-150v-426h-77v426h-61v58h61v18q0 98 52 147q39 39 101 39q35 0 67 -15l-22 -59
q-22 11 -44 11q-36 0 -55 -26q-22 -30 -22 -95v-20h150v32q0 75 42 129.5t134 54.5q58 0 94 -23z" />
    <glyph glyph-name="f_j" unicode="fj" horiz-adv-x="415" 
d="M147 0h-77v426h-61v58h61v32q0 75 42 129.5t134 54.5q58 0 94 -23l-16 -60q-40 19 -80 19q-55 0 -76 -33t-21 -95v-24h217v-453q0 -75 -11.5 -116t-37.5 -69q-20 -21 -50.5 -33t-55.5 -13l-10 61q48 13 65 38q23 35 23 154v373h-140v-426z" />
    <glyph glyph-name="f_f" unicode="ff" horiz-adv-x="451" 
d="M370 0h-77v426h-146v-426h-77v426h-61v58h61v24q0 95 44 142q36 38 100 38q28 0 50 -9l-14 -61q-16 7 -37 7q-36 0 -51 -29t-15 -87v-25h146v29q0 97 43 146q37 41 96 41q37 0 61 -12l-13 -60q-18 8 -42 8q-68 0 -68 -121v-31h88v-58h-88v-426z" />
    <glyph glyph-name="f_f_i" unicode="ffi" horiz-adv-x="645" 
d="M567 677l-16 -60q-40 19 -80 19q-55 0 -76 -33t-21 -95v-24h217v-484h-77v426h-140v-426h-77v426h-150v-426h-77v426h-61v58h61v18q0 98 52 147q39 39 101 39q35 0 67 -15l-22 -59q-22 11 -44 11q-36 0 -55 -26q-22 -30 -22 -95v-20h150v32q0 75 42 129.5t134 54.5
q58 0 94 -23z" />
    <glyph glyph-name="f_f_l" unicode="ffl" horiz-adv-x="645" 
d="M290 673l-22 -59q-22 11 -44 11q-36 0 -55 -27q-22 -28 -22 -94v-20h150v26q0 96 55 148q45 42 123 42q67 0 117 -25v-675h-77v627q-23 10 -53 10q-88 0 -88 -122v-31h83v-58h-83v-426h-77v426h-150v-426h-77v426h-61v58h61v18q0 98 52 147q39 39 101 39q35 0 67 -15z
" />
    <glyph glyph-name="f_i" unicode="fi" horiz-adv-x="418" 
d="M147 0h-77v426h-61v58h61v32q0 75 42 129.5t134 54.5q58 0 94 -23l-16 -60q-40 19 -80 19q-55 0 -76 -33t-21 -95v-24h217v-484h-77v426h-140v-426z" />
    <glyph glyph-name="f_l" unicode="fl" horiz-adv-x="418" 
d="M147 0h-77v426h-61v58h61v26q0 96 55 148q45 42 123 42q67 0 117 -25v-675h-77v627q-23 10 -53 10q-88 0 -88 -122v-31h83v-58h-83v-426z" />
    <glyph glyph-name=".notdef" horiz-adv-x="500" 
d="M0 0v700h500v-700h-500zM250 395l170 255h-340zM280 350l170 -255v510zM80 50h340l-170 255zM50 605v-510l170 255z" />
    <glyph glyph-name=".null" horiz-adv-x="0" 
 />
    <glyph glyph-name="nonmarkingreturn" horiz-adv-x="333" 
 />
    <glyph glyph-name="space" unicode=" " horiz-adv-x="157" 
 />
    <glyph glyph-name="exclam" unicode="!" horiz-adv-x="204" 
d="M134 187h-64l-10 487h84zM101 -8q-21 0 -34.5 15t-13.5 39t14 39.5t35 15.5q22 0 35 -15t13 -40t-13 -39.5t-36 -14.5z" />
    <glyph glyph-name="quotedbl" unicode="&#x22;" horiz-adv-x="309" 
d="M50 683h71l-14 -233h-43zM189 683h71l-14 -233h-43z" />
    <glyph glyph-name="numbersign" unicode="#" horiz-adv-x="385" 
d="M145 252h78l19 152h-78zM113 0h-51l25 200h-64v52h71l20 152h-69v51h76l25 195h50l-25 -195h78l25 195h51l-25 -195h63v-51h-70l-19 -152h69v-51h-76l-25 -201h-52l25 201h-76z" />
    <glyph glyph-name="dollar" unicode="$" horiz-adv-x="385" 
d="M217 -84h-56v100q-59 1 -110 33l18 60q51 -32 101 -32q44 0 68.5 28.5t24.5 72.5q0 42 -20.5 72.5t-65.5 57.5q-58 35 -90.5 72t-32.5 93q0 59 32.5 100.5t81.5 54.5v97h55v-91q58 0 95 -27l-19 -59q-41 25 -87 25q-39 0 -62 -26.5t-23 -60.5q0 -41 20 -64.5t75 -56.5
q114 -67 114 -177q0 -68 -33.5 -111t-85.5 -55v-106z" />
    <glyph glyph-name="percent" unicode="%" horiz-adv-x="645" 
d="M154 658q55 0 88 -53.5t33 -142.5q0 -97 -35.5 -147.5t-86.5 -50.5q-55 0 -89 53t-34 143q0 91 35 144.5t89 53.5zM151 610q-33 0 -47.5 -44.5t-14.5 -104.5q0 -149 64 -149q63 0 63 148q0 150 -65 150zM173 -14h-49l346 677h49zM494 387q55 0 88 -54t33 -143
q0 -96 -35.5 -146.5t-86.5 -50.5q-55 0 -89 53t-34 143q0 91 35 144.5t89 53.5zM491 339q-33 0 -47.5 -44.5t-14.5 -104.5q0 -38 5.5 -69.5t20.5 -55.5t38 -24q63 0 63 148q0 150 -65 150z" />
    <glyph glyph-name="ampersand" unicode="&#x26;" horiz-adv-x="491" 
d="M473 0h-85l-19.5 27l-25.5 36q-57 -71 -146 -71q-79 0 -123.5 55t-44.5 131q0 116 103 193v3q-49 78 -49 151q0 65 37.5 111t100.5 46q50 0 84.5 -36t34.5 -102q0 -52 -26.5 -94.5t-89.5 -87.5v-3q56 -94 128 -191q35 74 40 194h69q-13 -154 -74 -244q5 -8 86 -118z
M210 53q62 0 99 59q-79 108 -145 212q-61 -57 -61 -137q0 -55 28.5 -94.5t78.5 -39.5zM214 625q-28 0 -44 -27t-16 -68q0 -63 38 -123q80 60 80 133q0 35 -14 60t-44 25z" />
    <glyph glyph-name="quotesingle" unicode="'" horiz-adv-x="170" 
d="M50 683h71l-14 -233h-43z" />
    <glyph glyph-name="parenleft" unicode="(" horiz-adv-x="253" 
d="M168 692h60q-104 -164 -104 -407q0 -239 104 -405h-60q-109 159 -109 406q3 253 109 406z" />
    <glyph glyph-name="parenright" unicode=")" horiz-adv-x="253" 
d="M85 -120h-60q104 164 104 407q0 241 -104 405h60q109 -155 109 -405q-3 -249 -109 -407z" />
    <glyph glyph-name="asterisk" unicode="*" horiz-adv-x="373" 
d="M244 682l54 -30l-86 -120l1 -2l135 17v-60l-135 15l-1 -2l88 -115l-56 -32l-59 132l-2 -1l-60 -134l-51 33l85 120l-1 1l-132 -17v60l131 -16l1 2l-83 116l52 30l60 -128h2z" />
    <glyph glyph-name="plus" unicode="+" horiz-adv-x="596" 
d="M270 533h57v-238h230v-55h-230v-240h-57v240h-229v55h229v238z" />
    <glyph glyph-name="comma" unicode="," horiz-adv-x="194" 
d="M70 -119l-53 -7q40 112 58 233l87 10q-18 -63 -45 -133.5t-47 -102.5z" />
    <glyph glyph-name="hyphen" unicode="-" horiz-adv-x="279" 
d="M30 291h219v-59h-219v59z" />
    <glyph glyph-name="period" unicode="." horiz-adv-x="194" 
d="M99 -8q-21 0 -35.5 16t-14.5 42q0 25 15 41.5t36 16.5q23 0 37 -16t14 -42q0 -27 -14 -42.5t-38 -15.5z" />
    <glyph glyph-name="slash" unicode="/" horiz-adv-x="281" 
d="M66 -40h-58l215 722h58z" />
    <glyph glyph-name="zero" unicode="0" horiz-adv-x="385" 
d="M198 658q78 0 119 -87.5t41 -244.5q0 -169 -46.5 -251.5t-122.5 -82.5t-119 87t-43 245q0 162 45 248t126 86zM194 592q-45 0 -67.5 -72t-22.5 -195q-1 -123 21.5 -195t68.5 -72q87 0 87 267q0 121 -21.5 194t-65.5 73z" />
    <glyph glyph-name="one" unicode="1" horiz-adv-x="385" 
d="M188 0v572h-2l-108 -62l-15 60l137 80h63v-650h-75z" />
    <glyph glyph-name="two" unicode="2" horiz-adv-x="385" 
d="M345 0h-312v50l54 74l61.5 87t50 80t44.5 97.5t13 87.5q0 55 -23.5 85.5t-68.5 30.5q-42 0 -94 -36l-19 58q51 44 127 44q77 0 115.5 -49.5t38.5 -128.5q0 -82 -42 -164.5t-118 -185.5l-43 -60v-2h216v-68z" />
    <glyph glyph-name="three" unicode="3" horiz-adv-x="385" 
d="M28 22l17 61q45 -27 93 -27q51 0 82 34.5t31 94.5q0 63 -35.5 99t-95.5 36h-18v58h15q41 0 79 30.5t38 85.5q0 48 -23.5 74t-62.5 26q-38 0 -81 -31l-17 58q47 37 117 37q67 0 105.5 -42.5t38.5 -107.5q0 -50 -25.5 -90.5t-71.5 -61.5v-2q49 -13 81.5 -56t32.5 -114
q0 -82 -50 -137t-136 -55q-71 0 -114 30z" />
    <glyph glyph-name="four" unicode="4" horiz-adv-x="385" 
d="M304 0h-70v180h-216v52l211 418h75v-407h70v-63h-70v-180zM91 243h143v183q0 42 6 128h-4q-24 -57 -55 -122l-90 -187v-2z" />
    <glyph glyph-name="five" unicode="5" horiz-adv-x="385" 
d="M332 650v-68h-174l-27 -173q8 2 24 2q29 0 64.5 -13t58.5 -36q55 -53 55 -148q0 -98 -55 -160t-141 -62q-69 0 -111 29l17 60q45 -25 91 -25q52 0 87.5 39.5t35.5 110.5q0 74 -40 110t-107 36q-33 0 -51 -3l41 301h232z" />
    <glyph glyph-name="six" unicode="6" horiz-adv-x="385" 
d="M319 658v-65q-19 0 -46 -6q-134 -34 -167 -235h3q42 62 110 62q62 0 101 -54t39 -146q0 -96 -42.5 -159t-117.5 -63q-83 0 -127 73.5t-44 191.5q0 178 84 293q59 81 158 102q29 4 49 6zM200 52q35 0 58.5 38.5t23.5 117.5q0 72 -23.5 109.5t-63.5 37.5q-58 0 -85 -70
q-5 -15 -5 -39q1 -96 27 -145t68 -49z" />
    <glyph glyph-name="seven" unicode="7" horiz-adv-x="385" 
d="M37 650h313v-46l-210 -604h-75l206 580v2h-234v68z" />
    <glyph glyph-name="eight" unicode="8" horiz-adv-x="385" 
d="M135 345l-1 2q-40 27 -62.5 67t-22.5 82q0 73 44.5 117.5t106.5 44.5q66 0 103 -46t37 -107q0 -93 -87 -154v-2q104 -69 104 -178q0 -77 -46.5 -128t-120.5 -51q-76 0 -119 50t-43 116q0 112 107 187zM193 49q39 0 63.5 30t24.5 88q0 89 -93 150q-39 -24 -61.5 -63
t-22.5 -83q0 -55 24 -88.5t65 -33.5zM195 601q-32 0 -52 -28t-20 -72q0 -45 21.5 -73t58.5 -52q64 46 64 120q0 48 -18.5 76.5t-53.5 28.5z" />
    <glyph glyph-name="nine" unicode="9" horiz-adv-x="385" 
d="M67 -8v66q23 0 48 6q52 13 89 51q61 66 76 184h-2q-45 -54 -107 -54t-101.5 53t-39.5 140q0 92 45.5 156t118.5 64q80 0 121.5 -73.5t41.5 -187.5q0 -186 -86 -301q-57 -78 -150 -98q-25 -6 -54 -6zM189 598q-34 0 -59 -38.5t-24 -115.5q0 -69 24 -105t64 -36
q24 0 46 15.5t34 42.5q6 15 6 41q0 98 -25 147t-66 49z" />
    <glyph glyph-name="colon" unicode=":" horiz-adv-x="194" 
d="M99 359q-21 0 -35 15.5t-14 40.5t14.5 41t35.5 16q22 0 36 -15.5t14 -41.5q0 -25 -13.5 -40.5t-37.5 -15.5zM99 -8q-21 0 -35 15.5t-14 40.5t14.5 41t35.5 16q22 0 36 -15.5t14 -41.5q0 -25 -13.5 -40.5t-37.5 -15.5z" />
    <glyph glyph-name="semicolon" unicode=";" horiz-adv-x="194" 
d="M69 -119l-51 -7q40 116 57 233l86 10q-18 -63 -45 -133.5t-47 -102.5zM110 359q-21 0 -35 15.5t-14 40.5t14.5 41t35.5 16q22 0 36 -15.5t14 -41.5q0 -25 -13.5 -40.5t-37.5 -15.5z" />
    <glyph glyph-name="less" unicode="&#x3c;" horiz-adv-x="596" 
d="M66 243v47l464 242v-67l-388 -198v-2l388 -199v-66z" />
    <glyph glyph-name="equal" unicode="=" horiz-adv-x="596" 
d="M556 336h-516v55h516v-55zM556 147h-516v55h516v-55z" />
    <glyph glyph-name="greater" unicode="&#x3e;" horiz-adv-x="596" 
d="M530 295v-58l-464 -237v66l400 199v2l-400 199v66z" />
    <glyph glyph-name="question" unicode="?" horiz-adv-x="309" 
d="M173 184h-68l-2 15q-16 93 42 190q2 3 10.5 18t10.5 18t8.5 15.5l8.5 16.5t6.5 15t6 16.5l4 15t3 17.5t0.5 17q0 41 -21 61t-56 20q-40 0 -66 -18l-16 59q38 26 99 26q70 0 104.5 -39.5t34.5 -98.5q0 -18 -3.5 -36t-8 -31.5t-14 -32t-15 -28t-18 -29.5t-16.5 -27
q-24 -42 -32 -78t-3 -85zM134 -8q-21 0 -35 15.5t-14 39.5q0 25 14.5 41t35.5 16q23 0 36.5 -15.5t13.5 -41.5q0 -25 -13.5 -40t-37.5 -15z" />
    <glyph glyph-name="at" unicode="@" horiz-adv-x="590" 
d="M348 234l29 146q-9 4 -28 4q-55 0 -95.5 -65.5t-40.5 -142.5q0 -63 40 -63q30 0 58 37.5t37 83.5zM409 -28l13 -35q-63 -38 -148 -38q-105 0 -172 74t-67 214q0 168 91 288t225 120q99 0 154 -66.5t55 -174.5q0 -138 -42.5 -213.5t-111.5 -75.5q-29 0 -45 20.5t-13 59.5
h-3q-44 -80 -109 -80q-37 0 -59 28.5t-22 81.5q0 58 23 114.5t73.5 97.5t117.5 41q40 0 70 -14l-40 -202q-20 -105 22 -105q37 0 65.5 65t28.5 163q0 105 -42.5 163t-128.5 58q-107 0 -185.5 -105t-78.5 -265q0 -120 54 -183t152 -63q64 0 123 32z" />
    <glyph glyph-name="A" unicode="A" horiz-adv-x="435" 
d="M291 202h-150l-44 -202h-75l154 674h85l150 -674h-76zM152 264h128l-35 171q-10 49 -27 154h-3q-15 -95 -28 -154z" />
    <glyph glyph-name="B" unicode="B" horiz-adv-x="416" 
d="M61 3v661q52 13 112 13q99 0 149 -47q44 -41 44 -115q0 -52 -27 -90.5t-77 -58.5v-3q59 -16 92 -61t33 -111q0 -81 -48 -134q-54 -61 -178 -61q-63 0 -100 7zM137 612v-224h35q48 0 82.5 33.5t34.5 85.5q0 110 -111 110q-26 0 -41 -5zM137 329v-268q18 -4 39 -4
q60 0 95.5 35t35.5 99q0 66 -39 101.5t-97 36.5h-34z" />
    <glyph glyph-name="C" unicode="C" horiz-adv-x="373" 
d="M342 76l13 -64q-34 -18 -97 -18q-103 0 -164.5 84.5t-61.5 250.5q0 95 22 166.5t58 110t76 56.5t83 18q58 0 83 -17l-17 -65q-32 14 -67 14q-63 0 -110 -67t-47 -209q0 -144 44.5 -209t114.5 -65q38 0 70 14z" />
    <glyph glyph-name="D" unicode="D" horiz-adv-x="445" 
d="M61 3v661q42 13 103 13q101 0 158 -51q91 -79 91 -273q0 -196 -81 -285q-65 -72 -186 -72q-54 0 -85 7zM137 610v-548q11 -2 29 -2q27 0 50 8t45 28.5t37.5 53t25 83.5t9.5 118q0 263 -160 263q-23 0 -36 -4z" />
    <glyph glyph-name="E" unicode="E" horiz-adv-x="354" 
d="M306 385v-65h-169v-253h192v-67h-269v674h257v-67h-180v-222h169z" />
    <glyph glyph-name="F" unicode="F" horiz-adv-x="345" 
d="M60 0v674h257v-67h-180v-236h168v-65h-168v-306h-77z" />
    <glyph glyph-name="G" unicode="G" horiz-adv-x="436" 
d="M391 352v-335q-54 -23 -119 -23q-99 0 -159 65q-82 88 -81 269t76 266.5t178 85.5q60 0 95 -19l-17 -66q-32 16 -77 16q-73 0 -124 -66t-51 -210t45.5 -209.5t114.5 -65.5q35 0 47 8v220h-87v64h159z" />
    <glyph glyph-name="H" unicode="H" horiz-adv-x="463" 
d="M60 674h77v-289h189v289h77v-674h-77v315h-189v-315h-77v674z" />
    <glyph glyph-name="I" unicode="I" horiz-adv-x="199" 
d="M60 674h77v-674h-77v674z" />
    <glyph glyph-name="J" unicode="J" horiz-adv-x="265" 
d="M134 189v485h77v-484q0 -108 -40.5 -153t-117.5 -45q-32 0 -50 7l7 65q13 -4 37 -4q44 0 65.5 27t21.5 102z" />
    <glyph glyph-name="K" unicode="K" horiz-adv-x="404" 
d="M61 0v674h76v-320h2q12 21 42 81l126 239h85l-165 -288l169 -386h-83l-138 325l-38 -65v-260h-76z" />
    <glyph glyph-name="L" unicode="L" horiz-adv-x="344" 
d="M60 0v674h77v-609h189v-65h-266z" />
    <glyph glyph-name="M" unicode="M" horiz-adv-x="599" 
d="M482 0l-14 290q-10 182 -7 264h-4q-25 -125 -54 -234l-82 -316h-50l-78 303q-35 133 -56 247h-3q1 -59 -8 -269l-13 -285h-69l40 674h84l78 -308q40 -154 54 -232h3q14 83 50 232l76 308h86l39 -674h-72z" />
    <glyph glyph-name="N" unicode="N" horiz-adv-x="465" 
d="M130 0h-69v674h72l124 -316q67 -175 86 -235h2q-9 159 -9 310v241h69v-674h-72l-128 324q-51 124 -81 229h-2q8 -120 8 -320v-233z" />
    <glyph glyph-name="O" unicode="O" horiz-adv-x="446" 
d="M230 682q86 0 135 -89.5t49 -250.5q0 -180 -53.5 -265t-141.5 -85q-86 0 -136.5 89.5t-50.5 256.5q0 164 54 254t144 90zM224 614q-40 0 -66.5 -42t-36 -101.5t-9.5 -133.5q0 -55 6 -102.5t18.5 -88t35 -63.5t53.5 -23t53 24.5t34 66.5t17 88t5 100q0 51 -5 96.5
t-17 87.5t-34.5 66.5t-53.5 24.5z" />
    <glyph glyph-name="P" unicode="P" horiz-adv-x="399" 
d="M61 0v664q50 13 111 13q100 0 150 -49q49 -49 49 -140q0 -84 -41 -138q-26 -36 -69 -55.5t-90 -19.5q-23 0 -34 1v-276h-76zM137 609v-269q18 -2 31 -2q58 0 92 37.5t34 107.5q0 58 -27 94.5t-87 36.5q-26 0 -43 -5z" />
    <glyph glyph-name="Q" unicode="Q" horiz-adv-x="446" 
d="M430 -29l-29 -62q-91 38 -155 73q-18 10 -25 10q-87 0 -138 87.5t-51 258.5q0 165 54 254.5t145 89.5q86 0 134.5 -90t48.5 -250q0 -265 -115 -319v-3q33 -15 131 -49zM226 60q30 0 52.5 24t34 66t16.5 88.5t5 100.5q0 52 -5 98t-17 87.5t-34 65.5t-53 24t-54 -24.5
t-35.5 -66t-18 -87.5t-5.5 -98q-1 -73 8.5 -132t36.5 -102.5t69 -43.5z" />
    <glyph glyph-name="R" unicode="R" horiz-adv-x="409" 
d="M61 0v664q46 13 110 13q103 0 152 -48q47 -48 47 -132q0 -123 -108 -174v-2q37 -11 58 -47.5t32 -103.5q24 -139 39 -170h-78q-14 28 -36 166q-11 70 -36 98.5t-74 28.5h-30v-293h-76zM137 611v-258h33q55 0 88.5 37t33.5 98q0 126 -114 127q-28 0 -41 -4z" />
    <glyph glyph-name="S" unicode="S" horiz-adv-x="361" 
d="M28 23l17 66q40 -27 96 -27q53 0 83 31t30 83q0 43 -22 74.5t-67 65.5q-127 87 -127 187q0 77 49.5 127t128.5 50q61 0 94 -25l-18 -66q-33 23 -80 23t-72.5 -29t-25.5 -67q0 -46 21.5 -72.5t77.5 -66.5q117 -82 117 -194q0 -86 -53.5 -137.5t-135.5 -51.5q-33 0 -65.5 9
t-47.5 20z" />
    <glyph glyph-name="T" unicode="T" horiz-adv-x="354" 
d="M139 0v605h-123v69h323v-69h-123v-605h-77z" />
    <glyph glyph-name="U" unicode="U" horiz-adv-x="457" 
d="M59 674h77v-452q0 -162 91 -162q94 0 94 162v452h77v-440q0 -125 -46 -183.5t-126 -58.5q-167 0 -167 233v449z" />
    <glyph glyph-name="V" unicode="V" horiz-adv-x="421" 
d="M249 0h-79l-154 674h83l65 -316q35 -167 48 -259h3q10 85 45 261l64 314h82z" />
    <glyph glyph-name="W" unicode="W" horiz-adv-x="654" 
d="M222 0h-73l-129 674h79l57 -325q20 -112 34 -243h3q8 79 41 244l62 324h65l63 -317q31 -163 39 -251h3q9 82 35 247l56 321h76l-131 -674h-76l-64 328q-21 107 -35 221h-2q-13 -114 -37 -224z" />
    <glyph glyph-name="X" unicode="X" horiz-adv-x="392" 
d="M378 0h-80l-61 162q-25 67 -42 118h-3l-40 -120l-58 -160h-79l138 344l-134 330h80l61 -156q21 -55 39 -107h2l37 110l55 153h78l-132 -328z" />
    <glyph glyph-name="Y" unicode="Y" horiz-adv-x="394" 
d="M235 0h-77v285l-149 389h82l60 -169q40 -118 50 -152h2q12 48 49 155l57 166h80l-154 -386v-288z" />
    <glyph glyph-name="Z" unicode="Z" horiz-adv-x="358" 
d="M20 0v46l231 560v2h-212v66h298v-52l-227 -553v-3h226v-66h-316z" />
    <glyph glyph-name="bracketleft" unicode="[" horiz-adv-x="253" 
d="M222 -112h-148v798h148v-53h-86v-692h86v-53z" />
    <glyph glyph-name="backslash" unicode="\" horiz-adv-x="263" 
d="M255 -40h-58l-196 722h58z" />
    <glyph glyph-name="bracketright" unicode="]" horiz-adv-x="253" 
d="M31 686h149v-798h-149v53h86v692h-86v53z" />
    <glyph glyph-name="asciicircum" unicode="^" horiz-adv-x="596" 
d="M532 189h-65l-168 388h-3l-168 -388h-64l206 461h56z" />
    <glyph glyph-name="underscore" unicode="_" horiz-adv-x="500" 
d="M0 -75h500v-50h-500v50z" />
    <glyph glyph-name="grave" unicode="`" 
d="M39 682h79l77 -135h-51z" />
    <glyph glyph-name="a" unicode="a" horiz-adv-x="364" 
d="M309 320v-210q0 -71 5 -110h-69l-5 51h-3q-33 -59 -97 -59q-49 0 -81.5 38t-32.5 100q0 86 58.5 130.5t147.5 45.5v15q0 53 -17.5 81t-59.5 28q-44 0 -80 -25l-17 54q45 32 113 32q138 0 138 -171zM234 153v98q-133 0 -133 -113q0 -44 17.5 -65t41.5 -21q26 0 45 19
t26 54q3 13 3 28z" />
    <glyph glyph-name="b" unicode="b" horiz-adv-x="399" 
d="M53 116v576h76v-266h2q34 65 103 65q59 0 95.5 -64.5t36.5 -180.5q0 -123 -43 -188.5t-104 -65.5q-63 0 -96 71h-4l-5 -63h-65q4 112 4 116zM129 306v-136q0 -16 3 -30q21 -84 73 -84q84 0 84 187q0 80 -21 131t-65 51q-26 0 -46 -26t-26 -60q-2 -22 -2 -33z" />
    <glyph glyph-name="c" unicode="c" horiz-adv-x="302" 
d="M279 71l11 -59q-31 -18 -80 -18q-81 0 -129 63.5t-48 181.5q0 108 51.5 180t139.5 72q42 0 68 -15l-15 -63q-26 13 -55 13q-55 0 -83.5 -54.5t-28.5 -132.5q0 -85 30.5 -133t83.5 -48q30 0 55 13z" />
    <glyph glyph-name="d" unicode="d" horiz-adv-x="399" 
d="M269 692h76v-576q0 -4 4 -116h-66l-5 60h-3q-32 -68 -102 -68q-62 0 -101 65.5t-39 182.5q0 121 42.5 186t102.5 65q63 0 89 -57h2v258zM269 171v128q0 22 -1 32q-4 39 -24.5 66.5t-47.5 27.5q-45 0 -65.5 -52.5t-20.5 -132.5q0 -81 21 -132.5t61 -51.5q54 0 74 83
q3 13 3 32z" />
    <glyph glyph-name="e" unicode="e" horiz-adv-x="363" 
d="M332 235h-224q0 -180 114 -180q46 0 80 18l13 -56q-44 -23 -107 -23q-85 0 -130.5 65t-45.5 178q0 116 45.5 185t118.5 69q69 0 103.5 -61.5t34.5 -150.5q0 -20 -2 -44zM109 292h151q1 68 -20.5 103.5t-51.5 35.5q-36 0 -56 -41.5t-23 -97.5z" />
    <glyph glyph-name="f" unicode="f" horiz-adv-x="228" 
d="M147 0h-77v426h-61v58h61v29q0 97 43 146q37 41 97 41q36 0 60 -12l-12 -60q-20 8 -43 8q-68 0 -68 -121v-31h88v-58h-88v-426z" />
    <glyph glyph-name="g" unicode="g" horiz-adv-x="399" 
d="M346 333v-271q0 -91 -11.5 -136.5t-36.5 -74.5q-46 -51 -129 -51q-63 0 -106 24l18 60q40 -21 90 -21q99 0 99 148v49h-2q-25 -59 -93 -59q-64 0 -103 66t-39 173q0 124 46 187.5t107 63.5q56 0 90 -61h2l4 54h68q-4 -132 -4 -151zM270 177v140q0 22 -4 35q-18 73 -70 73
q-41 0 -63.5 -50t-22.5 -132q0 -88 24 -133.5t62 -45.5q51 0 69 69q5 19 5 44z" />
    <glyph glyph-name="h" unicode="h" horiz-adv-x="405" 
d="M54 0v692h77v-261h2q15 25 41 43q26 17 64 17q50 0 81.5 -42t31.5 -128v-321h-77v312q0 114 -65 114q-57 0 -75 -77q-3 -15 -3 -36v-313h-77z" />
    <glyph glyph-name="i" unicode="i" horiz-adv-x="184" 
d="M131 0h-77v484h77v-484zM91 659q21 0 33.5 -13.5t12.5 -36.5t-12.5 -36.5t-34.5 -13.5q-19 0 -31.5 14t-12.5 36t13 36t32 14z" />
    <glyph glyph-name="j" unicode="j" horiz-adv-x="188" 
d="M-18 -200l-10 61q48 13 65 38q23 35 23 154v431h77v-453q0 -75 -11.5 -116t-37.5 -69q-20 -21 -50.5 -33t-55.5 -13zM99 659q20 0 32.5 -13.5t12.5 -36.5t-12.5 -36.5t-33.5 -13.5q-20 0 -32.5 14t-12.5 36t13 36t33 14z" />
    <glyph glyph-name="k" unicode="k" horiz-adv-x="354" 
d="M129 692v-433h2q23 49 26 54l96 171h83l-128 -204l140 -280h-86l-105 228l-28 -45v-183h-76v692h76z" />
    <glyph glyph-name="l" unicode="l" horiz-adv-x="191" 
d="M54 0v692h77v-692h-77z" />
    <glyph glyph-name="m" unicode="m" horiz-adv-x="620" 
d="M54 0v359q0 33 -2 75t-2 50h67l4 -60h2q36 67 109 67q76 0 101 -74h2q21 38 48 55q28 19 67 19q52 0 84 -41.5t32 -129.5v-320h-76v303q0 57 -14 90.5t-54 33.5q-24 0 -43.5 -19.5t-27.5 -53.5q-3 -18 -3 -43v-311h-76v317q0 110 -67 110q-25 0 -45.5 -20.5t-26.5 -58.5
q-3 -18 -3 -41v-307h-76z" />
    <glyph glyph-name="n" unicode="n" horiz-adv-x="405" 
d="M54 0v359q0 33 -2 75t-2 50h67l4 -59h2q36 66 111 66q53 0 85 -41t32 -125v-325h-77v311q0 115 -67 115q-25 0 -45 -20.5t-27 -57.5q-4 -16 -4 -44v-304h-77z" />
    <glyph glyph-name="o" unicode="o" horiz-adv-x="383" 
d="M195 491q69 0 112.5 -64t43.5 -185q0 -129 -48 -189.5t-113 -60.5q-69 0 -113 63.5t-44 185.5q0 124 47 187t115 63zM192 430q-24 0 -41.5 -18.5t-25.5 -48.5t-11.5 -59.5t-3.5 -61.5q0 -34 3.5 -64t12 -60t26 -47.5t42.5 -17.5q31 0 50 33t24.5 72t5.5 84
q0 32 -3.5 61.5t-12 59.5t-25.5 48.5t-41 18.5z" />
    <glyph glyph-name="p" unicode="p" horiz-adv-x="399" 
d="M53 -192v525q0 15 -4 151h68l4 -62h2q37 69 103 69q65 0 102.5 -65t37.5 -183q0 -126 -43.5 -188.5t-106.5 -62.5q-58 0 -85 56h-2v-240h-76zM129 301v-124q0 -24 4 -40q18 -81 71 -81q45 0 65 52t20 133t-21 132.5t-65 51.5q-26 0 -47 -26.5t-24 -60.5q-3 -17 -3 -37z
" />
    <glyph glyph-name="q" unicode="q" horiz-adv-x="399" 
d="M269 -192v242h-3q-13 -26 -37.5 -42t-56.5 -16q-60 0 -99.5 64.5t-39.5 179.5q0 122 43.5 188.5t108.5 66.5q60 0 90 -63l2 -1l4 57h68q-4 -132 -4 -151v-525h-76zM269 177v126q0 12 -2 32q-5 38 -25 64t-46 26q-44 0 -65 -51t-21 -134q0 -82 21 -133t64 -51q51 0 70 80
q4 17 4 41z" />
    <glyph glyph-name="r" unicode="r" horiz-adv-x="248" 
d="M53 0v359q0 24 -2 71.5t-2 53.5h69l4 -77h2q12 36 40.5 60t61.5 24q11 0 16 -1v-78h-16q-36 0 -61.5 -28.5t-31.5 -71.5q-3 -20 -3 -44v-268h-77z" />
    <glyph glyph-name="s" unicode="s" horiz-adv-x="289" 
d="M22 22l19 58q39 -25 78 -25q32 0 51.5 19t19.5 51q0 29 -13 50t-49 45q-97 62 -97 137q0 59 38 96.5t95 37.5q44 0 86 -25l-20 -58q-32 22 -65 22q-29 0 -45.5 -18t-16.5 -44q0 -24 12 -41.5t48 -41.5q100 -64 100 -147q0 -70 -41.5 -107t-104.5 -37q-60 0 -95 28z" />
    <glyph glyph-name="t" unicode="t" horiz-adv-x="255" 
d="M71 566l77 31v-113h93v-58h-93v-288q0 -80 50 -80q19 0 31 3l4 -59q-22 -8 -57 -8q-51 0 -76 29q-29 32 -29 122v281h-59v58h59v82z" />
    <glyph glyph-name="u" unicode="u" horiz-adv-x="398" 
d="M344 484v-352q0 -32 2 -81.5t2 -50.5h-67l-6 51h-2q-13 -22 -40.5 -40.5t-62.5 -18.5q-118 0 -118 186v306h77v-295q0 -64 14 -98t51 -34q30 0 47.5 21t21.5 43q4 17 4 44v319h77z" />
    <glyph glyph-name="v" unicode="v" horiz-adv-x="347" 
d="M13 484h80l61 -272q13 -60 21 -118h3q5 36 20 118l60 272h76l-127 -484h-68z" />
    <glyph glyph-name="w" unicode="w" horiz-adv-x="566" 
d="M13 484h80l47 -237q20 -104 26 -154h4q9 64 30 152l56 239h59l53 -232q22 -100 31 -159h4q7 63 26 156l46 235h77l-122 -484h-63l-56 235q-14 54 -27 145h-2q-11 -75 -28 -148l-58 -232h-65z" />
    <glyph glyph-name="x" unicode="x" horiz-adv-x="340" 
d="M14 484h83l44 -104l10.5 -26l12 -31.5t10.5 -26.5h2q2 6 32 84l43 104h79l-115 -239l114 -245h-83l-46 110q-10 24 -32 83h-2q-6 -17 -32 -84l-45 -109h-78l115 243z" />
    <glyph glyph-name="y" unicode="y" horiz-adv-x="346" 
d="M12 484h81l65 -278q4 -17 10 -50t10 -50h2l10.5 53.5t9.5 45.5l58 279h76l-79 -311q-57 -228 -120 -312q-40 -51 -87 -73l-29 65q36 20 69 61q28 36 43 82q6 17 6 24q0 9 -3 18z" />
    <glyph glyph-name="z" unicode="z" horiz-adv-x="313" 
d="M16 0v47l153 300l19.5 35.5t18.5 35.5v2h-172v64h258v-51l-151 -295q-21 -36 -39 -72v-2h189v-64h-276z" />
    <glyph glyph-name="braceleft" unicode="{" horiz-adv-x="253" 
d="M28 263v50q69 0 69 71q0 29 -6 85q-6 58 -6 89q0 64 34.5 96t90.5 32h12v-52h-14q-59 -7 -59 -75q0 -28 6 -78q5 -63 5 -74q1 -55 -16.5 -81t-52.5 -37v-2q35 -10 52.5 -36.5t16.5 -82.5q0 -25 -6 -75q-5 -62 -5 -77q0 -35 13.5 -53.5t46.5 -22.5h13v-52h-13
q-54 0 -89 30.5t-35 97.5q0 30 6 90q6 56 6 86q0 71 -69 71z" />
    <glyph glyph-name="bar" unicode="|" horiz-adv-x="201" 
d="M69 750h63v-1000h-63v1000z" />
    <glyph glyph-name="braceright" unicode="}" horiz-adv-x="253" 
d="M225 313v-50q-37 0 -53 -21t-16 -50q0 -30 6 -86q6 -60 6 -90q0 -67 -35 -97.5t-89 -30.5h-13v52h13q33 4 46.5 22.5t13.5 53.5q0 15 -5 77q-6 50 -6 75q-1 57 16.5 83t52.5 36v2q-34 11 -52 37.5t-17 80.5q0 24 6 74q5 63 5 78q0 68 -59 75h-14v52h12q56 0 90.5 -32
t34.5 -96q0 -31 -6 -89q-6 -56 -6 -85q0 -71 69 -71z" />
    <glyph glyph-name="asciitilde" unicode="~" horiz-adv-x="596" 
d="M127 221h-54q-2 64 28.5 99t81.5 35q48 0 129 -42q76 -40 111 -40q49 0 47 78h53q4 -66 -23.5 -100.5t-78.5 -34.5q-53 0 -129 40q-81 43 -115 43q-51 0 -50 -78z" />
    <glyph glyph-name="uni00A0" unicode="&#xa0;" horiz-adv-x="157" 
 />
    <glyph glyph-name="exclamdown" unicode="&#xa1;" horiz-adv-x="204" 
d="M144 -189h-84l10 486h64zM103 496q22 0 35 -15t13 -40q0 -24 -13 -39t-36 -15q-21 0 -35 15t-14 39q0 25 14 40t36 15z" />
    <glyph glyph-name="cent" unicode="&#xa2;" horiz-adv-x="385" 
d="M253 -6h-55v98q-50 10 -86 51q-50 60 -50 185q0 88 37 151.5t100 77.5v94h55v-89q42 -2 67 -18l-14 -61q-33 18 -69 18q-51 0 -75 -54t-24 -125q0 -80 27.5 -126t76.5 -46q38 0 72 17l10 -57q-25 -17 -72 -20v-96z" />
    <glyph glyph-name="sterling" unicode="&#xa3;" horiz-adv-x="385" 
d="M353 0h-322v49q35 14 65 67t30 107q0 45 -6 81h-82v56h74q-14 63 -14 116q0 84 44.5 133t110.5 49q47 0 79 -20l-18 -61q-27 16 -61 16q-40 0 -60 -30.5t-20 -75.5q0 -53 13 -127h105v-56h-97q9 -73 -4 -126q-17 -66 -63 -110v-2h226v-66z" />
    <glyph glyph-name="currency" unicode="&#xa4;" horiz-adv-x="385" 
d="M194 528q56 0 94 -41l61 73l40 -41l-73 -73q24 -48 24 -117q0 -70 -24 -117l72 -74l-39 -41l-63 73q-38 -41 -95 -41q-58 0 -93 41l-61 -73l-40 41l71 72q-25 49 -25 117q0 67 26 119l-73 73l41 41l62 -74q36 42 95 42zM192 470q-38 0 -59.5 -38t-21.5 -105
q0 -62 22.5 -101t58.5 -39q38 -1 59 38t21 103q0 63 -21 102.5t-59 39.5z" />
    <glyph glyph-name="yen" unicode="&#xa5;" horiz-adv-x="385" 
d="M225 0h-72v187h-125v46h125v74h-125v46h106l-119 297h77l67 -191q19 -52 34 -102h2q11 41 33 103l70 190h73l-127 -297h108v-46h-127v-74h127v-46h-127v-187z" />
    <glyph glyph-name="brokenbar" unicode="&#xa6;" horiz-adv-x="201" 
d="M69 174h63v-350h-63v350zM69 674h63v-350h-63v350z" />
    <glyph glyph-name="section" unicode="&#xa7;" horiz-adv-x="401" 
d="M91 352q0 -48 80 -86q71 -33 100 -56q39 24 39 79q0 56 -69 90q-78 36 -104 53q-46 -29 -46 -80zM328 656l-18 -52q-37 24 -88 24q-37 0 -63.5 -18t-26.5 -55q0 -19 7 -33.5t24 -26.5t29 -18t39 -18q67 -28 103 -62.5t36 -95.5q0 -72 -60 -121q34 -37 34 -85
q0 -70 -47 -107.5t-117 -37.5q-82 0 -126 34l19 54q49 -34 110 -34q40 0 67 20t27 59q0 33 -23.5 56t-82.5 51q-71 33 -105.5 66.5t-34.5 88.5q0 65 69 118q-34 30 -35 81q0 64 47 101t114 37q61 0 102 -26z" />
    <glyph glyph-name="dieresis" unicode="&#xa8;" 
d="M72 566q-18 0 -31 12.5t-13 31.5t13 32t32 13q17 0 29.5 -13t12.5 -32t-12 -31.5t-31 -12.5zM228 566q-18 0 -31 12.5t-13 31.5t13 32t32 13q17 0 29.5 -13t12.5 -32t-12 -31.5t-31 -12.5z" />
    <glyph glyph-name="copyright" unicode="&#xa9;" horiz-adv-x="677" 
d="M341 648q127 0 215 -90t88 -218q0 -129 -88 -219.5t-216 -90.5q-129 0 -218 90.5t-89 219.5q0 128 89.5 218t218.5 90zM339 607q-109 0 -182.5 -78t-73.5 -192q0 -112 74 -189t183 -77q107 -1 180.5 77t73.5 192q0 112 -74 189.5t-181 77.5zM474 495l-12 -40
q-44 22 -97 22q-67 0 -103.5 -39t-36.5 -101t37 -101.5t103 -39.5q56 0 100 23l12 -37q-48 -29 -122 -29q-83 0 -132.5 52t-49.5 129q0 83 55.5 134.5t137.5 51.5q34 0 65 -8t43 -17z" />
    <glyph glyph-name="ordfeminine" unicode="&#xaa;" horiz-adv-x="273" 
d="M243 263h-49l-4 35h-2q-25 -40 -76 -40q-35 0 -59.5 25.5t-24.5 67.5q0 57 44.5 86.5t112.5 29.5v11q0 63 -60 63q-35 0 -64 -21l-13 41q37 27 87 27q52 0 78 -31.5t26 -88.5v-131q0 -52 4 -74zM186 356v69q-21 0 -40.5 -3t-41.5 -19.5t-22 -45.5q0 -25 14.5 -39
t32.5 -14q31 0 49 30q8 12 8 22z" />
    <glyph glyph-name="guillemotleft" unicode="&#xab;" horiz-adv-x="354" 
d="M190 427l-103 -175l103 -174h-63l-102 174l103 175h62zM333 427l-104 -175l104 -174h-63l-102 174l103 175h62z" />
    <glyph glyph-name="logicalnot" unicode="&#xac;" horiz-adv-x="596" 
d="M40 398h516v-279h-56v224h-460v55z" />
    <glyph glyph-name="uni00AD" unicode="&#xad;" horiz-adv-x="291" 
d="M30 291h219v-59h-219v59z" />
    <glyph glyph-name="registered" unicode="&#xae;" horiz-adv-x="372" 
d="M161 508v-62h-33v156q33 5 56 5q34 0 52 -13q16 -11 16 -33q0 -26 -33 -37v-2q20 -6 28 -38q7 -32 12 -38h-36q-5 6 -12 38q-5 24 -33 24h-17zM162 578v-44h17q36 0 36 22q0 24 -33 24q-12 0 -20 -2zM187 683q65 0 110.5 -45.5t45.5 -110.5t-45.5 -111t-111.5 -46
q-65 0 -111 46t-46 111t46 110.5t112 45.5zM185 651q-50 0 -84 -36.5t-34 -87.5q0 -52 34.5 -88t85.5 -36q50 -1 84 35.5t34 87.5q0 52 -34.5 88.5t-85.5 36.5z" />
    <glyph glyph-name="macron" unicode="&#xaf;" 
d="M52 631h197v-51h-197v51z" />
    <glyph glyph-name="degree" unicode="&#xb0;" horiz-adv-x="280" 
d="M152 685q51 0 86 -37.5t35 -90.5q0 -55 -37 -92t-86 -37q-52 0 -87 36.5t-35 90.5q-1 54 36 92t88 38zM149 644q-31 0 -52.5 -26t-21.5 -63q0 -36 22 -61t54 -25t53.5 25t21.5 62q0 36 -21.5 62t-55.5 26z" />
    <glyph glyph-name="plusminus" unicode="&#xb1;" horiz-adv-x="596" 
d="M270 567h57v-194h230v-55h-230v-201h-57v201h-229v55h229v194zM41 55h516v-55h-516v55z" />
    <glyph glyph-name="twosuperior" unicode="&#xb2;" horiz-adv-x="245" 
d="M2 417v29l41 50l53.5 68t37 61.5t20.5 69.5q0 33 -16 49t-44 16q-34 0 -66 -27l-17 44q37 35 99 35q53 0 80.5 -30.5t27.5 -76.5q0 -76 -103 -197l-30 -37v-2h139v-52h-222z" />
    <glyph glyph-name="threesuperior" unicode="&#xb3;" horiz-adv-x="235" 
d="M30 743l-13 43q36 26 87 26q48 0 74.5 -26t26.5 -65q0 -64 -63 -89v-2q30 -7 52.5 -33t23.5 -65q0 -52 -36.5 -86t-98.5 -34q-48 0 -82 22l13 46q33 -20 70 -20q31 0 51 18.5t20 51.5q0 76 -88 76h-8v42h6q27 0 53.5 17t26.5 47q0 25 -14 38.5t-38 13.5q-34 0 -63 -21z
" />
    <glyph glyph-name="acute" unicode="&#xb4;" 
d="M188 682h79l-105 -135h-51z" />
    <glyph glyph-name="mu" unicode="&#xb5;" horiz-adv-x="399" 
d="M281 50h-2q-10 -19 -33.5 -36t-51.5 -17q-46 0 -67 36v-71q0 -104 9 -154h-70q-13 39 -13 146v530h77v-319q0 -108 64 -108q30 0 48 20.5t22 42.5q4 17 4 45v319h77v-380q0 -28 6.5 -41.5t24.5 -12.5l-8 -55q-10 -3 -26 -3q-49 0 -61 58z" />
    <glyph glyph-name="paragraph" unicode="&#xb6;" horiz-adv-x="401" 
d="M233 -50h-50v324h-6q-47 0 -94.5 47t-52.5 132q-5 93 52 157t171 64q44 0 89 -6v-718h-50v674h-59v-674z" />
    <glyph glyph-name="periodcentered" unicode="&#xb7;" horiz-adv-x="194" 
d="M96 202q-21 0 -35.5 15.5t-14.5 41.5q0 24 15 40.5t36 16.5q23 0 37 -15.5t14 -41.5t-14 -41.5t-38 -15.5z" />
    <glyph glyph-name="cedilla" unicode="&#xb8;" 
d="M144 5h48l-29 -55q27 -4 46.5 -24t19.5 -47q0 -40 -27 -59.5t-64 -19.5q-35 0 -67 18l16 42q24 -15 50 -15q36 0 36 30q0 37 -69 44z" />
    <glyph glyph-name="onesuperior" unicode="&#xb9;" horiz-adv-x="212" 
d="M157 417h-60v333h-2l-73 -39l-11 48l94 48h52v-390z" />
    <glyph glyph-name="ordmasculine" unicode="&#xba;" horiz-adv-x="302" 
d="M154 588q54 0 83.5 -41.5t29.5 -122.5q0 -85 -34 -125.5t-82 -40.5q-52 0 -84.5 42.5t-32.5 122.5q0 79 34.5 122t85.5 43zM149 543q-29 0 -43 -37.5t-14 -82.5q0 -47 14.5 -83.5t43.5 -36.5q59 0 59 120t-60 120z" />
    <glyph glyph-name="guillemotright" unicode="&#xbb;" horiz-adv-x="354" 
d="M125 252l-104 175h62l103 -175l-101 -174h-64zM267 252l-103 175h62l103 -175l-102 -174h-63z" />
    <glyph glyph-name="onequarter" unicode="&#xbc;" horiz-adv-x="613" 
d="M177 263h-60v333h-2l-73 -39l-11 48l94 48h52v-390zM156 -8h-49l340 666h49zM536 0h-56v107h-147v35l144 251h59v-240h46v-46h-46v-107zM480 153v100q0 39 4 73h-2l-34 -69l-54 -102v-2h86z" />
    <glyph glyph-name="onehalf" unicode="&#xbd;" horiz-adv-x="613" 
d="M161 263h-60v333h-2l-73 -39l-11 48l94 48h52v-390zM132 -8h-49l340 666h48zM355 0v29l41 50l53.5 68t37 61.5t20.5 69.5q0 32 -16.5 48.5t-43.5 16.5q-35 0 -66 -27l-17 44q37 35 99 35q53 0 80.5 -30.5t27.5 -76.5q0 -76 -103 -197l-31 -37v-2h140v-52h-222z" />
    <glyph glyph-name="threequarters" unicode="&#xbe;" horiz-adv-x="613" 
d="M58 589l-13 43q39 26 87 26t74.5 -26t26.5 -65q0 -64 -64 -89v-2q30 -7 53 -33t23 -65q0 -52 -36.5 -86t-98.5 -34q-46 0 -82 22l13 46q33 -20 70 -20q31 0 51 18.5t20 51.5q0 76 -88 76h-8v42h7q27 0 53.5 17t26.5 47q0 25 -14 38.5t-38 13.5q-34 0 -63 -21zM173 -8h-49
l340 666h49zM539 0h-56v107h-147v35l144 251h59v-240h46v-46h-46v-107zM483 153v100q0 39 4 73h-2q-28 -56 -35 -69l-55 -102v-2h88z" />
    <glyph glyph-name="questiondown" unicode="&#xbf;" horiz-adv-x="309" 
d="M175 496h2q21 0 35 -15.5t14 -40.5q0 -24 -14 -40t-36 -16q-23 0 -37 16t-14 40q0 25 14 40.5t36 15.5zM137 302h67l2 -15q16 -95 -42 -190q-2 -3 -10.5 -18t-10.5 -18t-8.5 -15.5l-8.5 -16.5t-6.5 -15t-6 -16.5l-4 -15t-3 -17.5t-0.5 -17q0 -41 21 -61t56 -20
q37 0 66 18l16 -59q-38 -26 -99 -26q-70 0 -104.5 39.5t-34.5 98.5q0 18 3.5 36t8 31.5t14 32t15 28t18 29.5t16.5 27q45 78 36 163z" />
    <glyph glyph-name="Agrave" unicode="&#xc0;" horiz-adv-x="435" 
d="M291 202h-150l-44 -202h-75l154 674h85l150 -674h-76zM152 264h128l-35 171q-10 49 -27 154h-3q-15 -95 -28 -154zM87 818h91l94 -108h-61z" />
    <glyph glyph-name="Aacute" unicode="&#xc1;" horiz-adv-x="435" 
d="M291 202h-150l-44 -202h-75l154 674h85l150 -674h-76zM152 264h128l-35 171q-10 49 -27 154h-3q-15 -95 -28 -154zM263 818h91l-124 -108h-61z" />
    <glyph glyph-name="Acircumflex" unicode="&#xc2;" horiz-adv-x="435" 
d="M291 202h-150l-44 -202h-75l154 674h85l150 -674h-76zM152 264h128l-35 171q-10 49 -27 154h-3q-15 -95 -28 -154zM186 808h66l87 -98h-67l-52 55h-2l-52 -55h-66z" />
    <glyph glyph-name="Atilde" unicode="&#xc3;" horiz-adv-x="435" 
d="M290 202h-149l-44 -202h-75l154 674h85l149 -674h-75zM152 264h128l-35 171q-10 49 -27 154h-3q-15 -95 -28 -154zM155 718h-41q-1 43 15 68.5t44 25.5q18 0 48 -17q28 -18 39 -18q13 0 19 8t8 29h40q2 -90 -62 -90q-24 0 -49 17q-28 16 -37 16q-19 0 -24 -39z" />
    <glyph glyph-name="Adieresis" unicode="&#xc4;" horiz-adv-x="435" 
d="M291 202h-150l-44 -202h-75l154 674h85l150 -674h-76zM152 264h128l-35 171q-10 49 -27 154h-3q-15 -95 -28 -154zM139 718q-18 0 -30 13t-12 34q0 19 12.5 32.5t30.5 13.5q19 0 31 -13t12 -33q0 -21 -12 -34t-32 -13zM300 718q-18 0 -30 13t-12 34q0 19 12.5 32.5
t30.5 13.5q19 0 31 -13t12 -33q0 -21 -12 -34t-32 -13z" />
    <glyph glyph-name="Aring" unicode="&#xc5;" horiz-adv-x="435" 
d="M291 202h-150l-44 -202h-75l154 674h85l150 -674h-76zM152 264h128l-35 171q-10 49 -27 154h-3q-15 -95 -28 -154zM222 871q42 0 67 -25.5t25 -62.5q0 -36 -26 -61.5t-67 -25.5q-43 0 -68.5 25t-25.5 61q0 37 26 63t69 26zM219 835q-21 0 -32.5 -15.5t-11.5 -37.5
q0 -19 12.5 -34t32.5 -15q21 0 33.5 14.5t12.5 36.5q0 21 -12.5 36t-34.5 15z" />
    <glyph glyph-name="AE" unicode="&#xc6;" horiz-adv-x="556" 
d="M84 0h-76l203 674h304v-67h-186l13 -226h171v-65h-165l14 -249h179l-1 -67h-247l-13 222h-134zM162 284h112l-9 205q-1 14 -3 61l-3 70h-5l-39 -143z" />
    <glyph glyph-name="Ccedilla" unicode="&#xc7;" horiz-adv-x="396" 
d="M342 77l12 -65q-31 -15 -82 -17l-22 -44q26 -4 45.5 -24t19.5 -47q0 -40 -27 -59.5t-64 -19.5q-35 0 -67 18l16 42q24 -15 50 -15q36 0 36 31q0 35 -68 43l35 77q-89 13 -141.5 95.5t-52.5 236.5q0 95 22 166.5t58 110t75.5 56.5t82.5 18q58 0 84 -17l-17 -65
q-32 14 -68 14q-62 0 -109 -67t-47 -208q0 -144 44.5 -209t113.5 -65q39 0 71 14z" />
    <glyph glyph-name="Egrave" unicode="&#xc8;" horiz-adv-x="354" 
d="M306 385v-65h-169v-253h192v-67h-269v674h257v-67h-180v-222h169zM56 818h91l94 -108h-61z" />
    <glyph glyph-name="Eacute" unicode="&#xc9;" horiz-adv-x="354" 
d="M306 385v-65h-169v-253h192v-67h-269v674h257v-67h-180v-222h169zM246 818h91l-124 -108h-61z" />
    <glyph glyph-name="Ecircumflex" unicode="&#xca;" horiz-adv-x="354" 
d="M306 385v-65h-169v-253h192v-67h-269v674h257v-67h-180v-222h169zM156 808h66l87 -98h-67l-52 55h-2l-52 -55h-66z" />
    <glyph glyph-name="Edieresis" unicode="&#xcb;" horiz-adv-x="354" 
d="M306 385v-65h-169v-253h193v-67h-270v674h257v-67h-180v-222h169zM108 725q-18 0 -30 13t-12 34q0 19 12.5 32.5t30.5 13.5q19 0 31 -13t12 -33q0 -21 -12 -34t-32 -13zM270 725q-18 0 -30 13t-12 34q0 19 12.5 32.5t30.5 13.5q19 0 31 -13t12 -33q0 -21 -12 -34t-32 -13
z" />
    <glyph glyph-name="Igrave" unicode="&#xcc;" horiz-adv-x="199" 
d="M60 674h77v-674h-77v674zM-41 818h91l94 -108h-61z" />
    <glyph glyph-name="Iacute" unicode="&#xcd;" horiz-adv-x="199" 
d="M60 674h77v-674h-77v674zM141 818h91l-124 -108h-61z" />
    <glyph glyph-name="Icircumflex" unicode="&#xce;" horiz-adv-x="199" 
d="M60 674h77v-674h-77v674zM67 808h66l87 -98h-67l-52 55h-2l-52 -55h-66z" />
    <glyph glyph-name="Idieresis" unicode="&#xcf;" horiz-adv-x="199" 
d="M60 674h77v-674h-77v674zM18 725q-18 0 -30 13t-12 34q0 19 12.5 32.5t30.5 13.5q19 0 31 -13t12 -33q0 -21 -12 -34t-32 -13zM180 725q-18 0 -30 13t-12 34q0 19 12.5 32.5t30.5 13.5q19 0 31 -13t12 -33q0 -21 -12 -34t-32 -13z" />
    <glyph glyph-name="Eth" unicode="&#xd0;" horiz-adv-x="453" 
d="M0 323v58h69v283q42 13 103 13q101 0 158 -51q91 -79 91 -274q0 -197 -81 -286q-65 -72 -186 -72q-52 0 -85 6v323h-69zM247 381v-58h-102v-263q11 -2 29 -2q34 0 62 14t53 45.5t38.5 91t13.5 143.5q0 262 -160 262q-16 0 -36 -4v-229h102z" />
    <glyph glyph-name="Ntilde" unicode="&#xd1;" horiz-adv-x="465" 
d="M130 0h-69v674h72l124 -316q67 -175 86 -235h2q-9 159 -9 310v241h69v-674h-72l-128 324q-51 124 -81 229h-2q8 -120 8 -320v-233zM170 718h-41q-1 43 15 68.5t44 25.5q18 0 48 -17q30 -18 40 -18q12 0 18 8t8 29h40q2 -90 -62 -90q-24 0 -49 17q-28 16 -37 16
q-20 0 -24 -39z" />
    <glyph glyph-name="Ograve" unicode="&#xd2;" horiz-adv-x="446" 
d="M230 682q86 0 135 -89.5t49 -250.5q0 -180 -53.5 -265t-141.5 -85q-86 0 -136.5 89.5t-50.5 256.5q0 164 54 254t144 90zM224 614q-40 0 -66.5 -42t-36 -101.5t-9.5 -133.5q0 -55 6 -102.5t18.5 -88t35 -63.5t53.5 -23t53 24.5t34 66.5t17 88t5 100q0 51 -5 96.5
t-17 87.5t-34.5 66.5t-53.5 24.5zM86 818h91l94 -108h-61z" />
    <glyph glyph-name="Oacute" unicode="&#xd3;" horiz-adv-x="446" 
d="M230 682q86 0 135 -89.5t49 -250.5q0 -180 -53.5 -265t-141.5 -85q-86 0 -136.5 89.5t-50.5 256.5q0 164 54 254t144 90zM224 614q-40 0 -66.5 -42t-36 -101.5t-9.5 -133.5q0 -55 6 -102.5t18.5 -88t35 -63.5t53.5 -23t53 24.5t34 66.5t17 88t5 100q0 51 -5 96.5
t-17 87.5t-34.5 66.5t-53.5 24.5zM269 818h91l-124 -108h-61z" />
    <glyph glyph-name="Ocircumflex" unicode="&#xd4;" horiz-adv-x="446" 
d="M230 682q86 0 135 -89.5t49 -250.5q0 -180 -53.5 -265t-141.5 -85q-86 0 -136.5 89.5t-50.5 256.5q0 164 54 254t144 90zM224 614q-40 0 -66.5 -42t-36 -101.5t-9.5 -133.5q0 -55 6 -102.5t18.5 -88t35 -63.5t53.5 -23t53 24.5t34 66.5t17 88t5 100q0 51 -5 96.5
t-17 87.5t-34.5 66.5t-53.5 24.5zM191 808h66l87 -98h-67l-52 55h-2l-52 -55h-66z" />
    <glyph glyph-name="Otilde" unicode="&#xd5;" horiz-adv-x="446" 
d="M230 682q86 0 135 -89.5t49 -250.5q0 -180 -53.5 -265t-141.5 -85q-86 0 -136.5 89.5t-50.5 256.5q0 164 54 254t144 90zM224 614q-40 0 -66.5 -42t-36 -101.5t-9.5 -133.5q0 -55 6 -102.5t18.5 -88t35 -63.5t53.5 -23t53 24.5t34 66.5t17 88t5 100q0 51 -5 96.5
t-17 87.5t-34.5 66.5t-53.5 24.5zM157 716h-41q-1 43 15 68.5t44 25.5q18 0 48 -17q30 -18 40 -18q12 0 18 8t8 29h40q2 -90 -62 -90q-24 0 -50 17q-26 16 -36 16q-19 0 -24 -39z" />
    <glyph glyph-name="Odieresis" unicode="&#xd6;" horiz-adv-x="446" 
d="M230 682q86 0 135 -89.5t49 -250.5q0 -180 -53.5 -265t-141.5 -85q-86 0 -136.5 89.5t-50.5 256.5q0 164 54 254t144 90zM224 614q-40 0 -66.5 -42t-36 -101.5t-9.5 -133.5q0 -55 6 -102.5t18.5 -88t35 -63.5t53.5 -23t53 24.5t34 66.5t17 88t5 100q0 51 -5 96.5
t-17 87.5t-34.5 66.5t-53.5 24.5zM141 725q-18 0 -30 13t-12 34q0 19 12.5 32.5t30.5 13.5q19 0 31 -13t12 -33q0 -21 -12 -34t-32 -13zM302 725q-18 0 -30 13t-12 34q0 19 12.5 32.5t30.5 13.5q19 0 31 -13t12 -33q0 -21 -12 -34t-32 -13z" />
    <glyph glyph-name="multiply" unicode="&#xd7;" horiz-adv-x="596" 
d="M40 486l37 40l220 -225l222 225l37 -40l-220 -224l219 -221l-38 -41l-219 224l-220 -224l-38 41l219 222z" />
    <glyph glyph-name="Oslash" unicode="&#xd8;" horiz-adv-x="446" 
d="M86 -37l-42 23l42 95q-54 89 -54 257q0 164 53 254t139 90q59 0 101 -41l30 70l46 -20l-40 -91q53 -90 53 -257q0 -179 -53.5 -265t-137.5 -86q-62 0 -103 45zM129 172l164 398q-29 44 -69 44q-31 0 -54 -23.5t-36 -64t-19 -87.5t-6 -101q0 -103 18 -166h2zM317 507
l-168 -397q27 -50 75 -50q41 0 67.5 42.5t36 102t9.5 134.5q0 103 -18 168h-2z" />
    <glyph glyph-name="Ugrave" unicode="&#xd9;" horiz-adv-x="457" 
d="M59 674h77v-452q0 -162 91 -162q94 0 94 162v452h77v-440q0 -125 -46 -183.5t-126 -58.5q-167 0 -167 233v449zM86 818h91l94 -108h-61z" />
    <glyph glyph-name="Uacute" unicode="&#xda;" horiz-adv-x="457" 
d="M59 674h77v-452q0 -162 91 -162q94 0 94 162v452h77v-440q0 -125 -46 -183.5t-126 -58.5q-167 0 -167 233v449zM277 818h91l-124 -108h-61z" />
    <glyph glyph-name="Ucircumflex" unicode="&#xdb;" horiz-adv-x="457" 
d="M59 674h77v-452q0 -162 91 -162q94 0 94 162v452h77v-440q0 -125 -46 -183.5t-126 -58.5q-167 0 -167 233v449zM196 808h66l87 -98h-67l-52 55h-2l-52 -55h-66z" />
    <glyph glyph-name="Udieresis" unicode="&#xdc;" horiz-adv-x="457" 
d="M59 674h77v-452q0 -162 91 -162q94 0 94 162v452h77v-440q0 -125 -46 -183.5t-126 -58.5q-167 0 -167 233v449zM146 725q-18 0 -30 13t-12 34q0 19 12.5 32.5t30.5 13.5q19 0 31 -13t12 -33q0 -21 -12 -34t-32 -13zM308 725q-18 0 -30 13t-12 34q0 19 12.5 32.5
t30.5 13.5q19 0 31 -13t12 -33q0 -21 -12 -34t-32 -13z" />
    <glyph glyph-name="Yacute" unicode="&#xdd;" horiz-adv-x="394" 
d="M235 0h-77v285l-149 389h82l60 -169q40 -118 50 -152h2q12 48 49 155l57 166h80l-154 -386v-288zM252 818h91l-124 -108h-61z" />
    <glyph glyph-name="Thorn" unicode="&#xde;" horiz-adv-x="396" 
d="M61 0v674h75v-133q20 3 51 3q86 0 134 -48q49 -48 49 -133q0 -98 -56.5 -150t-139.5 -52q-16 0 -38 4v-165h-75zM136 478v-249q12 -4 35 -4q57 0 89.5 35t32.5 97q0 124 -116 124q-25 0 -41 -3z" />
    <glyph glyph-name="germandbls" unicode="&#xdf;" horiz-adv-x="430" 
d="M131 0h-77v450q0 145 63 206q47 44 117 44q61 0 104 -40t43 -116q0 -46 -24 -82q-66 -26 -66 -81q0 -24 11 -43t34 -46q34 -39 50.5 -73.5t16.5 -76.5q0 -70 -45.5 -110t-110.5 -40q-45 0 -79 15l13 60q25 -13 65 -13q38 0 60.5 23t22.5 57q0 48 -52 109q-20 23 -30 37
t-19.5 38.5t-9.5 50.5q0 40 22 71.5t58 48.5q9 19 9 48q0 54 -25 76.5t-56 22.5q-95 0 -95 -191v-445z" />
    <glyph glyph-name="agrave" unicode="&#xe0;" horiz-adv-x="364" 
d="M309 320v-210q0 -71 5 -110h-69l-5 51h-3q-33 -59 -97 -59q-49 0 -81.5 38t-32.5 100q0 86 58.5 130.5t147.5 45.5v15q0 53 -17.5 81t-59.5 28q-44 0 -80 -25l-17 54q45 32 113 32q138 0 138 -171zM234 153v98q-133 0 -133 -113q0 -44 17.5 -65t41.5 -21q26 0 45 19
t26 54q3 13 3 28zM58 682h79l77 -135h-51z" />
    <glyph glyph-name="aacute" unicode="&#xe1;" horiz-adv-x="364" 
d="M309 320v-210q0 -71 5 -110h-69l-5 51h-3q-33 -59 -97 -59q-49 0 -81.5 38t-32.5 100q0 86 58.5 130.5t147.5 45.5v15q0 53 -17.5 81t-59.5 28q-44 0 -80 -25l-17 54q45 32 113 32q138 0 138 -171zM234 153v98q-133 0 -133 -113q0 -44 17.5 -65t41.5 -21q26 0 45 19
t26 54q3 13 3 28zM218 682h79l-105 -135h-51z" />
    <glyph glyph-name="acircumflex" unicode="&#xe2;" horiz-adv-x="364" 
d="M309 320v-210q0 -71 5 -110h-69l-5 51h-3q-33 -59 -97 -59q-49 0 -81.5 38t-32.5 100q0 86 58.5 130.5t147.5 45.5v15q0 53 -17.5 81t-59.5 28q-44 0 -80 -25l-17 54q45 32 113 32q138 0 138 -171zM234 153v98q-133 0 -133 -113q0 -44 17.5 -65t41.5 -21q26 0 45 19
t26 54q3 13 3 28zM153 682h52l79 -135h-58l-46 87h-2l-46 -87h-58z" />
    <glyph glyph-name="atilde" unicode="&#xe3;" horiz-adv-x="364" 
d="M309 320v-210q0 -71 5 -110h-69l-5 51h-3q-33 -59 -97 -59q-49 0 -81.5 38t-32.5 100q0 86 58.5 130.5t147.5 45.5v15q0 53 -17.5 81t-59.5 28q-44 0 -80 -25l-17 54q45 32 113 32q138 0 138 -171zM234 153v98q-133 0 -133 -113q0 -44 17.5 -65t41.5 -21q26 0 45 19
t26 54q3 13 3 28zM116 561h-43q-1 41 15.5 67.5t46.5 26.5q21 0 49 -18q32 -17 40 -17q24 0 25 36h41q0 -89 -63 -89q-19 0 -49 17t-38 17q-21 0 -24 -40z" />
    <glyph glyph-name="adieresis" unicode="&#xe4;" horiz-adv-x="364" 
d="M309 320v-210q0 -71 5 -110h-69l-5 51h-3q-33 -59 -97 -59q-49 0 -81.5 38t-32.5 100q0 86 58.5 130.5t147.5 45.5v15q0 53 -17.5 81t-59.5 28q-44 0 -80 -25l-17 54q45 32 113 32q138 0 138 -171zM234 153v98q-133 0 -133 -113q0 -44 17.5 -65t41.5 -21q26 0 45 19
t26 54q3 13 3 28zM104 566q-18 0 -31 12.5t-13 31.5t13 32t32 13q17 0 29.5 -13t12.5 -32t-12 -31.5t-31 -12.5zM260 566q-18 0 -31 12.5t-13 31.5t13 32t32 13q17 0 29.5 -13t12.5 -32t-12 -31.5t-31 -12.5z" />
    <glyph glyph-name="aring" unicode="&#xe5;" horiz-adv-x="364" 
d="M309 320v-210q0 -71 5 -110h-69l-5 51h-3q-33 -59 -97 -59q-49 0 -81.5 38t-32.5 100q0 86 58.5 130.5t147.5 45.5v15q0 53 -17.5 81t-59.5 28q-44 0 -80 -25l-17 54q45 32 113 32q138 0 138 -171zM234 153v98q-20 0 -38 -3.5t-42 -13.5t-38.5 -34.5t-14.5 -61.5
q0 -44 18 -65t42 -21q26 0 45 19t25 54q3 13 3 28zM181 533q-42 0 -68 24.5t-26 60.5q0 38 25.5 63.5t69.5 25.5q41 0 66 -25t25 -63q0 -36 -26.5 -61t-65.5 -25zM180 568q22 0 35 15t13 37t-13 37t-36 15q-21 0 -33 -16t-12 -38q0 -19 12.5 -34.5t33.5 -15.5z" />
    <glyph glyph-name="ae" unicode="&#xe6;" horiz-adv-x="561" 
d="M531 241h-225q0 -188 114 -188q45 0 82 21l14 -55q-43 -27 -112 -27q-45 0 -82 24.5t-51 68.5h-2q-16 -44 -48 -68.5t-76 -24.5q-52 0 -85.5 38.5t-33.5 101.5q0 83 59 126.5t148 43.5v27q0 45 -20 73t-61 28q-42 0 -78 -25l-17 53q46 33 111 33q40 0 70.5 -22t40.5 -65
h2q16 41 47.5 64t70.5 23q66 0 99.5 -61.5t33.5 -150.5q0 -7 -0.5 -19t-0.5 -19zM234 154v95q-21 0 -39.5 -3.5t-43 -13.5t-39 -34.5t-14.5 -60.5q0 -42 18.5 -63t44.5 -21q25 0 44 19.5t26 53.5q3 14 3 28zM308 296h150q2 65 -18.5 100.5t-50.5 35.5q-37 0 -58 -40.5
t-23 -95.5z" />
    <glyph glyph-name="ccedilla" unicode="&#xe7;" horiz-adv-x="301" 
d="M280 72l12 -59q-31 -17 -77 -19l-23 -44q27 -4 46.5 -24t19.5 -47q0 -40 -27 -59.5t-64 -19.5q-35 0 -67 18l16 42q24 -15 50 -15q36 0 36 31q0 36 -69 43l36 80q-63 15 -99.5 76.5t-36.5 163.5q0 108 51.5 180t139.5 72q42 0 68 -15l-15 -63q-26 13 -55 13
q-55 0 -83.5 -54.5t-28.5 -132.5q0 -85 30.5 -133t83.5 -48q33 0 56 14z" />
    <glyph glyph-name="egrave" unicode="&#xe8;" horiz-adv-x="363" 
d="M332 235h-224q0 -180 114 -180q46 0 80 18l13 -56q-44 -23 -107 -23q-85 0 -130.5 65t-45.5 178q0 116 45.5 185t118.5 69q69 0 103.5 -61.5t34.5 -150.5q0 -20 -2 -44zM109 292h151q1 68 -20.5 103.5t-51.5 35.5q-36 0 -56 -41.5t-23 -97.5zM74 682h79l77 -135h-51z" />
    <glyph glyph-name="eacute" unicode="&#xe9;" horiz-adv-x="363" 
d="M332 235h-224q0 -180 114 -180q46 0 80 18l13 -56q-44 -23 -107 -23q-85 0 -130.5 65t-45.5 178q0 116 45.5 185t118.5 69q69 0 103.5 -61.5t34.5 -150.5q0 -20 -2 -44zM109 292h151q1 68 -20.5 103.5t-51.5 35.5q-36 0 -56 -41.5t-23 -97.5zM235 682h79l-105 -135h-51z
" />
    <glyph glyph-name="ecircumflex" unicode="&#xea;" horiz-adv-x="363" 
d="M332 235h-224q0 -180 114 -180q46 0 80 18l13 -56q-44 -23 -107 -23q-85 0 -130.5 65t-45.5 178q0 116 45.5 185t118.5 69q69 0 103.5 -61.5t34.5 -150.5q0 -20 -2 -44zM109 292h151q1 68 -20.5 103.5t-51.5 35.5q-36 0 -56 -41.5t-23 -97.5zM168 682h52l79 -135h-58
l-46 87h-2l-46 -87h-58z" />
    <glyph glyph-name="edieresis" unicode="&#xeb;" horiz-adv-x="363" 
d="M332 235h-224q0 -180 114 -180q46 0 80 18l13 -56q-44 -23 -107 -23q-85 0 -130.5 65t-45.5 178q0 116 45.5 185t118.5 69q69 0 103.5 -61.5t34.5 -150.5q0 -20 -2 -44zM109 292h151q1 68 -20.5 103.5t-51.5 35.5q-36 0 -56 -41.5t-23 -97.5zM119 566q-18 0 -31 12.5
t-13 31.5t13 32t32 13q17 0 29.5 -13t12.5 -32t-12 -31.5t-31 -12.5zM275 566q-18 0 -31 12.5t-13 31.5t13 32t32 13q17 0 29.5 -13t12.5 -32t-12 -31.5t-31 -12.5z" />
    <glyph glyph-name="igrave" unicode="&#xec;" horiz-adv-x="184" 
d="M131 0h-77v484h77v-484zM-28 682h79l77 -135h-51z" />
    <glyph glyph-name="iacute" unicode="&#xed;" horiz-adv-x="184" 
d="M131 0h-77v484h77v-484zM131 682h78l-105 -135h-51z" />
    <glyph glyph-name="icircumflex" unicode="&#xee;" horiz-adv-x="184" 
d="M131 0h-77v484h77v-484zM67 682h52l79 -135h-58l-46 87h-2l-46 -87h-58z" />
    <glyph glyph-name="idieresis" unicode="&#xef;" horiz-adv-x="184" 
d="M131 0h-77v484h77v-484zM15 566q-18 0 -31 12.5t-13 31.5t13 32t32 13q17 0 29.5 -13t12.5 -32t-12 -31.5t-31 -12.5zM170 566q-18 0 -31 12.5t-13 31.5t13 32t32 13q17 0 29.5 -13t12.5 -32t-12 -31.5t-31 -12.5z" />
    <glyph glyph-name="eth" unicode="&#xf0;" horiz-adv-x="381" 
d="M192 53q31 0 49.5 32.5t24 70t5.5 81.5q0 103 -15 146q-15 48 -64 48q-25 0 -42.5 -19t-25.5 -50.5t-11 -59.5t-3 -59q0 -47 5.5 -86t25 -71.5t51.5 -32.5zM79 508l-20 33l84 48q-10 12 -71 73l45 41q63 -59 84 -82l91 51l20 -34l-83 -48q48 -57 79 -125q40 -86 40 -218
q0 -68 -14 -119.5t-38 -80t-51.5 -42t-56.5 -13.5q-69 0 -112 63.5t-43 185.5q0 116 42 178.5t101 66.5q32 2 54 -14l2 2q-19 41 -59 86z" />
    <glyph glyph-name="ntilde" unicode="&#xf1;" horiz-adv-x="405" 
d="M54 0v359q0 33 -2 75t-2 50h67l4 -59h2q36 66 111 66q53 0 85 -41t32 -125v-325h-77v311q0 115 -67 115q-25 0 -45 -20.5t-27 -57.5q-4 -16 -4 -44v-304h-77zM138 561h-43q-1 41 15.5 67.5t46.5 26.5q20 0 50 -18q30 -17 39 -17q24 0 25 36h41q0 -89 -63 -89
q-19 0 -49 17t-38 17q-21 0 -24 -40z" />
    <glyph glyph-name="ograve" unicode="&#xf2;" horiz-adv-x="383" 
d="M195 491q69 0 112.5 -64t43.5 -185q0 -129 -48 -189.5t-113 -60.5q-69 0 -113 63.5t-44 185.5q0 124 47 187t115 63zM192 430q-24 0 -41.5 -18.5t-25.5 -48.5t-11.5 -59.5t-3.5 -61.5q0 -34 3.5 -64t12 -60t26 -47.5t42.5 -17.5q31 0 50 33t24.5 72t5.5 84
q0 32 -3.5 61.5t-12 59.5t-25.5 48.5t-41 18.5zM77 682h79l77 -135h-51z" />
    <glyph glyph-name="oacute" unicode="&#xf3;" horiz-adv-x="383" 
d="M195 491q69 0 112.5 -64t43.5 -185q0 -129 -48 -189.5t-113 -60.5q-69 0 -113 63.5t-44 185.5q0 124 47 187t115 63zM192 430q-24 0 -41.5 -18.5t-25.5 -48.5t-11.5 -59.5t-3.5 -61.5q0 -34 3.5 -64t12 -60t26 -47.5t42.5 -17.5q31 0 50 33t24.5 72t5.5 84
q0 32 -3.5 61.5t-12 59.5t-25.5 48.5t-41 18.5zM231 682h79l-105 -135h-51z" />
    <glyph glyph-name="ocircumflex" unicode="&#xf4;" horiz-adv-x="383" 
d="M195 491q69 0 112.5 -64t43.5 -185q0 -129 -48 -189.5t-113 -60.5q-69 0 -113 63.5t-44 185.5q0 124 47 187t115 63zM192 430q-24 0 -41.5 -18.5t-25.5 -48.5t-11.5 -59.5t-3.5 -61.5q0 -34 3.5 -64t12 -60t26 -47.5t42.5 -17.5q31 0 50 33t24.5 72t5.5 84
q0 32 -3.5 61.5t-12 59.5t-25.5 48.5t-41 18.5zM166 682h52l79 -135h-58l-46 87h-2l-46 -87h-58z" />
    <glyph glyph-name="otilde" unicode="&#xf5;" horiz-adv-x="383" 
d="M195 491q69 0 112.5 -64t43.5 -185q0 -129 -48 -189.5t-113 -60.5q-69 0 -113 63.5t-44 185.5q0 124 47 187t115 63zM192 430q-24 0 -41.5 -18.5t-25.5 -48.5t-11.5 -59.5t-3.5 -61.5q0 -34 3.5 -64t12 -60t26 -47.5t42.5 -17.5q31 0 50 33t24.5 72t5.5 84
q0 32 -3.5 61.5t-12 59.5t-25.5 48.5t-41 18.5zM126 561h-43q-1 41 15.5 67.5t46.5 26.5q21 0 49 -18q32 -17 40 -17q24 0 25 36h41q0 -89 -63 -89q-19 0 -49 17t-38 17q-21 0 -24 -40z" />
    <glyph glyph-name="odieresis" unicode="&#xf6;" horiz-adv-x="383" 
d="M195 491q69 0 112.5 -64t43.5 -185q0 -129 -48 -189.5t-113 -60.5q-69 0 -113 63.5t-44 185.5q0 124 47 187t115 63zM192 430q-24 0 -41.5 -18.5t-25.5 -48.5t-11.5 -59.5t-3.5 -61.5q0 -34 3.5 -64t12 -60t26 -47.5t42.5 -17.5q31 0 50 33t24.5 72t5.5 84
q0 32 -3.5 61.5t-12 59.5t-25.5 48.5t-41 18.5zM114 566q-18 0 -31 12.5t-13 31.5t13 32t32 13q17 0 29.5 -13t12.5 -32t-12 -31.5t-31 -12.5zM270 566q-18 0 -31 12.5t-13 31.5t13 32t32 13q17 0 29.5 -13t12.5 -32t-12 -31.5t-31 -12.5z" />
    <glyph glyph-name="divide" unicode="&#xf7;" horiz-adv-x="596" 
d="M297 396q-19 0 -31 13t-12 33t12.5 33.5t32.5 13.5t32 -13t12 -34q0 -20 -12 -33t-34 -13zM556 239h-516v55h516v-55zM297 44q-19 0 -31 13t-12 33t12.5 33.5t32.5 13.5t32 -13t12 -34q0 -20 -12 -33t-34 -13z" />
    <glyph glyph-name="oslash" unicode="&#xf8;" horiz-adv-x="383" 
d="M194 491q42 0 80 -30l26 53l41 -22l-33 -67q43 -65 43 -183q0 -128 -47.5 -189t-110.5 -61q-45 0 -82 28l-25 -53l-39 25l31 64q-45 64 -45 185q0 124 47 187t114 63zM122 130l122 268q-14 32 -52 32q-26 0 -44 -19t-26.5 -50t-11.5 -59.5t-3 -59.5q0 -63 13 -110z
M263 347l-120 -264q17 -30 50 -30q25 0 42.5 17.5t26 47t12 58.5t3.5 61q0 65 -12 110h-2z" />
    <glyph glyph-name="ugrave" unicode="&#xf9;" horiz-adv-x="398" 
d="M344 484v-352q0 -32 2 -81.5t2 -50.5h-67l-6 51h-2q-13 -22 -40.5 -40.5t-62.5 -18.5q-118 0 -118 186v306h77v-295q0 -64 14 -98t51 -34q30 0 47.5 21t21.5 43q4 17 4 44v319h77zM85 682h79l77 -135h-51z" />
    <glyph glyph-name="uacute" unicode="&#xfa;" horiz-adv-x="398" 
d="M344 484v-352q0 -32 2 -81.5t2 -50.5h-67l-6 51h-2q-13 -22 -40.5 -40.5t-62.5 -18.5q-118 0 -118 186v306h77v-295q0 -64 14 -98t51 -34q30 0 47.5 21t21.5 43q4 17 4 44v319h77zM245 682h79l-105 -135h-51z" />
    <glyph glyph-name="ucircumflex" unicode="&#xfb;" horiz-adv-x="398" 
d="M344 484v-352q0 -32 2 -81.5t2 -50.5h-67l-6 51h-2q-13 -22 -40.5 -40.5t-62.5 -18.5q-118 0 -118 186v306h77v-295q0 -64 14 -98t51 -34q30 0 47.5 21t21.5 43q4 17 4 44v319h77zM173 682h52l79 -135h-58l-46 87h-2l-46 -87h-58z" />
    <glyph glyph-name="udieresis" unicode="&#xfc;" horiz-adv-x="398" 
d="M344 484v-352q0 -32 2 -81.5t2 -50.5h-67l-6 51h-2q-13 -22 -40.5 -40.5t-62.5 -18.5q-118 0 -118 186v306h77v-295q0 -64 14 -98t51 -34q30 0 47.5 21t21.5 43q4 17 4 44v319h77zM124 566q-18 0 -31 12.5t-13 31.5t13 32t32 13q17 0 29.5 -13t12.5 -32t-12 -31.5
t-31 -12.5zM280 566q-18 0 -31 12.5t-13 31.5t13 32t32 13q17 0 29.5 -13t12.5 -32t-12 -31.5t-31 -12.5z" />
    <glyph glyph-name="yacute" unicode="&#xfd;" horiz-adv-x="346" 
d="M12 484h81l65 -278q4 -17 10 -50t10 -50h2l10.5 53.5t9.5 45.5l58 279h76l-79 -311q-57 -228 -120 -312q-40 -51 -87 -73l-29 65q36 20 69 61q28 36 43 82q6 17 6 24q0 9 -3 18zM216 682h79l-105 -135h-51z" />
    <glyph glyph-name="thorn" unicode="&#xfe;" horiz-adv-x="399" 
d="M53 664h76v-240h2q33 67 101 67q60 0 97 -66t37 -182q0 -125 -43 -188t-102 -63q-64 0 -90 57h-2v-241h-76v856zM129 300v-124q0 -25 5 -40q9 -45 29 -62.5t41 -17.5q85 0 85 185q0 82 -21 133t-64 51q-26 0 -46.5 -26.5t-24.5 -61.5q-4 -16 -4 -37z" />
    <glyph glyph-name="ydieresis" unicode="&#xff;" horiz-adv-x="346" 
d="M12 484h81l65 -278q4 -17 10 -50t10 -50h2l10.5 53.5t9.5 45.5l58 279h76l-79 -311q-57 -228 -120 -312q-40 -51 -87 -73l-29 65q36 20 69 61q28 36 43 82q6 17 6 24q0 9 -3 18zM99 566q-18 0 -31 12.5t-13 31.5t13 32t32 13q17 0 29.5 -13t12.5 -32t-12 -31.5t-31 -12.5
zM255 566q-18 0 -31 12.5t-13 31.5t13 32t32 13q17 0 29.5 -13t12.5 -32t-12 -31.5t-31 -12.5z" />
    <glyph glyph-name="Amacron" unicode="&#x100;" horiz-adv-x="435" 
d="M291 202h-150l-44 -202h-75l154 674h85l150 -674h-76zM152 264h128l-35 171q-10 49 -27 154h-3q-15 -95 -28 -154zM111 788h213v-53h-213v53z" />
    <glyph glyph-name="amacron" unicode="&#x101;" horiz-adv-x="364" 
d="M309 320v-210q0 -71 5 -110h-69l-5 51h-3q-33 -59 -97 -59q-49 0 -81.5 38t-32.5 100q0 86 58.5 130.5t147.5 45.5v15q0 53 -17.5 81t-59.5 28q-44 0 -80 -25l-17 54q45 32 113 32q138 0 138 -171zM234 153v98q-133 0 -133 -113q0 -44 17.5 -65t41.5 -21q26 0 45 19
t26 54q3 13 3 28zM84 631h197v-51h-197v51z" />
    <glyph glyph-name="Abreve" unicode="&#x102;" horiz-adv-x="435" 
d="M291 202h-150l-44 -202h-75l154 674h85l150 -674h-76zM152 264h128l-35 171q-10 49 -27 154h-3q-15 -95 -28 -154zM111 807h45q8 -43 61 -43t62 43h45q0 -43 -28.5 -69.5t-77.5 -26.5q-50 0 -78.5 25.5t-28.5 70.5z" />
    <glyph glyph-name="abreve" unicode="&#x103;" horiz-adv-x="364" 
d="M309 320v-210q0 -71 5 -110h-69l-5 51h-3q-33 -59 -97 -59q-49 0 -81.5 38t-32.5 100q0 86 58.5 130.5t147.5 45.5v15q0 53 -17.5 81t-59.5 28q-44 0 -80 -25l-17 54q45 32 113 32q138 0 138 -171zM234 153v98q-133 0 -133 -113q0 -44 17.5 -65t41.5 -21q26 0 45 19
t26 54q3 13 3 28zM76 669h43q2 -27 19 -44t43 -17q29 0 46 17t18 44h43q2 -49 -27.5 -81t-79.5 -32t-78.5 32t-26.5 81z" />
    <glyph glyph-name="Aogonek" unicode="&#x104;" horiz-adv-x="435" 
d="M261 674l149 -674h-23q-44 -54 -44 -97q0 -22 12.5 -34t28.5 -12q24 0 43 9l11 -43q-29 -22 -72 -22q-38 0 -61 22t-23 60q0 52 51 123l-43 196h-149l-45 -202h-75l155 674h85zM151 264h128l-35 171q-10 49 -27 154h-3q-14 -88 -27 -154z" />
    <glyph glyph-name="aogonek" unicode="&#x105;" horiz-adv-x="364" 
d="M309 320v-210q0 -80 9 -110h-18q-41 -56 -41 -103q0 -22 12.5 -34t28.5 -12q27 0 43 8l11 -43q-30 -21 -72 -21q-39 0 -61.5 22t-22.5 61q0 49 47 122l-5 51h-3q-33 -59 -97 -59q-49 0 -81.5 38t-32.5 100q0 86 58.5 130.5t147.5 45.5v15q0 53 -17.5 81t-59.5 28
q-44 0 -80 -25l-17 54q45 32 113 32q138 0 138 -171zM234 152v99q-133 0 -133 -113q0 -44 17.5 -65t41.5 -21q26 0 45 19t26 54q3 13 3 27z" />
    <glyph glyph-name="Cacute" unicode="&#x106;" horiz-adv-x="373" 
d="M342 76l13 -64q-34 -18 -97 -18q-103 0 -164.5 84.5t-61.5 250.5q0 95 22 166.5t58 110t76 56.5t83 18q58 0 83 -17l-17 -65q-32 14 -67 14q-63 0 -110 -67t-47 -209q0 -144 44.5 -209t114.5 -65q38 0 70 14zM289 818h91l-124 -108h-61z" />
    <glyph glyph-name="cacute" unicode="&#x107;" horiz-adv-x="302" 
d="M279 71l11 -59q-31 -18 -80 -18q-81 0 -129 63.5t-48 181.5q0 108 51.5 180t139.5 72q42 0 68 -15l-15 -63q-26 13 -55 13q-55 0 -83.5 -54.5t-28.5 -132.5q0 -85 30.5 -133t83.5 -48q30 0 55 13zM234 682h79l-105 -135h-51z" />
    <glyph glyph-name="Ccircumflex" unicode="&#x108;" horiz-adv-x="373" 
d="M342 76l13 -64q-34 -18 -97 -18q-103 0 -164.5 84.5t-61.5 250.5q0 95 22 166.5t58 110t76 56.5t83 18q58 0 83 -17l-17 -65q-32 14 -67 14q-63 0 -110 -67t-47 -209q0 -144 44.5 -209t114.5 -65q38 0 70 14zM202 808h66l87 -98h-67l-52 55h-2l-52 -55h-66z" />
    <glyph glyph-name="ccircumflex" unicode="&#x109;" horiz-adv-x="302" 
d="M279 71l11 -59q-31 -18 -80 -18q-81 0 -129 63.5t-48 181.5q0 108 51.5 180t139.5 72q42 0 68 -15l-15 -63q-26 13 -55 13q-55 0 -83.5 -54.5t-28.5 -132.5q0 -85 30.5 -133t83.5 -48q30 0 55 13zM167 682h52l79 -135h-58l-46 87h-2l-46 -87h-58z" />
    <glyph glyph-name="Cdotaccent" unicode="&#x10a;" horiz-adv-x="373" 
d="M342 76l13 -64q-34 -18 -97 -18q-103 0 -164.5 84.5t-61.5 250.5q0 95 22 166.5t58 110t76 56.5t83 18q58 0 83 -17l-17 -65q-32 14 -67 14q-63 0 -110 -67t-47 -209q0 -144 44.5 -209t114.5 -65q38 0 70 14zM241 720q-18 0 -31 13t-13 31q0 19 13 32t32 13t31.5 -13
t12.5 -32q0 -18 -13 -31t-32 -13z" />
    <glyph glyph-name="cdotaccent" unicode="&#x10b;" horiz-adv-x="302" 
d="M279 71l11 -59q-31 -18 -80 -18q-81 0 -129 63.5t-48 181.5q0 108 51.5 180t139.5 72q42 0 68 -15l-15 -63q-26 13 -55 13q-55 0 -83.5 -54.5t-28.5 -132.5q0 -85 30.5 -133t83.5 -48q30 0 55 13zM191 566q-18 0 -31 12.5t-13 31.5t13 32t32 13q17 0 29.5 -13t12.5 -32
t-12 -31.5t-31 -12.5z" />
    <glyph glyph-name="Ccaron" unicode="&#x10c;" horiz-adv-x="373" 
d="M342 76l13 -64q-34 -18 -97 -18q-103 0 -164.5 84.5t-61.5 250.5q0 95 22 166.5t58 110t76 56.5t83 18q58 0 83 -17l-17 -65q-32 14 -67 14q-63 0 -110 -67t-47 -209q0 -144 44.5 -209t114.5 -65q38 0 70 14zM276 710h-66l-87 98h67l52 -58h2l52 58h66z" />
    <glyph glyph-name="ccaron" unicode="&#x10d;" horiz-adv-x="302" 
d="M279 71l11 -59q-31 -18 -80 -18q-81 0 -129 63.5t-48 181.5q0 108 51.5 180t139.5 72q42 0 68 -15l-15 -63q-26 13 -55 13q-55 0 -83.5 -54.5t-28.5 -132.5q0 -85 30.5 -133t83.5 -48q30 0 55 13zM216 547h-52l-79 135h58l46 -87h2l47 87h58z" />
    <glyph glyph-name="Dcaron" unicode="&#x10e;" horiz-adv-x="445" 
d="M61 3v661q42 13 103 13q101 0 158 -51q91 -79 91 -273q0 -196 -81 -285q-65 -72 -186 -72q-54 0 -85 7zM137 610v-548q11 -2 29 -2q27 0 50 8t45 28.5t37.5 53t25 83.5t9.5 118q0 263 -160 263q-23 0 -36 -4zM228 710h-66l-87 98h67l52 -58h2l52 58h66z" />
    <glyph glyph-name="dcaron" unicode="&#x10f;" horiz-adv-x="409" 
d="M269 692h76v-576q0 -4 4 -116h-66l-5 60h-3q-32 -68 -102 -68q-62 0 -101 65.5t-39 182.5q0 121 42.5 186t102.5 65q63 0 89 -57h2v258zM269 171v128q0 22 -1 32q-4 39 -24.5 66.5t-47.5 27.5q-45 0 -65.5 -52.5t-20.5 -132.5q0 -81 21 -132.5t61 -51.5q54 0 74 83
q3 13 3 32zM422 504l-34 23q29 45 29 90q0 43 -32 69l57 11q33 -23 33 -72q0 -58 -53 -121z" />
    <glyph glyph-name="Dcroat" unicode="&#x110;" horiz-adv-x="453" 
d="M0 323v58h69v283q42 13 103 13q101 0 158 -51q91 -79 91 -274q0 -197 -81 -286q-65 -72 -186 -72q-52 0 -85 6v323h-69zM247 381v-58h-102v-263q11 -2 29 -2q34 0 62 14t53 45.5t38.5 91t13.5 143.5q0 262 -160 262q-16 0 -36 -4v-229h102z" />
    <glyph glyph-name="dcroat" unicode="&#x111;" horiz-adv-x="399" 
d="M403 544h-58v-428q0 -4 4 -116h-66l-5 60h-3q-32 -68 -102 -68q-62 0 -101 65.5t-39 182.5q0 121 42.5 186t102.5 65q63 0 89 -57h2v110h-131v53h131v95h76v-95h58v-53zM269 171v128q0 22 -1 32q-4 39 -24.5 66.5t-47.5 27.5q-45 0 -65.5 -52.5t-20.5 -132.5
q0 -81 21 -132.5t61 -51.5q54 0 74 83q3 13 3 32z" />
    <glyph glyph-name="Emacron" unicode="&#x112;" horiz-adv-x="354" 
d="M306 385v-65h-169v-253h192v-67h-269v674h257v-67h-180v-222h169zM86 788h213v-53h-213v53z" />
    <glyph glyph-name="emacron" unicode="&#x113;" horiz-adv-x="363" 
d="M332 235h-224q0 -180 114 -180q46 0 80 18l13 -56q-44 -23 -107 -23q-85 0 -130.5 65t-45.5 178q0 116 45.5 185t118.5 69q69 0 103.5 -61.5t34.5 -150.5q0 -20 -2 -44zM109 292h151q1 68 -20.5 103.5t-51.5 35.5q-36 0 -56 -41.5t-23 -97.5zM89 631h197v-51h-197v51z
" />
    <glyph glyph-name="Ebreve" unicode="&#x114;" horiz-adv-x="354" 
d="M306 385v-65h-169v-253h192v-67h-269v674h257v-67h-180v-222h169zM84 809h45q8 -43 61 -43t62 43h45q0 -43 -28.5 -69.5t-77.5 -26.5q-50 0 -78.5 25.5t-28.5 70.5z" />
    <glyph glyph-name="ebreve" unicode="&#x115;" horiz-adv-x="363" 
d="M332 235h-224q0 -180 114 -180q46 0 80 18l13 -56q-44 -23 -107 -23q-85 0 -130.5 65t-45.5 178q0 116 45.5 185t118.5 69q69 0 103.5 -61.5t34.5 -150.5q0 -20 -2 -44zM109 292h151q1 68 -20.5 103.5t-51.5 35.5q-36 0 -56 -41.5t-23 -97.5zM83 669h43q2 -27 19 -44
t43 -17q29 0 46 17t18 44h43q2 -49 -27.5 -81t-79.5 -32t-78.5 32t-26.5 81z" />
    <glyph glyph-name="Edotaccent" unicode="&#x116;" horiz-adv-x="354" 
d="M306 385v-65h-169v-253h192v-67h-269v674h257v-67h-180v-222h169zM193 727q-18 0 -31 13t-13 31q0 19 13 32t32 13t31.5 -13t12.5 -32q0 -18 -13 -31t-32 -13z" />
    <glyph glyph-name="edotaccent" unicode="&#x117;" horiz-adv-x="363" 
d="M332 235h-224q0 -180 114 -180q46 0 80 18l13 -56q-44 -23 -107 -23q-85 0 -130.5 65t-45.5 178q0 116 45.5 185t118.5 69q69 0 103.5 -61.5t34.5 -150.5q0 -20 -2 -44zM109 292h151q1 68 -20.5 103.5t-51.5 35.5q-36 0 -56 -41.5t-23 -97.5zM190 566q-18 0 -31 12.5
t-13 31.5t13 32t32 13q17 0 29.5 -13t12.5 -32t-12 -31.5t-31 -12.5z" />
    <glyph glyph-name="Eogonek" unicode="&#x118;" horiz-adv-x="354" 
d="M323 -137l11 -42q-29 -22 -75 -22q-38 0 -59.5 20.5t-21.5 56.5t24 69t58 55h-200v674h257v-67h-180v-222h169v-65h-169v-253h192v-67q-3 -1 -11 -3q-78 -53 -78 -102q0 -20 12 -30t28 -10q24 0 43 8z" />
    <glyph glyph-name="eogonek" unicode="&#x119;" horiz-adv-x="363" 
d="M276 -132l14 -42q-31 -25 -75 -25q-37 0 -59.5 20.5t-22.5 54.5q0 33 23 65.5t53 51.5v1h-4q-84 1 -128.5 66t-44.5 177q0 116 45.5 185t118.5 69q69 0 103 -61.5t34 -150.5q0 -34 -1 -44h-224q0 -180 114 -180q46 0 80 18l13 -56l-14.5 -6t-12.5 -5q-38 -19 -66 -51
t-28 -61q0 -20 10.5 -29.5t26.5 -9.5q22 0 45 13zM109 292h151q1 68 -20.5 103.5t-51.5 35.5q-36 0 -56 -41.5t-23 -97.5z" />
    <glyph glyph-name="Ecaron" unicode="&#x11a;" horiz-adv-x="354" 
d="M306 385v-65h-169v-253h192v-67h-269v674h257v-67h-180v-222h169zM223 710h-66l-87 98h67l52 -58h2l52 58h66z" />
    <glyph glyph-name="ecaron" unicode="&#x11b;" horiz-adv-x="363" 
d="M332 235h-224q0 -180 114 -180q46 0 80 18l13 -56q-44 -23 -107 -23q-85 0 -130.5 65t-45.5 178q0 116 45.5 185t118.5 69q69 0 103.5 -61.5t34.5 -150.5q0 -20 -2 -44zM109 292h151q1 68 -20.5 103.5t-51.5 35.5q-36 0 -56 -41.5t-23 -97.5zM213 547h-52l-79 135h58
l46 -87h2l47 87h58z" />
    <glyph glyph-name="Gcircumflex" unicode="&#x11c;" horiz-adv-x="436" 
d="M391 352v-335q-54 -23 -119 -23q-99 0 -159 65q-82 88 -81 269t76 266.5t178 85.5q60 0 95 -19l-17 -66q-32 16 -77 16q-73 0 -124 -66t-51 -210t45.5 -209.5t114.5 -65.5q35 0 47 8v220h-87v64h159zM221 808h67l87 -98h-67l-52 55h-2l-52 -55h-66z" />
    <glyph glyph-name="gcircumflex" unicode="&#x11d;" horiz-adv-x="399" 
d="M346 333v-271q0 -91 -11.5 -136.5t-36.5 -74.5q-46 -51 -129 -51q-63 0 -106 24l18 60q40 -21 90 -21q99 0 99 148v49h-2q-25 -59 -93 -59q-64 0 -103 66t-39 173q0 124 46 187.5t107 63.5q56 0 90 -61h2l4 54h68q-4 -132 -4 -151zM270 177v140q0 22 -4 35q-18 73 -70 73
q-41 0 -63.5 -50t-22.5 -132q0 -88 24 -133.5t62 -45.5q51 0 69 69q5 19 5 44zM172 682h51l79 -135h-58l-45 87h-2l-47 -87h-58z" />
    <glyph glyph-name="Gbreve" unicode="&#x11e;" horiz-adv-x="436" 
d="M391 352v-335q-54 -23 -119 -23q-99 0 -159 65q-82 88 -81 269t76 266.5t178 85.5q60 0 95 -19l-17 -66q-32 16 -77 16q-73 0 -124 -66t-51 -210t45.5 -209.5t114.5 -65.5q35 0 47 8v220h-87v64h159zM147 807h45q8 -43 61 -43t62 43h45q0 -43 -28.5 -69.5t-77.5 -26.5
q-50 0 -78.5 25.5t-28.5 70.5z" />
    <glyph glyph-name="gbreve" unicode="&#x11f;" horiz-adv-x="399" 
d="M346 333v-271q0 -91 -11.5 -136.5t-36.5 -74.5q-46 -51 -129 -51q-63 0 -106 24l18 60q40 -21 90 -21q99 0 99 148v49h-2q-25 -59 -93 -59q-64 0 -103 66t-39 173q0 124 46 187.5t107 63.5q56 0 90 -61h2l4 54h68q-4 -132 -4 -151zM270 177v140q0 22 -4 35q-18 73 -70 73
q-41 0 -63.5 -50t-22.5 -132q0 -88 24 -133.5t62 -45.5q51 0 69 69q5 19 5 44zM94 669h43q2 -27 19 -44t42 -17q29 0 46 17t18 44h43q2 -49 -27.5 -81t-79.5 -32t-78 32t-26 81z" />
    <glyph glyph-name="Gdotaccent" unicode="&#x120;" horiz-adv-x="436" 
d="M391 352v-335q-54 -23 -119 -23q-99 0 -159 65q-82 88 -81 269t76 266.5t178 85.5q60 0 95 -19l-17 -66q-32 16 -77 16q-73 0 -124 -66t-51 -210t45.5 -209.5t114.5 -65.5q35 0 47 8v220h-87v64h159zM255 720q-18 0 -31 13t-13 31q0 19 13 32t32 13t31.5 -13t12.5 -32
q0 -18 -13 -31t-32 -13z" />
    <glyph glyph-name="gdotaccent" unicode="&#x121;" horiz-adv-x="399" 
d="M346 333v-271q0 -91 -11.5 -136.5t-36.5 -74.5q-46 -51 -129 -51q-63 0 -106 24l18 60q40 -21 90 -21q99 0 99 148v49h-2q-25 -59 -93 -59q-64 0 -103 66t-39 173q0 124 46 187.5t107 63.5q56 0 90 -61h2l4 54h68q-4 -132 -4 -151zM270 177v140q0 22 -4 35q-18 73 -70 73
q-41 0 -63.5 -50t-22.5 -132q0 -88 24 -133.5t62 -45.5q51 0 69 69q5 19 5 44zM201 566q-18 0 -31 12.5t-13 31.5t13 32t32 13q17 0 29.5 -13t12.5 -32t-12 -31.5t-31 -12.5z" />
    <glyph glyph-name="Gcommaaccent" unicode="&#x122;" horiz-adv-x="436" 
d="M391 352v-335q-54 -23 -119 -23q-99 0 -159 65q-82 88 -81 269t76 266.5t178 85.5q60 0 95 -19l-17 -66q-32 16 -77 16q-73 0 -124 -66t-51 -210t45.5 -209.5t114.5 -65.5q35 0 47 8v220h-87v64h159zM206 -214l-17 37q26 7 45 23t19 39q0 35 -34 61l62 12q35 -25 35 -70
q0 -44 -31.5 -69t-78.5 -33z" />
    <glyph glyph-name="gcommaaccent" unicode="&#x123;" horiz-adv-x="399" 
d="M346 333v-271q0 -91 -11.5 -136.5t-36.5 -74.5q-46 -51 -129 -51q-63 0 -106 24l18 60q40 -21 90 -21q99 0 99 148v49h-2q-25 -59 -93 -59q-64 0 -103 66t-39 173q0 124 46 187.5t107 63.5q56 0 90 -61h2l4 54h68q-4 -132 -4 -151zM270 177v140q0 22 -4 35q-18 73 -70 73
q-41 0 -63.5 -50t-22.5 -132q0 -88 24 -133.5t62 -45.5q51 0 69 69q5 19 5 44zM259 701l17 -35q-68 -16 -68 -64q0 -34 36 -62l-61 -11q-35 25 -35 70t31.5 69.5t79.5 32.5z" />
    <glyph glyph-name="Hcircumflex" unicode="&#x124;" horiz-adv-x="463" 
d="M60 674h77v-289h189v289h77v-674h-77v315h-189v-315h-77v674zM201 808h66l87 -98h-67l-52 55h-2l-52 -55h-66z" />
    <glyph glyph-name="hcircumflex" unicode="&#x125;" horiz-adv-x="405" 
d="M54 0v692h77v-261h2q15 25 41 43q26 17 64 17q50 0 81.5 -42t31.5 -128v-321h-77v312q0 114 -65 114q-57 0 -75 -77q-3 -15 -3 -36v-313h-77zM61 818h66l87 -98h-67l-52 55h-2l-52 -55h-66z" />
    <glyph glyph-name="Hbar" unicode="&#x126;" horiz-adv-x="463" 
d="M450 483h-47v-483h-77v305h-189v-305h-77v483h-47v55h47v136h77v-136h189v136h77v-136h47v-55zM326 375v108h-189v-108h189z" />
    <glyph glyph-name="hbar" unicode="&#x127;" horiz-adv-x="405" 
d="M351 0h-77v312q0 114 -65 114q-57 0 -75 -77q-3 -15 -3 -36v-313h-77v544h-60v53h60v95h77v-95h133v-53h-133v-113h2q15 25 41 43q26 17 64 17q50 0 81.5 -42t31.5 -128v-321z" />
    <glyph glyph-name="Itilde" unicode="&#x128;" horiz-adv-x="199" 
d="M60 674h77v-674h-77v674zM35 718h-41q-1 43 15 68.5t44 25.5q19 0 47 -17q30 -18 40 -18q12 0 18 8t8 29h40q2 -90 -62 -90q-24 0 -49 17q-26 16 -36 16q-19 0 -24 -39z" />
    <glyph glyph-name="itilde" unicode="&#x129;" horiz-adv-x="184" 
d="M131 0h-77v484h77v-484zM27 561h-43q-1 41 15.5 67.5t46.5 26.5q21 0 49 -18q32 -17 40 -17q24 0 25 36h41q0 -89 -63 -89q-19 0 -49 17t-38 17q-21 0 -24 -40z" />
    <glyph glyph-name="Imacron" unicode="&#x12a;" horiz-adv-x="199" 
d="M60 674h77v-674h-77v674zM-6 788h213v-53h-213v53z" />
    <glyph glyph-name="imacron" unicode="&#x12b;" horiz-adv-x="184" 
d="M131 0h-77v484h77v-484zM-5 631h197v-51h-197v51z" />
    <glyph glyph-name="Ibreve" unicode="&#x12c;" horiz-adv-x="199" 
d="M60 674h77v-674h-77v674zM-8 809h45q8 -43 61 -43t62 43h45q0 -43 -28.5 -69.5t-77.5 -26.5q-50 0 -78.5 25.5t-28.5 70.5z" />
    <glyph glyph-name="ibreve" unicode="&#x12d;" horiz-adv-x="184" 
d="M131 0h-77v484h77v-484zM-13 669h43q2 -27 19 -44t43 -17q29 0 46 17t18 44h43q2 -49 -27.5 -81t-79.5 -32t-78.5 32t-26.5 81z" />
    <glyph glyph-name="Iogonek" unicode="&#x12e;" horiz-adv-x="199" 
d="M137 674v-674h-22q-41 -56 -41 -102q0 -22 12 -34.5t29 -12.5q27 0 43 8l11 -43q-30 -21 -72 -21q-38 0 -61 22t-23 60q0 50 47 123v674h77z" />
    <glyph glyph-name="iogonek" unicode="&#x12f;" horiz-adv-x="184" 
d="M90 559q-19 0 -31.5 14t-12.5 36t13 36t32 14q21 0 33.5 -13.5t12.5 -36.5t-12.5 -36.5t-34.5 -13.5zM131 484v-484h-23q-41 -56 -41 -103q0 -22 12.5 -34t28.5 -12q27 0 43 8l11 -43q-30 -21 -72 -21q-39 0 -61.5 22t-22.5 61q0 51 48 122v484h77z" />
    <glyph glyph-name="Idotaccent" unicode="&#x130;" horiz-adv-x="199" 
d="M60 674h77v-674h-77v674zM99 727q-18 0 -31 13t-13 31q0 19 13 32t32 13t31.5 -13t12.5 -32q0 -18 -13 -31t-32 -13z" />
    <glyph glyph-name="dotlessi" unicode="&#x131;" horiz-adv-x="184" 
d="M131 0h-77v484h77v-484z" />
    <glyph glyph-name="IJ" unicode="&#x132;" horiz-adv-x="464" 
d="M60 674h77v-674h-77v674zM333 189v485h77v-484q0 -108 -40.5 -153t-117.5 -45q-32 0 -50 7l7 65q13 -4 37 -4q44 0 65.5 27t21.5 102z" />
    <glyph glyph-name="ij" unicode="&#x133;" horiz-adv-x="373" 
d="M131 0h-77v484h77v-484zM91 659q21 0 33.5 -13.5t12.5 -36.5t-12.5 -36.5t-34.5 -13.5q-19 0 -31.5 14t-12.5 36t13 36t32 14zM166 -200l-10 61q48 13 65 38q23 35 23 154v431h77v-453q0 -75 -11.5 -116t-37.5 -69q-20 -21 -50.5 -33t-55.5 -13zM283 659q20 0 32.5 -13.5
t12.5 -36.5t-12.5 -36.5t-33.5 -13.5q-20 0 -32.5 14t-12.5 36t13 36t33 14z" />
    <glyph glyph-name="Jcircumflex" unicode="&#x134;" horiz-adv-x="265" 
d="M134 189v485h77v-484q0 -108 -40.5 -153t-117.5 -45q-32 0 -50 7l7 65q13 -4 37 -4q44 0 65.5 27t21.5 102zM135 808h66l87 -98h-67l-52 55h-2l-52 -55h-66z" />
    <glyph glyph-name="jcircumflex" unicode="&#x135;" horiz-adv-x="188" 
d="M-18 -200l-10 61q48 13 65 38q23 35 23 154v431h77v-453q0 -75 -11.5 -116t-37.5 -69q-20 -21 -50.5 -33t-55.5 -13zM69 674h52l79 -135h-58l-45 87h-2l-47 -87h-58z" />
    <glyph glyph-name="Kcommaaccent" unicode="&#x136;" horiz-adv-x="404" 
d="M61 0v674h76v-320h2q12 21 42 81l126 239h85l-165 -288l169 -386h-83l-138 325l-38 -65v-260h-76zM159 -207l-16 37q26 7 45 23t19 39q0 35 -34 61l62 12q35 -25 35 -70q0 -44 -31.5 -69t-79.5 -33z" />
    <glyph glyph-name="kcommaaccent" unicode="&#x137;" horiz-adv-x="354" 
d="M129 692v-433h2q23 49 26 54l96 171h83l-128 -204l140 -280h-86l-105 228l-28 -45v-183h-76v692h76zM129 -214l-16 37q26 7 45 23t19 39q0 35 -34 61l62 12q35 -25 35 -70q0 -44 -31.5 -69t-79.5 -33z" />
    <glyph glyph-name="kgreenlandic" unicode="&#x138;" horiz-adv-x="354" 
d="M129 484v-225h2q23 49 26 54l96 171h83l-128 -204l140 -280h-86l-105 228l-28 -45v-183h-76v484h76z" />
    <glyph glyph-name="Lacute" unicode="&#x139;" horiz-adv-x="344" 
d="M60 0v674h77v-609h189v-65h-266zM160 818h91l-124 -108h-61z" />
    <glyph glyph-name="lacute" unicode="&#x13a;" horiz-adv-x="191" 
d="M54 0v692h77v-692h-77zM144 828h91l-124 -108h-61z" />
    <glyph glyph-name="Lcommaaccent" unicode="&#x13b;" horiz-adv-x="344" 
d="M60 0v674h77v-609h189v-65h-266zM125 -214l-16 37q26 7 45 23t19 39q0 35 -34 61l62 12q35 -25 35 -70q0 -44 -31.5 -69t-79.5 -33z" />
    <glyph glyph-name="lcommaaccent" unicode="&#x13c;" horiz-adv-x="191" 
d="M54 0v692h77v-692h-77zM43 -214l-16 37q26 7 45 23t19 39q0 35 -34 61l62 12q35 -25 35 -70q0 -44 -31.5 -69t-79.5 -33z" />
    <glyph glyph-name="Lcaron" unicode="&#x13d;" horiz-adv-x="344" 
d="M60 0v674h77v-609h189v-65h-266zM200 502l-16 37q26 7 45 23t19 39q0 35 -34 61l62 12q35 -25 35 -70q0 -44 -31.5 -69t-79.5 -33z" />
    <glyph glyph-name="lcaron" unicode="&#x13e;" horiz-adv-x="194" 
d="M54 0v692h77v-692h-77zM208 505l-34 23q29 45 29 90q0 42 -32 68l57 11q33 -23 33 -72q0 -57 -53 -120z" />
    <glyph glyph-name="Ldot" unicode="&#x13f;" horiz-adv-x="344" 
d="M60 0v674h77v-609h189v-65h-266zM240 317q-18 0 -31 13t-13 31q0 19 13 32t32 13t31.5 -13t12.5 -32q0 -18 -13 -31t-32 -13z" />
    <glyph glyph-name="ldot" unicode="&#x140;" horiz-adv-x="235" 
d="M54 0v692h77v-692h-77zM211 350q-17 0 -29 12.5t-12 31.5t12 31.5t30 12.5q17 0 28 -12.5t11 -31.5t-11.5 -31.5t-28.5 -12.5z" />
    <glyph glyph-name="Lslash" unicode="&#x141;" horiz-adv-x="351" 
d="M333 0h-266v256l-68 -65v70l68 65v348h77v-286l106 102v-71l-106 -101v-253h189v-65z" />
    <glyph glyph-name="lslash" unicode="&#x142;" horiz-adv-x="198" 
d="M138 0h-77v296l-62 -63v68l62 64v327h77v-267l64 66v-70l-64 -66v-355z" />
    <glyph glyph-name="Nacute" unicode="&#x143;" horiz-adv-x="465" 
d="M130 0h-69v674h72l124 -316q67 -175 86 -235h2q-9 159 -9 310v241h69v-674h-72l-128 324q-51 124 -81 229h-2q8 -120 8 -320v-233zM291 818h90l-124 -108h-61z" />
    <glyph glyph-name="nacute" unicode="&#x144;" horiz-adv-x="405" 
d="M54 0v359q0 33 -2 75t-2 50h67l4 -59h2q36 66 111 66q53 0 85 -41t32 -125v-325h-77v311q0 115 -67 115q-25 0 -45 -20.5t-27 -57.5q-4 -16 -4 -44v-304h-77zM247 682h79l-105 -135h-51z" />
    <glyph glyph-name="Ncommaaccent" unicode="&#x145;" horiz-adv-x="465" 
d="M130 0h-69v674h72l124 -316q67 -175 86 -235h2q-9 159 -9 310v241h69v-674h-72l-128 324q-51 124 -81 229h-2q8 -120 8 -320v-233zM176 -211l-16 37q26 7 45 23t19 39q0 35 -34 61l62 12q35 -25 35 -70q0 -44 -31.5 -69t-79.5 -33z" />
    <glyph glyph-name="ncommaaccent" unicode="&#x146;" horiz-adv-x="405" 
d="M54 0v359q0 33 -2 75t-2 50h67l4 -59h2q36 66 111 66q53 0 85 -41t32 -125v-325h-77v311q0 115 -67 115q-25 0 -45 -20.5t-27 -57.5q-4 -16 -4 -44v-304h-77zM158 -208l-16 37q26 7 44.5 23t18.5 39q0 34 -33 61l61 12q35 -25 35 -70q0 -44 -31.5 -69t-78.5 -33z" />
    <glyph glyph-name="Ncaron" unicode="&#x147;" horiz-adv-x="465" 
d="M130 0h-69v674h72l124 -316q67 -175 86 -235h2q-9 159 -9 310v241h69v-674h-72l-128 324q-51 124 -81 229h-2q8 -120 8 -320v-233zM265 710h-66l-87 98h67l52 -58h2l52 58h66z" />
    <glyph glyph-name="ncaron" unicode="&#x148;" horiz-adv-x="405" 
d="M54 0v359q0 33 -2 75t-2 50h67l4 -59h2q36 66 111 66q53 0 85 -41t32 -125v-325h-77v311q0 115 -67 115q-25 0 -45 -20.5t-27 -57.5q-4 -16 -4 -44v-304h-77zM229 547h-53l-79 135h58l46 -87h2l47 87h58z" />
    <glyph glyph-name="napostrophe" unicode="&#x149;" horiz-adv-x="405" 
d="M54 0v359q0 33 -2 75t-2 50h67l4 -59h2q36 66 111 66q53 0 85 -41t32 -125v-325h-77v311q0 115 -67 115q-25 0 -45 -20.5t-27 -57.5q-4 -16 -4 -44v-304h-77zM53 528l-37 19q29 40 29 81q0 38 -32 61l60 10q33 -21 33 -65q0 -53 -53 -106z" />
    <glyph glyph-name="Eng" unicode="&#x14a;" horiz-adv-x="465" 
d="M130 0h-69v674h72l124 -316q63 -162 86 -235h2q-9 159 -9 310v241h69v-653q0 -87 -32.5 -138.5t-107.5 -68.5l-19 59q89 26 90 121l-131 330q-51 124 -81 229h-2q8 -120 8 -319v-234z" />
    <glyph glyph-name="eng" unicode="&#x14b;" horiz-adv-x="405" 
d="M54 0v359q0 33 -2 75t-2 50h67l4 -59h2q36 66 111 66q53 0 85 -41t32 -125v-294q0 -178 -140 -204l-16 62q39 10 59 41t20 97v284q0 115 -67 115q-25 0 -45 -20.5t-27 -57.5q-4 -16 -4 -44v-304h-77z" />
    <glyph glyph-name="Omacron" unicode="&#x14c;" horiz-adv-x="446" 
d="M230 682q86 0 135 -89.5t49 -250.5q0 -180 -53.5 -265t-141.5 -85q-86 0 -136.5 89.5t-50.5 256.5q0 164 54 254t144 90zM224 614q-40 0 -66.5 -42t-36 -101.5t-9.5 -133.5q0 -55 6 -102.5t18.5 -88t35 -63.5t53.5 -23t53 24.5t34 66.5t17 88t5 100q0 51 -5 96.5
t-17 87.5t-34.5 66.5t-53.5 24.5zM118 788h213v-53h-213v53z" />
    <glyph glyph-name="omacron" unicode="&#x14d;" horiz-adv-x="383" 
d="M195 491q69 0 112.5 -64t43.5 -185q0 -129 -48 -189.5t-113 -60.5q-69 0 -113 63.5t-44 185.5q0 124 47 187t115 63zM192 430q-24 0 -41.5 -18.5t-25.5 -48.5t-11.5 -59.5t-3.5 -61.5q0 -34 3.5 -64t12 -60t26 -47.5t42.5 -17.5q31 0 50 33t24.5 72t5.5 84
q0 32 -3.5 61.5t-12 59.5t-25.5 48.5t-41 18.5zM94 631h197v-51h-197v51z" />
    <glyph glyph-name="Obreve" unicode="&#x14e;" horiz-adv-x="446" 
d="M230 682q86 0 135 -89.5t49 -250.5q0 -180 -53.5 -265t-141.5 -85q-86 0 -136.5 89.5t-50.5 256.5q0 164 54 254t144 90zM224 614q-40 0 -66.5 -42t-36 -101.5t-9.5 -133.5q0 -55 6 -102.5t18.5 -88t35 -63.5t53.5 -23t53 24.5t34 66.5t17 88t5 100q0 51 -5 96.5
t-17 87.5t-34.5 66.5t-53.5 24.5zM115 810h45q8 -43 61 -43t62 43h45q0 -43 -28.5 -69.5t-77.5 -26.5q-50 0 -78.5 25.5t-28.5 70.5z" />
    <glyph glyph-name="obreve" unicode="&#x14f;" horiz-adv-x="383" 
d="M195 491q69 0 112.5 -64t43.5 -185q0 -129 -48 -189.5t-113 -60.5q-69 0 -113 63.5t-44 185.5q0 124 47 187t115 63zM192 430q-24 0 -41.5 -18.5t-25.5 -48.5t-11.5 -59.5t-3.5 -61.5q0 -34 3.5 -64t12 -60t26 -47.5t42.5 -17.5q31 0 50 33t24.5 72t5.5 84
q0 32 -3.5 61.5t-12 59.5t-25.5 48.5t-41 18.5zM85 669h43q2 -27 19 -44t42 -17q29 0 46 17t18 44h43q2 -49 -27.5 -81t-79.5 -32t-78 32t-26 81z" />
    <glyph glyph-name="Ohungarumlaut" unicode="&#x150;" horiz-adv-x="446" 
d="M230 682q86 0 135 -89.5t49 -250.5q0 -180 -53.5 -265t-141.5 -85q-86 0 -136.5 89.5t-50.5 256.5q0 164 54 254t144 90zM224 614q-40 0 -66.5 -42t-36 -101.5t-9.5 -133.5q0 -55 6 -102.5t18.5 -88t35 -63.5t53.5 -23t53 24.5t34 66.5t17 88t5 100q0 51 -5 96.5
t-17 87.5t-34.5 66.5t-53.5 24.5zM203 818h81l-99 -99h-54zM331 818h80l-99 -99h-54z" />
    <glyph glyph-name="ohungarumlaut" unicode="&#x151;" horiz-adv-x="383" 
d="M195 491q69 0 112.5 -64t43.5 -185q0 -129 -48 -189.5t-113 -60.5q-69 0 -113 63.5t-44 185.5q0 124 47 187t115 63zM192 430q-24 0 -41.5 -18.5t-25.5 -48.5t-11.5 -59.5t-3.5 -61.5q0 -34 3.5 -64t12 -60t26 -47.5t42.5 -17.5q31 0 50 33t24.5 72t5.5 84
q0 32 -3.5 61.5t-12 59.5t-25.5 48.5t-41 18.5zM179 682h70l-104 -135h-44zM303 682h70l-104 -135h-44z" />
    <glyph glyph-name="OE" unicode="&#x152;" horiz-adv-x="610" 
d="M585 67v-67h-247q-18 -1 -37 -5q-21 -3 -38 -3q-63 0 -109.5 27.5t-72 76.5t-37.5 108t-12 129q0 170 67 259.5t173 89.5q20 0 38 -3l35 -5h228v-67h-180v-222h169v-65h-169v-253h192zM316 68v535q-19 11 -54 11q-59 0 -104.5 -67t-45.5 -209q-1 -148 43 -213t112 -65
q34 0 49 8z" />
    <glyph glyph-name="oe" unicode="&#x153;" horiz-adv-x="609" 
d="M580 237h-225q1 -103 31 -143.5t82 -40.5q31 0 84 19l13 -54q-42 -26 -113 -26q-44 0 -81 26t-53 75h-2q-15 -50 -49.5 -75.5t-75.5 -25.5q-70 0 -114 64t-44 185q0 122 47 186t116 64q41 0 75 -25t48 -73h2q39 98 126 98q67 0 100.5 -62t33.5 -151q0 -31 -1 -41z
M196 430q-26 0 -44.5 -18.5t-26.5 -50t-11.5 -60t-3.5 -59.5q0 -189 88 -189q85 0 85 190q0 187 -87 187zM357 292h150q2 66 -19 102.5t-49 36.5q-37 0 -58.5 -41.5t-23.5 -97.5z" />
    <glyph glyph-name="Racute" unicode="&#x154;" horiz-adv-x="409" 
d="M61 0v664q46 13 110 13q103 0 152 -48q47 -48 47 -132q0 -123 -108 -174v-2q37 -11 58 -47.5t32 -103.5q24 -139 39 -170h-78q-14 28 -36 166q-11 70 -36 98.5t-74 28.5h-30v-293h-76zM137 611v-258h33q55 0 88.5 37t33.5 98q0 126 -114 127q-28 0 -41 -4zM244 818h91
l-124 -108h-61z" />
    <glyph glyph-name="racute" unicode="&#x155;" horiz-adv-x="248" 
d="M53 0v359q0 24 -2 71.5t-2 53.5h69l4 -77h2q12 36 40.5 60t61.5 24q11 0 16 -1v-78h-16q-36 0 -61.5 -28.5t-31.5 -71.5q-3 -20 -3 -44v-268h-77zM180 682h79l-105 -135h-51z" />
    <glyph glyph-name="Rcommaaccent" unicode="&#x156;" horiz-adv-x="409" 
d="M61 0v664q46 13 110 13q103 0 152 -48q47 -48 47 -132q0 -123 -108 -174v-2q37 -11 58 -47.5t32 -103.5q24 -139 39 -170h-78q-14 28 -36 166q-11 70 -36 98.5t-74 28.5h-30v-293h-76zM137 611v-258h33q55 0 88.5 37t33.5 98q0 126 -114 127q-28 0 -41 -4zM156 -207
l-16 37q26 7 45 23t19 39q0 35 -34 61l62 12q35 -25 35 -70q0 -44 -31.5 -69t-79.5 -33z" />
    <glyph glyph-name="rcommaaccent" unicode="&#x157;" horiz-adv-x="248" 
d="M53 0v359q0 24 -2 71.5t-2 53.5h69l4 -77h2q12 36 40.5 60t61.5 24q11 0 16 -1v-78h-16q-36 0 -61.5 -28.5t-31.5 -71.5q-3 -20 -3 -44v-268h-77zM55 -214l-16 37q26 7 45 23t19 39q0 35 -34 61l62 12q35 -25 35 -70q0 -44 -31.5 -69t-79.5 -33z" />
    <glyph glyph-name="Rcaron" unicode="&#x158;" horiz-adv-x="409" 
d="M61 0v664q46 13 110 13q103 0 152 -48q47 -48 47 -132q0 -123 -108 -174v-2q37 -11 58 -47.5t32 -103.5q24 -139 39 -170h-78q-14 28 -36 166q-11 70 -36 98.5t-74 28.5h-30v-293h-76zM137 611v-258h33q55 0 88.5 37t33.5 98q0 126 -114 127q-28 0 -41 -4zM229 710h-66
l-87 98h67l52 -58h2l52 58h66z" />
    <glyph glyph-name="rcaron" unicode="&#x159;" horiz-adv-x="248" 
d="M53 0v359q0 24 -2 71.5t-2 53.5h69l4 -77h2q12 36 40.5 60t61.5 24q11 0 16 -1v-78h-16q-36 0 -61.5 -28.5t-31.5 -71.5q-3 -20 -3 -44v-268h-77zM162 547h-53l-79 135h58l46 -87h2l47 87h58z" />
    <glyph glyph-name="Sacute" unicode="&#x15a;" horiz-adv-x="361" 
d="M28 23l17 66q40 -27 96 -27q53 0 83 31t30 83q0 43 -22 74.5t-67 65.5q-127 87 -127 187q0 77 49.5 127t128.5 50q61 0 94 -25l-18 -66q-33 23 -80 23t-72.5 -29t-25.5 -67q0 -46 21.5 -72.5t77.5 -66.5q117 -82 117 -194q0 -86 -53.5 -137.5t-135.5 -51.5q-33 0 -65.5 9
t-47.5 20zM229 818h91l-124 -108h-61z" />
    <glyph glyph-name="sacute" unicode="&#x15b;" horiz-adv-x="289" 
d="M22 22l19 58q39 -25 78 -25q32 0 51.5 19t19.5 51q0 29 -13 50t-49 45q-97 62 -97 137q0 59 38 96.5t95 37.5q44 0 86 -25l-20 -58q-32 22 -65 22q-29 0 -45.5 -18t-16.5 -44q0 -24 12 -41.5t48 -41.5q100 -64 100 -147q0 -70 -41.5 -107t-104.5 -37q-60 0 -95 28z
M189 682h79l-105 -135h-51z" />
    <glyph glyph-name="Scircumflex" unicode="&#x15c;" horiz-adv-x="361" 
d="M28 23l17 66q40 -27 96 -27q53 0 83 31t30 83q0 43 -22 74.5t-67 65.5q-127 87 -127 187q0 77 49.5 127t128.5 50q61 0 94 -25l-18 -66q-33 23 -80 23t-72.5 -29t-25.5 -67q0 -46 21.5 -72.5t77.5 -66.5q117 -82 117 -194q0 -86 -53.5 -137.5t-135.5 -51.5q-33 0 -65.5 9
t-47.5 20zM155 808h66l87 -98h-67l-52 55h-2l-52 -55h-66z" />
    <glyph glyph-name="scircumflex" unicode="&#x15d;" horiz-adv-x="289" 
d="M22 22l19 58q39 -25 78 -25q32 0 51.5 19t19.5 51q0 29 -13 50t-49 45q-97 62 -97 137q0 59 38 96.5t95 37.5q44 0 86 -25l-20 -58q-32 22 -65 22q-29 0 -45.5 -18t-16.5 -44q0 -24 12 -41.5t48 -41.5q100 -64 100 -147q0 -70 -41.5 -107t-104.5 -37q-60 0 -95 28z
M119 682h52l79 -135h-58l-46 87h-2l-46 -87h-58z" />
    <glyph glyph-name="Scedilla" unicode="&#x15e;" horiz-adv-x="361" 
d="M28 23l17 66q40 -27 96 -27q53 0 83 31t30 83q0 43 -22 74.5t-67 65.5q-127 87 -127 187q0 77 49.5 127t128.5 50q61 0 94 -25l-18 -66q-33 23 -80 23t-72.5 -29t-25.5 -67q0 -46 21.5 -72.5t77.5 -66.5q117 -82 117 -194q0 -69 -35 -116.5t-94 -64.5l-28 -52
q27 -4 46.5 -24t19.5 -47q0 -40 -27 -59.5t-64 -19.5q-35 0 -67 18l16 42q23 -15 50 -15q36 0 36 31q0 36 -69 43l35 75h-8q-33 0 -65.5 9t-47.5 20z" />
    <glyph glyph-name="scedilla" unicode="&#x15f;" horiz-adv-x="289" 
d="M22 22l19 58q39 -25 78 -25q32 0 51.5 19t19.5 51q0 29 -13 50t-49 45q-97 62 -97 137q0 59 38 96.5t95 37.5q44 0 86 -25l-20 -58q-32 22 -65 22q-29 0 -45.5 -18t-16.5 -44q0 -24 12 -41.5t48 -41.5q100 -64 100 -147q0 -55 -26 -89.5t-69 -47.5l-27 -51
q27 -4 46.5 -24t19.5 -47q0 -40 -27 -59.5t-64 -19.5q-35 0 -67 18l16 42q24 -15 50 -15q36 0 36 30q0 37 -69 44l35 75h-4q-56 0 -91 28z" />
    <glyph glyph-name="Scaron" unicode="&#x160;" horiz-adv-x="361" 
d="M28 23l17 66q40 -27 96 -27q53 0 83 31t30 83q0 43 -22 74.5t-67 65.5q-127 87 -127 187q0 77 49.5 127t128.5 50q61 0 94 -25l-18 -66q-33 23 -80 23t-72.5 -29t-25.5 -67q0 -46 21.5 -72.5t77.5 -66.5q117 -82 117 -194q0 -86 -53.5 -137.5t-135.5 -51.5q-33 0 -65.5 9
t-47.5 20zM229 710h-66l-87 98h67l52 -58h2l52 58h66z" />
    <glyph glyph-name="scaron" unicode="&#x161;" horiz-adv-x="289" 
d="M22 22l19 58q39 -25 78 -25q32 0 51.5 19t19.5 51q0 29 -13 50t-49 45q-97 62 -97 137q0 59 38 96.5t95 37.5q44 0 86 -25l-20 -58q-32 22 -65 22q-29 0 -45.5 -18t-16.5 -44q0 -24 12 -41.5t48 -41.5q100 -64 100 -147q0 -70 -41.5 -107t-104.5 -37q-60 0 -95 28z
M173 547h-52l-79 135h58l45 -87h2l48 87h58z" />
    <glyph glyph-name="Tcommaaccent" unicode="&#x162;" horiz-adv-x="354" 
d="M139 0v605h-123v69h323v-69h-123v-605h-77zM122 -214l-16 37q26 7 45 23t19 39q0 35 -34 61l62 12q35 -25 35 -70q0 -44 -31.5 -69t-79.5 -33z" />
    <glyph glyph-name="tcommaaccent" unicode="&#x163;" horiz-adv-x="255" 
d="M71 566l77 31v-113h93v-58h-93v-288q0 -80 50 -80q19 0 31 3l4 -59q-22 -8 -57 -8q-51 0 -76 29q-29 32 -29 122v281h-59v58h59v82zM85 -214l-16 37q26 7 45 23t19 39q0 35 -34 61l62 12q35 -25 35 -70q0 -44 -31.5 -69t-79.5 -33z" />
    <glyph glyph-name="Tcaron" unicode="&#x164;" horiz-adv-x="354" 
d="M139 0v605h-123v69h323v-69h-123v-605h-77zM209 710h-66l-87 98h67l52 -58h2l52 58h66z" />
    <glyph glyph-name="tcaron" unicode="&#x165;" horiz-adv-x="265" 
d="M71 566l77 31v-113h93v-58h-93v-288q0 -80 51 -80q17 0 31 3l3 -59q-21 -8 -57 -8q-51 0 -76 29q-29 32 -29 122v281h-59v58h59v82zM263 536l-37 20q29 37 29 82q0 40 -30 62l60 11q33 -23 33 -66q0 -54 -55 -109z" />
    <glyph glyph-name="Tbar" unicode="&#x166;" horiz-adv-x="354" 
d="M339 605h-123v-226h84v-56h-84v-323h-77v323h-84v56h84v226h-123v69h323v-69z" />
    <glyph glyph-name="tbar" unicode="&#x167;" horiz-adv-x="255" 
d="M241 426h-93v-117h73v-53h-73v-118q0 -80 50 -80q19 0 31 3l4 -59q-22 -8 -57 -8q-51 0 -76 29q-29 32 -29 122v111h-55v53h55v117h-59v58h59v82l77 31v-113h93v-58z" />
    <glyph glyph-name="Utilde" unicode="&#x168;" horiz-adv-x="457" 
d="M59 674h77v-452q0 -162 91 -162q94 0 94 162v452h77v-440q0 -125 -46 -183.5t-126 -58.5q-167 0 -167 233v449zM163 718h-41q-1 43 15 68.5t44 25.5q19 0 47 -17q30 -18 40 -18q12 0 18 8t8 29h40q2 -90 -62 -90q-24 0 -49 17q-26 16 -36 16q-19 0 -24 -39z" />
    <glyph glyph-name="utilde" unicode="&#x169;" horiz-adv-x="398" 
d="M344 484v-352q0 -32 2 -81.5t2 -50.5h-67l-6 51h-2q-13 -22 -40.5 -40.5t-62.5 -18.5q-118 0 -118 186v306h77v-295q0 -64 14 -98t51 -34q30 0 47.5 21t21.5 43q4 17 4 44v319h77zM133 561h-43q-1 41 15.5 67.5t46.5 26.5q20 0 50 -18q30 -17 39 -17q24 0 25 36h41
q0 -89 -63 -89q-19 0 -49 17t-38 17q-21 0 -24 -40z" />
    <glyph glyph-name="Umacron" unicode="&#x16a;" horiz-adv-x="457" 
d="M59 674h77v-452q0 -162 91 -162q94 0 94 162v452h77v-440q0 -125 -46 -183.5t-126 -58.5q-167 0 -167 233v449zM121 788h213v-53h-213v53z" />
    <glyph glyph-name="umacron" unicode="&#x16b;" horiz-adv-x="398" 
d="M344 484v-352q0 -32 2 -81.5t2 -50.5h-67l-6 51h-2q-13 -22 -40.5 -40.5t-62.5 -18.5q-118 0 -118 186v306h77v-295q0 -64 14 -98t51 -34q30 0 47.5 21t21.5 43q4 17 4 44v319h77zM99 631h197v-51h-197v51z" />
    <glyph glyph-name="Ubreve" unicode="&#x16c;" horiz-adv-x="457" 
d="M59 674h77v-452q0 -162 91 -162q94 0 94 162v452h77v-440q0 -125 -46 -183.5t-126 -58.5q-167 0 -167 233v449zM121 807h45q8 -43 61 -43t62 43h45q0 -43 -28.5 -69.5t-77.5 -26.5q-50 0 -78.5 25.5t-28.5 70.5z" />
    <glyph glyph-name="ubreve" unicode="&#x16d;" horiz-adv-x="398" 
d="M344 484v-352q0 -32 2 -81.5t2 -50.5h-67l-6 51h-2q-13 -22 -40.5 -40.5t-62.5 -18.5q-118 0 -118 186v306h77v-295q0 -64 14 -98t51 -34q30 0 47.5 21t21.5 43q4 17 4 44v319h77zM93 669h43q2 -27 19 -44t43 -17q29 0 46 17t18 44h43q2 -49 -27.5 -81t-79.5 -32
t-78.5 32t-26.5 81z" />
    <glyph glyph-name="Uring" unicode="&#x16e;" horiz-adv-x="457" 
d="M59 674h77v-452q0 -162 91 -162q94 0 94 162v452h77v-440q0 -125 -46 -183.5t-126 -58.5q-167 0 -167 233v449zM230 862q42 0 67 -25.5t25 -62.5q0 -36 -26 -61.5t-67 -25.5q-43 0 -69 25t-26 61q0 37 26.5 63t69.5 26zM226 826q-21 0 -32.5 -15.5t-11.5 -37.5
q0 -19 12.5 -34t32.5 -15q22 0 34.5 14.5t12.5 36.5q0 21 -13 36t-35 15z" />
    <glyph glyph-name="uring" unicode="&#x16f;" horiz-adv-x="398" 
d="M344 484v-352q0 -32 2 -81.5t2 -50.5h-67l-6 51h-2q-13 -22 -40.5 -40.5t-62.5 -18.5q-118 0 -118 186v306h77v-295q0 -64 14 -98t51 -34q30 0 47.5 21t21.5 43q4 17 4 44v319h77zM200 533q-42 0 -68 24.5t-26 60.5q0 38 25.5 63.5t69.5 25.5q41 0 66 -25t25 -63
q0 -36 -26.5 -61t-65.5 -25zM199 568q22 0 35 15t13 37t-13 37t-36 15q-21 0 -33 -16t-12 -38q0 -19 12.5 -34.5t33.5 -15.5z" />
    <glyph glyph-name="Uhungarumlaut" unicode="&#x170;" horiz-adv-x="457" 
d="M59 674h77v-452q0 -162 91 -162q94 0 94 162v452h77v-440q0 -125 -46 -183.5t-126 -58.5q-167 0 -167 233v449zM198 818h81l-99 -99h-54zM326 818h80l-99 -99h-54z" />
    <glyph glyph-name="uhungarumlaut" unicode="&#x171;" horiz-adv-x="398" 
d="M344 484v-352q0 -32 2 -81.5t2 -50.5h-67l-6 51h-2q-13 -22 -40.5 -40.5t-62.5 -18.5q-118 0 -118 186v306h77v-295q0 -64 14 -98t51 -34q30 0 47.5 21t21.5 43q4 17 4 44v319h77zM188 682h70l-104 -135h-44zM312 682h70l-104 -135h-44z" />
    <glyph glyph-name="Uogonek" unicode="&#x172;" horiz-adv-x="457" 
d="M323 -127l11 -43q-31 -22 -72 -22q-38 0 -61 20.5t-23 55.5q0 53 50 109h-12q-157 7 -157 232v449h77v-452q0 -162 91 -162q94 0 94 162v452h77v-440q0 -177 -93 -222q-28 -22 -47 -52t-19 -56q0 -21 11.5 -31.5t28.5 -10.5q24 0 44 11z" />
    <glyph glyph-name="uogonek" unicode="&#x173;" horiz-adv-x="398" 
d="M344 484v-352q0 -68 6 -132h-15q-41 -56 -41 -103q0 -22 12.5 -34t28.5 -12q27 0 43 8l11 -43q-30 -21 -72 -21q-39 0 -61.5 22t-22.5 61q0 51 48 122l-6 51h-2q-13 -22 -40.5 -40.5t-62.5 -18.5q-118 0 -118 186v306h77v-295q0 -64 14 -98t51 -34q30 0 47.5 21t21.5 43
q4 17 4 44v319h77z" />
    <glyph glyph-name="Wcircumflex" unicode="&#x174;" horiz-adv-x="654" 
d="M222 0h-73l-129 674h79l57 -325q20 -112 34 -243h3q8 79 41 244l62 324h65l63 -317q31 -163 39 -251h3q9 82 35 247l56 321h76l-131 -674h-76l-64 328q-21 107 -35 221h-2q-13 -114 -37 -224zM296 808h66l87 -98h-67l-52 55h-2l-52 -55h-66z" />
    <glyph glyph-name="wcircumflex" unicode="&#x175;" horiz-adv-x="566" 
d="M13 484h80l47 -237q20 -104 26 -154h4q9 64 30 152l56 239h59l53 -232q22 -100 31 -159h4q7 63 26 156l46 235h77l-122 -484h-63l-56 235q-14 54 -27 145h-2q-11 -75 -28 -148l-58 -232h-65zM257 682h52l79 -135h-58l-46 87h-2l-46 -87h-58z" />
    <glyph glyph-name="Ycircumflex" unicode="&#x176;" horiz-adv-x="394" 
d="M235 0h-77v285l-149 389h82l60 -169q40 -118 50 -152h2q12 48 49 155l57 166h80l-154 -386v-288zM167 808h66l87 -98h-67l-52 55h-2l-52 -55h-66z" />
    <glyph glyph-name="ycircumflex" unicode="&#x177;" horiz-adv-x="346" 
d="M12 484h81l65 -278q4 -17 10 -50t10 -50h2l10.5 53.5t9.5 45.5l58 279h76l-79 -311q-57 -228 -120 -312q-40 -51 -87 -73l-29 65q36 20 69 61q28 36 43 82q6 17 6 24q0 9 -3 18zM148 682h52l79 -135h-58l-46 87h-2l-46 -87h-58z" />
    <glyph glyph-name="Ydieresis" unicode="&#x178;" horiz-adv-x="394" 
d="M235 0h-77v285l-149 389h82l60 -169q40 -118 50 -152h2q12 48 49 155l57 166h80l-154 -386v-288zM121 718q-18 0 -30 13t-12 34q0 19 12.5 32.5t30.5 13.5q19 0 31 -13t12 -33q0 -21 -12 -34t-32 -13zM283 718q-18 0 -30 13t-12 34q0 19 12.5 32.5t30.5 13.5q19 0 31 -13
t12 -33q0 -21 -12 -34t-32 -13z" />
    <glyph glyph-name="Zacute" unicode="&#x179;" horiz-adv-x="358" 
d="M20 0v46l231 560v2h-212v66h298v-52l-227 -553v-3h226v-66h-316zM235 818h90l-124 -108h-61z" />
    <glyph glyph-name="zacute" unicode="&#x17a;" horiz-adv-x="313" 
d="M16 0v47l153 300l19.5 35.5t18.5 35.5v2h-172v64h258v-51l-151 -295q-21 -36 -39 -72v-2h189v-64h-276zM206 682h80l-105 -135h-51z" />
    <glyph glyph-name="Zdotaccent" unicode="&#x17b;" horiz-adv-x="358" 
d="M20 0v46l231 560v2h-212v66h298v-52l-227 -553v-3h226v-66h-316zM192 721q-18 0 -31 13t-13 31q0 19 13 32t32 13t31.5 -13t12.5 -32q0 -18 -13 -31t-32 -13z" />
    <glyph glyph-name="zdotaccent" unicode="&#x17c;" horiz-adv-x="313" 
d="M16 0v47l153 300l19.5 35.5t18.5 35.5v2h-172v64h258v-51l-151 -295q-21 -36 -39 -72v-2h189v-64h-276zM161 566q-18 0 -31 12.5t-13 31.5t13 32t32 13q17 0 29.5 -13t12.5 -32t-12 -31.5t-31 -12.5z" />
    <glyph glyph-name="Zcaron" unicode="&#x17d;" horiz-adv-x="358" 
d="M20 0v46l231 560v2h-212v66h298v-52l-227 -553v-3h226v-66h-316zM222 710h-66l-87 98h67l52 -58h2l52 58h66z" />
    <glyph glyph-name="zcaron" unicode="&#x17e;" horiz-adv-x="313" 
d="M16 0v47l153 300l19.5 35.5t18.5 35.5v2h-172v64h258v-51l-151 -295q-21 -36 -39 -72v-2h189v-64h-276zM191 547h-52l-79 135h58l46 -87h2l47 87h58z" />
    <glyph glyph-name="florin" unicode="&#x192;" horiz-adv-x="385" 
d="M78 346v60h81l7 55q24 197 157 197q33 0 55 -12l-12 -57q-20 7 -43 7q-66 0 -83 -127l-8 -63h91v-60h-96l-28 -230q-12 -97 -44 -146.5t-104 -49.5q-42 2 -63 17l15 56q22 -11 45 -11q33 0 52 34t29 117l25 213h-76z" />
    <glyph glyph-name="Ohorn" unicode="&#x1a0;" horiz-adv-x="446" 
d="M225 60q31 0 53 24.5t34 66.5t17 88t5 100q0 51 -5 96.5t-17 87.5t-34.5 66.5t-53.5 24.5q-41 0 -67.5 -44t-35.5 -102.5t-9 -129.5q-1 -115 26 -196.5t87 -81.5zM361 728l59 10q16 -30 16 -67q0 -34 -18.5 -57t-53.5 -22q50 -87 50 -250q0 -180 -53.5 -265t-141.5 -85
q-86 0 -136.5 89.5t-50.5 256.5q0 164 54 254t144 90q37 0 71 -18l16 -9l13.5 -7.5t9.5 -4.5t10 -2q26 0 26 31q0 24 -15 56z" />
    <glyph glyph-name="ohorn" unicode="&#x1a1;" horiz-adv-x="383" 
d="M192 430q-24 0 -41.5 -18.5t-25.5 -48.5t-11.5 -59.5t-3.5 -61.5q0 -34 3.5 -64t12 -60t26 -47.5t42.5 -17.5q31 0 50 33t24.5 72t5.5 84q0 32 -3.5 61.5t-12 59.5t-25.5 48.5t-41 18.5zM315 547l58 9q17 -30 17 -66t-19.5 -56t-55.5 -20q36 -63 36 -172
q0 -129 -48 -189.5t-113 -60.5q-69 0 -113 63.5t-44 185.5q0 124 47 187t115 63q24 0 56 -12q3 -1 10.5 -5t12.5 -6t12.5 -4t14.5 -2q29 0 29 31q0 26 -15 54z" />
    <glyph glyph-name="Uhorn" unicode="&#x1af;" horiz-adv-x="474" 
d="M406 757l59 9q14 -32 14 -65q0 -72 -71 -75l-10 -1v-391q0 -125 -46 -183.5t-126 -58.5q-167 0 -167 233v449h77v-452q0 -162 91 -162q94 0 94 162v452h62q20 0 28 6.5t8 22.5q0 28 -13 54z" />
    <glyph glyph-name="uhorn" unicode="&#x1b0;" horiz-adv-x="398" 
d="M346 569l59 10q16 -28 16 -65q0 -32 -17.5 -52t-53.5 -22h-6v-309q0 -32 2 -81t2 -50h-67l-6 50h-2q-13 -22 -40.5 -40t-62.5 -18q-118 0 -118 186v306h77v-295q0 -64 14 -98.5t51 -33.5q30 0 47.5 21t21.5 43q4 17 4 44v319h58q20 0 27.5 7.5t7.5 24.5q0 27 -14 53z" />
    <glyph glyph-name="Aringacute" unicode="&#x1fa;" horiz-adv-x="435" 
d="M222 688q-41 0 -63 20.5t-22 51.5t23 53t63 22t61.5 -21t21.5 -53q0 -31 -22 -52t-62 -21zM221 721q20 0 30.5 11t10.5 30q0 16 -10.5 28t-30.5 12t-30 -12t-10 -29t10.5 -28.5t29.5 -11.5zM285 935h98l-137 -82h-65zM291 202h-150l-44 -202h-75l154 674h86l149 -674h-76
zM152 264h128l-35 171q-10 49 -27 154h-3q-15 -95 -28 -154z" />
    <glyph glyph-name="aringacute" unicode="&#x1fb;" horiz-adv-x="364" 
d="M234 806h81l-116 -95h-53zM309 320v-210q0 -73 6 -110h-70l-5 51h-2q-35 -59 -97 -59q-50 0 -82.5 38t-32.5 100q0 86 58.5 130.5t147.5 45.5v15q0 53 -17 81t-60 28q-44 0 -80 -25l-16 54q43 32 112 32q138 0 138 -171zM234 152v99q-20 0 -38 -3.5t-42 -13.5
t-38.5 -34.5t-14.5 -61.5q0 -44 18 -65t42 -21q25 0 44 19t26 54q3 13 3 27zM185 516q-42 0 -68 24.5t-26 60.5q0 38 25.5 63.5t69.5 25.5q41 0 65.5 -25t24.5 -63q0 -36 -26 -61t-65 -25zM184 551q22 0 34.5 15t12.5 37t-12.5 37t-35.5 15q-21 0 -33 -16t-12 -38
q0 -19 12.5 -34.5t33.5 -15.5z" />
    <glyph glyph-name="AEacute" unicode="&#x1fc;" horiz-adv-x="556" 
d="M84 0h-76l203 674h304v-67h-186l13 -226h171v-65h-165l14 -249h179l-1 -67h-247l-13 222h-134zM162 284h112l-9 205q-1 14 -3 61l-3 70h-5l-39 -143zM384 818h91l-124 -108h-61z" />
    <glyph glyph-name="aeacute" unicode="&#x1fd;" horiz-adv-x="561" 
d="M531 241h-225q0 -188 114 -188q45 0 82 21l14 -55q-43 -27 -112 -27q-45 0 -82 24.5t-51 68.5h-2q-16 -44 -48 -68.5t-76 -24.5q-52 0 -85.5 38.5t-33.5 101.5q0 83 59 126.5t148 43.5v27q0 45 -20 73t-61 28q-42 0 -78 -25l-17 53q46 33 111 33q40 0 70.5 -22t40.5 -65
h2q16 41 47.5 64t70.5 23q66 0 99.5 -61.5t33.5 -150.5q0 -7 -0.5 -19t-0.5 -19zM234 154v95q-21 0 -39.5 -3.5t-43 -13.5t-39 -34.5t-14.5 -60.5q0 -42 18.5 -63t44.5 -21q25 0 44 19.5t26 53.5q3 14 3 28zM308 296h150q2 65 -18.5 100.5t-50.5 35.5q-37 0 -58 -40.5
t-23 -95.5zM331 682h79l-105 -135h-51z" />
    <glyph glyph-name="Oslashacute" unicode="&#x1fe;" horiz-adv-x="446" 
d="M86 -37l-42 23l42 95q-54 89 -54 257q0 164 53 254t139 90q59 0 101 -41l30 70l46 -20l-40 -91q53 -90 53 -257q0 -179 -53.5 -265t-137.5 -86q-62 0 -103 45zM129 172l164 398q-29 44 -69 44q-31 0 -54 -23.5t-36 -64t-19 -87.5t-6 -101q0 -103 18 -166h2zM317 507
l-168 -397q27 -50 75 -50q41 0 67.5 42.5t36 102t9.5 134.5q0 103 -18 168h-2zM275 818h91l-124 -108h-61z" />
    <glyph glyph-name="oslashacute" unicode="&#x1ff;" horiz-adv-x="383" 
d="M194 491q42 0 80 -30l26 53l41 -22l-33 -67q43 -65 43 -183q0 -128 -47.5 -189t-110.5 -61q-45 0 -82 28l-25 -53l-39 25l31 64q-45 64 -45 185q0 124 47 187t114 63zM122 130l122 268q-14 32 -52 32q-26 0 -44 -19t-26.5 -50t-11.5 -59.5t-3 -59.5q0 -63 13 -110z
M263 347l-120 -264q17 -30 50 -30q25 0 42.5 17.5t26 47t12 58.5t3.5 61q0 65 -12 110h-2zM230 682h78l-105 -135h-51z" />
    <glyph glyph-name="Scommaaccent" unicode="&#x218;" horiz-adv-x="361" 
d="M28 23l17 66q40 -27 96 -27q53 0 83 31t30 83q0 43 -22 74.5t-67 65.5q-127 87 -127 187q0 77 49.5 127t128.5 50q61 0 94 -25l-18 -66q-33 23 -80 23t-72.5 -29t-25.5 -67q0 -46 21.5 -72.5t77.5 -66.5q117 -82 117 -194q0 -86 -53.5 -137.5t-135.5 -51.5q-33 0 -65.5 9
t-47.5 20zM118 -214l-16 37q26 7 45 23t19 39q0 35 -34 61l62 12q35 -25 35 -70q0 -44 -31.5 -69t-79.5 -33z" />
    <glyph glyph-name="scommaaccent" unicode="&#x219;" horiz-adv-x="289" 
d="M22 22l19 58q39 -25 78 -25q32 0 51.5 19t19.5 51q0 29 -13 50t-49 45q-97 62 -97 137q0 59 38 96.5t95 37.5q44 0 86 -25l-20 -58q-32 22 -65 22q-29 0 -45.5 -18t-16.5 -44q0 -24 12 -41.5t48 -41.5q100 -64 100 -147q0 -70 -41.5 -107t-104.5 -37q-60 0 -95 28z
M90 -214l-16 37q26 7 45 23t19 39q0 35 -34 61l62 12q35 -25 35 -70q0 -44 -31.5 -69t-79.5 -33z" />
    <glyph glyph-name="uni021A" unicode="&#x21a;" horiz-adv-x="354" 
d="M139 0v605h-123v69h323v-69h-123v-605h-77zM122 -214l-16 37q26 7 45 23t19 39q0 35 -34 61l62 12q35 -25 35 -70q0 -44 -31.5 -69t-79.5 -33z" />
    <glyph glyph-name="uni021B" unicode="&#x21b;" horiz-adv-x="255" 
d="M71 566l77 31v-113h93v-58h-93v-288q0 -80 50 -80q19 0 31 3l4 -59q-22 -8 -57 -8q-51 0 -76 29q-29 32 -29 122v281h-59v58h59v82zM85 -214l-16 37q26 7 45 23t19 39q0 35 -34 61l62 12q35 -25 35 -70q0 -44 -31.5 -69t-79.5 -33z" />
    <glyph glyph-name="uni021C" unicode="&#x21c;" horiz-adv-x="340" 
d="M32 -106l-9 62q87 15 148 74t61 149q0 56 -28.5 92.5t-76.5 35.5q-30 0 -63 -11l-11 58q56 12 100.5 61.5t43.5 113.5q0 39 -22 64t-59 25q-35 0 -77 -21l-15 56q46 29 110 29q62 0 100 -42t37 -100q0 -58 -26.5 -104.5t-65.5 -71.5v-3q57 -11 94 -58t37 -121
q0 -80 -44 -146t-106 -101t-128 -41z" />
    <glyph glyph-name="uni021D" unicode="&#x21d;" horiz-adv-x="311" 
d="M20 -200l-6 63q78 7 139.5 55t61.5 127q0 44 -27 74.5t-78 30.5q-25 0 -57 -8l-10 58q60 14 99 48t39 88q0 42 -21.5 66.5t-56.5 24.5q-28 0 -73 -21l-16 55q46 30 105 30q62 0 98.5 -40t36.5 -98q0 -101 -87 -149v-3q54 -10 89 -49.5t35 -101.5q0 -71 -42 -128.5
t-102.5 -87t-126.5 -34.5z" />
    <glyph glyph-name="uni0232" unicode="&#x232;" horiz-adv-x="394" 
d="M235 0h-77v285l-149 389h82l60 -169q40 -118 50 -152h2q12 48 49 155l57 166h80l-154 -386v-288zM90 788h213v-53h-213v53z" />
    <glyph glyph-name="uni0233" unicode="&#x233;" horiz-adv-x="346" 
d="M12 484h81l65 -278q4 -17 10 -50t10 -50h2l10.5 53.5t9.5 45.5l58 279h76l-79 -311q-57 -228 -120 -312q-40 -51 -87 -73l-29 65q36 20 69 61q28 36 43 82q6 17 6 24q0 9 -3 18zM75 631h197v-51h-197v51z" />
    <glyph glyph-name="circumflex" unicode="&#x2c6;" 
d="M124 682h52l79 -135h-58l-46 87h-2l-46 -87h-58z" />
    <glyph glyph-name="caron" unicode="&#x2c7;" 
d="M177 547h-53l-79 135h58l46 -87h2l47 87h58z" />
    <glyph glyph-name="uni02C9" unicode="&#x2c9;" 
d="M52 631h197v-51h-197v51z" />
    <glyph glyph-name="breve" unicode="&#x2d8;" 
d="M44 669h43q2 -27 19 -44t43 -17q29 0 46 17t18 44h43q2 -49 -27.5 -81t-79.5 -32t-78.5 32t-26.5 81z" />
    <glyph glyph-name="dotaccent" unicode="&#x2d9;" 
d="M151 566q-18 0 -31 12.5t-13 31.5t13 32t32 13q17 0 29.5 -13t12.5 -32t-12 -31.5t-31 -12.5z" />
    <glyph glyph-name="ring" unicode="&#x2da;" 
d="M117 533q-42 0 -68 24.5t-26 60.5q0 38 25.5 63.5t69.5 25.5q41 0 66 -25t25 -63q0 -36 -26.5 -61t-65.5 -25zM116 568q22 0 35 15t13 37t-13 37t-36 15q-21 0 -33 -16t-12 -38q0 -19 12.5 -34.5t33.5 -15.5z" />
    <glyph glyph-name="ogonek" unicode="&#x2db;" 
d="M123 5h54q-44 -66 -44 -102q0 -22 12.5 -34t28.5 -12q24 0 43 9l11 -43q-29 -22 -72 -22q-38 0 -61 22t-23 59q0 58 51 123z" />
    <glyph glyph-name="tilde" unicode="&#x2dc;" 
d="M84 561h-43q-1 41 15.5 67.5t46.5 26.5q21 0 49 -18q32 -17 40 -17q24 0 25 36h41q0 -89 -63 -89q-19 0 -49 17t-38 17q-21 0 -24 -40z" />
    <glyph glyph-name="hungarumlaut" unicode="&#x2dd;" 
d="M112 682h70l-104 -135h-44zM236 682h70l-104 -135h-44z" />
    <glyph glyph-name="uni037E" unicode="&#x37e;" horiz-adv-x="200" 
d="M82 -119l-51 -7q37 127 45 233l85 5q-12 -56 -36.5 -126.5t-42.5 -104.5zM111 329q-22 0 -37 16.5t-15 42.5t15 43.5t38 17.5q24 0 38.5 -17t14.5 -44q0 -26 -14.5 -42.5t-39.5 -16.5z" />
    <glyph glyph-name="tonos" unicode="&#x384;" horiz-adv-x="305" 
d="M108 683h68l-56 -135h-45z" />
    <glyph glyph-name="dieresistonos" unicode="&#x385;" horiz-adv-x="350" 
d="M152 692h66l-36 -147h-42zM72 568q-18 0 -30 11.5t-12 29.5t12.5 29.5t30.5 11.5q16 0 27 -11.5t11 -29.5t-11.5 -29.5t-27.5 -11.5zM273 568q-16 0 -28 11.5t-12 29.5t12 29.5t29 11.5t28.5 -11.5t11.5 -29.5t-12 -29.5t-29 -11.5z" />
    <glyph glyph-name="Alphatonos" unicode="&#x386;" horiz-adv-x="444" 
d="M299 202h-149l-45 -202h-74l154 674h85l149 -674h-75zM160 264h129l-36 171q-10 49 -27 154h-3q-14 -88 -27 -154zM44 674h66l-29 -148h-41z" />
    <glyph glyph-name="anoteleia" unicode="&#x387;" horiz-adv-x="200" 
d="M99 257q-23 0 -38.5 17.5t-15.5 44.5t16 45t39 18q25 0 40 -17.5t15 -45.5t-15 -45t-41 -17z" />
    <glyph glyph-name="Epsilontonos" unicode="&#x388;" horiz-adv-x="406" 
d="M358 385v-65h-169v-253h192v-67h-269v674h257v-67h-180v-222h169zM4 674h66l-29 -148h-41z" />
    <glyph glyph-name="Etatonos" unicode="&#x389;" horiz-adv-x="515" 
d="M113 674h76v-289h189v289h77v-674h-77v315h-189v-315h-76v674zM4 674h66l-29 -148h-40z" />
    <glyph glyph-name="Iotatonos" unicode="&#x38a;" horiz-adv-x="249" 
d="M112 674h77v-674h-77v674zM4 674h66l-29 -148h-41z" />
    <glyph glyph-name="Omicrontonos" unicode="&#x38c;" horiz-adv-x="482" 
d="M255 -8q-86 0 -136.5 89.5t-50.5 256.5q0 164 54 254t144 90q86 0 135 -89.5t49 -250.5q0 -180 -53.5 -265t-141.5 -85zM261 60q31 0 53 24.5t34 66.5t17 88t5 100q0 51 -5 96.5t-17 87.5t-34.5 66.5t-53.5 24.5q-41 0 -67.5 -44t-35.5 -102.5t-9 -129.5
q-1 -115 26 -196.5t87 -81.5zM4 674h66l-29 -148h-41z" />
    <glyph glyph-name="Upsilontonos" unicode="&#x38e;" horiz-adv-x="514" 
d="M95 615l16 65q11 -1 35.5 -12.5t43.5 -29.5q43 -39 73.5 -114t37.5 -170h4q17 166 108 267q39 41 83 59l16 -67q-54 -28 -100 -111t-65 -205q-10 -62 -10 -118v-179h-77v179q0 45 -6 117q-35 266 -159 319zM4 674h66l-29 -148h-41z" />
    <glyph glyph-name="Omegatonos" unicode="&#x38f;" horiz-adv-x="504" 
d="M372 69v-3h99v-66h-177v52q42 46 66 131t23 176q0 46 -6 88.5t-18.5 81.5t-36 62t-54.5 23q-41 0 -68.5 -41t-37.5 -95t-10 -116q0 -86 25.5 -177t63.5 -133v-52h-177v66h99v3q-40 56 -65.5 135.5t-25.5 168.5q0 143 56.5 226t146.5 83q87 0 137.5 -82.5t50.5 -221.5
q0 -93 -26 -175t-65 -134zM4 674h66l-29 -148h-41z" />
    <glyph glyph-name="iotadieresistonos" unicode="&#x390;" horiz-adv-x="188" 
d="M131 484v-383q0 -28 8 -38.5t29 -10.5l-6 -57q-15 -3 -30 -3q-35 0 -56.5 22t-21.5 82v388h77zM84 683h63l-35 -145h-40zM4 562q-18 0 -30 11.5t-12 29.5t12.5 29t30.5 11q15 0 26.5 -11.5t11.5 -28.5q0 -18 -11.5 -29.5t-27.5 -11.5zM202 562q-16 0 -28 11.5t-12 29.5
q0 17 12.5 28.5t28.5 11.5q17 0 28.5 -11t11.5 -29t-12 -29.5t-29 -11.5z" />
    <glyph glyph-name="Alpha" unicode="&#x391;" horiz-adv-x="435" 
d="M291 202h-150l-44 -202h-75l154 674h85l150 -674h-76zM152 264h128l-35 171q-10 49 -27 154h-3q-15 -95 -28 -154z" />
    <glyph glyph-name="Beta" unicode="&#x392;" horiz-adv-x="416" 
d="M61 3v661q52 13 112 13q99 0 149 -47q44 -41 44 -115q0 -52 -27 -90.5t-77 -58.5v-3q59 -16 92 -61t33 -111q0 -81 -48 -134q-54 -61 -178 -61q-63 0 -100 7zM137 612v-224h35q48 0 82.5 33.5t34.5 85.5q0 110 -111 110q-26 0 -41 -5zM137 329v-268q18 -4 39 -4
q60 0 95.5 35t35.5 99q0 66 -39 101.5t-97 36.5h-34z" />
    <glyph glyph-name="Gamma" unicode="&#x393;" horiz-adv-x="331" 
d="M60 674h257v-65h-180v-609h-77v674z" />
    <glyph glyph-name="uni0394" unicode="&#x394;" horiz-adv-x="436" 
d="M24 0v44l153 630h86l150 -629v-45h-389zM101 68h234l-83 350q-19 85 -33 171h-3q-12 -76 -33 -169z" />
    <glyph glyph-name="Epsilon" unicode="&#x395;" horiz-adv-x="354" 
d="M306 385v-65h-169v-253h192v-67h-269v674h257v-67h-180v-222h169z" />
    <glyph glyph-name="Zeta" unicode="&#x396;" horiz-adv-x="358" 
d="M20 0v46l231 560v2h-212v66h298v-52l-227 -553v-3h226v-66h-316z" />
    <glyph glyph-name="Eta" unicode="&#x397;" horiz-adv-x="463" 
d="M60 674h77v-289h189v289h77v-674h-77v315h-189v-315h-77v674z" />
    <glyph glyph-name="Theta" unicode="&#x398;" horiz-adv-x="449" 
d="M220 -8q-86 0 -137 89.5t-51 256.5q0 164 54 254t145 90q87 0 136.5 -89.5t49.5 -250.5q0 -180 -54 -265t-143 -85zM226 59q32 0 54.5 24.5t34.5 66.5t17.5 88.5t5.5 100.5q0 52 -5.5 97.5t-17.5 87.5t-35 66.5t-55 24.5t-55 -24.5t-35.5 -66t-18 -88t-5.5 -98.5
q0 -53 5.5 -100t18 -88.5t36 -66t55.5 -24.5zM150 382h149v-70h-149v70z" />
    <glyph glyph-name="Iota" unicode="&#x399;" horiz-adv-x="199" 
d="M60 674h77v-674h-77v674z" />
    <glyph glyph-name="Kappa" unicode="&#x39a;" horiz-adv-x="404" 
d="M61 0v674h76v-320h2q12 21 42 81l126 239h85l-165 -288l169 -386h-83l-138 325l-38 -65v-260h-76z" />
    <glyph glyph-name="Lambda" unicode="&#x39b;" horiz-adv-x="434" 
d="M412 0h-79l-87 405q-15 70 -30 175h-4q-8 -62 -28 -176l-85 -404h-78l155 674h81z" />
    <glyph glyph-name="Mu" unicode="&#x39c;" horiz-adv-x="599" 
d="M482 0l-14 290q-10 182 -7 264h-4q-25 -125 -54 -234l-82 -316h-50l-78 303q-35 133 -56 247h-3q1 -59 -8 -269l-13 -285h-69l40 674h84l78 -308q40 -154 54 -232h3q14 83 50 232l76 308h86l39 -674h-72z" />
    <glyph glyph-name="Nu" unicode="&#x39d;" horiz-adv-x="465" 
d="M130 0h-69v674h72l124 -316q67 -175 86 -235h2q-9 159 -9 310v241h69v-674h-72l-128 324q-51 124 -81 229h-2q8 -120 8 -320v-233z" />
    <glyph glyph-name="Xi" unicode="&#x39e;" horiz-adv-x="362" 
d="M35 674h292v-67h-292v67zM53 383h254v-66h-254v66zM29 67h304v-67h-304v67z" />
    <glyph glyph-name="Omicron" unicode="&#x39f;" horiz-adv-x="446" 
d="M219 -8q-86 0 -136.5 89.5t-50.5 256.5q0 164 54 254t144 90q86 0 135 -89.5t49 -250.5q0 -180 -53.5 -265t-141.5 -85zM225 60q31 0 53 24.5t34 66.5t17 88t5 100q0 51 -5 96.5t-17 87.5t-34.5 66.5t-53.5 24.5q-41 0 -67.5 -44t-35.5 -102.5t-9 -129.5
q-1 -115 26 -196.5t87 -81.5z" />
    <glyph glyph-name="Pi" unicode="&#x3a0;" horiz-adv-x="451" 
d="M391 674v-674h-77v604h-177v-604h-77v674h331z" />
    <glyph glyph-name="Rho" unicode="&#x3a1;" horiz-adv-x="399" 
d="M61 0v664q50 13 111 13q100 0 150 -49q49 -49 49 -140q0 -84 -41 -138q-26 -36 -69 -55.5t-90 -19.5q-23 0 -34 1v-276h-76zM137 609v-269q18 -2 31 -2q58 0 92 37.5t34 107.5q0 58 -27 94.5t-87 36.5q-26 0 -43 -5z" />
    <glyph glyph-name="Sigma" unicode="&#x3a3;" horiz-adv-x="407" 
d="M106 71v-4h272v-67h-362v51l173 285l-163 287v51h329v-66h-235v-4l148 -264z" />
    <glyph glyph-name="Tau" unicode="&#x3a4;" horiz-adv-x="354" 
d="M139 0v605h-123v69h323v-69h-123v-605h-77z" />
    <glyph glyph-name="Upsilon" unicode="&#x3a5;" horiz-adv-x="425" 
d="M6 615l16 65q11 -1 35.5 -12.5t43.5 -29.5q43 -39 73.5 -114t37.5 -170h4q17 166 108 267q39 41 83 59l16 -67q-54 -28 -100 -111t-65 -205q-10 -62 -10 -118v-179h-77v179q0 46 -6 116q-35 267 -159 320z" />
    <glyph glyph-name="Phi" unicode="&#x3a6;" horiz-adv-x="504" 
d="M287 37v-51h-71v51q-76 11 -131 84.5t-55 215.5q0 137 55.5 215t131.5 87v48h71v-48q80 -9 133 -88.5t53 -208.5q0 -144 -54.5 -220t-132.5 -85zM217 95v486q-45 -7 -77 -71.5t-32 -174.5q0 -100 31.5 -163t77.5 -77zM287 581v-486q50 9 79.5 73.5t29.5 172.5
q0 107 -33.5 170.5t-75.5 69.5z" />
    <glyph glyph-name="Chi" unicode="&#x3a7;" horiz-adv-x="392" 
d="M378 0h-80l-61 162q-25 67 -42 118h-3l-40 -120l-59 -160h-78l138 344l-134 330h80l61 -156q21 -55 39 -107h2q6 17 18 54t19 56l55 153h78l-132 -328z" />
    <glyph glyph-name="Psi" unicode="&#x3a8;" horiz-adv-x="515" 
d="M472 674v-187q0 -247 -179 -273v-214h-71v214q-90 13 -134.5 75t-44.5 181v204h72v-200q0 -95 26 -143t82 -56v399h69v-399q108 13 108 215v184h72z" />
    <glyph glyph-name="uni03A9" unicode="&#x3a9;" horiz-adv-x="472" 
d="M340 69v-3h99v-66h-177v52q42 46 66 131t23 176q0 46 -6 88.5t-18.5 81.5t-36 62t-54.5 23q-41 0 -68.5 -41t-37.5 -95t-10 -116q0 -86 25.5 -177t63.5 -133v-52h-176v66h98v3q-40 56 -65.5 135.5t-25.5 168.5q0 143 56.5 226t146.5 83q87 0 137.5 -82.5t50.5 -221.5
q0 -93 -26 -175t-65 -134z" />
    <glyph glyph-name="Iotadieresis" unicode="&#x3aa;" horiz-adv-x="199" 
d="M22 710q-18 0 -30.5 12.5t-12.5 31.5t13 31.5t31 12.5t30 -12.5t12 -31.5t-12 -31.5t-31 -12.5zM176 710q-18 0 -30.5 12.5t-12.5 31.5t13 31.5t31 12.5t30 -12.5t12 -31.5t-12 -31.5t-31 -12.5zM60 674h77v-674h-77v674z" />
    <glyph glyph-name="Upsilondieresis" unicode="&#x3ab;" horiz-adv-x="425" 
d="M140 697q-18 0 -30.5 12.5t-12.5 31.5t13 31.5t31 12.5t30 -12.5t12 -31.5t-12 -31.5t-31 -12.5zM295 697q-18 0 -30.5 12.5t-12.5 31.5t13 31.5t31 12.5t30 -12.5t12 -31.5t-12 -31.5t-31 -12.5zM6 615l16 65q11 -1 35.5 -12.5t43.5 -29.5q43 -39 73.5 -114t37.5 -170h4
q17 166 108 267q39 41 83 59l16 -67q-54 -28 -100 -111t-65 -205q-10 -62 -10 -118v-179h-77v179q0 46 -6 116q-35 267 -159 320z" />
    <glyph glyph-name="alphatonos" unicode="&#x3ac;" horiz-adv-x="397" 
d="M207 674h68l-55 -135h-45zM290 484h59q-4 -24 -7.5 -139.5t-2.5 -240.5q0 -53 32 -53l-8 -57q-7 -2 -19 -2q-59 0 -64 79h-4q-12 -31 -38.5 -55t-64.5 -24q-63 0 -101.5 64t-38.5 174q0 121 47 191t107 70q64 0 90 -71h4q3 26 9 64zM110 233v-2q0 -71 21.5 -123t56.5 -52
q25 0 45.5 30t27.5 77q5 35 5 81q0 25 -2 73q-2 46 -22 78t-46 32q-39 0 -62.5 -56.5t-23.5 -137.5z" />
    <glyph glyph-name="epsilontonos" unicode="&#x3ad;" horiz-adv-x="324" 
d="M187 674h68l-56 -135h-45zM134 260v4q-78 23 -79 103q0 50 40.5 87t109.5 37q61 0 89 -23l-15 -54q-30 16 -70 16q-38 0 -58.5 -20.5t-20.5 -48.5q0 -38 31.5 -55.5t77.5 -17.5h15v-57h-20q-54 -1 -88.5 -23t-34.5 -67q0 -41 27 -64t68 -23q59 0 89 19l11 -57
q-40 -24 -115 -24q-67 0 -113 36t-46 107q0 49 30.5 83t71.5 42z" />
    <glyph glyph-name="etatonos" unicode="&#x3ae;" horiz-adv-x="405" 
d="M207 674h68l-55 -135h-45zM121 426l2 -1q36 66 111 66q53 0 85 -41t32 -125v-363q0 -108 7 -154h-70q-14 37 -14 140v363q0 115 -67 115q-25 0 -45 -20.5t-27 -57.5q-4 -16 -4 -43v-305h-77v359q0 83 -13 125h67q10 -23 13 -58z" />
    <glyph glyph-name="iotatonos" unicode="&#x3af;" horiz-adv-x="188" 
d="M97 676h71l-55 -135h-48zM131 484v-383q0 -28 8 -38.5t29 -10.5l-7 -57q-13 -3 -29 -3q-35 0 -56.5 22t-21.5 82v388h77z" />
    <glyph glyph-name="upsilondieresistonos" unicode="&#x3b0;" horiz-adv-x="377" 
d="M238 484h72q31 -74 31 -193q0 -299 -161 -299q-61 0 -96 39t-35 109v183q0 131 -8 161h74q10 -18 10 -98v-237q0 -45 17.5 -68.5t43.5 -23.5q80 0 80 217q0 141 -28 210zM165 682h64l-36 -145h-41zM84 560q-18 0 -30 11.5t-12 29.5t12.5 29t30.5 11q16 0 27 -11t11 -29
t-11.5 -29.5t-27.5 -11.5zM284 560q-16 0 -28 11.5t-12 29.5q0 17 12.5 28.5t28.5 11.5q17 0 28.5 -11t11.5 -29t-12 -29.5t-29 -11.5z" />
    <glyph glyph-name="alpha" unicode="&#x3b1;" horiz-adv-x="397" 
d="M290 484h59q-4 -24 -7.5 -139.5t-2.5 -240.5q0 -53 32 -53l-8 -57q-7 -2 -19 -2q-59 0 -64 79h-4q-12 -31 -38.5 -55t-64.5 -24q-63 0 -101.5 64t-38.5 174q0 121 47 191t107 70q64 0 90 -71h4q3 26 9 64zM110 233v-2q0 -71 21.5 -123t56.5 -52q25 0 45.5 30t27.5 77
q5 35 5 81q0 25 -2 73q-2 46 -22 78t-46 32q-39 0 -62.5 -56.5t-23.5 -137.5z" />
    <glyph glyph-name="beta" unicode="&#x3b2;" horiz-adv-x="404" 
d="M130 28h-2v-66q0 -104 9 -154h-70q-15 40 -15 139v518q0 134 52 192q37 43 99 43q65 0 99.5 -50t34.5 -118q0 -110 -80 -154v-4q47 -15 81 -59.5t33 -125.5q0 -91 -44 -144t-108 -53q-55 0 -89 36zM128 481v-376q27 -49 78 -49q41 0 64.5 39t23.5 95q0 64 -28.5 103
t-75.5 44q-6 1 -15 1v60q4 0 14 2q74 22 74 128q0 39 -16 73.5t-47 34.5q-72 0 -72 -155z" />
    <glyph glyph-name="gamma" unicode="&#x3b3;" horiz-adv-x="339" 
d="M200 -192h-75q4 115 -0.5 185t-23.5 146q-48 211 -106 345h81q65 -170 95 -372h3q70 202 70 332v13.5v15v11.5h70q2 -14 2 -33q0 -165 -114 -413q-5 -15 -5 -23q3 -63 3 -207z" />
    <glyph glyph-name="delta" unicode="&#x3b4;" horiz-adv-x="390" 
d="M337 658l-22 -51q-48 32 -92 32q-24 0 -37 -11.5t-13 -28.5q0 -26 45 -83l59 -75q79 -102 79 -210q0 -111 -46 -175t-117 -64q-69 0 -115 62t-46 168q0 84 38 146.5t92 98.5v4l-12 16q-54 68 -54 112q0 39 32 70t92 31q71 0 117 -42zM224 391l-24 32q-90 -68 -90 -202
q0 -79 26 -123.5t60 -44.5q39 0 61 46t22 121q0 101 -55 171z" />
    <glyph glyph-name="epsilon" unicode="&#x3b5;" horiz-adv-x="324" 
d="M134 261v4q-35 10 -56.5 37t-22.5 65q0 50 40.5 87t109.5 37q61 0 89 -23l-15 -54q-30 16 -70 16q-38 0 -58.5 -20.5t-20.5 -48.5q0 -38 31.5 -55.5t77.5 -17.5h15v-57h-20q-54 -1 -88.5 -23t-34.5 -67q0 -41 27 -64t68 -23q58 0 89 20l11 -58q-40 -24 -115 -24
q-67 0 -113 36t-46 107q0 49 30.5 83.5t71.5 42.5z" />
    <glyph glyph-name="zeta" unicode="&#x3b6;" horiz-adv-x="314" 
d="M250 -129l-54 15q31 53 36 102q-46 11 -86 30q-113 53 -113 199q0 106 53 218.5t135 187.5v4h-46q-66 0 -90 8l9 55q39 -3 100 -3h110l14 -54q-79 -53 -143 -170.5t-64 -226.5q0 -73 23.5 -110.5t68.5 -57.5q37 -17 97 -27q8 -2 8 -12q0 -40 -18 -85.5t-40 -72.5z" />
    <glyph glyph-name="eta" unicode="&#x3b7;" horiz-adv-x="405" 
d="M121 426l2 -1q36 66 111 66q53 0 85 -41t32 -125v-363q0 -108 7 -154h-70q-14 37 -14 140v363q0 115 -67 115q-25 0 -45 -20.5t-27 -57.5q-4 -16 -4 -43v-305h-77v359q0 83 -13 125h67q10 -23 13 -58z" />
    <glyph glyph-name="theta" unicode="&#x3b8;" horiz-adv-x="382" 
d="M188 -8q-155 0 -155 361q0 180 47 263.5t114 83.5q69 0 112 -82.5t43 -264.5q0 -87 -9 -152.5t-24 -104.5t-36.5 -63t-43.5 -32.5t-48 -8.5zM107 387h167q0 115 -22 184t-62 69q-36 0 -59.5 -70.5t-23.5 -182.5zM274 324h-167q2 -272 85 -272q82 0 82 272z" />
    <glyph glyph-name="iota" unicode="&#x3b9;" horiz-adv-x="188" 
d="M131 484v-383q0 -28 8 -38.5t29 -10.5l-7 -57q-13 -3 -29 -3q-35 0 -56.5 22t-21.5 82v388h77z" />
    <glyph glyph-name="kappa" unicode="&#x3ba;" horiz-adv-x="370" 
d="M201 262v-2q16 -6 30 -20.5t29.5 -41.5t22 -41l22.5 -47l54 -110h-85l-51 111q-49 110 -84 110h-8v-221h-76v369q0 82 -10 115h73q13 -18 13 -83v-134h3l139 217h83v-3z" />
    <glyph glyph-name="lambda" unicode="&#x3bb;" horiz-adv-x="337" 
d="M251 0l-59 259l-10 51t-13 63h-3q-10 -62 -22 -112l-61 -261h-76l121 452q3 12 3 22q0 9 -4 27q-34 130 -93 130q-5 0 -11 -1l8 63q12 2 23 2q59 0 91.5 -51.5t58.5 -154.5l124 -489h-77z" />
    <glyph glyph-name="uni03BC" unicode="&#x3bc;" horiz-adv-x="399" 
d="M281 50h-2q-10 -19 -33.5 -36t-51.5 -17q-46 0 -67 36v-71q0 -104 9 -154h-70q-13 39 -13 146v530h77v-319q0 -108 64 -108q30 0 48 20.5t22 42.5q4 17 4 45v319h77v-380q0 -28 6.5 -41.5t24.5 -12.5l-8 -55q-10 -3 -26 -3q-49 0 -61 58z" />
    <glyph glyph-name="nu" unicode="&#x3bd;" horiz-adv-x="333" 
d="M6 484h78l55 -272q4 -20 22 -122h3q75 236 75 361v33h70q2 -16 2 -31q0 -138 -124 -453h-69z" />
    <glyph glyph-name="xi" unicode="&#x3be;" horiz-adv-x="328" 
d="M278 414v-60h-17q-66 -2 -108 -41t-42 -103q0 -105 107 -144q45 -16 95 -26q10 -1 10 -12q0 -38 -18 -84.5t-40 -73.5l-55 16q31 53 36 102q-99 24 -156 71.5t-57 140.5q0 68 35 116.5t94 71.5v5q-42 19 -66.5 57t-24.5 84q0 73 45.5 119.5t119.5 46.5q49 0 80 -19
l-14 -57q-28 14 -63 14q-46 0 -68.5 -32.5t-22.5 -71.5q0 -52 32.5 -83.5t81.5 -35.5q5 -1 16 -1z" />
    <glyph glyph-name="omicron" unicode="&#x3bf;" horiz-adv-x="383" 
d="M190 -8q-69 0 -113 63.5t-44 185.5q0 124 47 187t115 63q69 0 112.5 -64t43.5 -185q0 -129 -48 -189.5t-113 -60.5zM194 53q31 0 50 33t24.5 72t5.5 84q0 32 -3.5 61.5t-12 59.5t-25.5 48.5t-41 18.5t-41.5 -18.5t-25.5 -48.5t-11.5 -59.5t-3.5 -61.5q0 -34 3.5 -64
t12 -60t26 -47.5t42.5 -17.5z" />
    <glyph glyph-name="pi" unicode="&#x3c0;" horiz-adv-x="400" 
d="M380 420h-47v-302q0 -81 10 -118h-72q-14 26 -14 116v304h-99q-1 -105 -14.5 -228.5t-35.5 -191.5h-71q22 73 34.5 193.5t12.5 226.5q-34 0 -61 -5l-11 48q23 21 116 21h259z" />
    <glyph glyph-name="rho" unicode="&#x3c1;" horiz-adv-x="395" 
d="M128 39h-2v-77q0 -96 7 -154h-71q-12 36 -12 138v298q0 139 53 197q40 50 101 50q76 0 117.5 -65t41.5 -183q0 -125 -44 -188t-109 -63q-55 0 -82 47zM126 263v-95q0 -23 4 -39q10 -41 29 -57t38 -16q46 0 67.5 54t21.5 135q0 78 -20.5 128.5t-62.5 50.5q-33 0 -55 -39
t-22 -122z" />
    <glyph glyph-name="uni03C2" unicode="&#x3c2;" horiz-adv-x="306" 
d="M293 478l-14 -60q-24 7 -44 7q-60 0 -92 -55.5t-32 -129.5q0 -128 89 -172q22 -10 84 -29q7 -3 7 -9q0 -41 -17.5 -87t-39.5 -73l-54 16q32 52 37 101q-42 13 -70 27q-52 26 -83 82t-31 137q0 108 56 183t146 75q38 0 58 -13z" />
    <glyph glyph-name="sigma" unicode="&#x3c3;" horiz-adv-x="383" 
d="M286 436l-1 -3q61 -60 61 -191q0 -128 -47.5 -189t-110.5 -61q-68 0 -111.5 63.5t-43.5 185.5q0 124 47 187t116 63h39h37h99l-4 -60q-39 0 -81 5zM192 53q23 0 39 18t23.5 48.5t11 60t3.5 62.5q0 71 -18.5 129.5t-60.5 58.5q-24 0 -40.5 -18.5t-24.5 -48.5t-11.5 -59.5
t-3.5 -61.5q0 -34 3.5 -64t12 -60t25.5 -47.5t41 -17.5z" />
    <glyph glyph-name="tau" unicode="&#x3c4;" horiz-adv-x="304" 
d="M243 54l-3 -57q-15 -5 -36 -5q-93 0 -93 137v291h-42q-35 0 -57 -10l-12 50q19 24 88 24h212l-9 -64h-103v-294q0 -73 39 -73q11 0 16 1z" />
    <glyph glyph-name="upsilon" unicode="&#x3c5;" horiz-adv-x="377" 
d="M238 484h72q31 -74 31 -193q0 -299 -161 -299q-61 0 -96 39t-35 109v183q0 131 -8 161h74q10 -18 10 -98v-237q0 -45 17.5 -68.5t43.5 -23.5q80 0 80 217q0 141 -28 210z" />
    <glyph glyph-name="phi" unicode="&#x3c6;" horiz-adv-x="491" 
d="M144 487l40 -37q-74 -79 -74 -204q0 -74 26 -126t74 -64v303q0 66 27.5 96.5t68.5 30.5q60 0 106 -63.5t46 -170.5q0 -115 -52 -180t-124 -74v-190h-72v190q-30 4 -58 18t-56.5 41t-45.5 75t-17 111q0 88 34.5 150t76.5 94zM282 371v-316q50 8 75 63t25 131q0 77 -24 127
t-47 50q-29 0 -29 -55z" />
    <glyph glyph-name="chi" unicode="&#x3c7;" horiz-adv-x="339" 
d="M11 484h78l83 -257h4q16 61 28 99l52 158h74l-121 -327l119 -342l-71 -18l-95 290h-2q-11 -48 -33 -122l-54 -168l-68 17l122 346z" />
    <glyph glyph-name="psi" unicode="&#x3c8;" horiz-adv-x="487" 
d="M210 -192v184q-33 4 -58 14.5t-51 33.5t-40.5 68.5t-14.5 110.5v149q0 89 -5 116h68q8 -22 8 -98v-151q0 -96 24 -137.5t70 -48.5v536h70v-536q50 5 74 73t24 172q0 131 -22 190h67q27 -66 27 -180q0 -296 -169 -312v-184h-72z" />
    <glyph glyph-name="omega" unicode="&#x3c9;" horiz-adv-x="521" 
d="M296 333l-1 -191q0 -29 13.5 -57t37.5 -28q28 0 46.5 47.5t18.5 136.5q0 149 -67 241v2h70q29 -29 51.5 -96t22.5 -147q0 -117 -38.5 -183t-100.5 -66q-59 0 -87 70h-3q-11 -31 -35.5 -50.5t-58.5 -19.5q-56 0 -94 60.5t-38 179.5q0 85 23 153.5t51 98.5h69v-2
q-67 -90 -67 -245q0 -89 18.5 -134.5t46.5 -45.5q25 0 38 27.5t13 58.5l-1 190h72z" />
    <glyph glyph-name="iotadieresis" unicode="&#x3ca;" horiz-adv-x="188" 
d="M15 558q-18 0 -31 13t-13 32t13 32t32 13q18 0 30.5 -12.5t12.5 -32.5t-12.5 -32.5t-31.5 -12.5zM169 558q-18 0 -31 13t-13 32t13 32t32 13q18 0 30.5 -12.5t12.5 -32.5t-12.5 -32.5t-31.5 -12.5zM131 484v-383q0 -28 8 -38.5t29 -10.5l-7 -57q-13 -3 -29 -3
q-35 0 -56.5 22t-21.5 82v388h77z" />
    <glyph glyph-name="upsilondieresis" unicode="&#x3cb;" horiz-adv-x="377" 
d="M103 558q-18 0 -31 13t-13 32t13 32t32 13q18 0 30.5 -12.5t12.5 -32.5t-12.5 -32.5t-31.5 -12.5zM257 558q-18 0 -31 13t-13 32t13 32t32 13q18 0 30.5 -12.5t12.5 -32.5t-12.5 -32.5t-31.5 -12.5zM237 484h73q31 -74 31 -193q0 -299 -161 -299q-61 0 -96 39t-35 109
v183q0 131 -8 161h74q10 -18 10 -98v-237q0 -45 17.5 -68.5t43.5 -23.5q80 0 80 217q0 143 -29 210z" />
    <glyph glyph-name="omicrontonos" unicode="&#x3cc;" horiz-adv-x="383" 
d="M195 674h68l-56 -135h-45zM190 -8q-69 0 -113 63.5t-44 185.5q0 124 47 187t115 63q69 0 112.5 -64t43.5 -185q0 -129 -48 -189.5t-113 -60.5zM194 53q31 0 50 33t24.5 72t5.5 84q0 32 -3.5 61.5t-12 59.5t-25.5 48.5t-41 18.5t-41.5 -18.5t-25.5 -48.5t-11.5 -59.5
t-3.5 -61.5q0 -34 3.5 -64t12 -60t26 -47.5t42.5 -17.5z" />
    <glyph glyph-name="upsilontonos" unicode="&#x3cd;" horiz-adv-x="377" 
d="M188 676h71l-56 -135h-48zM238 484h72q31 -74 31 -193q0 -299 -161 -299q-61 0 -96 39t-35 109v183q0 131 -8 161h74q10 -18 10 -98v-237q0 -45 17.5 -68.5t43.5 -23.5q80 0 80 217q0 141 -28 210z" />
    <glyph glyph-name="omegatonos" unicode="&#x3ce;" horiz-adv-x="521" 
d="M269 674h68l-56 -135h-44zM296 333l-1 -191q0 -29 13.5 -57t37.5 -28q28 0 46.5 47.5t18.5 136.5q0 149 -67 241v2h70q29 -29 51.5 -96t22.5 -147q0 -117 -38.5 -183t-100.5 -66q-59 0 -87 70h-3q-11 -31 -35.5 -50.5t-58.5 -19.5q-56 0 -94 60.5t-38 179.5
q0 85 23 153.5t51 98.5h69v-2q-67 -90 -67 -245q0 -89 18.5 -134.5t46.5 -45.5q25 0 38 27.5t13 58.5l-1 190h72z" />
    <glyph glyph-name="uni0401" unicode="&#x401;" horiz-adv-x="354" 
d="M306 385v-65h-169v-253h192v-67h-269v674h257v-67h-180v-222h169zM108 725q-18 0 -30 13t-12 34q0 19 12.5 32.5t30.5 13.5q19 0 31 -13t12 -33q0 -21 -12 -34t-32 -13zM270 725q-18 0 -30 13t-12 34q0 19 12.5 32.5t30.5 13.5q19 0 31 -13t12 -33q0 -21 -12 -34t-32 -13
z" />
    <glyph glyph-name="uni0402" unicode="&#x402;" horiz-adv-x="486" 
d="M15 674h357v-70h-158v-193h2q37 24 80 24q85 0 130 -91q32 -67 32 -178q0 -133 -58 -211q-46 -64 -110 -84l-20 64q46 19 76 69q33 56 33 166q0 92 -25 143q-28 55 -81 55q-31 0 -59 -19v-349h-77v604h-122v70z" />
    <glyph glyph-name="uni0403" unicode="&#x403;" horiz-adv-x="339" 
d="M60 674h264v-67h-187v-607h-77v674zM225 818h91l-124 -108h-61z" />
    <glyph glyph-name="uni0404" unicode="&#x404;" horiz-adv-x="384" 
d="M355 662l-17 -66q-27 16 -63 16q-44 0 -77.5 -23.5t-51.5 -60.5t-26.5 -75t-9.5 -76h204v-67h-203q1 -41 9.5 -80.5t25.5 -79t50 -64t77 -24.5q42 0 80 16l13 -63q-44 -22 -98 -22q-117 0 -176.5 97t-59.5 248q0 62 12.5 119t39 109t75 83.5t113.5 31.5q41 0 83 -19z" />
    <glyph glyph-name="uni0405" unicode="&#x405;" horiz-adv-x="361" 
d="M28 23l17 66q40 -27 96 -27q53 0 83 31t30 83q0 43 -22 74.5t-67 65.5q-127 87 -127 187q0 77 49.5 127t128.5 50q61 0 94 -25l-18 -66q-33 23 -80 23t-72.5 -29t-25.5 -67q0 -46 21.5 -72.5t77.5 -66.5q117 -82 117 -194q0 -86 -53.5 -137.5t-135.5 -51.5q-33 0 -65.5 9
t-47.5 20z" />
    <glyph glyph-name="uni0406" unicode="&#x406;" horiz-adv-x="199" 
d="M60 674h77v-674h-77v674z" />
    <glyph glyph-name="uni0407" unicode="&#x407;" horiz-adv-x="199" 
d="M60 674h77v-674h-77v674zM18 725q-18 0 -30 13t-12 34q0 19 12.5 32.5t30.5 13.5q19 0 31 -13t12 -33q0 -21 -12 -34t-32 -13zM180 725q-18 0 -30 13t-12 34q0 19 12.5 32.5t30.5 13.5q19 0 31 -13t12 -33q0 -21 -12 -34t-32 -13z" />
    <glyph glyph-name="uni0408" unicode="&#x408;" horiz-adv-x="265" 
d="M134 189v485h77v-484q0 -108 -40.5 -153t-117.5 -45q-32 0 -50 7l7 65q13 -4 37 -4q44 0 65.5 27t21.5 102z" />
    <glyph glyph-name="uni0409" unicode="&#x409;" horiz-adv-x="635" 
d="M80 674h274v-268q24 3 51 3q91 0 146 -54.5t55 -145.5q0 -90 -49 -144q-60 -69 -179 -69q-63 0 -100 7v604h-127v-231q0 -153 -15.5 -240t-66.5 -124q-26 -20 -61 -20l-15 64q26 9 36 20q29 26 40 93t11 198v307zM354 342v-280q17 -4 39 -4q63 0 98 41t35 106
q0 63 -36.5 101.5t-97.5 38.5q-17 0 -38 -3z" />
    <glyph glyph-name="uni040A" unicode="&#x40a;" horiz-adv-x="669" 
d="M60 674h77v-280h174v280h76v-272q24 3 51 3q92 0 147 -53t55 -143t-49 -144q-60 -69 -180 -69q-63 0 -100 7v323h-174v-326h-77v674zM387 338v-276q17 -4 39 -4q63 0 98.5 41t35.5 106q0 63 -36.5 99.5t-98.5 36.5q-17 0 -38 -3z" />
    <glyph glyph-name="uni040B" unicode="&#x40b;" horiz-adv-x="501" 
d="M16 674h346v-70h-150v-206h2q51 37 104 37q62 0 94 -43q36 -46 36 -128v-264h-76v256q0 61 -21 87q-19 27 -58 27q-42 0 -81 -31v-339h-77v604h-119v70z" />
    <glyph glyph-name="uni040C" unicode="&#x40c;" horiz-adv-x="391" 
d="M61 674h75v-306h14l143 306h84l-165 -315q57 -12 84.5 -55.5t42.5 -115.5q4 -17 10 -47.5l10 -50t11 -45t14 -45.5h-78q-9 24 -39 168q-15 72 -39.5 107.5t-79.5 35.5h-12v-311h-75v674zM247 813h91l-124 -108h-61z" />
    <glyph glyph-name="uni040E" unicode="&#x40e;" horiz-adv-x="369" 
d="M5 674h83l80 -276q17 -60 31 -117h3q5 19 13.5 63t11.5 56l60 274h78l-81 -302q-2 -7 -12.5 -47.5t-16.5 -61.5t-17 -56.5t-23 -65t-25 -55.5q-52 -97 -127 -97q-23 0 -36 5l3 62q12 -2 21 -2q37 0 64.5 39.5t41.5 86.5q5 20 -1 39zM74 791h56q10 -56 57 -56q49 0 56 56
h57q-13 -97 -114 -97q-103 0 -112 97z" />
    <glyph glyph-name="uni040F" unicode="&#x40f;" horiz-adv-x="458" 
d="M60 674h77v-607h184v607h77v-674h-132l-5 -143h-63l-5 143h-133v674z" />
    <glyph glyph-name="uni0410" unicode="&#x410;" horiz-adv-x="435" 
d="M291 202h-150l-44 -202h-75l154 674h85l150 -674h-76zM152 264h128l-35 171q-10 49 -27 154h-3q-15 -95 -28 -154z" />
    <glyph glyph-name="uni0411" unicode="&#x411;" horiz-adv-x="418" 
d="M61 674h284v-67h-208v-202q24 4 51 4q89 0 144 -53q57 -54 57 -147q0 -91 -49 -146q-58 -67 -179 -67q-63 0 -100 7v671zM137 342v-280q17 -4 39 -4q66 0 103 47q30 39 30 99t-35 100q-38 41 -99 41q-17 0 -38 -3z" />
    <glyph glyph-name="uni0412" unicode="&#x412;" horiz-adv-x="416" 
d="M61 3v661q52 13 112 13q99 0 149 -47q44 -41 44 -115q0 -52 -27 -90.5t-77 -58.5v-3q59 -16 92 -61t33 -111q0 -81 -48 -134q-54 -61 -178 -61q-63 0 -100 7zM137 612v-224h35q48 0 82.5 33.5t34.5 85.5q0 110 -111 110q-26 0 -41 -5zM137 329v-268q18 -4 39 -4
q60 0 95.5 35t35.5 99q0 66 -39 101.5t-97 36.5h-34z" />
    <glyph glyph-name="uni0413" unicode="&#x413;" horiz-adv-x="339" 
d="M60 674h264v-67h-187v-607h-77v674z" />
    <glyph glyph-name="uni0414" unicode="&#x414;" horiz-adv-x="474" 
d="M130 674h271v-608l45 -1l-4 -204h-61l-4 139h-298l-4 -139h-61l-4 204l45 1q37 90 55 182q20 109 20 274v152zM201 607v-101q0 -155 -19 -269q-14 -83 -48 -170h191v540h-124z" />
    <glyph glyph-name="uni0415" unicode="&#x415;" horiz-adv-x="354" 
d="M306 385v-65h-169v-253h192v-67h-269v674h257v-67h-180v-222h169z" />
    <glyph glyph-name="uni0416" unicode="&#x416;" horiz-adv-x="589" 
d="M13 674h85l146 -307h14v307h72v-307h15l145 307h85l-173 -314q59 -10 89 -57.5t45 -121.5q30 -142 45 -181h-76q-10 22 -39 162q-8 34 -15.5 56t-21 46t-36 35.5t-52.5 11.5h-11v-311h-72v311h-10q-31 0 -53.5 -11.5t-36.5 -35.5t-21.5 -46t-15.5 -56q-3 -12 -10 -49.5
t-14 -66.5t-15 -46h-74q13 36 44 181q33 161 134 179z" />
    <glyph glyph-name="uni0417" unicode="&#x417;" horiz-adv-x="381" 
d="M49 580l-20 59q56 43 137 43q78 0 121.5 -45t43.5 -117q0 -55 -33 -99.5t-85 -60.5v-2q64 -10 101.5 -57t37.5 -116q0 -89 -56 -141t-147 -52q-79 0 -131 33l19 64q49 -31 107 -31q61 0 95 35t34 92q0 65 -43 101t-110 36h-21v61h15q54 0 96.5 36.5t42.5 89.5
q0 49 -28 77.5t-77 28.5q-50 0 -99 -35z" />
    <glyph glyph-name="uni0418" unicode="&#x418;" horiz-adv-x="464" 
d="M60 674h70v-241q0 -150 -9 -309h2q14 46 87 235l121 315h72v-674h-69v233q0 198 8 318h-2q-16 -56 -81 -226l-126 -325h-73v674z" />
    <glyph glyph-name="uni0419" unicode="&#x419;" horiz-adv-x="464" 
d="M60 674h70v-241q0 -150 -9 -309h2q14 46 87 235l121 315h72v-674h-69v233q0 198 8 318h-2q-16 -56 -81 -226l-126 -325h-73v674zM119 795h56q10 -56 57 -56q49 0 56 56h57q-13 -97 -114 -97q-103 0 -112 97z" />
    <glyph glyph-name="uni041A" unicode="&#x41a;" horiz-adv-x="391" 
d="M61 674h75v-306h14l143 306h84l-165 -315q57 -12 84.5 -55.5t42.5 -115.5q4 -17 10 -47.5l10 -50t11 -45t14 -45.5h-78q-9 24 -39 168q-15 72 -39.5 107.5t-79.5 35.5h-12v-311h-75v674z" />
    <glyph glyph-name="uni041B" unicode="&#x41b;" horiz-adv-x="432" 
d="M81 674h290v-674h-77v607h-142v-230q0 -157 -15 -242.5t-67 -121.5q-27 -21 -61 -21l-16 65q20 3 36 17q30 26 41 94t11 198v308z" />
    <glyph glyph-name="uni041C" unicode="&#x41c;" horiz-adv-x="599" 
d="M482 0l-14 290q-10 182 -7 264h-4q-25 -125 -54 -234l-82 -316h-50l-78 303q-35 133 -56 247h-3q1 -59 -8 -269l-13 -285h-69l40 674h84l78 -308q40 -154 54 -232h3q14 83 50 232l76 308h86l39 -674h-72z" />
    <glyph glyph-name="uni041D" unicode="&#x41d;" horiz-adv-x="463" 
d="M60 674h77v-289h189v289h77v-674h-77v315h-189v-315h-77v674z" />
    <glyph glyph-name="uni041E" unicode="&#x41e;" horiz-adv-x="446" 
d="M230 682q86 0 135 -89.5t49 -250.5q0 -180 -53.5 -265t-141.5 -85q-86 0 -136.5 89.5t-50.5 256.5q0 164 54 254t144 90zM224 614q-40 0 -66.5 -42t-36 -101.5t-9.5 -133.5q0 -55 6 -102.5t18.5 -88t35 -63.5t53.5 -23t53 24.5t34 66.5t17 88t5 100q0 51 -5 96.5
t-17 87.5t-34.5 66.5t-53.5 24.5z" />
    <glyph glyph-name="uni041F" unicode="&#x41f;" horiz-adv-x="458" 
d="M60 674h338v-674h-77v607h-184v-607h-77v674z" />
    <glyph glyph-name="uni0420" unicode="&#x420;" horiz-adv-x="399" 
d="M61 0v664q50 13 111 13q100 0 150 -49q49 -49 49 -140q0 -84 -41 -138q-26 -36 -69 -55.5t-90 -19.5q-23 0 -34 1v-276h-76zM137 609v-269q18 -2 31 -2q58 0 92 37.5t34 107.5q0 58 -27 94.5t-87 36.5q-26 0 -43 -5z" />
    <glyph glyph-name="uni0421" unicode="&#x421;" horiz-adv-x="373" 
d="M342 76l13 -64q-34 -18 -97 -18q-103 0 -164.5 84.5t-61.5 250.5q0 95 22 166.5t58 110t76 56.5t83 18q58 0 83 -17l-17 -65q-32 14 -67 14q-63 0 -110 -67t-47 -209q0 -144 44.5 -209t114.5 -65q38 0 70 14z" />
    <glyph glyph-name="uni0422" unicode="&#x422;" horiz-adv-x="354" 
d="M139 0v605h-123v69h323v-69h-123v-605h-77z" />
    <glyph glyph-name="uni0423" unicode="&#x423;" horiz-adv-x="369" 
d="M5 674h83l80 -276q17 -60 31 -117h3q5 19 13.5 63t11.5 56l60 274h78l-81 -302q-2 -7 -12.5 -47.5t-16.5 -61.5t-17 -56.5t-23 -65t-25 -55.5q-52 -97 -127 -97q-23 0 -36 5l3 62q12 -2 21 -2q37 0 64.5 39.5t41.5 86.5q5 20 -1 39z" />
    <glyph glyph-name="uni0424" unicode="&#x424;" horiz-adv-x="507" 
d="M219 693h71v-54q83 -7 134.5 -81.5t51.5 -216.5q0 -82 -16 -141.5t-43.5 -92.5t-58.5 -49.5t-69 -20.5v-56h-71v56q-186 24 -186 301q0 147 54.5 220t132.5 81v54zM219 94v489q-47 -7 -78 -66t-31 -182q0 -113 30.5 -171.5t78.5 -69.5zM289 583v-489q109 18 109 248
q0 119 -32.5 177.5t-76.5 63.5z" />
    <glyph glyph-name="uni0425" unicode="&#x425;" horiz-adv-x="392" 
d="M378 0h-80l-61 162q-25 67 -42 118h-3l-40 -120l-58 -160h-79l138 344l-134 330h80l61 -156q21 -55 39 -107h2l37 110l55 153h78l-132 -328z" />
    <glyph glyph-name="uni0426" unicode="&#x426;" horiz-adv-x="470" 
d="M60 674h77v-607h183v607h77v-608l45 -1l-4 -204h-60l-5 139h-313v674z" />
    <glyph glyph-name="uni0427" unicode="&#x427;" horiz-adv-x="436" 
d="M54 674h76v-230q0 -116 92 -116q42 0 78 21v325h76v-681h-76v294h-3q-51 -24 -101 -24q-68 0 -105 41.5t-37 124.5v245z" />
    <glyph glyph-name="uni0428" unicode="&#x428;" horiz-adv-x="632" 
d="M61 674h75v-607h143v607h75v-607h143v607h75v-674h-511v674z" />
    <glyph glyph-name="uni0429" unicode="&#x429;" horiz-adv-x="644" 
d="M61 674h75v-607h143v607h75v-607h143v607h75v-608l44 -1l-4 -204h-60l-5 139h-486v674z" />
    <glyph glyph-name="uni042A" unicode="&#x42a;" horiz-adv-x="512" 
d="M15 674h217v-268q24 3 51 3q92 0 147 -54.5t55 -145.5t-49 -146q-58 -67 -180 -67q-63 0 -100 7v605h-141v66zM232 342v-280q26 -4 39 -4q63 0 98.5 41t35.5 105q0 63 -36.5 102t-98.5 39q-17 0 -38 -3z" />
    <glyph glyph-name="uni042B" unicode="&#x42b;" horiz-adv-x="586" 
d="M61 674h76v-269q21 4 50 4q90 0 144.5 -54.5t54.5 -144.5t-48 -144q-61 -70 -181 -70q-59 0 -96 7v671zM137 342v-281q19 -3 37 -3q61 0 96.5 41t35.5 105q0 63 -36 102t-95 39q-21 0 -38 -3zM448 675h77v-675h-77v675z" />
    <glyph glyph-name="uni042C" unicode="&#x42c;" horiz-adv-x="417" 
d="M61 674h76v-268q21 3 51 3q92 0 146.5 -54t54.5 -146q0 -89 -48 -143q-61 -70 -181 -70q-62 0 -99 7v671zM137 342v-281q19 -3 37 -3q63 0 99 41t36 106q0 62 -36.5 101t-97.5 39q-21 0 -38 -3z" />
    <glyph glyph-name="uni042D" unicode="&#x42d;" horiz-adv-x="387" 
d="M73 311v69h204q0 38 -8 75.5t-24 74.5t-47 60t-72 23q-39 0 -73 -16l-20 62q48 22 96 22q54 0 95.5 -21.5t65.5 -55t39.5 -80.5t20.5 -91t5 -93q0 -91 -23.5 -167t-79 -128t-136.5 -52q-53 0 -99 22l18 64q36 -17 77 -17q45 0 78.5 24.5t51 64.5t25.5 79.5t9 80.5h-203z
" />
    <glyph glyph-name="uni042E" unicode="&#x42e;" horiz-adv-x="604" 
d="M60 674h76v-288h74q8 143 59 219.5t128 76.5q82 0 129 -90t47 -250q0 -179 -51.5 -264.5t-134.5 -85.5q-78 0 -126 83t-51 243h-74v-318h-76v674zM392 60q55 0 79 81t24 199q0 51 -5 96.5t-16.5 87t-32.5 66t-50 24.5q-55 0 -80 -81t-25 -194q0 -116 25 -197.5t81 -81.5z
" />
    <glyph glyph-name="uni042F" unicode="&#x42f;" horiz-adv-x="406" 
d="M91 0h-80q12 25 23 69q4 16 13 70.5t20.5 89.5t31.5 59q20 27 51 33v2q-52 16 -83 57.5t-31 107.5q0 98 66 149q52 40 134 40q66 0 109 -12v-665h-76v293h-28q-51 0 -77 -30q-16 -19 -25.5 -53.5t-18 -85t-11.5 -65.5q-7 -36 -18 -59zM269 354v257q-20 4 -40 4
q-57 0 -86 -35.5t-29 -93.5q0 -61 35.5 -97t91.5 -36q18 0 28 1z" />
    <glyph glyph-name="uni0430" unicode="&#x430;" horiz-adv-x="364" 
d="M309 320v-210q0 -71 5 -110h-69l-5 51h-3q-33 -59 -97 -59q-49 0 -81.5 38t-32.5 100q0 86 58.5 130.5t147.5 45.5v15q0 53 -17.5 81t-59.5 28q-44 0 -80 -25l-17 54q45 32 113 32q138 0 138 -171zM234 153v98q-133 0 -133 -113q0 -44 17.5 -65t41.5 -21q26 0 45 19
t26 54q3 13 3 28z" />
    <glyph glyph-name="uni0431" unicode="&#x431;" horiz-adv-x="388" 
d="M324 700l-4 -67q-12 -5 -45 -12.5t-43 -10.5q-70 -16 -100 -80q-23 -49 -30 -126h2q13 34 43 57t67 23q64 0 102.5 -58t38.5 -180q0 -125 -41.5 -190t-115.5 -65q-47 0 -80.5 27.5t-50 74t-23.5 93.5t-7 100q0 186 46 277q42 87 135 111q10 3 51 11.5t55 14.5zM278 240
q0 30 -3.5 58t-11.5 58t-25.5 48t-41.5 18q-48 0 -68 -54q-16 -42 -16 -103q0 -28 3 -58t11 -67.5t26.5 -61.5t45.5 -24q24 0 41 19t25 50t11 59t3 58z" />
    <glyph glyph-name="uni0432" unicode="&#x432;" horiz-adv-x="394" 
d="M54 -2v483q53 10 109 10q33 0 62.5 -5.5t57 -18t44 -37t16.5 -59.5q0 -42 -27 -72.5t-69 -41.5v-2q54 -9 85 -40.5t31 -80.5q0 -40 -19 -69t-51.5 -44t-67 -21.5t-72.5 -6.5q-51 0 -99 5zM130 431v-152h34q39 0 72 22.5t33 59.5q0 74 -100 74q-15 0 -39 -4zM129 224v-173
q27 -3 39 -3q50 0 84 20.5t34 66.5q0 45 -36.5 67t-87.5 22h-33z" />
    <glyph glyph-name="uni0433" unicode="&#x433;" horiz-adv-x="292" 
d="M54 484h225v-65h-149v-419h-76v484z" />
    <glyph glyph-name="uni0434" unicode="&#x434;" horiz-adv-x="417" 
d="M106 484h246v-424l41 -1l-4 -188h-59l-5 129h-250l-5 -129h-59l-4 188l32 1q29 45 45 103q22 81 22 180v141zM174 422v-71q0 -119 -21 -192q-15 -57 -38 -98h161v361h-102z" />
    <glyph glyph-name="uni0435" unicode="&#x435;" horiz-adv-x="363" 
d="M332 235h-224q0 -180 114 -180q46 0 80 18l13 -56q-44 -23 -107 -23q-85 0 -130.5 65t-45.5 178q0 116 45.5 185t118.5 69q69 0 103.5 -61.5t34.5 -150.5q0 -20 -2 -44zM109 292h151q1 68 -20.5 103.5t-51.5 35.5q-36 0 -56 -41.5t-23 -97.5z" />
    <glyph glyph-name="uni0436" unicode="&#x436;" horiz-adv-x="536" 
d="M13 484h85l118 -213h16v213h73v-213h17l117 213h85l-144 -221q83 -17 109 -133q22 -93 39 -130h-75q-15 26 -33 107q-16 61 -42 86.5t-65 25.5h-8v-219h-73v219h-8q-48 0 -68.5 -25t-40.5 -92q-18 -74 -31 -102h-75q9 21 40 126q32 120 109 137z" />
    <glyph glyph-name="uni0437" unicode="&#x437;" horiz-adv-x="337" 
d="M84 223l1 56h26q39 0 69 22.5t30 60.5q0 35 -21.5 53.5t-55.5 18.5q-38 0 -86 -25l-15 48q49 34 120 34q60 0 97.5 -32t37.5 -88q0 -43 -27.5 -72.5t-71.5 -41.5v-1q52 -8 84.5 -40t32.5 -82q0 -68 -52.5 -105t-125.5 -37q-65 0 -114 27l17 55q46 -24 91 -24
q47 0 76.5 24.5t29.5 59.5q0 46 -34 67.5t-81 21.5h-28z" />
    <glyph glyph-name="uni0438" unicode="&#x438;" horiz-adv-x="406" 
d="M54 484h70v-166q0 -143 -7 -232h2q16 46 72 189l81 209h81v-484h-71v159q0 117 8 237h-3q-20 -73 -58 -168q-60 -150 -96 -228h-79v484z" />
    <glyph glyph-name="uni0439" unicode="&#x439;" horiz-adv-x="406" 
d="M54 484h70v-166q0 -143 -7 -232h2q16 46 72 189l81 209h81v-484h-71v159q0 117 8 237h-3q-20 -73 -58 -168q-60 -150 -96 -228h-79v484zM90 668h54q6 -68 59 -68q54 0 60 68h54q-13 -112 -115 -112q-99 0 -112 112z" />
    <glyph glyph-name="uni043A" unicode="&#x43a;" horiz-adv-x="367" 
d="M54 484h75v-210h11l127 210h85l-151 -218q85 -14 118 -137q28 -100 40 -129h-79q-10 24 -35 113q-14 53 -38.5 79t-69.5 26h-8v-218h-75v484z" />
    <glyph glyph-name="uni043B" unicode="&#x43b;" horiz-adv-x="383" 
d="M74 484h256v-484h-77v421h-106v-154q0 -116 -16 -177.5t-65 -85.5q-25 -11 -52 -11l-13 61q24 4 40 22q33 33 33 186v222z" />
    <glyph glyph-name="uni043C" unicode="&#x43c;" horiz-adv-x="538" 
d="M38 0l34 484h90l64 -212q24 -82 43 -155h2l41 155l62 212h92l33 -484h-72l-10 208q-5 103 -7 204h-2q-25 -105 -48 -186l-66 -223h-56l-63 215q-26 93 -49 194h-3q0 -70 -6 -208l-9 -204h-70z" />
    <glyph glyph-name="uni043D" unicode="&#x43d;" horiz-adv-x="405" 
d="M54 484h77v-205h143v205h77v-484h-77v213h-143v-213h-77v484z" />
    <glyph glyph-name="uni043E" unicode="&#x43e;" horiz-adv-x="383" 
d="M195 491q69 0 112.5 -64t43.5 -185q0 -129 -48 -189.5t-113 -60.5q-69 0 -113 63.5t-44 185.5q0 124 47 187t115 63zM192 430q-24 0 -41.5 -18.5t-25.5 -48.5t-11.5 -59.5t-3.5 -61.5q0 -34 3.5 -64t12 -60t26 -47.5t42.5 -17.5q31 0 50 33t24.5 72t5.5 84
q0 32 -3.5 61.5t-12 59.5t-25.5 48.5t-41 18.5z" />
    <glyph glyph-name="uni043F" unicode="&#x43f;" horiz-adv-x="400" 
d="M54 484h293v-484h-77v420h-139v-420h-77v484z" />
    <glyph glyph-name="uni0440" unicode="&#x440;" horiz-adv-x="399" 
d="M53 -192v525q0 15 -4 151h68l4 -62h2q37 69 103 69q65 0 102.5 -65t37.5 -183q0 -126 -43.5 -188.5t-106.5 -62.5q-58 0 -85 56h-2v-240h-76zM129 301v-124q0 -24 4 -40q18 -81 71 -81q45 0 65 52t20 133t-21 132.5t-65 51.5q-26 0 -47 -26.5t-24 -60.5q-3 -17 -3 -37z
" />
    <glyph glyph-name="uni0441" unicode="&#x441;" horiz-adv-x="302" 
d="M279 71l11 -59q-31 -18 -80 -18q-81 0 -129 63.5t-48 181.5q0 108 51.5 180t139.5 72q42 0 68 -15l-15 -63q-26 13 -55 13q-55 0 -83.5 -54.5t-28.5 -132.5q0 -85 30.5 -133t83.5 -48q30 0 55 13z" />
    <glyph glyph-name="uni0442" unicode="&#x442;" horiz-adv-x="317" 
d="M10 484h297v-64h-110v-420h-77v420h-110v64z" />
    <glyph glyph-name="uni0443" unicode="&#x443;" horiz-adv-x="346" 
d="M12 484h81l65 -278q4 -17 10 -50t10 -50h2l10.5 53.5t9.5 45.5l58 279h76l-79 -311q-57 -228 -120 -312q-40 -51 -87 -73l-29 65q36 20 69 61q28 36 43 82q6 17 6 24q0 9 -3 18z" />
    <glyph glyph-name="uni0444" unicode="&#x444;" horiz-adv-x="477" 
d="M204 684h70v-193q79 -10 125 -73t46 -177t-45 -177t-126 -72v-184h-70v184q-80 9 -125.5 71.5t-45.5 177.5q0 113 45.5 175.5t125.5 73.5v194zM205 45v393q-37 -9 -60.5 -42t-31.5 -71t-8 -83q0 -46 8 -84t31.5 -71.5t60.5 -41.5zM273 438v-393q100 23 100 197
q0 170 -100 196z" />
    <glyph glyph-name="uni0445" unicode="&#x445;" horiz-adv-x="340" 
d="M14 484h83l44 -104l10.5 -26l12 -31.5t10.5 -26.5h2q2 6 32 84l43 104h79l-115 -239l114 -245h-83l-46 110q-10 24 -32 83h-2q-6 -17 -32 -84l-45 -109h-78l115 243z" />
    <glyph glyph-name="uni0446" unicode="&#x446;" horiz-adv-x="411" 
d="M54 484h77v-420h138v420h77v-424l41 -1l-4 -188h-59l-5 129h-265v484z" />
    <glyph glyph-name="uni0447" unicode="&#x447;" horiz-adv-x="393" 
d="M47 484h77v-185q0 -41 15 -63.5t53 -22.5q34 0 71 22v249h76v-486h-76v181h-2q-37 -25 -93 -25q-57 0 -89 34t-32 99v197z" />
    <glyph glyph-name="uni0448" unicode="&#x448;" horiz-adv-x="590" 
d="M54 484h76v-420h127v420h76v-420h127v420h76v-484h-482v484z" />
    <glyph glyph-name="uni0449" unicode="&#x449;" horiz-adv-x="602" 
d="M54 484h76v-420h127v420h76v-420h128v420h75v-424l41 -1l-4 -188h-59l-5 129h-455v484z" />
    <glyph glyph-name="uni044A" unicode="&#x44a;" horiz-adv-x="464" 
d="M13 484h193v-171q7 0 23 1.5t23 1.5q79 0 132 -39t53 -115q0 -77 -54 -120q-57 -47 -154 -47q-49 0 -99 8v418h-117v63zM206 254v-196q18 -3 36 -3q50 0 83 26t33 76t-34 74.5t-86 24.5q-12 0 -32 -2z" />
    <glyph glyph-name="uni044B" unicode="&#x44b;" horiz-adv-x="528" 
d="M54 484h76v-171q24 3 46 3q74 0 124 -40.5t50 -113.5q0 -77 -54 -120q-57 -47 -143 -47q-49 0 -99 8v481zM130 254v-196q18 -3 34 -3q45 0 76 28t31 74q0 47 -31.5 73t-77.5 26q-12 0 -32 -2zM400 484h74v-484h-74v484z" />
    <glyph glyph-name="uni044C" unicode="&#x44c;" horiz-adv-x="388" 
d="M54 484h76v-171q7 0 23 1.5t23 1.5q80 0 132.5 -39.5t52.5 -116.5q0 -75 -54 -118q-57 -47 -154 -47q-49 0 -99 8v481zM130 254v-197q24 -2 34 -2q51 0 84.5 26t33.5 76t-34 74.5t-86 24.5q-12 0 -32 -2z" />
    <glyph glyph-name="uni044D" unicode="&#x44d;" horiz-adv-x="324" 
d="M50 219v56h163q-2 63 -29.5 109t-85.5 46q-34 0 -64 -14l-13 53q32 22 91 22q84 0 132 -69q48 -67 48 -177q0 -104 -50.5 -178t-143.5 -74q-53 0 -85 20l14 57q28 -15 68 -15q50 0 84 46t35 118h-164z" />
    <glyph glyph-name="uni044E" unicode="&#x44e;" horiz-adv-x="524" 
d="M54 484h75v-203h60q8 105 50.5 157.5t101.5 52.5q65 0 107.5 -64t42.5 -185q0 -128 -46 -189t-108 -61t-103.5 57.5t-45.5 169.5h-59v-219h-75v484zM340 53q22 0 37.5 18t23 48.5t11 60.5t3.5 62q0 72 -17.5 130t-59.5 58q-23 0 -39 -18.5t-23.5 -48.5t-11 -59.5
t-3.5 -61.5q0 -75 18 -132t61 -57z" />
    <glyph glyph-name="uni044F" unicode="&#x44f;" horiz-adv-x="379" 
d="M326 480v-480h-75v207h-23q-46 0 -71 -23q-11 -10 -20 -28t-13 -33t-10.5 -44t-10.5 -43q-7 -23 -13 -36h-81q15 25 22 50q3 10 9.5 37t11 43t13.5 36.5t21 33.5q25 27 60 32v2q-47 10 -77 40t-30 79q0 63 49 101q45 36 134 36q65 0 104 -10zM251 259v175q-15 3 -33 3
q-44 0 -73 -21.5t-29 -65.5q0 -41 31.5 -66t73.5 -25h30z" />
    <glyph glyph-name="uni0451" unicode="&#x451;" horiz-adv-x="363" 
d="M332 235h-224q0 -180 114 -180q46 0 80 18l13 -56q-44 -23 -107 -23q-85 0 -130.5 65t-45.5 178q0 116 45.5 185t118.5 69q69 0 103.5 -61.5t34.5 -150.5q0 -20 -2 -44zM109 292h151q1 68 -20.5 103.5t-51.5 35.5q-36 0 -56 -41.5t-23 -97.5zM119 566q-18 0 -31 12.5
t-13 31.5t13 32t32 13q17 0 29.5 -13t12.5 -32t-12 -31.5t-31 -12.5zM275 566q-18 0 -31 12.5t-13 31.5t13 32t32 13q17 0 29.5 -13t12.5 -32t-12 -31.5t-31 -12.5z" />
    <glyph glyph-name="uni0452" unicode="&#x452;" horiz-adv-x="414" 
d="M12 614h52v78h77v-78h175v-54h-175v-131h2q37 60 100 60q71 0 105 -76q30 -65 30 -192q0 -194 -71 -280q-19 -25 -46.5 -42.5t-50.5 -20.5l-19 62q38 8 63 45q47 70 47 230q0 106 -21 157q-20 52 -61 52q-34 0 -55 -34q-23 -36 -23 -81v-309h-77v560h-52v54z" />
    <glyph glyph-name="uni0453" unicode="&#x453;" horiz-adv-x="292" 
d="M54 484h225v-65h-149v-419h-76v484zM200 682h79l-105 -135h-51z" />
    <glyph glyph-name="uni0454" unicode="&#x454;" horiz-adv-x="331" 
d="M318 469l-17 -55q-34 17 -65 17q-60 0 -91 -47.5t-33 -108.5h170v-56h-171q2 -74 36 -119.5t89 -45.5q39 0 67 15l14 -55q-36 -21 -92 -21q-63 0 -108 36.5t-64.5 91.5t-19.5 120q0 104 51.5 177t150.5 73q54 0 83 -22z" />
    <glyph glyph-name="uni0455" unicode="&#x455;" horiz-adv-x="289" 
d="M22 22l19 58q39 -25 78 -25q32 0 51.5 19t19.5 51q0 29 -13 50t-49 45q-97 62 -97 137q0 59 38 96.5t95 37.5q44 0 86 -25l-20 -58q-32 22 -65 22q-29 0 -45.5 -18t-16.5 -44q0 -24 12 -41.5t48 -41.5q100 -64 100 -147q0 -70 -41.5 -107t-104.5 -37q-60 0 -95 28z" />
    <glyph glyph-name="uni0456" unicode="&#x456;" horiz-adv-x="184" 
d="M131 0h-77v484h77v-484zM91 659q21 0 33.5 -13.5t12.5 -36.5t-12.5 -36.5t-34.5 -13.5q-19 0 -31.5 14t-12.5 36t13 36t32 14z" />
    <glyph glyph-name="uni0457" unicode="&#x457;" horiz-adv-x="184" 
d="M131 0h-77v484h77v-484zM15 566q-18 0 -31 12.5t-13 31.5t13 32t32 13q17 0 29.5 -13t12.5 -32t-12 -31.5t-31 -12.5zM170 566q-18 0 -31 12.5t-13 31.5t13 32t32 13q17 0 29.5 -13t12.5 -32t-12 -31.5t-31 -12.5z" />
    <glyph glyph-name="uni0458" unicode="&#x458;" horiz-adv-x="188" 
d="M-18 -200l-10 61q48 13 65 38q23 35 23 154v431h77v-453q0 -75 -11.5 -116t-37.5 -69q-20 -21 -50.5 -33t-55.5 -13zM99 659q20 0 32.5 -13.5t12.5 -36.5t-12.5 -36.5t-33.5 -13.5q-20 0 -32.5 14t-12.5 36t13 36t33 14z" />
    <glyph glyph-name="uni0459" unicode="&#x459;" horiz-adv-x="590" 
d="M74 484h258v-171q7 0 23 1.5t23 1.5q79 0 132 -39.5t53 -116.5q0 -74 -53 -117q-60 -48 -158 -48q-46 0 -96 8v418h-109v-154q0 -117 -15.5 -178t-65.5 -85q-28 -11 -52 -11l-13 61q24 4 40 22q20 19 26.5 62.5t6.5 123.5v222zM332 254v-196q18 -3 34 -3q51 0 84.5 26
t33.5 76t-33.5 74.5t-86.5 24.5q-12 0 -32 -2z" />
    <glyph glyph-name="uni045A" unicode="&#x45a;" horiz-adv-x="601" 
d="M54 484h77v-188h136v188h76v-176q7 0 23 1.5t24 1.5q79 0 131.5 -40t52.5 -116q0 -69 -53 -114q-59 -46 -158 -46q-42 0 -96 7v231h-136v-233h-77v484zM343 249v-191q18 -3 38 -3q48 0 81 25.5t33 73.5q0 49 -34 73t-86 24q-12 0 -32 -2z" />
    <glyph glyph-name="uni045B" unicode="&#x45b;" horiz-adv-x="415" 
d="M12 614h52v78h77v-78h175v-54h-175v-131h2q15 25 41 43q26 17 64 17q49 0 81 -42t32 -127v-320h-77v309q0 115 -65 115q-58 0 -75 -77q-3 -15 -3 -41v-306h-77v560h-52v54z" />
    <glyph glyph-name="uni045C" unicode="&#x45c;" horiz-adv-x="367" 
d="M54 484h75v-210h11l127 210h85l-151 -218q85 -14 118 -137q28 -100 40 -129h-79q-10 24 -35 113q-14 53 -38.5 79t-69.5 26h-8v-218h-75v484zM220 682h80l-105 -135h-51z" />
    <glyph glyph-name="uni045E" unicode="&#x45e;" horiz-adv-x="346" 
d="M60 668h54q6 -68 59 -68q54 0 60 68h54q-13 -112 -115 -112q-99 0 -112 112zM12 484h81l65 -278q4 -17 10 -50t10 -50h2l10.5 53.5t9.5 45.5l58 279h76l-79 -311q-57 -228 -120 -312q-40 -51 -87 -73l-29 65q36 20 69 61q28 36 43 82q6 17 6 24q0 9 -3 18z" />
    <glyph glyph-name="uni045F" unicode="&#x45f;" horiz-adv-x="400" 
d="M54 484h77v-420h138v420h77v-484h-110l-6 -133h-59l-6 133h-111v484z" />
    <glyph glyph-name="uni0490" unicode="&#x490;" horiz-adv-x="334" 
d="M61 674h200l13 112h56l-10 -179h-183v-607h-76v674z" />
    <glyph glyph-name="uni0491" unicode="&#x491;" horiz-adv-x="289" 
d="M54 484h162l11 95h56l-7 -159h-146v-420h-76v484z" />
    <glyph glyph-name="uni04D9" unicode="&#x4d9;" horiz-adv-x="328" 
d="M60 411l-13 54q44 26 108 26q85 0 130 -65t45 -178q0 -116 -45 -185t-118 -69q-70 0 -104.5 61.5t-34.5 151.5q0 22 2 42h224q0 181 -113 181q-45 0 -81 -19zM253 192h-151q-1 -67 20.5 -102.5t51.5 -35.5q36 0 56 41.5t23 96.5z" />
    <glyph glyph-name="Wgrave" unicode="&#x1e80;" horiz-adv-x="654" 
d="M222 0h-73l-129 674h79l57 -325q20 -112 34 -243h3q8 79 41 244l62 324h65l63 -317q31 -163 39 -251h3q9 82 35 247l56 321h76l-131 -674h-76l-64 328q-21 107 -35 221h-2q-13 -114 -37 -224zM189 818h91l94 -108h-61z" />
    <glyph glyph-name="wgrave" unicode="&#x1e81;" horiz-adv-x="566" 
d="M13 484h80l47 -237q20 -104 26 -154h4q9 64 30 152l56 239h59l53 -232q22 -100 31 -159h4q7 63 26 156l46 235h77l-122 -484h-63l-56 235q-14 54 -27 145h-2q-11 -75 -28 -148l-58 -232h-65zM168 682h79l77 -135h-51z" />
    <glyph glyph-name="Wacute" unicode="&#x1e82;" horiz-adv-x="654" 
d="M222 0h-73l-129 674h79l57 -325q20 -112 34 -243h3q8 79 41 244l62 324h65l63 -317q31 -163 39 -251h3q9 82 35 247l56 321h76l-131 -674h-76l-64 328q-21 107 -35 221h-2q-13 -114 -37 -224zM379 818h91l-124 -108h-61z" />
    <glyph glyph-name="wacute" unicode="&#x1e83;" horiz-adv-x="566" 
d="M13 484h80l47 -237q20 -104 26 -154h4q9 64 30 152l56 239h59l53 -232q22 -100 31 -159h4q7 63 26 156l46 235h77l-122 -484h-63l-56 235q-14 54 -27 145h-2q-11 -75 -28 -148l-58 -232h-65zM327 682h79l-105 -135h-51z" />
    <glyph glyph-name="Wdieresis" unicode="&#x1e84;" horiz-adv-x="654" 
d="M222 0h-73l-129 674h79l57 -325q20 -112 34 -243h3q8 79 41 244l62 324h65l63 -317q31 -163 39 -251h3q9 82 35 247l56 321h76l-131 -674h-76l-64 328q-21 107 -35 221h-2q-13 -114 -37 -224zM247 725q-18 0 -30 13t-12 34q0 19 12.5 32.5t30.5 13.5q19 0 31 -13t12 -33
q0 -21 -12 -34t-32 -13zM409 725q-18 0 -30 13t-12 34q0 19 12.5 32.5t30.5 13.5q19 0 31 -13t12 -33q0 -21 -12 -34t-32 -13z" />
    <glyph glyph-name="wdieresis" unicode="&#x1e85;" horiz-adv-x="566" 
d="M13 484h80l47 -237q20 -104 26 -154h4q9 64 30 152l56 239h59l53 -232q22 -100 31 -159h4q7 63 26 156l46 235h77l-122 -484h-63l-56 235q-14 54 -27 145h-2q-11 -75 -28 -148l-58 -232h-65zM205 566q-18 0 -31 12.5t-13 31.5t13 32t32 13q17 0 29.5 -13t12.5 -32
t-12 -31.5t-31 -12.5zM360 566q-18 0 -31 12.5t-13 31.5t13 32t32 13q17 0 29.5 -13t12.5 -32t-12 -31.5t-31 -12.5z" />
    <glyph glyph-name="uni1EA0" unicode="&#x1ea0;" horiz-adv-x="435" 
d="M291 202h-150l-44 -202h-75l154 674h85l150 -674h-76zM152 264h128l-35 171q-10 49 -27 154h-3q-15 -94 -28 -155zM216 -80q18 0 30 -12.5t12 -32.5q0 -19 -12 -31.5t-31 -12.5q-18 0 -31 12.5t-13 31.5t13 32t32 13z" />
    <glyph glyph-name="uni1EA1" unicode="&#x1ea1;" horiz-adv-x="364" 
d="M309 320v-210q0 -71 5 -110h-69l-5 51h-3q-33 -59 -97 -59q-49 0 -81.5 38t-32.5 100q0 86 58.5 130.5t147.5 45.5v15q0 53 -17.5 81t-59.5 28q-44 0 -80 -25l-17 54q45 32 113 32q138 0 138 -171zM234 153v98q-133 0 -133 -113q0 -44 17.5 -65t41.5 -21q26 0 45 19
t26 54q3 13 3 28zM179 -80q18 0 30 -12.5t12 -32.5q0 -19 -12 -31.5t-31 -12.5q-18 0 -31 12.5t-13 31.5t13 32t32 13z" />
    <glyph glyph-name="uni1EA2" unicode="&#x1ea2;" horiz-adv-x="435" 
d="M291 202h-150l-44 -202h-75l154 674h85l150 -674h-76zM152 264h128l-35 171q-10 49 -27 154h-3q-15 -95 -28 -154zM234 706l-41 9q5 15 25 38t20 40q0 13 -8 21t-21 8q-20 0 -42 -32l-28 21q29 58 85 58q30 0 50.5 -19t20.5 -45q0 -19 -10 -34.5t-26.5 -32.5t-24.5 -32z
" />
    <glyph glyph-name="uni1EA3" unicode="&#x1ea3;" horiz-adv-x="364" 
d="M309 320v-210q0 -71 5 -110h-69l-5 51h-3q-33 -59 -97 -59q-49 0 -81.5 38t-32.5 100q0 86 58.5 130.5t147.5 45.5v15q0 53 -17.5 81t-59.5 28q-44 0 -80 -25l-17 54q45 32 113 32q138 0 138 -171zM234 153v98q-133 0 -133 -113q0 -44 17.5 -65t41.5 -21q26 0 45 19
t26 54q3 13 3 28zM196 530l-41 9q5 19 26.5 46.5t21.5 46.5q0 15 -9 24.5t-23 9.5q-23 0 -39 -32l-28 21q25 59 81 59q33 0 54 -20t21 -50q0 -29 -28.5 -64.5t-35.5 -49.5z" />
    <glyph glyph-name="uni1EA4" unicode="&#x1ea4;" horiz-adv-x="435" 
d="M290 202h-149l-44 -202h-75l154 674h85l150 -674h-76zM152 264h128l-35 172q-10 48 -27 153h-4q-12 -85 -27 -154zM192 808h60l78 -98h-63l-44 57h-2l-43 -57h-62zM358 882h80l-100 -101h-47z" />
    <glyph glyph-name="uni1EA5" unicode="&#x1ea5;" horiz-adv-x="364" 
d="M309 320v-210q0 -71 5 -110h-69l-5 51h-3q-33 -59 -97 -59q-49 0 -81.5 38t-32.5 100q0 86 58.5 130.5t147.5 45.5v15q0 53 -17.5 81t-59.5 28q-44 0 -80 -25l-17 54q45 32 113 32q138 0 138 -171zM234 153v98q-133 0 -133 -113q0 -44 17.5 -65t41.5 -21q26 0 45 19
t26 54q3 13 3 28zM149 682h55l62 -135h-55l-33 84h-4l-31 -84h-56zM299 742h68l-77 -117h-41z" />
    <glyph glyph-name="uni1EA6" unicode="&#x1ea6;" horiz-adv-x="435" 
d="M290 202h-149l-44 -202h-75l154 674h84l150 -674h-76zM152 264h128l-35 172q-3 14 -28 153h-3q-14 -88 -27 -154zM236 868h80l66 -101h-46zM189 808h60l77 -98h-62l-44 57h-2l-44 -57h-61z" />
    <glyph glyph-name="uni1EA7" unicode="&#x1ea7;" horiz-adv-x="364" 
d="M309 320v-210q0 -71 5 -110h-69l-5 51h-3q-33 -59 -97 -59q-49 0 -81.5 38t-32.5 100q0 86 58.5 130.5t147.5 45.5v15q0 53 -17.5 81t-59.5 28q-44 0 -80 -25l-17 54q45 32 113 32q138 0 138 -171zM234 152v99q-133 0 -133 -113q0 -44 17.5 -65t41.5 -21q26 0 45 19
t26 54q3 13 3 27zM205 743h67l45 -117h-40zM151 682h54l62 -135h-55l-32 84h-4l-32 -84h-56z" />
    <glyph glyph-name="uni1EA8" unicode="&#x1ea8;" horiz-adv-x="435" 
d="M291 202h-150l-44 -202h-75l154 674h85l150 -674h-76zM152 264h128l-35 171q-10 49 -27 154h-3q-15 -95 -28 -154zM190 807h60l77 -97h-62l-44 57h-2l-44 -57h-61zM343 752l-36 9q5 15 25 37.5t20 38.5q0 13 -8 21t-21 8q-22 0 -42 -32l-26 20q27 55 82 55
q28 0 47.5 -17.5t19.5 -42.5t-28 -57t-33 -40z" />
    <glyph glyph-name="uni1EA9" unicode="&#x1ea9;" horiz-adv-x="364" 
d="M309 320v-210q0 -73 6 -110h-70l-5 51h-3q-33 -59 -97 -59q-49 0 -81.5 38t-32.5 100q0 86 58.5 130.5t147.5 45.5v15q0 53 -17.5 81t-59.5 28q-44 0 -80 -25l-17 54q45 32 113 32q138 0 138 -171zM234 152v99q-133 0 -133 -113q0 -44 17.5 -65t41.5 -21q26 0 45 19
t26 54q3 13 3 27zM148 682h54l62 -135h-55l-33 84h-3l-32 -84h-56zM290 625l-38 8q5 15 24.5 37t19.5 38q0 13 -8 21t-21 8q-20 0 -41 -31l-26 20q27 56 80 56q30 0 50 -18.5t20 -44.5q0 -19 -9.5 -33t-26 -30.5t-24.5 -30.5z" />
    <glyph glyph-name="uni1EAA" unicode="&#x1eaa;" horiz-adv-x="435" 
d="M291 202h-150l-44 -202h-75l154 674h85l150 -674h-76zM152 264h128l-35 171q-10 49 -27 154h-3q-15 -95 -28 -154zM186 808h66l87 -98h-67l-52 55h-2l-52 -55h-66zM155 820h-41q-1 35 15.5 60t45.5 25q18 0 48 -17t40 -17q24 0 25 35h41q0 -85 -63 -85q-19 0 -48 18
q-28 16 -38 16q-20 0 -25 -35z" />
    <glyph glyph-name="uni1EAB" unicode="&#x1eab;" horiz-adv-x="364" 
d="M309 320v-210q0 -71 5 -110h-69l-5 51h-3q-33 -59 -97 -59q-49 0 -81.5 38t-32.5 100q0 86 58.5 130.5t147.5 45.5v15q0 53 -17.5 81t-59.5 28q-44 0 -80 -25l-17 54q45 32 113 32q138 0 138 -171zM234 153v98q-133 0 -133 -113q0 -44 17.5 -65t41.5 -21q26 0 45 19
t26 54q3 13 3 28zM156 650h53l76 -104h-61l-40 60h-2l-41 -60h-61zM118 661h-41q-1 35 15.5 59.5t45.5 24.5q18 0 48 -17q28 -16 40 -16q24 0 25 35h41q0 -85 -63 -85q-17 0 -48 18q-28 16 -38 16q-20 0 -25 -35z" />
    <glyph glyph-name="uni1EAC" unicode="&#x1eac;" horiz-adv-x="435" 
d="M291 202h-150l-44 -202h-75l154 674h85l150 -674h-76zM152 264h128l-35 171q-10 49 -27 154h-3q-15 -95 -28 -154zM186 808h66l87 -98h-67l-52 55h-2l-52 -55h-66zM217 -169q-18 0 -31 13t-13 31q0 19 13 32t32 13t31.5 -13t12.5 -32q0 -18 -13 -31t-32 -13z" />
    <glyph glyph-name="uni1EAD" unicode="&#x1ead;" horiz-adv-x="364" 
d="M309 320v-210q0 -71 5 -110h-69l-5 51h-3q-33 -59 -97 -59q-49 0 -81.5 38t-32.5 100q0 86 58.5 130.5t147.5 45.5v15q0 53 -17.5 81t-59.5 28q-44 0 -80 -25l-17 54q45 32 113 32q138 0 138 -171zM234 153v98q-133 0 -133 -113q0 -44 17.5 -65t41.5 -21q26 0 45 19
t26 54q3 13 3 28zM156 682h52l79 -135h-58l-46 87h-2l-46 -87h-58zM179 -80q18 0 30 -12.5t12 -32.5q0 -19 -12 -31.5t-31 -12.5q-18 0 -31 12.5t-13 31.5t13 32t32 13z" />
    <glyph glyph-name="uni1EAE" unicode="&#x1eae;" horiz-adv-x="435" 
d="M290 202h-149l-44 -202h-75l154 674h85l150 -674h-76zM152 264h128l-35 171q-10 49 -27 154h-4q-11 -84 -27 -155zM114 785h40q11 -43 65 -43q57 0 68 43h40q-6 -41 -35.5 -65.5t-72.5 -24.5t-71.5 24t-33.5 66zM257 875h79l-99 -100h-47z" />
    <glyph glyph-name="uni1EAF" unicode="&#x1eaf;" horiz-adv-x="364" 
d="M309 320v-210q0 -71 5 -110h-69l-5 51h-3q-33 -59 -97 -59q-49 0 -81.5 38t-32.5 100q0 86 58.5 130.5t147.5 45.5v15q0 53 -17.5 81t-59.5 28q-44 0 -80 -25l-17 54q45 32 113 32q138 0 138 -171zM234 153v98q-133 0 -133 -113q0 -44 17.5 -65t41.5 -21q26 0 45 19
t26 54q3 13 3 28zM213 738h74l-92 -115h-47zM71 644h42q2 -27 20 -44t46 -17q31 0 49 16.5t20 44.5h42q1 -50 -30 -80.5t-81 -30.5t-79.5 31.5t-28.5 79.5z" />
    <glyph glyph-name="uni1EB0" unicode="&#x1eb0;" horiz-adv-x="435" 
d="M290 202h-149l-44 -202h-75l154 674h85l150 -674h-76zM152 264h128l-35 171q-10 49 -27 154h-4q-11 -84 -27 -155zM106 875h80l67 -100h-47zM111 785h40q11 -43 66 -43q56 0 67 43h40q-6 -41 -35 -65.5t-72 -24.5q-44 0 -72.5 24t-33.5 66z" />
    <glyph glyph-name="uni1EB1" unicode="&#x1eb1;" horiz-adv-x="364" 
d="M309 320v-210q0 -73 6 -110h-69l-5 51h-3q-35 -59 -97 -59q-50 0 -82.5 38t-32.5 100q0 86 58.5 130.5t147.5 45.5v15q0 53 -17.5 81t-60.5 28t-79 -25l-17 54q45 32 113 32q138 0 138 -171zM234 152v99q-20 0 -38 -3.5t-42 -13.5t-38.5 -34.5t-14.5 -61.5
q0 -44 17.5 -65t41.5 -21q26 0 45 19t26 54q3 13 3 27zM73 738h73l66 -114h-48zM72 645h42q3 -28 21 -45t46 -17q30 0 48.5 17t20.5 45h42q1 -50 -30 -81t-81 -31q-51 0 -80.5 31.5t-28.5 80.5z" />
    <glyph glyph-name="uni1EB2" unicode="&#x1eb2;" horiz-adv-x="435" 
d="M290 202h-149l-44 -202h-75l154 674h85l149 -674h-75zM152 264h128l-35 171q-10 49 -27 154h-3q-15 -95 -28 -154zM229 764l-36 9q5 15 25 37.5t20 38.5q0 13 -8 21t-21 8q-23 0 -42 -32l-26 20q27 56 82 56q28 0 47 -17.5t19 -43.5q0 -25 -28 -57t-32 -40zM112 786h40
q13 -44 66 -44q56 0 67 44h40q-6 -42 -35 -66t-72 -24q-44 0 -72 23.5t-34 66.5z" />
    <glyph glyph-name="uni1EB3" unicode="&#x1eb3;" horiz-adv-x="364" 
d="M309 320v-210q0 -73 6 -110h-70l-5 51h-3q-33 -59 -96 -59q-50 0 -82.5 38t-32.5 100q0 86 58.5 130.5t147.5 45.5v15q0 53 -17.5 81t-59.5 28q-44 0 -80 -25l-16 54q43 32 112 32q138 0 138 -171zM234 152v99q-133 0 -133 -113q0 -44 17.5 -65t41.5 -21q26 0 45 19
t26 54q3 13 3 27zM194 615l-38 8q5 15 24.5 37t19.5 39q0 12 -8.5 20t-21.5 8q-21 0 -40 -31l-26 20q27 56 80 56q30 0 50.5 -18t20.5 -45q0 -24 -27.5 -54t-33.5 -40zM73 644h42q2 -28 20 -45t46 -17q31 0 49 17t20 45h42q1 -50 -30 -81t-81 -31t-79.5 31.5t-28.5 80.5z
" />
    <glyph glyph-name="uni1EB4" unicode="&#x1eb4;" horiz-adv-x="435" 
d="M290 202h-149l-44 -202h-75l154 674h85l150 -674h-76zM152 264h128l-35 171q-10 49 -27 154h-4q-11 -84 -27 -155zM154 819h-43q2 30 17.5 52t43.5 22q18 0 48 -17q28 -16 40 -16q24 0 25 35h41q0 -85 -63 -85q-19 0 -48 18q-32 16 -38 16q-17 0 -23 -25zM109 785h40
q12 -43 66 -43q56 0 67 43h40q-6 -41 -35 -65.5t-72 -24.5q-44 0 -72.5 24t-33.5 66z" />
    <glyph glyph-name="uni1EB5" unicode="&#x1eb5;" horiz-adv-x="364" 
d="M309 320v-210q0 -71 5 -110h-69l-5 51h-3q-33 -59 -97 -59q-49 0 -81.5 38t-32.5 100q0 86 58.5 130.5t147.5 45.5v15q0 53 -17.5 81t-59.5 28q-44 0 -80 -25l-17 54q45 32 113 32q138 0 138 -171zM234 153v98q-133 0 -133 -113q0 -44 17.5 -65t41.5 -21q26 0 45 19
t26 54q3 13 3 28zM118 680h-43q2 30 17.5 52.5t43.5 22.5q18 0 48 -17t40 -17q24 0 25 35h41q0 -85 -63 -85q-19 0 -48 18q-28 16 -38 16q-17 0 -23 -25zM73 645h41q2 -27 20.5 -45t46.5 -18q30 0 48 17.5t20 45.5h41q1 -49 -29 -80.5t-80 -31.5t-79.5 31.5t-28.5 80.5z" />
    <glyph glyph-name="uni1EB6" unicode="&#x1eb6;" horiz-adv-x="435" 
d="M291 202h-150l-44 -202h-75l154 674h85l150 -674h-76zM152 264h128l-35 171q-10 49 -27 154h-3q-15 -95 -28 -154zM113 811h45q8 -43 61 -43t62 43h45q0 -43 -28.5 -69.5t-77.5 -26.5q-50 0 -78.5 25.5t-28.5 70.5zM217 -169q-18 0 -31 13t-13 31q0 19 13 32t32 13
t31.5 -13t12.5 -32q0 -18 -13 -31t-32 -13z" />
    <glyph glyph-name="uni1EB7" unicode="&#x1eb7;" horiz-adv-x="364" 
d="M309 320v-210q0 -71 5 -110h-69l-5 51h-3q-33 -59 -97 -59q-49 0 -81.5 38t-32.5 100q0 86 58.5 130.5t147.5 45.5v15q0 53 -17.5 81t-59.5 28q-44 0 -80 -25l-17 54q45 32 113 32q138 0 138 -171zM234 153v98q-133 0 -133 -113q0 -44 17.5 -65t41.5 -21q26 0 45 19
t26 54q3 13 3 28zM76 669h43q2 -27 19 -44t43 -17q29 0 46 17t18 44h43q2 -49 -27.5 -81t-79.5 -32t-78.5 32t-26.5 81zM179 -80q18 0 30 -12.5t12 -32.5q0 -19 -12 -31.5t-31 -12.5q-18 0 -31 12.5t-13 31.5t13 32t32 13z" />
    <glyph glyph-name="uni1EB8" unicode="&#x1eb8;" horiz-adv-x="354" 
d="M306 385v-65h-169v-253h192v-67h-269v674h257v-67h-180v-222h169zM176 -169q-18 0 -31 13t-13 31q0 19 13 32t32 13t31.5 -13t12.5 -32q0 -18 -13 -31t-32 -13z" />
    <glyph glyph-name="uni1EB9" unicode="&#x1eb9;" horiz-adv-x="363" 
d="M332 235h-224q0 -180 114 -180q46 0 80 18l13 -56q-44 -23 -107 -23q-85 0 -130.5 65t-45.5 178q0 117 45.5 186t118.5 69q69 0 103.5 -61.5t34.5 -151.5q0 -20 -2 -44zM109 292h151q1 68 -20.5 104t-51.5 36q-36 0 -56 -42t-23 -98zM179 -81q18 0 30 -12.5t12 -31.5
q0 -20 -12 -32.5t-31 -12.5q-18 0 -31 13t-13 32t13 31.5t32 12.5z" />
    <glyph glyph-name="uni1EBA" unicode="&#x1eba;" horiz-adv-x="354" 
d="M306 385v-65h-169v-253h192v-67h-269v674h257v-67h-180v-222h169zM205 706l-41 9q5 15 25 38t20 40q0 13 -8 21t-21 8q-20 0 -42 -32l-28 21q29 58 85 58q30 0 50.5 -18.5t20.5 -45.5q0 -25 -27.5 -57t-33.5 -42z" />
    <glyph glyph-name="uni1EBB" unicode="&#x1ebb;" horiz-adv-x="363" 
d="M332 235h-224q0 -180 114 -180q46 0 80 18l13 -56q-44 -23 -107 -23q-85 0 -130.5 65t-45.5 178q0 116 45.5 185t118.5 69q69 0 103.5 -61.5t34.5 -150.5q0 -20 -2 -44zM109 292h151q1 68 -20.5 103.5t-51.5 35.5q-36 0 -56 -41.5t-23 -97.5zM195 530l-41 9q5 18 27 46
t22 47q0 15 -9 24.5t-24 9.5q-20 0 -39 -32l-28 21q25 59 81 59q33 0 54 -20t21 -50q0 -29 -29 -65t-35 -49z" />
    <glyph glyph-name="uni1EBC" unicode="&#x1ebc;" horiz-adv-x="354" 
d="M306 385v-65h-169v-253h192v-67h-269v674h257v-67h-180v-222h169zM124 718h-41q-1 43 15 68.5t44 25.5q18 0 48 -17q30 -18 39 -18q13 0 19 8t8 29h40q2 -90 -62 -90q-24 0 -49 17q-28 16 -37 16q-20 0 -24 -39z" />
    <glyph glyph-name="uni1EBD" unicode="&#x1ebd;" horiz-adv-x="363" 
d="M332 235h-224q0 -180 114 -180q46 0 80 18l13 -56q-44 -23 -107 -23q-85 0 -130.5 65t-45.5 178q0 116 45.5 185t118.5 69q69 0 103.5 -61.5t34.5 -150.5q0 -20 -2 -44zM109 292h151q1 68 -20.5 103.5t-51.5 35.5q-36 0 -56 -41.5t-23 -97.5zM116 561h-43
q-1 41 15.5 67.5t46.5 26.5q21 0 49 -18q30 -17 40 -17q24 0 25 36h41q0 -89 -63 -89q-19 0 -49 17t-38 17q-21 0 -24 -40z" />
    <glyph glyph-name="uni1EBE" unicode="&#x1ebe;" horiz-adv-x="354" 
d="M306 385v-65h-169v-253h192v-67h-269v674h257v-67h-180v-222h169zM162 808h60l77 -98h-63l-43 57h-2l-44 -57h-61zM327 882h80l-100 -101h-46z" />
    <glyph glyph-name="uni1EBF" unicode="&#x1ebf;" horiz-adv-x="363" 
d="M332 235h-224q0 -180 114 -180q46 0 80 18l13 -56q-44 -23 -107 -23q-85 0 -130.5 65t-45.5 178q0 116 45.5 185t118.5 69q69 0 103.5 -61.5t34.5 -150.5q0 -20 -2 -44zM109 292h151q1 68 -20.5 103.5t-51.5 35.5q-36 0 -56 -41.5t-23 -97.5zM169 682h55l62 -135h-55
l-33 84h-3l-32 -84h-56zM319 742h68l-77 -117h-41z" />
    <glyph glyph-name="uni1EC0" unicode="&#x1ec0;" horiz-adv-x="354" 
d="M306 385v-65h-169v-253h192v-67h-269v674h257v-67h-180v-222h169zM203 867h80l66 -100h-46zM156 808h60l77 -98h-63l-43 57h-2l-44 -57h-61z" />
    <glyph glyph-name="uni1EC1" unicode="&#x1ec1;" horiz-adv-x="363" 
d="M332 235h-224q0 -180 114 -180q46 0 80 18l13 -56q-44 -23 -107 -23q-85 0 -130.5 65t-45.5 178q0 116 45.5 185t118.5 69q69 0 103.5 -61.5t34.5 -150.5q0 -20 -2 -44zM109 292h151q1 68 -20.5 103.5t-51.5 35.5q-36 0 -56 -41.5t-23 -97.5zM223 743h68l45 -117h-41z
M169 682h54l62 -135h-55l-32 84h-4l-32 -84h-56z" />
    <glyph glyph-name="uni1EC2" unicode="&#x1ec2;" horiz-adv-x="354" 
d="M306 385v-65h-168v-253h192v-67h-269v674h256v-67h-179v-222h168zM159 808h61l77 -98h-63l-44 57h-2l-43 -57h-62zM312 752l-36 9q5 15 25 37.5t20 38.5q0 13 -8 21t-21 8q-22 0 -42 -32l-26 20q27 56 82 56q28 0 47.5 -17.5t19.5 -43.5q0 -25 -28 -57t-33 -40z" />
    <glyph glyph-name="uni1EC3" unicode="&#x1ec3;" horiz-adv-x="363" 
d="M333 235h-225q0 -180 114 -180q46 0 80 18l13 -56q-44 -23 -107 -23q-85 0 -130.5 65t-45.5 178q0 116 45.5 185t118.5 69q69 0 103.5 -61.5t34.5 -150.5q0 -10 -0.5 -24.5t-0.5 -19.5zM109 292h151q1 68 -20.5 103.5t-51.5 35.5q-36 0 -56 -41.5t-23 -97.5zM161 682h55
l62 -135h-55l-33 84h-3l-33 -84h-56zM305 625l-39 8q5 15 24.5 37t19.5 38q0 13 -8 21t-21 8q-20 0 -41 -31l-26 20q27 56 80 56q30 0 50 -18.5t20 -44.5q0 -19 -9.5 -33t-25.5 -30.5t-24 -30.5z" />
    <glyph glyph-name="uni1EC4" unicode="&#x1ec4;" horiz-adv-x="354" 
d="M306 385v-65h-169v-253h192v-67h-269v674h257v-67h-180v-222h169zM159 808h66l87 -98h-67l-52 55h-2l-52 -55h-66zM128 820h-41q-1 35 15.5 60t45.5 25q18 0 48 -17t40 -17q24 0 25 35h41q0 -85 -63 -85q-19 0 -48 18q-28 16 -38 16q-20 0 -25 -35z" />
    <glyph glyph-name="uni1EC5" unicode="&#x1ec5;" horiz-adv-x="363" 
d="M332 235h-224q0 -180 114 -180q46 0 80 18l13 -56q-44 -23 -107 -23q-85 0 -130.5 65t-45.5 178q0 116 45.5 185t118.5 69q69 0 103.5 -61.5t34.5 -150.5q0 -20 -2 -44zM109 292h151q1 68 -20.5 103.5t-51.5 35.5q-36 0 -56 -41.5t-23 -97.5zM168 650h53l76 -104h-61
l-41 60h-2l-40 -60h-61zM130 661h-41q-1 35 15.5 59.5t45.5 24.5q18 0 48 -17q28 -16 40 -16q24 0 25 35h41q0 -85 -63 -85q-17 0 -48 18q-28 16 -38 16q-20 0 -25 -35z" />
    <glyph glyph-name="uni1EC6" unicode="&#x1ec6;" horiz-adv-x="354" 
d="M306 385v-65h-169v-253h192v-67h-269v674h257v-67h-180v-222h169zM156 808h66l87 -98h-67l-52 55h-2l-52 -55h-66zM189 -169q-18 0 -31 13t-13 31q0 19 13 32t32 13t31.5 -13t12.5 -32q0 -18 -13 -31t-32 -13z" />
    <glyph glyph-name="uni1EC7" unicode="&#x1ec7;" horiz-adv-x="363" 
d="M332 235h-224q0 -180 114 -180q46 0 80 18l13 -56q-44 -23 -107 -23q-85 0 -130.5 65t-45.5 178q0 117 45.5 186t118.5 69q69 0 103.5 -61.5t34.5 -151.5q0 -20 -2 -44zM109 292h151q1 68 -20.5 104t-51.5 36q-36 0 -56 -42t-23 -98zM155 682h52l79 -135h-58l-46 87h-2
l-46 -87h-58zM179 -79q17 0 29.5 -13t12.5 -32t-12 -32t-31 -13q-18 0 -31 13t-13 32t13 32t32 13z" />
    <glyph glyph-name="uni1EC8" unicode="&#x1ec8;" horiz-adv-x="199" 
d="M60 674h77v-674h-77v674zM115 706l-41 9q6 15 26 38t20 40q0 13 -8 21t-21 8q-22 0 -42 -32l-28 21q27 58 85 58q30 0 50 -18.5t20 -45.5q0 -19 -9.5 -34.5t-26.5 -32.5t-25 -32z" />
    <glyph glyph-name="uni1EC9" unicode="&#x1ec9;" horiz-adv-x="184" 
d="M131 0h-77v484h77v-484zM107 531l-41 9q5 18 26.5 46t21.5 47q0 15 -8.5 24.5t-23.5 9.5q-22 0 -39 -32l-29 21q27 59 82 59q33 0 54 -20t21 -50q0 -29 -29 -65t-35 -49z" />
    <glyph glyph-name="uni1ECA" unicode="&#x1eca;" horiz-adv-x="199" 
d="M60 674h77v-674h-77v674zM99 -169q-18 0 -31 13t-13 31q0 19 13 32t32 13t31.5 -13t12.5 -32q0 -18 -13 -31t-32 -13z" />
    <glyph glyph-name="uni1ECB" unicode="&#x1ecb;" horiz-adv-x="184" 
d="M131 0h-77v484h77v-484zM91 659q21 0 33.5 -13.5t12.5 -36.5t-12.5 -36.5t-34.5 -13.5q-19 0 -31.5 14t-12.5 36t13 36t32 14zM90 -80q18 0 30 -12.5t12 -32.5q0 -19 -12 -31.5t-31 -12.5q-18 0 -31 12.5t-13 31.5t13 32t32 13z" />
    <glyph glyph-name="uni1ECC" unicode="&#x1ecc;" horiz-adv-x="446" 
d="M230 682q86 0 135 -89.5t49 -250.5q0 -180 -53.5 -265t-141.5 -85q-86 0 -136.5 89.5t-50.5 256.5q0 164 54 254t144 90zM224 614q-40 0 -66.5 -42t-36 -101.5t-9.5 -133.5q0 -55 6 -102.5t18.5 -88t35 -63.5t53.5 -23t53 24.5t34 66.5t17 88t5 100q0 51 -5 96.5
t-17 87.5t-34.5 66.5t-53.5 24.5zM222 -169q-18 0 -31 13t-13 31q0 19 13 32t32 13t31.5 -13t12.5 -32q0 -18 -13 -31t-32 -13z" />
    <glyph glyph-name="uni1ECD" unicode="&#x1ecd;" horiz-adv-x="383" 
d="M195 491q69 0 112.5 -64t43.5 -185q0 -129 -48 -189.5t-113 -60.5q-69 0 -113 63.5t-44 185.5q0 124 47 187t115 63zM192 430q-24 0 -41.5 -18.5t-25.5 -48.5t-11.5 -59.5t-3.5 -61.5q0 -34 3.5 -64t12 -60t26 -47.5t42.5 -17.5q31 0 50 33t24.5 72t5.5 84
q0 32 -3.5 61.5t-12 59.5t-25.5 48.5t-41 18.5zM189 -80q17 0 29.5 -13t12.5 -32t-12 -32t-31 -13q-18 0 -31 13t-13 32t13 32t32 13z" />
    <glyph glyph-name="uni1ECE" unicode="&#x1ece;" horiz-adv-x="446" 
d="M230 682q86 0 135 -89.5t49 -250.5q0 -180 -53.5 -265t-141.5 -85q-86 0 -136.5 89.5t-50.5 256.5q0 164 54 254t144 90zM224 614q-40 0 -66.5 -42t-36 -101.5t-9.5 -133.5q0 -55 6 -102.5t18.5 -88t35 -63.5t53.5 -23t53 24.5t34 66.5t17 88t5 100q0 51 -5 96.5
t-17 87.5t-34.5 66.5t-53.5 24.5zM238 706l-40 9q5 15 25 38t20 40q0 13 -8 21t-21 8q-22 0 -42 -32l-28 21q29 58 85 58q30 0 50.5 -18.5t20.5 -45.5q0 -19 -10 -34t-27 -32.5t-25 -32.5z" />
    <glyph glyph-name="uni1ECF" unicode="&#x1ecf;" horiz-adv-x="383" 
d="M195 491q69 0 112.5 -64t43.5 -185q0 -129 -48 -189.5t-113 -60.5q-69 0 -113 63.5t-44 185.5q0 124 47 187t115 63zM192 430q-24 0 -41.5 -18.5t-25.5 -48.5t-11.5 -59.5t-3.5 -61.5q0 -34 3.5 -64t12 -60t26 -47.5t42.5 -17.5q31 0 50 33t24.5 72t5.5 84
q0 32 -3.5 61.5t-12 59.5t-25.5 48.5t-41 18.5zM206 530l-42 8q5 19 27 47t22 47q0 15 -8.5 24t-23.5 9q-22 0 -40 -32l-28 22q27 59 82 59q33 0 54 -20t21 -50q0 -29 -29 -65t-35 -49z" />
    <glyph glyph-name="uni1ED0" unicode="&#x1ed0;" horiz-adv-x="446" 
d="M229 682q86 0 135 -89.5t50 -250.5q0 -180 -53.5 -265t-141.5 -85q-86 0 -136.5 89.5t-50.5 256.5q0 164 54 254t143 90zM223 614q-31 0 -53 -23.5t-34.5 -64t-18 -87.5t-5.5 -102t6 -102.5t18.5 -88t35 -63.5t53.5 -23t53 24.5t34 66.5t17 88t5 100q0 52 -5 97t-17 87
t-35 66.5t-54 24.5zM200 808h60l77 -98h-62l-44 57h-2l-44 -57h-61zM365 882h80l-100 -101h-46z" />
    <glyph glyph-name="uni1ED1" unicode="&#x1ed1;" horiz-adv-x="383" 
d="M195 491q69 0 112.5 -64t43.5 -185q0 -129 -48 -189.5t-113 -60.5q-69 0 -113 63.5t-44 185.5q0 124 47 187t115 63zM192 430q-24 0 -41.5 -18.5t-25.5 -48.5t-11.5 -59.5t-3.5 -61.5q0 -34 3.5 -64t12 -60t26 -47.5t42.5 -17.5q31 0 50 33t24.5 72t5.5 84
q0 32 -3.5 61.5t-12 59.5t-25.5 48.5t-41 18.5zM168 682h54l62 -135h-55l-32 84h-4l-32 -84h-56zM317 742h68l-77 -117h-41z" />
    <glyph glyph-name="uni1ED2" unicode="&#x1ed2;" horiz-adv-x="446" 
d="M230 682q86 0 135 -89.5t49 -250.5q0 -180 -53.5 -265t-141.5 -85q-86 0 -136.5 89.5t-50.5 256.5q0 164 54 254t144 90zM224 614q-40 0 -66.5 -42t-36 -101.5t-9.5 -133.5q0 -55 6 -102.5t18.5 -88t35 -63.5t53.5 -23t53 24.5t34 66.5t17 88t5 100q0 52 -5 97t-17 87
t-34.5 66.5t-53.5 24.5zM244 867h80l66 -100h-46zM197 808h60l77 -98h-62l-44 57h-2l-44 -57h-61z" />
    <glyph glyph-name="uni1ED3" unicode="&#x1ed3;" horiz-adv-x="383" 
d="M195 491q69 0 112.5 -64t43.5 -185q0 -129 -48 -189.5t-113 -60.5q-69 0 -113 63.5t-44 185.5q0 124 47 187t115 63zM192 430q-24 0 -41.5 -18.5t-25.5 -48.5t-11.5 -59.5t-3.5 -61.5q0 -34 3.5 -64t12 -60t26 -47.5t42.5 -17.5q31 0 50 33t24.5 72t5.5 84
q0 32 -3.5 61.5t-12 59.5t-25.5 48.5t-41 18.5zM223 743h68l45 -117h-40zM169 682h54l63 -135h-56l-32 84h-4l-32 -84h-56z" />
    <glyph glyph-name="uni1ED4" unicode="&#x1ed4;" horiz-adv-x="446" 
d="M230 682q86 0 135 -89.5t49 -250.5q0 -180 -53.5 -265t-141.5 -85q-86 0 -136.5 89.5t-50.5 256.5q0 164 54 254t144 90zM224 614q-40 0 -66.5 -42t-36 -101.5t-9.5 -133.5q0 -55 6 -102.5t18.5 -88t35 -63.5t53.5 -23t53 24.5t34 66.5t17 88t5 100q0 51 -5 96.5
t-17 87.5t-34.5 66.5t-53.5 24.5zM196 808h60l77 -98h-62l-44 57h-2l-44 -57h-61zM349 753l-36 8q5 15 24.5 37.5t19.5 39.5q0 12 -7.5 20t-20.5 8q-22 0 -43 -31l-26 19q29 56 83 56q28 0 47 -17.5t19 -42.5q0 -20 -9.5 -35t-26 -32t-24.5 -30z" />
    <glyph glyph-name="uni1ED5" unicode="&#x1ed5;" horiz-adv-x="383" 
d="M195 491q69 0 112.5 -64t43.5 -185q0 -129 -48 -189.5t-113 -60.5q-69 0 -113 63.5t-44 185.5q0 124 47 187t115 63zM192 430q-24 0 -41.5 -18.5t-25.5 -48.5t-11.5 -59.5t-3.5 -61.5q0 -34 3.5 -64t12 -60t26 -47.5t42.5 -17.5q31 0 50 33t24.5 72t5.5 84
q0 32 -3.5 61.5t-12 59.5t-25.5 48.5t-41 18.5zM167 682h54l63 -135h-56l-32 84h-3l-33 -84h-56zM310 625l-38 8q5 15 24.5 37t19.5 38q0 13 -8 21t-21 8q-20 0 -41 -31l-26 20q27 56 80 56q30 0 50 -18.5t20 -44.5q0 -19 -9.5 -33t-26 -30.5t-24.5 -30.5z" />
    <glyph glyph-name="uni1ED6" unicode="&#x1ed6;" horiz-adv-x="446" 
d="M230 682q86 0 135 -89.5t49 -250.5q0 -180 -53.5 -265t-141.5 -85q-86 0 -136.5 89.5t-50.5 256.5q0 164 54 254t144 90zM224 614q-40 0 -66.5 -42t-36 -101.5t-9.5 -133.5q0 -55 6 -102.5t18.5 -88t35 -63.5t53.5 -23t53 24.5t34 66.5t17 88t5 100q0 51 -5 96.5
t-17 87.5t-34.5 66.5t-53.5 24.5zM192 808h66l87 -98h-67l-52 55h-2l-52 -55h-66zM161 820h-41q-1 35 15.5 60t45.5 25q18 0 48 -17t40 -17q24 0 25 35h41q0 -85 -63 -85q-19 0 -48 18q-28 16 -38 16q-20 0 -25 -35z" />
    <glyph glyph-name="uni1ED7" unicode="&#x1ed7;" horiz-adv-x="383" 
d="M195 491q69 0 112.5 -64t43.5 -185q0 -129 -48 -189.5t-113 -60.5q-69 0 -113 63.5t-44 185.5q0 124 47 187t115 63zM192 430q-24 0 -41.5 -18.5t-25.5 -48.5t-11.5 -59.5t-3.5 -61.5q0 -34 3.5 -64t12 -60t26 -47.5t42.5 -17.5q31 0 50 33t24.5 72t5.5 84
q0 32 -3.5 61.5t-12 59.5t-25.5 48.5t-41 18.5zM166 650h53l76 -104h-61l-40 60h-2l-41 -60h-61zM128 661h-41q-1 35 15.5 59.5t45.5 24.5q18 0 48 -17q28 -16 40 -16q24 0 25 35h41q0 -85 -63 -85q-17 0 -48 18q-28 16 -38 16q-20 0 -25 -35z" />
    <glyph glyph-name="uni1ED8" unicode="&#x1ed8;" horiz-adv-x="446" 
d="M230 682q86 0 135 -89.5t49 -250.5q0 -180 -53.5 -265t-141.5 -85q-86 0 -136.5 89.5t-50.5 256.5q0 164 54 254t144 90zM224 614q-40 0 -66.5 -42t-36 -101.5t-9.5 -133.5q0 -55 6 -102.5t18.5 -88t35 -63.5t53.5 -23t53 24.5t34 66.5t17 88t5 100q0 51 -5 96.5
t-17 87.5t-34.5 66.5t-53.5 24.5zM191 808h66l87 -98h-67l-52 55h-2l-52 -55h-66zM222 -169q-18 0 -31 13t-13 31q0 19 13 32t32 13t31.5 -13t12.5 -32q0 -18 -13 -31t-32 -13z" />
    <glyph glyph-name="uni1ED9" unicode="&#x1ed9;" horiz-adv-x="383" 
d="M195 491q69 0 112.5 -64t43.5 -185q0 -129 -48 -189.5t-113 -60.5q-69 0 -113 63.5t-44 185.5q0 124 47 187t115 63zM192 430q-24 0 -41.5 -18.5t-25.5 -48.5t-11.5 -59.5t-3.5 -61.5q0 -34 3.5 -64t12 -60t26 -47.5t42.5 -17.5q31 0 50 33t24.5 72t5.5 84
q0 32 -3.5 61.5t-12 59.5t-25.5 48.5t-41 18.5zM166 682h52l79 -135h-58l-46 87h-2l-46 -87h-58zM189 -79q17 0 29.5 -13t12.5 -32t-12 -32t-31 -13q-18 0 -31 13t-13 32t13 32t32 13z" />
    <glyph glyph-name="uni1EDA" unicode="&#x1eda;" horiz-adv-x="446" 
d="M225 60q31 0 53 24.5t34 66.5t17 88t5 100q0 51 -5 96.5t-17 87.5t-34.5 66.5t-53.5 24.5q-41 0 -67.5 -44t-35.5 -102.5t-9 -129.5q-1 -115 26 -196.5t87 -81.5zM361 728l59 10q16 -30 16 -67q0 -34 -18.5 -57t-53.5 -22q50 -87 50 -250q0 -180 -53.5 -265t-141.5 -85
q-86 0 -136.5 89.5t-50.5 256.5q0 164 54 254t144 90q37 0 71 -18l16 -9l13.5 -7.5t9.5 -4.5t10 -2q26 0 26 31q0 24 -15 56zM271 818h91l-124 -108h-61z" />
    <glyph glyph-name="uni1EDB" unicode="&#x1edb;" horiz-adv-x="383" 
d="M192 430q-24 0 -41.5 -18.5t-25.5 -48.5t-11.5 -59.5t-3.5 -61.5q0 -34 3.5 -64t12 -60t26 -47.5t42.5 -17.5q31 0 50 33t24.5 72t5.5 84q0 32 -3.5 61.5t-12 59.5t-25.5 48.5t-41 18.5zM315 548l58 9q17 -30 17 -67q0 -36 -19.5 -56t-55.5 -20q36 -63 36 -172
q0 -129 -48 -189.5t-113 -60.5q-69 0 -113 63.5t-44 185.5q0 124 47 187t115 63q24 0 56 -12q3 -1 10.5 -5t12.5 -6t12.5 -4t14.5 -2q29 0 29 32q0 26 -15 54zM231 682h79l-105 -135h-51z" />
    <glyph glyph-name="uni1EDC" unicode="&#x1edc;" horiz-adv-x="446" 
d="M225 60q31 0 53 24.5t34 66.5t17 88t5 100q0 51 -5 96.5t-17 87.5t-34.5 66.5t-53.5 24.5q-41 0 -67.5 -44t-35.5 -102.5t-9 -129.5q-1 -115 26 -196.5t87 -81.5zM361 728l59 10q16 -30 16 -67q0 -34 -18.5 -57t-53.5 -22q50 -87 50 -250q0 -180 -53.5 -265t-141.5 -85
q-86 0 -136.5 89.5t-50.5 256.5q0 164 54 254t144 90q37 0 71 -18l16 -9l13.5 -7.5t9.5 -4.5t10 -2q26 0 26 31q0 24 -15 56zM96 818h91l94 -108h-61z" />
    <glyph glyph-name="uni1EDD" unicode="&#x1edd;" horiz-adv-x="383" 
d="M192 430q-24 0 -41.5 -18.5t-25.5 -48.5t-11.5 -59.5t-3.5 -61.5q0 -34 3.5 -64t12 -60t26 -47.5t42.5 -17.5q31 0 50 33t24.5 72t5.5 84q0 32 -3.5 61.5t-12 59.5t-25.5 48.5t-41 18.5zM315 548l58 9q17 -30 17 -67q0 -36 -19.5 -56t-55.5 -20q36 -63 36 -172
q0 -129 -48 -189.5t-113 -60.5q-69 0 -113 63.5t-44 185.5q0 124 47 187t115 63q24 0 56 -12q3 -1 10.5 -5t12.5 -6t12.5 -4t14.5 -2q29 0 29 32q0 26 -15 54zM87 682h79l77 -135h-51z" />
    <glyph glyph-name="uni1EDE" unicode="&#x1ede;" horiz-adv-x="446" 
d="M225 60q31 0 53 24.5t34 66.5t17 88t5 100q0 51 -5 96.5t-17 87.5t-34.5 66.5t-53.5 24.5q-41 0 -67.5 -44t-35.5 -102.5t-9 -129.5q-1 -115 26 -196.5t87 -81.5zM361 728l59 10q16 -30 16 -67q0 -34 -18.5 -57t-53.5 -22q50 -87 50 -250q0 -180 -53.5 -265t-141.5 -85
q-86 0 -136.5 89.5t-50.5 256.5q0 164 54 254t144 90q37 0 71 -18l16 -9l13.5 -7.5t9.5 -4.5t10 -2q26 0 26 31q0 24 -15 56zM238 706l-40 9q5 15 25 38t20 40q0 13 -8 21t-21 8q-22 0 -42 -32l-28 21q29 58 85 58q30 0 50.5 -18.5t20.5 -45.5q0 -19 -10 -34t-27 -32.5
t-25 -32.5z" />
    <glyph glyph-name="uni1EDF" unicode="&#x1edf;" horiz-adv-x="383" 
d="M192 430q-24 0 -41.5 -18.5t-25.5 -48.5t-11.5 -59.5t-3.5 -61.5q0 -34 3.5 -64t12 -60t26 -47.5t42.5 -17.5q31 0 50 33t24.5 72t5.5 84q0 32 -3.5 61.5t-12 59.5t-25.5 48.5t-41 18.5zM315 547l58 9q17 -30 17 -66t-19.5 -56t-55.5 -20q36 -63 36 -172
q0 -129 -48 -189.5t-113 -60.5q-69 0 -113 63.5t-44 185.5q0 124 47 187t115 63q24 0 56 -12q3 -1 10.5 -5t12.5 -6t12.5 -4t14.5 -2q29 0 29 31q0 26 -15 54zM206 530l-42 8q5 19 27 47t22 47q0 14 -9 23.5t-23 9.5q-22 0 -40 -32l-28 22q25 59 82 59q33 0 54 -20t21 -50
q0 -29 -29 -65t-35 -49z" />
    <glyph glyph-name="uni1EE0" unicode="&#x1ee0;" horiz-adv-x="446" 
d="M225 60q31 0 53 24.5t34 66.5t17 88t5 100q0 52 -5 97t-17 87t-35 66.5t-54 24.5t-54 -24.5t-35 -66t-17 -87.5t-5 -98q-1 -115 26 -196.5t87 -81.5zM361 727l59 10q16 -28 16 -66q0 -34 -18.5 -57t-53.5 -22q50 -89 50 -251q0 -179 -53.5 -264t-141.5 -85
q-86 0 -136.5 89.5t-50.5 256.5q0 164 54 254t144 90q38 0 71 -19l16 -9l13.5 -7.5t9.5 -4.5t10 -2q26 0 26 32q0 23 -15 55zM158 718h-41q-1 42 15 67.5t44 26.5q18 0 48 -17q28 -18 39 -18q13 0 19 8t8 29h40q2 -90 -63 -91q-21 0 -49 18q-26 16 -36 16q-20 0 -24 -39z
" />
    <glyph glyph-name="uni1EE1" unicode="&#x1ee1;" horiz-adv-x="383" 
d="M192 430q-24 0 -41 -18.5t-25.5 -48.5t-12 -59.5t-3.5 -61.5q0 -34 3.5 -64t12 -60t26 -47.5t42.5 -17.5q23 0 40 18t25 48.5t11.5 60t3.5 62.5q0 32 -3.5 61.5t-12 59.5t-25.5 48.5t-41 18.5zM315 547l58 10q17 -30 17 -67q0 -36 -19.5 -56t-55.5 -20q36 -63 36 -172
q0 -129 -48 -189.5t-113 -60.5q-69 0 -113 63.5t-44 185.5q0 124 47 187t115 63q23 0 55 -12q3 -1 10.5 -5t12.5 -6t13 -4t15 -2q28 0 29 32q0 25 -15 53zM126 561h-43q-1 41 15.5 67.5t46.5 26.5q21 0 49 -18q30 -17 39 -17q24 0 25 36h41q0 -89 -63 -89q-20 0 -48 17
q-4 2 -10 6t-10 6t-8.5 3.5t-9.5 1.5q-21 0 -24 -40z" />
    <glyph glyph-name="uni1EE2" unicode="&#x1ee2;" horiz-adv-x="446" 
d="M225 60q31 0 53 24.5t34 66.5t17 88t5 100q0 51 -5 96.5t-17 87.5t-34.5 66.5t-53.5 24.5q-41 0 -67.5 -44t-35.5 -102.5t-9 -129.5q-1 -115 26 -196.5t87 -81.5zM361 728l59 10q16 -30 16 -67q0 -34 -18.5 -57t-53.5 -22q50 -87 50 -250q0 -180 -53.5 -265t-141.5 -85
q-86 0 -136.5 89.5t-50.5 256.5q0 164 54 254t144 90q37 0 71 -18l16 -9l13.5 -7.5t9.5 -4.5t10 -2q26 0 26 31q0 24 -15 56zM222 -169q-18 0 -31 13t-13 31q0 19 13 32t32 13t31.5 -13t12.5 -32q0 -18 -13 -31t-32 -13z" />
    <glyph glyph-name="uni1EE3" unicode="&#x1ee3;" horiz-adv-x="383" 
d="M192 430q-24 0 -41.5 -18.5t-25.5 -48.5t-11.5 -59.5t-3.5 -61.5q0 -34 3.5 -64t12 -60t26 -47.5t42.5 -17.5q31 0 50 33t24.5 72t5.5 84q0 32 -3.5 61.5t-12 59.5t-25.5 48.5t-41 18.5zM315 547l58 9q17 -30 17 -66t-19.5 -56t-55.5 -20q36 -63 36 -172
q0 -129 -48 -189.5t-113 -60.5q-69 0 -113 63.5t-44 185.5q0 124 47 187t115 63q24 0 56 -12q3 -1 10.5 -5t12.5 -6t12.5 -4t14.5 -2q29 0 29 31q0 26 -15 54zM192 -80q18 0 30 -12.5t12 -32.5q0 -19 -12 -31.5t-31 -12.5q-18 0 -31 12.5t-13 31.5t13 32t32 13z" />
    <glyph glyph-name="uni1EE4" unicode="&#x1ee4;" horiz-adv-x="457" 
d="M59 674h77v-452q0 -162 91 -162q94 0 94 162v452h77v-440q0 -125 -46 -183.5t-126 -58.5q-167 0 -167 233v449zM228 -169q-18 0 -31 13t-13 31q0 19 13 32t32 13t31.5 -13t12.5 -32q0 -18 -13 -31t-32 -13z" />
    <glyph glyph-name="uni1EE5" unicode="&#x1ee5;" horiz-adv-x="398" 
d="M344 484v-352q0 -32 2 -81.5t2 -50.5h-67l-6 51h-2q-13 -22 -40.5 -40.5t-62.5 -18.5q-118 0 -118 186v306h77v-295q0 -64 14 -98t51 -34q30 0 47.5 21t21.5 43q4 17 4 44v319h77zM196 -80q18 0 30 -12.5t12 -32.5q0 -19 -12 -31.5t-31 -12.5q-18 0 -31 12.5t-13 31.5
t13 32t32 13z" />
    <glyph glyph-name="uni1EE6" unicode="&#x1ee6;" horiz-adv-x="457" 
d="M59 674h77v-452q0 -162 91 -162q94 0 94 162v452h77v-440q0 -125 -46 -183.5t-126 -58.5q-167 0 -167 233v449zM244 706l-40 9q5 15 25 38t20 40q0 13 -8 21t-21 8q-22 0 -42 -32l-28 21q29 58 85 58q30 0 50 -18.5t20 -45.5q0 -19 -9.5 -34.5t-26.5 -32.5t-25 -32z" />
    <glyph glyph-name="uni1EE7" unicode="&#x1ee7;" horiz-adv-x="398" 
d="M344 484v-352q0 -32 2 -81.5t2 -50.5h-67l-6 51h-2q-13 -22 -40.5 -40.5t-62.5 -18.5q-118 0 -118 186v306h77v-295q0 -64 14 -98t51 -34q30 0 47.5 21t21.5 43q4 17 4 44v319h77zM213 531l-42 9q5 18 27 46t22 47q0 15 -9 24.5t-23 9.5q-22 0 -39 -32l-29 21
q27 59 82 59q32 0 53.5 -20t21.5 -50q0 -29 -29 -65t-35 -49z" />
    <glyph glyph-name="uni1EE8" unicode="&#x1ee8;" horiz-adv-x="474" 
d="M406 757l59 9q14 -32 14 -65q0 -72 -71 -75l-10 -1v-391q0 -125 -46 -183.5t-126 -58.5q-167 0 -167 233v449h77v-452q0 -162 91 -162q94 0 94 162v452h62q20 0 28 6.5t8 22.5q0 28 -13 54zM278 818h91l-124 -108h-61z" />
    <glyph glyph-name="uni1EE9" unicode="&#x1ee9;" horiz-adv-x="398" 
d="M346 569l59 10q16 -28 16 -65q0 -32 -17.5 -52t-53.5 -22h-6v-309q0 -32 2 -81t2 -50h-67l-6 50h-2q-13 -22 -40.5 -40t-62.5 -18q-118 0 -118 186v306h77v-295q0 -64 14 -98.5t51 -33.5q30 0 47.5 21t21.5 43q4 17 4 44v319h58q20 0 27.5 7.5t7.5 24.5q0 28 -14 53z
M247 682h79l-105 -135h-51z" />
    <glyph glyph-name="uni1EEA" unicode="&#x1eea;" horiz-adv-x="474" 
d="M406 757l59 9q14 -32 14 -65q0 -72 -71 -75l-10 -1v-391q0 -125 -46 -183.5t-126 -58.5q-167 0 -167 233v449h77v-452q0 -162 91 -162q94 0 94 162v452h62q20 0 28 6.5t8 22.5q0 28 -13 54zM87 818h91l94 -108h-61z" />
    <glyph glyph-name="uni1EEB" unicode="&#x1eeb;" horiz-adv-x="398" 
d="M346 569l59 10q16 -28 16 -65q0 -32 -17.5 -52t-53.5 -22h-6v-309q0 -32 2 -81t2 -50h-67l-6 50h-2q-13 -22 -40.5 -40t-62.5 -18q-118 0 -118 186v306h77v-295q0 -64 14 -98.5t51 -33.5q30 0 47.5 21t21.5 43q4 17 4 44v319h58q20 0 27.5 7.5t7.5 24.5q0 28 -14 53z
M86 682h79l77 -135h-51z" />
    <glyph glyph-name="uni1EEC" unicode="&#x1eec;" horiz-adv-x="474" 
d="M406 757l59 9q14 -32 14 -65q0 -72 -71 -75l-10 -1v-391q0 -125 -46 -183.5t-126 -58.5q-167 0 -167 233v449h77v-452q0 -162 91 -162q94 0 94 162v452h62q20 0 28 6.5t8 22.5q0 28 -13 54zM253 706l-41 9q5 15 25 38t20 40q0 13 -8 21t-21 8q-21 0 -41 -32l-28 21
q27 58 84 58q30 0 50.5 -19t20.5 -45q0 -19 -10 -34.5t-26.5 -32.5t-24.5 -32z" />
    <glyph glyph-name="uni1EED" unicode="&#x1eed;" horiz-adv-x="398" 
d="M346 569l59 10q16 -28 16 -65q0 -32 -17.5 -52t-53.5 -22h-6v-309q0 -32 2 -81t2 -50h-67l-6 50h-2q-13 -22 -40.5 -40t-62.5 -18q-118 0 -118 186v306h77v-295q0 -64 14 -98.5t51 -33.5q30 0 47.5 21t21.5 43q4 17 4 44v319h58q20 0 27.5 7.5t7.5 24.5q0 27 -14 53z
M222 531l-42 9q5 18 27 46t22 47q0 15 -9 24.5t-23 9.5q-21 0 -40 -32l-28 21q27 59 82 59q32 0 53.5 -20t21.5 -50q0 -29 -29 -65t-35 -49z" />
    <glyph glyph-name="uni1EEE" unicode="&#x1eee;" horiz-adv-x="474" 
d="M406 757l59 10q14 -31 14 -66q0 -72 -71 -75l-10 -1v-391q0 -125 -46 -183.5t-126 -58.5q-167 0 -167 233v449h77v-452q0 -162 91 -162q94 0 94 162v452h62q20 0 28 6.5t8 22.5q0 30 -13 54zM172 718h-41q-1 43 15 68.5t44 25.5q19 0 47 -17q30 -18 40 -18q12 0 18 8
t8 29h40q2 -90 -62 -90q-24 0 -49 17q-26 16 -36 16q-20 0 -24 -39z" />
    <glyph glyph-name="uni1EEF" unicode="&#x1eef;" horiz-adv-x="398" 
d="M346 569l59 9q16 -28 16 -64q0 -32 -17.5 -52t-53.5 -22h-6v-309q0 -32 2 -81t2 -50h-67l-6 50h-2q-13 -22 -40.5 -40t-62.5 -18q-118 0 -118 186v306h77v-295q0 -64 14 -98.5t51 -33.5q30 0 47.5 21t21.5 43q4 17 4 44v319h58q20 0 27.5 7.5t7.5 24.5q0 27 -14 53z
M135 561h-43q-1 41 15.5 67.5t46.5 26.5q20 0 50 -18q30 -17 39 -17q24 0 25 36h41q0 -89 -63 -89q-19 0 -49 17t-38 17q-21 0 -24 -40z" />
    <glyph glyph-name="uni1EF0" unicode="&#x1ef0;" horiz-adv-x="474" 
d="M406 757l59 9q14 -32 14 -65q0 -72 -71 -75l-10 -1v-391q0 -125 -46 -183.5t-126 -58.5q-167 0 -167 233v449h77v-452q0 -162 91 -162q94 0 94 162v452h62q20 0 28 6.5t8 22.5q0 28 -13 54zM235 -80q18 0 30 -12.5t12 -32.5q0 -19 -12 -31.5t-31 -12.5q-18 0 -31 12.5
t-13 31.5t13 32t32 13z" />
    <glyph glyph-name="uni1EF1" unicode="&#x1ef1;" horiz-adv-x="398" 
d="M346 569l59 10q16 -28 16 -65q0 -32 -17.5 -52t-53.5 -22h-6v-309q0 -32 2 -81t2 -50h-67l-6 50h-2q-13 -22 -40.5 -40t-62.5 -18q-118 0 -118 186v306h77v-295q0 -64 14 -98.5t51 -33.5q30 0 47.5 21t21.5 43q4 17 4 44v319h58q20 0 27.5 7.5t7.5 24.5q0 27 -14 53z
M194 -80q18 0 30 -12.5t12 -32.5q0 -19 -12 -31.5t-31 -12.5q-18 0 -31 12.5t-13 31.5t13 32t32 13z" />
    <glyph glyph-name="Ygrave" unicode="&#x1ef2;" horiz-adv-x="394" 
d="M235 0h-77v285l-149 389h82l60 -169q40 -118 50 -152h2q12 48 49 155l57 166h80l-154 -386v-288zM62 811h91l94 -108h-61z" />
    <glyph glyph-name="ygrave" unicode="&#x1ef3;" horiz-adv-x="346" 
d="M12 484h81l65 -278q4 -17 10 -50t10 -50h2l10.5 53.5t9.5 45.5l58 279h76l-79 -311q-57 -228 -120 -312q-40 -51 -87 -73l-29 65q36 20 69 61q28 36 43 82q6 17 6 24q0 9 -3 18zM62 682h79l77 -135h-51z" />
    <glyph glyph-name="uni1EF4" unicode="&#x1ef4;" horiz-adv-x="394" 
d="M235 0h-77v285l-149 389h82l60 -169q40 -118 50 -152h2q12 48 49 155l57 166h80l-154 -386v-288zM196 -169q-18 0 -31 13t-13 31q0 19 13 32t32 13t31.5 -13t12.5 -32q0 -18 -13 -31t-32 -13z" />
    <glyph glyph-name="uni1EF5" unicode="&#x1ef5;" horiz-adv-x="346" 
d="M13 484h80l65 -278q4 -17 10 -50t10 -50h2q3 16 10.5 52.5l9.5 46.5l58 279h76l-79 -311q-56 -229 -120 -312q-40 -51 -87 -73l-29 65q36 20 69 61q28 35 44 81q5 15 5 24q0 12 -2 18zM247 -80q18 0 30 -12.5t12 -32.5q0 -19 -12 -31.5t-31 -12.5q-18 0 -31 12.5
t-13 31.5t13 32t32 13z" />
    <glyph glyph-name="uni1EF6" unicode="&#x1ef6;" horiz-adv-x="394" 
d="M235 0h-77v285l-149 389h82l60 -169q40 -118 50 -152h2q12 48 49 155l57 166h80l-154 -386v-288zM212 706l-40 9q5 15 25 38t20 40q0 13 -8 21t-21 8q-22 0 -42 -32l-28 21q29 58 85 58q30 0 50.5 -19t20.5 -45q0 -19 -10 -34.5t-27 -32.5t-25 -32z" />
    <glyph glyph-name="uni1EF7" unicode="&#x1ef7;" horiz-adv-x="346" 
d="M12 484h81l65 -278q4 -17 10 -50t10 -50h2l10.5 53.5t9.5 45.5l58 279h76l-79 -311q-57 -228 -120 -312q-40 -51 -87 -73l-29 65q36 20 69 61q28 36 43 82q6 17 6 24q0 9 -3 18zM189 531l-42 9q5 18 27 46t22 47q0 15 -9 24.5t-23 9.5q-21 0 -40 -32l-28 21q27 59 82 59
q33 0 54 -20t21 -50q0 -29 -29 -65t-35 -49z" />
    <glyph glyph-name="uni1EF8" unicode="&#x1ef8;" horiz-adv-x="394" 
d="M235 0h-77v285l-149 389h82l60 -169q40 -118 50 -152h2q12 48 49 155l57 166h80l-154 -386v-288zM132 718h-41q-1 43 15 68.5t44 25.5q19 0 47 -17q30 -18 40 -18q12 0 18 8t8 29h40q2 -90 -62 -90q-24 0 -49 17q-26 16 -36 16q-20 0 -24 -39z" />
    <glyph glyph-name="uni1EF9" unicode="&#x1ef9;" horiz-adv-x="346" 
d="M12 484h81l65 -278q4 -17 10 -50t10 -50h2l10.5 53.5t9.5 45.5l58 279h76l-79 -311q-57 -228 -120 -312q-40 -51 -87 -73l-29 65q36 20 69 61q28 36 43 82q6 17 6 24q0 9 -3 18zM114 561h-43q-1 41 15.5 67.5t46.5 26.5q21 0 49 -18q30 -17 39 -17q24 0 25 36h41
q0 -89 -63 -89q-20 0 -48 17q-4 2 -10 6t-10 6t-8.5 3.5t-9.5 1.5q-21 0 -24 -40z" />
    <glyph glyph-name="uni2010" unicode="&#x2010;" horiz-adv-x="279" 
d="M30 291h219v-59h-219v59z" />
    <glyph glyph-name="endash" unicode="&#x2013;" horiz-adv-x="500" 
d="M30 288h440v-55h-440v55z" />
    <glyph glyph-name="emdash" unicode="&#x2014;" horiz-adv-x="1000" 
d="M30 288h940v-55h-940v55z" />
    <glyph glyph-name="quoteleft" unicode="&#x2018;" horiz-adv-x="177" 
d="M100 456l-78 -10q16 59 43 127.5t47 102.5l46 7q-42 -116 -58 -227z" />
    <glyph glyph-name="quoteright" unicode="&#x2019;" horiz-adv-x="177" 
d="M78 674l78 10q-16 -59 -43 -127t-47 -103l-46 -7q42 116 58 227z" />
    <glyph glyph-name="quotesinglbase" unicode="&#x201a;" horiz-adv-x="177" 
d="M66 -113l-46 -7q42 116 58 227l78 10q-16 -59 -43 -127.5t-47 -102.5z" />
    <glyph glyph-name="quotedblleft" unicode="&#x201c;" horiz-adv-x="307" 
d="M98 456l-78 -10q16 60 43.5 128.5t47.5 101.5l45 7q-42 -116 -58 -227zM231 456l-78 -10q15 58 42 126.5t48 103.5l46 7q-42 -116 -58 -227z" />
    <glyph glyph-name="quotedblright" unicode="&#x201d;" horiz-adv-x="307" 
d="M77 674l78 10q-15 -58 -42 -126t-48 -104l-46 -7q42 116 58 227zM210 674l78 10q-16 -60 -43 -128t-48 -102l-45 -7q42 116 58 227z" />
    <glyph glyph-name="quotedblbase" unicode="&#x201e;" horiz-adv-x="307" 
d="M65 -113l-46 -7q42 116 58 227l78 10q-15 -58 -42 -126.5t-48 -103.5zM197 -113l-45 -7q42 116 58 227l78 10q-16 -60 -43.5 -128.5t-47.5 -101.5z" />
    <glyph glyph-name="dagger" unicode="&#x2020;" horiz-adv-x="380" 
d="M155 674h70l-6 -198l131 6v-67l-131 6l6 -470h-70l6 470l-131 -6v67l131 -6z" />
    <glyph glyph-name="daggerdbl" unicode="&#x2021;" horiz-adv-x="380" 
d="M155 674h70l-5 -195l130 6v-67l-130 6v-216l130 7v-67l-130 6l5 -203h-70l4 203l-129 -6v67l130 -7v216l-130 -6v67l130 -6z" />
    <glyph glyph-name="bullet" unicode="&#x2022;" horiz-adv-x="257" 
d="M127 162q-39 0 -66.5 27t-27.5 69q-1 42 27 69.5t68 27.5t68 -27.5t28 -69.5q0 -41 -27.5 -68.5t-69.5 -27.5z" />
    <glyph glyph-name="ellipsis" unicode="&#x2026;" horiz-adv-x="1000" 
d="M166 -8q-21 0 -35.5 16t-14.5 42q0 25 15 41.5t36 16.5q23 0 37 -16t14 -42q0 -27 -14 -42.5t-38 -15.5zM499 -8q-21 0 -35.5 16t-14.5 42q0 25 15 41.5t36 16.5q23 0 37 -16t14 -42q0 -27 -14 -42.5t-38 -15.5zM832 -8q-21 0 -35.5 16t-14.5 42q0 25 15 41.5t36 16.5
q23 0 37 -16t14 -42q0 -27 -14 -42.5t-38 -15.5z" />
    <glyph glyph-name="perthousand" unicode="&#x2030;" horiz-adv-x="934" 
d="M154 658q55 0 88 -53.5t33 -142.5q0 -97 -35.5 -147.5t-86.5 -50.5q-55 0 -89 53t-34 143q0 91 35 144.5t89 53.5zM151 610q-33 0 -47.5 -44.5t-14.5 -104.5q0 -149 64 -149q63 0 63 148q0 150 -65 150zM173 -14h-50l347 677h48zM494 387q55 0 88 -54t33 -143
q0 -96 -35.5 -146.5t-86.5 -50.5q-55 0 -89 53t-34 143q0 91 35 144.5t89 53.5zM491 339q-33 0 -47.5 -44.5t-14.5 -104.5q0 -149 64 -149q63 0 63 148q0 150 -65 150zM784 387q54 0 87 -54t33 -143q0 -96 -35.5 -146.5t-86.5 -50.5q-54 0 -88 53t-34 143q0 91 35 144.5
t89 53.5zM781 339q-33 0 -47.5 -44.5t-14.5 -104.5q0 -61 14.5 -105t48.5 -44q63 0 63 148q0 150 -64 150z" />
    <glyph glyph-name="guilsinglleft" unicode="&#x2039;" horiz-adv-x="210" 
d="M190 427l-103 -175l103 -174h-63l-102 174l103 175h62z" />
    <glyph glyph-name="guilsinglright" unicode="&#x203a;" horiz-adv-x="210" 
d="M124 252l-103 175h62l103 -175l-102 -174h-63z" />
    <glyph glyph-name="fraction" unicode="&#x2044;" horiz-adv-x="109" 
d="M-91 -8h-49l340 666h49z" />
    <glyph glyph-name="zero.superior" unicode="&#x2070;" horiz-adv-x="265" 
d="M130 412q-54 0 -83.5 53.5t-29.5 145.5q0 94 31 147.5t87 53.5q57 0 84.5 -53.5t27.5 -144.5q0 -100 -31.5 -151t-85.5 -51zM133 462q53 0 53 151q0 149 -53 149q-26 0 -40.5 -39.5t-14.5 -109.5q0 -151 55 -151z" />
    <glyph glyph-name="four.superior" unicode="&#x2074;" horiz-adv-x="270" 
d="M212 417h-56v107h-147v35l144 251h59v-240h46v-46h-46v-107zM156 570v100q0 39 4 73h-2q-28 -56 -35 -69l-55 -102v-2h88z" />
    <glyph glyph-name="five.superior" unicode="&#x2075;" horiz-adv-x="246" 
d="M219 807v-53h-117l-13 -89q4 1 17 1q48 0 79 -28q39 -32 39 -92q0 -58 -37 -96t-96 -38q-49 0 -78 18l12 47q30 -15 63 -15q32 0 53.5 20.5t21.5 57.5q0 81 -94 81q-9 0 -36 -3l24 189h162z" />
    <glyph glyph-name="six.superior" unicode="&#x2076;" horiz-adv-x="266" 
d="M217 812v-50q-20 0 -32 -3q-87 -17 -106 -125h2q27 36 71 36q43 0 69.5 -33t26.5 -89q0 -58 -29.5 -97t-82.5 -39q-55 0 -86.5 45t-31.5 117q0 109 58 176q40 47 106 59q22 3 35 3zM137 458q22 0 36 23t14 65q0 37 -14.5 58.5t-39.5 21.5q-34 0 -51 -38q-4 -10 -4 -27
q0 -48 16 -75.5t43 -27.5z" />
    <glyph glyph-name="seven.superior" unicode="&#x2077;" horiz-adv-x="228" 
d="M10 807h214v-39l-137 -351h-60l135 336v1h-152v53z" />
    <glyph glyph-name="eight.superior" unicode="&#x2078;" horiz-adv-x="266" 
d="M138 812q45 0 72 -27.5t27 -66.5q0 -57 -55 -90v-2q66 -36 66 -102q0 -50 -32.5 -81t-83.5 -31q-53 0 -83.5 30t-30.5 73q0 68 65 107v1q-52 33 -52 88q0 46 30.5 73.5t76.5 27.5zM135 455q24 0 38.5 17.5t14.5 47.5q0 54 -59 81q-51 -25 -51 -78q0 -31 15 -49.5
t42 -18.5zM134 770q-21 0 -33.5 -16t-12.5 -40q0 -45 52 -68q40 23 40 66q0 26 -11.5 42t-34.5 16z" />
    <glyph glyph-name="nine.superior" unicode="&#x2079;" horiz-adv-x="262" 
d="M45 412v50q15 0 34 3q35 6 59 29q35 33 45 97h-2q-24 -31 -68 -31q-42 0 -69 32t-27 85q0 55 32 95t83 40q54 0 83 -44.5t29 -115.5q0 -114 -60 -183q-40 -46 -102 -55q-14 -2 -37 -2zM128 766q-21 0 -36 -22.5t-15 -62.5q0 -36 14 -57t39 -21q34 0 49 31q4 8 4 28
q0 50 -14.5 77t-40.5 27z" />
    <glyph glyph-name="parenleft.superior" unicode="&#x207d;" horiz-adv-x="159" 
d="M104 846h45q-65 -99 -65 -245q0 -141 65 -242h-45q-69 96 -69 242q0 149 69 245z" />
    <glyph glyph-name="parenright.superior" unicode="&#x207e;" horiz-adv-x="159" 
d="M54 359h-45q65 101 65 244q0 142 -65 243h45q70 -95 70 -243q0 -144 -70 -244z" />
    <glyph glyph-name="zero.inferior" unicode="&#x2080;" horiz-adv-x="265" 
d="M130 -152q-54 0 -83.5 53.5t-29.5 145.5q0 94 31 147.5t87 53.5q57 0 84.5 -53.5t27.5 -144.5q0 -100 -31.5 -151t-85.5 -51zM133 -102q53 0 53 151q0 149 -53 149q-26 0 -40.5 -39.5t-14.5 -109.5q0 -151 55 -151z" />
    <glyph glyph-name="one.inferior" unicode="&#x2081;" horiz-adv-x="212" 
d="M157 -147h-60v333h-2l-73 -39l-11 48l94 48h52v-390z" />
    <glyph glyph-name="two.inferior" unicode="&#x2082;" horiz-adv-x="245" 
d="M2 -147v29l41 50l53.5 68t37 61.5t20.5 69.5q0 33 -16 49t-44 16q-34 0 -66 -27l-17 44q37 35 99 35q53 0 80.5 -30.5t27.5 -76.5q0 -76 -103 -197l-30 -37v-2h139v-52h-222z" />
    <glyph glyph-name="three.inferior" unicode="&#x2083;" horiz-adv-x="235" 
d="M30 179l-13 43q39 26 87 26t74.5 -26t26.5 -65q0 -64 -63 -89v-2q30 -7 52.5 -33t23.5 -65q0 -52 -36.5 -86t-98.5 -34q-48 0 -82 22l13 46q33 -20 70 -20q31 0 51 18.5t20 51.5q0 76 -88 76h-8v42h6q27 0 53.5 17t26.5 47q0 25 -14 38.5t-38 13.5q-34 0 -63 -21z" />
    <glyph glyph-name="four.inferior" unicode="&#x2084;" horiz-adv-x="270" 
d="M212 -147h-56v107h-147v35l144 251h59v-240h46v-46h-46v-107zM156 6v100q0 39 4 73h-2q-18 -38 -35 -69l-55 -102v-2h88z" />
    <glyph glyph-name="five.inferior" unicode="&#x2085;" horiz-adv-x="246" 
d="M219 243v-53h-117l-13 -89q4 1 17 1q48 0 79 -28q39 -32 39 -92q0 -58 -37 -96t-96 -38q-49 0 -78 18l12 47q30 -15 63 -15q32 0 53.5 20.5t21.5 57.5q0 81 -94 81q-9 0 -36 -3l24 189h162z" />
    <glyph glyph-name="six.inferior" unicode="&#x2086;" horiz-adv-x="266" 
d="M217 248v-50q-20 0 -32 -3q-87 -17 -106 -125h2q27 36 71 36q43 0 69.5 -33t26.5 -89q0 -58 -29.5 -97t-82.5 -39q-55 0 -86.5 45t-31.5 117q0 109 58 177q42 48 106 58q22 3 35 3zM137 -106q22 0 36 23t14 65q0 37 -14.5 58.5t-39.5 21.5q-34 0 -51 -38q-4 -10 -4 -27
q0 -48 16 -75.5t43 -27.5z" />
    <glyph glyph-name="seven.inferior" unicode="&#x2087;" horiz-adv-x="228" 
d="M10 243h214v-39l-137 -351h-60l135 336v1h-152v53z" />
    <glyph glyph-name="eight.inferior" unicode="&#x2088;" horiz-adv-x="266" 
d="M138 248q45 0 72 -27.5t27 -66.5q0 -57 -55 -90v-2q66 -36 66 -102q0 -50 -32.5 -81t-83.5 -31q-53 0 -83.5 30t-30.5 73q0 68 65 107v1q-52 33 -52 88q0 46 30.5 73.5t76.5 27.5zM135 -109q24 0 38.5 17.5t14.5 47.5q0 54 -59 81q-51 -25 -51 -78q0 -31 15 -49.5
t42 -18.5zM134 206q-21 0 -33.5 -16t-12.5 -40q0 -45 52 -68q40 23 40 66q0 26 -11.5 42t-34.5 16z" />
    <glyph glyph-name="nine.inferior" unicode="&#x2089;" horiz-adv-x="262" 
d="M45 -152v50q15 0 34 3q35 6 59 30q34 31 45 96h-2q-26 -31 -68 -31t-69 32t-27 85q0 55 32 95t83 40q54 0 83 -44.5t29 -115.5q0 -114 -60 -183q-40 -46 -102 -55q-14 -2 -37 -2zM128 202q-21 0 -36 -22.5t-15 -62.5q0 -36 14 -57t39 -21q34 0 49 31q4 8 4 28
q0 50 -14.5 77t-40.5 27z" />
    <glyph glyph-name="parenleft.inferior" unicode="&#x208d;" horiz-adv-x="159" 
d="M104 282h45q-65 -99 -65 -245q0 -141 65 -242h-45q-69 96 -69 242q0 149 69 245z" />
    <glyph glyph-name="parenright.inferior" unicode="&#x208e;" horiz-adv-x="159" 
d="M54 -205h-45q65 101 65 244q0 142 -65 243h45q70 -95 70 -243q0 -144 -70 -244z" />
    <glyph glyph-name="dong" unicode="&#x20ab;" horiz-adv-x="385" 
d="M72 107h248v-55h-248v55zM251 654h67v-67h40v-44h-40v-302q0 -20 3 -83h-57l-5 44h-3q-27 -49 -84 -49q-54 0 -87.5 46.5t-33.5 129.5q0 86 37 132t88 46q49 0 74 -41h1v77h-95v44h95v67zM251 282v87q0 14 -1 22q-3 25 -20 43.5t-39 18.5q-36 0 -52.5 -35t-16.5 -89
t16.5 -88.5t48.5 -34.5q44 0 62 55q2 10 2 21z" />
    <glyph glyph-name="Euro" unicode="&#x20ac;" horiz-adv-x="385" 
d="M358 81l13 -61q-44 -28 -100 -28q-85 0 -139 64q-55 66 -66 198h-48v47h45v14q0 31 1 43h-47v47h51q13 118 71 187q56 66 140 66q48 0 85 -24l-17 -63q-29 20 -68 20q-50 0 -82 -38q-41 -44 -52 -148h170v-47h-174q-1 -10 -1 -38v-19h175v-47h-172q7 -95 41 -145
q33 -50 96 -50q41 0 78 22z" />
    <glyph glyph-name="uni2113" unicode="&#x2113;" horiz-adv-x="396" 
d="M166 500v-172q91 125 91 246q0 73 -41 73q-50 0 -50 -147zM337 108l35 -36q-21 -36 -59 -59t-84 -23q-135 0 -138 188v12q-7 -6 -42 -34l-24 40q38 30 66 58v243q0 212 123 212q45 0 74 -34.5t29 -98.5q0 -160 -151 -326v-35q0 -90 20.5 -124t59.5 -34q47 0 91 51z" />
    <glyph glyph-name="uni2116" unicode="&#x2116;" horiz-adv-x="705" 
d="M559 654q116 0 116 -165q0 -85 -34.5 -125t-84.5 -40q-54 0 -87 42.5t-33 122.5t35 122.5t88 42.5zM554 609q-29 0 -43 -37.5t-14 -82.5q0 -47 14.5 -83.5t43.5 -36.5q59 0 59 120t-60 120zM659 235h-207v47h207v-47zM128 0h-68v667h71l117 -314q54 -143 82 -233h1
q-8 170 -8 306v241h67v-667h-72l-120 321q-36 93 -76 227h-1q7 -126 7 -316v-232z" />
    <glyph glyph-name="trademark" unicode="&#x2122;" horiz-adv-x="509" 
d="M25 674h178v-43h-65v-229h-49v229h-64v43zM488 402h-47l-8 159q0 17 -2 77h-2q-11 -58 -17 -81l-36 -151h-49l-36 155q-3 18 -15 77h-2q0 -27 -2 -77l-8 -159h-45l16 272h72l33 -129q9 -43 14 -69h1q13 64 14 67l34 131h69z" />
    <glyph glyph-name="Omega" unicode="&#x2126;" horiz-adv-x="472" 
d="M340 69v-3h99v-66h-177v52q42 46 66 131t23 176q0 46 -6 88.5t-18.5 81.5t-36 62t-54.5 23q-41 0 -68.5 -41t-37.5 -95t-10 -116q0 -86 25.5 -177t63.5 -133v-52h-176v66h98v3q-40 56 -65.5 135.5t-25.5 168.5q0 143 56.5 226t146.5 83q87 0 137.5 -82.5t50.5 -221.5
q0 -93 -26 -175t-65 -134z" />
    <glyph glyph-name="estimated" unicode="&#x212e;" horiz-adv-x="817" 
d="M782 316h-605q-5 0 -5 -4v-183q0 -10 9 -21q93 -99 229 -99q145 0 240 111h55q-52 -61 -130 -96t-166 -35q-155 0 -264.5 98.5t-109.5 237.5t109.5 237.5t264.5 98.5t264 -98.5t109 -237.5v-9zM646 340v184q0 12 -10 22q-95 95 -226 95q-133 0 -228 -98q-10 -10 -10 -23
v-180q0 -5 5 -5h464q5 0 5 5z" />
    <glyph glyph-name="partialdiff" unicode="&#x2202;" horiz-adv-x="375" 
d="M70 632l-23 52q65 44 127 44q84 0 144 -86.5t60 -255.5q0 -197 -61 -295.5t-142 -98.5q-65 0 -104.5 53t-39.5 151q0 109 52 178.5t123 69.5q62 0 96 -54h1v18q0 125 -40.5 189.5t-98.5 64.5q-54 0 -94 -30zM183 56q44 0 78 76t37 181q-26 68 -79 68q-46 0 -78.5 -53.5
t-32.5 -132.5q0 -73 21 -106t54 -33z" />
    <glyph glyph-name="Delta" unicode="&#x2206;" horiz-adv-x="412" 
d="M392 0h-373v44l148 612h79l146 -611v-45zM316 66l-77 331q-21 93 -33 169h-3q-11 -69 -33 -167l-76 -333h222z" />
    <glyph glyph-name="product" unicode="&#x220f;" horiz-adv-x="449" 
d="M439 582h-60v-672h-71v672h-170v-672h-71v672h-60v68h432v-68z" />
    <glyph glyph-name="summation" unicode="&#x2211;" horiz-adv-x="381" 
d="M378 -90h-368v51l185 318l-175 320v51h335v-66h-242v-4l161 -297l-175 -302v-4h279v-67z" />
    <glyph glyph-name="minus" unicode="&#x2212;" horiz-adv-x="596" 
d="M40 295h516v-55h-516v55z" />
    <glyph glyph-name="uni2215" unicode="&#x2215;" horiz-adv-x="109" 
d="M-91 -8h-49l340 666h49z" />
    <glyph glyph-name="uni2219" unicode="&#x2219;" horiz-adv-x="194" 
d="M96 202q-21 0 -35.5 15.5t-14.5 41.5q0 24 15 40.5t36 16.5q23 0 37 -15.5t14 -41.5t-14 -41.5t-38 -15.5z" />
    <glyph glyph-name="radical" unicode="&#x221a;" horiz-adv-x="530" 
d="M518 825l-198 -919h-55l-129 427l-71 -26l-16 45l128 47l94 -327q17 -59 18 -81h1q5 40 13 80l157 754h58z" />
    <glyph glyph-name="infinity" unicode="&#x221e;" horiz-adv-x="725" 
d="M539 119q-12 0 -23.5 2t-23.5 6.5t-21 8.5t-21 13t-18.5 13t-19 16t-16.5 15.5t-17.5 17l-15.5 15.5q-61 -61 -93 -80q-44 -27 -92 -27q-61 0 -101 41t-40 103q0 60 42.5 103t106.5 43q11 0 22.5 -2t20 -4.5t20 -8.5t18 -9t18.5 -12.5t16.5 -12.5t17 -15t15 -14
t15.5 -15.5l14 -14.5l39.5 39t38 31.5t52.5 29t55 8.5q62 0 101.5 -41t39.5 -105q0 -59 -43 -101.5t-107 -42.5zM542 174q38 0 63.5 26t25.5 63q0 39 -24.5 65t-62.5 26q-28 0 -57.5 -17t-44 -31l-42.5 -43q5 -4 29 -27.5t35 -32t33.5 -19t44.5 -10.5zM183 174q27 0 57 17
t44 30t42 42q-5 4 -29 28t-35 33t-33.5 19.5t-43.5 10.5q-38 0 -64 -27t-26 -64q0 -39 24.5 -64t63.5 -25z" />
    <glyph glyph-name="integral" unicode="&#x222b;" horiz-adv-x="311" 
d="M289 786l-11 -53q-16 4 -27 4q-24 0 -40 -22q-26 -34 -26 -158q0 -72 3.5 -234t3.5 -238q0 -138 -38 -190q-30 -44 -87 -44q-25 0 -43 8l12 54q16 -4 27 -4q25 0 39 21q27 38 27 155q0 76 -3.5 240.5t-3.5 236.5q0 145 47 196q32 35 82 35q22 0 38 -7z" />
    <glyph glyph-name="approxequal" unicode="&#x2248;" horiz-adv-x="596" 
d="M539 411l29 -42q-26 -28 -66.5 -48.5t-82.5 -20.5q-21 0 -42 4t-32.5 8.5t-30.5 13t-25 10.5t-23 10t-27.5 12t-29 8t-36.5 4q-62 0 -119 -55l-30 42q28 28 68 48t81 20q21 0 42.5 -4.5t32.5 -8t31 -12.5t24 -11q6 -2 23 -10t27.5 -12t29 -8t36.5 -4q31 0 64 16.5
t56 39.5zM543 214l30 -42q-27 -28 -67 -48.5t-82 -20.5q-21 0 -42.5 4.5t-32.5 8t-31 12.5t-24 11q-6 2 -23 10t-27.5 12t-29 8t-36.5 4q-63 0 -120 -55l-29 42q27 28 67 48t82 20q21 0 42 -4t32.5 -8.5t30.5 -13t25 -10.5t23 -10t27.5 -12t29 -8t36.5 -4q63 0 119 56z" />
    <glyph glyph-name="notequal" unicode="&#x2260;" horiz-adv-x="596" 
d="M556 143h-309l-79 -125h-59l79 125h-148v55h183l90 142h-273v55h308l79 125h60l-80 -125h149v-55h-184l-90 -142h274v-55z" />
    <glyph glyph-name="lessequal" unicode="&#x2264;" horiz-adv-x="596" 
d="M529 97l-462 195v54l462 195v-61l-388 -160v-2l388 -160v-61zM529 0h-462v53h462v-53z" />
    <glyph glyph-name="greaterequal" unicode="&#x2265;" horiz-adv-x="596" 
d="M529 292l-462 -195v61l388 160v2l-388 160v61l462 -195v-54zM529 0h-462v53h462v-53z" />
    <glyph glyph-name="lozenge" unicode="&#x25ca;" horiz-adv-x="474" 
d="M423 325l-158 -341h-57l-158 341l158 341h57zM357 323l-111 249q-5 12 -10 28h-2q-2 -9 -10 -28l-108 -245l111 -249q6 -15 9 -28h3q2 10 10 28z" />
    <glyph glyph-name="G_tildecomb" unicode="&#xe000;" horiz-adv-x="436" 
d="M391 352v-335q-54 -23 -119 -23q-99 0 -159 65q-82 88 -81 269t76 266.5t178 85.5q60 0 95 -19l-17 -66q-32 16 -77 16q-73 0 -124 -66t-51 -210t45.5 -209.5t114.5 -65.5q35 0 47 8v220h-87v64h159zM195 718h-41q-1 43 15 68.5t44 25.5q19 0 47 -17q30 -18 40 -18
q12 0 18 8t8 29h40q2 -90 -62 -90q-24 0 -49 17q-26 16 -36 16q-19 0 -24 -39z" />
    <glyph glyph-name="M_uni0302" unicode="&#xe001;" horiz-adv-x="599" 
d="M482 0l-14 290q-10 182 -7 264h-4q-25 -125 -54 -234l-82 -316h-50l-78 303q-35 133 -56 247h-3q1 -59 -8 -269l-13 -285h-69l40 674h84l78 -308q40 -154 54 -232h3q14 83 50 232l76 308h86l39 -674h-72zM266 808h66l87 -98h-67l-52 55h-2l-52 -55h-66z" />
    <glyph glyph-name="N_uni0302" unicode="&#xe002;" horiz-adv-x="465" 
d="M130 0h-69v674h72l124 -316q67 -175 86 -235h2q-9 159 -9 310v241h69v-674h-72l-128 324q-51 124 -81 229h-2q8 -120 8 -320v-233zM199 808h66l87 -98h-67l-52 55h-2l-52 -55h-66z" />
    <glyph glyph-name="g_tildecomb" unicode="&#xe005;" horiz-adv-x="399" 
d="M299 333v-271q0 -91 -11.5 -136.5t-36.5 -74.5q-46 -51 -129 -51q-63 0 -106 24l18 60q40 -21 90 -21q99 0 99 148v49h-2q-25 -59 -93 -59q-64 0 -103 66t-39 173q0 124 46 187.5t107 63.5q56 0 90 -61h2l4 54h68q-4 -132 -4 -151zM223 177v140q0 22 -4 35q-18 73 -70 73
q-41 0 -63.5 -50t-22.5 -132q0 -88 24 -133.5t62 -45.5q51 0 69 69q5 19 5 44zM133 561h-43q-1 41 15.5 67.5t46.5 26.5q20 0 50 -18q30 -17 39 -17q24 0 25 36h41q0 -89 -63 -89q-19 0 -49 17t-38 17q-21 0 -24 -40z" />
    <glyph glyph-name="m_uni0302" unicode="&#xe006;" horiz-adv-x="620" 
d="M54 0v359q0 33 -2 75t-2 50h67l4 -60h2q36 67 109 67q76 0 101 -74h2q21 38 48 55q28 19 67 19q52 0 84 -41.5t32 -129.5v-320h-76v303q0 57 -14 90.5t-54 33.5q-24 0 -43.5 -19.5t-27.5 -53.5q-3 -18 -3 -43v-311h-76v317q0 110 -67 110q-25 0 -45.5 -20.5t-26.5 -58.5
q-3 -18 -3 -41v-307h-76zM284 682h52l79 -135h-58l-46 87h-2l-46 -87h-58z" />
    <glyph glyph-name="n_uni0302" unicode="&#xe007;" horiz-adv-x="405" 
d="M176 682h52l79 -135h-58l-46 87h-2l-46 -87h-58zM54 0v359q0 33 -2 75t-2 50h67l4 -59h2q36 66 111 66q53 0 85 -41t32 -125v-325h-77v311q0 115 -67 115q-25 0 -45 -20.5t-27 -57.5q-4 -16 -4 -44v-304h-77z" />
    <glyph glyph-name="zero.slashfitted" unicode="&#xe008;" horiz-adv-x="385" 
d="M116 173l136 370q-21 49 -59 49q-46 0 -69 -72t-23 -195q0 -87 15 -152zM269 479l-136 -374q22 -47 59 -47q46 0 69 72t23 195q0 88 -15 154zM348 656l-35 -77q45 -87 45 -253q0 -169 -46.5 -251.5t-121.5 -82.5q-54 0 -91 42l-23 -53l-38 21l34 73q-45 79 -45 249
q0 165 45 249.5t126 84.5q52 0 88 -40l25 56z" />
    <glyph glyph-name="dong.alt" unicode="&#xe184;" horiz-adv-x="385" 
d="M251 654h67v-67h40v-44h-40v-302q0 -20 3 -83h-57l-5 44h-3q-27 -49 -84 -49q-54 0 -87 46.5t-33 129.5q0 86 36.5 132t87.5 46q49 0 74 -41h1v77h-95v44h95v67zM251 282v87q0 14 -1 22q-3 25 -20 43.5t-39 18.5q-36 0 -52.5 -35t-16.5 -89t16.5 -88.5t48.5 -34.5
q44 0 62 55q2 10 2 21z" />
    <glyph glyph-name="breve_acutecomb" unicode="&#xe300;" 
d="M183 738h74l-92 -115h-47zM41 644h42q2 -27 20 -44t46 -17q31 0 49 16.5t20 44.5h42q1 -50 -30 -80.5t-81 -30.5t-79.5 31.5t-28.5 79.5z" />
    <glyph glyph-name="breve_gravecomb" unicode="&#xe301;" 
d="M41 738h73l65 -114h-47zM40 645h42q2 -28 20.5 -45t46.5 -17q30 0 48.5 17t20.5 45h42q1 -50 -30 -81t-81 -31q-51 0 -80.5 31.5t-28.5 80.5z" />
    <glyph glyph-name="breve_hookabovecomb" unicode="&#xe302;" 
d="M162 615l-39 8q5 15 25 37t20 39q0 12 -8.5 20t-21.5 8q-22 0 -41 -31l-26 20q27 56 81 56q30 0 50.5 -18t20.5 -45q0 -24 -27.5 -54t-33.5 -40zM40 644h42q2 -28 20.5 -45t46.5 -17q30 0 48.5 17t20.5 45h42q1 -50 -30 -81t-81 -31q-51 0 -80.5 31.5t-28.5 80.5z" />
    <glyph glyph-name="breve_tildecomb" unicode="&#xe303;" 
d="M86 680h-43q2 30 17.5 52.5t43.5 22.5q18 0 48 -17t40 -17q24 0 25 35h41q0 -85 -63 -85q-19 0 -48 18q-28 16 -38 16q-17 0 -23 -25zM41 645h41q2 -27 20.5 -45t46.5 -18q30 0 48 17.5t20 45.5h41q1 -49 -29 -80.5t-80 -31.5t-79.5 31.5t-28.5 80.5z" />
    <glyph glyph-name="circumflex_acutecomb" unicode="&#xe304;" 
d="M123 682h54l62 -135h-55l-33 84h-3l-32 -84h-56zM272 742h68l-77 -117h-41z" />
    <glyph glyph-name="circumflex_gravecomb" unicode="&#xe305;" 
d="M177 743h67l46 -117h-41zM123 682h54l62 -135h-55l-32 84h-4l-32 -84h-56z" />
    <glyph glyph-name="circumflex_hookabovecomb" unicode="&#xe306;" 
d="M123 682h54l62 -135h-55l-32 84h-4l-32 -84h-56zM266 625l-39 8q5 15 25 37t20 38q0 13 -8.5 21t-21.5 8q-19 0 -40 -31l-27 20q28 55 81 55q30 0 49.5 -18t19.5 -44q0 -25 -27 -55t-32 -39z" />
    <glyph glyph-name="circumflex_tildecomb" unicode="&#xe307;" 
d="M124 650h53l76 -104h-61l-40 60h-2l-41 -60h-61zM86 661h-41q-1 35 15.5 59.5t45.5 24.5q18 0 48 -17q28 -16 40 -16q24 0 25 35h41q0 -85 -63 -85q-17 0 -48 18q-28 16 -38 16q-20 0 -25 -35z" />
    </font>
</defs>
</svg>
