<?xml version="1.0" standalone="no"?>
<!DOCTYPE svg PUBLIC "-//W3C//DTD SVG 1.1//EN" "http://www.w3.org/Graphics/SVG/1.1/DTD/svg11.dtd" >
<svg>
<metadata>
Created by FontForge 20090622 at Tue Jun 21 10:08:30 2016
 By deploy user
Copyright &#194;&#169; 1987, 1990, 1994, 2001 Adobe Systems Incorporated.  All Rights Reserved.
</metadata>
<defs>
<font id="BrushScriptStd" horiz-adv-x="565" >
  <font-face 
    font-family="Brush Script Std"
    font-weight="500"
    font-style="italic"
    font-stretch="normal"
    units-per-em="1000"
    panose-1="0 0 6 0 0 0 0 0 0 0"
    ascent="683"
    descent="-317"
    x-height="376"
    cap-height="693"
    bbox="-183.042 -279.45 1327.42 882"
    underline-thickness="50"
    underline-position="-50"
    slope="-14"
    unicode-range="U+0020-U+FB02"
  />
<missing-glyph horiz-adv-x="629" 
d="M129 0v700h500v-700h-500zM379 395l170 255h-340zM409 350l170 -255v510zM209 50h340l-170 255zM179 605v-510l170 255z" />
    <glyph glyph-name="fi" unicode="fi" horiz-adv-x="578" 
d="M22 -167q48 32 76.5 85.5t21.5 108.5q-43 -3 -72 8q-41 -69 -46 -113q-5 -41 20 -89zM300 171q22 68 77.5 121t94.5 53q44 0 44 -28q0 -33 -49 -86t-92 -82q-12 -63 53 -63q19 0 40.5 9.5t36 19.5t37.5 28.5t31 24.5l9 -38q-46 -56 -102 -100.5t-107 -44.5
q-41 0 -63.5 37.5t-22.5 81.5q0 5 1 6l-2 2q-49 -45 -93 -66q3 -15 1 -55q-6 -82 -82 -156.5t-139 -83.5q-21 -3 -35.5 21t-19 50.5t-4.5 47.5q0 16 3.5 34.5t8 33t14 37l14 33t16 34.5t14.5 29q-29 31 -29 57q0 7 1 12.5t3 10.5l3.5 8.5t6.5 7.5t6.5 6.5t8 6t8.5 5t10 5.5
t9 5q41 22 68 54.5t54 81.5l37.5 68l54.5 92t65 91.5t49 35.5q24 0 24 -44q0 -28 -17 -71.5t-35 -68.5l-187 -261q8 -5 15 -11.5t12.5 -16l8.5 -15t9 -19.5t7 -17zM526 365q-18 0 -29 12.5t-11 30.5q0 30 28.5 53.5t58.5 23.5q14 0 23.5 -9t9.5 -22q0 -31 -24.5 -60
t-55.5 -29z" />
    <glyph glyph-name="fl" unicode="fl" horiz-adv-x="588" 
d="M22 -167q48 32 76.5 85.5t21.5 108.5q-43 -3 -72 8q-41 -69 -46 -113q-5 -41 20 -89zM584 178l14 -30l-50.5 -51t-53 -47t-69 -45.5t-62.5 -14.5q-81 0 -89 111q-41 -36 -81 -55q3 -15 1 -55q-6 -82 -82 -156.5t-139 -83.5q-21 -3 -35.5 21t-19 50.5t-4.5 47.5
q0 16 3.5 34.5t8 33t14 37l14 33t16 34.5t14.5 29q-29 31 -29 57q0 7 1 12.5t3 10.5l3.5 8.5t6.5 7.5t6.5 6.5t8 6t8.5 5t10 5.5t9 5q41 22 68 54.5t54 81.5l37.5 68l54.5 92t65 91.5t49 35.5q24 0 24 -44q0 -28 -17 -71.5t-35 -68.5l-187 -261q8 -5 15 -11.5t12.5 -16
l8.5 -15t9 -19.5t7 -17l98 62q8 69 37.5 138.5t72.5 123.5q68 85 130 143.5t85 58.5q11 0 16 -12t4 -25q-3 -41 -12 -73.5t-33.5 -79t-75 -105.5t-129.5 -135q-15 -29 -7 -69q17 -43 50 -43q61 0 172 100zM392 282q50 47 93 109.5t59 108.5l-1 -1l-2 2q-81 -66 -151 -217z
" />
    <glyph glyph-name=".notdef" horiz-adv-x="629" 
d="M129 0v700h500v-700h-500zM379 395l170 255h-340zM409 350l170 -255v510zM209 50h340l-170 255zM179 605v-510l170 255z" />
    <glyph glyph-name=".null" horiz-adv-x="0" 
 />
    <glyph glyph-name="nonmarkingreturn" horiz-adv-x="333" 
 />
    <glyph glyph-name="space" unicode=" " horiz-adv-x="340" 
 />
    <glyph glyph-name="exclam" unicode="!" horiz-adv-x="392" 
d="M125 -11q-20 0 -37 14.5t-17 33.5q0 34 17 78t41 44q26 0 44 -19t18 -45q0 -34 -17.5 -70t-48.5 -36zM159 316l141 322l5 12q5 12 7 15l7.5 11t11.5 10.5t13 2.5q5 0 13 -1.5t17 -4t12 -3.5q1 0 7.5 -1.5t11 -3t9.5 -4t8 -6t3 -8.5q0 -14 -29 -72l-179 -349q5 -10 5 -17
q0 -15 -9.5 -29.5t-23.5 -14.5q-18 0 -39 18.5t-21 35.5t30 87z" />
    <glyph glyph-name="quotedbl" unicode="&#x22;" horiz-adv-x="333" 
d="M81 712q43 0 43 -59q0 -22 -19 -226q-3 -31 -24 -31t-24 31q-19 204 -19 226q0 59 43 59zM252 712q43 0 43 -59q0 -22 -19 -226q-3 -31 -24 -31t-24 31q-19 204 -19 226q0 59 43 59z" />
    <glyph glyph-name="numbersign" unicode="#" horiz-adv-x="563" 
d="M133 0h-64l79 188h-95l15 63h107l59 139h-103l16 63h112l79 185h64l-79 -185h122l78 185h65l-78 -185h95l-16 -63h-105l-59 -139h101l-16 -63h-111l-80 -188h-64l79 188h-122zM238 251h122l60 139h-122z" />
    <glyph glyph-name="dollar" unicode="$" 
d="M284 373l35 115q-25 -5 -76.5 -32t-51.5 -44q0 -24 93 -39zM348 289l-32 -121l15.5 5l22.5 7.5l25 9t26.5 10.5t22 11.5t16 13t5.5 13.5q0 13 -18.5 23t-49 18.5t-33.5 9.5zM231 157l37 150q-30 6 -57.5 10t-41 7t-34.5 11q-32 12 -32 54q0 19 12.5 59t22.5 57
q36 63 226 114q0 1 7.5 21l10 26.5l10.5 26.5t13.5 29.5l14.5 26t17.5 25l19 18.5t22 14t23.5 4t20 -10t8 -23q0 -22 -19 -44q-24 -30 -34 -46.5t-22 -52.5l93 6q54 4 99 -12q7 -2 10.5 -3.5t5.5 -5t1 -10.5q-6 -54 -21.5 -73.5t-61.5 -35.5q-51 -18 -78 -38
q-20 -15 -33 -15q-12 0 -12 11q1 3 3 6t6 7l7.5 7.5t11 9t12.5 9.5t15.5 11t16.5 12l-2 2l-121 -16l-43 -151q8 -3 30.5 -10t38.5 -12.5t37 -15.5t34.5 -20t23 -24.5t9.5 -31.5q0 -37 -23.5 -71t-58.5 -57q-65 -43 -166 -69l-23 -132q-4 1 -20.5 4.5t-26.5 7t-19 11.5t-9 20
q0 14 5.5 38t5.5 31q-42 -3 -118 -1q-114 2 -118 50q-1 17 22 49.5t51 32.5z" />
    <glyph glyph-name="percent" unicode="%" horiz-adv-x="643" 
d="M317 645q51 -1 51 -60q0 -74 -60.5 -155t-131.5 -81q-40 0 -64.5 36t-24.5 78q0 86 71.5 154.5t132.5 75.5q12 2 24 -8.5t12 -22.5q0 -7 -10 -17zM244 600q-33 -21 -58.5 -61t-25.5 -76q0 -8 3 -19t5 -11q44 -7 97 65t53 102q0 12 -17 12q-8 0 -19.5 -10.5t-18.5 -10.5
q-8 0 -19 9zM597 289q51 -1 51 -60q0 -74 -60.5 -155t-131.5 -81q-40 0 -64.5 36t-24.5 78q0 86 71.5 154.5t132.5 75.5q12 2 24 -8.5t12 -22.5q0 -7 -10 -17zM524 244q-33 -21 -58.5 -61t-25.5 -76q0 -8 3 -19t5 -11q44 -7 97 65t53 102q0 12 -17 12q-8 0 -19.5 -10.5
t-18.5 -10.5q-8 0 -19 9zM205 204l203 244q109 131 239 217q9 -39 -11 -78t-102 -125q-81 -85 -169.5 -196.5t-147.5 -205.5q-31 -48 -35 -60l-4 -12t-5 -10t-9 -9.5t-12 -2.5q-20 0 -35 19.5t-15 40.5q0 53 103 178z" />
    <glyph glyph-name="ampersand" unicode="&#x26;" horiz-adv-x="582" 
d="M340 465q164 100 164 159q0 14 -17 12q-31 -6 -55 -20t-37.5 -27.5t-25.5 -39.5t-16.5 -40t-12.5 -44zM293 181l-56 127q-38 -16 -89 -69.5t-52 -87.5q-1 -18 47 -18q62 0 150 48zM502 463l-149 -87q10 -65 49 -124l160 127q19 -57 19 -77q0 -21 -13.5 -44.5t-25 -35
t-41 -36.5t-32.5 -28q7 -27 31 -27q6 0 15.5 4t13.5 4q6 0 11 -6t5 -12q0 -24 -34.5 -73t-58.5 -49q-9 0 -22.5 9.5t-23.5 20l-24 25.5t-17 18q-1 -1 -30.5 -19t-36.5 -22t-32.5 -17t-39.5 -17t-34.5 -9t-39.5 -5q-69 0 -116.5 45.5t-40.5 111.5q4 44 18 79.5t32 59.5
t45.5 46t52.5 36l60 33l12 6q-9 58 15 112t66.5 90.5t95 59t101.5 24.5q38 2 68.5 -26t30.5 -66q0 -77 -90 -131z" />
    <glyph glyph-name="quotesingle" unicode="'" horiz-adv-x="222" 
d="M111 712q43 0 43 -59q0 -22 -19 -226q-3 -31 -24 -31t-24 31q-19 204 -19 226q0 59 43 59z" />
    <glyph glyph-name="parenleft" unicode="(" horiz-adv-x="326" 
d="M143 406q15 35 36.5 76.5t53.5 96.5t66.5 91t61.5 36q36 0 36 -38q0 -18 -22 -48q-81 -114 -147 -285.5t-66 -295.5q0 -29 8 -87q4 2 10 2q15 0 15 -40q0 -28 -18 -50.5t-45 -22.5q-83 0 -83 202q0 154 94 363z" />
    <glyph glyph-name="parenright" unicode=")" horiz-adv-x="326" 
d="M271 141q-15 -35 -36.5 -76.5t-53.5 -96.5t-66.5 -91t-61.5 -36q-36 0 -36 38q0 18 22 48q81 114 147 285.5t66 295.5q0 29 -8 87q-4 -2 -10 -2q-15 0 -15 40q0 28 18 50.5t45 22.5q83 0 83 -202q0 -154 -94 -363z" />
    <glyph glyph-name="asterisk" unicode="*" horiz-adv-x="548" 
d="M373 463l89 -70q2 -2 7.5 -7t9 -8.5t6.5 -8.5t3 -10q0 -8 -11 -32t-13 -30l-123 107l-9 -168q-8 3 -26.5 7.5t-24 8t-11.5 14t-6 28.5q0 15 13 111l-95 -65q-3 -2 -11 -8.5t-14.5 -10t-12.5 -3.5q-13 0 -21 11t-8 25q0 25 24.5 47t66 44t49.5 28q-33 31 -68 51
q-17 9 -23 13.5t-11 15t-5 27.5q0 39 26 39q7 0 13.5 -1.5t13 -6.5t9.5 -7.5t10.5 -10.5t9.5 -10q9 -9 28.5 -25.5t28.5 -25.5l2 72v10.5t0.5 10.5t1.5 9t3 9.5t6 8.5q29 32 46 32q10 0 17 -7t7 -18q0 -9 -6 -27q-1 -2 -7 -50l-6 -54q93 55 127 55q11 0 17 -6t14.5 -19
t19.5 -23z" />
    <glyph glyph-name="plus" unicode="+" horiz-adv-x="642" 
d="M594 230h-196v-219h-63v219h-197v60h197v201h63v-201h196v-60z" />
    <glyph glyph-name="comma" unicode="," horiz-adv-x="301" 
d="M56 43q0 31 30 64t62 33q51 0 51 -23q0 -19 -16.5 -57t-30.5 -54q-11 -14 -21 -24.5l-17 -17.5t-15.5 -11.5t-12.5 -7t-11 -4t-9 -1.5h-9h-8q33 44 45 68q-13 4 -19 6.5t-12.5 10t-6.5 18.5z" />
    <glyph glyph-name="hyphen" unicode="-" horiz-adv-x="320" 
d="M0 320h300v-88h-300v88z" />
    <glyph glyph-name="period" unicode="." horiz-adv-x="301" 
d="M118 -5q-18 2 -29 4.5t-22.5 12t-11.5 25.5q0 33 31 74t70 33q2 0 10.5 -1.5t13.5 -3t11.5 -4.5t10 -9t3.5 -14q0 -6 -8 -32.5t-29.5 -57t-49.5 -27.5z" />
    <glyph glyph-name="slash" unicode="/" horiz-adv-x="462" 
d="M495 628l-198 -322q-77 -126 -110 -198t-69 -179q-7 -22 -19 -22q-28 0 -46.5 20t-18.5 48q0 29 19.5 79.5t63.5 130.5l65 116l72 121l13 22q134 225 255 324q9 -32 9 -55q0 -25 -36 -85z" />
    <glyph glyph-name="zero" unicode="0" 
d="M556 562q50 -16 50 -104q0 -72 -31.5 -152t-85 -149t-132.5 -116.5t-166 -53.5q-65 -5 -105.5 47.5t-40.5 121.5q0 79 42 165t104 154q63 70 158.5 122.5t147.5 52.5q29 0 59.5 -26t30.5 -44q0 -6 -14.5 -11t-16.5 -7zM306 134l98 90q43 48 86 119t43 115q0 20 -9.5 39.5
t-28.5 19.5q-15 0 -37 -18.5t-25 -18.5q-10 0 -10 18q-126 -71 -193 -166t-72 -180q-1 -23 6 -50t25 -27q21 0 59 20.5t58 38.5z" />
    <glyph glyph-name="one" unicode="1" 
d="M402 529l-95 -36q-20 -10 -27 -10q-12 0 -8 23q0 5 1 9t3 8t3 6.5t5 5.5t5.5 5t6.5 5t6.5 4t8 4.5t7.5 4.5q149 86 174 86q17 0 31.5 -27t14.5 -42q0 -21 -17 -52.5t-140 -240.5q-117 -197 -117 -267q0 -6 1.5 -17.5t1.5 -17.5q0 -14 -14 -14q-6 0 -21 9q-6 4 -27 13.5
t-29 15t-16.5 19.5t-8.5 32q0 35 24 102t46 104q75 125 183 266z" />
    <glyph glyph-name="two" unicode="2" 
d="M304 404l-108 -21q-2 0 -10 -1.5t-14.5 -2.5t-9.5 -1q-23 0 -23 39q0 27 18 69t38 64q40 45 134.5 71t171.5 26q31 0 49.5 -5.5t34 -21.5t22 -48t6.5 -83q0 -21 -2 -32.5t-14 -34t-37 -43t-73.5 -52.5t-119.5 -70q-162 -86 -245 -151l2 -2l389 68q-28 -79 -44 -104
q-31 -45 -89 -56q-116 -22 -197.5 -25.5t-100.5 11.5q-21 17 -32.5 49.5t-11.5 62.5q0 15 9.5 32t28 35.5t39 36t49.5 37l52.5 34.5t55.5 33.5l50 28.5l45 24.5t32 17.5q141 77 141 131q0 13 -12 19.5t-26 6.5q-17 0 -36 -3t-41.5 -10l-39 -12.5t-43 -17t-38 -17l-39.5 -19
t-33 -15.5v-2l59 -7q2 0 6 -0.5t7 -1t7 -1.5t7 -2.5t5.5 -3.5t4 -5t1.5 -7q0 -16 -25 -18z" />
    <glyph glyph-name="three" unicode="3" 
d="M247 511l21 -4q37 -6 37 -17q0 -9 -18 -12q-32 -7 -93 -7q-24 0 -37.5 14.5t-13.5 39.5q0 18 8.5 32.5t25.5 25t29.5 16.5t32.5 14q76 30 196 30q42 0 71 -3.5t62.5 -15t51.5 -38.5t18 -68q0 -27 -17.5 -56.5t-42.5 -45.5q-40 -25 -119 -41l-151 -33v-2q4 -1 30.5 -5.5
t34.5 -6t32 -7.5t34 -11.5l27 -15.5t25 -21.5t15.5 -28.5t8.5 -37q2 -27 -20 -62.5t-64.5 -71t-117 -59.5t-164.5 -24q-62 0 -105.5 15t-59 32.5t-15.5 33.5q0 19 34.5 58t52.5 39q15 0 15 -12q0 -7 -23 -30q58 -23 97 -23q68 0 140 23t114.5 51t42.5 46q0 19 -23 32
t-58 18.5t-59 7t-46 1.5q-45 0 -89 -8q-16 -4 -29 -4q-18 0 -15 21q7 49 31.5 74.5t77.5 29.5q39 3 111.5 17t147 42.5t74.5 59.5q0 41 -103 41q-104 0 -215 -42v-2z" />
    <glyph glyph-name="four" unicode="4" 
d="M326 272l240 290l-2 2q-92 -42 -130 -64q-96 -56 -161.5 -106.5t-88 -76t-30.5 -43.5q0 -9 37 -10q44 -3 135 8zM525 171l-140 -17q-17 -59 -17 -75q0 -19 20 -49q-7 -3 -35 -18t-52.5 -26.5t-32.5 -11.5q-24 0 -24 50q0 17 3.5 37t9 45t7.5 40q-22 -1 -59.5 -3.5t-54 -3
t-37.5 0t-31.5 5t-14.5 12.5q-30 56 -30 89q0 34 38.5 84t78.5 84q91 79 237.5 154t196.5 75q15 0 26.5 -7t11.5 -21q0 -13 -21 -31q27 -13 20 -45q-3 -29 -26 -58q-68 -84 -142 -201q13 0 38 2.5t38 2.5q37 0 37 -25q0 -10 -9 -28t-21.5 -37.5t-14.5 -23.5z" />
    <glyph glyph-name="five" unicode="5" 
d="M182 497l103 110q7 8 13 13.5t13 9.5t11 7t12 5t11.5 3t13 1.5t13 0.5h16.5h18h241q-50 -90 -63 -105q-23 -26 -69 -29h-26l-170 2q-51 -41 -85 -102q81 21 139 21q69 0 116.5 -35t47.5 -101q0 -63 -36 -123q-49 -82 -152 -133.5t-247 -51.5q-37 0 -57.5 4t-30.5 16
t-12.5 25t-2.5 41q0 33 37.5 60.5t72.5 39t47 11.5q16 0 16 -11q0 -8 -21 -22l-61 -42l2 -2q164 18 268 77.5t104 107.5q0 18 -24 28t-45 10q-48 0 -124 -16q-15 -3 -34 -7.5t-30.5 -7t-16.5 -2.5q-18 0 -32 21t-19.5 44.5t-5.5 41.5q0 39 49 90z" />
    <glyph glyph-name="six" unicode="6" 
d="M418 508l-137 -119l2 -2q7 3 23.5 11t26 12t24 9t27.5 7.5t26 2.5q54 0 87 -39t33 -94q0 -57 -34.5 -116t-81.5 -100t-93.5 -67t-72.5 -26q-51 0 -112.5 59.5t-61.5 144.5q0 62 31 126.5t82.5 119t104.5 97t110 77.5q38 23 56 29t58 6h7t12.5 0.5t15.5 0t16.5 -1t14 -2
t10.5 -4t4 -6.5q0 -12 -21 -21q-80 -37 -157 -104zM400 356q-44 0 -155 -97q-26 -23 -35.5 -33t-16 -28.5t-6.5 -46.5q0 -67 25 -63q65 11 140 79.5t77 150.5q0 13 -1.5 20t-8 12.5t-19.5 5.5z" />
    <glyph glyph-name="seven" unicode="7" 
d="M267 292l212 222q-39 3 -77.5 0.5t-61 -1.5t-46.5 -4t-34.5 -6t-26 -7t-20 -8t-16 -8.5t-15.5 -8.5q-28 -14 -32 -14q-9 0 -17.5 6.5t-8.5 15.5q0 14 28.5 53t47.5 59q26 27 98.5 41.5t241.5 14.5q42 0 55 -18q8 -11 16.5 -38.5t8.5 -40.5q0 -19 -50 -59
q-106 -90 -177.5 -192.5t-106.5 -237.5q13 5 24 5q10 0 11 -10q2 -12 -56.5 -49t-88.5 -38q-27 -1 -39 17t-12 46q0 80 142 260z" />
    <glyph glyph-name="eight" unicode="8" 
d="M520 520l-77 6q-78 6 -124.5 -19.5t-46.5 -60.5q0 -15 18 -44t37 -48zM295 240l-84 -77q-54 -49 -54 -83q0 -15 8 -18t26 -3q50 0 93.5 27t43.5 73q0 33 -33 81zM532 455l-166 -148q48 -59 50 -145q0 -25 -9.5 -51t-33 -54t-72.5 -47.5t-116 -23.5q-40 -3 -78 19.5
t-38 61.5q0 23 12 48.5t38 54t43.5 45.5t51 46t38.5 34q-2 3 -12.5 16t-13.5 17l-12 15.5t-12 17.5t-9.5 16.5t-9.5 18.5t-6.5 18.5t-4.5 20.5t-1 21q0 58 41.5 99t102.5 62q88 29 191 36q83 3 127 -12q16 -4 16 -19q0 -23 -30 -69q-17 -26 -27 -33.5t-28 -3.5
q4 -18 -1 -27.5t-31 -33.5z" />
    <glyph glyph-name="nine" unicode="9" 
d="M554 493l-37 -23q-20 -13 -32 -13q-11 0 -11 12q0 8 52 52l-2 2q-165 -42 -243 -102t-78 -116q0 -16 16 -16q53 0 134 41.5t132 84.5q53 42 71 42q13 0 33.5 -7t20.5 -18q0 -18 -33 -54l-263 -309q-43 -50 -72.5 -70.5t-61.5 -23.5q-22 -2 -22 18q0 8 26 51q2 4 7.5 12.5
l7.5 11.5t6.5 8.5t9 7.5t11 3t15.5 1l189 225l-2 2q-45 -32 -107.5 -65.5t-94.5 -33.5q-31 0 -77.5 47.5t-46.5 104.5q0 60 66 126.5t163.5 110t181.5 42.5q27 -1 62.5 -41t35.5 -60q0 -5 -2 -9.5t-6.5 -9.5t-8.5 -8.5t-10.5 -8t-10.5 -6.5t-11 -6t-8 -5z" />
    <glyph glyph-name="colon" unicode=":" horiz-adv-x="301" 
d="M111 -5q-18 2 -29 4.5t-22.5 12t-11.5 25.5q0 33 31 74t70 33q2 0 10.5 -1.5t13.5 -3t11.5 -4.5t10 -9t3.5 -14q0 -6 -8 -32.5t-29.5 -57t-49.5 -27.5zM230 232q-18 2 -29 4.5t-22.5 12t-11.5 25.5q0 33 31 74t70 33q2 0 10.5 -1.5t13.5 -3t11.5 -4.5t10 -9t3.5 -14
q0 -6 -8 -32.5t-29.5 -57t-49.5 -27.5z" />
    <glyph glyph-name="semicolon" unicode=";" horiz-adv-x="301" 
d="M55 43q0 31 30 64t62 33q51 0 51 -23q0 -19 -16.5 -57t-30.5 -54q-11 -14 -21 -24.5l-17 -17.5t-15.5 -11.5t-12.5 -7t-11 -4t-9 -1.5h-9h-8q33 44 45 68q-13 4 -19 6.5t-12.5 10t-6.5 18.5zM231 233q-18 2 -29 4.5t-22.5 12t-11.5 25.5q0 33 31 74t70 33q2 0 10.5 -1.5
t13.5 -3t11.5 -4.5t10 -9t3.5 -14q0 -6 -8 -32.5t-29.5 -57t-49.5 -27.5z" />
    <glyph glyph-name="less" unicode="&#x3c;" horiz-adv-x="648" 
d="M598 4l-450 225v61l450 224v-67l-388 -186v-2l388 -188v-67z" />
    <glyph glyph-name="equal" unicode="=" horiz-adv-x="617" 
d="M569 332h-455v60h455v-60zM569 129h-455v60h455v-60z" />
    <glyph glyph-name="greater" unicode="&#x3e;" horiz-adv-x="648" 
d="M148 514l450 -224v-62l-449 -224v67l387 187v2l-388 187v67z" />
    <glyph glyph-name="question" unicode="?" horiz-adv-x="467" 
d="M224 547l10 -4q30 -11 30 -24q0 -18 -21 -18q-3 0 -18 3l-39 6h-10t-11.5 0.5t-9.5 2t-9 4t-5.5 7.5t-2.5 12q0 14 9 40.5t17 40.5q19 31 89.5 49.5t121.5 18.5q60 0 91 -24t31 -82q0 -91 -70 -174l-130 -154q-3 -4 -9.5 -10.5t-9 -10t-5 -10.5t-2.5 -14q0 -4 3 -13
t3 -14q0 -23 -22 -23q-23 0 -40 24t-17 48q0 56 72 124l115 106q1 1 14.5 13t18 16.5t13.5 15t12.5 20t3.5 18.5q0 15 -6 24.5t-18 13t-21.5 4.5t-24.5 1q-27 0 -56 -6t-44.5 -11.5zM174 -11q-20 0 -37 14.5t-17 33.5q0 34 17 78t41 44q26 0 44 -19t18 -45q0 -34 -17.5 -70
t-48.5 -36z" />
    <glyph glyph-name="at" unicode="@" horiz-adv-x="794" 
d="M496 -26l5 -45q-89 -41 -191 -41q-149 0 -215.5 87t-32.5 225q38 153 171 261t304 108q150 0 214.5 -83t34.5 -204q-26 -105 -99.5 -166.5t-150.5 -61.5q-35 0 -52.5 23t-8.5 65h-3q-76 -88 -164 -88q-48 0 -71.5 35t-8.5 94q23 96 106.5 162t184.5 66q71 0 115 -23
l-78 -175q-45 -103 6 -105q42 0 92.5 43.5t71.5 126.5q26 107 -29 175.5t-182 68.5q-118 0 -237.5 -90t-153.5 -226q-31 -124 29 -196.5t179 -72.5q90 0 164 37zM499 246l46 101q-24 8 -52 8q-58 0 -113 -46.5t-71 -110.5q-8 -33 3 -54.5t44 -21.5q36 0 79 39.5t64 84.5z
" />
    <glyph glyph-name="A" unicode="A" horiz-adv-x="779" 
d="M557 348l136 228l-2 2l-289 -239l2 -2zM604 230l-63 -123q0 -16 18 -16q3 0 6.5 0.5t6.5 1.5t7.5 4t8 5t10.5 7.5l12.5 9.5l16.5 12l20 15l18 -26q-129 -129 -204 -129q-25 0 -38 17t-13 43q0 1 -0.5 3t-0.5 4t1 7.5t3.5 12.5t8 19.5l13 28.5t20 40.5l28.5 53.5l-218 -7
l-205 -204l-9.5 -9.5l-11 -11l-11 -10.5t-13 -11t-12.5 -9t-14 -8.5t-13 -4.5t-14 -2q-35 0 -35 22q0 29 53 84t118 78l78 86q-48 -4 -72.5 -0.5t-24.5 20.5t45 62.5t81 57.5q32 11 61 14t32 -7q0 -9 -36.5 -13.5t-36.5 -13.5t14 -9q48 3 61 3l224 186q208 172 263 172
q15 0 25 -14t10 -29q0 -17 -31 -73l-124 -217q19 0 31.5 1t14.5 2t8 0.5t11.5 -1.5t26.5 -6q-35 -41 -75 -114z" />
    <glyph glyph-name="B" unicode="B" horiz-adv-x="710" 
d="M345 325q5 -1 57.5 -8.5t86.5 -15.5t79 -21.5t69 -35t24 -48.5q0 -23 -24.5 -54.5t-69.5 -64.5t-124 -58t-174 -30q-29 -2 -57.5 3t-55 16.5t-43 35.5t-16.5 56q0 20 3 31t27 47.5t81 111.5q-19 1 -27.5 2t-27.5 5t-28 12t-9 20q0 19 34 30t82 16.5t54 7.5l37.5 38t45 43
t40.5 30.5t53.5 28t54.5 7.5q-11 -26 -97 -127q64 9 115 22.5t81 27.5t49 29t26 26.5t6 20.5q-1 13 -11.5 24.5t-45 20t-88.5 4.5q-115 -10 -281 -70q14 -7 14 -15q0 -17 -36 -23q-45 -7 -139 -38q-21 -7 -31 -7q-25 0 -25 27q0 7 12.5 32t33.5 52q49 66 84 79
q75 29 193.5 52.5t194.5 23.5q117 0 165 -36t48 -86q0 -26 -10 -49.5t-30.5 -42t-41.5 -34t-55.5 -28.5l-58.5 -21.5t-64 -17.5l-59 -13.5t-56.5 -11.5t-44.5 -8zM301 275l-56 -61q-35 -38 -35 -57q0 -28 38 -41.5t73 -13.5q67 1 147 38.5t80 67.5q0 33 -92.5 50t-154.5 17z
" />
    <glyph glyph-name="C" unicode="C" horiz-adv-x="715" 
d="M348 317l74 65q39 39 51 39q17 0 10 -23l2 -2q69 60 114.5 120.5t45.5 86.5q0 27 -27 20q-1 0 -9.5 -2t-17 -4.5t-23.5 -7.5t-32 -14.5t-39 -23t-47.5 -34t-54 -46t-63 -61.5t-70.5 -78q-53 -62 -87 -137t-34 -132q0 -113 106 -113q84 0 214 81t227 167q1 -25 -5 -42
t-14.5 -27t-31.5 -32q-134 -130 -253.5 -189t-201.5 -59q-85 0 -138 49.5t-53 134.5q0 100 67 207.5t159 194.5q84 80 209 160.5t205 80.5q46 0 73 -24.5t29 -70.5q3 -48 -38 -118t-100 -131t-126 -107.5t-113 -53.5q-22 -3 -39 11t-17 37q0 37 48 78z" />
    <glyph glyph-name="D" unicode="D" horiz-adv-x="804" 
d="M446 476l-221 -288q-33 -43 -21 -68q11 -17 57 -18q100 -1 230 43q147 52 215 123.5t68 144.5q0 115 -225 133q-11 1 -70 4q-12 -46 -33 -74zM184 248l239 298q-123 -12 -215 -47v-2h27q54 0 54 -11q0 -15 -31 -18q-18 -3 -78.5 -21t-87.5 -18q-38 0 -38 35q0 10 14 69
q9 37 31.5 57.5t63.5 39.5q71 31 166.5 50.5t173.5 19.5q156 0 239 -53q52 -34 78.5 -94t26.5 -127q0 -100 -68 -184t-169 -141q-82 -46 -201.5 -79t-211.5 -33q-66 0 -86 11q-23 12 -23 53q0 34 17 73t33 62t46 60z" />
    <glyph glyph-name="E" unicode="E" horiz-adv-x="702" 
d="M748 616q2 -43 -5.5 -54.5t-49.5 -24.5q-28 -9 -59.5 -25l-52.5 -27.5t-28 -12.5q-3 -1 -7 2.5t-4 7.5q0 17 69 71q-67 1 -129 -9t-105 -25.5t-75 -34t-46.5 -34.5t-12.5 -27q3 -15 18 -21q52 -22 300 -17q67 0 67 -22q0 -13 -13 -34.5t-24 -30.5q-16 -14 -95 -26
q-90 -15 -163.5 -42t-114.5 -56t-62.5 -53.5t-21.5 -39.5q0 -29 84 -32q104 -6 236 35q32 10 64.5 26.5t76 43.5t60.5 36q4 -59 -6.5 -92.5t-51.5 -67.5q-17 -15 -44.5 -31.5t-74 -37.5t-112.5 -33.5t-138 -11.5q-61 1 -137 22q-30 8 -50 44t-20 69q0 28 19.5 60.5
t60.5 70.5t120 74.5t183 62.5v3q-82 3 -138 13t-84.5 26.5t-40 34.5t-11.5 41q0 31 17 64t55.5 66.5t92.5 60.5t134.5 43.5t175.5 16.5q127 0 141 -30z" />
    <glyph glyph-name="F" unicode="F" horiz-adv-x="695" 
d="M535 171l-171 -180q-39 -41 -105.5 -94t-96.5 -53q-10 0 -17 7t-7 18q0 19 20.5 49t40.5 51q40 46 104 63l117 124l-149 -12q-10 -1 -30 1.5t-21 11.5q-7 48 26 69q50 32 135 48l153 29q32 42 73 120t41 111q0 9 -5.5 13.5t-10 5t-16.5 0.5q-32 0 -83 -8
q-193 -32 -336 -94l2 -2l52 1q19 0 19 -9t-30 -17l-116 -36q-32 -10 -50 -10.5t-22.5 4.5t-4.5 15q0 20 29.5 76t47.5 77q18 23 46 38.5t46.5 20.5t58.5 14q275 63 396 63q103 0 103 -53q0 -49 -55.5 -158.5t-101.5 -177.5l67 -11l-40 -64q-17 -27 -27 -32q-10 -4 -24 -7.5
t-33 -7t-25 -4.5z" />
    <glyph glyph-name="G" unicode="G" horiz-adv-x="697" 
d="M451 230l-111 -81q-3 -2 -17.5 -13l-21 -16t-21.5 -15.5t-24 -16l-23.5 -14t-24.5 -12.5t-22.5 -8.5t-23 -6t-19.5 -0.5q-56 6 -84 45t-28 95q0 60 37 131t86 121q71 78 207 152.5t319 95.5q26 3 41 -17q18 -25 18 -64q0 -27 -41 -54q-140 -91 -167 -91q-13 0 -13 14
q0 10 27 29l42 34l-2 2q-105 -31 -199.5 -89.5t-151 -116.5t-88 -107t-27.5 -69q9 -38 35 -38q27 0 68 31l366 278q13 13 23 13t37 -17q25 -14 25 -27q0 -7 -14 -35q-19 -39 -44.5 -80.5l-71 -111l-67.5 -103.5l2 -2l220 142q-2 -34 -10 -47q-18 -27 -121 -97l-161 -109
q-44 -60 -129.5 -140t-130.5 -80q-35 0 -37 42q-2 49 53 108t131 96q111 142 160 247z" />
    <glyph glyph-name="H" unicode="H" horiz-adv-x="901" 
d="M589 174l-184 -24l-104 -122q-1 -2 -8 -12l-11 -16t-11 -13.5t-14 -11.5t-14 -4q-17 0 -33 13t-16 30q0 16 40.5 66.5t44.5 57.5q-102 -9 -102 41q0 19 18.5 47.5t37.5 28.5q3 0 11 -3.5t12 -3.5q3 0 11 2.5t47.5 11.5t105.5 22q61 60 198 215q42 45 42 69q0 22 -35 22
q-90 0 -343 -105q14 -6 14 -15q0 -16 -25 -24l-45 -16.5t-24.5 -10.5l-28.5 -15l-39 -20q-28 -14 -40 -14q-16 0 -23 14.5t-7 31.5q0 23 10.5 58t23.5 52q39 44 260 114q65 21 149 36t146 15q57 0 82.5 -28t25.5 -70q0 -27 -16 -57.5t-34 -52t-42 -47.5q-6 -5 -8 -8
l-113 -120l154 18l181 227q54 72 75 72q17 0 17 -23q0 -26 -14 -51.5t-68 -91.5l-108 -133h13.5t14.5 -0.5t13.5 -1t14.5 -1t13.5 -1t14.5 -2t13 -3.5t13.5 -4t12.5 -5t13 -7q-73 -57 -120 -134q-47 11 -102 7q-2 -4 -18.5 -29t-25 -43t-8.5 -31q0 -8 11 -60
q-16 4 -56 -16.5t-53 -16.5q-25 9 -18 50q9 53 58 146z" />
    <glyph glyph-name="I" unicode="I" horiz-adv-x="493" 
d="M184 372l25 5q33 6 38 6q9 0 9 -10q0 -4 -2 -8.5t-6 -8l-7 -6l-8 -6.5t-7 -5t-12.5 -9l-18.5 -14t-19 -13.5t-20 -11.5t-14 -4q-17 0 -54.5 27.5t-35.5 46.5q7 73 77 152t164 129.5t170 50.5q48 0 73.5 -31.5t25.5 -80.5q0 -59 -48 -164t-95.5 -182t-98.5 -151
q12 -30 -17.5 -71.5t-54.5 -43.5q-18 -2 -37.5 13.5t-19.5 33.5q0 16 17 39q123 177 194.5 310t71.5 174q0 15 -6.5 28t-20.5 13q-46 -6 -136 -72t-127 -136z" />
    <glyph glyph-name="J" unicode="J" horiz-adv-x="544" 
d="M345 94l-203 -235q-93 -108 -136 -108q-17 0 -28 15t-11 32q0 129 306 309l143 240q77 130 94 258q-111 -38 -196.5 -141t-107.5 -220q65 40 68 40q9 0 9 -8q0 -4 -7 -13.5t-14 -17.5t-17 -18.5l-11 -11.5t-9 -10l-10.5 -12t-11 -12t-13 -13t-13 -11t-14 -10.5l-13 -8
t-14.5 -6t-14 -1.5q-39 0 -39 75q0 92 70 223q37 70 91.5 124t108.5 83t98.5 43t74.5 14q26 0 49 -23t23 -41q0 -57 -42 -159t-165 -309l2 -2l116 51l13 -32z" />
    <glyph glyph-name="K" unicode="K" horiz-adv-x="840" 
d="M151 57l149 192q-17 24 -17 42q0 45 63 78l106 55l97 152q-80 -19 -147 -43t-103 -41l-140 -68q-38 -19 -57 -19q-31 0 -31 30q0 23 25 94q3 10 6.5 17t5.5 11.5t8.5 10t8 7.5t12 9.5l14.5 10.5l55 41q23 15 31 15q10 0 10 -11v-1q0 -5 -6 -11.5t-40 -35.5l2 -2
q7 2 54 21t86 33t100 28.5t114 17.5q13 1 21 -1.5t12 -6.5t14 -16q29 -37 29 -56q0 -16 -25 -53l-51 -74l2 -2l319 151q51 23 60 23q19 0 19 -19q0 -9 -17 -36t-49 -50.5t-63 -14.5l-367 -183q-23 -16 -23 -37q0 -7 6 -14.5t11 -11t16.5 -9.5t12.5 -7l253 -147
q28 -16 45 -29t32 -35.5t15 -49.5q0 -49 -25 -49q-13 0 -50 22l-395 217l-80 -96q1 -34 -44.5 -75t-77.5 -41q-27 0 -27 22q0 18 21 45z" />
    <glyph glyph-name="L" unicode="L" horiz-adv-x="700" 
d="M76 29l-22 -10q-7 -2 -23.5 -9t-30 -11t-25.5 -4q-31 0 -31 21q0 7 4.5 17t13 22.5l15.5 22l17 22.5t12 15q18 25 31 28q23 5 67 10.5t62 8.5l291 346q42 50 121.5 121t114.5 71q24 0 37 -20t13 -45q0 -22 -14.5 -57.5t-30 -63l-39.5 -67t-30 -50.5q18 -2 18 -14
q0 -18 -56 -58q-2 -2 -13 -10l-19.5 -14t-20 -13t-20.5 -11t-14 -4q-23 0 -23 30q0 87 134 238q12 14 5 18q-1 1 -3 1q-21 0 -167 -167l-200 -229q243 -47 402 -85l-53 -53q-21 -21 -27 -27.5t-24.5 -16t-26.5 -9.5t-39 2.5t-56 8l-83 17.5q-148 32 -267 28z" />
    <glyph glyph-name="M" unicode="M" horiz-adv-x="1143" 
d="M468 156l68 89q111 146 162 244q8 15 10.5 25t0 14t-8.5 4q-13 0 -31 -21l-240 -260l-150 -202q-1 -1 -6 -8l-6.5 -9l-7 -9t-8 -9.5t-8 -7.5t-9 -7.5t-9 -5.5t-10.5 -4t-10 -1q-10 0 -19.5 6.5t-15.5 14.5t-13 23t-10.5 23.5t-8.5 24l-6 18.5l209 264q116 208 70 208
q-7 0 -31 -12l-125.5 -60.5t-81.5 -41.5l-44 -24.5t-26 -14t-14 -4.5t-20 -1q-13 0 -20.5 10t-3.5 27q21 112 26 118q1 1 3 4t2.5 3.5l4 4t7 6l10 7.5l15 11.5l21 15.5l29.5 21q18 14 25 14q12 0 12 -10q0 -12 -53 -58l2 -2l113 52q1 0 20.5 9l41.5 18.5l48 20t47.5 17
t31.5 5.5q6 0 10.5 -1.5t7.5 -3t6.5 -5.5t4.5 -6t4.5 -8t4.5 -8l24 -42q12 -22 12 -38q0 -19 -30 -92.5t-32 -81.5l2 -2l159 154q116 110 163 111q22 1 47.5 -16.5t25.5 -52.5q0 -21 -10.5 -50t-31.5 -66l-35.5 -61t-41.5 -63.5t-30 -44.5l2 -2l114.5 101l134.5 118.5
l120 99.5q2 2 8.5 7.5t10.5 8.5l10 7.5t11.5 6.5t10.5 2q19 0 44 -34t25 -52q0 -16 -43 -70l-155 -189q-115 -140 -115 -227q0 -18 9.5 -33.5t25.5 -15.5q24 0 86 43t155 133l4 -38q-19 -54 -141 -146.5t-184 -92.5q-46 0 -67 35.5t-21 85.5q0 25 6 51.5t22 58.5l26.5 52.5
t37 57.5t34.5 49t39 51.5t32 40.5l-2 2l-112 -96t-81 -75t-90 -95.5l-99 -121.5q-60 -76 -88 -76q-26 0 -39.5 35t-13.5 66q0 27 40 79z" />
    <glyph glyph-name="N" unicode="N" horiz-adv-x="836" 
d="M550 191l170 313l-2 2q-156 -148 -238 -241q-19 -22 -188 -248q-20 -28 -32 -28q-18 0 -48.5 23.5t-30.5 39.5q0 5 10 22q47 73 140 245t93 208q0 21 -16 21q-62 0 -312 -165q-17 -13 -30 -13q-18 0 -18 44q0 42 27.5 89t63 81t68 56.5t44.5 22.5q11 0 11 -8
q0 -12 -54 -64l2 -2l89.5 48.5t91 38.5t97.5 22q28 0 47 -15t17 -41q-4 -56 -34.5 -119t-139.5 -254l2 -2q240 289 302 331l29 20l38.5 26.5t34 20.5t26.5 10q17 0 49.5 -31.5t32.5 -63.5q0 -27 -34 -79.5l-92.5 -139t-97.5 -163.5q-31 -62 -31 -82q0 -41 26 -41t96.5 65
t103.5 106q1 -9 2 -19.5l1.5 -16t0.5 -9.5q0 -9 -11 -23q-97 -126 -174.5 -183t-117.5 -57q-35 0 -51.5 25.5t-16.5 61.5q0 66 54 166z" />
    <glyph glyph-name="O" unicode="O" horiz-adv-x="639" 
d="M553 550l1 -1q57 16 90 -9q29 -24 31 -79q2 -98 -64.5 -207.5t-177 -184.5t-220.5 -74q-32 0 -60.5 10.5t-54.5 33t-43 63.5t-20 97q-4 77 48.5 163t132 152.5t170.5 114.5t163 58q31 5 64 -29t33 -51q0 -19 -49 -35q-16 -6 -44 -22zM292 350q-20 -27 -31 -27t-14 28
q-111 -111 -111 -218q0 -29 13 -47t40 -18q40 0 95.5 24.5t89.5 53.5q97 83 154 167.5t59 141.5q1 19 -9.5 34t-29.5 15q-63 0 -141 -49t-115 -105z" />
    <glyph glyph-name="P" unicode="P" horiz-adv-x="742" 
d="M212 166l-41 -68q19 -4 19 -18q0 -12 -51 -81q-34 -47 -59 -47q-34 0 -34 36q0 15 12.5 45t24.5 51.5t34 58t24 40.5q-45 28 -45 64q0 12 6 23t18.5 20t24.5 16t31 13.5l29.5 10t29 9t21.5 6.5l159 210q-77 -1 -156 -18t-129 -33t-59 -16q-16 0 -16 10q0 21 74 123
q17 24 76 41q122 35 269 35q91 0 154 -14t98 -42t50 -63.5t15 -84.5q0 -105 -77.5 -186.5t-211 -120t-290.5 -20.5zM451 503l-105 -145q12 0 35 3t33 2t10 -10t-21.5 -15.5t-47.5 -11.5t-32 -9l-22 -33q49 -13 103 -10q69 4 132.5 29.5t103 59.5t61 69t17.5 59
q-5 28 -59.5 45.5t-102.5 22.5t-83 5q-1 -32 -22 -61z" />
    <glyph glyph-name="Q" unicode="Q" horiz-adv-x="683" 
d="M462 -28l-334 52l-18 -12.5t-23 -15.5t-21 -10t-23 -5q-24 0 -24 22q0 38 20.5 82t44.5 61q8 6 20 8.5t21 2.5t28.5 -1t30.5 -1q214 113 336.5 230t122.5 169q0 22 -42 22q-39 0 -150.5 -41t-194.5 -101v-2q11 0 23 0.5t19.5 0.5t15.5 0.5t13 0.5t9.5 -0.5t7 -1.5t5 -3
t3 -5t0.5 -7q0 -13 -20 -17q-78 -15 -158 -56q-28 -13 -37 -0.5t-9 72.5q-2 28 -1 49t10 33q40 53 207 122t263 69q53 0 88.5 -35.5t35.5 -90.5q0 -23 -9 -48.5t-23 -48.5t-37.5 -49.5t-45 -47t-54 -46.5l-55 -43.5t-57.5 -41.5l-53.5 -36l-50.5 -32.5l-41 -26.5
q228 -45 278 -45q18 0 50.5 6t38.5 7q-20 -64 -55 -126q-11 -20 -47.5 -22.5t-107.5 9.5z" />
    <glyph glyph-name="R" unicode="R" horiz-adv-x="805" 
d="M433 451l-74 -113l249 65q46 12 110.5 48.5t64.5 68.5q0 20 -49.5 26.5t-80.5 3.5l-185 -13q0 -7 -0.5 -14t-3 -14l-4 -11.5t-6 -12.5l-6 -10.5t-8 -12t-7.5 -11.5zM600 12l-370 137l-86 -125q8 -24 -21 -48t-53 -24q-9 0 -16 6t-7 15q0 22 17 49l93 153q-10 3 -20.5 7
t-20 12.5t-7.5 17.5q7 42 47.5 71.5t106.5 31.5l148 214q-143 -24 -215 -52v-2q9 -1 19 -1.5t17 -1l13.5 -1t11 -1t8.5 -1t6.5 -1.5t4.5 -2.5t2.5 -3t0.5 -4.5q0 -11 -19 -11l-78 -8q-9 -1 -28.5 -4t-35.5 -4.5t-29 -1.5q-36 0 -36 24q0 23 17.5 61.5t33.5 59.5
q36 43 175.5 76t289.5 33q287 0 287 -137q0 -39 -21.5 -88t-50.5 -72q-16 -13 -31 -22t-29 -16.5t-38 -14.5l-42.5 -12t-60 -13l-73 -14l-98.5 -18l-120 -22v-2l270 -86q35 -11 63 -21.5t45.5 -19l30 -15t19 -12.5t9 -9t4.5 -7l2 -5q16 -26 14.5 -68t-25.5 -42
q-12 0 -35.5 8.5t-52.5 21z" />
    <glyph glyph-name="S" unicode="S" horiz-adv-x="712" 
d="M246 428q0 -6 0.5 -8t12.5 -9t38.5 -14.5t80 -21.5t134.5 -33q72 -17 110 -52t38 -74q0 -57 -38 -100.5t-93 -67.5t-127 -39t-128 -19.5t-107 -4.5q-161 0 -161 58q0 15 18.5 45.5t32.5 43.5q9 7 41.5 18t44.5 11q8 0 8 -7q0 -9 -17 -19q-6 -4 -17 -15v-2q101 -4 184 4.5
t131 22.5t81.5 31t46 29.5t12.5 18.5q0 8 -9 16.5t-27 16t-37.5 14t-47 13l-49 11.5t-50.5 10t-44.5 8t-37 6.5t-23.5 3.5q-22 3 -37.5 8t-31.5 14t-24.5 25t-8.5 37q0 26 10 69.5t22 63.5q28 46 155 96t276 50q61 0 126 -14q16 -4 21 -10.5t5 -22.5q0 -52 -18 -73.5
t-66 -40.5q-31 -12 -45.5 -19.5t-44.5 -29.5q-18 -10 -25 -10q-16 0 -16 15q0 2 6.5 10.5t24.5 25.5t42 34l-2 2q-73 -3 -137 -14.5t-105 -27t-71 -32.5t-43.5 -30t-13.5 -21z" />
    <glyph glyph-name="T" unicode="T" horiz-adv-x="677" 
d="M161 428l-58 -1q-15 0 -22.5 1t-15 7t-7.5 19q0 7 9 58q1 5 3 18t3 16.5t3 13t3.5 12.5l5 10.5t6.5 10t8 8t11.5 9t14 8t17.5 8.5q145 66 374 66q93 0 151 -13q18 -4 29.5 -9.5t19.5 -17.5t11.5 -20.5t10.5 -30.5t12 -36q3 -8 -0.5 -20.5t-8.5 -21t-15.5 -23.5l-12.5 -18
l-235 -356l2 -2q8 4 15.5 0t7.5 -14q0 -19 -42 -71q-2 -2 -10.5 -13.5t-14 -18l-15 -17.5t-17 -17t-16.5 -11t-16 -5q-21 0 -37.5 11t-16.5 31q0 97 249 415l100 128q-274 -5 -506 -77v-2q2 0 13.5 -2t21 -4t21 -5.5t18 -8t6.5 -10.5q0 -9 -10 -10t-33 2t-37 3z" />
    <glyph glyph-name="U" unicode="U" horiz-adv-x="874" 
d="M583 207l82 139l-2 2q-372 -362 -424 -352q-94 16 -94 103q0 22 12 50t38 63l37 49t39 46l69.5 80l54 60.5l35 39t21.5 26.5t6 13q0 10 -10 10q-1 0 -29 -11q-90 -38 -242 -113q-64 -32 -102 -32q-15 0 -21.5 4.5t-4.5 16.5q6 34 25.5 72t53 76t86 67t114.5 39
q16 2 99 21.5t116 19.5q41 0 54.5 -39t1.5 -79q-5 -17 -14.5 -33.5t-16.5 -26l-23.5 -30.5l-24.5 -31q-46 -49 -138 -162t-92 -135q0 -18 20 -18q27 0 122.5 79.5t143.5 127.5l86.5 85l69.5 69.5l52 52l41 39.5t28 24.5t22 15.5t14 4q20 0 30.5 -21.5t10.5 -42.5
q4 -12 -13.5 -39.5t-93.5 -134.5l-83 -116q-90 -126 -90 -177q0 -17 11 -28.5t27 -11.5q15 0 35.5 9t47.5 28t42.5 31l45 36.5t30.5 24.5q5 -28 5 -33q0 -15 -52 -59.5t-121.5 -84.5t-109.5 -40q-35 0 -57 22t-22 57q0 61 52 148z" />
    <glyph glyph-name="V" unicode="V" horiz-adv-x="699" 
d="M189 390l56 3q1 0 7 0.5t10.5 0.5t10.5 -1t9 -3.5t3 -6.5t-3.5 -7.5t-9.5 -5.5t-11.5 -3.5t-12 -2.5t-7.5 -1q-39 -8 -78 -22.5t-61.5 -25t-28.5 -10.5q-22 0 -22 53q0 81 51 128q43 40 209 122t217 83q24 1 45.5 -31t21.5 -47q0 -17 -38 -76q-210 -335 -215 -403
q-2 -22 4.5 -42.5t21.5 -15.5q18 6 38.5 23.5t84.5 103t160 238.5q-5 30 17 74t51.5 73.5t44.5 24.5q14 -5 18 -22.5t-7 -54.5t-37.5 -89t-79 -131.5t-125.5 -175.5q-1 -1 -17 -22l-24 -31.5l-25.5 -32t-30 -34t-28.5 -27t-29.5 -21t-24.5 -6.5q-34 0 -74 43t-39 95
q3 102 207 440l-2 2l-93 -45.5t-81.5 -47t-84.5 -61.5z" />
    <glyph glyph-name="W" unicode="W" horiz-adv-x="978" 
d="M585 296l-140 -151q-82 -88 -129 -125t-80 -37q-29 0 -60.5 47t-26.5 74q0 1 1.5 10t3 12.5t8.5 18.5t18.5 29.5l33 43t51.5 63l74.5 85.5l101.5 113q1 1 9 10t11 13t7 12t4 14q0 25 -35 25q-39 0 -143 -42t-152 -71q-39 -24 -67 -24q-4 0 -8.5 2t-9 10.5t-5 21.5t6 38
t21.5 58q4 9 8 16t11.5 14.5t10.5 10l15 12t15 11.5l69 54q11 11 22 11q3 0 5 -1.5t2 -6.5t-5 -12l-28 -32l2 -2q10 4 40 14.5l43.5 15l40 13t44 12t41.5 7t46 3.5q59 0 80 -27q12 -16 21.5 -48t9.5 -53q0 -22 -10.5 -47t-76 -113.5t-190.5 -233.5q-25 -29 -1 -37
q7 -3 58.5 41.5t151.5 145t210 225.5q4 4 19.5 24t27 32.5t30.5 24.5t37 12q19 0 31.5 -24t12.5 -41q0 -15 -34 -62q-59 -82 -141 -216t-81 -173q-1 -7 4 -12t10 -3q73 34 170 141.5t160 243.5q-5 15 -5 37q0 24 31 63.5t44 39.5t20 -19t6 -34q-4 -104 -83 -242.5
t-176.5 -237t-159.5 -107.5q-30 -4 -69.5 27.5t-39.5 71.5q0 22 7.5 53.5t13 50t21 60t16.5 45.5z" />
    <glyph glyph-name="X" unicode="X" horiz-adv-x="688" 
d="M549 462l163 153q34 31 48 31q18 0 18 -21q0 -29 -28.5 -70t-57.5 -38l-151 -145l-20 -233q-5 -19 -2 -38.5t26 -19.5q16 0 36.5 10.5t49.5 30.5l32 22l18 -26q-38 -48 -106 -99t-113 -51q-28 0 -41.5 22t-13 50t0.5 53v7l8 152l-190 -179q-102 -97 -134 -97
q-27 0 -27 29q0 43 59.5 97t106.5 64l192 182l10 226q-16 -6 -55 -18.5t-60 -20l-53 -19.5t-59 -24t-52 -26v-2q16 -1 38 -2q35 -1 35 -10q0 -4 -3.5 -6.5t-14.5 -6t-24.5 -7t-39.5 -11t-53 -16.5q-46 -15 -46 14q0 20 24.5 71t41.5 65q57 50 179 89.5t203 39.5
q49 0 60.5 -23t6.5 -75z" />
    <glyph glyph-name="Y" unicode="Y" horiz-adv-x="742" 
d="M598 332l-265 -229q-97 -84 -136 -84q-26 0 -49.5 21.5t-19.5 45.5q0 1 1 9t2 12t6 17t12 24.5l20.5 33t31 45.5l44.5 58.5l61 74.5q109 130 123 156q9 15 9 24q1 5 -3 7.5t-10 3.5l-209.5 -109.5t-118.5 -64.5q-17 -12 -32 -12q-14 0 -17 9q-3 10 6 40l15 54
q8 26 21 40.5t41 32.5q80 49 199 100.5t183 51.5q29 0 49.5 -13.5t20.5 -41.5q0 -9 -4 -21t-12.5 -27l-15 -26.5t-20.5 -29.5t-19 -25.5t-20 -25.5l-14 -18l-60 -76.5l-47.5 -59l-34.5 -43l-25.5 -32.5t-15.5 -21.5t-9.5 -17t-2.5 -13.5q-1 -7 5.5 -11.5t19.5 -2t28 15.5
l78 62.5t82 68.5l192 174q44 40 56 40q17 0 32 -21t15 -39q0 -8 -5 -18.5t-20.5 -32l-33.5 -46l-54.5 -74.5l-74.5 -104q-106 -151 -119 -180q-11 -24 1 -25q6 0 13 4l39.5 23.5t81.5 44.5q19 10 35.5 16t27.5 8t18.5 1t11 -4t3.5 -8q0 -11 -23.5 -32.5t-37.5 -29.5
q-166 -125 -235 -206q-17 -20 -26.5 -30t-29 -23.5t-35.5 -13.5q-20 0 -32 14t-12 35q0 65 114 239t202 283z" />
    <glyph glyph-name="Z" unicode="Z" horiz-adv-x="644" 
d="M338 213l-104 -46q-30 -13 -51.5 -24t-27 -14.5t-10.5 -5.5t-12 -2q-16 0 -16 14t26 81q11 31 26 42q24 19 82 48l115 55t62 29q102 56 130 76.5t28 44.5q0 12 -12 19.5t-24 7.5q-73 0 -177 -45t-313 -165q4 107 31.5 162t113.5 105q65 37 163.5 65t171.5 28
q159 0 159 -120q0 -32 -12.5 -60.5t-30.5 -48t-46.5 -39t-52 -32l-56.5 -29.5l-51 -27q60 -11 90 -36t38 -81q34 11 52 12.5t19.5 -1.5t1.5 -8v-1q0 -11 -12 -19t-61 -26q-25 -132 -164 -255q-48 -43 -141 -93t-135 -50q-19 0 -51.5 21.5t-32.5 40.5q0 53 116 154t317 191
q0 11 -3.5 21t-14 19t-26 13t-43 -1t-62.5 -20zM473 120q-81 -40 -156 -96t-113.5 -97t-38.5 -55q0 -10 12 -10q51 0 160.5 91t135.5 167z" />
    <glyph glyph-name="bracketleft" unicode="[" horiz-adv-x="380" 
d="M351 -131h-296l217 837h292l-27 -88h-160l-171 -661h173z" />
    <glyph glyph-name="backslash" unicode="\" horiz-adv-x="334" 
d="M285 -39h-69l-75 712h68z" />
    <glyph glyph-name="bracketright" unicode="]" horiz-adv-x="380" 
d="M165 706h296l-217 -837h-292l27 88h160l171 661h-173z" />
    <glyph glyph-name="asciicircum" unicode="^" horiz-adv-x="646" 
d="M604 239h-68l-152 334l-152 -334h-65l188 397h61z" />
    <glyph glyph-name="underscore" unicode="_" horiz-adv-x="500" 
d="M0 -75h500v-50h-500v50z" />
    <glyph glyph-name="grave" unicode="`" horiz-adv-x="350" 
d="M99 517l59 -18q101 -30 121 -43q28 -19 28 -41q0 -9 -14 -9q-13 0 -33 8q-31 12 -95 21q-46 6 -85 4q-30 -2 -33.5 3.5t-1.5 37.5q0 3 0.5 12t1.5 12.5t3 9t6.5 7.5t11.5 2q11 0 31 -6z" />
    <glyph glyph-name="a" unicode="a" horiz-adv-x="487" 
d="M309 277q-85 -26 -141.5 -51.5t-82 -49.5t-34.5 -42.5t-9 -39.5q1 -5 2.5 -8.5t6 -8t11.5 -3.5q30 6 69 35q63 48 180 166zM255 142l-92 -74q-85 -67 -106 -67q-22 0 -54.5 40.5t-33.5 77.5q-2 58 67.5 119.5t157 98t147.5 38.5q30 1 47.5 -17t17.5 -31t-35 -25
q29 -12 29 -41q0 -14 -43.5 -69t-43.5 -80q0 -24 31 -24q15 0 35 9t35 19t38.5 28t33.5 24l8 -37q-38 -43 -115 -99.5t-111 -56.5q-24 0 -36 15t-12 38q0 35 37 112z" />
    <glyph glyph-name="b" unicode="b" horiz-adv-x="400" 
d="M235 342l-156 -153q-13 -46 1 -80t43 -30q8 1 15.5 4.5t12.5 6.5t11.5 9.5t9.5 10l9.5 11.5t8.5 10q-14 23 -14 39q0 45 48 100.5t91 55.5q30 0 30 -44q0 -19 -7 -39t-23 -50.5t-18 -35.5q28 -5 51.5 5t54.5 32l10 -33q-60 -62 -160 -64q-101 -106 -179 -106
q-23 0 -39 15t-23 40t-9.5 46.5t-2.5 43.5q0 163 138 327q60 72 154 145.5t126 73.5q29 0 29 -37q0 -98 -212 -303zM363 596q-167 -142 -248 -301l2 -2q96 95 153.5 164t69 88t25.5 49z" />
    <glyph glyph-name="c" unicode="c" horiz-adv-x="359" 
d="M194 251l-84 -63q-40 -29 -40 -59q0 -20 20 -37t56 -17q35 0 81.5 22.5t70 40l69.5 52.5l12 -39q-60 -64 -132.5 -114t-135.5 -50q-55 0 -84.5 43t-29.5 103q0 59 20.5 91.5t74.5 72.5q41 31 100 59.5t97 28.5q45 0 45 -46q0 -38 -41.5 -85t-64.5 -47q-16 0 -24.5 13.5
t-9.5 30.5z" />
    <glyph glyph-name="d" unicode="d" horiz-adv-x="501" 
d="M502 467l-102 -158q-2 -4 -16.5 -26.5l-19.5 -30.5t-16 -28.5t-15.5 -33t-9 -30t-4.5 -32.5q0 -50 23 -50q15 0 46 20t67.5 48.5t44.5 33.5l7 -33q-142 -157 -223 -157q-26 0 -39.5 22t-13.5 50q0 26 8 76q-6 -5 -34.5 -31.5l-49 -44.5t-47 -34.5t-42.5 -16.5
q-30 0 -51.5 48t-21.5 83q0 55 54 108t119 82.5t111 32.5q6 0 10.5 -1t10 -5t7 -5t7.5 -8.5t7 -8.5q6 11 25 48.5l37 70t41 68t46.5 56.5t44.5 21q14 0 23 -11.5t9 -26.5q0 -29 -43 -96zM285 278q-86 -28 -130 -52.5t-57.5 -46t-16.5 -58.5q-2 -16 15 -19q13 -3 95.5 67
t93.5 109z" />
    <glyph glyph-name="e" unicode="e" horiz-adv-x="357" 
d="M362 187l9 -38q-56 -65 -129.5 -115t-140.5 -50q-51 0 -79 38.5t-30 92.5q-3 97 84.5 181t186.5 83q72 0 72 -48q0 -44 -55 -93.5t-186 -92.5l-2 -22q-2 -26 16.5 -38.5t45.5 -12.5q13 0 27.5 3.5t27 8t29.5 14.5l26.5 15.5t27.5 19l24.5 18.5l25 19.5t20.5 16.5z
M100 194q59 20 103.5 60t43.5 56q0 14 -12 11q-39 -10 -77 -44.5t-58 -82.5z" />
    <glyph glyph-name="f" unicode="f" horiz-adv-x="310" 
d="M22 -167q48 32 76.5 85.5t21.5 108.5q-43 -3 -72 8q-41 -69 -46 -113q-5 -41 20 -89zM311 434l-187 -261q8 -5 15 -11.5t12.5 -16l8.5 -15t9 -19.5t7 -17l135 84l11 -37q-78 -70 -129 -95q3 -15 1 -55q-6 -82 -82 -156.5t-139 -83.5q-21 -3 -35.5 21t-19 50.5t-4.5 47.5
q0 16 3.5 34.5t8 33t14 37l14 33t16 34.5t14.5 29q-29 31 -29 57q0 7 1 12.5t3 10.5l3.5 8.5t6.5 7.5t6.5 6.5t8 6t8.5 5t10 5.5t9 5q41 22 68 54.5t54 81.5l37.5 68l54.5 92t65 91.5t49 35.5q24 0 24 -44q0 -28 -17 -71.5t-35 -68.5z" />
    <glyph glyph-name="g" unicode="g" horiz-adv-x="443" 
d="M197 8l70 137l-2 2q-36 -40 -97.5 -85.5t-98.5 -45.5q-38 0 -56.5 37.5t-18.5 79.5q0 46 35 92t84 77t97 51.5t79 23.5q16 1 34.5 -5t18.5 -20q0 -18 -33 -41l-114 -62q-6 -4 -26.5 -14.5t-28.5 -15t-24 -14.5t-23 -18t-15 -20t-10.5 -25t-0.5 -28q1 -10 16 -10
q23 -2 61.5 15.5t65.5 46.5l107 118q25 28 38 28q14 0 26 -18.5t12 -32.5q0 -12 -21 -51l-75 -140l2 -2l152 109l5 -42l-211 -158q-72 -115 -135 -173t-97 -58q-10 0 -16.5 7t-6.5 17q0 47 70.5 118.5t136.5 119.5z" />
    <glyph glyph-name="h" unicode="h" horiz-adv-x="442" 
d="M63 165v-39l42 35l65 53l67.5 51.5t66.5 43.5t45 16q18 0 33 -15.5t15 -32.5q0 -16 -52 -77q-29 -36 -42.5 -54.5t-15 -22.5t-1.5 -11q0 -21 22 -21q9 0 23 5.5t31 15.5l29.5 18l30 20t21.5 14l5 -41q-2 -1 -23.5 -17.5l-32 -24.5l-33 -24.5t-38 -25.5l-34.5 -20
t-34.5 -16t-26.5 -5q-21 0 -33.5 15.5t-12.5 37.5q0 18 6.5 37.5t21 43t24 36.5t30 39l23.5 30l-2 2q-57 -39 -106 -83.5t-73.5 -73t-44 -47.5t-29.5 -19q-23 0 -31.5 34.5t-8.5 66.5q0 47 15 85t46 89q80 132 200 251t151 119q15 0 29 -7t14 -20q0 -31 -86.5 -137
t-166 -190.5z" />
    <glyph glyph-name="i" unicode="i" horiz-adv-x="278" 
d="M273 168l9 -38q-46 -56 -102 -100.5t-107 -44.5q-41 0 -63.5 37.5t-22.5 81.5q0 57 34 115t77 92t74 34q44 0 44 -28q0 -33 -49 -86t-92 -82q-12 -63 53 -63q19 0 40.5 9.5t36 19.5t37.5 28.5t31 24.5zM226 365q-18 0 -29 12.5t-11 30.5q0 30 28.5 53.5t58.5 23.5
q14 0 23.5 -9t9.5 -22q0 -31 -24.5 -60t-55.5 -29z" />
    <glyph glyph-name="j" unicode="j" horiz-adv-x="359" 
d="M366 134l-213 -126q-1 -2 -44.5 -73.5t-79.5 -114t-62 -42.5q-28 0 -28 40q0 48 50 106t105 98l128 248q-29 -8 -102 -37t-115 -37q10 24 17 46l10.5 33.5t7.5 18.5q10 16 86 43q6 2 32 12l44 16.5t40.5 12t35.5 5.5q44 -2 44 -37q0 -18 -23 -61l-104 -201l2 -2l163 96z
M291 411q-18 0 -29 12.5t-11 30.5q0 30 28.5 53.5t58.5 23.5q14 0 23.5 -9t9.5 -22q0 -31 -24.5 -60t-55.5 -29z" />
    <glyph glyph-name="k" unicode="k" horiz-adv-x="485" 
d="M477 627q0 -31 -86.5 -127.5t-204 -212.5t-126.5 -126l-2 -27l97 84t130.5 97t106.5 51q23 0 37.5 -23.5t14.5 -48.5q0 -26 -13.5 -50t-39.5 -44t-48 -33.5t-55.5 -31.5t-45.5 -25q12 -17 18 -23.5t18 -13t29 -7.5q39 -2 182 112l10 -41q-4 -3 -25 -22l-33 -29.5
l-34.5 -29t-39.5 -30l-37 -24t-37 -18.5t-31 -6q-23 0 -44 10.5t-42 35t-29.5 37l-27.5 41.5q-27 -24 -53 -68q-16 -30 -36 -30q-23 0 -33.5 44t-10.5 77q0 15 3.5 31.5t7.5 28t14 30l14 25.5t18.5 28.5t16.5 25.5q50 79 137.5 166.5t159.5 141t95 51.5q11 -1 18 -8.5
t7 -17.5zM214 139l94 65q1 1 7 5t9 6.5t9 7t9 8.5t7 8.5t5.5 9t1.5 8.5q0 8 -13 8q-27 0 -87 -38.5t-80 -65.5q23 -8 38 -22z" />
    <glyph glyph-name="l" unicode="l" horiz-adv-x="300" 
d="M109 284l2 -2q51 48 94 111t57 108q-70 -34 -153 -217zM304 178l14 -30l-50.5 -51t-53 -47t-69 -45.5t-62.5 -14.5q-89 0 -89 130q0 77 30 157t80 141q68 85 130 143.5t85 58.5q11 0 16 -12t4 -25q-3 -41 -12 -73.5t-33.5 -79t-75 -105.5t-129.5 -135q-15 -29 -7 -69
q17 -43 50 -43q61 0 172 100z" />
    <glyph glyph-name="m" unicode="m" horiz-adv-x="710" 
d="M497 206l-159 -146l-14.5 -14.5t-19 -18l-17.5 -14t-22 -13t-20 -3.5q-18 0 -30.5 12t-13.5 30q-1 38 88 174q6 6 6 13t-7 7q-8 0 -39 -31q-104 -110 -155 -173q-24 -28 -43 -28q-22 0 -37 22t-20 46t-5 46q1 72 61 151t106 73q1 0 8 -1l10.5 -1.5t9.5 -2t9 -3.5t5.5 -6
t2.5 -9q0 -17 -40 -64q-5 -6 -25.5 -27t-29.5 -34q-2 -3 -8.5 -11t-10 -13t-7 -13t-3.5 -15q0 -9 7 -9q4 0 20 16l58.5 58.5l79.5 73.5t89 69.5t65 27.5q20 0 30.5 -13t10.5 -33t-17.5 -50.5t-43.5 -66.5t-32 -47l2 -2l222 175q35 28 47 28q4 0 8 -6t8 -13.5t5 -8.5
q18 -28 18 -40q0 -17 -31 -51q-55 -60 -69.5 -83t-15.5 -42q-1 -9 7 -18t17 -7q15 3 23 6.5t41 23.5t91 59l6 -47q-1 -1 -18.5 -14.5l-25.5 -20t-28 -21.5l-32.5 -24l-31.5 -22t-33 -21t-29.5 -16t-27.5 -12t-21 -4q-22 0 -36.5 17.5t-14.5 40.5q0 12 4 27t9 27.5t15 30.5
t15.5 27l17 27.5t13.5 22.5z" />
    <glyph glyph-name="n" unicode="n" horiz-adv-x="460" 
d="M408 148l60 50l8 -44l-59 -58.5t-97.5 -84.5t-72.5 -27q-27 0 -41.5 19t-14.5 47q0 17 4.5 34.5t17.5 40.5l18.5 32.5t25.5 36.5t20 28l-2 2q-83 -62 -154 -153q-54 -68 -79 -68q-29 0 -42 31t-14 66q-2 49 35 114.5t83 104.5q14 12 39 12q27 -1 40.5 -6t14 -7.5
t0.5 -8.5q0 -21 -63 -87.5t-63 -76.5q0 -11 11 -11q9 0 20 14q55 70 161 147.5t132 77.5q8 0 16 -19q11 -28 15 -54q0 -15 -30.5 -47t-61.5 -69.5t-31 -67.5q0 -7 5.5 -12.5t12.5 -5.5q26 0 86 50z" />
    <glyph glyph-name="o" unicode="o" horiz-adv-x="396" 
d="M398 192l10 -42q-34 -43 -71 -62t-91 -19q-73 -75 -154 -75q-41 0 -71 38.5t-33 104.5q-3 96 91 168q85 69 187 74q20 1 37.5 -8.5t17.5 -27.5q0 -14 -23 -27q21 -6 28.5 -20t7.5 -39q0 -9 -1 -18t-3.5 -18.5t-4.5 -15.5t-7 -17.5t-7 -15.5l-8.5 -17t-7.5 -16
q15 -3 30.5 2t25 12t25 20.5t22.5 18.5zM214 270q-91 -53 -111 -73q-17 -17 -29 -43t-12 -49q0 -38 44 -38q15 0 30 6.5t23.5 13t23.5 20.5q-12 27 -12 46q0 23 12 52t22 46.5t9 18.5z" />
    <glyph glyph-name="p" unicode="p" horiz-adv-x="488" 
d="M219 103l71 84q25 32 25 49q0 14 -11 14q-19 0 -77 -40q-43 -31 -92 -97q45 3 84 -10zM67 17l-94 -184q-22 -42 -45 -42q-29 0 -29 45q-1 68 62 158q55 78 161 257l-2 2l-158 -151l-4 47l265 285q3 3 13 15t15 16l14 11.5t18 10t20 2.5q15 0 30.5 -5.5t15.5 -18.5
q0 -6 -5 -15.5t-14.5 -20.5t-17.5 -19l-18.5 -18.5t-12.5 -13.5q-61 -65 -85 -118l2 -2q135 97 198 97q20 0 31 -13.5t11 -33.5q0 -80 -162 -223q62 -4 95.5 12.5t117.5 89.5l7 -46q-68 -66 -133.5 -105t-138.5 -39q-31 0 -71 20q-30 -6 -46 -6q-14 0 -40 6z" />
    <glyph glyph-name="q" unicode="q" horiz-adv-x="452" 
d="M230 12l-64 -89q-34 -47 -46 -94q47 19 98 70t51 90q0 7 -2 21q-17 0 -37 2zM447 182l12 -38l-117 -103q9 -79 -97 -190q-41 -43 -98 -81.5t-76 -38.5q-18 0 -29.5 23.5t-11.5 43.5q0 9 3.5 19.5t7.5 17l11 17.5l10 16q29 46 66 97l85.5 113.5l72.5 95.5l-2 2
q-2 -2 -58 -54.5t-98 -82.5t-67 -30q-24 0 -50.5 32t-26.5 76q0 43 18.5 74t56.5 66q54 50 139.5 85.5t159.5 35.5q26 0 35 -9q11 -11 11 -25q0 -9 -16 -25q24 -8 24 -36q0 -20 -24 -55.5t-56.5 -74.5t-40.5 -52q23 -9 53.5 7.5t102.5 73.5zM338 296l-1 1q-130 -35 -217 -94
q-35 -24 -47.5 -45t-15.5 -61q45 -2 120.5 48t160.5 151z" />
    <glyph glyph-name="r" unicode="r" horiz-adv-x="348" 
d="M174 240l-104 -23q-16 -25 -35 -44.5t-45.5 -43t-39.5 -36.5l-4 44q34 27 66 73q-16 1 -21.5 8t-5.5 23q0 48 50.5 96t75.5 48q7 0 12.5 -5t5.5 -12q0 -12 -7 -28l50.5 7.5l44 6.5t30 3.5t24 0t10.5 -4.5q21 -27 24 -53q0 -15 -6.5 -27.5t-13.5 -18.5l-22 -19
q-78 -67 -78 -114q0 -12 9.5 -20t21.5 -8q19 0 43.5 14.5t58.5 44t37 31.5l7 -37q-42 -48 -107.5 -101t-102.5 -53q-30 0 -49 23.5t-19 53.5q0 14 2.5 27.5t9 28t11.5 24t16.5 25l16 21.5t19 23t17.5 20z" />
    <glyph glyph-name="s" unicode="s" horiz-adv-x="359" 
d="M152 286l-144 -135q17 -1 33 -11.5t24 -20t21 -27.5q47 29 62 49.5t17 62.5q-6 44 -13 82zM288 126l60 46l10 -38q-60 -60 -128 -105.5t-122 -42.5q-54 2 -100 32t-59 82q-13 -13 -22 -13q-7 0 -12 6t-5 13q0 11 24 35l217 199q2 27 17 46t40 19q22 0 29.5 -7.5
t9.5 -29.5q1 -13 10 -52t9 -64q0 -103 -130 -182q30 -5 58.5 3t45 18.5t48.5 34.5z" />
    <glyph glyph-name="t" unicode="t" horiz-adv-x="292" 
d="M285 422l62 -5q-37 -75 -49 -90q-28 -36 -91 -36q-12 0 -25 1q-91 -118 -91 -186q0 -35 30 -35q5 0 10.5 1t12.5 4l12.5 5.5t15 8.5l17 11l21 14.5l23.5 16.5l28 20l32 23l5 -44q-3 -3 -21 -19.5l-25.5 -23l-26 -23t-29.5 -24.5l-29 -21.5t-31.5 -20.5t-30 -14.5t-31 -11
t-28.5 -3.5q-29 0 -46 18.5t-17 48.5q0 42 26 100l-2 2l-51 -41l-11 38q106 81 152 160q-15 0 -28 0.5t-17 0.5h-11t-15 -1.5t-24 -3.5l11 18q43 71 68 88t101 20l14 20.5t15 21t15 17.5t18.5 16t21 9t26.5 4q32 0 32 -19q0 -6 -5 -16t-10.5 -17.5l-13.5 -18.5t-10 -13z" />
    <glyph glyph-name="u" unicode="u" horiz-adv-x="478" 
d="M185 177l99 89q1 1 20 18.5l33.5 30.5l34 29.5t34.5 26t22 9.5q19 0 23 -55q2 -23 -41 -61q-33 -30 -68 -76.5t-35 -76.5q0 -22 25 -22q37 0 154 94l6 -43l-29 -28.5l-38 -36.5l-39 -34.5t-44.5 -34t-40.5 -21t-40 -9.5q-27 0 -43 19.5t-16 46.5q0 29 21 84l-2 2
q-8 -7 -43 -44t-64 -58.5t-54 -21.5q-34 0 -55 31.5t-21 67.5q0 68 43 136t96 103q17 11 44 11q2 0 12 0.5t17 0.5t16 -1.5t13 -7t3 -13.5q-1 -11 -15 -27.5t-25 -25.5q-42 -48 -76 -72q-27 -19 -41 -38t-14 -48q0 -15 8 -15q15 0 51 20.5t69 50.5z" />
    <glyph glyph-name="v" unicode="v" horiz-adv-x="425" 
d="M267 290q63 83 98 83q30 0 30 -33q0 -26 -28.5 -79t-54.5 -90q14 -13 34 -13q26 0 85 40l7 -42q-62 -71 -128 -71q-7 0 -15 3t-11.5 5t-13.5 9.5t-12 8.5q-28 -32 -85 -76t-83 -44q-43 0 -71 46t-28 105q0 63 33 120t69 85.5t56 28.5q60 0 60 -23q0 -30 -47 -88t-83 -88
q-15 -48 -15 -59q0 -39 24 -39q31 0 129 93q-4 50 50 118z" />
    <glyph glyph-name="w" unicode="w" horiz-adv-x="635" 
d="M187 161l142 146q44 55 57 55q11 0 29.5 -6.5t18.5 -14.5q0 -14 -23 -50q-26 -40 -58 -101.5t-32 -85.5q0 -20 19 -20q13 0 30.5 13t40.5 36t26 25q-4 32 3 54t43 69q53 70 85 70q16 0 24 -16.5t8 -33.5q0 -59 -68 -141q23 -14 35 -14q22 0 79 45l2 -44q-58 -60 -110 -60
q-26 0 -60 20q-11 -8 -49 -43.5t-70 -58t-57 -22.5q-19 0 -36 19q-15 19 -18 40q-3 26 0 77q-7 -6 -41.5 -43t-62 -57.5t-49.5 -19.5q-44 2 -75 39t-30 95q1 52 21 88.5t62 78.5q58 59 81.5 74.5t42.5 14.5q59 -3 59 -32q0 -33 -57.5 -90.5t-112.5 -100.5q-8 -16 -8 -57
q0 -22 11 -22q10 0 45.5 28.5t52.5 45.5z" />
    <glyph glyph-name="x" unicode="x" horiz-adv-x="348" 
d="M262 255l-69 -69l-1 -42q-2 -47 36 -47q11 0 24.5 5.5t29 17l26.5 20t27 22.5t20 17l6 -40q-7 -6 -55.5 -54.5t-85.5 -74.5t-68 -26q-16 0 -26.5 7.5t-14.5 25t-5.5 27.5t-0.5 34.5t1 25.5l-58 -56q-46 -43 -66 -43q-16 0 -16 14q0 16 35 59q21 25 53 34l53 47l-1 120
l-28 -14.5l-22.5 -12l-16.5 -8.5l-12 -6t-8 -3.5t-5.5 -2t-3.5 -0.5q-11 2 -11 13q0 16 77 81.5t99 65.5q23 0 20 -52l-3 -91l89 81q36 34 57 34q10 0 13 -16q4 -19 -28 -59t-61 -34z" />
    <glyph glyph-name="y" unicode="y" horiz-adv-x="442" 
d="M465 165l-301 -331q-2 -2 -10.5 -12l-14.5 -17.5t-14.5 -14t-14.5 -6.5q-14 0 -22 24t-8 42q0 16 27 60l134 226l-2 2q-147 -124 -167 -122q-25 2 -51 34.5t-28 83.5q-2 54 42 115t90 96.5t63 36.5q11 0 27 -17.5t16 -28.5q0 -25 -53.5 -81t-92.5 -87q-17 -25 -19 -58
q55 6 143 88l56.5 53l49 46.5l36 34t28.5 24.5t16 9q11 2 19 -17t8 -33q0 -27 -41 -88l-148 -220l2 -2l222 197z" />
    <glyph glyph-name="z" unicode="z" horiz-adv-x="368" 
d="M381 166l-160 -139q-8 -56 -38.5 -107.5t-68.5 -85t-75 -53.5t-63 -23q-19 -2 -32 12.5t-13 35.5q0 25 15.5 51.5t31.5 42t43 36.5l130 104q-7 29 -19 39t-45 19q-1 0 -9 2t-11 3t-8.5 4t-7 7t-0.5 9q2 15 21 30.5t68.5 50.5t92.5 70l-2 2l-122 -21l-114 -124l-11 33
l70 85q-27 5 -27 27q0 27 42 67t67 40t25 -35q34 5 63.5 12.5t45.5 12t24 4.5q12 0 22 -32t10 -47q0 -19 -30 -39l-128 -93q40 -30 52 -79l158 122zM150 -21l-115 -90q-49 -39 -54 -81q53 14 106.5 66.5t62.5 104.5z" />
    <glyph glyph-name="braceleft" unicode="{" horiz-adv-x="350" 
d="M254 163l-53 -184q-14 -48 -9.5 -72.5t29.5 -37.5l-1 -2q-122 -7 -146 19q-17 17 -17 42q3 33 18 70l51 182q13 46 8.5 71.5t-29.5 35.5h1v2q33 11 50 34t31 73l44 161l9.5 32.5t10 28.5t12 26t15.5 21t21 18t26.5 12t34.5 8t43.5 2.5t53.5 -2.5v-2q-32 -10 -51 -35
t-32 -73l-47 -170q-18 -65 -38.5 -94t-56.5 -41h-1v-2q35 -10 38 -41q3 -21 -15 -82z" />
    <glyph glyph-name="bar" unicode="|" horiz-adv-x="405" 
d="M228 752h79v-1002h-79v1002z" />
    <glyph glyph-name="braceright" unicode="}" horiz-adv-x="350" 
d="M171 410l53 184q14 48 9.5 72.5t-29.5 37.5l1 2q122 7 146 -19q17 -17 17 -42q-3 -33 -18 -70l-51 -182q-13 -46 -8.5 -71.5t29.5 -35.5h-1v-2q-33 -11 -50 -34t-31 -73l-44 -161l-9.5 -32.5t-10 -28.5t-12 -26t-15.5 -21t-21 -18t-26.5 -12t-34.5 -8t-43.5 -2.5
t-53.5 2.5v2q32 10 51 35t32 73l47 170q18 65 38.5 94t56.5 41h1v2q-35 10 -38 41q-3 21 15 82z" />
    <glyph glyph-name="asciitilde" unicode="~" horiz-adv-x="599" 
d="M521 316l36 -35q-53 -93 -131 -93q-20 0 -39.5 5.5t-32.5 12l-43 22.5q-56 32 -89 32q-30 0 -52 -18t-46 -52l-37 34q23 42 60.5 67.5t80.5 25.5q16 0 34 -4.5t26 -8t27.5 -13.5t20.5 -11q52 -30 75 -33q7 -1 15 -1q29 0 50.5 17t44.5 53z" />
    <glyph glyph-name="uni00A0" unicode="&#xa0;" horiz-adv-x="340" 
 />
    <glyph glyph-name="exclamdown" unicode="&#xa1;" horiz-adv-x="392" 
d="M291 432q20 0 37 -14.5t17 -33.5q0 -34 -17 -78t-41 -44q-26 0 -44 19t-18 45q0 34 17.5 70t48.5 36zM257 104l-141 -322l-5 -12q-5 -12 -7 -15l-7.5 -11t-11.5 -10.5t-13 -2.5q-5 0 -13 1.5t-17 4t-12 3.5q-1 0 -7.5 1.5t-11 3t-9.5 4t-8 6t-3 8.5q0 14 29 72l179 349
q-5 10 -5 17q0 15 9.5 29.5t23.5 14.5q18 0 39 -18.5t21 -35.5t-30 -87z" />
    <glyph glyph-name="cent" unicode="&#xa2;" 
d="M259 282l53 124q-108 -23 -118 -89q-2 -12 4 -20t17.5 -11t21.5 -3.5t22 -0.5zM449 429l-56 -4l-55 -127q9 2 34 7t43.5 10t31.5 12q22 11 27 11q14 0 14 -49q0 -21 -10.5 -38.5t-23.5 -28t-38 -20.5t-39.5 -14.5t-43.5 -11t-36 -8.5q-10 -46 -10 -116q-6 1 -19 4
t-18.5 4.5t-14 5.5t-12 9t-6.5 13.5t-3 20.5q0 18 11 60q-61 5 -90 28.5t-29 81.5q0 94 84 173q21 20 51 34.5t55.5 22t60.5 16.5q9 2 13 3q6 10 14.5 27.5t12.5 24t10.5 18.5t9.5 16.5t9 12t10 9.5t10.5 6t13 5t14 2t17.5 1q19 0 19 -12q0 -19 -32 -54q-19 -19 -29 -44
q47 0 60 -11q24 -20 24 -64q0 -11 -2 -18t-8.5 -12t-10.5 -7t-17 -8q-40 -20 -46 -20q-10 0 -10 9q0 10 10 20z" />
    <glyph glyph-name="sterling" unicode="&#xa3;" horiz-adv-x="600" 
d="M-40 153l141 21l73 90q-46 10 -121 -3q24 38 40.5 49t58.5 8l62 -4l46 61l210 265q54 68 99.5 97t71.5 26q25 -3 42 -23t17 -43q0 -34 -21.5 -80.5t-58.5 -106.5t-45 -76q17 -5 18 -11q1 -2 1 -5q0 -8 -8 -18.5t-22.5 -22.5l-26 -21l-27 -20.5t-17.5 -12.5
q-34 -25 -46 -25q-24 0 -24 38t32.5 99.5t65.5 100.5q62 76 40 76q-5 0 -24 -16q-39 -42 -80 -91.5l-89 -109l-76 -93.5q16 -2 33 -6.5t34 -15.5t17 -25q0 -21 -24 -21q-7 0 -22.5 4t-18.5 4l-60 12l-67 -77q83 -5 230 -44.5t184 -46.5q-10 -9 -39.5 -44.5t-54.5 -53.5
t-55 -18q-22 0 -60 8l-130.5 30t-114.5 18.5t-134 8.5q-5 -2 -23 -11l-30 -15t-27.5 -11t-25.5 -5q-12 0 -21.5 6t-9.5 17q0 12 11.5 32.5t24 37l30 39t21.5 28.5z" />
    <glyph glyph-name="currency" unicode="&#xa4;" horiz-adv-x="694" 
d="M613 126l-42 -41l-63 75q-45 -38 -108 -38q-67 0 -108 36l-62 -73l-42 41l66 68q-45 55 -45 131q0 80 45 130l-66 66l43 41l61 -72q43 39 108 39q68 0 110 -39l62 72l41 -41l-66 -66q46 -49 46 -130q0 -34 -13.5 -70.5t-34.5 -59.5zM401 469h-2q-51 0 -86.5 -40.5
t-35.5 -103.5q0 -64 35.5 -103.5t88.5 -39.5t88.5 40t35.5 103t-36 103.5t-88 40.5z" />
    <glyph glyph-name="yen" unicode="&#xa5;" horiz-adv-x="810" 
d="M691 337l54 5q132 11 144 -19q3 -10 -4 -16.5t-21.5 -9.5t-27 -4.5t-27 -1.5h-15.5l-146 -12q-5 -7 -14 -22t-14 -22l49 5q131 14 144 -19q3 -10 -4 -16.5t-21.5 -9.5t-27 -4.5t-27 -1.5h-15.5l-130 -12l-1 -1l-78 -138q-4 -28 -34.5 -51.5t-64.5 -22.5q-20 0 -34 11
t-14 24q0 43 84 159q-68 -11 -124 -30q20 42 41.5 57t86.5 27l36 7l30 41q-46 -7 -119 -29q15 30 26 43.5t34.5 24t68.5 17.5l35 6q69 87 171 168l-4 1l-317 -175q-116 -64 -164 -68q-21 -2 -43 1.5t-36 12.5t-11 20q0 1 1 6t2 8t6.5 11.5t13.5 17t23.5 23.5t36 32.5
t52.5 42.5l71 54l42 31q35 25 50 36.5l33 26t24 22.5t6 13q0 3 -6 5t-11 0q-276 -94 -399 -147q-18 -8 -38 -10q-18 -1 -22 3q-5 9 6 26l15 37q7 17 23 27.5t50 24.5q107 43 247.5 88t219.5 52q35 3 62 -3.5t28 -23.5q0 -6 -5 -15t-14 -19t-19.5 -20t-24 -21.5t-23.5 -19
l-21.5 -16.5t-14.5 -12l-83.5 -66l-65.5 -50.5l-43 -33t-27.5 -24.5t-7.5 -15q0 -4 7.5 -6.5t23.5 0.5t34 13l421 233q53 31 68 32q22 2 40.5 -10t20.5 -24q1 -5 -4.5 -12.5t-22 -22.5l-37 -33.5l-59 -55.5l-79.5 -78q-51 -51 -66 -72z" />
    <glyph glyph-name="brokenbar" unicode="&#xa6;" horiz-adv-x="405" 
d="M228 677h78v-351h-78v351zM228 175h78v-349h-78v349z" />
    <glyph glyph-name="section" unicode="&#xa7;" horiz-adv-x="550" 
d="M577 639l-35 -66q-46 29 -121 29q-50 0 -87 -18.5t-44 -49.5q-7 -29 19 -47t99 -41q79 -27 111.5 -62t18.5 -93q-17 -66 -101 -117q16 -14 21.5 -39t-0.5 -47q-13 -52 -56.5 -87.5t-91.5 -49t-99 -13.5q-108 0 -162 41l39 65q52 -38 135 -38q47 0 87.5 19t49.5 56
q9 32 -16.5 51.5t-95.5 40.5q-86 26 -122 60t-21 95q8 33 36.5 64t73.5 49q-33 34 -20 85q17 70 83.5 107.5t155.5 37.5q86 0 143 -32zM194 343v-1q-7 -30 14 -49.5t80 -38.5q73 -23 105 -43q45 24 56 66q8 32 -11.5 52.5t-68.5 36.5q-73 24 -110 41q-55 -26 -65 -64z" />
    <glyph glyph-name="dieresis" unicode="&#xa8;" horiz-adv-x="448" 
d="M198 446q-22 0 -43 10t-20 29q1 22 21 51.5t53 24.5q16 -2 24.5 -4t18 -10t8.5 -21q-3 -26 -20 -53t-42 -27zM388 446q-22 0 -43 10t-20 29q1 22 21 51.5t53 24.5q16 -2 24.5 -4t18 -10t8.5 -21q-3 -26 -20 -53t-42 -27z" />
    <glyph glyph-name="copyright" unicode="&#xa9;" horiz-adv-x="870" 
d="M435 726q155 0 264 -109t109 -264t-109 -264t-264 -109t-264 109t-109 264t109 264t264 109zM435 632q-113 0 -196 -83t-83 -196t83 -196t196 -83t196 83t83 196t-83 196t-196 83zM617 422h-98q0 6 -1.5 10.5t-2.5 6.5t-6 8.5l-8 10.5q-27 25 -64 25q-95 0 -95 -125
t95 -125q33 0 57.5 18t24.5 43h98q-13 -78 -58 -112q-42 -32 -121 -37q-86 -6 -141.5 53.5t-55.5 159.5t55.5 159t141.5 54q79 -6 122.5 -39.5t56.5 -109.5z" />
    <glyph glyph-name="ordfeminine" unicode="&#xaa;" horiz-adv-x="384" 
d="M272 544l-58 -44q-57 -44 -69 -44q-14 0 -35 26t-22 48q-2 52 87.5 102t154.5 52q19 1 30.5 -10t11.5 -19q0 -7 -23 -15q19 -8 19 -24q0 -9 -28.5 -42t-28.5 -48q0 -14 20 -14q10 0 23 5.5t22.5 11t23.5 15t19 12.5l4 -23q-20 -22 -69.5 -55.5t-71.5 -33.5q-31 0 -31 32
q0 24 24 67l-1 -1zM309 623l-2 2q-103 -30 -136 -56t-33 -54q0 -9 10 -9q34 0 161 117zM88 404h335v-33h-335v33z" />
    <glyph glyph-name="guillemotleft" unicode="&#xab;" horiz-adv-x="382" 
d="M172 113q-31 0 -85.5 51.5t-48.5 82.5q0 23 28 59q9 15 26 41l30.5 48t23.5 45q2 -6 11.5 -24t15 -32t5.5 -26t-22 -39q-11 -12 -28 -39t-17 -37q0 -4 5 -11.5t18.5 -17t32.5 -14.5q42 -11 42 -48q0 -17 -10 -28t-27 -11zM341 113q-31 0 -85.5 51.5t-48.5 82.5
q0 23 28 59q9 15 26 41l30.5 48t23.5 45q2 -6 11.5 -24t15 -32t5.5 -26t-22 -39q-11 -12 -28 -39t-17 -37q0 -4 5 -11.5t18.5 -17t32.5 -14.5q42 -11 42 -48q0 -17 -10 -28t-27 -11z" />
    <glyph glyph-name="logicalnot" unicode="&#xac;" horiz-adv-x="615" 
d="M567 105h-62v216h-394v60h456v-276z" />
    <glyph glyph-name="uni00AD" unicode="&#xad;" horiz-adv-x="320" 
d="M0 320h300v-88h-300v88z" />
    <glyph glyph-name="registered" unicode="&#xae;" horiz-adv-x="870" 
d="M435 726q155 0 264 -109t109 -264t-109 -264t-264 -109t-264 109t-109 264t109 264t264 109zM435 74q112 0 195.5 83.5t83.5 195.5q0 113 -83 196t-196 83t-196 -83t-83 -196q0 -112 83.5 -195.5t195.5 -83.5zM512 335l81 -155h-101l-75 155h-48v-155h-88v367h179
q75 0 100 -16q44 -27 44 -96q0 -92 -92 -100zM369 399h88q29 0 44 9.5t15 35.5q0 18 -14 27.5t-26.5 10.5t-33.5 1h-73v-84z" />
    <glyph glyph-name="macron" unicode="&#xaf;" horiz-adv-x="340" 
d="M112 488q43 -4 89.5 -5t112.5 0.5t96 1.5v-2q-3 0 -15 -42t-25 -41q-176 9 -302 0q0 2 1.5 14t2.5 17.5t3.5 16.5t5 16.5t7 12.5t10.5 9.5t14 1.5z" />
    <glyph glyph-name="degree" unicode="&#xb0;" horiz-adv-x="481" 
d="M301 654h1q59 0 97 -41t38 -101q0 -64 -39 -102t-97 -38q-56 0 -95.5 38t-39.5 102q0 63 39.5 102.5t95.5 39.5zM301 612h-1q-36 0 -58.5 -27t-22.5 -72q0 -43 23.5 -71.5t60.5 -28.5t59 27t22 71t-21.5 72.5t-61.5 28.5z" />
    <glyph glyph-name="plusminus" unicode="&#xb1;" horiz-adv-x="658" 
d="M608 302h-196v-200h-62v200h-197v60h197v190h62v-190h196v-60zM609 -3h-455v58h455v-58z" />
    <glyph glyph-name="twosuperior" unicode="&#xb2;" horiz-adv-x="375" 
d="M257 544l-70 -12q-15 -3 -22 -3q-15 0 -15 23q0 16 11.5 41.5t24.5 38.5q26 27 88.5 44.5t110.5 17.5q38 0 53.5 -19t15.5 -80q0 -26 -9.5 -40.5t-34.5 -34.5q-21 -16 -131 -73.5t-139 -80.5l2 -2l251 41q-20 -51 -28 -62q-27 -34 -120 -43q-34 -4 -83 -5q-43 0 -51 7
q-27 24 -27 66q0 9 6 19t18 21t25.5 21.5t32.5 22.5l34.5 21l36 20l32.5 17l29.5 14.5t20.5 10.5l10.5 5.5t13 6.5t13.5 7t14.5 9t13.5 9t12.5 10l9.5 10.5t7 11t2 10.5q0 3 -2 5t-5.5 2.5t-7 0.5t-8 -0.5t-6.5 -0.5q-64 0 -176 -48v-2l39 -3q1 0 6.5 -1t8.5 -2t6 -3.5
t3 -6.5q0 -9 -16 -11z" />
    <glyph glyph-name="threesuperior" unicode="&#xb3;" horiz-adv-x="407" 
d="M243 609l13 -2q5 0 14.5 -2.5t9.5 -7.5q0 -7 -11 -7q-20 -4 -61 -4q-33 0 -33 32q0 31 62 53q46 16 128 16q27 0 46 -2t41.5 -8.5t34 -22.5t11.5 -40q0 -16 -12 -34t-28 -27q-1 -1 -5.5 -3.5t-5.5 -3t-5 -2t-8 -2.5t-10.5 -3t-15 -4l-20 -4.5l-27.5 -6l-34.5 -7.5
t-44.5 -9v-2q79 -11 105 -26q30 -19 30 -53q0 -44 -65 -87.5t-173 -43.5q-56 0 -86.5 16t-30.5 34q0 11 22 34.5t34 23.5q10 0 10 -7q0 -5 -15 -18q27 -10 63 -10q69 0 130 24.5t61 43.5q0 11 -14.5 19t-37 11.5t-38 4.5t-29.5 1q-32 0 -57 -6q-3 0 -10 -1t-9 -1
q-10 0 -10 13q0 23 20 45q18 19 51 23q215 24 215 65q0 26 -66 26q-63 0 -139 -26v-2z" />
    <glyph glyph-name="acute" unicode="&#xb4;" horiz-adv-x="350" 
d="M262 500l59 18q20 6 31 6q7 0 11.5 -2t6.5 -7.5t3 -9t1.5 -12.5t0.5 -12q3 -20 1 -29.5t-8 -11.5t-28 0q-39 2 -85 -4q-64 -9 -95 -21q-20 -8 -33 -8q-14 0 -14 9q0 22 28 41q20 13 121 43z" />
    <glyph glyph-name="mu" unicode="&#xb5;" horiz-adv-x="478" 
d="M233 177l99 89q1 1 20 18.5l33.5 30.5l34 29.5t34.5 26t22 9.5q19 0 23 -55q2 -23 -41 -61q-33 -30 -68 -76.5t-35 -76.5q0 -22 25 -22q36 0 154 94l6 -43l-29 -28.5l-38 -36.5l-39 -34.5t-44.5 -34t-40.5 -21t-40 -9.5q-27 0 -43 19.5t-16 46.5q0 29 21 84l-2 2
q-8 -7 -43 -44t-64 -58.5t-54 -21.5q-32 0 -66 43q-55 -111 -108 -162t-90 -31q-67 36 32 108q71 51 172 244q44 84 123 136q17 11 44 11q2 0 12 0.5t17 0.5t16 -1.5t13 -7t3 -13.5q-1 -11 -15 -27.5t-25 -25.5q-42 -48 -76 -72q-22 -15 -38.5 -38.5t-16.5 -47.5
q0 -14 8 -16q15 1 51 21.5t69 50.5z" />
    <glyph glyph-name="paragraph" unicode="&#xb6;" horiz-adv-x="657" 
d="M441 -48h-67v304h-12q-78 0 -135.5 48.5t-56.5 141.5q0 101 68.5 159.5t218.5 58.5q79 0 124 -9v-703h-68v648h-72v-648z" />
    <glyph glyph-name="periodcentered" unicode="&#xb7;" horiz-adv-x="301" 
d="M187 148q-18 2 -29 4.5t-22.5 12t-11.5 25.5q0 33 31 74t70 33q2 0 10.5 -1.5t13.5 -3t11.5 -4.5t10 -9t3.5 -14q0 -6 -8 -32.5t-29.5 -57t-49.5 -27.5z" />
    <glyph glyph-name="cedilla" unicode="&#xb8;" horiz-adv-x="340" 
d="M152 0l-28 -55q36 3 65 -10t29 -46q0 -37 -31.5 -54t-71.5 -14q-29 1 -71.5 14t-42.5 33q0 11 9 11q6 0 29 -11t40 -11q19 0 35 9.5t16 26.5q0 33 -57 33l38 74h41z" />
    <glyph glyph-name="onesuperior" unicode="&#xb9;" horiz-adv-x="355" 
d="M326 621l-61 -21q-1 0 -5 -2t-8 -3t-5 -1q-5 0 -5 14q2 17 30 30l33 17t50.5 25t29.5 10q10 0 19 -13q11 -19 11 -28q0 -16 -49 -94l-53 -82q-76 -116 -76 -160q0 -3 1 -10t1 -11q0 -8 -9 -8q-6 0 -14 5q-5 3 -17.5 8.5t-18 9t-11 11.5t-5.5 19q0 42 45 124l82 114l37 44
z" />
    <glyph glyph-name="ordmasculine" unicode="&#xba;" horiz-adv-x="335" 
d="M368 572l6 -25q-41 -49 -105 -49q-50 -48 -100 -48q-26 0 -46 24.5t-21 64.5q-1 57 58 101q55 41 122 44q13 1 24.5 -4.5t11.5 -17.5q0 -7 -15 -16q23 -6 23 -35q0 -23 -25 -71q10 -2 20 1t16 7t16.5 12.5t14.5 11.5zM248 618l-2 1q-4 -3 -21 -12t-28.5 -16.5
t-20.5 -15.5q-24 -22 -24 -55q0 -12 6 -16t20 -4q26 0 50 21q-8 14 -8 28q0 9 4 20.5t8.5 20l10 18t5.5 10.5zM88 404h286v-33h-286v33z" />
    <glyph glyph-name="guillemotright" unicode="&#xbb;" horiz-adv-x="382" 
d="M271 440q31 0 85.5 -51.5t48.5 -82.5q0 -23 -28 -59q-9 -15 -26 -41l-30.5 -48t-23.5 -45q-2 6 -11.5 24t-15 32t-5.5 26q0 11 22 39q11 12 28 39t17 37q0 4 -5 11.5t-18.5 17t-32.5 14.5q-42 11 -42 48q0 17 10 28t27 11zM102 440q31 0 85.5 -51.5t48.5 -82.5
q0 -23 -28 -59q-9 -15 -26 -41l-30.5 -48t-23.5 -45q-2 6 -11.5 24t-15 32t-5.5 26q0 11 22 39q11 12 28 39t17 37q0 4 -5 11.5t-18.5 17t-32.5 14.5q-42 11 -42 48q0 17 10 28t27 11z" />
    <glyph glyph-name="onequarter" unicode="&#xbc;" horiz-adv-x="793" 
d="M646 0h-77l23 93h-202l11 44l260 249h81l-60 -239h64l-13 -54h-64zM606 147l26 106q8 33 18 59l-3 1q-24 -27 -45 -48l-129 -117l1 -1h132zM159 -10h-65l541 658h64zM242 261h-82l79 315h-2l-79 -30l-3 55l110 43h72z" />
    <glyph glyph-name="onehalf" unicode="&#xbd;" horiz-adv-x="834" 
d="M159 -10h-65l541 658h64zM242 261h-82l79 315h-2l-79 -30l-3 55l110 43h72zM444 0l12 47l87 60q87 60 124 93t45 63q6 24 -7.5 42.5t-54.5 18.5q-52 0 -103 -30l-10 53q74 41 150 41q65 0 94.5 -32t17.5 -81q-7 -27 -21.5 -49.5t-45 -48t-51.5 -40.5t-70 -47l-42 -26
l-1 -2h185l-16 -62h-293z" />
    <glyph glyph-name="threequarters" unicode="&#xbe;" horiz-adv-x="869" 
d="M722 0h-76l24 93h-203l11 44l259 249h81l-59 -239h63l-13 -54h-64zM683 147l27 106q7 28 17 59l-2 1l-46 -49l-129 -116l1 -1h132zM236 -10h-65l541 658h64zM180 566l-5 53q60 30 138 30q68 0 97 -26.5t19 -67.5q-7 -31 -36 -54t-70 -35l-1 -2q44 -6 65.5 -32t12.5 -61
q-12 -49 -67 -82t-136 -33q-85 0 -126 26l32 56q36 -24 97 -24q46 0 77.5 17t38.5 44q7 29 -21.5 46t-82.5 17h-32l12 51h33q44 0 78.5 15.5t40.5 39.5q4 20 -11.5 34t-54.5 14q-49 0 -98 -26z" />
    <glyph glyph-name="questiondown" unicode="&#xbf;" horiz-adv-x="467" 
d="M266 -131l-10 4q-30 11 -30 24q0 18 21 18q3 0 18 -3l39 -6h10t11.5 -0.5t9.5 -2t9 -4t5.5 -7.5t2.5 -12q0 -14 -9 -40.5t-17 -40.5q-19 -31 -89.5 -49.5t-121.5 -18.5q-60 0 -91 24t-31 82q0 91 70 174l130 154q3 4 9.5 10.5t9 10t5 10.5t2.5 14q0 4 -3 13t-3 14
q0 23 22 23q23 0 40 -24t17 -48q0 -56 -72 -124l-115 -106q-1 -1 -14.5 -13t-18 -16.5t-13.5 -15t-12.5 -20t-3.5 -18.5q0 -15 6 -24.5t18 -13t21.5 -4.5t24.5 -1q27 0 56 6t44.5 11.5zM317 428q20 0 37 -14.5t17 -33.5q0 -34 -17 -78t-41 -44q-26 0 -44 19t-18 45
q0 34 17.5 70t48.5 36z" />
    <glyph glyph-name="Agrave" unicode="&#xc0;" horiz-adv-x="779" 
d="M557 348l136 228l-2 2l-289 -239l2 -2zM604 230l-63 -123q0 -16 18 -16q3 0 6.5 0.5t6.5 1.5t7.5 4t8 5t10.5 7.5l12.5 9.5l16.5 12l20 15l18 -26q-129 -129 -204 -129q-25 0 -38 17t-13 43q0 1 -0.5 3t-0.5 4t1 7.5t3.5 12.5t8 19.5l13 28.5t20 40.5l28.5 53.5l-218 -7
l-205 -204l-9.5 -9.5l-11 -11l-11 -10.5t-13 -11t-12.5 -9t-14 -8.5t-13 -4.5t-14 -2q-35 0 -35 22q0 29 53 84t118 78l78 86q-48 -4 -72.5 -0.5t-24.5 20.5t45 62.5t81 57.5q32 11 61 14t32 -7q0 -9 -36.5 -13.5t-36.5 -13.5t14 -9q48 3 61 3l224 186q208 172 263 172
q15 0 25 -14t10 -29q0 -17 -31 -73l-124 -217q19 0 31.5 1t14.5 2t8 0.5t11.5 -1.5t26.5 -6q-35 -41 -75 -114zM614 839l59 -18q101 -30 121 -43q28 -19 28 -41q0 -9 -14 -9q-13 0 -33 8q-31 12 -95 21q-46 6 -85 4q-30 -2 -33.5 3.5t-1.5 37.5q0 3 0.5 12t1.5 12.5t3 9
t6.5 7.5t11.5 2q11 0 31 -6z" />
    <glyph glyph-name="Aacute" unicode="&#xc1;" horiz-adv-x="779" 
d="M557 348l136 228l-2 2l-289 -239l2 -2zM604 230l-63 -123q0 -16 18 -16q3 0 6.5 0.5t6.5 1.5t7.5 4t8 5t10.5 7.5l12.5 9.5l16.5 12l20 15l18 -26q-129 -129 -204 -129q-25 0 -38 17t-13 43q0 1 -0.5 3t-0.5 4t1 7.5t3.5 12.5t8 19.5l13 28.5t20 40.5l28.5 53.5l-218 -7
l-205 -204l-9.5 -9.5l-11 -11l-11 -10.5t-13 -11t-12.5 -9t-14 -8.5t-13 -4.5t-14 -2q-35 0 -35 22q0 29 53 84t118 78l78 86q-48 -4 -72.5 -0.5t-24.5 20.5t45 62.5t81 57.5q32 11 61 14t32 -7q0 -9 -36.5 -13.5t-36.5 -13.5t14 -9q48 3 61 3l224 186q208 172 263 172
q15 0 25 -14t10 -29q0 -17 -31 -73l-124 -217q19 0 31.5 1t14.5 2t8 0.5t11.5 -1.5t26.5 -6q-35 -41 -75 -114zM777 802l59 18q20 6 31 6q7 0 11.5 -2t6.5 -7.5t3 -9t1.5 -12.5t0.5 -12q3 -20 1 -29.5t-8 -11.5t-28 0q-39 2 -85 -4q-64 -9 -95 -21q-20 -8 -33 -8
q-14 0 -14 9q0 22 28 41q20 13 121 43z" />
    <glyph glyph-name="Acircumflex" unicode="&#xc2;" horiz-adv-x="779" 
d="M557 348l136 228l-2 2l-289 -239l2 -2zM604 230l-63 -123q0 -16 18 -16q3 0 6.5 0.5t6.5 1.5t7.5 4t8 5t10.5 7.5l12.5 9.5l16.5 12l20 15l18 -26q-129 -129 -204 -129q-25 0 -38 17t-13 43q0 1 -0.5 3t-0.5 4t1 7.5t3.5 12.5t8 19.5l13 28.5t20 40.5l28.5 53.5l-218 -7
l-205 -204l-9.5 -9.5l-11 -11l-11 -10.5t-13 -11t-12.5 -9t-14 -8.5t-13 -4.5t-14 -2q-35 0 -35 22q0 29 53 84t118 78l78 86q-48 -4 -72.5 -0.5t-24.5 20.5t45 62.5t81 57.5q32 11 61 14t32 -7q0 -9 -36.5 -13.5t-36.5 -13.5t14 -9q48 3 61 3l224 186q208 172 263 172
q15 0 25 -14t10 -29q0 -17 -31 -73l-124 -217q19 0 31.5 1t14.5 2t8 0.5t11.5 -1.5t26.5 -6q-35 -41 -75 -114zM746 753l-88 -37q-30 -13 -34 -13q-9 0 -9 14q0 33 63 58l81 32q59 23 82 23q19 0 57 -41q1 -1 8.5 -8l12 -11.5t9 -11.5t4.5 -12q0 -13 -21 -28
q-16 -10 -20 -15q-8 4 -43 35.5t-52 31.5q-8 0 -50 -17z" />
    <glyph glyph-name="Atilde" unicode="&#xc3;" horiz-adv-x="779" 
d="M557 348l136 228l-2 2l-289 -239l2 -2zM604 230l-63 -123q0 -16 18 -16q3 0 6.5 0.5t6.5 1.5t7.5 4t8 5t10.5 7.5l12.5 9.5l16.5 12l20 15l18 -26q-129 -129 -204 -129q-25 0 -38 17t-13 43q0 1 -0.5 3t-0.5 4t1 7.5t3.5 12.5t8 19.5l13 28.5t20 40.5l28.5 53.5l-218 -7
l-205 -204l-9.5 -9.5l-11 -11l-11 -10.5t-13 -11t-12.5 -9t-14 -8.5t-13 -4.5t-14 -2q-35 0 -35 22q0 29 53 84t118 78l78 86q-48 -4 -72.5 -0.5t-24.5 20.5t45 62.5t81 57.5q32 11 61 14t32 -7q0 -9 -36.5 -13.5t-36.5 -13.5t14 -9q48 3 61 3l224 186q208 172 263 172
q15 0 25 -14t10 -29q0 -17 -31 -73l-124 -217q19 0 31.5 1t14.5 2t8 0.5t11.5 -1.5t26.5 -6q-35 -41 -75 -114zM671 810l130 -13l2 2q-35 24 -35 35q0 5 4 9.5t9 4.5q17 0 46.5 -29t29.5 -55q0 -42 -43 -42q-20 0 -61.5 7.5t-62.5 6.5q4 -3 8 -7t6 -5.5t4 -3.5l3 -3t2 -2.5
t1 -3v-3.5q0 -10 -10 -10q-7 0 -27 14l-9.5 6.5t-10.5 7t-9 7t-8 8.5t-5 10t-2 12q0 24 8 35.5t30 11.5z" />
    <glyph glyph-name="Adieresis" unicode="&#xc4;" horiz-adv-x="779" 
d="M557 348l136 228l-2 2l-289 -239l2 -2zM604 230l-63 -123q0 -16 18 -16q3 0 6.5 0.5t6.5 1.5t7.5 4t8 5t10.5 7.5l12.5 9.5l16.5 12l20 15l18 -26q-129 -129 -204 -129q-25 0 -38 17t-13 43q0 1 -0.5 3t-0.5 4t1 7.5t3.5 12.5t8 19.5l13 28.5t20 40.5l28.5 53.5l-218 -7
l-205 -204l-9.5 -9.5l-11 -11l-11 -10.5t-13 -11t-12.5 -9t-14 -8.5t-13 -4.5t-14 -2q-35 0 -35 22q0 29 53 84t118 78l78 86q-48 -4 -72.5 -0.5t-24.5 20.5t45 62.5t81 57.5q32 11 61 14t32 -7q0 -9 -36.5 -13.5t-36.5 -13.5t14 -9q48 3 61 3l224 186q208 172 263 172
q15 0 25 -14t10 -29q0 -17 -31 -73l-124 -217q19 0 31.5 1t14.5 2t8 0.5t11.5 -1.5t26.5 -6q-35 -41 -75 -114zM664 738q-22 0 -43 10t-20 29q1 22 21 51.5t53 24.5q16 -2 24.5 -4t18 -10t8.5 -21q-3 -26 -20 -53t-42 -27zM854 738q-22 0 -43 10t-20 29q1 22 21 51.5
t53 24.5q16 -2 24.5 -4t18 -10t8.5 -21q-3 -26 -20 -53t-42 -27z" />
    <glyph glyph-name="Aring" unicode="&#xc5;" horiz-adv-x="779" 
d="M557 348l136 228l-2 2l-289 -239l2 -2zM604 230l-63 -123q0 -16 18 -16q3 0 6.5 0.5t6.5 1.5t7.5 4t8 5t10.5 7.5l12.5 9.5l16.5 12l20 15l18 -26q-129 -129 -204 -129q-25 0 -38 17t-13 43q0 1 -0.5 3t-0.5 4t1 7.5t3.5 12.5t8 19.5l13 28.5t20 40.5l28.5 53.5l-218 -7
l-205 -204l-9.5 -9.5l-11 -11l-11 -10.5t-13 -11t-12.5 -9t-14 -8.5t-13 -4.5t-14 -2q-35 0 -35 22q0 29 53 84t118 78l78 86q-48 -4 -72.5 -0.5t-24.5 20.5t45 62.5t81 57.5q32 11 61 14t32 -7q0 -9 -36.5 -13.5t-36.5 -13.5t14 -9q48 3 61 3l224 186q208 172 263 172
q15 0 25 -14t10 -29q0 -17 -31 -73l-124 -217q19 0 31.5 1t14.5 2t8 0.5t11.5 -1.5t26.5 -6q-35 -41 -75 -114zM874 868l36 -20q10 -10 10 -31q0 -44 -22 -77.5t-64 -33.5q-29 0 -52 21.5t-23 50.5q0 35 33.5 69.5t51.5 34.5q5 0 30 -14zM855 832q-46 -34 -46 -83
q0 -1 2.5 -5t2.5 -5q33 29 39 44q5 11 5 24t-3 25z" />
    <glyph glyph-name="AE" unicode="&#xc6;" horiz-adv-x="1281" 
d="M1325 683l2 -42q2 -43 -5.5 -54.5t-49.5 -24.5q-27 -9 -59.5 -26l-53 -28t-27.5 -11q-11 0 -11 10q0 7 16 23.5t33.5 31.5t17.5 16v-2h2v2q-67 1 -129 -9t-105 -25.5t-75 -34t-46.5 -34.5t-12.5 -27q3 -15 17 -21q51 -23 301 -18q67 0 67 -21q0 -13 -13 -34.5t-24 -30.5
q-16 -14 -95 -26q-90 -15 -163.5 -42t-114.5 -56t-62.5 -53.5t-21.5 -39.5q0 -29 84 -32q104 -6 236 35q32 10 64.5 26.5t76 43.5t60.5 36q4 -59 -6.5 -92.5t-51.5 -67.5q-68 -57 -170 -86.5t-199 -27.5q-61 1 -137 22q-30 8 -50 42.5t-17 58.5q-31 -24 -45 -33.5
t-44.5 -24.5t-52.5 -15q-25 0 -38 17t-13 43q0 1 -0.5 3t-0.5 4t1 7.5t3.5 12.5t8 19.5l13 28.5t20 40.5l28.5 53.5l-218 -7l-205 -204l-9.5 -9.5l-11 -11l-11 -10.5t-13 -11t-12.5 -9t-14 -8.5t-13 -4.5t-14 -2q-35 0 -35 22q0 29 53 84t118 78l78 86q-48 -4 -72.5 -0.5
t-24.5 20.5t45 62.5t81 57.5q32 11 61 14t32 -7q0 -9 -36.5 -13.5t-36.5 -13.5t14 -9q48 3 61 3l224 186q208 172 263 172q17 0 28 -17t0 -48l2 -2q141 93 367 93h17h23t24 -0.5t26 -2.5t21.5 -5t19 -8t10.5 -12zM403 339l2 -2l152 11l135 227l-2 2zM712 434l-46 -81
q28 3 37 2t20 -10q-40 -48 -68 -111l-52 -3l-34 -65q-35 -67 -20 -73q3 -1 8 -1q22 0 54 29l8 7q25 57 87 102t130.5 70t147.5 40v2l-158 22q-43 10 -69.5 25t-44.5 45z" />
    <glyph glyph-name="Ccedilla" unicode="&#xc7;" horiz-adv-x="715" 
d="M348 317l74 65q39 39 51 39q17 0 10 -23l2 -2q69 60 114.5 120.5t45.5 86.5q0 27 -27 20q-1 0 -9.5 -2t-17 -4.5t-23.5 -7.5t-32 -14.5t-39 -23t-47.5 -34t-54 -46t-63 -61.5t-70.5 -78q-53 -62 -87 -137t-34 -132q0 -113 106 -113q84 0 214 81t227 167q1 -25 -5 -42
t-14.5 -27t-31.5 -32q-198 -191 -377 -236l-18 -36q36 3 65 -10t29 -46q0 -37 -31.5 -54t-71.5 -14q-29 1 -71.5 14t-42.5 33q0 11 9 11q6 0 29 -11t40 -11q19 0 35 9.5t16 26.5q0 33 -57 33l23 46q-17 -3 -32 -3q-85 0 -138 49.5t-53 134.5q0 100 67 207.5t159 194.5
q84 80 209 160.5t205 80.5q46 0 73 -24.5t29 -70.5q3 -48 -38 -118t-100 -131t-126 -107.5t-113 -53.5q-22 -3 -39 11t-17 37q0 37 48 78z" />
    <glyph glyph-name="Egrave" unicode="&#xc8;" horiz-adv-x="702" 
d="M748 616q2 -43 -5.5 -54.5t-49.5 -24.5q-28 -9 -59.5 -25l-52.5 -27.5t-28 -12.5q-3 -1 -7 2.5t-4 7.5q0 17 69 71q-67 1 -129 -9t-105 -25.5t-75 -34t-46.5 -34.5t-12.5 -27q3 -15 18 -21q52 -22 300 -17q67 0 67 -22q0 -13 -13 -34.5t-24 -30.5q-16 -14 -95 -26
q-90 -15 -163.5 -42t-114.5 -56t-62.5 -53.5t-21.5 -39.5q0 -29 84 -32q104 -6 236 35q32 10 64.5 26.5t76 43.5t60.5 36q4 -59 -6.5 -92.5t-51.5 -67.5q-17 -15 -44.5 -31.5t-74 -37.5t-112.5 -33.5t-138 -11.5q-61 1 -137 22q-30 8 -50 44t-20 69q0 28 19.5 60.5
t60.5 70.5t120 74.5t183 62.5v3q-82 3 -138 13t-84.5 26.5t-40 34.5t-11.5 41q0 31 17 64t55.5 66.5t92.5 60.5t134.5 43.5t175.5 16.5q127 0 141 -30zM415 829l59 -18q101 -30 121 -43q28 -19 28 -41q0 -9 -14 -9q-13 0 -33 8q-31 12 -95 21q-46 6 -85 4q-30 -2 -33.5 3.5
t-1.5 37.5q0 3 0.5 12t1.5 12.5t3 9t6.5 7.5t11.5 2q11 0 31 -6z" />
    <glyph glyph-name="Eacute" unicode="&#xc9;" horiz-adv-x="702" 
d="M748 616q2 -43 -5.5 -54.5t-49.5 -24.5q-28 -9 -59.5 -25l-52.5 -27.5t-28 -12.5q-3 -1 -7 2.5t-4 7.5q0 17 69 71q-67 1 -129 -9t-105 -25.5t-75 -34t-46.5 -34.5t-12.5 -27q3 -15 18 -21q52 -22 300 -17q67 0 67 -22q0 -13 -13 -34.5t-24 -30.5q-16 -14 -95 -26
q-90 -15 -163.5 -42t-114.5 -56t-62.5 -53.5t-21.5 -39.5q0 -29 84 -32q104 -6 236 35q32 10 64.5 26.5t76 43.5t60.5 36q4 -59 -6.5 -92.5t-51.5 -67.5q-17 -15 -44.5 -31.5t-74 -37.5t-112.5 -33.5t-138 -11.5q-61 1 -137 22q-30 8 -50 44t-20 69q0 28 19.5 60.5
t60.5 70.5t120 74.5t183 62.5v3q-82 3 -138 13t-84.5 26.5t-40 34.5t-11.5 41q0 31 17 64t55.5 66.5t92.5 60.5t134.5 43.5t175.5 16.5q127 0 141 -30zM528 802l59 18q20 6 31 6q7 0 11.5 -2t6.5 -7.5t3 -9t1.5 -12.5t0.5 -12q3 -20 1 -29.5t-8 -11.5t-28 0q-39 2 -85 -4
q-64 -9 -95 -21q-20 -8 -33 -8q-14 0 -14 9q0 22 28 41q20 13 121 43z" />
    <glyph glyph-name="Ecircumflex" unicode="&#xca;" horiz-adv-x="702" 
d="M748 616q2 -43 -5.5 -54.5t-49.5 -24.5q-28 -9 -59.5 -25l-52.5 -27.5t-28 -12.5q-3 -1 -7 2.5t-4 7.5q0 17 69 71q-67 1 -129 -9t-105 -25.5t-75 -34t-46.5 -34.5t-12.5 -27q3 -15 18 -21q52 -22 300 -17q67 0 67 -22q0 -13 -13 -34.5t-24 -30.5q-16 -14 -95 -26
q-90 -15 -163.5 -42t-114.5 -56t-62.5 -53.5t-21.5 -39.5q0 -29 84 -32q104 -6 236 35q32 10 64.5 26.5t76 43.5t60.5 36q4 -59 -6.5 -92.5t-51.5 -67.5q-17 -15 -44.5 -31.5t-74 -37.5t-112.5 -33.5t-138 -11.5q-61 1 -137 22q-30 8 -50 44t-20 69q0 28 19.5 60.5
t60.5 70.5t120 74.5t183 62.5v3q-82 3 -138 13t-84.5 26.5t-40 34.5t-11.5 41q0 31 17 64t55.5 66.5t92.5 60.5t134.5 43.5t175.5 16.5q127 0 141 -30zM497 753l-88 -37q-30 -13 -34 -13q-9 0 -9 14q0 33 63 58l81 32q59 23 82 23q19 0 57 -41q1 -1 8.5 -8l12 -11.5t9 -11.5
t4.5 -12q0 -13 -21 -28q-16 -10 -20 -15q-8 4 -43 35.5t-52 31.5q-7 0 -50 -17z" />
    <glyph glyph-name="Edieresis" unicode="&#xcb;" horiz-adv-x="702" 
d="M748 616q2 -43 -5.5 -54.5t-49.5 -24.5q-28 -9 -59.5 -25l-52.5 -27.5t-28 -12.5q-3 -1 -7 2.5t-4 7.5q0 17 69 71q-67 1 -129 -9t-105 -25.5t-75 -34t-46.5 -34.5t-12.5 -27q3 -15 18 -21q52 -22 300 -17q67 0 67 -22q0 -13 -13 -34.5t-24 -30.5q-16 -14 -95 -26
q-90 -15 -163.5 -42t-114.5 -56t-62.5 -53.5t-21.5 -39.5q0 -29 84 -32q104 -6 236 35q32 10 64.5 26.5t76 43.5t60.5 36q4 -59 -6.5 -92.5t-51.5 -67.5q-17 -15 -44.5 -31.5t-74 -37.5t-112.5 -33.5t-138 -11.5q-61 1 -137 22q-30 8 -50 44t-20 69q0 28 19.5 60.5
t60.5 70.5t120 74.5t183 62.5v3q-82 3 -138 13t-84.5 26.5t-40 34.5t-11.5 41q0 31 17 64t55.5 66.5t92.5 60.5t134.5 43.5t175.5 16.5q127 0 141 -30zM465 738q-22 0 -43 10t-20 29q1 22 21 51.5t53 24.5q16 -2 24.5 -4t18 -10t8.5 -21q-3 -26 -20 -53t-42 -27zM655 738
q-22 0 -43 10t-20 29q1 22 21 51.5t53 24.5q16 -2 24.5 -4t18 -10t8.5 -21q-3 -26 -20 -53t-42 -27z" />
    <glyph glyph-name="Igrave" unicode="&#xcc;" horiz-adv-x="493" 
d="M184 372l25 5q33 6 38 6q9 0 9 -10q0 -4 -2 -8.5t-6 -8l-7 -6l-8 -6.5t-7 -5t-12.5 -9l-18.5 -14t-19 -13.5t-20 -11.5t-14 -4q-17 0 -54.5 27.5t-35.5 46.5q7 73 77 152t164 129.5t170 50.5q48 0 73.5 -31.5t25.5 -80.5q0 -59 -48 -164t-95.5 -182t-98.5 -151
q12 -30 -17.5 -71.5t-54.5 -43.5q-18 -2 -37.5 13.5t-19.5 33.5q0 16 17 39q123 177 194.5 310t71.5 174q0 15 -6.5 28t-20.5 13q-46 -6 -136 -72t-127 -136zM293 839l59 -18q101 -30 121 -43q28 -19 28 -41q0 -9 -14 -9q-13 0 -33 8q-31 12 -95 21q-46 6 -85 4
q-30 -2 -33.5 3.5t-1.5 37.5q0 3 0.5 12t1.5 12.5t3 9t6.5 7.5t11.5 2q11 0 31 -6z" />
    <glyph glyph-name="Iacute" unicode="&#xcd;" horiz-adv-x="493" 
d="M184 372l25 5q33 6 38 6q9 0 9 -10q0 -4 -2 -8.5t-6 -8l-7 -6l-8 -6.5t-7 -5t-12.5 -9l-18.5 -14t-19 -13.5t-20 -11.5t-14 -4q-17 0 -54.5 27.5t-35.5 46.5q7 73 77 152t164 129.5t170 50.5q48 0 73.5 -31.5t25.5 -80.5q0 -59 -48 -164t-95.5 -182t-98.5 -151
q12 -30 -17.5 -71.5t-54.5 -43.5q-18 -2 -37.5 13.5t-19.5 33.5q0 16 17 39q123 177 194.5 310t71.5 174q0 15 -6.5 28t-20.5 13q-46 -6 -136 -72t-127 -136zM424 802l59 18q20 6 31 6q7 0 11.5 -2t6.5 -7.5t3 -9t1.5 -12.5t0.5 -12q3 -20 1 -29.5t-8 -11.5t-28 0
q-39 2 -85 -4q-64 -9 -95 -21q-20 -8 -33 -8q-14 0 -14 9q0 22 28 41q20 13 121 43z" />
    <glyph glyph-name="Icircumflex" unicode="&#xce;" horiz-adv-x="493" 
d="M184 372l25 5q33 6 38 6q9 0 9 -10q0 -4 -2 -8.5t-6 -8l-7 -6l-8 -6.5t-7 -5t-12.5 -9l-18.5 -14t-19 -13.5t-20 -11.5t-14 -4q-17 0 -54.5 27.5t-35.5 46.5q7 73 77 152t164 129.5t170 50.5q48 0 73.5 -31.5t25.5 -80.5q0 -59 -48 -164t-95.5 -182t-98.5 -151
q12 -30 -17.5 -71.5t-54.5 -43.5q-18 -2 -37.5 13.5t-19.5 33.5q0 16 17 39q123 177 194.5 310t71.5 174q0 15 -6.5 28t-20.5 13q-46 -6 -136 -72t-127 -136zM393 753l-88 -37q-30 -13 -34 -13q-9 0 -9 14q0 33 63 58l81 32q59 23 82 23q19 0 57 -41q1 -1 8.5 -8l12 -11.5
t9 -11.5t4.5 -12q0 -13 -21 -28q-16 -10 -20 -15q-8 4 -43 35.5t-52 31.5q-7 0 -50 -17z" />
    <glyph glyph-name="Idieresis" unicode="&#xcf;" horiz-adv-x="493" 
d="M184 372l25 5q33 6 38 6q9 0 9 -10q0 -4 -2 -8.5t-6 -8l-7 -6l-8 -6.5t-7 -5t-12.5 -9l-18.5 -14t-19 -13.5t-20 -11.5t-14 -4q-17 0 -54.5 27.5t-35.5 46.5q7 73 77 152t164 129.5t170 50.5q48 0 73.5 -31.5t25.5 -80.5q0 -59 -48 -164t-95.5 -182t-98.5 -151
q12 -30 -17.5 -71.5t-54.5 -43.5q-18 -2 -37.5 13.5t-19.5 33.5q0 16 17 39q123 177 194.5 310t71.5 174q0 15 -6.5 28t-20.5 13q-46 -6 -136 -72t-127 -136zM343 738q-22 0 -43 10t-20 29q1 22 21 51.5t53 24.5q16 -2 24.5 -4t18 -10t8.5 -21q-3 -26 -20 -53t-42 -27z
M533 738q-22 0 -43 10t-20 29q1 22 21 51.5t53 24.5q16 -2 24.5 -4t18 -10t8.5 -21q-3 -26 -20 -53t-42 -27z" />
    <glyph glyph-name="Eth" unicode="&#xd0;" horiz-adv-x="804" 
d="M303 291l-78 -103q-24 -32 -24 -55q0 -31 60 -31q110 0 230 43q147 53 215 124t68 144q0 115 -225 133q-11 1 -70 4q-12 -46 -33 -74l-98 -128q10 0 22.5 0.5t19.5 1t12 0.5q79 0 80 -31q0 -25 -34 -25q-102 0 -145 -3zM264 348l159 198q-123 -12 -215 -47v-2h27
q54 0 54 -11q0 -15 -31 -18q-18 -3 -78.5 -21t-87.5 -18q-38 0 -38 35q0 10 14 69q8 37 30.5 57.5t64.5 39.5q70 31 165.5 50.5t174.5 19.5q156 0 239 -53q52 -34 78.5 -94t26.5 -127q0 -100 -68 -184t-169 -141q-82 -46 -201.5 -79t-211.5 -33q-66 0 -86 11q-23 12 -23 53
q0 80 96 195l29 35l-2 2q-15 0 -39.5 -4.5t-43.5 -8.5t-21 -4q-6 0 -6 9q0 11 10.5 32.5t27.5 24.5q64 11 125 14z" />
    <glyph glyph-name="Ntilde" unicode="&#xd1;" horiz-adv-x="836" 
d="M550 191l170 313l-2 2q-156 -148 -238 -241q-19 -22 -188 -248q-20 -28 -32 -28q-18 0 -48.5 23.5t-30.5 39.5q0 5 10 22q47 73 140 245t93 208q0 21 -16 21q-62 0 -312 -165q-17 -13 -30 -13q-18 0 -18 44q0 42 27.5 89t63 81t68 56.5t44.5 22.5q11 0 11 -8
q0 -12 -54 -64l2 -2l89.5 48.5t91 38.5t97.5 22q28 0 47 -15t17 -41q-4 -56 -34.5 -119t-139.5 -254l2 -2q240 289 302 331l29 20l38.5 26.5t34 20.5t26.5 10q17 0 49.5 -31.5t32.5 -63.5q0 -27 -34 -79.5l-92.5 -139t-97.5 -163.5q-31 -62 -31 -82q0 -41 26 -41t96.5 65
t103.5 106q1 -9 2 -19.5l1.5 -16t0.5 -9.5q0 -9 -11 -23q-97 -126 -174.5 -183t-117.5 -57q-35 0 -51.5 25.5t-16.5 61.5q0 66 54 166zM596 810l130 -13l2 2q-35 24 -35 35q0 5 4 9.5t9 4.5q17 0 46.5 -29t29.5 -55q0 -42 -43 -42q-20 0 -61.5 7.5t-62.5 6.5q4 -3 8 -7
t6 -5.5t4 -3.5l3 -3t2 -2.5t1 -3v-3.5q0 -10 -10 -10q-7 0 -27 14l-9.5 6.5t-10.5 7t-9 7t-8 8.5t-5 10t-2 12q0 24 8 35.5t30 11.5z" />
    <glyph glyph-name="Ograve" unicode="&#xd2;" horiz-adv-x="639" 
d="M553 550l1 -1q57 16 90 -9q29 -24 31 -79q2 -98 -64.5 -207.5t-177 -184.5t-220.5 -74q-32 0 -60.5 10.5t-54.5 33t-43 63.5t-20 97q-4 77 48.5 163t132 152.5t170.5 114.5t163 58q31 5 64 -29t33 -51q0 -19 -49 -35q-16 -6 -44 -22zM292 350q-20 -27 -31 -27t-14 28
q-111 -111 -111 -218q0 -29 13 -47t40 -18q40 0 95.5 24.5t89.5 53.5q97 83 154 167.5t59 141.5q1 19 -9.5 34t-29.5 15q-63 0 -141 -49t-115 -105zM409 839l59 -18q101 -30 121 -43q28 -19 28 -41q0 -9 -14 -9q-13 0 -33 8q-31 12 -95 21q-46 6 -85 4q-30 -2 -33.5 3.5
t-1.5 37.5q0 3 0.5 12t1.5 12.5t3 9t6.5 7.5t11.5 2q11 0 31 -6z" />
    <glyph glyph-name="Oacute" unicode="&#xd3;" horiz-adv-x="639" 
d="M553 550l1 -1q57 16 90 -9q29 -24 31 -79q2 -98 -64.5 -207.5t-177 -184.5t-220.5 -74q-32 0 -60.5 10.5t-54.5 33t-43 63.5t-20 97q-4 77 48.5 163t132 152.5t170.5 114.5t163 58q31 5 64 -29t33 -51q0 -19 -49 -35q-16 -6 -44 -22zM292 350q-20 -27 -31 -27t-14 28
q-111 -111 -111 -218q0 -29 13 -47t40 -18q40 0 95.5 24.5t89.5 53.5q97 83 154 167.5t59 141.5q1 19 -9.5 34t-29.5 15q-63 0 -141 -49t-115 -105zM557 802l59 18q20 6 31 6q7 0 11.5 -2t6.5 -7.5t3 -9t1.5 -12.5t0.5 -12q3 -20 1 -29.5t-8 -11.5t-28 0q-39 2 -85 -4
q-64 -9 -95 -21q-20 -8 -33 -8q-14 0 -14 9q0 22 28 41q20 13 121 43z" />
    <glyph glyph-name="Ocircumflex" unicode="&#xd4;" horiz-adv-x="639" 
d="M553 550l1 -1q57 16 90 -9q29 -24 31 -79q2 -98 -64.5 -207.5t-177 -184.5t-220.5 -74q-32 0 -60.5 10.5t-54.5 33t-43 63.5t-20 97q-4 77 48.5 163t132 152.5t170.5 114.5t163 58q31 5 64 -29t33 -51q0 -19 -49 -35q-16 -6 -44 -22zM292 350q-20 -27 -31 -27t-14 28
q-111 -111 -111 -218q0 -29 13 -47t40 -18q40 0 95.5 24.5t89.5 53.5q97 83 154 167.5t59 141.5q1 19 -9.5 34t-29.5 15q-63 0 -141 -49t-115 -105zM506 753l-88 -37q-30 -13 -34 -13q-9 0 -9 14q0 33 63 58l81 32q59 23 82 23q19 0 57 -41q1 -1 8.5 -8l12 -11.5t9 -11.5
t4.5 -12q0 -13 -21 -28q-16 -10 -20 -15q-8 4 -43 35.5t-52 31.5q-8 0 -50 -17z" />
    <glyph glyph-name="Otilde" unicode="&#xd5;" horiz-adv-x="639" 
d="M553 550l1 -1q57 16 90 -9q29 -24 31 -79q2 -98 -64.5 -207.5t-177 -184.5t-220.5 -74q-32 0 -60.5 10.5t-54.5 33t-43 63.5t-20 97q-4 77 48.5 163t132 152.5t170.5 114.5t163 58q31 5 64 -29t33 -51q0 -19 -49 -35q-16 -6 -44 -22zM292 350q-20 -27 -31 -27t-14 28
q-111 -111 -111 -218q0 -29 13 -47t40 -18q40 0 95.5 24.5t89.5 53.5q97 83 154 167.5t59 141.5q1 19 -9.5 34t-29.5 15q-63 0 -141 -49t-115 -105zM435 820l130 -13l2 2q-35 24 -35 35q0 5 4 9.5t9 4.5q17 0 46.5 -29t29.5 -55q0 -42 -43 -42q-20 0 -61.5 7.5t-62.5 6.5
q4 -3 8 -7t6 -5.5t4 -3.5l3 -3t2 -2.5t1 -3v-3.5q0 -10 -10 -10q-7 0 -27 14l-9.5 6.5t-10.5 7t-9 7t-8 8.5t-5 10t-2 12q0 24 8 35.5t30 11.5z" />
    <glyph glyph-name="Odieresis" unicode="&#xd6;" horiz-adv-x="639" 
d="M553 550l1 -1q57 16 90 -9q29 -24 31 -79q2 -98 -64.5 -207.5t-177 -184.5t-220.5 -74q-32 0 -60.5 10.5t-54.5 33t-43 63.5t-20 97q-4 77 48.5 163t132 152.5t170.5 114.5t163 58q31 5 64 -29t33 -51q0 -19 -49 -35q-16 -6 -44 -22zM292 350q-20 -27 -31 -27t-14 28
q-111 -111 -111 -218q0 -29 13 -47t40 -18q40 0 95.5 24.5t89.5 53.5q97 83 154 167.5t59 141.5q1 19 -9.5 34t-29.5 15q-63 0 -141 -49t-115 -105zM459 738q-22 0 -43 10t-20 29q1 22 21 51.5t53 24.5q16 -2 24.5 -4t18 -10t8.5 -21q-3 -26 -20 -53t-42 -27zM649 738
q-22 0 -43 10t-20 29q1 22 21 51.5t53 24.5q16 -2 24.5 -4t18 -10t8.5 -21q-3 -26 -20 -53t-42 -27z" />
    <glyph glyph-name="multiply" unicode="&#xd7;" horiz-adv-x="641" 
d="M590 58l-45 -43l-182 193l-181 -192l-43 42l184 193l-183 193l44 42l182 -191l181 192l43 -41l-185 -194z" />
    <glyph glyph-name="Oslash" unicode="&#xd8;" horiz-adv-x="639" 
d="M20 11l51 59q-31 55 -36 129q-4 62 29.5 130.5t90.5 127t126 108.5t140 82t129 40q31 5 64 -29t33 -51q0 -19 -49 -35q-16 -6 -44 -22l1 -1q57 16 90 -9q7 4 36 25.5t55 37.5t40 16q6 0 11.5 -2.5t12 -8l10 -8.5t10.5 -11t8 -9l-157 -92q4 -11 4 -46q-1 -72 -47.5 -158.5
t-106.5 -145.5q-61 -59 -137.5 -98.5t-150.5 -43.5q-59 -3 -106 24q-3 -3 -17.5 -16.5t-20.5 -19.5t-14.5 -16.5t-12.5 -20.5q-1 -2 -5 -11t-6 -12t-6 -8.5t-9.5 -7.5t-12.5 -2q-18 0 -31 13t-13 31q0 25 41 61zM136 128l437 366q-4 5 -8.5 7t-9.5 2.5t-6 0.5
q-64 -1 -142 -49.5t-115 -104.5q-20 -27 -31 -27q-6 0 -8.5 4.5t-4 13t-2.5 10.5q-112 -115 -110 -223zM579 424l-407 -354q3 -1 37 -1q30 0 95.5 33.5t94.5 65.5q70 61 146 168q18 37 36 86z" />
    <glyph glyph-name="Ugrave" unicode="&#xd9;" horiz-adv-x="874" 
d="M583 207l82 139l-2 2q-372 -362 -424 -352q-94 16 -94 103q0 22 12 50t38 63l37 49t39 46l69.5 80l54 60.5l35 39t21.5 26.5t6 13q0 10 -10 10q-1 0 -29 -11q-90 -38 -242 -113q-64 -32 -102 -32q-15 0 -21.5 4.5t-4.5 16.5q6 34 25.5 72t53 76t86 67t114.5 39
q16 2 99 21.5t116 19.5q41 0 54.5 -39t1.5 -79q-5 -17 -14.5 -33.5t-16.5 -26l-23.5 -30.5l-24.5 -31q-46 -49 -138 -162t-92 -135q0 -18 20 -18q27 0 122.5 79.5t143.5 127.5l86.5 85l69.5 69.5l52 52l41 39.5t28 24.5t22 15.5t14 4q20 0 30.5 -21.5t10.5 -42.5
q4 -12 -13.5 -39.5t-93.5 -134.5l-83 -116q-90 -126 -90 -177q0 -17 11 -28.5t27 -11.5q15 0 35.5 9t47.5 28t42.5 31l45 36.5t30.5 24.5q5 -28 5 -33q0 -15 -52 -59.5t-121.5 -84.5t-109.5 -40q-35 0 -57 22t-22 57q0 61 52 148zM562 839l59 -18q101 -30 121 -43
q28 -19 28 -41q0 -9 -14 -9q-13 0 -33 8q-31 12 -95 21q-46 6 -85 4q-30 -2 -33.5 3.5t-1.5 37.5q0 3 0.5 12t1.5 12.5t3 9t6.5 7.5t11.5 2q11 0 31 -6z" />
    <glyph glyph-name="Uacute" unicode="&#xda;" horiz-adv-x="874" 
d="M583 207l82 139l-2 2q-372 -362 -424 -352q-94 16 -94 103q0 22 12 50t38 63l37 49t39 46l69.5 80l54 60.5l35 39t21.5 26.5t6 13q0 10 -10 10q-1 0 -29 -11q-90 -38 -242 -113q-64 -32 -102 -32q-15 0 -21.5 4.5t-4.5 16.5q6 34 25.5 72t53 76t86 67t114.5 39
q16 2 99 21.5t116 19.5q41 0 54.5 -39t1.5 -79q-5 -17 -14.5 -33.5t-16.5 -26l-23.5 -30.5l-24.5 -31q-46 -49 -138 -162t-92 -135q0 -18 20 -18q27 0 122.5 79.5t143.5 127.5l86.5 85l69.5 69.5l52 52l41 39.5t28 24.5t22 15.5t14 4q20 0 30.5 -21.5t10.5 -42.5
q4 -12 -13.5 -39.5t-93.5 -134.5l-83 -116q-90 -126 -90 -177q0 -17 11 -28.5t27 -11.5q15 0 35.5 9t47.5 28t42.5 31l45 36.5t30.5 24.5q5 -28 5 -33q0 -15 -52 -59.5t-121.5 -84.5t-109.5 -40q-35 0 -57 22t-22 57q0 61 52 148zM724 802l59 18q20 6 31 6q7 0 11.5 -2
t6.5 -7.5t3 -9t1.5 -12.5t0.5 -12q3 -20 1 -29.5t-8 -11.5t-28 0q-39 2 -85 -4q-64 -9 -95 -21q-20 -8 -33 -8q-14 0 -14 9q0 22 28 41q20 13 121 43z" />
    <glyph glyph-name="Ucircumflex" unicode="&#xdb;" horiz-adv-x="874" 
d="M583 207l82 139l-2 2q-372 -362 -424 -352q-94 16 -94 103q0 22 12 50t38 63l37 49t39 46l69.5 80l54 60.5l35 39t21.5 26.5t6 13q0 10 -10 10q-1 0 -29 -11q-90 -38 -242 -113q-64 -32 -102 -32q-15 0 -21.5 4.5t-4.5 16.5q6 34 25.5 72t53 76t86 67t114.5 39
q16 2 99 21.5t116 19.5q41 0 54.5 -39t1.5 -79q-5 -17 -14.5 -33.5t-16.5 -26l-23.5 -30.5l-24.5 -31q-46 -49 -138 -162t-92 -135q0 -18 20 -18q27 0 122.5 79.5t143.5 127.5l86.5 85l69.5 69.5l52 52l41 39.5t28 24.5t22 15.5t14 4q20 0 30.5 -21.5t10.5 -42.5
q4 -12 -13.5 -39.5t-93.5 -134.5l-83 -116q-90 -126 -90 -177q0 -17 11 -28.5t27 -11.5q15 0 35.5 9t47.5 28t42.5 31l45 36.5t30.5 24.5q5 -28 5 -33q0 -15 -52 -59.5t-121.5 -84.5t-109.5 -40q-35 0 -57 22t-22 57q0 61 52 148zM643 753l-88 -37q-30 -13 -34 -13
q-9 0 -9 14q0 33 63 58l81 32q59 23 82 23q19 0 57 -41q1 -1 8.5 -8l12 -11.5t9 -11.5t4.5 -12q0 -13 -21 -28q-16 -10 -20 -15q-8 4 -43 35.5t-52 31.5q-7 0 -50 -17z" />
    <glyph glyph-name="Udieresis" unicode="&#xdc;" horiz-adv-x="874" 
d="M583 207l82 139l-2 2q-372 -362 -424 -352q-94 16 -94 103q0 22 12 50t38 63l37 49t39 46l69.5 80l54 60.5l35 39t21.5 26.5t6 13q0 10 -10 10q-1 0 -29 -11q-90 -38 -242 -113q-64 -32 -102 -32q-15 0 -21.5 4.5t-4.5 16.5q6 34 25.5 72t53 76t86 67t114.5 39
q16 2 99 21.5t116 19.5q41 0 54.5 -39t1.5 -79q-5 -17 -14.5 -33.5t-16.5 -26l-23.5 -30.5l-24.5 -31q-46 -49 -138 -162t-92 -135q0 -18 20 -18q27 0 122.5 79.5t143.5 127.5l86.5 85l69.5 69.5l52 52l41 39.5t28 24.5t22 15.5t14 4q20 0 30.5 -21.5t10.5 -42.5
q4 -12 -13.5 -39.5t-93.5 -134.5l-83 -116q-90 -126 -90 -177q0 -17 11 -28.5t27 -11.5q15 0 35.5 9t47.5 28t42.5 31l45 36.5t30.5 24.5q5 -28 5 -33q0 -15 -52 -59.5t-121.5 -84.5t-109.5 -40q-35 0 -57 22t-22 57q0 61 52 148zM643 738q-22 0 -43 10t-20 29q1 22 21 51.5
t53 24.5q16 -2 24.5 -4t18 -10t8.5 -21q-3 -26 -20 -53t-42 -27zM833 738q-22 0 -43 10t-20 29q1 22 21 51.5t53 24.5q16 -2 24.5 -4t18 -10t8.5 -21q-3 -26 -20 -53t-42 -27z" />
    <glyph glyph-name="Yacute" unicode="&#xdd;" horiz-adv-x="742" 
d="M598 332l-265 -229q-97 -84 -136 -84q-26 0 -49.5 21.5t-19.5 45.5q0 1 1 9t2 12t6 17t12 24.5l20.5 33t31 45.5l44.5 58.5l61 74.5q109 130 123 156q9 15 9 24q1 5 -3 7.5t-10 3.5l-209.5 -109.5t-118.5 -64.5q-17 -12 -32 -12q-14 0 -17 9q-3 10 6 40l15 54
q8 26 21 40.5t41 32.5q80 49 199 100.5t183 51.5q29 0 49.5 -13.5t20.5 -41.5q0 -9 -4 -21t-12.5 -27l-15 -26.5t-20.5 -29.5t-19 -25.5t-20 -25.5l-14 -18l-60 -76.5l-47.5 -59l-34.5 -43l-25.5 -32.5t-15.5 -21.5t-9.5 -17t-2.5 -13.5q-1 -7 5.5 -11.5t19.5 -2t28 15.5
l78 62.5t82 68.5l192 174q44 40 56 40q17 0 32 -21t15 -39q0 -8 -5 -18.5t-20.5 -32l-33.5 -46l-54.5 -74.5l-74.5 -104q-106 -151 -119 -180q-11 -24 1 -25q6 0 13 4l39.5 23.5t81.5 44.5q19 10 35.5 16t27.5 8t18.5 1t11 -4t3.5 -8q0 -11 -23.5 -32.5t-37.5 -29.5
q-166 -125 -235 -206q-17 -20 -26.5 -30t-29 -23.5t-35.5 -13.5q-20 0 -32 14t-12 35q0 65 114 239t202 283zM678 802l59 18q20 6 31 6q7 0 11.5 -2t6.5 -7.5t3 -9t1.5 -12.5t0.5 -12q3 -20 1 -29.5t-8 -11.5t-28 0q-39 2 -85 -4q-64 -9 -95 -21q-20 -8 -33 -8q-14 0 -14 9
q0 22 28 41q20 13 121 43z" />
    <glyph glyph-name="Thorn" unicode="&#xde;" horiz-adv-x="612" 
d="M220 292l138 176q-81 -4 -154 -18t-112.5 -25.5t-42.5 -11.5q-12 0 -12 14q0 11 35.5 65t44.5 62q15 12 119 26t145 14q46 0 76 -2l49 69q32 45 65 45q7 0 12.5 -5t5.5 -12q0 -19 -22 -48l-43 -57q82 -11 151 -65t69 -129q0 -42 -32.5 -87.5t-90 -85.5t-149.5 -66
t-199 -26q-39 0 -87 6l-43 -72q18 0 18 -17q0 -20 -30.5 -55t-56.5 -35q-12 0 -20 10.5t-8 25.5q0 31 35 92l38 65q-27 5 -43 20t-16 32q0 37 48.5 66t111.5 29zM438 466l-176 -226q26 -8 84 -8q78 0 155 29.5t120 64.5t43 56q0 43 -59 60.5t-167 23.5z" />
    <glyph glyph-name="germandbls" unicode="&#xdf;" horiz-adv-x="556" 
d="M291 312l-85 -5l-125 -308q-1 -2 -6 -15t-8 -19.5t-9.5 -18t-12 -18t-13.5 -11.5t-17 -5q-37 0 -37 48q0 17 10.5 51t30.5 80l35.5 80l37.5 81t25 53q-32 4 -32 28q0 29 69 39q63 104 99 142q13 14 26 26q44 39 99 68.5t102 29.5q42 0 67 -22.5t25 -64.5
q0 -34 -34.5 -66.5t-71.5 -50t-94 -41t-70 -29.5l2 -2q87 4 133 -10q39 -13 60.5 -42t21.5 -69q0 -65 -51.5 -125.5t-122.5 -95t-134 -34.5q-35 0 -52.5 11.5t-17.5 44.5q0 47 34 67q7 4 29 9.5t31 5.5q10 0 10 -10t-7 -14l2 -2q166 30 166 135q0 43 -35 62.5t-80 16.5z
M247 390l146 56q78 30 78 78q0 18 -12.5 29.5t-31.5 11.5q-26 0 -56.5 -21.5t-53.5 -47.5q-32 -35 -70 -106z" />
    <glyph glyph-name="agrave" unicode="&#xe0;" horiz-adv-x="487" 
d="M309 277q-85 -26 -141.5 -51.5t-82 -49.5t-34.5 -42.5t-9 -39.5q1 -5 2.5 -8.5t6 -8t11.5 -3.5q30 6 69 35q63 48 180 166zM255 142l-92 -74q-85 -67 -106 -67q-22 0 -54.5 40.5t-33.5 77.5q-2 58 67.5 119.5t157 98t147.5 38.5q30 1 47.5 -17t17.5 -31t-35 -25
q29 -12 29 -41q0 -14 -43.5 -69t-43.5 -80q0 -24 31 -24q15 0 35 9t35 19t38.5 28t33.5 24l8 -37q-38 -43 -115 -99.5t-111 -56.5q-24 0 -36 15t-12 38q0 35 37 112zM168 517l59 -18q101 -30 121 -43q28 -19 28 -41q0 -9 -14 -9q-13 0 -33 8q-31 12 -95 21q-46 6 -85 4
q-30 -2 -33.5 3.5t-1.5 37.5q0 3 0.5 12t1.5 12.5t3 9t6.5 7.5t11.5 2q11 0 31 -6z" />
    <glyph glyph-name="aacute" unicode="&#xe1;" horiz-adv-x="487" 
d="M309 277q-85 -26 -141.5 -51.5t-82 -49.5t-34.5 -42.5t-9 -39.5q1 -5 2.5 -8.5t6 -8t11.5 -3.5q30 6 69 35q63 48 180 166zM255 142l-92 -74q-85 -67 -106 -67q-22 0 -54.5 40.5t-33.5 77.5q-2 58 67.5 119.5t157 98t147.5 38.5q30 1 47.5 -17t17.5 -31t-35 -25
q29 -12 29 -41q0 -14 -43.5 -69t-43.5 -80q0 -24 31 -24q15 0 35 9t35 19t38.5 28t33.5 24l8 -37q-38 -43 -115 -99.5t-111 -56.5q-24 0 -36 15t-12 38q0 35 37 112zM331 500l59 18q20 6 31 6q7 0 11.5 -2t6.5 -7.5t3 -9t1.5 -12.5t0.5 -12q3 -20 1 -29.5t-8 -11.5t-28 0
q-39 2 -85 -4q-64 -9 -95 -21q-20 -8 -33 -8q-14 0 -14 9q0 22 28 41q20 13 121 43z" />
    <glyph glyph-name="acircumflex" unicode="&#xe2;" horiz-adv-x="487" 
d="M309 277q-85 -26 -141.5 -51.5t-82 -49.5t-34.5 -42.5t-9 -39.5q1 -5 2.5 -8.5t6 -8t11.5 -3.5q30 6 69 35q63 48 180 166zM255 142l-92 -74q-85 -67 -106 -67q-22 0 -54.5 40.5t-33.5 77.5q-2 58 67.5 119.5t157 98t147.5 38.5q30 1 47.5 -17t17.5 -31t-35 -25
q29 -12 29 -41q0 -14 -43.5 -69t-43.5 -80q0 -24 31 -24q15 0 35 9t35 19t38.5 28t33.5 24l8 -37q-38 -43 -115 -99.5t-111 -56.5q-24 0 -36 15t-12 38q0 35 37 112zM250 451l-88 -37q-30 -13 -34 -13q-9 0 -9 14q0 33 63 58l81 32q59 23 82 23q19 0 57 -41q1 -1 8.5 -8
l12 -11.5t9 -11.5t4.5 -12q0 -13 -21 -28q-16 -10 -20 -15q-8 4 -43 35.5t-52 31.5q-8 0 -50 -17z" />
    <glyph glyph-name="atilde" unicode="&#xe3;" horiz-adv-x="487" 
d="M309 277q-85 -26 -141.5 -51.5t-82 -49.5t-34.5 -42.5t-9 -39.5q1 -5 2.5 -8.5t6 -8t11.5 -3.5q30 6 69 35q63 48 180 166zM255 142l-92 -74q-85 -67 -106 -67q-22 0 -54.5 40.5t-33.5 77.5q-2 58 67.5 119.5t157 98t147.5 38.5q30 1 47.5 -17t17.5 -31t-35 -25
q29 -12 29 -41q0 -14 -43.5 -69t-43.5 -80q0 -24 31 -24q15 0 35 9t35 19t38.5 28t33.5 24l8 -37q-38 -43 -115 -99.5t-111 -56.5q-24 0 -36 15t-12 38q0 35 37 112zM225 498l130 -13l2 2q-35 24 -35 35q0 5 4 9.5t9 4.5q17 0 46.5 -29t29.5 -55q0 -42 -43 -42
q-20 0 -61.5 7.5t-62.5 6.5q4 -3 8 -7t6 -5.5t4 -3.5l3 -3t2 -2.5t1 -3v-3.5q0 -10 -10 -10q-7 0 -27 14l-9.5 6.5t-10.5 7t-9 7t-8 8.5t-5 10t-2 12q0 24 8 35.5t30 11.5z" />
    <glyph glyph-name="adieresis" unicode="&#xe4;" horiz-adv-x="487" 
d="M309 277q-85 -26 -141.5 -51.5t-82 -49.5t-34.5 -42.5t-9 -39.5q1 -5 2.5 -8.5t6 -8t11.5 -3.5q30 6 69 35q63 48 180 166zM255 142l-92 -74q-85 -67 -106 -67q-22 0 -54.5 40.5t-33.5 77.5q-2 58 67.5 119.5t157 98t147.5 38.5q30 1 47.5 -17t17.5 -31t-35 -25
q29 -12 29 -41q0 -14 -43.5 -69t-43.5 -80q0 -24 31 -24q15 0 35 9t35 19t38.5 28t33.5 24l8 -37q-38 -43 -115 -99.5t-111 -56.5q-24 0 -36 15t-12 38q0 35 37 112zM218 446q-22 0 -43 10t-20 29q1 22 21 51.5t53 24.5q16 -2 24.5 -4t18 -10t8.5 -21q-3 -26 -20 -53
t-42 -27zM408 446q-22 0 -43 10t-20 29q1 22 21 51.5t53 24.5q16 -2 24.5 -4t18 -10t8.5 -21q-3 -26 -20 -53t-42 -27z" />
    <glyph glyph-name="aring" unicode="&#xe5;" horiz-adv-x="487" 
d="M309 277q-85 -26 -141.5 -51.5t-82 -49.5t-34.5 -42.5t-9 -39.5q1 -5 2.5 -8.5t6 -8t11.5 -3.5q30 6 69 35q63 48 180 166zM255 142l-92 -74q-85 -67 -106 -67q-22 0 -54.5 40.5t-33.5 77.5q-2 58 67.5 119.5t157 98t147.5 38.5q30 1 47.5 -17t17.5 -31t-35 -25
q29 -12 29 -41q0 -14 -43.5 -69t-43.5 -80q0 -24 31 -24q15 0 35 9t35 19t38.5 28t33.5 24l8 -37q-38 -43 -115 -99.5t-111 -56.5q-24 0 -36 15t-12 38q0 35 37 112zM428 566l36 -20q10 -10 10 -31q0 -44 -22 -77.5t-64 -33.5q-29 0 -52 21.5t-23 50.5q0 35 33.5 69.5
t51.5 34.5q5 0 30 -14zM409 530q-46 -34 -46 -83q0 -1 2.5 -5t2.5 -5q33 29 39 44q5 11 5 24t-3 25z" />
    <glyph glyph-name="ae" unicode="&#xe6;" horiz-adv-x="628" 
d="M117 103l41 28q84 58 160 147l-2 2q-117 -32 -182 -72q-28 -17 -42.5 -28.5t-27.5 -33t-13 -47.5q0 -18 21 -18q15 0 45 22zM371 194q59 20 102.5 59.5t42.5 56.5q0 6 -2.5 9t-7.5 2q-39 -10 -77 -44.5t-58 -82.5zM65 2q-21 0 -54 39.5t-33 74.5q0 56 43 103t102 80
q49 27 117 53.5t108 26.5q35 0 61 -35q64 35 125 35q70 0 70 -48q0 -45 -54 -94t-185 -92l-2 -22q0 -51 62 -51q13 0 27.5 3.5t27 8t29.5 14.5l26.5 15.5t27.5 19l24.5 18.5l25 19.5t20.5 16.5l9 -38q-56 -65 -129.5 -115t-140.5 -50q-22 0 -51.5 15t-40.5 33
q-10 16 -14.5 36t-4 37.5t0.5 38.5q-9 -6 -55.5 -44t-87.5 -68t-54 -30z" />
    <glyph glyph-name="ccedilla" unicode="&#xe7;" horiz-adv-x="359" 
d="M194 251l-84 -63q-40 -29 -40 -59q0 -20 20 -37t56 -17q35 0 81.5 22.5t70 40l69.5 52.5l12 -39q-116 -125 -219 -155l-26 -51q36 3 65 -10t29 -46q0 -37 -31.5 -54t-71.5 -14q-29 1 -71.5 14t-42.5 33q0 11 9 11q6 0 29 -11t40 -11q19 0 35 9.5t16 26.5q0 33 -57 33
l32 62q-1 -1 -4 -1q-55 0 -84.5 43t-29.5 103q0 59 20.5 91.5t74.5 72.5q41 31 100 59.5t97 28.5q45 0 45 -46q0 -38 -41.5 -85t-64.5 -47q-16 0 -24.5 13.5t-9.5 30.5z" />
    <glyph glyph-name="egrave" unicode="&#xe8;" horiz-adv-x="357" 
d="M362 187l9 -38q-56 -65 -129.5 -115t-140.5 -50q-51 0 -79 38.5t-30 92.5q-3 97 84.5 181t186.5 83q72 0 72 -48q0 -44 -55 -93.5t-186 -92.5l-2 -22q-2 -26 16.5 -38.5t45.5 -12.5q13 0 27.5 3.5t27 8t29.5 14.5l26.5 15.5t27.5 19l24.5 18.5l25 19.5t20.5 16.5z
M100 194q59 20 103.5 60t43.5 56q0 14 -12 11q-39 -10 -77 -44.5t-58 -82.5zM103 517l59 -18q101 -30 121 -43q28 -19 28 -41q0 -9 -14 -9q-13 0 -33 8q-31 12 -95 21q-46 6 -85 4q-30 -2 -33.5 3.5t-1.5 37.5q0 3 0.5 12t1.5 12.5t3 9t6.5 7.5t11.5 2q11 0 31 -6z" />
    <glyph glyph-name="eacute" unicode="&#xe9;" horiz-adv-x="357" 
d="M362 187l9 -38q-56 -65 -129.5 -115t-140.5 -50q-51 0 -79 38.5t-30 92.5q-3 97 84.5 181t186.5 83q72 0 72 -48q0 -44 -55 -93.5t-186 -92.5l-2 -22q-2 -26 16.5 -38.5t45.5 -12.5q13 0 27.5 3.5t27 8t29.5 14.5l26.5 15.5t27.5 19l24.5 18.5l25 19.5t20.5 16.5z
M100 194q59 20 103.5 60t43.5 56q0 14 -12 11q-39 -10 -77 -44.5t-58 -82.5zM266 500l59 18q20 6 31 6q7 0 11.5 -2t6.5 -7.5t3 -9t1.5 -12.5t0.5 -12q3 -20 1 -29.5t-8 -11.5t-28 0q-39 2 -85 -4q-64 -9 -95 -21q-20 -8 -33 -8q-14 0 -14 9q0 22 28 41q20 13 121 43z" />
    <glyph glyph-name="ecircumflex" unicode="&#xea;" horiz-adv-x="357" 
d="M362 187l9 -38q-56 -65 -129.5 -115t-140.5 -50q-51 0 -79 38.5t-30 92.5q-3 97 84.5 181t186.5 83q72 0 72 -48q0 -44 -55 -93.5t-186 -92.5l-2 -22q-2 -26 16.5 -38.5t45.5 -12.5q13 0 27.5 3.5t27 8t29.5 14.5l26.5 15.5t27.5 19l24.5 18.5l25 19.5t20.5 16.5z
M100 194q59 20 103.5 60t43.5 56q0 14 -12 11q-39 -10 -77 -44.5t-58 -82.5zM185 451l-88 -37q-30 -13 -34 -13q-9 0 -9 14q0 33 63 58l81 32q59 23 82 23q19 0 57 -41q1 -1 8.5 -8l12 -11.5t9 -11.5t4.5 -12q0 -13 -21 -28q-16 -10 -20 -15q-8 4 -43 35.5t-52 31.5
q-7 0 -50 -17z" />
    <glyph glyph-name="edieresis" unicode="&#xeb;" horiz-adv-x="357" 
d="M362 187l9 -38q-56 -65 -129.5 -115t-140.5 -50q-51 0 -79 38.5t-30 92.5q-3 97 84.5 181t186.5 83q72 0 72 -48q0 -44 -55 -93.5t-186 -92.5l-2 -22q-2 -26 16.5 -38.5t45.5 -12.5q13 0 27.5 3.5t27 8t29.5 14.5l26.5 15.5t27.5 19l24.5 18.5l25 19.5t20.5 16.5z
M100 194q59 20 103.5 60t43.5 56q0 14 -12 11q-39 -10 -77 -44.5t-58 -82.5zM153 446q-22 0 -43 10t-20 29q1 22 21 51.5t53 24.5q16 -2 24.5 -4t18 -10t8.5 -21q-3 -26 -20 -53t-42 -27zM343 446q-22 0 -43 10t-20 29q1 22 21 51.5t53 24.5q16 -2 24.5 -4t18 -10t8.5 -21
q-3 -26 -20 -53t-42 -27z" />
    <glyph glyph-name="igrave" unicode="&#xec;" horiz-adv-x="278" 
d="M273 168l9 -38q-46 -56 -102 -100.5t-107 -44.5q-41 0 -63.5 37.5t-22.5 81.5q0 57 34 115t77 92t74 34q44 0 44 -28q0 -33 -49 -86t-92 -82q-12 -63 53 -63q19 0 40.5 9.5t36 19.5t37.5 28.5t31 24.5zM63 517l59 -18q101 -30 121 -43q28 -19 28 -41q0 -9 -14 -9
q-13 0 -33 8q-31 12 -95 21q-46 6 -85 4q-30 -2 -33.5 3.5t-1.5 37.5q0 3 0.5 12t1.5 12.5t3 9t6.5 7.5t11.5 2q11 0 31 -6z" />
    <glyph glyph-name="iacute" unicode="&#xed;" horiz-adv-x="278" 
d="M273 168l9 -38q-46 -56 -102 -100.5t-107 -44.5q-41 0 -63.5 37.5t-22.5 81.5q0 57 34 115t77 92t74 34q44 0 44 -28q0 -33 -49 -86t-92 -82q-12 -63 53 -63q19 0 40.5 9.5t36 19.5t37.5 28.5t31 24.5zM226 500l59 18q20 6 31 6q7 0 11.5 -2t6.5 -7.5t3 -9t1.5 -12.5
t0.5 -12q3 -20 1 -29.5t-8 -11.5t-28 0q-39 2 -85 -4q-64 -9 -95 -21q-20 -8 -33 -8q-14 0 -14 9q0 22 28 41q20 13 121 43z" />
    <glyph glyph-name="icircumflex" unicode="&#xee;" horiz-adv-x="278" 
d="M273 168l9 -38q-46 -56 -102 -100.5t-107 -44.5q-41 0 -63.5 37.5t-22.5 81.5q0 57 34 115t77 92t74 34q44 0 44 -28q0 -33 -49 -86t-92 -82q-12 -63 53 -63q19 0 40.5 9.5t36 19.5t37.5 28.5t31 24.5zM145 451l-88 -37q-30 -13 -34 -13q-9 0 -9 14q0 33 63 58l81 32
q59 23 82 23q19 0 57 -41q1 -1 8.5 -8l12 -11.5t9 -11.5t4.5 -12q0 -13 -21 -28q-16 -10 -20 -15q-8 4 -43 35.5t-52 31.5q-7 0 -50 -17z" />
    <glyph glyph-name="idieresis" unicode="&#xef;" horiz-adv-x="278" 
d="M273 168l9 -38q-46 -56 -102 -100.5t-107 -44.5q-41 0 -63.5 37.5t-22.5 81.5q0 57 34 115t77 92t74 34q44 0 44 -28q0 -33 -49 -86t-92 -82q-12 -63 53 -63q19 0 40.5 9.5t36 19.5t37.5 28.5t31 24.5zM113 446q-22 0 -43 10t-20 29q1 22 21 51.5t53 24.5q16 -2 24.5 -4
t18 -10t8.5 -21q-3 -26 -20 -53t-42 -27zM303 446q-22 0 -43 10t-20 29q1 22 21 51.5t53 24.5q16 -2 24.5 -4t18 -10t8.5 -21q-3 -26 -20 -53t-42 -27z" />
    <glyph glyph-name="eth" unicode="&#xf0;" horiz-adv-x="501" 
d="M398 192l10 -42q-34 -43 -71 -62t-91 -19q-73 -75 -154 -75q-41 0 -72 39t-31 104q0 98 90 169q39 32 93.5 52.5t93.5 20.5q23 0 33 -18h2q12 41 12 87q0 26 -4 50l-81 -29q-21 -8 -27 -8q-5 0 -13 14t-8 20q0 9 13 14l101 37q-12 23 -29.5 41.5t-28 27.5t-10.5 11
q0 8 10.5 20t20.5 12q14 0 50 -28.5t55 -58.5l73 26q29 11 37 11q6 0 12 -15t6 -22t-21 -15l-87 -31q17 -57 17 -115q0 -128 -104 -271q6 -1 16 -1q16 0 34.5 11t25 17zM62 105q0 -38 44 -38q31 0 75 40q54 60 96 183q-84 -9 -149.5 -63t-65.5 -122z" />
    <glyph glyph-name="ntilde" unicode="&#xf1;" horiz-adv-x="460" 
d="M408 148l60 50l8 -44l-59 -58.5t-97.5 -84.5t-72.5 -27q-27 0 -41.5 19t-14.5 47q0 17 4.5 34.5t17.5 40.5l18.5 32.5t25.5 36.5t20 28l-2 2q-83 -62 -154 -153q-54 -68 -79 -68q-29 0 -42 31t-14 66q-2 49 35 114.5t83 104.5q14 12 39 12q27 -1 40.5 -6t14 -7.5
t0.5 -8.5q0 -21 -63 -87.5t-63 -76.5q0 -11 11 -11q9 0 20 14q55 70 161 147.5t132 77.5q8 0 16 -19q11 -28 15 -54q0 -15 -30.5 -47t-61.5 -69.5t-31 -67.5q0 -7 5.5 -12.5t12.5 -5.5q26 0 86 50zM211 498l130 -13l2 2q-35 24 -35 35q0 5 4 9.5t9 4.5q17 0 46.5 -29
t29.5 -55q0 -42 -43 -42q-20 0 -61.5 7.5t-62.5 6.5q4 -3 8 -7t6 -5.5t4 -3.5l3 -3t2 -2.5t1 -3v-3.5q0 -10 -10 -10q-7 0 -27 14l-9.5 6.5t-10.5 7t-9 7t-8 8.5t-5 10t-2 12q0 24 8 35.5t30 11.5z" />
    <glyph glyph-name="ograve" unicode="&#xf2;" horiz-adv-x="396" 
d="M398 192l10 -42q-34 -43 -71 -62t-91 -19q-73 -75 -154 -75q-41 0 -71 38.5t-33 104.5q-3 96 91 168q85 69 187 74q20 1 37.5 -8.5t17.5 -27.5q0 -14 -23 -27q21 -6 28.5 -20t7.5 -39q0 -9 -1 -18t-3.5 -18.5t-4.5 -15.5t-7 -17.5t-7 -15.5l-8.5 -17t-7.5 -16
q15 -3 30.5 2t25 12t25 20.5t22.5 18.5zM214 270q-91 -53 -111 -73q-17 -17 -29 -43t-12 -49q0 -38 44 -38q15 0 30 6.5t23.5 13t23.5 20.5q-12 27 -12 46q0 23 12 52t22 46.5t9 18.5zM122 517l59 -18q101 -30 121 -43q28 -19 28 -41q0 -9 -14 -9q-13 0 -33 8q-31 12 -95 21
q-46 6 -85 4q-30 -2 -33.5 3.5t-1.5 37.5q0 3 0.5 12t1.5 12.5t3 9t6.5 7.5t11.5 2q11 0 31 -6z" />
    <glyph glyph-name="oacute" unicode="&#xf3;" horiz-adv-x="396" 
d="M398 192l10 -42q-34 -43 -71 -62t-91 -19q-73 -75 -154 -75q-41 0 -71 38.5t-33 104.5q-3 96 91 168q85 69 187 74q20 1 37.5 -8.5t17.5 -27.5q0 -14 -23 -27q21 -6 28.5 -20t7.5 -39q0 -9 -1 -18t-3.5 -18.5t-4.5 -15.5t-7 -17.5t-7 -15.5l-8.5 -17t-7.5 -16
q15 -3 30.5 2t25 12t25 20.5t22.5 18.5zM214 270q-91 -53 -111 -73q-17 -17 -29 -43t-12 -49q0 -38 44 -38q15 0 30 6.5t23.5 13t23.5 20.5q-12 27 -12 46q0 23 12 52t22 46.5t9 18.5zM285 500l59 18q20 6 31 6q7 0 11.5 -2t6.5 -7.5t3 -9t1.5 -12.5t0.5 -12q3 -20 1 -29.5
t-8 -11.5t-28 0q-39 2 -85 -4q-64 -9 -95 -21q-20 -8 -33 -8q-14 0 -14 9q0 22 28 41q20 13 121 43z" />
    <glyph glyph-name="ocircumflex" unicode="&#xf4;" horiz-adv-x="396" 
d="M398 192l10 -42q-34 -43 -71 -62t-91 -19q-73 -75 -154 -75q-41 0 -71 38.5t-33 104.5q-3 96 91 168q85 69 187 74q20 1 37.5 -8.5t17.5 -27.5q0 -14 -23 -27q21 -6 28.5 -20t7.5 -39q0 -9 -1 -18t-3.5 -18.5t-4.5 -15.5t-7 -17.5t-7 -15.5l-8.5 -17t-7.5 -16
q15 -3 30.5 2t25 12t25 20.5t22.5 18.5zM214 270q-91 -53 -111 -73q-17 -17 -29 -43t-12 -49q0 -38 44 -38q15 0 30 6.5t23.5 13t23.5 20.5q-12 27 -12 46q0 23 12 52t22 46.5t9 18.5zM204 451l-88 -37q-30 -13 -34 -13q-9 0 -9 14q0 33 63 58l81 32q59 23 82 23
q19 0 57 -41q1 -1 8.5 -8l12 -11.5t9 -11.5t4.5 -12q0 -13 -21 -28q-16 -10 -20 -15q-8 4 -43 35.5t-52 31.5q-8 0 -50 -17z" />
    <glyph glyph-name="otilde" unicode="&#xf5;" horiz-adv-x="396" 
d="M398 192l10 -42q-34 -43 -71 -62t-91 -19q-73 -75 -154 -75q-41 0 -71 38.5t-33 104.5q-3 96 91 168q85 69 187 74q20 1 37.5 -8.5t17.5 -27.5q0 -14 -23 -27q21 -6 28.5 -20t7.5 -39q0 -9 -1 -18t-3.5 -18.5t-4.5 -15.5t-7 -17.5t-7 -15.5l-8.5 -17t-7.5 -16
q15 -3 30.5 2t25 12t25 20.5t22.5 18.5zM214 270q-91 -53 -111 -73q-17 -17 -29 -43t-12 -49q0 -38 44 -38q15 0 30 6.5t23.5 13t23.5 20.5q-12 27 -12 46q0 23 12 52t22 46.5t9 18.5zM179 498l130 -13l2 2q-35 24 -35 35q0 5 4 9.5t9 4.5q17 0 46.5 -29t29.5 -55
q0 -42 -43 -42q-20 0 -61.5 7.5t-62.5 6.5q4 -3 8 -7t6 -5.5t4 -3.5l3 -3t2 -2.5t1 -3v-3.5q0 -10 -10 -10q-7 0 -27 14l-9.5 6.5t-10.5 7t-9 7t-8 8.5t-5 10t-2 12q0 24 8 35.5t30 11.5z" />
    <glyph glyph-name="odieresis" unicode="&#xf6;" horiz-adv-x="396" 
d="M398 192l10 -42q-34 -43 -71 -62t-91 -19q-73 -75 -154 -75q-41 0 -71 38.5t-33 104.5q-3 96 91 168q85 69 187 74q20 1 37.5 -8.5t17.5 -27.5q0 -14 -23 -27q21 -6 28.5 -20t7.5 -39q0 -9 -1 -18t-3.5 -18.5t-4.5 -15.5t-7 -17.5t-7 -15.5l-8.5 -17t-7.5 -16
q15 -3 30.5 2t25 12t25 20.5t22.5 18.5zM214 270q-91 -53 -111 -73q-17 -17 -29 -43t-12 -49q0 -38 44 -38q15 0 30 6.5t23.5 13t23.5 20.5q-12 27 -12 46q0 23 12 52t22 46.5t9 18.5zM172 446q-22 0 -43 10t-20 29q1 22 21 51.5t53 24.5q16 -2 24.5 -4t18 -10t8.5 -21
q-3 -26 -20 -53t-42 -27zM362 446q-22 0 -43 10t-20 29q1 22 21 51.5t53 24.5q16 -2 24.5 -4t18 -10t8.5 -21q-3 -26 -20 -53t-42 -27z" />
    <glyph glyph-name="divide" unicode="&#xf7;" horiz-adv-x="639" 
d="M365 377h-1q-18 0 -32 14.5t-14 35.5q0 20 14.5 35t32.5 15q19 0 33.5 -15t14.5 -35q0 -21 -14 -35.5t-34 -14.5zM591 230h-456v60h456v-60zM365 143h1q17 0 31 -15t14 -35t-14.5 -36t-31.5 -16q-21 0 -35 15.5t-14 36.5t14 35.5t35 14.5z" />
    <glyph glyph-name="oslash" unicode="&#xf8;" horiz-adv-x="396" 
d="M278 378l30 36q12 19 20.5 23t35.5 -5l36 -4l-99 -113q33 -10 33 -58q0 -9 -1 -18t-3.5 -18.5t-4.5 -15.5t-7 -17.5t-7 -15.5l-8.5 -17t-7.5 -16q15 -3 30.5 2t25 12t25 20.5t22.5 18.5l10 -42q-34 -43 -71 -62t-91 -19q-72 -74 -152 -75l-28 -58q-3 -31 -26 -36
q-54 20 -8 104l6 11q-46 37 -50 122q-3 96 91 168q85 69 187 74q8 0 12 -1zM214 270q-91 -53 -111 -73q-17 -17 -29 -43t-12 -49q0 -38 44 -38q15 0 30 6.5t23.5 13t23.5 20.5q-12 27 -12 46q0 23 12 52t22 46.5t9 18.5z" />
    <glyph glyph-name="ugrave" unicode="&#xf9;" horiz-adv-x="478" 
d="M185 177l99 89q1 1 20 18.5l33.5 30.5l34 29.5t34.5 26t22 9.5q19 0 23 -55q2 -23 -41 -61q-33 -30 -68 -76.5t-35 -76.5q0 -22 25 -22q37 0 154 94l6 -43l-29 -28.5l-38 -36.5l-39 -34.5t-44.5 -34t-40.5 -21t-40 -9.5q-27 0 -43 19.5t-16 46.5q0 29 21 84l-2 2
q-8 -7 -43 -44t-64 -58.5t-54 -21.5q-34 0 -55 31.5t-21 67.5q0 68 43 136t96 103q17 11 44 11q2 0 12 0.5t17 0.5t16 -1.5t13 -7t3 -13.5q-1 -11 -15 -27.5t-25 -25.5q-42 -48 -76 -72q-27 -19 -41 -38t-14 -48q0 -15 8 -15q15 0 51 20.5t69 50.5zM163 517l59 -18
q101 -30 121 -43q28 -19 28 -41q0 -9 -14 -9q-13 0 -33 8q-31 12 -95 21q-46 6 -85 4q-30 -2 -33.5 3.5t-1.5 37.5q0 3 0.5 12t1.5 12.5t3 9t6.5 7.5t11.5 2q11 0 31 -6z" />
    <glyph glyph-name="uacute" unicode="&#xfa;" horiz-adv-x="478" 
d="M185 177l99 89q1 1 20 18.5l33.5 30.5l34 29.5t34.5 26t22 9.5q19 0 23 -55q2 -23 -41 -61q-33 -30 -68 -76.5t-35 -76.5q0 -22 25 -22q37 0 154 94l6 -43l-29 -28.5l-38 -36.5l-39 -34.5t-44.5 -34t-40.5 -21t-40 -9.5q-27 0 -43 19.5t-16 46.5q0 29 21 84l-2 2
q-8 -7 -43 -44t-64 -58.5t-54 -21.5q-34 0 -55 31.5t-21 67.5q0 68 43 136t96 103q17 11 44 11q2 0 12 0.5t17 0.5t16 -1.5t13 -7t3 -13.5q-1 -11 -15 -27.5t-25 -25.5q-42 -48 -76 -72q-27 -19 -41 -38t-14 -48q0 -15 8 -15q15 0 51 20.5t69 50.5zM326 500l59 18q20 6 31 6
q7 0 11.5 -2t6.5 -7.5t3 -9t1.5 -12.5t0.5 -12q3 -20 1 -29.5t-8 -11.5t-28 0q-39 2 -85 -4q-64 -9 -95 -21q-20 -8 -33 -8q-14 0 -14 9q0 22 28 41q20 13 121 43z" />
    <glyph glyph-name="ucircumflex" unicode="&#xfb;" horiz-adv-x="478" 
d="M185 177l99 89q1 1 20 18.5l33.5 30.5l34 29.5t34.5 26t22 9.5q19 0 23 -55q2 -23 -41 -61q-33 -30 -68 -76.5t-35 -76.5q0 -22 25 -22q37 0 154 94l6 -43l-29 -28.5l-38 -36.5l-39 -34.5t-44.5 -34t-40.5 -21t-40 -9.5q-27 0 -43 19.5t-16 46.5q0 29 21 84l-2 2
q-8 -7 -43 -44t-64 -58.5t-54 -21.5q-34 0 -55 31.5t-21 67.5q0 68 43 136t96 103q17 11 44 11q2 0 12 0.5t17 0.5t16 -1.5t13 -7t3 -13.5q-1 -11 -15 -27.5t-25 -25.5q-42 -48 -76 -72q-27 -19 -41 -38t-14 -48q0 -15 8 -15q15 0 51 20.5t69 50.5zM245 451l-88 -37
q-30 -13 -34 -13q-9 0 -9 14q0 33 63 58l81 32q59 23 82 23q19 0 57 -41q1 -1 8.5 -8l12 -11.5t9 -11.5t4.5 -12q0 -13 -21 -28q-16 -10 -20 -15q-8 4 -43 35.5t-52 31.5q-7 0 -50 -17z" />
    <glyph glyph-name="udieresis" unicode="&#xfc;" horiz-adv-x="478" 
d="M185 177l99 89q1 1 20 18.5l33.5 30.5l34 29.5t34.5 26t22 9.5q19 0 23 -55q2 -23 -41 -61q-33 -30 -68 -76.5t-35 -76.5q0 -22 25 -22q37 0 154 94l6 -43l-29 -28.5l-38 -36.5l-39 -34.5t-44.5 -34t-40.5 -21t-40 -9.5q-27 0 -43 19.5t-16 46.5q0 29 21 84l-2 2
q-8 -7 -43 -44t-64 -58.5t-54 -21.5q-34 0 -55 31.5t-21 67.5q0 68 43 136t96 103q17 11 44 11q2 0 12 0.5t17 0.5t16 -1.5t13 -7t3 -13.5q-1 -11 -15 -27.5t-25 -25.5q-42 -48 -76 -72q-27 -19 -41 -38t-14 -48q0 -15 8 -15q15 0 51 20.5t69 50.5zM213 446q-22 0 -43 10
t-20 29q1 22 21 51.5t53 24.5q16 -2 24.5 -4t18 -10t8.5 -21q-3 -26 -20 -53t-42 -27zM403 446q-22 0 -43 10t-20 29q1 22 21 51.5t53 24.5q16 -2 24.5 -4t18 -10t8.5 -21q-3 -26 -20 -53t-42 -27z" />
    <glyph glyph-name="yacute" unicode="&#xfd;" horiz-adv-x="442" 
d="M465 165l-301 -331q-2 -2 -10.5 -12l-14.5 -17.5t-14.5 -14t-14.5 -6.5q-14 0 -22 24t-8 42q0 16 27 60l134 226l-2 2q-147 -124 -167 -122q-25 2 -51 34.5t-28 83.5q-2 54 42 115t90 96.5t63 36.5q11 0 27 -17.5t16 -28.5q0 -25 -53.5 -81t-92.5 -87q-17 -25 -19 -58
q55 6 143 88l56.5 53l49 46.5l36 34t28.5 24.5t16 9q11 2 19 -17t8 -33q0 -27 -41 -88l-148 -220l2 -2l222 197zM308 500l59 18q20 6 31 6q7 0 11.5 -2t6.5 -7.5t3 -9t1.5 -12.5t0.5 -12q3 -20 1 -29.5t-8 -11.5t-28 0q-39 2 -85 -4q-64 -9 -95 -21q-20 -8 -33 -8
q-14 0 -14 9q0 22 28 41q20 13 121 43z" />
    <glyph glyph-name="thorn" unicode="&#xfe;" horiz-adv-x="488" 
d="M219 103l71 84q25 32 25 49q0 14 -11 14q-19 0 -77 -40q-43 -31 -92 -97q45 3 84 -10zM-38 102l-4 47l198 213q46 49 213 241q26 31 58 31q13 0 30.5 -7.5t17.5 -19.5q0 -4 -49 -61l-144 -165q-66 -77 -86 -121l2 -2q135 97 198 97q20 0 31 -13.5t11 -33.5
q0 -80 -162 -223q6 0 15.5 -0.5t13.5 -0.5q44 0 78.5 20.5t105.5 82.5l7 -46q-68 -66 -133.5 -105t-138.5 -39q-31 0 -71 20q-30 -6 -46 -6q-14 0 -40 6l-94 -184q-22 -42 -45 -42q-29 0 -29 45q-1 68 62 158q55 78 161 257l-2 2z" />
    <glyph glyph-name="ydieresis" unicode="&#xff;" horiz-adv-x="442" 
d="M465 165l-301 -331q-2 -2 -10.5 -12l-14.5 -17.5t-14.5 -14t-14.5 -6.5q-14 0 -22 24t-8 42q0 16 27 60l134 226l-2 2q-147 -124 -167 -122q-25 2 -51 34.5t-28 83.5q-2 54 42 115t90 96.5t63 36.5q11 0 27 -17.5t16 -28.5q0 -25 -53.5 -81t-92.5 -87q-17 -25 -19 -58
q55 6 143 88l56.5 53l49 46.5l36 34t28.5 24.5t16 9q11 2 19 -17t8 -33q0 -27 -41 -88l-148 -220l2 -2l222 197zM195 446q-22 0 -43 10t-20 29q1 22 21 51.5t53 24.5q16 -2 24.5 -4t18 -10t8.5 -21q-3 -26 -20 -53t-42 -27zM385 446q-22 0 -43 10t-20 29q1 22 21 51.5
t53 24.5q16 -2 24.5 -4t18 -10t8.5 -21q-3 -26 -20 -53t-42 -27z" />
    <glyph glyph-name="dotlessi" unicode="&#x131;" horiz-adv-x="278" 
d="M273 168l9 -38q-46 -56 -102 -100.5t-107 -44.5q-41 0 -63.5 37.5t-22.5 81.5q0 57 34 115t77 92t74 34q44 0 44 -28q0 -33 -49 -86t-92 -82q-12 -63 53 -63q19 0 40.5 9.5t36 19.5t37.5 28.5t31 24.5z" />
    <glyph glyph-name="Lslash" unicode="&#x141;" horiz-adv-x="700" 
d="M76 29l-22 -10q-7 -2 -23.5 -9t-30 -11t-25.5 -4q-31 0 -31 21q0 7 4.5 17t13 22.5l15.5 22l17 22.5t12 15q18 25 31 28q23 5 67 10.5t62 8.5l53 61l-2 2q-29 -6 -80 -30q13 43 26.5 58t54.5 23l53 10l186 222q42 50 121.5 121t114.5 71q24 0 37 -20t13 -45
q0 -22 -14.5 -57.5t-30 -63l-39.5 -67t-30 -50.5q18 -2 18 -14q0 -18 -56 -58q-2 -2 -13 -10l-19.5 -14t-20 -13t-20.5 -11t-14 -4q-23 0 -23 30q0 87 134 238q12 14 5 18q-1 1 -3 1q-22 0 -167 -167l-83 -96q27 3 53 -1.5t31 -22.5q5 -19 -18 -27q-7 -2 -22 -2t-20 -1
l-61 -4l-16 -2l-64 -73q243 -47 402 -85l-53 -53q-21 -21 -27 -27.5t-24.5 -16t-26.5 -9.5t-39 2.5t-56 8l-83 17.5q-148 32 -267 28z" />
    <glyph glyph-name="lslash" unicode="&#x142;" horiz-adv-x="300" 
d="M46 343l16 10q26 46 42 65q170 202 215 202q11 0 16 -12t4 -25q-5 -64 -26 -111q32 7 43 -6q14 -17 -16 -35q-8 -5 -28.5 -14t-25.5 -11l-12 -6q-55 -85 -185 -210q-15 -29 -7 -69q17 -43 50 -43q61 0 172 100l14 -30l-50.5 -51t-53 -47t-69 -45.5t-62.5 -14.5
q-89 0 -89 130q0 73 29 147l-2 2l-58 -47q4 46 17.5 67t65.5 54zM110 284l2 -2q51 48 94 111t57 108q-70 -34 -153 -217z" />
    <glyph glyph-name="OE" unicode="&#x152;" horiz-adv-x="1160" 
d="M1216 683l2 -42q2 -43 -5.5 -54.5t-49.5 -24.5q-27 -9 -59.5 -26l-53 -28t-27.5 -11q-11 0 -11 10q0 7 16 23.5t33.5 31.5t17.5 16v-2h2v2q-67 1 -129 -9t-105 -25.5t-75 -34t-46.5 -34.5t-12.5 -27q3 -15 17 -21q51 -22 301 -17q67 0 67 -22q0 -13 -13 -34.5t-24 -30.5
q-16 -14 -95 -26q-90 -15 -163.5 -42t-114.5 -56t-62.5 -53.5t-21.5 -39.5q0 -29 84 -32q104 -6 236 35q32 10 64.5 26.5t76 43.5t60.5 36q4 -59 -6.5 -92.5t-51.5 -67.5q-68 -57 -170 -86.5t-199 -27.5q-61 1 -137 22q-30 8 -50.5 44t-19.5 69q0 18 18 58l-2 2
q-62 -57 -137 -91t-145 -33q-69 2 -120.5 50t-57.5 154q-4 77 48.5 163t132 152.5t170.5 114.5t163 58q31 5 64 -29t33 -51q0 -19 -49 -35q-9 -3 -24.5 -11t-20.5 -10l2 -2l38 4q17 0 41 -8q62 77 190 118q88 29 240 31q126 4 141 -28zM304 367q-20 -27 -31 -27t-14 28
q-111 -111 -111 -218q0 -29 13 -47t40 -18q40 0 95.5 24.5t89.5 53.5q97 83 154.5 167.5t59.5 141.5q1 19 -10 33.5t-30 14.5q-63 0 -141 -48.5t-115 -104.5zM589 224l-3 -2l2 -2q22 18 47.5 33.5t43.5 24.5t50 20.5l44.5 16t52 15.5t48.5 14v2l-74 6q-87 8 -131 28
q-5 -27 -20 -58.5t-26 -48.5t-34 -49z" />
    <glyph glyph-name="oe" unicode="&#x153;" horiz-adv-x="566" 
d="M309 194q59 20 102.5 59.5t42.5 56.5q0 6 -2.5 9t-7.5 2q-39 -10 -77 -44.5t-58 -82.5zM571 187l9 -38q-56 -65 -129.5 -115t-140.5 -50q-37 0 -59 16t-40 50l-10.5 -13l-7 -9t-5.5 -5.5t-7 -5.5l-11 -7q-48 -29 -82 -29q-35 0 -59 32.5t-32 69t-8 70.5q0 89 87 151
q38 27 90 46t94 19q26 0 39 -9.5t22 -33.5q71 53 151 53q70 0 70 -48q0 -45 -54.5 -94t-186.5 -92l-2 -22q0 -26 18.5 -38.5t45.5 -12.5q13 0 27.5 3.5t27 8t29.5 14.5l26.5 15.5t27.5 19l24.5 18.5l25 19.5t20.5 16.5zM235 273q-34 -12 -59 -23.5t-54 -31t-44.5 -46.5
t-15.5 -60q0 -19 10 -43t26 -24q21 0 65 27q14 7 35 42q0 73 43 131q1 15 -6 28z" />
    <glyph glyph-name="Scaron" unicode="&#x160;" horiz-adv-x="712" 
d="M246 428q0 -6 0.5 -8t12.5 -9t38.5 -14.5t80 -21.5t134.5 -33q72 -17 110 -52t38 -74q0 -57 -38 -100.5t-93 -67.5t-127 -39t-128 -19.5t-107 -4.5q-161 0 -161 58q0 15 18.5 45.5t32.5 43.5q9 7 41.5 18t44.5 11q8 0 8 -7q0 -9 -17 -19q-6 -4 -17 -15v-2q101 -4 184 4.5
t131 22.5t81.5 31t46 29.5t12.5 18.5q0 8 -9 16.5t-27 16t-37.5 14t-47 13l-49 11.5t-50.5 10t-44.5 8t-37 6.5t-23.5 3.5q-22 3 -37.5 8t-31.5 14t-24.5 25t-8.5 37q0 26 10 69.5t22 63.5q28 46 155 96t276 50q61 0 126 -14q16 -4 21 -10.5t5 -22.5q0 -52 -18 -73.5
t-66 -40.5q-31 -12 -45.5 -19.5t-44.5 -29.5q-18 -10 -25 -10q-16 0 -16 15q0 2 6.5 10.5t24.5 25.5t42 34l-2 2q-73 -3 -137 -14.5t-105 -27t-71 -32.5t-43.5 -30t-13.5 -21zM536 783l88 37q30 13 34 13q9 0 9 -14q0 -33 -63 -58l-81 -32q-59 -23 -82 -23q-19 0 -57 41
q-1 1 -8.5 8l-12 11.5t-9 11.5t-4.5 12q0 13 21 28q16 10 20 15q8 -4 43 -35.5t52 -31.5q8 0 50 17z" />
    <glyph glyph-name="scaron" unicode="&#x161;" horiz-adv-x="359" 
d="M152 286l-144 -135q17 -1 33 -11.5t24 -20t21 -27.5q47 29 62 49.5t17 62.5q-6 44 -13 82zM288 126l60 46l10 -38q-60 -60 -128 -105.5t-122 -42.5q-54 2 -100 32t-59 82q-13 -13 -22 -13q-7 0 -12 6t-5 13q0 11 24 35l217 199q2 27 17 46t40 19q22 0 29.5 -7.5
t9.5 -29.5q1 -13 10 -52t9 -64q0 -103 -130 -182q30 -5 58.5 3t45 18.5t48.5 34.5zM285 491l88 37q30 13 34 13q9 0 9 -14q0 -33 -63 -58l-81 -32q-59 -23 -82 -23q-19 0 -57 41q-1 1 -8.5 8l-12 11.5t-9 11.5t-4.5 12q0 13 21 28q16 10 20 15q8 -4 43 -35.5t52 -31.5
q7 0 50 17z" />
    <glyph glyph-name="Ydieresis" unicode="&#x178;" horiz-adv-x="742" 
d="M598 332l-265 -229q-97 -84 -136 -84q-26 0 -49.5 21.5t-19.5 45.5q0 1 1 9t2 12t6 17t12 24.5l20.5 33t31 45.5l44.5 58.5l61 74.5q109 130 123 156q9 15 9 24q1 5 -3 7.5t-10 3.5l-209.5 -109.5t-118.5 -64.5q-17 -12 -32 -12q-14 0 -17 9q-3 10 6 40l15 54
q8 26 21 40.5t41 32.5q80 49 199 100.5t183 51.5q29 0 49.5 -13.5t20.5 -41.5q0 -9 -4 -21t-12.5 -27l-15 -26.5t-20.5 -29.5t-19 -25.5t-20 -25.5l-14 -18l-60 -76.5l-47.5 -59l-34.5 -43l-25.5 -32.5t-15.5 -21.5t-9.5 -17t-2.5 -13.5q-1 -7 5.5 -11.5t19.5 -2t28 15.5
l78 62.5t82 68.5l192 174q44 40 56 40q17 0 32 -21t15 -39q0 -8 -5 -18.5t-20.5 -32l-33.5 -46l-54.5 -74.5l-74.5 -104q-106 -151 -119 -180q-11 -24 1 -25q6 0 13 4l39.5 23.5t81.5 44.5q19 10 35.5 16t27.5 8t18.5 1t11 -4t3.5 -8q0 -11 -23.5 -32.5t-37.5 -29.5
q-166 -125 -235 -206q-17 -20 -26.5 -30t-29 -23.5t-35.5 -13.5q-20 0 -32 14t-12 35q0 65 114 239t202 283zM565 738q-22 0 -43 10t-20 29q1 22 21 51.5t53 24.5q16 -2 24.5 -4t18 -10t8.5 -21q-3 -26 -20 -53t-42 -27zM755 738q-22 0 -43 10t-20 29q1 22 21 51.5t53 24.5
q16 -2 24.5 -4t18 -10t8.5 -21q-3 -26 -20 -53t-42 -27z" />
    <glyph glyph-name="Zcaron" unicode="&#x17d;" horiz-adv-x="644" 
d="M338 213l-104 -46q-30 -13 -51.5 -24t-27 -14.5t-10.5 -5.5t-12 -2q-16 0 -16 14t26 81q11 31 26 42q24 19 82 48l115 55t62 29q102 56 130 76.5t28 44.5q0 12 -12 19.5t-24 7.5q-73 0 -177 -45t-313 -165q4 107 31.5 162t113.5 105q65 37 163.5 65t171.5 28
q159 0 159 -120q0 -32 -12.5 -60.5t-30.5 -48t-46.5 -39t-52 -32l-56.5 -29.5l-51 -27q60 -11 90 -36t38 -81q34 11 52 12.5t19.5 -1.5t1.5 -8v-1q0 -11 -12 -19t-61 -26q-25 -132 -164 -255q-48 -43 -141 -93t-135 -50q-19 0 -51.5 21.5t-32.5 40.5q0 53 116 154t317 191
q0 11 -3.5 21t-14 19t-26 13t-43 -1t-62.5 -20zM473 120q-81 -40 -156 -96t-113.5 -97t-38.5 -55q0 -10 12 -10q51 0 160.5 91t135.5 167zM510 783l88 37q30 13 34 13q9 0 9 -14q0 -33 -63 -58l-81 -32q-59 -23 -82 -23q-19 0 -57 41q-1 1 -8.5 8l-12 11.5t-9 11.5t-4.5 12
q0 13 21 28q16 10 20 15q8 -4 43 -35.5t52 -31.5q8 0 50 17z" />
    <glyph glyph-name="zcaron" unicode="&#x17e;" horiz-adv-x="368" 
d="M381 166l-160 -139q-8 -56 -38.5 -107.5t-68.5 -85t-75 -53.5t-63 -23q-19 -2 -32 12.5t-13 35.5q0 25 15.5 51.5t31.5 42t43 36.5l130 104q-7 29 -19 39t-45 19q-1 0 -9 2t-11 3t-8.5 4t-7 7t-0.5 9q2 15 21 30.5t68.5 50.5t92.5 70l-2 2l-122 -21l-114 -124l-11 33
l70 85q-27 5 -27 27q0 27 42 67t67 40t25 -35q34 5 63.5 12.5t45.5 12t24 4.5q12 0 22 -32t10 -47q0 -19 -30 -39l-128 -93q40 -30 52 -79l158 122zM150 -21l-115 -90q-49 -39 -54 -81q53 14 106.5 66.5t62.5 104.5zM290 491l88 37q30 13 34 13q9 0 9 -14q0 -33 -63 -58
l-81 -32q-59 -23 -82 -23q-19 0 -57 41q-1 1 -8.5 8l-12 11.5t-9 11.5t-4.5 12q0 13 21 28q16 10 20 15q8 -4 43 -35.5t52 -31.5q8 0 50 17z" />
    <glyph glyph-name="florin" unicode="&#x192;" horiz-adv-x="650" 
d="M310 312l162 301q29 52 58 88q52 62 91 62q19 0 44 -26t25 -64q0 -36 -4 -66.5t-9.5 -49.5l-16.5 -56t-19 -67q1 0 4 -1t4 -1t3.5 -1t3.5 -1.5t3 -2t3 -2.5t1.5 -3t1.5 -4q2 -6 -0.5 -13t-8.5 -15t-12.5 -15.5t-15.5 -16.5t-15.5 -14.5l-14.5 -12t-10 -8.5
q-25 -25 -39 -25q-25 0 -34 38q-10 37 6.5 97t39.5 103q32 58 28 71q-2 5 -6 5q-9 0 -20 -16l-32 -48l-138 -246q29 -4 60 -15.5t36 -31.5q6 -21 -18 -21q-7 0 -24 4t-19 4l-64 12l-66 -117l-65 -117q-27 -49 -88.5 -121t-96.5 -72q-26 0 -48.5 29t-19.5 80q1 17 3.5 29
t6.5 24l16.5 51.5t26.5 89.5q-19 2 -22 14q-5 17 41 58q1 1 14 12.5l21 18.5t19.5 14t18.5 7q23 0 31 -30q13 -50 -11.5 -116.5t-60.5 -121.5q-8 -19 3 -19q10 0 38 34t57 84l103 181l-49 2l-71 -7q13 38 27 49t56 7z" />
    <glyph glyph-name="circumflex" unicode="&#x2c6;" horiz-adv-x="400" 
d="M206 451l-88 -37q-30 -13 -34 -13q-9 0 -9 14q0 33 63 58l81 32q59 23 82 23q19 0 57 -41q1 -1 8.5 -8l12 -11.5t9 -11.5t4.5 -12q0 -13 -21 -28q-16 -10 -20 -15q-8 4 -43 35.5t-52 31.5q-8 0 -50 -17z" />
    <glyph glyph-name="caron" unicode="&#x2c7;" horiz-adv-x="341" 
d="M276 491l88 37q30 13 34 13q9 0 9 -14q0 -33 -63 -58l-81 -32q-59 -23 -82 -23q-19 0 -57 41q-1 1 -8.5 8l-12 11.5t-9 11.5t-4.5 12q0 13 21 28q16 10 20 15q8 -4 43 -35.5t52 -31.5q8 0 50 17z" />
    <glyph glyph-name="uni02C9" unicode="&#x2c9;" horiz-adv-x="340" 
d="M112 488q43 -4 89.5 -5t112.5 0.5t96 1.5v-2q-3 0 -15 -42t-25 -41q-176 9 -302 0q0 2 1.5 14t2.5 17.5t3.5 16.5t5 16.5t7 12.5t10.5 9.5t14 1.5z" />
    <glyph glyph-name="breve" unicode="&#x2d8;" horiz-adv-x="340" 
d="M236 414q-36 0 -69.5 18t-49.5 36.5t-16 27.5q0 13 21 28q9 6 20 15q20 -11 39.5 -31.5t38.5 -32t50 -11.5q48 4 107 60q4 4 15.5 9.5t16.5 5.5q9 0 9 -14q0 -33 -60 -72t-122 -39z" />
    <glyph glyph-name="dotaccent" unicode="&#x2d9;" horiz-adv-x="340" 
d="M262 420q-18 2 -29 4.5t-22.5 12t-11.5 25.5q0 33 31 74t70 33q2 0 10.5 -1.5t13.5 -3t11.5 -4.5t10 -9t3.5 -14q0 -6 -8 -32.5t-29.5 -57t-49.5 -27.5z" />
    <glyph glyph-name="ring" unicode="&#x2da;" horiz-adv-x="294" 
d="M331 566l36 -20q10 -10 10 -31q0 -44 -22 -77.5t-64 -33.5q-29 0 -52 21.5t-23 50.5q0 35 33.5 69.5t51.5 34.5q5 0 30 -14zM312 530q-46 -34 -46 -83q0 -1 2.5 -5t2.5 -5q33 29 39 44q5 11 5 24t-3 25z" />
    <glyph glyph-name="ogonek" unicode="&#x2db;" horiz-adv-x="340" 
d="M336 -7l-17 -6q-52 -19 -52 -49q0 -36 47 -36q20 0 46 8.5t28 8.5q7 0 7 -8q0 -11 -27 -21q-45 -20 -90 -20q-32 0 -57 15t-25 45q0 19 15 33t26.5 18t37.5 12q4 1 6 2h55v-2z" />
    <glyph glyph-name="tilde" unicode="&#x2dc;" horiz-adv-x="340" 
d="M151 498l130 -13l2 2q-35 24 -35 35q0 5 4 9.5t9 4.5q17 0 46.5 -29t29.5 -55q0 -42 -43 -42q-20 0 -61.5 7.5t-62.5 6.5q4 -3 8 -7t6 -5.5t4 -3.5l3 -3t2 -2.5t1 -3v-3.5q0 -10 -10 -10q-7 0 -27 14l-9.5 6.5t-10.5 7t-9 7t-8 8.5t-5 10t-2 12q0 24 8 35.5t30 11.5z" />
    <glyph glyph-name="hungarumlaut" unicode="&#x2dd;" horiz-adv-x="347" 
d="M83 619l27 54q12 25 17.5 31.5t13.5 6.5q4 0 8.5 -2t7.5 -4.5l7 -6t6 -5.5q26 -19 28 -24q2 -7 -19 -29q-25 -27 -52 -67q-34 -56 -44 -87q-9 -23 -15 -30q-9 -11 -16 -5q-18 15 -14 48q4 38 45 120zM257 619l27 54q12 25 17.5 31.5t13.5 6.5q4 0 8.5 -2t7.5 -4.5l7 -6
t6 -5.5q26 -19 28 -24q2 -7 -19 -29q-25 -27 -52 -67q-34 -56 -44 -87q-9 -23 -15 -30q-9 -11 -16 -5q-18 15 -14 48q4 38 45 120z" />
    <glyph glyph-name="uni03A9" unicode="&#x3a9;" horiz-adv-x="729" 
d="M177 78v2q-46 44 -66.5 113t1.5 155q33 129 141.5 215t242.5 86q135 0 196 -89.5t32 -207.5q-22 -89 -77.5 -159t-123.5 -113l-1 -2h148l-20 -78h-257l14 58q71 35 128.5 104.5t83.5 170.5q23 94 -14 165.5t-129 71.5t-166.5 -68.5t-100.5 -171.5q-23 -95 0 -167.5
t75 -104.5l-14 -58h-258l19 78h146z" />
    <glyph glyph-name="uni03BC" unicode="&#x3bc;" horiz-adv-x="478" 
d="M233 177l99 89q1 1 20 18.5l33.5 30.5l34 29.5t34.5 26t22 9.5q19 0 23 -55q2 -23 -41 -61q-33 -30 -68 -76.5t-35 -76.5q0 -22 25 -22q36 0 154 94l6 -43l-29 -28.5l-38 -36.5l-39 -34.5t-44.5 -34t-40.5 -21t-40 -9.5q-27 0 -43 19.5t-16 46.5q0 29 21 84l-2 2
q-8 -7 -43 -44t-64 -58.5t-54 -21.5q-32 0 -66 43q-55 -111 -108 -162t-90 -31q-67 36 32 108q71 51 172 244q44 84 123 136q17 11 44 11q2 0 12 0.5t17 0.5t16 -1.5t13 -7t3 -13.5q-1 -11 -15 -27.5t-25 -25.5q-42 -48 -76 -72q-22 -15 -38.5 -38.5t-16.5 -47.5
q0 -14 8 -16q15 1 51 21.5t69 50.5z" />
    <glyph glyph-name="pi" unicode="&#x3c0;" horiz-adv-x="588" 
d="M629 396h-76l-63 -254q-24 -94 -22 -142h-98q-9 27 17 134l65 262h-161q-28 -93 -78 -215t-89 -181h-98q43 72 92 190.5t73 205.5q-76 0 -109 -11l3 64q48 28 161 28h412z" />
    <glyph glyph-name="endash" unicode="&#x2013;" horiz-adv-x="500" 
d="M0 232v88h500v-88h-500z" />
    <glyph glyph-name="emdash" unicode="&#x2014;" horiz-adv-x="1000" 
d="M0 320h1000v-88h-1000v88z" />
    <glyph glyph-name="quoteleft" unicode="&#x2018;" horiz-adv-x="301" 
d="M250 586q0 -31 -30 -64t-62 -33q-51 0 -51 23q0 19 16.5 57t30.5 54q11 14 21 24.5l17 17.5t15.5 11.5t12.5 7t11 4t9 1.5h9h8q-33 -44 -45 -68q13 -4 19 -6.5t12.5 -10t6.5 -18.5z" />
    <glyph glyph-name="quoteright" unicode="&#x2019;" horiz-adv-x="301" 
d="M182 588q0 31 30 64t62 33q51 0 51 -23q0 -19 -16.5 -57t-30.5 -54q-11 -14 -21 -24.5l-17 -17.5t-15.5 -11.5t-12.5 -7t-11 -4t-9 -1.5h-9h-8q33 44 45 68q-13 4 -19 6.5t-12.5 10t-6.5 18.5z" />
    <glyph glyph-name="quotesinglbase" unicode="&#x201a;" horiz-adv-x="301" 
d="M56 43q0 31 30 64t62 33q51 0 51 -23q0 -19 -16.5 -57t-30.5 -54q-11 -14 -21 -24.5l-17 -17.5t-15.5 -11.5t-12.5 -7t-11 -4t-9 -1.5h-9h-8q33 44 45 68q-13 4 -19 6.5t-12.5 10t-6.5 18.5z" />
    <glyph glyph-name="quotedblleft" unicode="&#x201c;" horiz-adv-x="470" 
d="M468 586q0 -31 -30 -64t-62 -33q-51 0 -51 23q0 19 16.5 57t30.5 54q11 14 21 24.5l17 17.5t15.5 11.5t12.5 7t11 4t9 1.5h9h8q-33 -44 -45 -68q13 -4 19 -6.5t12.5 -10t6.5 -18.5zM299 586q0 -31 -30 -64t-62 -33q-51 0 -51 23q0 19 16.5 57t30.5 54q11 14 21 24.5
l17 17.5t15.5 11.5t12.5 7t11 4t9 1.5h9h8q-33 -44 -45 -68q13 -4 19 -6.5t12.5 -10t6.5 -18.5z" />
    <glyph glyph-name="quotedblright" unicode="&#x201d;" horiz-adv-x="470" 
d="M130 588q0 31 30 64t62 33q51 0 51 -23q0 -19 -16.5 -57t-30.5 -54q-11 -14 -21 -24.5l-17 -17.5t-15.5 -11.5t-12.5 -7t-11 -4t-9 -1.5h-9h-8q33 44 45 68q-13 4 -19 6.5t-12.5 10t-6.5 18.5zM299 588q0 31 30 64t62 33q51 0 51 -23q0 -19 -16.5 -57t-30.5 -54
q-11 -14 -21 -24.5l-17 -17.5t-15.5 -11.5t-12.5 -7t-11 -4t-9 -1.5h-9h-8q33 44 45 68q-13 4 -19 6.5t-12.5 10t-6.5 18.5z" />
    <glyph glyph-name="quotedblbase" unicode="&#x201e;" horiz-adv-x="470" 
d="M56 43q0 31 30 64t62 33q51 0 51 -23q0 -19 -16.5 -57t-30.5 -54q-11 -14 -21 -24.5l-17 -17.5t-15.5 -11.5t-12.5 -7t-11 -4t-9 -1.5h-9h-8q33 44 45 68q-13 4 -19 6.5t-12.5 10t-6.5 18.5zM225 43q0 31 30 64t62 33q51 0 51 -23q0 -19 -16.5 -57t-30.5 -54
q-11 -14 -21 -24.5l-17 -17.5t-15.5 -11.5t-12.5 -7t-11 -4t-9 -1.5h-9h-8q33 44 45 68q-13 4 -19 6.5t-12.5 10t-6.5 18.5z" />
    <glyph glyph-name="dagger" unicode="&#x2020;" horiz-adv-x="524" 
d="M346 662h96l-61 -205l186 8l-22 -88l-182 8l-99 -433h-95l117 433l-185 -8l22 88l181 -8z" />
    <glyph glyph-name="daggerdbl" unicode="&#x2021;" horiz-adv-x="524" 
d="M347 662h92l-55 -191l187 8l-22 -86l-182 8l-47 -187l187 8l-22 -86l-182 8l-41 -192h-92l54 192l-183 -8l21 86l180 -8l47 187l-184 -8l21 86l180 -8z" />
    <glyph glyph-name="bullet" unicode="&#x2022;" horiz-adv-x="400" 
d="M432 422q0 -44 -22.5 -99.5t-68 -100.5t-99.5 -45q-38 0 -79 11t-75.5 39.5t-34.5 67.5q0 16 7.5 44.5t25 64.5t42.5 65.5t64.5 47.5t85.5 13q63 0 108.5 -26t45.5 -82z" />
    <glyph glyph-name="ellipsis" unicode="&#x2026;" horiz-adv-x="1000" 
d="M155 -5q-18 2 -29 4.5t-22.5 12t-11.5 25.5q0 33 31 74t70 33q2 0 10.5 -1.5t13.5 -3t11.5 -4.5t10 -9t3.5 -14q0 -6 -8 -32.5t-29.5 -57t-49.5 -27.5zM488 -5q-18 2 -29 4.5t-22.5 12t-11.5 25.5q0 33 31 74t70 33q2 0 10.5 -1.5t13.5 -3t11.5 -4.5t10 -9t3.5 -14
q0 -6 -8 -32.5t-29.5 -57t-49.5 -27.5zM821 -5q-18 2 -29 4.5t-22.5 12t-11.5 25.5q0 33 31 74t70 33q2 0 10.5 -1.5t13.5 -3t11.5 -4.5t10 -9t3.5 -14q0 -6 -8 -32.5t-29.5 -57t-49.5 -27.5z" />
    <glyph glyph-name="perthousand" unicode="&#x2030;" horiz-adv-x="1208" 
d="M324 649h1q68 0 101 -51t11 -139q-23 -94 -85 -149t-131 -55q-67 0 -102.5 52.5t-13.5 140.5q23 90 85 145.5t134 55.5zM307 591h-1q-41 0 -73.5 -39t-47.5 -100q-16 -64 -1.5 -101.5t54.5 -37.5q39 0 71 37t48 103q17 61 5 99.5t-55 38.5zM1083 386h1q68 0 101 -51
t11 -139q-23 -94 -85 -148.5t-131 -54.5q-67 0 -102 52t-13 140q23 91 84.5 146t133.5 55zM1065 328h-1q-40 0 -72 -39t-48 -100q-16 -64 -1.5 -101t53.5 -37q40 0 72 36.5t49 103.5q34 137 -52 137zM703 386h1q68 0 101 -51t11 -139q-23 -94 -85 -148.5t-131 -54.5
q-67 0 -102 52t-13 140q22 90 84 145.5t134 55.5zM685 328q-41 0 -73 -39t-48 -100q-16 -63 -1.5 -100.5t53.5 -37.5q40 0 72 36.5t49 103.5q34 137 -52 137zM212 -10h-60l545 658h61z" />
    <glyph glyph-name="guilsinglleft" unicode="&#x2039;" horiz-adv-x="213" 
d="M172 113q-31 0 -85.5 51.5t-48.5 82.5q0 23 28 59q9 15 26 41l30.5 48t23.5 45q2 -6 11.5 -24t15 -32t5.5 -26t-22 -39q-11 -12 -28 -39t-17 -37q0 -4 5 -11.5t18.5 -17t32.5 -14.5q42 -11 42 -48q0 -17 -10 -28t-27 -11z" />
    <glyph glyph-name="guilsinglright" unicode="&#x203a;" horiz-adv-x="213" 
d="M107 440q31 0 85.5 -51.5t48.5 -82.5q0 -23 -28 -59q-9 -15 -26 -41l-30.5 -48t-23.5 -45q-2 6 -11.5 24t-15 32t-5.5 26q0 11 22 39q11 12 28 39t17 37q0 4 -5 11.5t-18.5 17t-32.5 14.5q-42 11 -42 48q0 17 10 28t27 11z" />
    <glyph glyph-name="fraction" unicode="&#x2044;" horiz-adv-x="172" 
d="M-105 -10h-64l539 659h65z" />
    <glyph glyph-name="Euro" unicode="&#x20ac;" 
d="M641 611l-26 -104q-41 47 -138 47q-142 0 -196 -126h279l-50 -80h-262q-6 -21 -7 -26q-5 -20 -7 -31h240l-50 -80h-198q-4 -62 30.5 -96t104.5 -34q93 0 160 48l-27 -106q-58 -36 -171 -36q-106 0 -159 55.5t-45 168.5h-79l50 80h40q2 14 6 30q4 17 9 27h-71l50 80h48
q46 102 125 161.5t192 59.5q102 0 152 -38z" />
    <glyph glyph-name="afii61289" unicode="&#x2113;" horiz-adv-x="502" 
d="M444 159l34 -41q-102 -127 -233 -127q-78 0 -109.5 43.5t-22.5 112.5q0 4 2 10q-9 -5 -30.5 -19t-33.5 -21l-15 53q79 51 96 63l59 236q30 119 91 176t133 57q66 0 89 -45t6 -113q-20 -81 -92 -160.5t-195 -170.5l-7 -28q-13 -56 8 -86t63 -30q41 0 83 26.5t74 63.5z
M289 481l-44 -179q171 142 197 242q22 89 -41 89q-30 0 -61 -36t-51 -116z" />
    <glyph glyph-name="trademark" unicode="&#x2122;" horiz-adv-x="732" 
d="M345 684v-73h-94v-251h-88v251h-92v73h274zM514 684l56 -160h2l55 160h131v-324h-88v229h-2l-77 -229h-41l-78 229h-2v-229h-88v324h132z" />
    <glyph glyph-name="Omega" unicode="&#x2126;" horiz-adv-x="729" 
d="M177 78v2q-46 44 -66.5 113t1.5 155q33 129 141.5 215t242.5 86q135 0 196 -89.5t32 -207.5q-22 -89 -77.5 -159t-123.5 -113l-1 -2h148l-20 -78h-257l14 58q71 35 128.5 104.5t83.5 170.5q23 94 -14 165.5t-129 71.5t-166.5 -68.5t-100.5 -171.5q-23 -95 0 -167.5
t75 -104.5l-14 -58h-258l19 78h146z" />
    <glyph glyph-name="estimated" unicode="&#x212e;" horiz-adv-x="928" 
d="M897 309h-596q-5 0 -5 -4v-180q0 -11 8 -21q95 -98 225 -98q70 0 131.5 29.5t106.5 80.5h53q-50 -60 -127 -94.5t-165 -34.5q-152 0 -260 97t-108 234t108 234.5t260 97.5q153 0 261 -97.5t108 -234.5v-9zM762 333v181q0 13 -9 22q-96 94 -224 94q-129 0 -224 -97
q-9 -9 -9 -23v-177q0 -6 5 -6h457q4 0 4 6z" />
    <glyph glyph-name="partialdiff" unicode="&#x2202;" horiz-adv-x="560" 
d="M216 593l-14 69q85 54 190 54q112 0 165.5 -93t12.5 -257q-40 -164 -139.5 -270t-226.5 -106q-49 0 -84.5 20t-50 52t-19 70t6.5 74q26 104 103.5 169.5t168.5 65.5q59 0 94 -29.5t45 -59.5h1q8 26 10 37q27 107 -7 177.5t-111 70.5t-145 -44zM234 69h1q60 0 116 60
t86 141q-3 33 -31 64t-77 31q-56 0 -106.5 -46.5t-67.5 -112.5q-14 -59 7.5 -98t71.5 -39z" />
    <glyph glyph-name="Delta" unicode="&#x2206;" horiz-adv-x="656" 
d="M-4 0l14 59l392 596h118l91 -595l-15 -60h-600zM118 78h387l-51 314q-2 14 -10.5 78.5t-9.5 87.5h-4q-9 -16 -44 -72l-49 -79z" />
    <glyph glyph-name="product" unicode="&#x220f;" horiz-adv-x="836" 
d="M812 552h-109v-640h-97v640h-251v-640h-97v640h-108v86h662v-86z" />
    <glyph glyph-name="summation" unicode="&#x2211;" horiz-adv-x="683" 
d="M664 -88h-516v60l255 302l-244 298v66h489v-82h-352v-4l220 -265l-239 -285v-2h387v-88z" />
    <glyph glyph-name="minus" unicode="&#x2212;" horiz-adv-x="592" 
d="M544 230h-456v60h456v-60z" />
    <glyph glyph-name="uni2215" unicode="&#x2215;" horiz-adv-x="172" 
d="M-105 -10h-64l539 659h65z" />
    <glyph glyph-name="uni2219" unicode="&#x2219;" horiz-adv-x="301" 
d="M187 148q-18 2 -29 4.5t-22.5 12t-11.5 25.5q0 33 31 74t70 33q2 0 10.5 -1.5t13.5 -3t11.5 -4.5t10 -9t3.5 -14q0 -6 -8 -32.5t-29.5 -57t-49.5 -27.5z" />
    <glyph glyph-name="radical" unicode="&#x221a;" horiz-adv-x="705" 
d="M715 761l-225 -895h-82l-156 412l-73 -28l-18 54l150 60l119 -326q3 -12 10 -35.5t9 -32.5l1 -1q2 11 7.5 39l6.5 33l179 720h72z" />
    <glyph glyph-name="infinity" unicode="&#x221e;" horiz-adv-x="823" 
d="M775 265v-1q0 -71 -45 -115t-107 -44q-44 0 -85 26t-90 86q-47 -55 -87 -83.5t-94 -28.5q-60 0 -104 44.5t-44 110.5q0 69 44.5 113.5t111.5 44.5q50 0 91 -28.5t86 -82.5l37 40.5t36 32.5t50 29.5t55 8.5q63 0 104 -42.5t41 -110.5zM275 160h1q9 0 18.5 1.5t19 6l16.5 8
t16.5 12t14.5 12t15.5 14.5t13.5 14.5t14 15.5t13 14l-25.5 32t-24 26.5t-29.5 26t-30.5 14.5t-37.5 7q-42 0 -67 -30t-25 -75q0 -41 27 -70t70 -29zM624 364h-1q-18 0 -34.5 -6t-34.5 -21l-26 -22t-27 -29t-20 -23q49 -57 79.5 -80t65.5 -23q41 0 65.5 31t24.5 69
q0 47 -25.5 75.5t-66.5 28.5z" />
    <glyph glyph-name="integral" unicode="&#x222b;" horiz-adv-x="491" 
d="M477 772l-12 -64q-16 9 -37 9q-33 0 -50 -23q-30 -35 -30 -158q0 -72 7 -220.5t7 -227.5q0 -122 -39 -183q-34 -58 -110 -58q-45 0 -71 16l14 67q25 -11 45 -11q28 0 44 20q32 37 32 149q0 81 -7.5 232.5t-7.5 225.5q0 145 56 200q38 39 102 39q33 0 57 -13z" />
    <glyph glyph-name="approxequal" unicode="&#x2248;" horiz-adv-x="622" 
d="M544 411l36 -35q-53 -93 -130 -93q-29 0 -52 9t-63 31q-58 32 -89 32q-21 0 -40 -11t-30.5 -24t-27.5 -35l-37 34q23 42 60.5 67.5t80.5 25.5q10 0 19 -1t18.5 -4l15.5 -5t15.5 -6.5l13.5 -6.5t13.5 -7.5t11.5 -6.5q3 -2 12.5 -7l12.5 -6.5l10.5 -5.5t11 -5.5t10 -4
t11 -3t11 -1.5t12.5 -1q50 0 94 70zM544 239l36 -35q-53 -93 -131 -93q-28 0 -51 9t-63 31q-56 32 -89 32q-31 0 -52 -17.5t-46 -52.5l-37 34q23 42 60.5 67.5t80.5 25.5q11 0 22.5 -2t20 -4t19 -7l16 -7.5t16 -8t13.5 -7.5l17.5 -10l18 -10t16 -7.5t20 -6t19.5 -1.5
q28 0 49.5 17t44.5 53z" />
    <glyph glyph-name="notequal" unicode="&#x2260;" horiz-adv-x="644" 
d="M490 476l-41 -90h147v-59h-171l-63 -135h234v-58h-258l-52 -114l-47 21l43 93h-142v58h167l61 135h-228v59h252l51 111z" />
    <glyph glyph-name="lessequal" unicode="&#x2264;" horiz-adv-x="664" 
d="M613 88l-448 213v63l448 213v-68l-386 -175v-2l386 -176v-68zM616 -8h-456v59h456v-59z" />
    <glyph glyph-name="greaterequal" unicode="&#x2265;" horiz-adv-x="664" 
d="M166 577l448 -214v-62l-448 -213v68l386 176v1l-386 176v68zM614 -8h-453v59h453v-59z" />
    <glyph glyph-name="lozenge" unicode="&#x25ca;" horiz-adv-x="706" 
d="M656 319l-201 -365h-77l-198 365l200 365h78zM568 316l-131 244q-13 27 -18 47h-3q-6 -21 -19 -47l-130 -239l132 -246q13 -28 18 -46h3q6 26 17 45z" />
    </font>
</defs>
</svg>
