<?xml version="1.0" standalone="no"?>
<!DOCTYPE svg PUBLIC "-//W3C//DTD SVG 1.1//EN" "http://www.w3.org/Graphics/SVG/1.1/DTD/svg11.dtd" >
<svg>
<metadata>
Created by FontForge 20120731 at Sat Oct 25 04:20:49 2014
 By Orthosie Webhosting
Typeface (c) The Monotype Corporation plc. Data (c) The Monotype Corporation plc / Type Solutions Inc. 1990-91 All Rights Reserved
</metadata>
<defs>
<font id="CenturyGothicBold" horiz-adv-x="1229" >
  <font-face 
    font-family="CenturyGothicBold"
    font-weight="700"
    font-stretch="normal"
    units-per-em="2048"
    panose-1="2 11 7 2 2 2 2 2 2 4"
    ascent="1638"
    descent="-410"
    x-height="1088"
    cap-height="1471"
    bbox="-235 -628 2580 2297"
    underline-thickness="184"
    underline-position="-96"
    unicode-range="U+0020-F108"
  />
<missing-glyph horiz-adv-x="1536" 
d="M256 0v1280h1024v-1280h-1024zM288 32h960v1216h-960v-1216z" />
    <glyph glyph-name=".notdef" horiz-adv-x="1536" 
d="M256 0v1280h1024v-1280h-1024zM288 32h960v1216h-960v-1216z" />
    <glyph glyph-name="glyph1" horiz-adv-x="0" 
 />
    <glyph glyph-name="glyph2" horiz-adv-x="573" 
 />
    <glyph glyph-name="space" unicode=" " horiz-adv-x="573" 
 />
    <glyph glyph-name="exclam" unicode="!" horiz-adv-x="573" 
d="M148 1508h276v-1075h-276v1075zM286 314q71 0 121.5 -50t50.5 -121q0 -70 -50.5 -120.5t-121.5 -50.5t-121 50t-50 121t50 121t121 50z" />
    <glyph glyph-name="quotedbl" unicode="&#x22;" horiz-adv-x="737" 
d="M653 1004h-156l-55 504h267zM242 1004h-156l-55 504h267z" />
    <glyph glyph-name="numbersign" unicode="#" 
d="M1110 678v-199h-231l-71 -479h-201l70 479h-191l-70 -479h-200l70 479h-225v199h256l30 188h-223v199h251l65 443h195l-62 -443h191l65 443h201l-65 -443h202v-199h-231l-26 -188h200zM736 866h-194l-26 -188h189z" />
    <glyph glyph-name="dollar" unicode="$" horiz-adv-x="1147" 
d="M1039 1301l-193 -188q-132 136 -261 136q-76 0 -123.5 -40.5t-47.5 -93.5q0 -45 42 -89q41 -45 166 -96q222 -92 304 -157t126 -156t44 -204t-47 -209t-121 -152t-213 -85v-267h-188v261q-131 15 -223 66q-126 70 -234 186l190 195q183 -195 354 -195q87 0 149.5 60.5
t62.5 142.5q0 69 -40 121q-41 52 -158 106q-238 110 -322 174.5t-125.5 145t-41.5 171.5q0 151 110 258.5t278 115.5v100h188v-113q97 -23 164.5 -62t159.5 -132z" />
    <glyph glyph-name="percent" unicode="%" horiz-adv-x="1761" 
d="M1352 1536h202l-1166 -1636h-202l997 1405q-90 -15 -169 -22.5t-146 -7.5q-69 0 -146 7q22 -70 22 -127q0 -146 -101.5 -248t-247.5 -102q-147 0 -250 102t-103 247q0 94 46 174.5t129.5 130t165.5 49.5q62 0 171 -24q193 -42 340 -42q133 0 247.5 23.5t210.5 70.5z
M393 1325q-70 0 -119.5 -49.5t-49.5 -118.5q0 -70 49.5 -119.5t119.5 -49.5t119.5 49.5t49.5 119.5t-49.5 119t-119.5 49zM1368 663q145 0 248 -103t103 -249q0 -145 -103 -248t-248 -103q-146 0 -248.5 103t-102.5 248q0 146 102.5 249t248.5 103zM1367 482
q-71 0 -120.5 -50t-49.5 -120t49.5 -120t120.5 -50q70 0 119.5 50t49.5 120t-49.5 120t-119.5 50z" />
    <glyph glyph-name="ampersand" unicode="&#x26;" horiz-adv-x="1393" 
d="M1090 578l167 -191l-76 -69l-75 -68l236 -250h-339l-97 100q-232 -137 -431 -137q-169 0 -273.5 99t-104.5 254q0 117 59 221t202 215q-141 191 -141 338q0 109 94 215t265 106q173 0 265.5 -105t92.5 -212q0 -84 -42.5 -161t-195.5 -228q179 -211 231 -263
q32 24 163 136zM558 902q111 95 111 168q0 38 -25 62t-66 24q-38 0 -64.5 -27t-26.5 -63q0 -72 71 -164zM724 294q-77 76 -217 252q-149 -123 -149 -215q0 -43 40.5 -79t102.5 -36q89 0 223 78z" />
    <glyph glyph-name="quotesingle" unicode="'" horiz-adv-x="451" 
d="M303 1004h-156l-55 504h266z" />
    <glyph glyph-name="parenleft" unicode="(" horiz-adv-x="778" 
d="M380 1536h346q-178 -201 -265.5 -436t-87.5 -537q0 -327 97 -575q76 -191 256 -414h-346q-160 254 -223.5 475.5t-63.5 521.5q0 294 67 515t220 450z" />
    <glyph glyph-name="parenright" unicode=")" horiz-adv-x="778" 
d="M399 -426h-346q178 201 265.5 435.5t87.5 537.5q0 327 -97 574q-76 191 -256 415h346q160 -254 223.5 -475.5t63.5 -521.5q0 -294 -67 -515t-220 -450z" />
    <glyph glyph-name="asterisk" unicode="*" horiz-adv-x="901" 
d="M331 1508h254l-79 -301l226 213l117 -220l-305 -78l305 -87l-132 -217l-218 217l77 -300h-245l77 300l-223 -217l-133 217l306 87l-306 85l133 223l223 -223z" />
    <glyph glyph-name="plus" unicode="+" 
d="M490 860v375h250v-375h374v-250h-374v-374h-250v374h-375v250h375z" />
    <glyph glyph-name="comma" unicode="," horiz-adv-x="573" 
d="M269 277l195 -98l-247 -422l-136 65z" />
    <glyph glyph-name="hyphen" unicode="-" horiz-adv-x="860" 
d="M176 669h508v-254h-508v254z" />
    <glyph glyph-name="hyphen" unicode="&#xad;" horiz-adv-x="860" 
d="M176 669h508v-254h-508v254z" />
    <glyph glyph-name="period" unicode="." horiz-adv-x="573" 
d="M287 285q65 0 111 -45.5t46 -110.5t-46 -111t-111 -46t-111 46t-46 111t46 110.5t111 45.5z" />
    <glyph glyph-name="slash" unicode="/" horiz-adv-x="942" 
d="M44 -262l661 1775h194l-662 -1775h-193z" />
    <glyph glyph-name="zero" unicode="0" horiz-adv-x="1147" 
d="M569 1508q161 0 277.5 -79t180 -241.5t63.5 -452.5q0 -293 -64.5 -456t-173.5 -239.5t-275 -76.5t-279 77t-177 234t-64 447q0 405 125 587q139 200 387 200zM576 1242q-71 0 -126 -45.5t-84 -156.5t-29 -325q0 -279 66.5 -385.5t172.5 -106.5q102 0 162 101
q73 122 73 408q0 290 -65.5 400t-169.5 110z" />
    <glyph glyph-name="one" unicode="1" horiz-adv-x="1147" 
d="M337 1471h419v-1471h-278v1208h-303z" />
    <glyph glyph-name="two" unicode="2" horiz-adv-x="1147" 
d="M357 997h-273q11 238 149.5 374.5t355.5 136.5q134 0 236.5 -56.5t164 -163t61.5 -216.5q0 -131 -74.5 -282t-272.5 -357l-165 -174h524v-259h-1019v134l455 464q165 167 219.5 268.5t54.5 183.5q0 85 -56.5 140.5t-145.5 55.5q-90 0 -150 -67t-64 -182z" />
    <glyph glyph-name="three" unicode="3" horiz-adv-x="1147" 
d="M389 1108h-269q21 163 117 262q134 138 337 138q181 0 303.5 -115t122.5 -273q0 -98 -53.5 -179t-155.5 -131q134 -40 209.5 -139.5t75.5 -234.5q0 -198 -146 -335.5t-372 -137.5q-214 0 -349 129.5t-148 352.5h277q18 -114 79.5 -169.5t155.5 -55.5q98 0 162.5 63
t64.5 154q0 100 -87 169t-251 71v240q101 8 150.5 31.5t77 64.5t27.5 87q0 60 -42 99.5t-110 39.5q-60 0 -109 -36.5t-67 -94.5z" />
    <glyph glyph-name="four" unicode="4" horiz-adv-x="1147" 
d="M678 1508h280v-947h131v-259h-131v-302h-274v302h-642v259zM684 561v493l-336 -493h336z" />
    <glyph glyph-name="five" unicode="5" horiz-adv-x="1147" 
d="M342 1471h689v-258h-480l-60 -268q25 7 49 10.5t46 3.5q200 0 332.5 -136.5t132.5 -349.5q0 -215 -146.5 -362.5t-356.5 -147.5q-188 0 -323 107t-177 293h294q34 -69 89.5 -104.5t122.5 -35.5q93 0 158 67t65 172q0 102 -60.5 167.5t-146.5 65.5q-46 0 -90.5 -23
t-87.5 -69l-228 51z" />
    <glyph glyph-name="six" unicode="6" horiz-adv-x="1147" 
d="M594 1508l238 -119l-257 -500q187 0 318 -134t131 -333q0 -192 -134.5 -325.5t-324.5 -133.5q-199 0 -331.5 138.5t-132.5 317.5q0 68 20.5 137t94.5 212zM559 624q-78 0 -131 -56.5t-53 -141.5t55.5 -143t129.5 -58q78 0 134 57t56 144q0 85 -54.5 141.5t-136.5 56.5z
" />
    <glyph glyph-name="seven" unicode="7" horiz-adv-x="1147" 
d="M123 1471h965v-147l-664 -1361l-237 115l552 1130h-616v263z" />
    <glyph glyph-name="eight" unicode="8" horiz-adv-x="1147" 
d="M875 797q100 -64 154.5 -164.5t54.5 -217.5q0 -127 -63.5 -235t-170.5 -162.5t-273 -54.5q-178 0 -283 52.5t-168 159t-63 240.5q0 116 50.5 211.5t151.5 170.5q-66 67 -99.5 142.5t-33.5 159.5q0 115 55.5 209.5t155.5 147t231 52.5q129 0 227 -53t154.5 -150.5
t56.5 -209.5q0 -79 -29.5 -146.5t-107.5 -151.5zM565 1238q-69 0 -113.5 -45.5t-44.5 -116.5t47 -119t116 -48q71 0 116.5 47t45.5 122q0 71 -46 115.5t-121 44.5zM576 648q-101 0 -170 -61.5t-69 -146.5q0 -89 65 -150.5t171 -61.5q107 0 170.5 57.5t63.5 148.5t-66 152.5
t-165 61.5z" />
    <glyph glyph-name="nine" unicode="9" horiz-adv-x="1147" 
d="M553 -37l-238 118l257 500q-187 0 -318 134t-131 333q0 193 134.5 326.5t324.5 133.5q199 0 331.5 -138.5t132.5 -318.5q0 -68 -20.5 -136.5t-94.5 -211.5zM588 846q78 0 131 57t53 141q0 86 -55.5 144t-129.5 58q-78 0 -134 -57.5t-56 -143.5q0 -85 54.5 -142t136.5 -57
z" />
    <glyph glyph-name="colon" unicode=":" horiz-adv-x="573" 
d="M287 1116q65 0 111 -46t46 -111q0 -64 -46 -110t-111 -46t-111 45.5t-46 110.5t46 111t111 46zM287 285q65 0 111 -45.5t46 -110.5t-46 -111t-111 -46t-111 46t-46 111t46 110.5t111 45.5z" />
    <glyph glyph-name="semicolon" unicode=";" horiz-adv-x="573" 
d="M287 1116q65 0 111 -46t46 -111t-46 -110.5t-111 -45.5t-111 45.5t-46 110.5t46 111t111 46zM271 278l191 -100l-245 -421l-137 66z" />
    <glyph glyph-name="semicolon" unicode="&#x37e;" horiz-adv-x="573" 
d="M287 1116q65 0 111 -46t46 -111t-46 -110.5t-111 -45.5t-111 45.5t-46 110.5t46 111t111 46zM271 278l191 -100l-245 -421l-137 66z" />
    <glyph glyph-name="less" unicode="&#x3c;" 
d="M1114 366v-250l-999 508v222l999 508v-249l-712 -370z" />
    <glyph glyph-name="equal" unicode="=" 
d="M115 1074h999v-250h-999v250zM115 646h999v-250h-999v250z" />
    <glyph glyph-name="greater" unicode="&#x3e;" 
d="M115 1105v249l999 -508v-222l-999 -508v250l713 369z" />
    <glyph glyph-name="question" unicode="?" horiz-adv-x="1147" 
d="M362 1091h-262q-2 193 132 319t353 126q141 0 240 -52t158.5 -150t59.5 -206q0 -59 -19 -116t-60 -117q-24 -35 -115 -118q-87 -79 -109 -111.5t-37 -86.5t-19 -150h-271l-1 45q0 134 49 243.5t159 205.5q106 93 128 128t22 82q0 64 -53.5 108.5t-143.5 44.5
q-92 0 -151 -54.5t-60 -140.5zM553 315q73 0 124.5 -50t51.5 -121t-51 -121.5t-123 -50.5t-122.5 50.5t-50.5 121.5t50 121t121 50z" />
    <glyph glyph-name="at" unicode="@" horiz-adv-x="1515" 
d="M1228 301h191q-109 -135 -193.5 -196.5t-196.5 -96.5t-233 -35q-214 0 -397 104.5t-287 284.5t-104 392q0 214 104.5 398t285 286t396.5 102q300 0 506.5 -193t206.5 -449q0 -188 -86.5 -323.5t-235.5 -211.5q-114 -58 -191 -58q-58 0 -93 31q-27 22 -29 76
q-88 -97 -214 -97q-142 0 -236.5 101t-94.5 269q0 185 116 330.5t308 145.5q79 0 141 -32.5t106 -98.5l21 105h196l-99 -583q-10 -62 -10 -70q0 -11 10.5 -20.5t24.5 -9.5q35 0 94.5 48.5t97 140t37.5 200.5q0 162 -71 286t-204 195t-305 71q-181 0 -325 -80.5t-227 -228
t-83 -324.5q0 -181 84 -328t235 -229t338 -82q110 0 208 41t208 139zM739 526q87 0 144 71.5t57 161.5q0 78 -46.5 127.5t-116.5 49.5q-82 0 -143 -67.5t-61 -163.5q0 -81 46 -130t120 -49z" />
    <glyph glyph-name="A" unicode="A" horiz-adv-x="1515" 
d="M616 1471h284l566 -1471h-291l-115 303h-600l-120 -303h-291zM760 1081l-196 -505h391z" />
    <glyph glyph-name="B" unicode="B" horiz-adv-x="1188" 
d="M168 0v1471h231q201 0 294 -26q132 -35 210 -130t78 -224q0 -84 -35.5 -152.5t-115.5 -128.5q134 -63 196 -157.5t62 -223.5q0 -124 -64 -226t-165 -152.5t-279 -50.5h-412zM448 1204v-310h61q102 0 151.5 43t49.5 117q0 69 -47 109.5t-143 40.5h-72zM448 644v-377h70
q174 0 234.5 44t60.5 128q0 95 -71 150t-236 55h-58z" />
    <glyph glyph-name="C" unicode="C" horiz-adv-x="1597" 
d="M1520 1212l-196 -187q-200 211 -450 211q-211 0 -355.5 -144t-144.5 -355q0 -147 64 -261t181 -179t260 -65q122 0 223 45.5t222 165.5l190 -198q-163 -159 -308 -220.5t-331 -61.5q-343 0 -561.5 217.5t-218.5 557.5q0 220 99.5 391t285 275t399.5 104q182 0 350.5 -77
t290.5 -219z" />
    <glyph glyph-name="D" unicode="D" horiz-adv-x="1434" 
d="M169 1471h332q321 0 477 -79.5t257 -258.5t101 -418q0 -170 -56.5 -312.5t-156 -236.5t-215.5 -130t-402 -36h-337v1471zM448 1201v-927h130q192 0 278.5 44t141.5 148t55 256q0 234 -131 363q-118 116 -379 116h-95z" />
    <glyph glyph-name="E" unicode="E" horiz-adv-x="1065" 
d="M169 1471h803v-274h-525v-266h525v-269h-525v-387h525v-275h-803v1471z" />
    <glyph glyph-name="F" unicode="F" horiz-adv-x="983" 
d="M172 1471h730v-273h-453v-267h453v-269h-453v-662h-277v1471z" />
    <glyph glyph-name="G" unicode="G" horiz-adv-x="1720" 
d="M1526 1231l-197 -195q-187 198 -436 198q-217 0 -363.5 -144t-146.5 -350q0 -213 152 -361t375 -148q145 0 244.5 61t160.5 191h-426v263h740l2 -62q0 -193 -100 -366t-259 -264t-373 -91q-229 0 -408.5 99.5t-284 283.5t-104.5 397q0 292 193 508q229 257 596 257
q192 0 359 -71q141 -60 276 -206z" />
    <glyph glyph-name="H" unicode="H" horiz-adv-x="1393" 
d="M167 1471h284v-555h492v555h283v-1471h-283v645h-492v-645h-284v1471z" />
    <glyph glyph-name="I" unicode="I" horiz-adv-x="573" 
d="M148 1471h278v-1471h-278v1471z" />
    <glyph glyph-name="J" unicode="J" horiz-adv-x="983" 
d="M534 1471h281v-976q0 -233 -37 -327t-122 -149.5t-204 -55.5q-243 0 -414 213l202 189q67 -76 114 -102t91 -26q45 0 67 38t22 167v1029z" />
    <glyph glyph-name="K" unicode="K" horiz-adv-x="1270" 
d="M170 1471h283v-506l399 506h337l-514 -656l564 -815h-332l-454 653v-653h-283v1471z" />
    <glyph glyph-name="L" unicode="L" horiz-adv-x="901" 
d="M168 1471h280v-1204h408v-267h-688v1471z" />
    <glyph glyph-name="M" unicode="M" horiz-adv-x="1843" 
d="M310 1471h274l340 -1026l345 1026h270l248 -1471h-270l-158 929l-313 -929h-247l-309 929l-161 -929h-273z" />
    <glyph glyph-name="N" unicode="N" horiz-adv-x="1515" 
d="M169 1471h268l631 -968v968h280v-1471h-269l-630 965v-965h-280v1471z" />
    <glyph glyph-name="O" unicode="O" horiz-adv-x="1720" 
d="M863 1508q312 0 536.5 -226t224.5 -551q0 -322 -221.5 -545t-537.5 -223q-331 0 -550 229t-219 544q0 211 102 388t280.5 280.5t384.5 103.5zM860 1234q-204 0 -343 -142t-139 -361q0 -244 175 -386q136 -111 312 -111q199 0 339 144t140 355q0 210 -141 355.5
t-343 145.5z" />
    <glyph glyph-name="P" unicode="P" horiz-adv-x="1147" 
d="M167 1471h297q241 0 347.5 -44.5t168 -144t61.5 -238.5q0 -154 -80.5 -256t-218.5 -142q-81 -23 -295 -23v-623h-280v1471zM447 896h89q105 0 146 15t64.5 49.5t23.5 83.5q0 85 -66 124q-48 29 -178 29h-79v-301z" />
    <glyph glyph-name="Q" unicode="Q" horiz-adv-x="1720" 
d="M1430 215l256 -331h-332l-130 167q-161 -88 -359 -88q-331 0 -550 228.5t-219 544.5q0 211 102 387.5t280.5 280.5t383.5 104q313 0 537.5 -226t224.5 -551q0 -299 -194 -516zM1255 441q89 132 89 292q0 209 -141 355t-341 146q-206 0 -345 -142t-139 -361
q0 -244 175 -386q137 -111 311 -111q100 0 188 39l-263 339h334z" />
    <glyph glyph-name="R" unicode="R" horiz-adv-x="1188" 
d="M187 1471h297q244 0 347.5 -43.5t166.5 -144.5t63 -239q0 -145 -69.5 -242.5t-209.5 -147.5l348 -654h-306l-331 623h-26v-623h-280v1471zM467 896h88q134 0 184.5 35t50.5 116q0 48 -25 83.5t-67 51t-154 15.5h-77v-301z" />
    <glyph glyph-name="S" unicode="S" horiz-adv-x="1065" 
d="M939 1271l-207 -183q-109 152 -222 152q-55 0 -90 -29.5t-35 -66.5t25 -70q34 -44 205 -189q160 -134 194 -169q85 -86 120.5 -164.5t35.5 -171.5q0 -181 -125 -299t-326 -118q-157 0 -273.5 77t-199.5 242l235 142q106 -195 244 -195q72 0 121 42t49 97q0 50 -37 100
t-163 153q-240 196 -310 302.5t-70 212.5q0 153 116.5 262.5t287.5 109.5q110 0 209.5 -51t215.5 -186z" />
    <glyph glyph-name="T" unicode="T" horiz-adv-x="860" 
d="M23 1471h813v-276h-268v-1195h-284v1195h-261v276z" />
    <glyph glyph-name="U" unicode="U" horiz-adv-x="1311" 
d="M158 1471h281v-952q0 -123 21.5 -174t71 -81.5t119.5 -30.5q74 0 127.5 34t74 86.5t20.5 200.5v917h281v-877q0 -222 -25 -308t-95.5 -166t-162.5 -118.5t-214 -38.5q-160 0 -278.5 73.5t-169.5 184t-51 373.5v877z" />
    <glyph glyph-name="V" unicode="V" horiz-adv-x="1434" 
d="M56 1471h288l370 -1045l375 1045h288l-530 -1471h-270z" />
    <glyph glyph-name="W" unicode="W" horiz-adv-x="1843" 
d="M56 1471h276l212 -939l263 939h233l266 -939l210 939h276l-331 -1471h-269l-271 951l-266 -951h-266z" />
    <glyph glyph-name="X" unicode="X" horiz-adv-x="1393" 
d="M72 1471h315l308 -471l311 471h315l-468 -712l497 -759h-315l-340 517l-337 -517h-317l497 759z" />
    <glyph glyph-name="Y" unicode="Y" horiz-adv-x="1270" 
d="M63 1471h301l274 -528l272 528h297l-430 -834v-637h-282v637z" />
    <glyph glyph-name="Z" unicode="Z" horiz-adv-x="1024" 
d="M90 1471h890l-525 -1202h491v-269h-899l523 1194h-480v277z" />
    <glyph glyph-name="bracketleft" unicode="[" horiz-adv-x="655" 
d="M169 1508h438v-255h-162v-1397h162v-254h-438v1906z" />
    <glyph glyph-name="backslash" unicode="\" horiz-adv-x="1311" 
d="M1082 -262h-193l-661 1775h193z" />
    <glyph glyph-name="bracketright" unicode="]" horiz-adv-x="655" 
d="M486 -398h-438v255h162v1397h-162v254h438v-1906z" />
    <glyph glyph-name="asciicircum" unicode="^" 
d="M497 1471h232l390 -1105h-242l-262 748l-263 -748h-243z" />
    <glyph glyph-name="underscore" unicode="_" horiz-adv-x="1024" 
d="M-12 -154h1048v-102h-1048v102z" />
    <glyph glyph-name="grave" unicode="`" horiz-adv-x="860" 
d="M382 1679l239 -392h-196l-366 392h323z" />
    <glyph glyph-name="a" unicode="a" horiz-adv-x="1352" 
d="M942 1088h272v-1088h-272v115q-80 -76 -160.5 -109.5t-174.5 -33.5q-211 0 -365 163.5t-154 406.5q0 252 149 413t362 161q98 0 184 -37t159 -111v120zM655 864q-127 0 -211 -89.5t-84 -229.5q0 -141 85.5 -232t210.5 -91q129 0 214 89.5t85 234.5q0 142 -85 230t-215 88
z" />
    <glyph glyph-name="b" unicode="b" horiz-adv-x="1352" 
d="M409 1508v-540q74 74 160 111t184 37q213 0 362 -161t149 -413q0 -243 -154 -406.5t-365 -163.5q-94 0 -175 33.5t-161 109.5v-115h-271v1508h271zM696 864q-129 0 -214 -88t-85 -230q0 -145 85 -234.5t214 -89.5q125 0 210.5 91t85.5 232q0 140 -84 229.5t-212 89.5z
" />
    <glyph glyph-name="c" unicode="c" horiz-adv-x="1311" 
d="M1203 868l-227 -125q-64 67 -126.5 93t-146.5 26q-153 0 -247.5 -91.5t-94.5 -234.5q0 -139 91 -227t239 -88q183 0 285 125l215 -147q-175 -227 -494 -227q-287 0 -449.5 170t-162.5 398q0 158 79 291t220.5 209t316.5 76q162 0 291 -64.5t211 -183.5z" />
    <glyph glyph-name="d" unicode="d" horiz-adv-x="1352" 
d="M942 1508h272v-1508h-272v115q-80 -76 -160.5 -109.5t-174.5 -33.5q-211 0 -365 163.5t-154 406.5q0 252 149 413t362 161q98 0 184 -37t159 -111v540zM655 864q-127 0 -211 -89.5t-84 -229.5q0 -141 85.5 -232t210.5 -91q129 0 214 89.5t85 234.5q0 142 -85 230t-215 88
z" />
    <glyph glyph-name="e" unicode="e" horiz-adv-x="1311" 
d="M1228 465h-877q19 -116 101.5 -184.5t210.5 -68.5q153 0 263 107l230 -108q-86 -122 -206 -180.5t-285 -58.5q-256 0 -417 161.5t-161 404.5q0 249 160.5 413.5t402.5 164.5q257 0 418 -164.5t161 -434.5zM954 680q-27 91 -106.5 148t-184.5 57q-114 0 -200 -64
q-54 -40 -100 -141h591z" />
    <glyph glyph-name="f" unicode="f" horiz-adv-x="573" 
d="M8 1088h97q1 214 7 253q11 90 75.5 142.5t182.5 52.5q85 0 192 -39v-208q-59 17 -97 17q-48 0 -70 -20q-16 -15 -16 -62l-1 -136h173v-232h-173v-856h-273v856h-97v232z" />
    <glyph glyph-name="g" unicode="g" horiz-adv-x="1352" 
d="M942 1088h272v-932q0 -276 -111 -406q-149 -176 -449 -176q-160 0 -269 40t-184 117.5t-111 188.5h301q40 -46 103 -69.5t149 -23.5q110 0 177 34t94.5 88t27.5 186q-72 -72 -151 -103.5t-179 -31.5q-219 0 -370 158t-151 400q0 259 160 416q145 142 346 142
q94 0 177.5 -34.5t167.5 -113.5v120zM659 861q-129 0 -213 -86.5t-84 -217.5q0 -136 86 -223t216 -87q127 0 209.5 85t82.5 223q0 136 -83 221t-214 85z" />
    <glyph glyph-name="h" unicode="h" 
d="M139 1508h271v-530q80 69 161 103.5t164 34.5q162 0 273 -112q95 -97 95 -285v-719h-269v477q0 189 -18 256t-61.5 100t-107.5 33q-83 0 -142.5 -55t-82.5 -150q-12 -49 -12 -224v-437h-271v1508z" />
    <glyph glyph-name="i" unicode="i" horiz-adv-x="491" 
d="M245 1536q72 0 123.5 -52t51.5 -126q0 -73 -51 -124.5t-122 -51.5q-73 0 -124.5 52.5t-51.5 127.5q0 72 51 123t123 51zM108 1088h274v-1088h-274v1088z" />
    <glyph glyph-name="j" unicode="j" horiz-adv-x="532" 
d="M266 1536q73 0 124.5 -52t51.5 -126q0 -73 -51 -125t-122 -52q-73 0 -124.5 53t-51.5 128q0 72 50.5 123t122.5 51zM130 1088h273v-1124q0 -155 -30.5 -231.5t-96.5 -117.5t-159 -41q-82 0 -204 41v215q64 -31 113 -31q52 0 78 31t26 114v1144z" />
    <glyph glyph-name="k" unicode="k" horiz-adv-x="1188" 
d="M140 1508h273v-869l402 449h342l-468 -522l525 -566h-339l-462 501v-501h-273v1508z" />
    <glyph glyph-name="l" unicode="l" horiz-adv-x="491" 
d="M109 1508h273v-1508h-273v1508z" />
    <glyph glyph-name="m" unicode="m" horiz-adv-x="1925" 
d="M136 1088h274v-125q70 77 155.5 115t186.5 38q102 0 184 -50t132 -146q65 96 159.5 146t206.5 50q116 0 204 -54t126.5 -141t38.5 -283v-638h-275v552q0 185 -46 250.5t-138 65.5q-70 0 -125.5 -40t-82.5 -110.5t-27 -226.5v-491h-275v527q0 146 -21.5 211.5t-64.5 97.5
t-104 32q-68 0 -123.5 -40.5t-83 -113.5t-27.5 -230v-484h-274v1088z" />
    <glyph glyph-name="n" unicode="n" 
d="M138 1088h272v-111q93 78 168.5 108.5t154.5 30.5q162 0 275 -113q95 -96 95 -284v-719h-270v477q0 195 -17.5 259t-61 97.5t-107.5 33.5q-83 0 -142.5 -55.5t-82.5 -153.5q-12 -51 -12 -221v-437h-272v1088z" />
    <glyph glyph-name="o" unicode="o" horiz-adv-x="1311" 
d="M649 1116q154 0 289.5 -77t211.5 -209t76 -285q0 -154 -76.5 -288t-208.5 -209.5t-291 -75.5q-234 0 -399.5 166.5t-165.5 404.5q0 255 187 425q164 148 377 148zM653 859q-127 0 -211.5 -88.5t-84.5 -226.5q0 -142 83.5 -230t211.5 -88t213 89t85 229t-83.5 227.5
t-213.5 87.5z" />
    <glyph glyph-name="p" unicode="p" horiz-adv-x="1352" 
d="M409 1088v-120q74 74 160 111t184 37q213 0 362 -161t149 -413q0 -243 -154 -406.5t-365 -163.5q-94 0 -175 33.5t-161 109.5v-513h-271v1486h271zM696 864q-129 0 -214 -88t-85 -230q0 -145 85 -234.5t214 -89.5q125 0 210.5 91t85.5 232q0 140 -84 229.5t-212 89.5z
" />
    <glyph glyph-name="q" unicode="q" horiz-adv-x="1352" 
d="M942 1088h272v-1486h-272v513q-80 -76 -160.5 -109.5t-174.5 -33.5q-211 0 -365 163.5t-154 406.5q0 252 149 413t362 161q98 0 184 -37t159 -111v120zM655 864q-127 0 -211 -89.5t-84 -229.5q0 -141 85.5 -232t210.5 -91q129 0 214 89.5t85 234.5q0 142 -85 230t-215 88
z" />
    <glyph glyph-name="r" unicode="r" horiz-adv-x="655" 
d="M74 1088h234v-137q38 81 101 123t138 42q53 0 111 -28l-85 -235q-48 24 -79 24q-63 0 -106.5 -78t-43.5 -306l1 -53v-440h-271v1088z" />
    <glyph glyph-name="s" unicode="s" horiz-adv-x="901" 
d="M804 936l-169 -169q-103 102 -187 102q-46 0 -72 -19.5t-26 -48.5q0 -22 16.5 -40.5t81.5 -50.5l100 -50q158 -78 217 -159t59 -190q0 -145 -106.5 -242t-285.5 -97q-238 0 -380 186l168 183q48 -56 112.5 -90.5t114.5 -34.5q54 0 87 26t33 60q0 63 -119 123l-92 46
q-264 133 -264 333q0 129 99.5 220.5t254.5 91.5q106 0 199.5 -46.5t158.5 -133.5z" />
    <glyph glyph-name="t" unicode="t" horiz-adv-x="614" 
d="M171 1489h272v-401h162v-235h-162v-853h-272v853h-140v235h140v401z" />
    <glyph glyph-name="u" unicode="u" 
d="M137 1088h276v-524q0 -153 21 -212.5t67.5 -92.5t114.5 -33t115.5 32.5t70.5 95.5q17 47 17 201v533h274v-461q0 -285 -45 -390q-55 -128 -162 -196.5t-272 -68.5q-179 0 -289.5 80t-155.5 223q-32 99 -32 360v453z" />
    <glyph glyph-name="v" unicode="v" horiz-adv-x="1147" 
d="M21 1088h278l275 -642l274 642h277l-463 -1088h-177z" />
    <glyph glyph-name="w" unicode="w" horiz-adv-x="1638" 
d="M17 1088h267l219 -619l236 619h163l231 -612l219 612h269l-397 -1088h-173l-232 620l-239 -620h-171z" />
    <glyph glyph-name="x" unicode="x" horiz-adv-x="1147" 
d="M40 1088h317l213 -297l216 297h314l-372 -515l418 -573h-317l-259 357l-256 -357h-313l412 573z" />
    <glyph glyph-name="y" unicode="y" horiz-adv-x="1188" 
d="M17 1088h279l283 -683l312 683h280l-682 -1486h-282l224 479z" />
    <glyph glyph-name="z" unicode="z" horiz-adv-x="942" 
d="M91 1088h835l-490 -857h462v-231h-882l492 857h-417v231z" />
    <glyph glyph-name="braceleft" unicode="{" horiz-adv-x="696" 
d="M13 390v240q89 4 131.5 35t65 97t22.5 223q0 198 18 270.5t57.5 116t116 71.5t220.5 28h53v-240q-107 0 -140 -11.5t-48.5 -37.5t-15.5 -96q0 -126 -12 -281q-8 -101 -55 -181q-35 -59 -121 -115q73 -42 116 -106.5t57 -163.5q6 -43 14 -280q3 -87 11 -108
q13 -31 48.5 -47t145.5 -16v-239h-53q-145 0 -215 23.5t-114 69t-63.5 115t-19.5 239.5q0 190 -20.5 256.5t-64 99.5t-134.5 38z" />
    <glyph glyph-name="bar" unicode="|" 
d="M536 1508h158v-1906h-158v1906z" />
    <glyph glyph-name="braceright" unicode="}" horiz-adv-x="696" 
d="M683 630v-240q-89 -5 -131.5 -35.5t-65.5 -97t-23 -223.5q0 -198 -17.5 -270t-57 -115.5t-116 -71.5t-220.5 -28h-53v239q107 0 139.5 11.5t48.5 37.5t16 96q0 127 12 282q7 101 54 180q36 60 122 115q-73 42 -116 106.5t-57 164.5q-6 42 -14 279q-3 88 -12 108
q-13 32 -48.5 47.5t-144.5 15.5v240h53q145 0 214.5 -24t114 -69.5t64 -115t19.5 -239.5q0 -190 20.5 -256t63.5 -99t135 -38z" />
    <glyph glyph-name="asciitilde" unicode="~" 
d="M100 564v319q152 74 250 74q64 0 140.5 -21.5t203.5 -82.5q83 -41 109 -48q35 -10 69 -10q111 0 258 113v-322q-126 -72 -247 -72q-66 0 -133 18t-218 85q-96 42 -128.5 50.5t-65.5 8.5q-50 0 -101 -22t-137 -90z" />
    <glyph glyph-name="nbspace" unicode="&#xa0;" horiz-adv-x="573" 
 />
    <glyph glyph-name="exclamdown" unicode="&#xa1;" horiz-adv-x="573" 
d="M286 1138q71 0 121.5 -50t50.5 -121t-50.5 -121t-121.5 -50t-121 50t-50 121t50 121t121 50zM424 -398h-275v1075h275v-1075z" />
    <glyph glyph-name="cent" unicode="&#xa2;" horiz-adv-x="1147" 
d="M821 1326l155 -67l-94 -210q110 -69 169 -164l-223 -132q-23 31 -52 59l-255 -577q55 -21 107 -21q125 0 221 98l175 -170q-86 -88 -186 -129t-229 -41q-95 0 -190 28l-111 -243l-153 66l120 264q-191 188 -191 458q0 168 70 298t195 201.5t280 71.5q43 0 96 -8zM619 870
q-123 -7 -193.5 -92t-70.5 -238q0 -98 38 -183z" />
    <glyph glyph-name="sterling" unicode="&#xa3;" horiz-adv-x="1147" 
d="M1012 1096h-281q-31 155 -145 155q-61 0 -102 -43.5t-41 -113.5q0 -41 28 -114l31 -81h340v-252h-267q12 -69 12 -109q0 -115 -68 -283q39 -5 139 -23q34 -6 55 -6q43 0 71 26q38 34 52 84h259q-4 -99 -57 -186.5t-142 -137t-186 -49.5q-43 0 -143 14q-154 23 -230 23
q-98 0 -194 -34l-94 238q85 34 159 44q55 96 75 163t20 142q0 41 -9 94h-240v252h154q-47 100 -47 201q0 122 49.5 210.5t153.5 143t226 54.5q120 0 218.5 -53t150.5 -146.5t53 -212.5z" />
    <glyph glyph-name="currency" unicode="&#xa4;" 
d="M96 425l103 104q-52 79 -72 145t-20 144q0 83 21 151.5t73 140.5l-106 104l121 124l106 -106q70 49 144 73t152 24q75 0 146 -22t145 -72l105 103l119 -124l-104 -101q53 -72 75.5 -142.5t22.5 -152.5q0 -81 -22 -149.5t-73 -139.5l104 -104l-119 -121l-105 103
q-73 -53 -144.5 -76.5t-151.5 -23.5q-79 0 -150.5 23.5t-144.5 76.5l-105 -103zM303 816q0 -132 92.5 -225t221.5 -93t221 93.5t92 227.5q0 133 -91.5 226.5t-220.5 93.5t-222 -94t-93 -229z" />
    <glyph glyph-name="yen" unicode="&#xa5;" horiz-adv-x="1147" 
d="M48 1471h291l235 -523l235 523h291l-311 -692h264v-163h-338v-128h338v-169h-338v-319h-283v319h-339v169h339v128h-339v163h265z" />
    <glyph glyph-name="brokenbar" unicode="&#xa6;" 
d="M537 744v764h158v-709zM537 -398v910l158 55v-965h-158z" />
    <glyph glyph-name="section" unicode="&#xa7;" horiz-adv-x="1147" 
d="M985 1152h-265q-30 133 -161 133q-53 0 -82 -23.5t-29 -57.5q0 -36 23 -65q31 -38 145 -116l191 -131q129 -88 178 -171t49 -183q0 -105 -55.5 -186t-158.5 -121q93 -77 131.5 -153t38.5 -167q0 -144 -108.5 -240.5t-297.5 -96.5q-178 0 -284.5 96.5t-131.5 281.5h259
q27 -70 65.5 -99t92.5 -29q61 0 95 30t34 71q0 25 -20 54q-21 28 -89 76l-276 192q-129 91 -175.5 171t-46.5 185q0 112 56.5 196.5t142.5 116.5q-69 56 -103.5 125t-34.5 150q0 144 111 244.5t288 100.5q169 0 288 -111t130 -273zM463 796q-62 -27 -91.5 -68t-29.5 -85
q0 -47 42 -96q23 -28 123 -98l153 -107q81 38 101 65q31 41 31 86q0 38 -30.5 78.5t-136.5 112.5z" />
    <glyph glyph-name="dieresis" unicode="&#xa8;" horiz-adv-x="1024" 
d="M290 1573q60 0 102 -42t42 -101q0 -60 -42 -102t-102 -42q-59 0 -101 42t-42 102q0 59 42 101t101 42zM733 1573q60 0 102 -42t42 -101q0 -60 -42 -102t-102 -42q-59 0 -101 42t-42 102q0 59 42 101t101 42z" />
    <glyph glyph-name="copyright" unicode="&#xa9;" horiz-adv-x="1515" 
d="M1524 757q0 -205 -102.5 -382.5t-280.5 -280t-383 -102.5t-383 102.5t-280.5 280t-102.5 382.5q0 204 102.5 381t280 279.5t383.5 102.5t383.5 -102.5t280 -279.5t102.5 -381zM1366 754q0 253 -177.5 430.5t-429.5 177.5q-164 0 -305.5 -81t-222.5 -221.5t-81 -301.5
t81 -300.5t222.5 -220.5t303.5 -81q163 0 305 81t223 219.5t81 297.5zM980 616h176q-17 -131 -118 -216t-248 -85q-188 0 -308.5 126.5t-120.5 328.5q0 196 119 318t304 122q149 0 245 -75t127 -218h-176q-17 74 -68 114t-126 40q-111 0 -183 -80.5t-72 -218.5
q0 -142 76.5 -229.5t182.5 -87.5q75 0 128 45t62 116z" />
    <glyph glyph-name="ordfeminine" unicode="&#xaa;" horiz-adv-x="737" 
d="M459 1491h200v-681h-200v56q-33 -36 -71.5 -54t-81.5 -18q-100 0 -179.5 98.5t-79.5 257.5q0 164 77 261t178 97q44 0 83 -18.5t74 -56.5v58zM356 1329q-43 0 -75.5 -46.5t-32.5 -130.5q0 -85 37 -139q29 -41 72 -41t76 46.5t33 133.5q0 86 -33 131.5t-77 45.5z" />
    <glyph glyph-name="guillemotleft" unicode="&#xab;" horiz-adv-x="942" 
d="M208 1088h255l-185 -548l185 -540h-255l-183 540zM662 1088h255l-185 -548l185 -540h-255l-184 540z" />
    <glyph glyph-name="logicalnot" unicode="&#xac;" 
d="M115 1074h999v-678l-249 1v428l-750 -1v250z" />
    <glyph glyph-name="registered" unicode="&#xae;" horiz-adv-x="1515" 
d="M1524 755q0 -205 -102.5 -381.5t-280 -279t-383.5 -102.5q-205 0 -383 102.5t-280.5 279t-102.5 382.5q0 205 102.5 382t280 279.5t383.5 102.5t383.5 -102.5t280 -279.5t102.5 -383zM1366 753q0 254 -177.5 431.5t-428.5 177.5q-253 0 -431.5 -177t-178.5 -427
q0 -162 80.5 -301t222.5 -220t305 -81q162 0 304 80.5t223 219t81 297.5zM441 1173h371q117 0 172 -26t88.5 -82t33.5 -135q0 -67 -20.5 -109.5t-77.5 -83.5q46 -26 63 -58.5t21 -114.5q7 -156 13.5 -181.5t35.5 -48.5h-210q-14 34 -18 57t-5 79q-3 111 -12 137t-31.5 39
t-90.5 13h-149v-325h-184v839zM625 1012v-199h154q89 0 118 24t29 77t-28.5 75.5t-117.5 22.5h-155z" />
    <glyph glyph-name="overscore" unicode="&#xaf;" horiz-adv-x="1024" 
d="M-12 1685h1048v-102h-1048v102z" />
    <glyph glyph-name="degree" unicode="&#xb0;" horiz-adv-x="819" 
d="M755 1164q0 -145 -101 -244.5t-245 -99.5t-244 100t-100 247q0 141 102.5 241t244.5 100t242.5 -100t100.5 -244zM636 1162q0 99 -65 166t-158 67q-95 0 -162 -67.5t-67 -163.5q0 -94 67.5 -163t160.5 -69q92 0 158 67.5t66 162.5z" />
    <glyph glyph-name="plusminus" unicode="&#xb1;" horiz-adv-x="1124" 
d="M437 1079v375h250v-375h374v-250h-374v-374h-250v374h-375v250h375zM62 250h999v-250h-999v250z" />
    <glyph glyph-name="twosuperior" unicode="&#xb2;" horiz-adv-x="688" 
d="M227 1227h-185q6 132 88.5 206.5t222.5 74.5q139 0 211.5 -74t72.5 -156q0 -67 -44 -144t-164 -182l-70 -62h285v-157h-625v88l272 232q97 83 127 130t30 84q0 36 -28.5 59.5t-77.5 23.5q-52 0 -83 -32t-32 -91z" />
    <glyph glyph-name="threesuperior" unicode="&#xb3;" horiz-adv-x="688" 
d="M244 1282h-183q23 108 79 157q78 69 202 69q117 0 190.5 -60.5t73.5 -140.5q0 -96 -93 -149q66 -27 103.5 -79.5t37.5 -112.5q0 -101 -88 -176t-234 -75q-136 0 -217.5 73t-84.5 193h184q19 -111 126 -111q55 0 90 27.5t35 63.5q0 99 -197 105v138q88 0 121 22.5t33 59.5
q0 28 -20.5 47.5t-54.5 19.5q-67 0 -103 -71z" />
    <glyph glyph-name="acute" unicode="&#xb4;" horiz-adv-x="860" 
d="M478 1679h323l-366 -392h-196z" />
    <glyph glyph-name="mu1" unicode="&#xb5;" horiz-adv-x="1180" 
d="M88 -398v1486h277v-571q0 -127 24.5 -183.5t81 -93.5t121.5 -37t115.5 34t77 98t26.5 190v563h280v-1088h-280v127q-43 -84 -98.5 -120t-124.5 -36q-68 0 -123.5 34.5t-99.5 113.5v-517h-277z" />
    <glyph glyph-name="paragraph" unicode="&#xb6;" 
d="M552 -379v1089q-184 1 -286.5 105t-102.5 289q0 203 111.5 306t361.5 103h420v-116h-82v-1776h-139v1776h-144v-1776h-139z" />
    <glyph glyph-name="middot" unicode="&#xb7;" horiz-adv-x="682" 
d="M696 897q60 0 102 -41.5t42 -101.5q0 -59 -42 -101t-102 -42q-59 0 -101 42t-42 101q0 60 42 101.5t101 41.5z" />
    <glyph glyph-name="cedilla" unicode="&#xb8;" horiz-adv-x="696" 
d="M262 16h169l-12 -46q67 -15 105.5 -58.5t38.5 -95.5q0 -81 -68 -139t-189 -58q-98 0 -222 46l36 129q72 -23 141 -23q51 0 76 19.5t25 51.5q0 26 -19 41t-60 15l-56 -2z" />
    <glyph glyph-name="onesuperior" unicode="&#xb9;" horiz-adv-x="688" 
d="M199 1489h265v-756h-188v599h-193z" />
    <glyph glyph-name="ordmasculine" unicode="&#xba;" horiz-adv-x="737" 
d="M365 1508q134 0 231 -102t97 -255q0 -154 -95.5 -255.5t-231.5 -101.5q-131 0 -226 102.5t-95 253.5q0 152 96 255t224 103zM368 1326q-49 0 -85 -47t-36 -128q0 -84 35.5 -130.5t85.5 -46.5t86.5 47t36.5 130q0 82 -36 128.5t-87 46.5z" />
    <glyph glyph-name="guillemotright" unicode="&#xbb;" horiz-adv-x="942" 
d="M733 0h-255l186 548l-186 540h255l184 -540zM280 0h-255l185 548l-185 540h255l183 -540z" />
    <glyph glyph-name="onequarter" unicode="&#xbc;" horiz-adv-x="1720" 
d="M207 1489h265v-756h-188v599h-193zM462 -37l626 1545h171l-626 -1545h-171zM1424 775h182v-485h78v-140h-78v-150h-169v150h-395v148zM1437 290v269l-217 -269h217z" />
    <glyph glyph-name="onehalf" unicode="&#xbd;" horiz-adv-x="1720" 
d="M207 1489h265v-756h-188v599h-193zM426 -37l626 1545h171l-626 -1545h-171zM1251 494h-185q6 132 88.5 206.5t222.5 74.5q139 0 211.5 -74t72.5 -156q0 -67 -44 -144t-164 -182l-70 -62h285v-157h-625v88l272 232q97 83 127 130t30 84q0 36 -28.5 59.5t-77.5 23.5
q-52 0 -83 -32t-32 -91z" />
    <glyph glyph-name="threequarters" unicode="&#xbe;" horiz-adv-x="1720" 
d="M252 1282h-183q23 108 79 157q78 69 202 69q117 0 190.5 -60.5t73.5 -140.5q0 -96 -93 -149q66 -27 103.5 -79.5t37.5 -112.5q0 -101 -88 -176t-234 -75q-136 0 -217.5 73t-84.5 193h184q19 -111 126 -111q55 0 90 27.5t35 63.5q0 99 -197 105v138q88 0 121 22.5t33 59.5
q0 28 -20.5 47.5t-54.5 19.5q-67 0 -103 -71zM486 -37l626 1545h171l-626 -1545h-171zM1424 775h182v-485h78v-140h-78v-150h-169v150h-395v148zM1437 290v269l-217 -269h217z" />
    <glyph glyph-name="questiondown" unicode="&#xbf;" horiz-adv-x="1147" 
d="M588 795q-73 0 -124.5 50t-51.5 121t51 121.5t123 50.5q71 0 122 -50.5t51 -121.5t-50 -121t-121 -50zM779 18h262q2 -192 -132 -318t-353 -126q-141 0 -240.5 51.5t-158.5 150t-59 206.5q0 59 18.5 116t59.5 117q25 35 116 118q86 79 108.5 111t37.5 86.5t19 150.5h270
l2 -45q0 -134 -49 -243.5t-159 -205.5q-106 -93 -128 -128.5t-22 -81.5q0 -64 53 -108.5t144 -44.5q92 0 151 54.5t60 139.5z" />
    <glyph glyph-name="Agrave" unicode="&#xc0;" horiz-adv-x="1515" 
d="M616 1471h284l566 -1471h-291l-115 303h-600l-120 -303h-291zM760 1081l-196 -505h391zM709 1977l239 -392h-196l-366 392h323z" />
    <glyph glyph-name="Aacute" unicode="&#xc1;" horiz-adv-x="1515" 
d="M616 1471h284l566 -1471h-291l-115 303h-600l-120 -303h-291zM760 1081l-196 -505h391zM805 1977h323l-366 -392h-196z" />
    <glyph glyph-name="Acircumflex" unicode="&#xc2;" horiz-adv-x="1515" 
d="M616 1471h284l566 -1471h-291l-115 303h-600l-120 -303h-291zM760 1081l-196 -505h391zM349 1585l300 283h219l298 -283h-298l-108 131l-111 -131h-300z" />
    <glyph glyph-name="Atilde" unicode="&#xc3;" horiz-adv-x="1515" 
d="M616 1471h284l566 -1471h-291l-115 303h-600l-120 -303h-291zM760 1081l-196 -505h391zM451 1589l-110 165q128 99 259 99q49 0 168 -34q81 -22 129 -22q84 0 174 52l104 -156q-126 -108 -244 -108q-63 0 -151 27q-72 21 -91 25q-26 4 -62 4q-88 0 -176 -52z" />
    <glyph glyph-name="Adieresis" unicode="&#xc4;" horiz-adv-x="1515" 
d="M616 1471h284l566 -1471h-291l-115 303h-600l-120 -303h-291zM760 1081l-196 -505h391zM535 1871q60 0 102 -42t42 -101q0 -60 -42 -102t-102 -42q-59 0 -101 42t-42 102q0 59 42 101t101 42zM978 1871q60 0 102 -42t42 -101q0 -60 -42 -102t-102 -42q-59 0 -101 42
t-42 102q0 59 42 101t101 42z" />
    <glyph glyph-name="Aring" unicode="&#xc5;" horiz-adv-x="1515" 
d="M616 1471h284l566 -1471h-291l-115 303h-600l-120 -303h-291zM760 1081l-196 -505h391zM757 2032q91 0 155 -65.5t64 -157.5q0 -93 -64.5 -158.5t-154.5 -65.5t-154.5 65.5t-64.5 158.5q0 92 64 157.5t155 65.5zM757 1903q-34 0 -58 -26t-24 -63q0 -38 24.5 -64t57.5 -26
t57.5 26t24.5 64q0 37 -24 63t-58 26z" />
    <glyph glyph-name="AE" unicode="&#xc6;" horiz-adv-x="1843" 
d="M774 1471h963v-274h-517v-267h517v-269h-517v-387h517v-274h-796v304h-449l-147 -304h-288zM941 579v644l-317 -644h317z" />
    <glyph glyph-name="Ccedilla" unicode="&#xc7;" horiz-adv-x="1597" 
d="M1520 1212l-196 -187q-200 211 -450 211q-211 0 -355.5 -144t-144.5 -355q0 -147 64 -261t181 -179t260 -65q122 0 223 45.5t222 165.5l190 -198q-163 -159 -308 -220.5t-331 -61.5q-343 0 -561.5 217.5t-218.5 557.5q0 220 99.5 391t285 275t399.5 104q182 0 350.5 -77
t290.5 -219zM713 16h169l-12 -46q67 -15 105.5 -58.5t38.5 -95.5q0 -81 -68 -139t-189 -58q-98 0 -222 46l36 129q72 -23 141 -23q51 0 76 19.5t25 51.5q0 26 -19 41t-60 15l-56 -2z" />
    <glyph glyph-name="Egrave" unicode="&#xc8;" horiz-adv-x="1065" 
d="M169 1471h803v-274h-525v-266h525v-269h-525v-387h525v-275h-803v1471zM520 1977l239 -392h-196l-366 392h323z" />
    <glyph glyph-name="Eacute" unicode="&#xc9;" horiz-adv-x="1065" 
d="M169 1471h803v-274h-525v-266h525v-269h-525v-387h525v-275h-803v1471zM617 1977h323l-366 -392h-196z" />
    <glyph glyph-name="Ecircumflex" unicode="&#xca;" horiz-adv-x="1065" 
d="M169 1471h803v-274h-525v-266h525v-269h-525v-387h525v-275h-803v1471zM160 1585l300 283h219l298 -283h-298l-108 131l-111 -131h-300z" />
    <glyph glyph-name="Edieresis" unicode="&#xcb;" horiz-adv-x="1065" 
d="M169 1471h803v-274h-525v-266h525v-269h-525v-387h525v-275h-803v1471zM347 1871q60 0 102 -42t42 -101q0 -60 -42 -102t-102 -42q-59 0 -101 42t-42 102q0 59 42 101t101 42zM790 1871q60 0 102 -42t42 -101q0 -60 -42 -102t-102 -42q-59 0 -101 42t-42 102q0 59 42 101
t101 42z" />
    <glyph glyph-name="Igrave" unicode="&#xcc;" horiz-adv-x="573" 
d="M148 1471h278v-1471h-278v1471zM239 1977l239 -392h-196l-366 392h323z" />
    <glyph glyph-name="Iacute" unicode="&#xcd;" horiz-adv-x="573" 
d="M148 1471h278v-1471h-278v1471zM335 1977h323l-366 -392h-196z" />
    <glyph glyph-name="Icircumflex" unicode="&#xce;" horiz-adv-x="573" 
d="M148 1471h278v-1471h-278v1471zM-122 1585l300 283h219l298 -283h-298l-108 131l-111 -131h-300z" />
    <glyph glyph-name="Idieresis" unicode="&#xcf;" horiz-adv-x="573" 
d="M148 1471h278v-1471h-278v1471zM65 1871q60 0 102 -42t42 -101q0 -60 -42 -102t-102 -42q-59 0 -101 42t-42 102q0 59 42 101t101 42zM508 1871q60 0 102 -42t42 -101q0 -60 -42 -102t-102 -42q-59 0 -101 42t-42 102q0 59 42 101t101 42z" />
    <glyph glyph-name="Eth" unicode="&#xd0;" horiz-adv-x="1520" 
d="M219 1471h357q320 0 476 -79.5t257 -258.5t101 -418q0 -170 -56.5 -312.5t-156 -236.5t-215.5 -130t-402 -36h-361v654h-169v163h169v654zM498 1201v-384h302v-163h-302v-380h154q192 0 278.5 44t141.5 148t55 256q0 234 -131 363q-118 116 -379 116h-119z" />
    <glyph glyph-name="Ntilde" unicode="&#xd1;" horiz-adv-x="1515" 
d="M169 1471h268l631 -968v968h280v-1471h-269l-630 965v-965h-280v1471zM452 1589l-110 165q128 99 259 99q49 0 168 -34q81 -22 129 -22q84 0 174 52l104 -156q-126 -108 -244 -108q-63 0 -151 27q-72 21 -91 25q-26 4 -62 4q-88 0 -176 -52z" />
    <glyph glyph-name="Ograve" unicode="&#xd2;" horiz-adv-x="1720" 
d="M863 1508q312 0 536.5 -226t224.5 -551q0 -322 -221.5 -545t-537.5 -223q-331 0 -550 229t-219 544q0 211 102 388t280.5 280.5t384.5 103.5zM860 1234q-204 0 -343 -142t-139 -361q0 -244 175 -386q136 -111 312 -111q199 0 339 144t140 355q0 210 -141 355.5
t-343 145.5zM812 1977l239 -392h-196l-366 392h323z" />
    <glyph glyph-name="Oacute" unicode="&#xd3;" horiz-adv-x="1720" 
d="M863 1508q312 0 536.5 -226t224.5 -551q0 -322 -221.5 -545t-537.5 -223q-331 0 -550 229t-219 544q0 211 102 388t280.5 280.5t384.5 103.5zM860 1234q-204 0 -343 -142t-139 -361q0 -244 175 -386q136 -111 312 -111q199 0 339 144t140 355q0 210 -141 355.5
t-343 145.5zM908 1977h323l-366 -392h-196z" />
    <glyph glyph-name="Ocircumflex" unicode="&#xd4;" horiz-adv-x="1720" 
d="M863 1508q312 0 536.5 -226t224.5 -551q0 -322 -221.5 -545t-537.5 -223q-331 0 -550 229t-219 544q0 211 102 388t280.5 280.5t384.5 103.5zM860 1234q-204 0 -343 -142t-139 -361q0 -244 175 -386q136 -111 312 -111q199 0 339 144t140 355q0 210 -141 355.5
t-343 145.5zM451 1585l300 283h219l298 -283h-298l-108 131l-111 -131h-300z" />
    <glyph glyph-name="Otilde" unicode="&#xd5;" horiz-adv-x="1720" 
d="M863 1508q312 0 536.5 -226t224.5 -551q0 -322 -221.5 -545t-537.5 -223q-331 0 -550 229t-219 544q0 211 102 388t280.5 280.5t384.5 103.5zM860 1234q-204 0 -343 -142t-139 -361q0 -244 175 -386q136 -111 312 -111q199 0 339 144t140 355q0 210 -141 355.5
t-343 145.5zM553 1589l-110 165q128 99 259 99q49 0 168 -34q81 -22 129 -22q84 0 174 52l104 -156q-126 -108 -244 -108q-63 0 -151 27q-72 21 -91 25q-26 4 -62 4q-88 0 -176 -52z" />
    <glyph glyph-name="Odieresis" unicode="&#xd6;" horiz-adv-x="1720" 
d="M863 1508q312 0 536.5 -226t224.5 -551q0 -322 -221.5 -545t-537.5 -223q-331 0 -550 229t-219 544q0 211 102 388t280.5 280.5t384.5 103.5zM860 1234q-204 0 -343 -142t-139 -361q0 -244 175 -386q136 -111 312 -111q199 0 339 144t140 355q0 210 -141 355.5
t-343 145.5zM638 1871q60 0 102 -42t42 -101q0 -60 -42 -102t-102 -42q-59 0 -101 42t-42 102q0 59 42 101t101 42zM1081 1871q60 0 102 -42t42 -101q0 -60 -42 -102t-102 -42q-59 0 -101 42t-42 102q0 59 42 101t101 42z" />
    <glyph glyph-name="multiply" unicode="&#xd7;" 
d="M613 588l-317 -316l-148 147l317 317l-317 317l148 148l317 -317l316 317l148 -148l-317 -317l317 -317l-148 -147z" />
    <glyph glyph-name="Oslash" unicode="&#xd8;" horiz-adv-x="1720" 
d="M1429 1251q196 -219 196 -520q0 -322 -221.5 -545t-536.5 -223q-239 0 -426 125l-171 -202l-127 106l171 202q-103 105 -160 246t-57 296q0 211 102 387.5t280.5 280.5t383.5 104q238 0 443 -145l161 190l126 -104zM493 405l636 749q-113 80 -267 80q-205 0 -344 -142
t-139 -361q0 -194 114 -326zM1245 1038l-625 -738q112 -66 247 -66q198 0 338 144t140 355q0 169 -100 305z" />
    <glyph glyph-name="Ugrave" unicode="&#xd9;" horiz-adv-x="1311" 
d="M158 1471h281v-952q0 -123 21.5 -174t71 -81.5t119.5 -30.5q74 0 127.5 34t74 86.5t20.5 200.5v917h281v-877q0 -222 -25 -308t-95.5 -166t-162.5 -118.5t-214 -38.5q-160 0 -278.5 73.5t-169.5 184t-51 373.5v877zM607 1977l239 -392h-196l-366 392h323z" />
    <glyph glyph-name="Uacute" unicode="&#xda;" horiz-adv-x="1311" 
d="M158 1471h281v-952q0 -123 21.5 -174t71 -81.5t119.5 -30.5q74 0 127.5 34t74 86.5t20.5 200.5v917h281v-877q0 -222 -25 -308t-95.5 -166t-162.5 -118.5t-214 -38.5q-160 0 -278.5 73.5t-169.5 184t-51 373.5v877zM703 1977h323l-366 -392h-196z" />
    <glyph glyph-name="Ucircumflex" unicode="&#xdb;" horiz-adv-x="1311" 
d="M158 1471h281v-952q0 -123 21.5 -174t71 -81.5t119.5 -30.5q74 0 127.5 34t74 86.5t20.5 200.5v917h281v-877q0 -222 -25 -308t-95.5 -166t-162.5 -118.5t-214 -38.5q-160 0 -278.5 73.5t-169.5 184t-51 373.5v877zM247 1585l300 283h219l298 -283h-298l-108 131
l-111 -131h-300z" />
    <glyph glyph-name="Udieresis" unicode="&#xdc;" horiz-adv-x="1311" 
d="M158 1471h281v-952q0 -123 21.5 -174t71 -81.5t119.5 -30.5q74 0 127.5 34t74 86.5t20.5 200.5v917h281v-877q0 -222 -25 -308t-95.5 -166t-162.5 -118.5t-214 -38.5q-160 0 -278.5 73.5t-169.5 184t-51 373.5v877zM434 1871q60 0 102 -42t42 -101q0 -60 -42 -102
t-102 -42q-59 0 -101 42t-42 102q0 59 42 101t101 42zM877 1871q60 0 102 -42t42 -101q0 -60 -42 -102t-102 -42q-59 0 -101 42t-42 102q0 59 42 101t101 42z" />
    <glyph glyph-name="Yacute" unicode="&#xdd;" horiz-adv-x="1270" 
d="M63 1471h301l274 -528l272 528h297l-430 -834v-637h-282v637zM683 1977h323l-366 -392h-196z" />
    <glyph glyph-name="Thorn" unicode="&#xde;" horiz-adv-x="1147" 
d="M167 1471h280v-312q256 0 362.5 -43.5t169 -143t62.5 -239.5q0 -155 -80.5 -256.5t-218.5 -141.5q-81 -24 -295 -24v-311h-280v1471zM447 584h89q105 0 146 15t64.5 50t23.5 84q0 84 -66 124q-48 29 -178 29h-79v-302z" />
    <glyph glyph-name="germandbls" unicode="&#xdf;" 
d="M579 705v244q103 0 163 48.5t60 126.5q0 67 -47 113t-117 46q-66 0 -122.5 -41t-81 -110t-24.5 -237v-895h-273v895q0 244 58 369t176.5 198.5t275.5 73.5q192 0 311.5 -109.5t119.5 -264.5q0 -85 -37 -156t-100.5 -114.5t-172.5 -62.5q120 -21 202.5 -80t126.5 -144.5
t44 -193.5q0 -125 -56.5 -226t-158.5 -157t-228 -56q-85 0 -168 34v255q63 -33 127 -33q91 0 152.5 64.5t61.5 155.5q0 72 -35.5 129.5t-96.5 90.5t-160 37z" />
    <glyph glyph-name="agrave" unicode="&#xe0;" horiz-adv-x="1352" 
d="M942 1088h272v-1088h-272v115q-80 -76 -160.5 -109.5t-174.5 -33.5q-211 0 -365 163.5t-154 406.5q0 252 149 413t362 161q98 0 184 -37t159 -111v120zM655 864q-127 0 -211 -89.5t-84 -229.5q0 -141 85.5 -232t210.5 -91q129 0 214 89.5t85 234.5q0 142 -85 230t-215 88
zM628 1679l239 -392h-196l-366 392h323z" />
    <glyph glyph-name="aacute" unicode="&#xe1;" horiz-adv-x="1352" 
d="M942 1088h272v-1088h-272v115q-80 -76 -160.5 -109.5t-174.5 -33.5q-211 0 -365 163.5t-154 406.5q0 252 149 413t362 161q98 0 184 -37t159 -111v120zM655 864q-127 0 -211 -89.5t-84 -229.5q0 -141 85.5 -232t210.5 -91q129 0 214 89.5t85 234.5q0 142 -85 230t-215 88
zM724 1679h323l-366 -392h-196z" />
    <glyph glyph-name="acircumflex" unicode="&#xe2;" horiz-adv-x="1352" 
d="M942 1088h272v-1088h-272v115q-80 -76 -160.5 -109.5t-174.5 -33.5q-211 0 -365 163.5t-154 406.5q0 252 149 413t362 161q98 0 184 -37t159 -111v120zM655 864q-127 0 -211 -89.5t-84 -229.5q0 -141 85.5 -232t210.5 -91q129 0 214 89.5t85 234.5q0 142 -85 230t-215 88
zM267 1287l300 283h219l298 -283h-298l-108 131l-111 -131h-300z" />
    <glyph glyph-name="atilde" unicode="&#xe3;" horiz-adv-x="1352" 
d="M942 1088h272v-1088h-272v115q-80 -76 -160.5 -109.5t-174.5 -33.5q-211 0 -365 163.5t-154 406.5q0 252 149 413t362 161q98 0 184 -37t159 -111v120zM655 864q-127 0 -211 -89.5t-84 -229.5q0 -141 85.5 -232t210.5 -91q129 0 214 89.5t85 234.5q0 142 -85 230t-215 88
zM369 1291l-110 165q128 99 259 99q49 0 168 -34q81 -22 129 -22q84 0 174 52l104 -156q-126 -108 -244 -108q-63 0 -151 27q-72 21 -91 25q-26 4 -62 4q-88 0 -176 -52z" />
    <glyph glyph-name="adieresis" unicode="&#xe4;" horiz-adv-x="1352" 
d="M942 1088h272v-1088h-272v115q-80 -76 -160.5 -109.5t-174.5 -33.5q-211 0 -365 163.5t-154 406.5q0 252 149 413t362 161q98 0 184 -37t159 -111v120zM655 864q-127 0 -211 -89.5t-84 -229.5q0 -141 85.5 -232t210.5 -91q129 0 214 89.5t85 234.5q0 142 -85 230t-215 88
zM454 1573q60 0 102 -42t42 -101q0 -60 -42 -102t-102 -42q-59 0 -101 42t-42 102q0 59 42 101t101 42zM897 1573q60 0 102 -42t42 -101q0 -60 -42 -102t-102 -42q-59 0 -101 42t-42 102q0 59 42 101t101 42z" />
    <glyph glyph-name="aring" unicode="&#xe5;" horiz-adv-x="1352" 
d="M942 1088h272v-1088h-272v115q-80 -76 -160.5 -109.5t-174.5 -33.5q-211 0 -365 163.5t-154 406.5q0 252 149 413t362 161q98 0 184 -37t159 -111v120zM655 864q-127 0 -211 -89.5t-84 -229.5q0 -141 85.5 -232t210.5 -91q129 0 214 89.5t85 234.5q0 142 -85 230t-215 88
zM676 1734q91 0 155 -65.5t64 -157.5q0 -93 -64.5 -158.5t-154.5 -65.5t-154.5 65.5t-64.5 158.5q0 92 64 157.5t155 65.5zM676 1605q-34 0 -58 -26t-24 -63q0 -38 24.5 -64t57.5 -26t57.5 26t24.5 64q0 37 -24 63t-58 26z" />
    <glyph glyph-name="ae" unicode="&#xe6;" horiz-adv-x="2212" 
d="M992 1088h251v-80q136 108 322 108q158 0 291 -76.5t205.5 -211.5t72.5 -303l-2 -62h-876q24 -119 106 -186.5t212 -67.5q75 0 134.5 25t121.5 85l230 -108q-54 -79 -125 -130t-163 -80t-200 -29q-200 0 -329 106v-78h-251v138q-79 -89 -164 -127.5t-196 -38.5
q-231 0 -387 162t-156 407q0 241 159.5 408t380.5 167q121 0 224 -53q71 -36 139 -117v142zM1860 676q-25 93 -101.5 150t-184.5 57q-110 0 -189 -53t-116 -154h591zM683 868q-135 0 -225.5 -92.5t-90.5 -233.5q0 -139 88.5 -230t224.5 -91q141 0 227.5 90t86.5 239
q0 138 -88.5 228t-222.5 90z" />
    <glyph glyph-name="ccedilla" unicode="&#xe7;" horiz-adv-x="1311" 
d="M1203 868l-227 -125q-64 67 -126.5 93t-146.5 26q-153 0 -247.5 -91.5t-94.5 -234.5q0 -139 91 -227t239 -88q183 0 285 125l215 -147q-175 -227 -494 -227q-287 0 -449.5 170t-162.5 398q0 158 79 291t220.5 209t316.5 76q162 0 291 -64.5t211 -183.5zM570 16h169
l-12 -46q67 -15 105.5 -58.5t38.5 -95.5q0 -81 -68 -139t-189 -58q-98 0 -222 46l36 129q72 -23 141 -23q51 0 76 19.5t25 51.5q0 26 -19 41t-60 15l-56 -2z" />
    <glyph glyph-name="egrave" unicode="&#xe8;" horiz-adv-x="1311" 
d="M1228 465h-877q19 -116 101.5 -184.5t210.5 -68.5q153 0 263 107l230 -108q-86 -122 -206 -180.5t-285 -58.5q-256 0 -417 161.5t-161 404.5q0 249 160.5 413.5t402.5 164.5q257 0 418 -164.5t161 -434.5zM954 680q-27 91 -106.5 148t-184.5 57q-114 0 -200 -64
q-54 -40 -100 -141h591zM607 1679l239 -392h-196l-366 392h323z" />
    <glyph glyph-name="eacute" unicode="&#xe9;" horiz-adv-x="1311" 
d="M1228 465h-877q19 -116 101.5 -184.5t210.5 -68.5q153 0 263 107l230 -108q-86 -122 -206 -180.5t-285 -58.5q-256 0 -417 161.5t-161 404.5q0 249 160.5 413.5t402.5 164.5q257 0 418 -164.5t161 -434.5zM954 680q-27 91 -106.5 148t-184.5 57q-114 0 -200 -64
q-54 -40 -100 -141h591zM703 1679h323l-366 -392h-196z" />
    <glyph glyph-name="ecircumflex" unicode="&#xea;" horiz-adv-x="1311" 
d="M1228 465h-877q19 -116 101.5 -184.5t210.5 -68.5q153 0 263 107l230 -108q-86 -122 -206 -180.5t-285 -58.5q-256 0 -417 161.5t-161 404.5q0 249 160.5 413.5t402.5 164.5q257 0 418 -164.5t161 -434.5zM954 680q-27 91 -106.5 148t-184.5 57q-114 0 -200 -64
q-54 -40 -100 -141h591zM247 1287l300 283h219l298 -283h-298l-108 131l-111 -131h-300z" />
    <glyph glyph-name="edieresis" unicode="&#xeb;" horiz-adv-x="1311" 
d="M1228 465h-877q19 -116 101.5 -184.5t210.5 -68.5q153 0 263 107l230 -108q-86 -122 -206 -180.5t-285 -58.5q-256 0 -417 161.5t-161 404.5q0 249 160.5 413.5t402.5 164.5q257 0 418 -164.5t161 -434.5zM954 680q-27 91 -106.5 148t-184.5 57q-114 0 -200 -64
q-54 -40 -100 -141h591zM434 1573q60 0 102 -42t42 -101q0 -60 -42 -102t-102 -42q-59 0 -101 42t-42 102q0 59 42 101t101 42zM877 1573q60 0 102 -42t42 -101q0 -60 -42 -102t-102 -42q-59 0 -101 42t-42 102q0 59 42 101t101 42z" />
    <glyph glyph-name="igrave" unicode="&#xec;" horiz-adv-x="491" 
d="M108 1088h274v-1088h-274v1088zM198 1679l239 -392h-196l-366 392h323z" />
    <glyph glyph-name="iacute" unicode="&#xed;" horiz-adv-x="491" 
d="M108 1088h274v-1088h-274v1088zM294 1679h323l-366 -392h-196z" />
    <glyph glyph-name="icircumflex" unicode="&#xee;" horiz-adv-x="491" 
d="M108 1088h274v-1088h-274v1088zM-163 1287l300 283h219l298 -283h-298l-108 131l-111 -131h-300z" />
    <glyph glyph-name="idieresis" unicode="&#xef;" horiz-adv-x="491" 
d="M108 1088h274v-1088h-274v1088zM24 1573q60 0 102 -42t42 -101q0 -60 -42 -102t-102 -42q-59 0 -101 42t-42 102q0 59 42 101t101 42zM467 1573q60 0 102 -42t42 -101q0 -60 -42 -102t-102 -42q-59 0 -101 42t-42 102q0 59 42 101t101 42z" />
    <glyph glyph-name="eth" unicode="&#xf0;" horiz-adv-x="1311" 
d="M384 1508h265l82 -60l199 60l50 -157l-104 -34q172 -159 264 -351t92 -384q0 -267 -166.5 -438.5t-412.5 -171.5q-235 0 -400.5 167t-165.5 405q0 252 186 425q158 147 352 147q63 0 128 -28q-27 64 -104 159l-265 -82l-51 159l192 61q-96 89 -141 123zM657 858
q-129 0 -213 -87t-84 -227q0 -142 82.5 -230t210.5 -88q129 0 215 89t86 228q0 138 -84 226.5t-213 88.5z" />
    <glyph glyph-name="ntilde" unicode="&#xf1;" 
d="M138 1088h272v-111q93 78 168.5 108.5t154.5 30.5q162 0 275 -113q95 -96 95 -284v-719h-270v477q0 195 -17.5 259t-61 97.5t-107.5 33.5q-83 0 -142.5 -55.5t-82.5 -153.5q-12 -51 -12 -221v-437h-272v1088zM308 1291l-110 165q128 99 259 99q49 0 168 -34
q81 -22 129 -22q84 0 174 52l104 -156q-126 -108 -244 -108q-63 0 -151 27q-72 21 -91 25q-26 4 -62 4q-88 0 -176 -52z" />
    <glyph glyph-name="ograve" unicode="&#xf2;" horiz-adv-x="1311" 
d="M649 1116q154 0 289.5 -77t211.5 -209t76 -285q0 -154 -76.5 -288t-208.5 -209.5t-291 -75.5q-234 0 -399.5 166.5t-165.5 404.5q0 255 187 425q164 148 377 148zM653 859q-127 0 -211.5 -88.5t-84.5 -226.5q0 -142 83.5 -230t211.5 -88t213 89t85 229t-83.5 227.5
t-213.5 87.5zM607 1679l239 -392h-196l-366 392h323z" />
    <glyph glyph-name="oacute" unicode="&#xf3;" horiz-adv-x="1311" 
d="M649 1116q154 0 289.5 -77t211.5 -209t76 -285q0 -154 -76.5 -288t-208.5 -209.5t-291 -75.5q-234 0 -399.5 166.5t-165.5 404.5q0 255 187 425q164 148 377 148zM653 859q-127 0 -211.5 -88.5t-84.5 -226.5q0 -142 83.5 -230t211.5 -88t213 89t85 229t-83.5 227.5
t-213.5 87.5zM703 1679h323l-366 -392h-196z" />
    <glyph glyph-name="ocircumflex" unicode="&#xf4;" horiz-adv-x="1311" 
d="M649 1116q154 0 289.5 -77t211.5 -209t76 -285q0 -154 -76.5 -288t-208.5 -209.5t-291 -75.5q-234 0 -399.5 166.5t-165.5 404.5q0 255 187 425q164 148 377 148zM653 859q-127 0 -211.5 -88.5t-84.5 -226.5q0 -142 83.5 -230t211.5 -88t213 89t85 229t-83.5 227.5
t-213.5 87.5zM247 1287l300 283h219l298 -283h-298l-108 131l-111 -131h-300z" />
    <glyph glyph-name="otilde" unicode="&#xf5;" horiz-adv-x="1311" 
d="M649 1116q154 0 289.5 -77t211.5 -209t76 -285q0 -154 -76.5 -288t-208.5 -209.5t-291 -75.5q-234 0 -399.5 166.5t-165.5 404.5q0 255 187 425q164 148 377 148zM653 859q-127 0 -211.5 -88.5t-84.5 -226.5q0 -142 83.5 -230t211.5 -88t213 89t85 229t-83.5 227.5
t-213.5 87.5zM349 1291l-110 165q128 99 259 99q49 0 168 -34q81 -22 129 -22q84 0 174 52l104 -156q-126 -108 -244 -108q-63 0 -151 27q-72 21 -91 25q-26 4 -62 4q-88 0 -176 -52z" />
    <glyph glyph-name="odieresis" unicode="&#xf6;" horiz-adv-x="1311" 
d="M649 1116q154 0 289.5 -77t211.5 -209t76 -285q0 -154 -76.5 -288t-208.5 -209.5t-291 -75.5q-234 0 -399.5 166.5t-165.5 404.5q0 255 187 425q164 148 377 148zM653 859q-127 0 -211.5 -88.5t-84.5 -226.5q0 -142 83.5 -230t211.5 -88t213 89t85 229t-83.5 227.5
t-213.5 87.5zM433 1573q60 0 102 -42t42 -101q0 -60 -42 -102t-102 -42q-59 0 -101 42t-42 102q0 59 42 101t101 42zM876 1573q60 0 102 -42t42 -101q0 -60 -42 -102t-102 -42q-59 0 -101 42t-42 102q0 59 42 101t101 42z" />
    <glyph glyph-name="divide" unicode="&#xf7;" horiz-adv-x="1124" 
d="M401 1326h322v-321h-322v321zM62 860h999v-250h-999v250zM401 466h322v-321h-322v321z" />
    <glyph glyph-name="oslash" unicode="&#xf8;" horiz-adv-x="1352" 
d="M1123 900q124 -160 124 -355q0 -154 -76.5 -288t-208.5 -209.5t-290 -75.5q-168 0 -303 88l-130 -145l-125 107l130 146q-138 159 -138 375q0 254 186 423q164 150 379 150q178 0 331 -103l126 140l123 -110zM423 367l406 453q-68 39 -154 39q-127 0 -212 -88.5
t-85 -226.5q0 -94 45 -177zM939 696l-395 -441q63 -29 131 -29q126 0 211 89t85 229q0 82 -32 152z" />
    <glyph glyph-name="ugrave" unicode="&#xf9;" 
d="M137 1088h276v-524q0 -153 21 -212.5t67.5 -92.5t114.5 -33t115.5 32.5t70.5 95.5q17 47 17 201v533h274v-461q0 -285 -45 -390q-55 -128 -162 -196.5t-272 -68.5q-179 0 -289.5 80t-155.5 223q-32 99 -32 360v453zM567 1679l239 -392h-196l-366 392h323z" />
    <glyph glyph-name="uacute" unicode="&#xfa;" 
d="M137 1088h276v-524q0 -153 21 -212.5t67.5 -92.5t114.5 -33t115.5 32.5t70.5 95.5q17 47 17 201v533h274v-461q0 -285 -45 -390q-55 -128 -162 -196.5t-272 -68.5q-179 0 -289.5 80t-155.5 223q-32 99 -32 360v453zM663 1679h323l-366 -392h-196z" />
    <glyph glyph-name="ucircumflex" unicode="&#xfb;" 
d="M137 1088h276v-524q0 -153 21 -212.5t67.5 -92.5t114.5 -33t115.5 32.5t70.5 95.5q17 47 17 201v533h274v-461q0 -285 -45 -390q-55 -128 -162 -196.5t-272 -68.5q-179 0 -289.5 80t-155.5 223q-32 99 -32 360v453zM206 1287l300 283h219l298 -283h-298l-108 131
l-111 -131h-300z" />
    <glyph glyph-name="udieresis" unicode="&#xfc;" 
d="M137 1088h276v-524q0 -153 21 -212.5t67.5 -92.5t114.5 -33t115.5 32.5t70.5 95.5q17 47 17 201v533h274v-461q0 -285 -45 -390q-55 -128 -162 -196.5t-272 -68.5q-179 0 -289.5 80t-155.5 223q-32 99 -32 360v453zM393 1573q60 0 102 -42t42 -101q0 -60 -42 -102
t-102 -42q-59 0 -101 42t-42 102q0 59 42 101t101 42zM836 1573q60 0 102 -42t42 -101q0 -60 -42 -102t-102 -42q-59 0 -101 42t-42 102q0 59 42 101t101 42z" />
    <glyph glyph-name="yacute" unicode="&#xfd;" horiz-adv-x="1188" 
d="M17 1088h279l283 -683l312 683h280l-682 -1486h-282l224 479zM641 1679h323l-366 -392h-196z" />
    <glyph glyph-name="thorn" unicode="&#xfe;" horiz-adv-x="1352" 
d="M409 1508v-540q74 74 160 111t184 37q213 0 362 -161t149 -413q0 -243 -154 -406.5t-365 -163.5q-94 0 -175 33.5t-161 109.5v-513h-271v1906h271zM696 864q-129 0 -214 -88t-85 -230q0 -145 85 -234.5t214 -89.5q125 0 210.5 91t85.5 232q0 140 -84 229.5t-212 89.5z
" />
    <glyph glyph-name="ydieresis" unicode="&#xff;" horiz-adv-x="1188" 
d="M17 1088h279l283 -683l312 683h280l-682 -1486h-282l224 479zM372 1573q60 0 102 -42t42 -101q0 -60 -42 -102t-102 -42q-59 0 -101 42t-42 102q0 59 42 101t101 42zM815 1573q60 0 102 -42t42 -101q0 -60 -42 -102t-102 -42q-59 0 -101 42t-42 102q0 59 42 101t101 42z
" />
    <glyph glyph-name="Amacron" unicode="&#x100;" horiz-adv-x="1515" 
d="M616 1471h284l566 -1471h-291l-115 303h-600l-120 -303h-291zM760 1081l-196 -505h391zM473 1585v221h569v-221h-569z" />
    <glyph glyph-name="amacron" unicode="&#x101;" horiz-adv-x="1352" 
d="M942 1088h272v-1088h-272v115q-80 -76 -160.5 -109.5t-174.5 -33.5q-211 0 -365 163.5t-154 406.5q0 252 149 413t362 161q98 0 184 -37t159 -111v120zM655 864q-127 0 -211 -89.5t-84 -229.5q0 -141 85.5 -232t210.5 -91q129 0 214 89.5t85 234.5q0 142 -85 230t-215 88
zM366 1287v221h569v-221h-569z" />
    <glyph glyph-name="Abreve" unicode="&#x102;" horiz-adv-x="1515" 
d="M616 1471h284l566 -1471h-291l-115 303h-600l-120 -303h-291zM760 1081l-196 -505h391zM360 1866h221q26 -41 72.5 -61.5t113.5 -20.5q68 0 123 24q36 16 63 58h221q-19 -127 -121.5 -204t-286.5 -77q-124 0 -207.5 34.5t-134.5 98.5t-64 148z" />
    <glyph glyph-name="abreve" unicode="&#x103;" horiz-adv-x="1352" 
d="M942 1088h272v-1088h-272v115q-80 -76 -160.5 -109.5t-174.5 -33.5q-211 0 -365 163.5t-154 406.5q0 252 149 413t362 161q98 0 184 -37t159 -111v120zM655 864q-127 0 -211 -89.5t-84 -229.5q0 -141 85.5 -232t210.5 -91q129 0 214 89.5t85 234.5q0 142 -85 230t-215 88
zM251 1568h221q26 -41 72.5 -61.5t113.5 -20.5q68 0 123 24q36 16 63 58h221q-19 -127 -121.5 -204t-286.5 -77q-124 0 -207.5 34.5t-134.5 98.5t-64 148z" />
    <glyph glyph-name="Aogonek" unicode="&#x104;" horiz-adv-x="1515" 
d="M616 1471h284l566 -1471h-291l-115 303h-600l-120 -303h-291zM760 1081l-196 -505h391zM1313 0h144q-140 -83 -140 -165q0 -41 29 -67t75 -26q34 0 87 27v-159q-69 -15 -128 -15q-118 0 -181 54t-63 135q0 61 45 119t132 97z" />
    <glyph glyph-name="aogonek" unicode="&#x105;" horiz-adv-x="1352" 
d="M942 1088h272v-1088h-272v115q-80 -76 -160.5 -109.5t-174.5 -33.5q-211 0 -365 163.5t-154 406.5q0 252 149 413t362 161q98 0 184 -37t159 -111v120zM655 864q-127 0 -211 -89.5t-84 -229.5q0 -141 85.5 -232t210.5 -91q129 0 214 89.5t85 234.5q0 142 -85 230t-215 88
zM1084 0h144q-140 -83 -140 -165q0 -41 29 -67t75 -26q34 0 87 27v-159q-69 -15 -128 -15q-118 0 -181 54t-63 135q0 61 45 119t132 97z" />
    <glyph glyph-name="Cacute" unicode="&#x106;" horiz-adv-x="1597" 
d="M1520 1212l-196 -187q-200 211 -450 211q-211 0 -355.5 -144t-144.5 -355q0 -147 64 -261t181 -179t260 -65q122 0 223 45.5t222 165.5l190 -198q-163 -159 -308 -220.5t-331 -61.5q-343 0 -561.5 217.5t-218.5 557.5q0 220 99.5 391t285 275t399.5 104q182 0 350.5 -77
t290.5 -219zM895 1975h323l-366 -392h-196z" />
    <glyph glyph-name="cacute" unicode="&#x107;" horiz-adv-x="1311" 
d="M1203 868l-227 -125q-64 67 -126.5 93t-146.5 26q-153 0 -247.5 -91.5t-94.5 -234.5q0 -139 91 -227t239 -88q183 0 285 125l215 -147q-175 -227 -494 -227q-287 0 -449.5 170t-162.5 398q0 158 79 291t220.5 209t316.5 76q162 0 291 -64.5t211 -183.5zM740 1679h323
l-366 -392h-196z" />
    <glyph glyph-name="Ccircumflex" unicode="&#x108;" horiz-adv-x="1597" 
d="M1520 1212l-196 -187q-200 211 -450 211q-211 0 -355.5 -144t-144.5 -355q0 -147 64 -261t181 -179t260 -65q122 0 223 45.5t222 165.5l190 -198q-163 -159 -308 -220.5t-331 -61.5q-343 0 -561.5 217.5t-218.5 557.5q0 220 99.5 391t285 275t399.5 104q182 0 350.5 -77
t290.5 -219zM436 1585l300 283h219l298 -283h-298l-108 131l-111 -131h-300z" />
    <glyph glyph-name="ccircumflex" unicode="&#x109;" horiz-adv-x="1311" 
d="M1203 868l-227 -125q-64 67 -126.5 93t-146.5 26q-153 0 -247.5 -91.5t-94.5 -234.5q0 -139 91 -227t239 -88q183 0 285 125l215 -147q-175 -227 -494 -227q-287 0 -449.5 170t-162.5 398q0 158 79 291t220.5 209t316.5 76q162 0 291 -64.5t211 -183.5zM235 1287l300 283
h219l298 -283h-298l-108 131l-111 -131h-300z" />
    <glyph glyph-name="Cdot" unicode="&#x10a;" horiz-adv-x="1597" 
d="M1520 1212l-196 -187q-200 211 -450 211q-211 0 -355.5 -144t-144.5 -355q0 -147 64 -261t181 -179t260 -65q122 0 223 45.5t222 165.5l190 -198q-163 -159 -308 -220.5t-331 -61.5q-343 0 -561.5 217.5t-218.5 557.5q0 220 99.5 391t285 275t399.5 104q182 0 350.5 -77
t290.5 -219zM857 1871q60 0 102 -42t42 -101q0 -60 -42 -102t-102 -42q-59 0 -101 42t-42 102q0 59 42 101t101 42z" />
    <glyph glyph-name="cdot" unicode="&#x10b;" horiz-adv-x="1311" 
d="M1203 868l-227 -125q-64 67 -126.5 93t-146.5 26q-153 0 -247.5 -91.5t-94.5 -234.5q0 -139 91 -227t239 -88q183 0 285 125l215 -147q-175 -227 -494 -227q-287 0 -449.5 170t-162.5 398q0 158 79 291t220.5 209t316.5 76q162 0 291 -64.5t211 -183.5zM681 1573
q60 0 102 -42t42 -101q0 -60 -42 -102t-102 -42q-59 0 -101 42t-42 102q0 59 42 101t101 42z" />
    <glyph glyph-name="Ccaron" unicode="&#x10c;" horiz-adv-x="1597" 
d="M1520 1212l-196 -187q-200 211 -450 211q-211 0 -355.5 -144t-144.5 -355q0 -147 64 -261t181 -179t260 -65q122 0 223 45.5t222 165.5l190 -198q-163 -159 -308 -220.5t-331 -61.5q-343 0 -561.5 217.5t-218.5 557.5q0 220 99.5 391t285 275t399.5 104q182 0 350.5 -77
t290.5 -219zM463 1866h300l111 -132l108 132h298l-298 -283h-219z" />
    <glyph glyph-name="ccaron" unicode="&#x10d;" horiz-adv-x="1311" 
d="M1203 868l-227 -125q-64 67 -126.5 93t-146.5 26q-153 0 -247.5 -91.5t-94.5 -234.5q0 -139 91 -227t239 -88q183 0 285 125l215 -147q-175 -227 -494 -227q-287 0 -449.5 170t-162.5 398q0 158 79 291t220.5 209t316.5 76q162 0 291 -64.5t211 -183.5zM283 1570h300
l111 -132l108 132h298l-298 -283h-219z" />
    <glyph glyph-name="Dcaron" unicode="&#x10e;" horiz-adv-x="1434" 
d="M169 1471h332q321 0 477 -79.5t257 -258.5t101 -418q0 -170 -56.5 -312.5t-156 -236.5t-215.5 -130t-402 -36h-337v1471zM448 1201v-927h130q192 0 278.5 44t141.5 148t55 256q0 234 -131 363q-118 116 -379 116h-95zM160 1868h300l111 -132l108 132h298l-298 -283h-219z
" />
    <glyph glyph-name="dcaron" unicode="&#x10f;" horiz-adv-x="1477" 
d="M942 1508h272v-1508h-272v115q-80 -76 -160.5 -109.5t-174.5 -33.5q-211 0 -365 163.5t-154 406.5q0 252 149 413t362 161q98 0 184 -37t159 -111v540zM655 864q-127 0 -211 -89.5t-84 -229.5q0 -141 85.5 -232t210.5 -91q129 0 214 89.5t85 234.5q0 142 -85 230t-215 88
zM1289 1508h252v-138q0 -132 -32.5 -227t-109.5 -196l-98 77q37 54 54.5 93.5t34.5 104.5h-101v286z" />
    <glyph glyph-name="Dslash" unicode="&#x110;" horiz-adv-x="1520" 
d="M219 1471h357q320 0 476 -79.5t257 -258.5t101 -418q0 -170 -56.5 -312.5t-156 -236.5t-215.5 -130t-402 -36h-361v654h-169v163h169v654zM498 1201v-384h302v-163h-302v-380h154q192 0 278.5 44t141.5 148t55 256q0 234 -131 363q-118 116 -379 116h-119z" />
    <glyph glyph-name="dmacron" unicode="&#x111;" horiz-adv-x="1352" 
d="M942 1508h272v-114h137v-163h-137v-1231h-272v115q-80 -76 -160.5 -109.5t-174.5 -33.5q-211 0 -365 163.5t-154 406.5q0 252 149 413t362 161q98 0 184 -37t159 -111v263h-427v163h427v114zM655 864q-127 0 -211 -89.5t-84 -229.5q0 -141 85.5 -232t210.5 -91
q129 0 214 89.5t85 234.5q0 142 -85 230t-215 88z" />
    <glyph glyph-name="Emacron" unicode="&#x112;" horiz-adv-x="1065" 
d="M169 1471h803v-274h-525v-266h525v-269h-525v-387h525v-275h-803v1471zM286 1585v221h569v-221h-569z" />
    <glyph glyph-name="emacron" unicode="&#x113;" horiz-adv-x="1311" 
d="M1228 465h-877q19 -116 101.5 -184.5t210.5 -68.5q153 0 263 107l230 -108q-86 -122 -206 -180.5t-285 -58.5q-256 0 -417 161.5t-161 404.5q0 249 160.5 413.5t402.5 164.5q257 0 418 -164.5t161 -434.5zM954 680q-27 91 -106.5 148t-184.5 57q-114 0 -200 -64
q-54 -40 -100 -141h591zM374 1287v221h569v-221h-569z" />
    <glyph glyph-name="Ebreve" unicode="&#x114;" horiz-adv-x="1065" 
d="M169 1471h803v-274h-525v-266h525v-269h-525v-387h525v-275h-803v1471zM164 1866h221q26 -41 72.5 -61.5t113.5 -20.5q68 0 123 24q36 16 63 58h221q-19 -127 -121.5 -204t-286.5 -77q-124 0 -207.5 34.5t-134.5 98.5t-64 148z" />
    <glyph glyph-name="ebreve" unicode="&#x115;" horiz-adv-x="1311" 
d="M1228 465h-877q19 -116 101.5 -184.5t210.5 -68.5q153 0 263 107l230 -108q-86 -122 -206 -180.5t-285 -58.5q-256 0 -417 161.5t-161 404.5q0 249 160.5 413.5t402.5 164.5q257 0 418 -164.5t161 -434.5zM954 680q-27 91 -106.5 148t-184.5 57q-114 0 -200 -64
q-54 -40 -100 -141h591zM251 1568h221q26 -41 72.5 -61.5t113.5 -20.5q68 0 123 24q36 16 63 58h221q-19 -127 -121.5 -204t-286.5 -77q-124 0 -207.5 34.5t-134.5 98.5t-64 148z" />
    <glyph glyph-name="Edot" unicode="&#x116;" horiz-adv-x="1065" 
d="M169 1471h803v-274h-525v-266h525v-269h-525v-387h525v-275h-803v1471zM570 1871q60 0 102 -42t42 -101q0 -60 -42 -102t-102 -42q-59 0 -101 42t-42 102q0 59 42 101t101 42z" />
    <glyph glyph-name="edot" unicode="&#x117;" horiz-adv-x="1311" 
d="M1228 465h-877q19 -116 101.5 -184.5t210.5 -68.5q153 0 263 107l230 -108q-86 -122 -206 -180.5t-285 -58.5q-256 0 -417 161.5t-161 404.5q0 249 160.5 413.5t402.5 164.5q257 0 418 -164.5t161 -434.5zM954 680q-27 91 -106.5 148t-184.5 57q-114 0 -200 -64
q-54 -40 -100 -141h591zM658 1573q60 0 102 -42t42 -101q0 -60 -42 -102t-102 -42q-59 0 -101 42t-42 102q0 59 42 101t101 42z" />
    <glyph glyph-name="Eogonek" unicode="&#x118;" horiz-adv-x="1065" 
d="M169 1471h803v-274h-525v-266h525v-269h-525v-387h525v-275h-803v1471zM693 0h144q-140 -83 -140 -165q0 -41 29 -67t75 -26q34 0 87 27v-159q-69 -15 -128 -15q-118 0 -181 54t-63 135q0 61 45 119t132 97z" />
    <glyph glyph-name="eogonek" unicode="&#x119;" horiz-adv-x="1311" 
d="M1228 465h-877q19 -116 101.5 -184.5t210.5 -68.5q153 0 263 107l230 -108q-86 -122 -206 -180.5t-285 -58.5q-256 0 -417 161.5t-161 404.5q0 249 160.5 413.5t402.5 164.5q257 0 418 -164.5t161 -434.5zM954 680q-27 91 -106.5 148t-184.5 57q-114 0 -200 -64
q-54 -40 -100 -141h591zM638 0h144q-140 -83 -140 -165q0 -41 29 -67t75 -26q34 0 87 27v-159q-69 -15 -128 -15q-118 0 -181 54t-63 135q0 61 45 119t132 97z" />
    <glyph glyph-name="Ecaron" unicode="&#x11a;" horiz-adv-x="1065" 
d="M169 1471h803v-274h-525v-266h525v-269h-525v-387h525v-275h-803v1471zM194 1868h300l111 -132l108 132h298l-298 -283h-219z" />
    <glyph glyph-name="ecaron" unicode="&#x11b;" horiz-adv-x="1311" 
d="M1228 465h-877q19 -116 101.5 -184.5t210.5 -68.5q153 0 263 107l230 -108q-86 -122 -206 -180.5t-285 -58.5q-256 0 -417 161.5t-161 404.5q0 249 160.5 413.5t402.5 164.5q257 0 418 -164.5t161 -434.5zM954 680q-27 91 -106.5 148t-184.5 57q-114 0 -200 -64
q-54 -40 -100 -141h591zM247 1570h300l111 -132l108 132h298l-298 -283h-219z" />
    <glyph glyph-name="Gcircumflex" unicode="&#x11c;" horiz-adv-x="1720" 
d="M1526 1231l-197 -195q-187 198 -436 198q-217 0 -363.5 -144t-146.5 -350q0 -213 152 -361t375 -148q145 0 244.5 61t160.5 191h-426v263h740l2 -62q0 -193 -100 -366t-259 -264t-373 -91q-229 0 -408.5 99.5t-284 283.5t-104.5 397q0 292 193 508q229 257 596 257
q192 0 359 -71q141 -60 276 -206zM458 1585l300 283h219l298 -283h-298l-108 131l-111 -131h-300z" />
    <glyph glyph-name="gcircumflex" unicode="&#x11d;" horiz-adv-x="1352" 
d="M942 1088h272v-932q0 -276 -111 -406q-149 -176 -449 -176q-160 0 -269 40t-184 117.5t-111 188.5h301q40 -46 103 -69.5t149 -23.5q110 0 177 34t94.5 88t27.5 186q-72 -72 -151 -103.5t-179 -31.5q-219 0 -370 158t-151 400q0 259 160 416q145 142 346 142
q94 0 177.5 -34.5t167.5 -113.5v120zM659 861q-129 0 -213 -86.5t-84 -217.5q0 -136 86 -223t216 -87q127 0 209.5 85t82.5 223q0 136 -83 221t-214 85zM243 1287l300 283h219l298 -283h-298l-108 131l-111 -131h-300z" />
    <glyph glyph-name="Gbreve" unicode="&#x11e;" horiz-adv-x="1720" 
d="M1526 1231l-197 -195q-187 198 -436 198q-217 0 -363.5 -144t-146.5 -350q0 -213 152 -361t375 -148q145 0 244.5 61t160.5 191h-426v263h740l2 -62q0 -193 -100 -366t-259 -264t-373 -91q-229 0 -408.5 99.5t-284 283.5t-104.5 397q0 292 193 508q229 257 596 257
q192 0 359 -71q141 -60 276 -206zM453 1864h221q26 -41 72.5 -61.5t113.5 -20.5q68 0 123 24q36 16 63 58h221q-19 -127 -121.5 -204t-286.5 -77q-124 0 -207.5 34.5t-134.5 98.5t-64 148z" />
    <glyph glyph-name="gbreve" unicode="&#x11f;" horiz-adv-x="1352" 
d="M942 1088h272v-932q0 -276 -111 -406q-149 -176 -449 -176q-160 0 -269 40t-184 117.5t-111 188.5h301q40 -46 103 -69.5t149 -23.5q110 0 177 34t94.5 88t27.5 186q-72 -72 -151 -103.5t-179 -31.5q-219 0 -370 158t-151 400q0 259 160 416q145 142 346 142
q94 0 177.5 -34.5t167.5 -113.5v120zM659 861q-129 0 -213 -86.5t-84 -217.5q0 -136 86 -223t216 -87q127 0 209.5 85t82.5 223q0 136 -83 221t-214 85zM305 1568h221q26 -41 72.5 -61.5t113.5 -20.5q68 0 123 24q36 16 63 58h221q-19 -127 -121.5 -204t-286.5 -77
q-124 0 -207.5 34.5t-134.5 98.5t-64 148z" />
    <glyph glyph-name="Gdot" unicode="&#x120;" horiz-adv-x="1720" 
d="M1526 1231l-197 -195q-187 198 -436 198q-217 0 -363.5 -144t-146.5 -350q0 -213 152 -361t375 -148q145 0 244.5 61t160.5 191h-426v263h740l2 -62q0 -193 -100 -366t-259 -264t-373 -91q-229 0 -408.5 99.5t-284 283.5t-104.5 397q0 292 193 508q229 257 596 257
q192 0 359 -71q141 -60 276 -206zM866 1871q60 0 102 -42t42 -101q0 -60 -42 -102t-102 -42q-59 0 -101 42t-42 102q0 59 42 101t101 42z" />
    <glyph glyph-name="gdot" unicode="&#x121;" horiz-adv-x="1352" 
d="M942 1088h272v-932q0 -276 -111 -406q-149 -176 -449 -176q-160 0 -269 40t-184 117.5t-111 188.5h301q40 -46 103 -69.5t149 -23.5q110 0 177 34t94.5 88t27.5 186q-72 -72 -151 -103.5t-179 -31.5q-219 0 -370 158t-151 400q0 259 160 416q145 142 346 142
q94 0 177.5 -34.5t167.5 -113.5v120zM659 861q-129 0 -213 -86.5t-84 -217.5q0 -136 86 -223t216 -87q127 0 209.5 85t82.5 223q0 136 -83 221t-214 85zM651 1573q60 0 102 -42t42 -101q0 -60 -42 -102t-102 -42q-59 0 -101 42t-42 102q0 59 42 101t101 42z" />
    <glyph glyph-name="Gcedilla" unicode="&#x122;" horiz-adv-x="1720" 
d="M1526 1231l-197 -195q-187 198 -436 198q-217 0 -363.5 -144t-146.5 -350q0 -213 152 -361t375 -148q145 0 244.5 61t160.5 191h-426v263h740l2 -62q0 -193 -100 -366t-259 -264t-373 -91q-229 0 -408.5 99.5t-284 283.5t-104.5 397q0 292 193 508q229 257 596 257
q192 0 359 -71q141 -60 276 -206zM787 16h169l-12 -46q67 -15 105.5 -58.5t38.5 -95.5q0 -81 -68 -139t-189 -58q-98 0 -222 46l36 129q72 -23 141 -23q51 0 76 19.5t25 51.5q0 26 -19 41t-60 15l-56 -2z" />
    <glyph glyph-name="gcedilla" unicode="&#x123;" horiz-adv-x="1352" 
d="M942 1088h272v-932q0 -276 -111 -406q-149 -176 -449 -176q-160 0 -269 40t-184 117.5t-111 188.5h301q40 -46 103 -69.5t149 -23.5q110 0 177 34t94.5 88t27.5 186q-72 -72 -151 -103.5t-179 -31.5q-219 0 -370 158t-151 400q0 259 160 416q145 142 346 142
q94 0 177.5 -34.5t167.5 -113.5v120zM659 861q-129 0 -213 -86.5t-84 -217.5q0 -136 86 -223t216 -87q127 0 209.5 85t82.5 223q0 136 -83 221t-214 85zM803 1247h-252v139q0 131 32.5 226.5t109.5 195.5l98 -77q-37 -54 -54.5 -93t-34.5 -104h101v-287z" />
    <glyph glyph-name="Hcircumflex" unicode="&#x124;" horiz-adv-x="1393" 
d="M167 1471h284v-555h492v555h283v-1471h-283v645h-492v-645h-284v1471zM288 1585l300 283h219l298 -283h-298l-108 131l-111 -131h-300z" />
    <glyph glyph-name="hcircumflex" unicode="&#x125;" 
d="M137 1508h271v-530q80 69 161 103.5t164 34.5q162 0 273 -112q95 -97 95 -285v-719h-269v477q0 189 -18 256t-61.5 100t-107.5 33q-83 0 -142.5 -55t-82.5 -150q-12 -49 -12 -224v-437h-271v1508zM211 1583l300 283h219l298 -283h-298l-108 131l-111 -131h-300z" />
    <glyph glyph-name="Hbar" unicode="&#x126;" horiz-adv-x="1393" 
d="M450 1292h492v179h283v-179h133v-163h-133v-1129h-283v645h-492v-645h-283v1129h-133v163h133v179h283v-179zM450 1129v-213h492v213h-492z" />
    <glyph glyph-name="hbar" unicode="&#x127;" 
d="M410 1384h321v-163h-321v-243q153 138 323 138q164 0 268.5 -103t104.5 -294v-719h-273v477q0 166 -13.5 238t-58 111.5t-114.5 39.5q-83 0 -143 -55t-77 -128t-17 -246v-437h-273v1221h-137v163h137v124h273v-124z" />
    <glyph glyph-name="Itilde" unicode="&#x128;" horiz-adv-x="573" 
d="M148 1471h278v-1471h-278v1471zM-20 1589l-110 165q128 99 259 99q49 0 168 -34q81 -22 129 -22q84 0 174 52l104 -156q-126 -108 -244 -108q-63 0 -151 27q-72 21 -91 25q-26 4 -62 4q-88 0 -176 -52z" />
    <glyph glyph-name="itilde" unicode="&#x129;" horiz-adv-x="491" 
d="M109 1088h274v-1088h-274v1088zM-61 1291l-110 165q128 99 259 99q49 0 168 -34q81 -22 129 -22q84 0 174 52l104 -156q-126 -108 -244 -108q-63 0 -151 27q-72 21 -91 25q-26 4 -62 4q-88 0 -176 -52z" />
    <glyph glyph-name="Imacron" unicode="&#x12a;" horiz-adv-x="573" 
d="M148 1471h278v-1471h-278v1471zM2 1585v221h569v-221h-569z" />
    <glyph glyph-name="imacron" unicode="&#x12b;" horiz-adv-x="491" 
d="M109 1088h274v-1088h-274v1088zM-39 1287v221h569v-221h-569z" />
    <glyph glyph-name="Ibreve" unicode="&#x12c;" horiz-adv-x="573" 
d="M148 1471h278v-1471h-278v1471zM-120 1866h221q26 -41 72.5 -61.5t113.5 -20.5q68 0 123 24q36 16 63 58h221q-19 -127 -121.5 -204t-286.5 -77q-124 0 -207.5 34.5t-134.5 98.5t-64 148z" />
    <glyph glyph-name="ibreve" unicode="&#x12d;" horiz-adv-x="491" 
d="M109 1088h274v-1088h-274v1088zM-162 1568h221q26 -41 72.5 -61.5t113.5 -20.5q68 0 123 24q36 16 63 58h221q-19 -127 -121.5 -204t-286.5 -77q-124 0 -207.5 34.5t-134.5 98.5t-64 148z" />
    <glyph glyph-name="Iogonek" unicode="&#x12e;" horiz-adv-x="573" 
d="M148 1471h278v-1471h-278v1471zM282 0h144q-140 -83 -140 -165q0 -41 29 -67t75 -26q34 0 87 27v-159q-69 -15 -128 -15q-118 0 -181 54t-63 135q0 61 45 119t132 97z" />
    <glyph glyph-name="iogonek" unicode="&#x12f;" horiz-adv-x="491" 
d="M245 1536q72 0 123.5 -52t51.5 -126q0 -73 -51 -124.5t-122 -51.5q-73 0 -124.5 52.5t-51.5 127.5q0 72 51 123t123 51zM108 1088h274v-1088h-274v1088zM238 0h144q-140 -83 -140 -165q0 -41 29 -67t75 -26q34 0 87 27v-159q-69 -15 -128 -15q-118 0 -181 54t-63 135
q0 61 45 119t132 97z" />
    <glyph glyph-name="Idot" unicode="&#x130;" horiz-adv-x="573" 
d="M148 1471h278v-1471h-278v1471zM286 1869q60 0 102 -42t42 -101q0 -60 -42 -102t-102 -42q-59 0 -101 42t-42 102q0 59 42 101t101 42z" />
    <glyph glyph-name="dotlessi" unicode="&#x131;" horiz-adv-x="491" 
d="M108 1088h274v-1088h-274v1088z" />
    <glyph glyph-name="IJ" unicode="&#x132;" horiz-adv-x="1556" 
d="M148 1471h278v-1471h-278v1471zM1107 1471h281v-976q0 -204 -27.5 -302t-116.5 -164t-220 -66q-242 0 -413 213l202 189q110 -128 206 -128q51 0 69.5 44t18.5 161v1029z" />
    <glyph glyph-name="ij" unicode="&#x133;" horiz-adv-x="1024" 
d="M936 1361q0 -73 -51.5 -124.5t-124.5 -51.5q-72 0 -124 51.5t-52 124.5t52 124.5t124 51.5q73 0 124.5 -51.5t51.5 -124.5zM423 1361q0 -73 -52 -124.5t-124 -51.5t-124 51.5t-52 124.5q0 72 52 123.5t124 51.5q73 0 124.5 -51t51.5 -124zM110 1088h274v-1088h-274v1088z
M623 1088h274v-1124q0 -241 -83 -315.5t-202 -74.5q-86 0 -205 41v215q62 -31 112 -31q48 0 76 28.5t28 116.5v1144z" />
    <glyph glyph-name="Jcircumflex" unicode="&#x134;" horiz-adv-x="983" 
d="M534 1471h281v-976q0 -233 -37 -327t-122 -149.5t-204 -55.5q-243 0 -414 213l202 189q67 -76 114 -102t91 -26q45 0 67 38t22 167v1029zM156 1585l300 283h219l298 -283h-298l-108 131l-111 -131h-300z" />
    <glyph glyph-name="jcircumflex" unicode="&#x135;" horiz-adv-x="532" 
d="M-142 1287l300 283h219l298 -283h-298l-108 131l-111 -131h-300zM130 1088h274v-1124q0 -240 -83.5 -315t-202.5 -75q-86 0 -205 41v215q63 -31 113 -31q53 0 78.5 31t25.5 114v1144z" />
    <glyph glyph-name="Kcedilla" unicode="&#x136;" horiz-adv-x="1270" 
d="M170 1471h283v-506l399 506h337l-514 -656l564 -815h-332l-454 653v-653h-283v1471zM507 -79q61 4 96 4q117 0 175.5 -52.5t58.5 -122.5q0 -76 -65 -136.5t-192 -60.5q-83 0 -194 36l35 131q70 -16 110 -16q106 0 106 71q0 57 -81 57q-24 0 -75 -5z" />
    <glyph glyph-name="kcedilla" unicode="&#x137;" horiz-adv-x="1188" 
d="M140 1508h273v-869l402 449h342l-468 -522l525 -566h-339l-462 501v-501h-273v1508zM479 -79q61 4 96 4q117 0 175.5 -52.5t58.5 -122.5q0 -76 -65 -136.5t-192 -60.5q-83 0 -194 36l35 131q70 -16 110 -16q106 0 106 71q0 57 -81 57q-24 0 -75 -5z" />
    <glyph glyph-name="kgreenlandic" unicode="&#x138;" horiz-adv-x="1188" 
d="M140 1088h273v-449l402 449h342l-468 -522l525 -566h-339l-462 501v-501h-273v1088z" />
    <glyph glyph-name="Lacute" unicode="&#x139;" horiz-adv-x="901" 
d="M168 1471h280v-1204h408v-267h-688v1471zM453 1977h323l-366 -392h-196z" />
    <glyph glyph-name="lacute" unicode="&#x13a;" horiz-adv-x="491" 
d="M109 1508h273v-1508h-273v1508zM258 1977h323l-366 -392h-196z" />
    <glyph glyph-name="Lcedilla" unicode="&#x13b;" horiz-adv-x="901" 
d="M168 1471h280v-1204h408v-267h-688v1471zM335 -79q61 4 96 4q117 0 175.5 -52.5t58.5 -122.5q0 -76 -65 -136.5t-192 -60.5q-83 0 -194 36l35 131q70 -16 110 -16q106 0 106 71q0 57 -81 57q-24 0 -75 -5z" />
    <glyph glyph-name="lcedilla" unicode="&#x13c;" horiz-adv-x="491" 
d="M109 1508h273v-1508h-273v1508zM118 -79q61 4 96 4q117 0 175.5 -52.5t58.5 -122.5q0 -76 -65 -136.5t-192 -60.5q-83 0 -194 36l35 131q70 -16 110 -16q106 0 106 71q0 57 -81 57q-24 0 -75 -5z" />
    <glyph glyph-name="Lcaron" unicode="&#x13d;" horiz-adv-x="901" 
d="M168 1471h280v-1204h408v-267h-688v1471zM580 1508h252v-138q0 -132 -32.5 -227t-109.5 -196l-98 77q37 54 54.5 93.5t34.5 104.5h-101v286z" />
    <glyph glyph-name="lcaron" unicode="&#x13e;" horiz-adv-x="645" 
d="M109 1508h273v-1508h-273v1508zM480 1508h252v-138q0 -132 -32.5 -227t-109.5 -196l-98 77q37 54 54.5 93.5t34.5 104.5h-101v286z" />
    <glyph glyph-name="Ldot" unicode="&#x13f;" horiz-adv-x="901" 
d="M168 1471h280v-1204h408v-267h-688v1471zM676 897q60 0 102 -41.5t42 -101.5q0 -59 -42 -101t-102 -42q-59 0 -101 42t-42 101q0 60 42 101.5t101 41.5z" />
    <glyph glyph-name="ldot" unicode="&#x140;" horiz-adv-x="711" 
d="M109 1508h273v-1508h-273v1508zM596 897q60 0 102 -41.5t42 -101.5q0 -59 -42 -101t-102 -42q-59 0 -101 42t-42 101q0 60 42 101.5t101 41.5z" />
    <glyph glyph-name="Lslash" unicode="&#x141;" horiz-adv-x="983" 
d="M489 995l224 262v-256l-224 -262v-472h409v-267h-689v411l-168 -197v258l168 196v803h280v-476z" />
    <glyph glyph-name="lslash" unicode="&#x142;" horiz-adv-x="655" 
d="M465 1030l108 122v-248l-108 -122v-782h-274v477l-109 -121v245l109 123v784h274v-478z" />
    <glyph glyph-name="Nacute" unicode="&#x143;" horiz-adv-x="1515" 
d="M169 1471h268l631 -968v968h280v-1471h-269l-630 965v-965h-280v1471zM845 1977h323l-366 -392h-196z" />
    <glyph glyph-name="nacute" unicode="&#x144;" 
d="M138 1088h272v-111q93 78 168.5 108.5t154.5 30.5q162 0 275 -113q95 -96 95 -284v-719h-270v477q0 195 -17.5 259t-61 97.5t-107.5 33.5q-83 0 -142.5 -55.5t-82.5 -153.5q-12 -51 -12 -221v-437h-272v1088zM651 1679h323l-366 -392h-196z" />
    <glyph glyph-name="Ncedilla" unicode="&#x145;" horiz-adv-x="1515" 
d="M169 1471h268l631 -968v968h280v-1471h-269l-630 965v-965h-280v1471zM631 -79q61 4 96 4q117 0 175.5 -52.5t58.5 -122.5q0 -76 -65 -136.5t-192 -60.5q-83 0 -194 36l35 131q70 -16 110 -16q106 0 106 71q0 57 -81 57q-24 0 -75 -5z" />
    <glyph glyph-name="ncedilla" unicode="&#x146;" 
d="M138 1088h272v-111q93 78 168.5 108.5t154.5 30.5q162 0 275 -113q95 -96 95 -284v-719h-270v477q0 195 -17.5 259t-61 97.5t-107.5 33.5q-83 0 -142.5 -55.5t-82.5 -153.5q-12 -51 -12 -221v-437h-272v1088zM500 -79q61 4 96 4q117 0 175.5 -52.5t58.5 -122.5
q0 -76 -65 -136.5t-192 -60.5q-83 0 -194 36l35 131q70 -16 110 -16q106 0 106 71q0 57 -81 57q-24 0 -75 -5z" />
    <glyph glyph-name="Ncaron" unicode="&#x147;" horiz-adv-x="1515" 
d="M169 1471h268l631 -968v968h280v-1471h-269l-630 965v-965h-280v1471zM311 1868h300l111 -132l108 132h298l-298 -283h-219z" />
    <glyph glyph-name="ncaron" unicode="&#x148;" 
d="M138 1088h272v-111q93 78 168.5 108.5t154.5 30.5q162 0 275 -113q95 -96 95 -284v-719h-270v477q0 195 -17.5 259t-61 97.5t-107.5 33.5q-83 0 -142.5 -55.5t-82.5 -153.5q-12 -51 -12 -221v-437h-272v1088zM297 1570h300l111 -132l108 132h298l-298 -283h-219z" />
    <glyph glyph-name="napostrophe" unicode="&#x149;" horiz-adv-x="1317" 
d="M226 1088h272v-111q93 78 168.5 108.5t154.5 30.5q162 0 275 -113q95 -96 95 -284v-719h-270v477q0 195 -17.5 259t-61 97.5t-107.5 33.5q-83 0 -142.5 -55.5t-82.5 -153.5q-12 -51 -12 -221v-437h-272v1088zM-51 1508h252v-138q0 -132 -32.5 -227t-109.5 -196l-98 77
q37 54 54.5 93.5t34.5 104.5h-101v286z" />
    <glyph glyph-name="Eng" unicode="&#x14a;" horiz-adv-x="1622" 
d="M451 1315q173 193 419 193q275 0 465 -216t190 -559q0 -332 -143 -551t-408 -219q-129 0 -221 47t-180 166l199 186q97 -128 197 -128q126 0 200 139t74 342q0 251 -112 387.5t-283 136.5q-212 0 -397 -267v-972h-284v1471h284v-156z" />
    <glyph glyph-name="eng" unicode="&#x14b;" 
d="M1105 719v-755q0 -240 -83 -315t-202 -75q-86 0 -205 41v215q62 -31 112 -31q49 0 77 29t28 116v537q0 170 -12 237.5t-57.5 108t-116.5 40.5q-82 0 -142 -56t-77 -130.5t-17 -243.5v-437h-273v1088h273v-111q159 139 324 139q164 0 267.5 -104.5t103.5 -292.5z" />
    <glyph glyph-name="Omacron" unicode="&#x14c;" horiz-adv-x="1720" 
d="M863 1508q312 0 536.5 -226t224.5 -551q0 -322 -221.5 -545t-537.5 -223q-331 0 -550 229t-219 544q0 211 102 388t280.5 280.5t384.5 103.5zM860 1234q-204 0 -343 -142t-139 -361q0 -244 175 -386q136 -111 312 -111q199 0 339 144t140 355q0 210 -141 355.5
t-343 145.5zM575 1585v221h569v-221h-569z" />
    <glyph glyph-name="omacron" unicode="&#x14d;" horiz-adv-x="1311" 
d="M649 1116q154 0 289.5 -77t211.5 -209t76 -285q0 -154 -76.5 -288t-208.5 -209.5t-291 -75.5q-234 0 -399.5 166.5t-165.5 404.5q0 255 187 425q164 148 377 148zM653 859q-127 0 -211.5 -88.5t-84.5 -226.5q0 -142 83.5 -230t211.5 -88t213 89t85 229t-83.5 227.5
t-213.5 87.5zM371 1287v221h569v-221h-569z" />
    <glyph glyph-name="Obreve" unicode="&#x14e;" horiz-adv-x="1720" 
d="M863 1508q312 0 536.5 -226t224.5 -551q0 -322 -221.5 -545t-537.5 -223q-331 0 -550 229t-219 544q0 211 102 388t280.5 280.5t384.5 103.5zM860 1234q-204 0 -343 -142t-139 -361q0 -244 175 -386q136 -111 312 -111q199 0 339 144t140 355q0 210 -141 355.5
t-343 145.5zM453 1866h221q26 -41 72.5 -61.5t113.5 -20.5q68 0 123 24q36 16 63 58h221q-19 -127 -121.5 -204t-286.5 -77q-124 0 -207.5 34.5t-134.5 98.5t-64 148z" />
    <glyph glyph-name="obreve" unicode="&#x14f;" horiz-adv-x="1311" 
d="M649 1116q154 0 289.5 -77t211.5 -209t76 -285q0 -154 -76.5 -288t-208.5 -209.5t-291 -75.5q-234 0 -399.5 166.5t-165.5 404.5q0 255 187 425q164 148 377 148zM653 859q-127 0 -211.5 -88.5t-84.5 -226.5q0 -142 83.5 -230t211.5 -88t213 89t85 229t-83.5 227.5
t-213.5 87.5zM248 1568h221q26 -41 72.5 -61.5t113.5 -20.5q68 0 123 24q36 16 63 58h221q-19 -127 -121.5 -204t-286.5 -77q-124 0 -207.5 34.5t-134.5 98.5t-64 148z" />
    <glyph glyph-name="Odblacute" unicode="&#x150;" horiz-adv-x="1720" 
d="M863 1508q312 0 536.5 -226t224.5 -551q0 -322 -221.5 -545t-537.5 -223q-331 0 -550 229t-219 544q0 211 102 388t280.5 280.5t384.5 103.5zM860 1234q-204 0 -343 -142t-139 -361q0 -244 175 -386q136 -111 312 -111q199 0 339 144t140 355q0 210 -141 355.5
t-343 145.5zM793 1977h323l-366 -392h-196zM1239 1977h323l-365 -392h-197z" />
    <glyph glyph-name="odblacute" unicode="&#x151;" horiz-adv-x="1311" 
d="M649 1116q154 0 289.5 -77t211.5 -209t76 -285q0 -154 -76.5 -288t-208.5 -209.5t-291 -75.5q-234 0 -399.5 166.5t-165.5 404.5q0 255 187 425q164 148 377 148zM653 859q-127 0 -211.5 -88.5t-84.5 -226.5q0 -142 83.5 -230t211.5 -88t213 89t85 229t-83.5 227.5
t-213.5 87.5zM611 1679h323l-366 -392h-196zM1057 1679h323l-365 -392h-197z" />
    <glyph glyph-name="OE" unicode="&#x152;" horiz-adv-x="2171" 
d="M1305 1471h777v-275h-494v-267h494v-268h-494v-387h494v-274h-777v135q-100 -89 -213.5 -130.5t-251.5 -41.5q-210 0 -379 98t-268 277.5t-99 394.5q0 214 98.5 392t274 280.5t375.5 102.5q125 0 240 -40.5t223 -127.5v131zM835 1239q-186 0 -322 -144.5t-136 -358.5
q0 -147 62 -261t174 -179t242 -65q188 0 318.5 140t130.5 356q0 145 -61.5 262t-172.5 183.5t-235 66.5z" />
    <glyph glyph-name="oe" unicode="&#x153;" horiz-adv-x="2212" 
d="M2131 461h-881q17 -114 101.5 -183.5t213.5 -69.5q141 0 254 102l237 -108q-94 -117 -215.5 -173.5t-278.5 -56.5q-293 0 -452 208q-84 -104 -196 -156t-251 -52q-247 0 -414 166.5t-167 407.5q0 233 170.5 401.5t410.5 168.5q92 0 178.5 -26t158.5 -75q54 -36 110 -110
q172 211 450 211q172 0 303 -79t200.5 -217.5t67.5 -358.5zM1860 675q-31 99 -109.5 152.5t-187.5 53.5q-110 0 -193.5 -57t-110.5 -149h601zM666 869q-88 0 -159 -41.5t-111.5 -117.5t-40.5 -168q0 -91 39.5 -167t108 -116.5t156.5 -40.5q136 0 223.5 90.5t87.5 237.5
q0 138 -88.5 230.5t-215.5 92.5z" />
    <glyph glyph-name="Racute" unicode="&#x154;" horiz-adv-x="1188" 
d="M187 1471h297q244 0 347.5 -43.5t166.5 -144.5t63 -239q0 -145 -69.5 -242.5t-209.5 -147.5l348 -654h-306l-331 623h-26v-623h-280v1471zM467 896h88q134 0 184.5 35t50.5 116q0 48 -25 83.5t-67 51t-154 15.5h-77v-301zM678 1977h323l-366 -392h-196z" />
    <glyph glyph-name="racute" unicode="&#x155;" horiz-adv-x="655" 
d="M74 1088h234v-137q38 81 101 123t138 42q53 0 111 -28l-85 -235q-48 24 -79 24q-63 0 -106.5 -78t-43.5 -306l1 -53v-440h-271v1088zM403 1679h323l-366 -392h-196z" />
    <glyph glyph-name="Rcedilla" unicode="&#x156;" horiz-adv-x="1188" 
d="M187 1471h297q244 0 347.5 -43.5t166.5 -144.5t63 -239q0 -145 -69.5 -242.5t-209.5 -147.5l348 -654h-306l-331 623h-26v-623h-280v1471zM467 896h88q134 0 184.5 35t50.5 116q0 48 -25 83.5t-67 51t-154 15.5h-77v-301zM479 -79q61 4 96 4q117 0 175.5 -52.5
t58.5 -122.5q0 -76 -65 -136.5t-192 -60.5q-83 0 -194 36l35 131q70 -16 110 -16q106 0 106 71q0 57 -81 57q-24 0 -75 -5z" />
    <glyph glyph-name="rcedilla" unicode="&#x157;" horiz-adv-x="655" 
d="M74 1088h234v-137q38 81 101 123t138 42q53 0 111 -28l-85 -235q-48 24 -79 24q-63 0 -106.5 -78t-43.5 -306l1 -53v-440h-271v1088zM212 -79q61 4 96 4q117 0 175.5 -52.5t58.5 -122.5q0 -76 -65 -136.5t-192 -60.5q-83 0 -194 36l35 131q70 -16 110 -16q106 0 106 71
q0 57 -81 57q-24 0 -75 -5z" />
    <glyph glyph-name="Rcaron" unicode="&#x158;" horiz-adv-x="1188" 
d="M187 1471h297q244 0 347.5 -43.5t166.5 -144.5t63 -239q0 -145 -69.5 -242.5t-209.5 -147.5l348 -654h-306l-331 623h-26v-623h-280v1471zM467 896h88q134 0 184.5 35t50.5 116q0 48 -25 83.5t-67 51t-154 15.5h-77v-301zM185 1868h300l111 -132l108 132h298l-298 -283
h-219z" />
    <glyph glyph-name="rcaron" unicode="&#x159;" horiz-adv-x="655" 
d="M74 1088h234v-137q38 81 101 123t138 42q53 0 111 -28l-85 -235q-48 24 -79 24q-63 0 -106.5 -78t-43.5 -306l1 -53v-440h-271v1088zM-81 1570h300l111 -132l108 132h298l-298 -283h-219z" />
    <glyph glyph-name="Sacute" unicode="&#x15a;" horiz-adv-x="1065" 
d="M939 1271l-207 -183q-109 152 -222 152q-55 0 -90 -29.5t-35 -66.5t25 -70q34 -44 205 -189q160 -134 194 -169q85 -86 120.5 -164.5t35.5 -171.5q0 -181 -125 -299t-326 -118q-157 0 -273.5 77t-199.5 242l235 142q106 -195 244 -195q72 0 121 42t49 97q0 50 -37 100
t-163 153q-240 196 -310 302.5t-70 212.5q0 153 116.5 262.5t287.5 109.5q110 0 209.5 -51t215.5 -186zM508 1977h323l-366 -392h-196z" />
    <glyph glyph-name="sacute" unicode="&#x15b;" horiz-adv-x="901" 
d="M804 936l-169 -169q-103 102 -187 102q-46 0 -72 -19.5t-26 -48.5q0 -22 16.5 -40.5t81.5 -50.5l100 -50q158 -78 217 -159t59 -190q0 -145 -106.5 -242t-285.5 -97q-238 0 -380 186l168 183q48 -56 112.5 -90.5t114.5 -34.5q54 0 87 26t33 60q0 63 -119 123l-92 46
q-264 133 -264 333q0 129 99.5 220.5t254.5 91.5q106 0 199.5 -46.5t158.5 -133.5zM478 1679h323l-366 -392h-196z" />
    <glyph glyph-name="Scircumflex" unicode="&#x15c;" horiz-adv-x="1065" 
d="M939 1271l-207 -183q-109 152 -222 152q-55 0 -90 -29.5t-35 -66.5t25 -70q34 -44 205 -189q160 -134 194 -169q85 -86 120.5 -164.5t35.5 -171.5q0 -181 -125 -299t-326 -118q-157 0 -273.5 77t-199.5 242l235 142q106 -195 244 -195q72 0 121 42t49 97q0 50 -37 100
t-163 153q-240 196 -310 302.5t-70 212.5q0 153 116.5 262.5t287.5 109.5q110 0 209.5 -51t215.5 -186zM95 1585l300 283h219l298 -283h-298l-108 131l-111 -131h-300z" />
    <glyph glyph-name="scircumflex" unicode="&#x15d;" horiz-adv-x="901" 
d="M805 936l-169 -169q-103 102 -187 102q-46 0 -72 -19.5t-26 -48.5q0 -22 16.5 -40.5t81.5 -50.5l100 -50q158 -78 217 -159t59 -190q0 -145 -106.5 -242t-285.5 -97q-238 0 -380 186l168 183q48 -56 112.5 -90.5t114.5 -34.5q54 0 87 26t33 60q0 63 -119 123l-92 46
q-264 133 -264 333q0 129 99.5 220.5t254.5 91.5q106 0 199.5 -46.5t158.5 -133.5zM30 1287l300 283h219l298 -283h-298l-108 131l-111 -131h-300z" />
    <glyph glyph-name="Scedilla" unicode="&#x15e;" horiz-adv-x="1065" 
d="M939 1271l-207 -183q-109 152 -222 152q-55 0 -90 -29.5t-35 -66.5t25 -70q34 -44 205 -189q160 -134 194 -169q85 -86 120.5 -164.5t35.5 -171.5q0 -181 -125 -299t-326 -118q-157 0 -273.5 77t-199.5 242l235 142q106 -195 244 -195q72 0 121 42t49 97q0 50 -37 100
t-163 153q-240 196 -310 302.5t-70 212.5q0 153 116.5 262.5t287.5 109.5q110 0 209.5 -51t215.5 -186zM447 16h169l-12 -46q67 -15 105.5 -58.5t38.5 -95.5q0 -81 -68 -139t-189 -58q-98 0 -222 46l36 129q72 -23 141 -23q51 0 76 19.5t25 51.5q0 26 -19 41t-60 15l-56 -2z
" />
    <glyph glyph-name="scedilla" unicode="&#x15f;" horiz-adv-x="901" 
d="M804 936l-169 -169q-103 102 -187 102q-46 0 -72 -19.5t-26 -48.5q0 -22 16.5 -40.5t81.5 -50.5l100 -50q158 -78 217 -159t59 -190q0 -145 -106.5 -242t-285.5 -97q-238 0 -380 186l168 183q48 -56 112.5 -90.5t114.5 -34.5q54 0 87 26t33 60q0 63 -119 123l-92 46
q-264 133 -264 333q0 129 99.5 220.5t254.5 91.5q106 0 199.5 -46.5t158.5 -133.5zM365 16h169l-12 -46q67 -15 105.5 -58.5t38.5 -95.5q0 -81 -68 -139t-189 -58q-98 0 -222 46l36 129q72 -23 141 -23q51 0 76 19.5t25 51.5q0 26 -19 41t-60 15l-56 -2z" />
    <glyph glyph-name="Scaron" unicode="&#x160;" horiz-adv-x="1065" 
d="M939 1271l-207 -183q-109 152 -222 152q-55 0 -90 -29.5t-35 -66.5t25 -70q34 -44 205 -189q160 -134 194 -169q85 -86 120.5 -164.5t35.5 -171.5q0 -181 -125 -299t-326 -118q-157 0 -273.5 77t-199.5 242l235 142q106 -195 244 -195q72 0 121 42t49 97q0 50 -37 100
t-163 153q-240 196 -310 302.5t-70 212.5q0 153 116.5 262.5t287.5 109.5q110 0 209.5 -51t215.5 -186zM124 1868h300l111 -132l108 132h298l-298 -283h-219z" />
    <glyph glyph-name="scaron" unicode="&#x161;" horiz-adv-x="901" 
d="M804 936l-169 -169q-103 102 -187 102q-46 0 -72 -19.5t-26 -48.5q0 -22 16.5 -40.5t81.5 -50.5l100 -50q158 -78 217 -159t59 -190q0 -145 -106.5 -242t-285.5 -97q-238 0 -380 186l168 183q48 -56 112.5 -90.5t114.5 -34.5q54 0 87 26t33 60q0 63 -119 123l-92 46
q-264 133 -264 333q0 129 99.5 220.5t254.5 91.5q106 0 199.5 -46.5t158.5 -133.5zM42 1570h300l111 -132l108 132h298l-298 -283h-219z" />
    <glyph glyph-name="Tcedilla" unicode="&#x162;" horiz-adv-x="860" 
d="M23 1471h813v-276h-264v-1195h-284v1195h-265v276zM340 -121h180v-29q0 -130 -19 -178.5t-81 -99.5l-53 54q47 38 61 88h-88v165z" />
    <glyph glyph-name="tcedilla" unicode="&#x163;" horiz-adv-x="614" 
d="M171 1489h272v-401h162v-235h-162v-853h-272v853h-140v235h140v401zM217 -121h180v-29q0 -130 -19 -178.5t-81 -99.5l-53 54q47 38 61 88h-88v165z" />
    <glyph glyph-name="Tcaron" unicode="&#x164;" horiz-adv-x="860" 
d="M23 1471h813v-276h-268v-1195h-284v1195h-261v276zM24 1868h300l111 -132l108 132h298l-298 -283h-219z" />
    <glyph glyph-name="tcaron" unicode="&#x165;" horiz-adv-x="735" 
d="M595 1508h204v-50q0 -198 -115 -338l-79 61q65 81 72 158h-82v169zM171 1489h272v-401h162v-235h-162v-853h-272v853h-140v235h140v401z" />
    <glyph glyph-name="Tbar" unicode="&#x166;" horiz-adv-x="860" 
d="M572 792h216v-163h-216v-629h-284v629h-217v163h217v403h-265v276h813v-276h-264v-403z" />
    <glyph glyph-name="tbar" unicode="&#x167;" horiz-adv-x="614" 
d="M443 616h186v-163h-186v-453h-272v453h-164v163h164v237h-140v235h140v401h272v-401h162v-235h-162v-237z" />
    <glyph glyph-name="Utilde" unicode="&#x168;" horiz-adv-x="1311" 
d="M158 1471h281v-952q0 -123 21.5 -174t71 -81.5t119.5 -30.5q74 0 127.5 34t74 86.5t20.5 200.5v917h281v-877q0 -222 -25 -308t-95.5 -166t-162.5 -118.5t-214 -38.5q-160 0 -278.5 73.5t-169.5 184t-51 373.5v877zM349 1589l-110 165q128 99 259 99q49 0 168 -34
q81 -22 129 -22q84 0 174 52l104 -156q-126 -108 -244 -108q-63 0 -151 27q-72 21 -91 25q-26 4 -62 4q-88 0 -176 -52z" />
    <glyph glyph-name="utilde" unicode="&#x169;" 
d="M137 1088h276v-524q0 -153 21 -212.5t67.5 -92.5t114.5 -33t115.5 32.5t70.5 95.5q17 47 17 201v533h274v-461q0 -285 -45 -390q-55 -128 -162 -196.5t-272 -68.5q-179 0 -289.5 80t-155.5 223q-32 99 -32 360v453zM308 1291l-110 165q128 99 259 99q49 0 168 -34
q81 -22 129 -22q84 0 174 52l104 -156q-126 -108 -244 -108q-63 0 -151 27q-72 21 -91 25q-26 4 -62 4q-88 0 -176 -52z" />
    <glyph glyph-name="Umacron" unicode="&#x16a;" horiz-adv-x="1311" 
d="M158 1471h281v-952q0 -123 21.5 -174t71 -81.5t119.5 -30.5q74 0 127.5 34t74 86.5t20.5 200.5v917h281v-877q0 -222 -25 -308t-95.5 -166t-162.5 -118.5t-214 -38.5q-160 0 -278.5 73.5t-169.5 184t-51 373.5v877zM372 1585v221h569v-221h-569z" />
    <glyph glyph-name="umacron" unicode="&#x16b;" 
d="M137 1088h276v-524q0 -153 21 -212.5t67.5 -92.5t114.5 -33t115.5 32.5t70.5 95.5q17 47 17 201v533h274v-461q0 -285 -45 -390q-55 -128 -162 -196.5t-272 -68.5q-179 0 -289.5 80t-155.5 223q-32 99 -32 360v453zM330 1287v221h569v-221h-569z" />
    <glyph glyph-name="Ubreve" unicode="&#x16c;" horiz-adv-x="1311" 
d="M158 1471h281v-952q0 -123 21.5 -174t71 -81.5t119.5 -30.5q74 0 127.5 34t74 86.5t20.5 200.5v917h281v-877q0 -222 -25 -308t-95.5 -166t-162.5 -118.5t-214 -38.5q-160 0 -278.5 73.5t-169.5 184t-51 373.5v877zM249 1866h221q26 -41 72.5 -61.5t113.5 -20.5
q68 0 123 24q36 16 63 58h221q-19 -127 -121.5 -204t-286.5 -77q-124 0 -207.5 34.5t-134.5 98.5t-64 148z" />
    <glyph glyph-name="ubreve" unicode="&#x16d;" 
d="M137 1088h276v-524q0 -153 21 -212.5t67.5 -92.5t114.5 -33t115.5 32.5t70.5 95.5q17 47 17 201v533h274v-461q0 -285 -45 -390q-55 -128 -162 -196.5t-272 -68.5q-179 0 -289.5 80t-155.5 223q-32 99 -32 360v453zM208 1568h221q26 -41 72.5 -61.5t113.5 -20.5
q68 0 123 24q36 16 63 58h221q-19 -127 -121.5 -204t-286.5 -77q-124 0 -207.5 34.5t-134.5 98.5t-64 148z" />
    <glyph glyph-name="Uring" unicode="&#x16e;" horiz-adv-x="1311" 
d="M158 1471h281v-952q0 -123 21.5 -174t71 -81.5t119.5 -30.5q74 0 127.5 34t74 86.5t20.5 200.5v917h281v-877q0 -222 -25 -308t-95.5 -166t-162.5 -118.5t-214 -38.5q-160 0 -278.5 73.5t-169.5 184t-51 373.5v877zM668 2032q91 0 155 -65.5t64 -157.5
q0 -93 -64.5 -158.5t-154.5 -65.5t-154.5 65.5t-64.5 158.5q0 92 64 157.5t155 65.5zM668 1903q-34 0 -58 -26t-24 -63q0 -38 24.5 -64t57.5 -26t57.5 26t24.5 64q0 37 -24 63t-58 26z" />
    <glyph glyph-name="uring" unicode="&#x16f;" 
d="M137 1088h276v-524q0 -153 21 -212.5t67.5 -92.5t114.5 -33t115.5 32.5t70.5 95.5q17 47 17 201v533h274v-461q0 -285 -45 -390q-55 -128 -162 -196.5t-272 -68.5q-179 0 -289.5 80t-155.5 223q-32 99 -32 360v453zM571 1734q91 0 155 -65.5t64 -157.5
q0 -93 -64.5 -158.5t-154.5 -65.5t-154.5 65.5t-64.5 158.5q0 92 64 157.5t155 65.5zM571 1605q-34 0 -58 -26t-24 -63q0 -38 24.5 -64t57.5 -26t57.5 26t24.5 64q0 37 -24 63t-58 26z" />
    <glyph glyph-name="Udblacute" unicode="&#x170;" horiz-adv-x="1311" 
d="M158 1471h281v-952q0 -123 21.5 -174t71 -81.5t119.5 -30.5q74 0 127.5 34t74 86.5t20.5 200.5v917h281v-877q0 -222 -25 -308t-95.5 -166t-162.5 -118.5t-214 -38.5q-160 0 -278.5 73.5t-169.5 184t-51 373.5v877zM568 1977h323l-366 -392h-196zM1014 1977h323
l-365 -392h-197z" />
    <glyph glyph-name="udblacute" unicode="&#x171;" 
d="M137 1088h276v-524q0 -153 21 -212.5t67.5 -92.5t114.5 -33t115.5 32.5t70.5 95.5q17 47 17 201v533h274v-461q0 -285 -45 -390q-55 -128 -162 -196.5t-272 -68.5q-179 0 -289.5 80t-155.5 223q-32 99 -32 360v453zM468 1679h323l-366 -392h-196zM914 1679h323l-365 -392
h-197z" />
    <glyph glyph-name="Uogonek" unicode="&#x172;" horiz-adv-x="1311" 
d="M158 1471h281v-952q0 -123 21.5 -174t71 -81.5t119.5 -30.5q74 0 127.5 34t74 86.5t20.5 200.5v917h281v-877q0 -222 -25 -308t-95.5 -166t-162.5 -118.5t-214 -38.5q-160 0 -278.5 73.5t-169.5 184t-51 373.5v877zM673 0h144q-140 -83 -140 -165q0 -41 29 -67t75 -26
q34 0 87 27v-159q-69 -15 -128 -15q-118 0 -181 54t-63 135q0 61 45 119t132 97z" />
    <glyph glyph-name="uogonek" unicode="&#x173;" 
d="M137 1088h276v-524q0 -153 21 -212.5t67.5 -92.5t114.5 -33t115.5 32.5t70.5 95.5q17 47 17 201v533h274v-461q0 -285 -45 -390q-55 -128 -162 -196.5t-272 -68.5q-179 0 -289.5 80t-155.5 223q-32 99 -32 360v453zM642 0h144q-140 -83 -140 -165q0 -41 29 -67t75 -26
q34 0 87 27v-159q-69 -15 -128 -15q-118 0 -181 54t-63 135q0 61 45 119t132 97z" />
    <glyph glyph-name="Wcircumflex" unicode="&#x174;" horiz-adv-x="1843" 
d="M56 1471h276l212 -939l263 939h233l266 -939l210 939h276l-331 -1471h-269l-271 951l-266 -951h-266zM515 1585l300 283h219l298 -283h-298l-108 131l-111 -131h-300z" />
    <glyph glyph-name="wcircumflex" unicode="&#x175;" horiz-adv-x="1638" 
d="M17 1088h267l219 -619l236 619h163l231 -612l219 612h269l-397 -1088h-173l-232 620l-239 -620h-171zM410 1287l300 283h219l298 -283h-298l-108 131l-111 -131h-300z" />
    <glyph glyph-name="Ycircumflex" unicode="&#x176;" horiz-adv-x="1270" 
d="M63 1471h301l274 -528l272 528h297l-430 -834v-637h-282v637zM226 1585l300 283h219l298 -283h-298l-108 131l-111 -131h-300z" />
    <glyph glyph-name="ycircumflex" unicode="&#x177;" horiz-adv-x="1188" 
d="M17 1088h279l283 -683l312 683h280l-682 -1486h-282l224 479zM186 1287l300 283h219l298 -283h-298l-108 131l-111 -131h-300z" />
    <glyph glyph-name="Ydieresis" unicode="&#x178;" horiz-adv-x="1270" 
d="M63 1471h301l274 -528l272 528h297l-430 -834v-637h-282v637zM423 1871q60 0 102 -42t42 -101q0 -60 -42 -102t-102 -42q-59 0 -101 42t-42 102q0 59 42 101t101 42zM866 1871q60 0 102 -42t42 -101q0 -60 -42 -102t-102 -42q-59 0 -101 42t-42 102q0 59 42 101t101 42z
" />
    <glyph glyph-name="Zacute" unicode="&#x179;" horiz-adv-x="1024" 
d="M90 1471h890l-525 -1202h491v-269h-899l523 1194h-480v277zM578 1977h323l-366 -392h-196z" />
    <glyph glyph-name="zacute" unicode="&#x17a;" horiz-adv-x="942" 
d="M91 1088h835l-490 -857h462v-231h-882l492 857h-417v231zM478 1679h323l-366 -392h-196z" />
    <glyph glyph-name="Zdot" unicode="&#x17b;" horiz-adv-x="1024" 
d="M90 1471h890l-525 -1202h491v-269h-899l523 1194h-480v277zM486 1871q60 0 102 -42t42 -101q0 -60 -42 -102t-102 -42q-59 0 -101 42t-42 102q0 59 42 101t101 42z" />
    <glyph glyph-name="zdot" unicode="&#x17c;" horiz-adv-x="942" 
d="M91 1088h835l-490 -857h462v-231h-882l492 857h-417v231zM486 1573q60 0 102 -42t42 -101q0 -60 -42 -102t-102 -42q-59 0 -101 42t-42 102q0 59 42 101t101 42z" />
    <glyph glyph-name="Zcaron" unicode="&#x17d;" horiz-adv-x="1024" 
d="M90 1471h890l-525 -1202h491v-269h-899l523 1194h-480v277zM103 1868h300l111 -132l108 132h298l-298 -283h-219z" />
    <glyph glyph-name="zcaron" unicode="&#x17e;" horiz-adv-x="942" 
d="M91 1088h835l-490 -857h462v-231h-882l492 857h-417v231zM62 1570h300l111 -132l108 132h298l-298 -283h-219z" />
    <glyph glyph-name="longs" unicode="&#x17f;" horiz-adv-x="491" 
d="M566 1497v-208q-58 17 -98 17q-53 0 -69.5 -20t-16.5 -104v-1182h-273v1146q0 176 14.5 237.5t77.5 107t173 45.5q91 0 192 -39z" />
    <glyph glyph-name="florin" unicode="&#x192;" horiz-adv-x="1147" 
d="M1078 1453l-33 -239q-82 59 -139 59q-41 0 -65 -34t-41 -156l-21 -149h224l-34 -234h-226l-106 -756q-20 -146 -59 -219t-102 -112t-137 -39q-58 0 -118 19t-149 71l34 242q95 -74 160 -74q39 0 61 29t36 132l107 707h-227l34 234h227l33 249q26 187 95.5 270t198.5 83
q65 0 117.5 -16.5t129.5 -66.5z" />
    <glyph glyph-name="Aringacute" unicode="&#x1fa;" horiz-adv-x="1515" 
d="M616 1471h284l566 -1471h-291l-115 303h-600l-120 -303h-291zM760 1081l-196 -505h391zM757 1858q91 0 155 -65.5t64 -157.5q0 -93 -64.5 -158.5t-154.5 -65.5t-154.5 65.5t-64.5 158.5q0 92 64 157.5t155 65.5zM757 1729q-34 0 -58 -26t-24 -63q0 -38 24.5 -64t57.5 -26
t57.5 26t24.5 64q0 37 -24 63t-58 26zM805 2297h323l-366 -392h-196z" />
    <glyph glyph-name="aringacute" unicode="&#x1fb;" horiz-adv-x="1352" 
d="M942 1088h272v-1088h-272v115q-80 -76 -160.5 -109.5t-174.5 -33.5q-211 0 -365 163.5t-154 406.5q0 252 149 413t362 161q98 0 184 -37t159 -111v120zM655 864q-127 0 -211 -89.5t-84 -229.5q0 -141 85.5 -232t210.5 -91q129 0 214 89.5t85 234.5q0 142 -85 230t-215 88
zM676 1686q91 0 155 -65.5t64 -157.5q0 -93 -64.5 -158.5t-154.5 -65.5t-154.5 65.5t-64.5 158.5q0 92 64 157.5t155 65.5zM676 1557q-34 0 -58 -26t-24 -63q0 -38 24.5 -64t57.5 -26t57.5 26t24.5 64q0 37 -24 63t-58 26zM724 2168h323l-366 -392h-196z" />
    <glyph glyph-name="AEacute" unicode="&#x1fc;" horiz-adv-x="1843" 
d="M774 1471h963v-274h-517v-267h517v-269h-517v-387h517v-274h-796v304h-449l-147 -304h-288zM941 579v644l-317 -644h317zM1157 1977h323l-366 -392h-196z" />
    <glyph glyph-name="aeacute" unicode="&#x1fd;" horiz-adv-x="2212" 
d="M992 1088h251v-80q136 108 322 108q158 0 291 -76.5t205.5 -211.5t72.5 -303l-2 -62h-876q24 -119 106 -186.5t212 -67.5q75 0 134.5 25t121.5 85l230 -108q-54 -79 -125 -130t-163 -80t-200 -29q-200 0 -329 106v-78h-251v138q-79 -89 -164 -127.5t-196 -38.5
q-231 0 -387 162t-156 407q0 241 159.5 408t380.5 167q121 0 224 -53q71 -36 139 -117v142zM1860 676q-25 93 -101.5 150t-184.5 57q-110 0 -189 -53t-116 -154h591zM683 868q-135 0 -225.5 -92.5t-90.5 -233.5q0 -139 88.5 -230t224.5 -91q141 0 227.5 90t86.5 239
q0 138 -88.5 228t-222.5 90zM1160 1679h323l-366 -392h-196z" />
    <glyph glyph-name="Oslashacute" unicode="&#x1fe;" horiz-adv-x="1720" 
d="M1429 1251q196 -219 196 -520q0 -322 -221.5 -545t-536.5 -223q-239 0 -426 125l-171 -202l-127 106l171 202q-103 105 -160 246t-57 296q0 211 102 387.5t280.5 280.5t383.5 104q238 0 443 -145l161 190l126 -104zM493 405l636 749q-113 80 -267 80q-205 0 -344 -142
t-139 -361q0 -194 114 -326zM1245 1038l-625 -738q112 -66 247 -66q198 0 338 144t140 355q0 169 -100 305zM909 1977h323l-366 -392h-196z" />
    <glyph glyph-name="oslashacute" unicode="&#x1ff;" horiz-adv-x="1352" 
d="M1123 900q124 -160 124 -355q0 -154 -76.5 -288t-208.5 -209.5t-290 -75.5q-168 0 -303 88l-130 -145l-125 107l130 146q-138 159 -138 375q0 254 186 423q164 150 379 150q178 0 331 -103l126 140l123 -110zM423 367l406 453q-68 39 -154 39q-127 0 -212 -88.5
t-85 -226.5q0 -94 45 -177zM939 696l-395 -441q63 -29 131 -29q126 0 211 89t85 229q0 82 -32 152zM727 1679h323l-366 -392h-196z" />
    <glyph glyph-name="circumflex" unicode="&#x2c6;" horiz-adv-x="1106" 
d="M144 1287l300 283h219l298 -283h-298l-108 131l-111 -131h-300z" />
    <glyph glyph-name="caron" unicode="&#x2c7;" horiz-adv-x="1106" 
d="M144 1570h300l111 -132l108 132h298l-298 -283h-219z" />
    <glyph glyph-name="macron" unicode="&#x2c9;" horiz-adv-x="860" 
d="M145 1287v221h569v-221h-569z" />
    <glyph glyph-name="breve" unicode="&#x2d8;" horiz-adv-x="983" 
d="M85 1568h221q26 -41 72.5 -61.5t113.5 -20.5q68 0 123 24q36 16 63 58h221q-19 -127 -121.5 -204t-286.5 -77q-124 0 -207.5 34.5t-134.5 98.5t-64 148z" />
    <glyph glyph-name="dotaccent" unicode="&#x2d9;" horiz-adv-x="573" 
d="M286 1573q60 0 102 -42t42 -101q0 -60 -42 -102t-102 -42q-59 0 -101 42t-42 102q0 59 42 101t101 42z" />
    <glyph glyph-name="ring" unicode="&#x2da;" horiz-adv-x="737" 
d="M368 1734q91 0 155 -65.5t64 -157.5q0 -93 -64.5 -158.5t-154.5 -65.5t-154.5 65.5t-64.5 158.5q0 92 64 157.5t155 65.5zM368 1605q-34 0 -58 -26t-24 -63q0 -38 24.5 -64t57.5 -26t57.5 26t24.5 64q0 37 -24 63t-58 26z" />
    <glyph glyph-name="ogonek" unicode="&#x2db;" horiz-adv-x="696" 
d="M338 0h144q-140 -83 -140 -165q0 -41 29 -67t75 -26q34 0 87 27v-159q-69 -15 -128 -15q-118 0 -181 54t-63 135q0 61 45 119t132 97z" />
    <glyph glyph-name="tilde" unicode="&#x2dc;" horiz-adv-x="983" 
d="M185 1291l-110 165q128 99 259 99q49 0 168 -34q81 -22 129 -22q84 0 174 52l104 -156q-126 -108 -244 -108q-63 0 -151 27q-72 21 -91 25q-26 4 -62 4q-88 0 -176 -52z" />
    <glyph glyph-name="hungarumlaut" unicode="&#x2dd;" horiz-adv-x="1434" 
d="M568 1679h323l-366 -392h-196zM1014 1679h323l-365 -392h-197z" />
    <glyph glyph-name="tonos" unicode="&#x384;" horiz-adv-x="860" 
d="M571 1639l-43 -382h-196l-44 382h283z" />
    <glyph glyph-name="dieresistonos" unicode="&#x385;" horiz-adv-x="860" 
d="M571 1639l-43 -382h-196l-44 382h283zM260 1387q0 -54 -37.5 -91.5t-92.5 -37.5q-54 0 -91.5 37.5t-37.5 91.5t37.5 91.5t91.5 37.5q54 1 92 -36.5t38 -92.5zM858 1387q0 -54 -37.5 -91.5t-91.5 -37.5t-91.5 37.5t-37.5 91.5t37.5 91.5t91.5 37.5q54 1 92 -36.5t37 -92.5
z" />
    <glyph glyph-name="Alphatonos" unicode="&#x386;" horiz-adv-x="1515" 
d="M616 1471h284l566 -1471h-291l-115 303h-600l-120 -303h-291zM760 1081l-196 -505h391zM385 1508l-43 -382h-196l-44 382h283z" />
    <glyph glyph-name="anoteleia" unicode="&#x387;" horiz-adv-x="573" 
d="M444 959q0 -65 -46 -110.5t-111 -45.5q-66 0 -111.5 45t-45.5 111q0 65 45.5 111t111.5 46q65 0 111 -46t46 -111z" />
    <glyph glyph-name="Epsilontonos" unicode="&#x388;" horiz-adv-x="1228" 
d="M332 1471h803v-274h-525v-266h525v-269h-525v-387h525v-275h-803v1471zM183 1508l-43 -382h-196l-44 382h283z" />
    <glyph glyph-name="Etatonos" unicode="&#x389;" horiz-adv-x="1556" 
d="M330 1471h284v-555h492v555h283v-1471h-283v645h-492v-645h-284v1471zM183 1508l-43 -382h-196l-44 382h283z" />
    <glyph glyph-name="Iotatonos" unicode="&#x38a;" horiz-adv-x="736" 
d="M311 1471h278v-1471h-278v1471zM183 1508l-43 -382h-196l-44 382h283z" />
    <glyph glyph-name="Omicrontonos" unicode="&#x38c;" horiz-adv-x="1793" 
d="M936 1508q312 0 536.5 -226t224.5 -551q0 -322 -221.5 -545t-537.5 -223q-331 0 -550 229t-219 544q0 211 102 388t280.5 280.5t384.5 103.5zM933 1234q-204 0 -343 -142t-139 -361q0 -244 175 -386q136 -111 312 -111q199 0 339 144t140 355q0 210 -141 355.5
t-343 145.5zM183 1508l-43 -382h-196l-44 382h283z" />
    <glyph glyph-name="Upsilontonos" unicode="&#x38e;" horiz-adv-x="1443" 
d="M236 1471h301l274 -528l272 528h297l-430 -834v-637h-282v637zM183 1508l-43 -382h-196l-44 382h283z" />
    <glyph glyph-name="Omegatonos" unicode="&#x38f;" horiz-adv-x="1824" 
d="M1351 277h373v-277h-677v333q368 186 368 503q0 181 -125 289t-341 108q-218 0 -342.5 -110.5t-124.5 -286.5q0 -315 368 -503v-333h-677v277h373q-346 222 -346 560q0 303 209 486.5t540 183.5q341 0 544.5 -187t203.5 -483q0 -338 -346 -560zM183 1508l-43 -382h-196
l-44 382h283z" />
    <glyph glyph-name="iotadieresistonos" unicode="&#x390;" horiz-adv-x="491" 
d="M108 1088h274v-1088h-274v1088zM387 1639l-43 -382h-196l-44 382h283zM76 1387q0 -54 -37.5 -91.5t-92.5 -37.5q-54 0 -91.5 37.5t-37.5 91.5t37.5 91.5t91.5 37.5q54 1 92 -36.5t38 -92.5zM674 1387q0 -54 -37.5 -91.5t-91.5 -37.5t-91.5 37.5t-37.5 91.5t37.5 91.5
t91.5 37.5q54 1 92 -36.5t37 -92.5z" />
    <glyph glyph-name="Alpha" unicode="&#x391;" horiz-adv-x="1515" 
d="M616 1471h284l566 -1471h-291l-115 303h-600l-120 -303h-291zM760 1081l-196 -505h391z" />
    <glyph glyph-name="Beta" unicode="&#x392;" horiz-adv-x="1188" 
d="M168 0v1471h231q201 0 294 -26q132 -35 210 -130t78 -224q0 -84 -35.5 -152.5t-115.5 -128.5q134 -63 196 -157.5t62 -223.5q0 -124 -64 -226t-165 -152.5t-279 -50.5h-412zM448 1204v-310h61q102 0 151.5 43t49.5 117q0 69 -47 109.5t-143 40.5h-72zM448 644v-377h70
q174 0 234.5 44t60.5 128q0 95 -71 150t-236 55h-58z" />
    <glyph glyph-name="Gamma" unicode="&#x393;" horiz-adv-x="948" 
d="M167 1471h730v-274h-453v-1197h-277v1471z" />
    <glyph glyph-name="Delta" unicode="&#x394;" horiz-adv-x="1515" 
d="M1444 0h-1368v235l557 1236h251l560 -1236v-235zM1117 275l-360 806l-357 -806h717z" />
    <glyph glyph-name="Epsilon" unicode="&#x395;" horiz-adv-x="1065" 
d="M169 1471h803v-274h-525v-266h525v-269h-525v-387h525v-275h-803v1471z" />
    <glyph glyph-name="Zeta" unicode="&#x396;" horiz-adv-x="1024" 
d="M90 1471h890l-525 -1202h491v-269h-899l523 1194h-480v277z" />
    <glyph glyph-name="Eta" unicode="&#x397;" horiz-adv-x="1393" 
d="M167 1471h284v-555h492v555h283v-1471h-283v645h-492v-645h-284v1471z" />
    <glyph glyph-name="Theta" unicode="&#x398;" horiz-adv-x="1720" 
d="M1624 731q0 -322 -219.5 -545t-539.5 -223q-325 0 -547 224t-222 549q0 326 226.5 549t540.5 223q317 0 539 -226t222 -551zM378 731q0 -223 145.5 -360t341.5 -137q204 0 341.5 145.5t137.5 353.5q0 209 -139.5 355t-344.5 146q-209 0 -345.5 -143.5t-136.5 -359.5z
M598 876h526v-269h-526v269z" />
    <glyph glyph-name="Iota" unicode="&#x399;" horiz-adv-x="573" 
d="M148 1471h278v-1471h-278v1471z" />
    <glyph glyph-name="Kappa" unicode="&#x39a;" horiz-adv-x="1270" 
d="M170 1471h283v-506l399 506h337l-514 -656l564 -815h-332l-454 653v-653h-283v1471z" />
    <glyph glyph-name="Lambda" unicode="&#x39b;" horiz-adv-x="1421" 
d="M1120 0l-407 1081l-414 -1081h-297l567 1471h284l566 -1471h-299z" />
    <glyph glyph-name="Mu" unicode="&#x39c;" horiz-adv-x="1843" 
d="M310 1471h274l340 -1026l345 1026h270l248 -1471h-270l-158 929l-313 -929h-247l-309 929l-161 -929h-273z" />
    <glyph glyph-name="Nu" unicode="&#x39d;" horiz-adv-x="1515" 
d="M169 1471h268l631 -968v968h280v-1471h-269l-630 965v-965h-280v1471z" />
    <glyph glyph-name="Xi" unicode="&#x39e;" horiz-adv-x="1083" 
d="M973 1197h-863v274h863v-274zM973 662h-863v269h863v-269zM973 0h-863v275h863v-275z" />
    <glyph glyph-name="Omicron" unicode="&#x39f;" horiz-adv-x="1720" 
d="M863 1508q312 0 536.5 -226t224.5 -551q0 -322 -221.5 -545t-537.5 -223q-331 0 -550 229t-219 544q0 211 102 388t280.5 280.5t384.5 103.5zM860 1234q-204 0 -343 -142t-139 -361q0 -244 175 -386q136 -111 312 -111q199 0 339 144t140 355q0 210 -141 355.5
t-343 145.5z" />
    <glyph glyph-name="Pi" unicode="&#x3a0;" horiz-adv-x="1393" 
d="M167 1471h1059v-1471h-283v1209h-492v-1209h-284v1471z" />
    <glyph glyph-name="Rho" unicode="&#x3a1;" horiz-adv-x="1147" 
d="M167 1471h297q241 0 347.5 -44.5t168 -144t61.5 -238.5q0 -154 -80.5 -256t-218.5 -142q-81 -23 -295 -23v-623h-280v1471zM447 896h89q105 0 146 15t64.5 49.5t23.5 83.5q0 85 -66 124q-48 29 -178 29h-79v-301z" />
    <glyph glyph-name="Sigma" unicode="&#x3a3;" horiz-adv-x="1027" 
d="M26 0l388 734l-382 737h902v-274h-458l242 -464l-245 -458h474v-275h-921z" />
    <glyph glyph-name="Tau" unicode="&#x3a4;" horiz-adv-x="860" 
d="M23 1471h813v-276h-268v-1195h-284v1195h-261v276z" />
    <glyph glyph-name="Upsilon" unicode="&#x3a5;" horiz-adv-x="1270" 
d="M63 1471h301l274 -528l272 528h297l-430 -834v-637h-282v637z" />
    <glyph glyph-name="Phi" unicode="&#x3a6;" horiz-adv-x="1760" 
d="M1022 148v-148h-284v148q-313 30 -487 184.5t-174 410.5q0 255 186.5 417.5t474.5 179.5v131h284v-131q299 -22 480 -180.5t181 -414.5q0 -274 -176 -431t-485 -166zM1022 1084v-679q376 34 376 340q0 303 -376 339zM738 1084q-376 -33 -376 -340q0 -302 376 -339v679z
" />
    <glyph glyph-name="Chi" unicode="&#x3a7;" horiz-adv-x="1393" 
d="M72 1471h315l308 -471l311 471h315l-468 -712l497 -759h-315l-340 517l-337 -517h-317l497 759z" />
    <glyph glyph-name="Psi" unicode="&#x3a8;" horiz-adv-x="1682" 
d="M981 369v-369h-280v369q-571 68 -571 602v500h281v-467q0 -196 65.5 -273.5t224.5 -101.5v842h280v-843q161 27 225.5 103t64.5 273v467h281v-509q0 -524 -571 -593z" />
    <glyph glyph-name="Omega" unicode="&#x3a9;" horiz-adv-x="1751" 
d="M1278 277h373v-277h-677v333q368 186 368 503q0 181 -125 289t-341 108q-218 0 -342.5 -110.5t-124.5 -286.5q0 -315 368 -503v-333h-677v277h373q-346 222 -346 560q0 303 209 486.5t540 183.5q341 0 544.5 -187t203.5 -483q0 -338 -346 -560z" />
    <glyph glyph-name="Iotadieresis" unicode="&#x3aa;" horiz-adv-x="573" 
d="M148 1471h278v-1471h-278v1471zM65 1871q60 0 102 -42t42 -101q0 -60 -42 -102t-102 -42q-59 0 -101 42t-42 102q0 59 42 101t101 42zM508 1871q60 0 102 -42t42 -101q0 -60 -42 -102t-102 -42q-59 0 -101 42t-42 102q0 59 42 101t101 42z" />
    <glyph glyph-name="Upsilondieresis" unicode="&#x3ab;" horiz-adv-x="1270" 
d="M63 1471h301l274 -528l272 528h297l-430 -834v-637h-282v637zM423 1871q60 0 102 -42t42 -101q0 -60 -42 -102t-102 -42q-59 0 -101 42t-42 102q0 59 42 101t101 42zM866 1871q60 0 102 -42t42 -101q0 -60 -42 -102t-102 -42q-59 0 -101 42t-42 102q0 59 42 101t101 42z
" />
    <glyph glyph-name="alphatonos" unicode="&#x3ac;" horiz-adv-x="1352" 
d="M942 1088h272v-1088h-272v115q-80 -76 -160.5 -109.5t-174.5 -33.5q-211 0 -365 163.5t-154 406.5q0 252 149 413t362 161q98 0 184 -37t159 -111v120zM655 864q-127 0 -211 -89.5t-84 -229.5q0 -141 85.5 -232t210.5 -91q129 0 214 89.5t85 234.5q0 142 -85 230t-215 88
zM817 1639l-43 -382h-196l-44 382h283z" />
    <glyph glyph-name="epsilontonos" unicode="&#x3ad;" horiz-adv-x="897" 
d="M880 96q-144 -124 -365 -124q-187 0 -308 90t-121 248q0 196 203 271q-152 88 -152 230q0 140 104.5 222.5t263.5 82.5q173 0 314 -112l-108 -188q-101 65 -168 65q-55 0 -90.5 -33t-35.5 -82q0 -110 137 -110h54v-195h-71q-62 0 -103 -35.5t-41 -91.5t42.5 -88
t109.5 -32q97 0 213 91zM590 1639l-43 -382h-196l-44 382h283z" />
    <glyph glyph-name="etatonos" unicode="&#x3ae;" 
d="M138 1088h272v-111q165 139 323 139q150 0 260 -98t110 -299v-1117h-270v875q0 148 -9 221.5t-54.5 121t-122.5 47.5q-85 0 -140.5 -49t-76 -127t-20.5 -254v-437h-272v1088zM756 1639l-43 -382h-196l-44 382h283z" />
    <glyph glyph-name="iotatonos" unicode="&#x3af;" horiz-adv-x="491" 
d="M108 1088h274v-1088h-274v1088zM387 1639l-43 -382h-196l-44 382h283z" />
    <glyph glyph-name="upsilondieresistonos" unicode="&#x3b0;" 
d="M110 1089h272v-512q0 -203 58 -277t180 -74q254 0 254 298q0 239 -270 369l148 227q392 -216 392 -599q0 -237 -139.5 -393t-384.5 -156q-165 0 -275.5 57.5t-172.5 174t-62 348.5v537zM756 1639l-43 -382h-196l-44 382h283zM445 1387q0 -54 -37.5 -91.5t-92.5 -37.5
q-54 0 -91.5 37.5t-37.5 91.5t37.5 91.5t91.5 37.5q54 1 92 -36.5t38 -92.5zM1043 1387q0 -54 -37.5 -91.5t-91.5 -37.5t-91.5 37.5t-37.5 91.5t37.5 91.5t91.5 37.5q54 1 92 -36.5t37 -92.5z" />
    <glyph glyph-name="alpha" unicode="&#x3b1;" horiz-adv-x="1352" 
d="M942 1088h272v-1088h-272v115q-80 -76 -160.5 -109.5t-174.5 -33.5q-211 0 -365 163.5t-154 406.5q0 252 149 413t362 161q98 0 184 -37t159 -111v120zM655 864q-127 0 -211 -89.5t-84 -229.5q0 -141 85.5 -232t210.5 -91q129 0 214 89.5t85 234.5q0 142 -85 230t-215 88
z" />
    <glyph glyph-name="beta" unicode="&#x3b2;" horiz-adv-x="1267" 
d="M402 83v-481h-272v1470q0 210 123 337t330 127q191 0 307.5 -104t116.5 -263q0 -158 -161 -274q336 -101 336 -414q0 -230 -137 -369t-357 -139q-179 0 -286 110zM528 716v231q207 31 207 191q0 65 -38.5 106.5t-103.5 41.5q-191 0 -191 -265v-538q0 -120 65.5 -190
t186.5 -70q113 0 184.5 63t71.5 166q0 264 -375 264h-7z" />
    <glyph glyph-name="gamma" unicode="&#x3b3;" horiz-adv-x="1147" 
d="M710 114v-512h-274v511l-415 975h278l275 -642l274 642h277z" />
    <glyph glyph-name="delta" unicode="&#x3b4;" horiz-adv-x="1228" 
d="M397 898q-145 113 -145 263q0 176 127.5 275.5t328.5 99.5q130 0 308 -43l-71 -246q-134 34 -226 34q-195 0 -195 -117q0 -69 58 -106.5t194 -90.5q367 -143 367 -487q0 -214 -154.5 -361t-374.5 -147q-219 0 -374 145t-155 343q0 310 312 438zM614 739
q-107 0 -182 -76.5t-75 -185.5t73.5 -183.5t183.5 -74.5t183.5 74.5t73.5 183.5q0 110 -76 186t-181 76zM614 986z" />
    <glyph glyph-name="epsilon" unicode="&#x3b5;" horiz-adv-x="897" 
d="M880 96q-144 -124 -365 -124q-187 0 -308 90t-121 248q0 196 203 271q-152 88 -152 230q0 140 104.5 222.5t263.5 82.5q173 0 314 -112l-108 -188q-101 65 -168 65q-55 0 -90.5 -33t-35.5 -82q0 -110 137 -110h54v-195h-71q-62 0 -103 -35.5t-41 -91.5t42.5 -88
t109.5 -32q97 0 213 91z" />
    <glyph glyph-name="zeta" unicode="&#x3b6;" horiz-adv-x="974" 
d="M340 -393l58 241q77 -31 174 -31q136 0 136 89q0 63 -69 85q-201 46 -312 95.5t-181 164t-70 281.5q0 177 110.5 340t387.5 381h-408v255h785v-227q-309 -218 -456 -392t-147 -347q0 -124 55 -175t212 -93q229 -61 294 -144.5t65 -207.5q0 -167 -111 -257.5t-292 -90.5
q-98 0 -231 33z" />
    <glyph glyph-name="eta" unicode="&#x3b7;" 
d="M138 1088h272v-111q165 139 323 139q150 0 260 -98t110 -299v-1117h-270v875q0 148 -9 221.5t-54.5 121t-122.5 47.5q-85 0 -140.5 -49t-76 -127t-20.5 -254v-437h-272v1088z" />
    <glyph glyph-name="theta" unicode="&#x3b8;" horiz-adv-x="1341" 
d="M665 -28q-280 0 -430 206.5t-150 573.5q0 358 153.5 571t430.5 213q287 0 437 -203t150 -578q0 -376 -151 -579.5t-440 -203.5zM363 880h612q-37 402 -307 402q-266 0 -305 -402zM973 625h-610q41 -399 304 -399q266 0 306 399z" />
    <glyph glyph-name="iota" unicode="&#x3b9;" horiz-adv-x="491" 
d="M108 1088h274v-1088h-274v1088z" />
    <glyph glyph-name="kappa" unicode="&#x3ba;" horiz-adv-x="1188" 
d="M140 1089h273v-450l402 449h342l-468 -522l525 -566h-339l-462 501v-501h-273v1089z" />
    <glyph glyph-name="lambda" unicode="&#x3bb;" horiz-adv-x="1188" 
d="M1171 0h-280l-312 683l-283 -683h-279l414 1007l-234 501h282z" />
    <glyph glyph-name="mu" unicode="&#x3bc;" 
d="M1097 0h-272v111q-130 -130 -266 -130q-100 0 -157 63v-442h-270v1486h270v-477q0 -148 9 -221.5t54.5 -121t122.5 -47.5q85 0 140.5 49t76 127t20.5 254v437h272v-1088z" />
    <glyph glyph-name="nu" unicode="&#x3bd;" horiz-adv-x="1147" 
d="M21 1088h278l275 -642l274 642h277l-463 -1088h-177z" />
    <glyph glyph-name="xi" unicode="&#x3be;" horiz-adv-x="974" 
d="M340 -392l58 240q86 -31 175 -31q135 0 135 88q0 41 -33.5 59.5t-182.5 55.5q-416 99 -416 440q0 273 251 411q-176 108 -176 304q0 175 128 268t340 93q156 0 320 -46l-74 -244q-126 34 -254 34q-188 0 -188 -144q0 -79 79.5 -123t207.5 -44h147v-255h-226
q-133 0 -208 -59t-75 -168q0 -90 54 -134.5t217 -87.5q232 -61 293.5 -142.5t61.5 -200.5q0 -168 -111.5 -258t-296.5 -90q-100 0 -226 34z" />
    <glyph glyph-name="omicron" unicode="&#x3bf;" horiz-adv-x="1311" 
d="M649 1116q154 0 289.5 -77t211.5 -209t76 -285q0 -154 -76.5 -288t-208.5 -209.5t-291 -75.5q-234 0 -399.5 166.5t-165.5 404.5q0 255 187 425q164 148 377 148zM653 859q-127 0 -211.5 -88.5t-84.5 -226.5q0 -142 83.5 -230t211.5 -88t213 89t85 229t-83.5 227.5
t-213.5 87.5z" />
    <glyph glyph-name="pi" unicode="&#x3c0;" horiz-adv-x="1382" 
d="M1322 833h-180v-833h-272v833h-368v-833h-272v833h-170v255h1262v-255z" />
    <glyph glyph-name="rho" unicode="&#x3c1;" horiz-adv-x="1336" 
d="M384 127v-525h-274v941q0 237 164 405t400 168q237 0 407 -166t170 -405q0 -249 -149 -411t-383 -162q-186 0 -335 155zM382 544q0 -139 81.5 -228.5t213.5 -89.5q131 0 214.5 90t83.5 228q0 139 -82 227t-215 88q-128 0 -212 -88.5t-84 -226.5z" />
    <glyph glyph-name="sigma1" unicode="&#x3c2;" horiz-adv-x="1199" 
d="M1171 868l-227 -125q-124 119 -274 119q-138 0 -223.5 -73.5t-85.5 -206.5q0 -117 71.5 -188t260.5 -125q216 -62 287.5 -143.5t71.5 -203.5q0 -167 -111 -257.5t-292 -90.5q-98 0 -231 33l58 241q74 -31 174 -31q77 0 106.5 20t29.5 69q0 63 -150 98
q-296 69 -423.5 202.5t-127.5 349.5q0 261 162.5 410.5t432.5 149.5q142 0 276.5 -66t214.5 -182z" />
    <glyph glyph-name="sigma" unicode="&#x3c3;" horiz-adv-x="1468" 
d="M1408 833h-272q90 -98 90 -288q0 -235 -165 -404t-411 -169q-236 0 -400.5 166t-164.5 405q0 243 169 408t395 165q93 0 179 -28h580v-255zM653 859q-131 0 -213.5 -90t-82.5 -225q0 -139 81.5 -228.5t213.5 -89.5q131 0 214.5 90t83.5 228q0 139 -82 227t-215 88z
M1311 0z" />
    <glyph glyph-name="tau" unicode="&#x3c4;" horiz-adv-x="852" 
d="M792 833h-230v-833h-272v833h-230v255h732v-255z" />
    <glyph glyph-name="upsilon" unicode="&#x3c5;" 
d="M110 1089h272v-512q0 -203 58 -277t180 -74q254 0 254 298q0 239 -270 369l148 227q392 -216 392 -599q0 -237 -139.5 -393t-384.5 -156q-165 0 -275.5 57.5t-172.5 174t-62 348.5v537z" />
    <glyph glyph-name="phi" unicode="&#x3c6;" horiz-adv-x="1632" 
d="M947 -23v-375h-272v376q-590 61 -590 568q0 171 107.5 320t301.5 242l76 -265q-213 -124 -213 -300q0 -138 74.5 -211t243.5 -100v877q77 7 139 7q342 0 537.5 -149.5t195.5 -420.5q0 -486 -600 -569zM947 857v-625q328 44 328 311q0 293 -328 314z" />
    <glyph glyph-name="chi" unicode="&#x3c7;" horiz-adv-x="1147" 
d="M1100 1088l-381 -702l427 -784h-302l-273 530l-272 -530h-298l423 780l-384 706h302l230 -452l229 452h299z" />
    <glyph glyph-name="psi" unicode="&#x3c8;" horiz-adv-x="1560" 
d="M916 -22v-376h-272v376q-534 60 -534 578v532h272v-460q0 -234 66.5 -302t195.5 -84v846h272v-847q163 23 212.5 106t49.5 281v460h272v-541q0 -507 -534 -569z" />
    <glyph glyph-name="omega" unicode="&#x3c9;" horiz-adv-x="1756" 
d="M878 133q-101 -161 -300 -161q-234 0 -365 141t-131 389q0 269 169.5 436t463.5 181l21 -258q-382 -48 -382 -363q0 -280 213 -280q176 0 176 276v131h269v-131q0 -276 177 -276q213 0 213 280q0 168 -92 251.5t-290 111.5l21 258q290 -14 461.5 -180.5t171.5 -436.5
q0 -248 -131 -389t-365 -141q-212 0 -300 161z" />
    <glyph glyph-name="iotadieresis" unicode="&#x3ca;" horiz-adv-x="491" 
d="M108 1088h274v-1088h-274v1088zM24 1573q60 0 102 -42t42 -101q0 -60 -42 -102t-102 -42q-59 0 -101 42t-42 102q0 59 42 101t101 42zM467 1573q60 0 102 -42t42 -101q0 -60 -42 -102t-102 -42q-59 0 -101 42t-42 102q0 59 42 101t101 42z" />
    <glyph glyph-name="upsilondieresis" unicode="&#x3cb;" 
d="M110 1089h272v-512q0 -203 58 -277t180 -74q254 0 254 298q0 239 -270 369l148 227q392 -216 392 -599q0 -237 -139.5 -393t-384.5 -156q-165 0 -275.5 57.5t-172.5 174t-62 348.5v537zM392 1573q60 0 102 -42t42 -101q0 -60 -42 -102t-102 -42q-59 0 -101 42t-42 102
q0 59 42 101t101 42zM835 1573q60 0 102 -42t42 -101q0 -60 -42 -102t-102 -42q-59 0 -101 42t-42 102q0 59 42 101t101 42z" />
    <glyph glyph-name="omicrontonos" unicode="&#x3cc;" horiz-adv-x="1311" 
d="M649 1116q154 0 289.5 -77t211.5 -209t76 -285q0 -154 -76.5 -288t-208.5 -209.5t-291 -75.5q-234 0 -399.5 166.5t-165.5 404.5q0 255 187 425q164 148 377 148zM653 859q-127 0 -211.5 -88.5t-84.5 -226.5q0 -142 83.5 -230t211.5 -88t213 89t85 229t-83.5 227.5
t-213.5 87.5zM797 1639l-43 -382h-196l-44 382h283z" />
    <glyph glyph-name="upsilontonos" unicode="&#x3cd;" 
d="M110 1089h272v-512q0 -203 58 -277t180 -74q254 0 254 298q0 239 -270 369l148 227q392 -216 392 -599q0 -237 -139.5 -393t-384.5 -156q-165 0 -275.5 57.5t-172.5 174t-62 348.5v537zM756 1639l-43 -382h-196l-44 382h283z" />
    <glyph glyph-name="omegatonos" unicode="&#x3ce;" horiz-adv-x="1756" 
d="M878 133q-101 -161 -300 -161q-234 0 -365 141t-131 389q0 269 169.5 436t463.5 181l21 -258q-382 -48 -382 -363q0 -280 213 -280q176 0 176 276v131h269v-131q0 -276 177 -276q213 0 213 280q0 168 -92 251.5t-290 111.5l21 258q290 -14 461.5 -180.5t171.5 -436.5
q0 -248 -131 -389t-365 -141q-212 0 -300 161zM1019 1639l-43 -382h-196l-44 382h283z" />
    <glyph glyph-name="afii10023" unicode="&#x401;" horiz-adv-x="1065" 
d="M169 1471h803v-274h-525v-266h525v-269h-525v-387h525v-275h-803v1471zM347 1871q60 0 102 -42t42 -101q0 -60 -42 -102t-102 -42q-59 0 -101 42t-42 102q0 59 42 101t101 42zM790 1871q60 0 102 -42t42 -101q0 -60 -42 -102t-102 -42q-59 0 -101 42t-42 102q0 59 42 101
t101 42z" />
    <glyph glyph-name="afii10051" unicode="&#x402;" horiz-adv-x="1413" 
d="M569 0h-285v1195h-264v276h813v-276h-264v-279h120q251 0 382 -43t198.5 -157t67.5 -287q0 -208 -89 -335.5t-265 -127.5q-112 0 -268 47l85 234q66 -24 108 -24q142 0 142 192q0 98 -43.5 150t-117 66t-226.5 14h-94v-645z" />
    <glyph glyph-name="afii10052" unicode="&#x403;" horiz-adv-x="948" 
d="M167 1471h730v-274h-453v-1197h-277v1471zM691 1977h323l-366 -392h-196z" />
    <glyph glyph-name="afii10053" unicode="&#x404;" horiz-adv-x="1597" 
d="M1325 443l190 -198q-172 -170 -322 -226t-317 -56q-351 0 -565.5 221.5t-214.5 553.5q0 346 235 558t549 212q178 0 350 -77t291 -219l-196 -187q-195 211 -450 211q-186 0 -325.5 -117t-159.5 -268h564v-255h-564q57 -191 193 -277.5t297 -86.5q241 0 445 211z" />
    <glyph glyph-name="afii10054" unicode="&#x405;" horiz-adv-x="1065" 
d="M939 1271l-207 -183q-109 152 -222 152q-55 0 -90 -29.5t-35 -66.5t25 -70q34 -44 205 -189q160 -134 194 -169q85 -86 120.5 -164.5t35.5 -171.5q0 -181 -125 -299t-326 -118q-157 0 -273.5 77t-199.5 242l235 142q106 -195 244 -195q72 0 121 42t49 97q0 50 -37 100
t-163 153q-240 196 -310 302.5t-70 212.5q0 153 116.5 262.5t287.5 109.5q110 0 209.5 -51t215.5 -186z" />
    <glyph glyph-name="afii10055" unicode="&#x406;" horiz-adv-x="573" 
d="M148 1471h278v-1471h-278v1471z" />
    <glyph glyph-name="afii10056" unicode="&#x407;" horiz-adv-x="573" 
d="M148 1471h278v-1471h-278v1471zM65 1871q60 0 102 -42t42 -101q0 -60 -42 -102t-102 -42q-59 0 -101 42t-42 102q0 59 42 101t101 42zM508 1871q60 0 102 -42t42 -101q0 -60 -42 -102t-102 -42q-59 0 -101 42t-42 102q0 59 42 101t101 42z" />
    <glyph glyph-name="afii10057" unicode="&#x408;" horiz-adv-x="983" 
d="M534 1471h281v-976q0 -233 -37 -327t-122 -149.5t-204 -55.5q-243 0 -414 213l202 189q67 -76 114 -102t91 -26q45 0 67 38t22 167v1029z" />
    <glyph glyph-name="afii10058" unicode="&#x409;" horiz-adv-x="2034" 
d="M1086 916h293q186 0 296.5 -35.5t196 -154t85.5 -280.5q0 -156 -82 -267.5t-183.5 -145t-272.5 -33.5h-299l-407 1081l-414 -1081h-297l567 1471h284zM1167 666l154 -399h67q174 0 233 43t59 147q0 209 -305 209h-208zM1425 0z" />
    <glyph glyph-name="afii10059" unicode="&#x40a;" horiz-adv-x="1941" 
d="M943 0v648h-492v-648h-284v1471h284v-555h492v555h283v-555h78q287 0 424.5 -135.5t137.5 -332.5q0 -151 -73 -256.5t-170 -148.5t-264 -43h-416zM1226 648v-381h71q175 0 233.5 46.5t58.5 138.5q0 197 -258 197l-47 -1h-58z" />
    <glyph glyph-name="afii10060" unicode="&#x40b;" horiz-adv-x="1403" 
d="M569 1195v-279h93q205 0 301.5 -21t184 -90t123 -167t35.5 -257v-381h-283v376q0 159 -69 214t-267 55h-118v-645h-285v1195h-264v276h813v-276h-264z" />
    <glyph glyph-name="afii10061" unicode="&#x40c;" horiz-adv-x="1266" 
d="M167 1471h283v-506l399 506h337l-514 -656l564 -815h-332l-454 653v-653h-283v1471zM751 1977h323l-366 -392h-196z" />
    <glyph glyph-name="afii10062" unicode="&#x40e;" horiz-adv-x="1313" 
d="M579 336l-522 1135h316l346 -820l284 820h288l-392 -1052q-101 -270 -219.5 -361.5t-252.5 -91.5q-218 0 -402 214l184 185q110 -128 217 -128q48 0 79 23t74 76zM274 1865h221q26 -41 72.5 -61.5t113.5 -20.5q68 0 123 24q36 16 63 58h221q-19 -127 -121.5 -204
t-286.5 -77q-124 0 -207.5 34.5t-134.5 98.5t-64 148z" />
    <glyph glyph-name="afii10145" unicode="&#x40f;" horiz-adv-x="1393" 
d="M167 0v1471h284v-1219h491v1219h284v-1471h-399v-220h-262v220h-398z" />
    <glyph glyph-name="afii10017" unicode="&#x410;" horiz-adv-x="1515" 
d="M616 1471h284l566 -1471h-291l-115 303h-600l-120 -303h-291zM760 1081l-196 -505h391z" />
    <glyph glyph-name="afii10018" unicode="&#x411;" horiz-adv-x="1165" 
d="M167 0v1471h769v-273h-489v-282h61q186 0 304 -41t196.5 -154.5t78.5 -268.5q0 -154 -59 -245.5t-162.5 -149t-286.5 -57.5h-412zM447 666v-399h70q192 0 243 50t51 135q0 214 -306 214h-58z" />
    <glyph glyph-name="afii10019" unicode="&#x412;" horiz-adv-x="1188" 
d="M168 0v1471h231q201 0 294 -26q132 -35 210 -130t78 -224q0 -84 -35.5 -152.5t-115.5 -128.5q134 -63 196 -157.5t62 -223.5q0 -124 -64 -226t-165 -152.5t-279 -50.5h-412zM448 1204v-310h61q102 0 151.5 43t49.5 117q0 69 -47 109.5t-143 40.5h-72zM448 644v-377h70
q174 0 234.5 44t60.5 128q0 95 -71 150t-236 55h-58z" />
    <glyph glyph-name="afii10020" unicode="&#x413;" horiz-adv-x="948" 
d="M167 1471h730v-274h-453v-1197h-277v1471z" />
    <glyph glyph-name="afii10021" unicode="&#x414;" horiz-adv-x="1579" 
d="M646 1471h283l473 -1208h164v-483h-271v220h-1012v-220h-271v483h163zM790 1081l-322 -818h643z" />
    <glyph glyph-name="afii10022" unicode="&#x415;" horiz-adv-x="1065" 
d="M169 1471h803v-274h-525v-266h525v-269h-525v-387h525v-275h-803v1471z" />
    <glyph glyph-name="afii10024" unicode="&#x416;" horiz-adv-x="1915" 
d="M815 653l-39 42l-414 -695h-332l543 851l-493 620h337l398 -526v526h284v-526l398 526h338l-494 -620l543 -851h-332l-414 695l-39 -42v-653h-284v653z" />
    <glyph glyph-name="afii10025" unicode="&#x417;" horiz-adv-x="1094" 
d="M238 383q111 -155 260 -155q99 0 160 56t61 149q0 91 -59.5 151t-246.5 60h-60v250h60q111 0 168.5 51t57.5 137q0 79 -48 125t-127 46q-94 0 -193 -93l-165 184q133 120 222 143.5t164 23.5q180 0 302.5 -105t122.5 -283q0 -79 -27.5 -154t-153.5 -159
q258 -115 258 -393q0 -205 -137.5 -329.5t-353.5 -124.5q-136 0 -244 49.5t-235 213.5z" />
    <glyph glyph-name="afii10026" unicode="&#x418;" horiz-adv-x="1407" 
d="M1240 1471v-1471h-280v921l-549 -921h-244v1471h280v-951l557 951h236z" />
    <glyph glyph-name="afii10027" unicode="&#x419;" horiz-adv-x="1407" 
d="M1240 1471v-1471h-280v921l-549 -921h-244v1471h280v-951l557 951h236zM306 1865h221q26 -41 72.5 -61.5t113.5 -20.5q68 0 123 24q36 16 63 58h221q-19 -127 -121.5 -204t-286.5 -77q-124 0 -207.5 34.5t-134.5 98.5t-64 148z" />
    <glyph glyph-name="afii10028" unicode="&#x41a;" horiz-adv-x="1270" 
d="M170 1471h283v-506l399 506h337l-514 -656l564 -815h-332l-454 653v-653h-283v1471z" />
    <glyph glyph-name="afii10029" unicode="&#x41b;" horiz-adv-x="1421" 
d="M1120 0l-407 1081l-414 -1081h-297l567 1471h284l566 -1471h-299z" />
    <glyph glyph-name="afii10030" unicode="&#x41c;" horiz-adv-x="1843" 
d="M310 1471h274l340 -1026l345 1026h270l248 -1471h-270l-158 929l-313 -929h-247l-309 929l-161 -929h-273z" />
    <glyph glyph-name="afii10031" unicode="&#x41d;" horiz-adv-x="1393" 
d="M167 1471h284v-555h492v555h283v-1471h-283v645h-492v-645h-284v1471z" />
    <glyph glyph-name="afii10032" unicode="&#x41e;" horiz-adv-x="1720" 
d="M863 1508q312 0 536.5 -226t224.5 -551q0 -322 -221.5 -545t-537.5 -223q-331 0 -550 229t-219 544q0 211 102 388t280.5 280.5t384.5 103.5zM860 1234q-204 0 -343 -142t-139 -361q0 -244 175 -386q136 -111 312 -111q199 0 339 144t140 355q0 210 -141 355.5
t-343 145.5z" />
    <glyph glyph-name="afii10033" unicode="&#x41f;" horiz-adv-x="1393" 
d="M167 1471h1059v-1471h-283v1209h-492v-1209h-284v1471z" />
    <glyph glyph-name="afii10034" unicode="&#x420;" horiz-adv-x="1147" 
d="M167 1471h297q241 0 347.5 -44.5t168 -144t61.5 -238.5q0 -154 -80.5 -256t-218.5 -142q-81 -23 -295 -23v-623h-280v1471zM447 896h89q105 0 146 15t64.5 49.5t23.5 83.5q0 85 -66 124q-48 29 -178 29h-79v-301z" />
    <glyph glyph-name="afii10035" unicode="&#x421;" horiz-adv-x="1597" 
d="M1520 1212l-196 -187q-200 211 -450 211q-211 0 -355.5 -144t-144.5 -355q0 -147 64 -261t181 -179t260 -65q122 0 223 45.5t222 165.5l190 -198q-163 -159 -308 -220.5t-331 -61.5q-343 0 -561.5 217.5t-218.5 557.5q0 220 99.5 391t285 275t399.5 104q182 0 350.5 -77
t290.5 -219z" />
    <glyph glyph-name="afii10036" unicode="&#x422;" horiz-adv-x="860" 
d="M23 1471h813v-276h-268v-1195h-284v1195h-261v276z" />
    <glyph glyph-name="afii10037" unicode="&#x423;" horiz-adv-x="1313" 
d="M579 336l-522 1135h316l346 -820l284 820h288l-392 -1052q-101 -270 -219.5 -361.5t-252.5 -91.5q-218 0 -402 214l184 185q110 -128 217 -128q48 0 79 23t74 76z" />
    <glyph glyph-name="afii10038" unicode="&#x424;" horiz-adv-x="1544" 
d="M904 1471v-190h62q530 0 530 -437q0 -124 -41.5 -210.5t-122 -143t-166 -74t-262.5 -17.5v-399h-282v399q-185 0 -303.5 37t-194.5 140.5t-76 259.5q0 147 61 248t172.5 149t340.5 48v190h282zM622 1023h-65q-147 0 -196 -47.5t-49 -138.5q0 -107 59.5 -148t174.5 -41h76
v375zM904 1023v-375h92q142 0 188 53t46 138q0 87 -48.5 135.5t-195.5 48.5h-82z" />
    <glyph glyph-name="afii10039" unicode="&#x425;" horiz-adv-x="1393" 
d="M72 1471h315l308 -471l311 471h315l-468 -712l497 -759h-315l-340 517l-337 -517h-317l497 759z" />
    <glyph glyph-name="afii10040" unicode="&#x426;" horiz-adv-x="1536" 
d="M167 0v1471h284v-1219h492v1219h283v-1219h299v-472h-262v220h-1096z" />
    <glyph glyph-name="afii10041" unicode="&#x427;" horiz-adv-x="1262" 
d="M812 644h-94q-203 0 -299.5 21t-184.5 89.5t-124 166t-36 258.5v292h284v-287q0 -150 54 -209t230 -59h170v555h282v-1471h-282v644z" />
    <glyph glyph-name="afii10042" unicode="&#x428;" horiz-adv-x="1976" 
d="M844 252v1219h282v-1219h400v1219h284v-1471h-1643v1471h284v-1219h393z" />
    <glyph glyph-name="afii10043" unicode="&#x429;" horiz-adv-x="2097" 
d="M1504 252v1219h282v-1219h300v-472h-262v220h-1681v1471h284v-1219h393v1219h282v-1219h402zM1976 0z" />
    <glyph glyph-name="afii10044" unicode="&#x42a;" horiz-adv-x="1337" 
d="M341 0v1208h-329v263h608v-555h62q174 0 290 -40t202.5 -155t86.5 -274q0 -149 -75.5 -256.5t-172.5 -149t-260 -41.5h-412zM620 666v-399h71q156 0 225 41.5t69 148.5q0 209 -307 209h-58z" />
    <glyph glyph-name="afii10045" unicode="&#x42b;" horiz-adv-x="1735" 
d="M1290 1471h278v-1471h-278v1471zM167 0v1471h280v-555h61q175 0 291.5 -40.5t201.5 -154t85 -273.5q0 -151 -73 -256t-169.5 -148.5t-264.5 -43.5h-412zM447 666v-399h70q174 0 233 43t59 147q0 209 -304 209h-58z" />
    <glyph glyph-name="afii10046" unicode="&#x42c;" horiz-adv-x="1163" 
d="M167 0v1471h280v-555h61q175 0 291.5 -40.5t201.5 -154t85 -273.5q0 -151 -73 -256t-169.5 -148.5t-264.5 -43.5h-412zM447 666v-399h70q174 0 233 43t59 147q0 209 -304 209h-58z" />
    <glyph glyph-name="afii10047" unicode="&#x42d;" horiz-adv-x="1597" 
d="M272 443l-190 -198q172 -170 322 -226t317 -56q351 0 565.5 221.5t214.5 553.5q0 346 -235 558t-549 212q-178 0 -350 -77t-291 -219l196 -187q195 211 450 211q186 0 325.5 -117t159.5 -268h-564v-255h564q-57 -191 -193 -277.5t-297 -86.5q-241 0 -445 211z" />
    <glyph glyph-name="afii10048" unicode="&#x42e;" horiz-adv-x="2251" 
d="M445 916h190q132 335 332.5 463.5t424.5 128.5q304 0 533 -222.5t229 -554.5q0 -322 -222 -545t-537 -223q-281 0 -508.5 184.5t-251.5 496.5h-190v-644h-278v1471h278v-555zM1873 733q0 201 -137 351t-346 150q-197 0 -339.5 -139t-142.5 -364q0 -223 146 -360t341 -137
q199 0 338.5 145t139.5 354z" />
    <glyph glyph-name="afii10049" unicode="&#x42f;" horiz-adv-x="1202" 
d="M1035 1471v-1471h-280v592h-70l-296 -592h-306l333 638q-290 83 -290 386q0 108 30.5 188t87 135.5t131 82t118.5 30.5t245 11h297zM755 865v332h-77q-105 0 -151 -12.5t-75 -54t-29 -102.5q0 -91 58 -127t186 -36h88z" />
    <glyph glyph-name="afii10065" unicode="&#x430;" horiz-adv-x="1352" 
d="M942 1088h272v-1088h-272v115q-80 -76 -160.5 -109.5t-174.5 -33.5q-211 0 -365 163.5t-154 406.5q0 252 149 413t362 161q98 0 184 -37t159 -111v120zM655 864q-127 0 -211 -89.5t-84 -229.5q0 -141 85.5 -232t210.5 -91q129 0 214 89.5t85 234.5q0 142 -85 230t-215 88
z" />
    <glyph glyph-name="afii10066" unicode="&#x431;" horiz-adv-x="1335" 
d="M1178 1531v-258q-117 -13 -227 -14q-200 -2 -301 -17.5t-178 -72t-109 -130t-39 -211.5q118 283 405 283q211 0 365.5 -154.5t154.5 -398.5q0 -252 -166 -419t-410 -167q-199 0 -350.5 122t-194.5 290.5t-43 359.5q0 245 61 398.5t160.5 230.5t230.5 103t385 37
q172 8 256 18zM973 544q0 136 -81.5 225.5t-215.5 89.5q-128 0 -212 -90t-84 -225q0 -142 83.5 -229.5t211.5 -87.5q126 0 212 87.5t86 229.5zM361 10z" />
    <glyph glyph-name="afii10067" unicode="&#x432;" horiz-adv-x="1096" 
d="M138 0v1088h437q215 0 292 -84.5t77 -191.5q0 -159 -158 -229q216 -74 216 -279q0 -111 -57 -183.5t-144.5 -96.5t-244.5 -24h-418zM412 660h105q67 0 103.5 33.5t36.5 74.5q0 61 -35 95t-83 34l-35 -1h-92v-236zM412 210h137q80 0 112.5 37.5t32.5 73.5q0 53 -36.5 97
t-131.5 44h-114v-252z" />
    <glyph glyph-name="afii10068" unicode="&#x433;" horiz-adv-x="819" 
d="M137 1088h635v-260h-361v-828h-274v1088z" />
    <glyph glyph-name="afii10069" unicode="&#x434;" horiz-adv-x="1333" 
d="M279 0v-189h-243v420h164l375 857h176l380 -857h167v-420h-260v189h-759zM841 231l-178 458l-184 -458h362z" />
    <glyph glyph-name="afii10070" unicode="&#x435;" horiz-adv-x="1311" 
d="M1228 465h-877q19 -116 101.5 -184.5t210.5 -68.5q153 0 263 107l230 -108q-86 -122 -206 -180.5t-285 -58.5q-256 0 -417 161.5t-161 404.5q0 249 160.5 413.5t402.5 164.5q257 0 418 -164.5t161 -434.5zM954 680q-27 91 -106.5 148t-184.5 57q-114 0 -200 -64
q-54 -40 -100 -141h591z" />
    <glyph glyph-name="afii10072" unicode="&#x436;" horiz-adv-x="1651" 
d="M689 350l-29 34l-324 -384h-362l491 558l-485 530h333l376 -407v407h273v-407l375 407h334l-485 -530l491 -558h-362l-324 384l-29 -34v-350h-273v350z" />
    <glyph glyph-name="afii10073" unicode="&#x437;" horiz-adv-x="922" 
d="M320 461v195h54q55 0 96 26t41 84q0 50 -36.5 82.5t-89.5 32.5q-67 0 -168 -65l-108 188q141 112 314 112q159 0 263.5 -82.5t104.5 -222.5q0 -142 -152 -230q203 -75 203 -271q0 -146 -114 -242t-315 -96q-221 0 -365 124l151 190q97 -72 184 -72q70 0 111 33.5t41 86.5
q0 51 -38.5 89t-105.5 38h-71z" />
    <glyph glyph-name="afii10074" unicode="&#x438;" 
d="M282 0h-145v1088h266v-639l557 639h131v-1088h-266v626z" />
    <glyph glyph-name="afii10075" unicode="&#x439;" 
d="M282 0h-145v1088h266v-639l557 639h131v-1088h-266v626zM217 1568h221q26 -41 72.5 -61.5t113.5 -20.5q68 0 123 24q36 16 63 58h221q-19 -127 -121.5 -204t-286.5 -77q-124 0 -207.5 34.5t-134.5 98.5t-64 148z" />
    <glyph glyph-name="afii10076" unicode="&#x43a;" horiz-adv-x="1100" 
d="M138 1088h273v-407l376 407h333l-485 -530l491 -558h-362l-324 384l-29 -34v-350h-273v1088z" />
    <glyph glyph-name="afii10077" unicode="&#x43b;" horiz-adv-x="1116" 
d="M1110 0h-278l-272 687l-277 -687h-277l464 1088h176z" />
    <glyph glyph-name="afii10078" unicode="&#x43c;" horiz-adv-x="1604" 
d="M804 402l334 686h180l272 -1088h-267l-145 638l-324 -638h-112l-317 638l-146 -638h-266l272 1088h180z" />
    <glyph glyph-name="afii10079" unicode="&#x43d;" 
d="M411 696h406v392h274v-1088h-274v451h-406v-451h-274v1088h274v-392z" />
    <glyph glyph-name="afii10080" unicode="&#x43e;" horiz-adv-x="1311" 
d="M649 1116q154 0 289.5 -77t211.5 -209t76 -285q0 -154 -76.5 -288t-208.5 -209.5t-291 -75.5q-234 0 -399.5 166.5t-165.5 404.5q0 255 187 425q164 148 377 148zM653 859q-127 0 -211.5 -88.5t-84.5 -226.5q0 -142 83.5 -230t211.5 -88t213 89t85 229t-83.5 227.5
t-213.5 87.5z" />
    <glyph glyph-name="afii10081" unicode="&#x43f;" 
d="M411 0h-274v1088h954v-1088h-274v825h-406v-825z" />
    <glyph glyph-name="afii10082" unicode="&#x440;" horiz-adv-x="1352" 
d="M409 1088v-120q74 74 160 111t184 37q213 0 362 -161t149 -413q0 -243 -154 -406.5t-365 -163.5q-94 0 -175 33.5t-161 109.5v-513h-271v1486h271zM696 864q-129 0 -214 -88t-85 -230q0 -145 85 -234.5t214 -89.5q125 0 210.5 91t85.5 232q0 140 -84 229.5t-212 89.5z
" />
    <glyph glyph-name="afii10083" unicode="&#x441;" horiz-adv-x="1311" 
d="M1203 868l-227 -125q-64 67 -126.5 93t-146.5 26q-153 0 -247.5 -91.5t-94.5 -234.5q0 -139 91 -227t239 -88q183 0 285 125l215 -147q-175 -227 -494 -227q-287 0 -449.5 170t-162.5 398q0 158 79 291t220.5 209t316.5 76q162 0 291 -64.5t211 -183.5z" />
    <glyph glyph-name="afii10084" unicode="&#x442;" horiz-adv-x="1096" 
d="M41 1088h1014v-260h-361v-828h-274v828h-379v260z" />
    <glyph glyph-name="afii10085" unicode="&#x443;" horiz-adv-x="1188" 
d="M17 1088h279l283 -683l312 683h280l-682 -1486h-282l224 479z" />
    <glyph glyph-name="afii10086" unicode="&#x444;" horiz-adv-x="2064" 
d="M897 93q-143 -124 -312 -124q-205 0 -356 162.5t-151 406.5q0 255 147 414.5t353 159.5q184 0 319 -125v521h271v-521q135 129 319 129q131 0 244 -69t184 -198t71 -307q0 -249 -152.5 -409.5t-353.5 -160.5q-169 0 -312 121v-491h-271v491zM1713 544q0 139 -79 228.5
t-204 89.5q-108 0 -188.5 -85.5t-80.5 -243.5q0 -147 77.5 -230t192.5 -83q119 0 200.5 91.5t81.5 232.5zM905 534q0 107 -36 175.5t-96.5 109.5t-137.5 41q-132 0 -207 -93.5t-75 -224.5q0 -140 81 -232t200 -92q115 0 193 82.5t78 233.5z" />
    <glyph glyph-name="afii10087" unicode="&#x445;" horiz-adv-x="1147" 
d="M40 1088h317l213 -297l216 297h314l-372 -515l418 -573h-317l-259 357l-256 -357h-313l412 573z" />
    <glyph glyph-name="afii10088" unicode="&#x446;" horiz-adv-x="1380" 
d="M137 0v1088h274v-826h406v826h274v-826h277v-453h-260v191h-971z" />
    <glyph glyph-name="afii10089" unicode="&#x447;" horiz-adv-x="1139" 
d="M728 432h-219q-222 0 -341.5 85.5t-119.5 281.5v289h274v-268q0 -143 191 -143l106 1h109v410h274v-1088h-274v432z" />
    <glyph glyph-name="afii10090" unicode="&#x448;" horiz-adv-x="1845" 
d="M1707 0h-1570v1088h274v-826h374v826h274v-826h375v826h273v-1088z" />
    <glyph glyph-name="afii10091" unicode="&#x449;" horiz-adv-x="1997" 
d="M1707 262h278v-453h-261v191h-1587v1088h274v-826h374v826h274v-826h375v826h273v-826zM1845 0z" />
    <glyph glyph-name="afii10092" unicode="&#x44a;" horiz-adv-x="1190" 
d="M557 696h81q172 0 263 -26.5t154 -110.5t63 -211q0 -126 -57.5 -209.5t-145.5 -111t-248 -27.5h-384v845h-262v243h536v-392zM557 210h83q74 0 106.5 10.5t58 40.5t25.5 73q0 140 -161 140h-112v-264z" />
    <glyph glyph-name="afii10093" unicode="&#x44b;" horiz-adv-x="1573" 
d="M411 696h81q171 0 262.5 -26.5t154.5 -110.5t63 -211q0 -126 -57 -209.5t-145.5 -111t-248.5 -27.5h-384v1088h274v-392zM411 210h83q74 0 107 10.5t58 40.5t25 73q0 140 -160 140h-113v-264zM1162 1088h273v-1088h-273v1088z" />
    <glyph glyph-name="afii10094" unicode="&#x44c;" horiz-adv-x="1044" 
d="M411 696h81q171 0 262.5 -26.5t154.5 -110.5t63 -211q0 -126 -57 -209.5t-145.5 -111t-248.5 -27.5h-384v1088h274v-392zM411 210h83q74 0 107 10.5t58 40.5t25 73q0 140 -160 140h-113v-264z" />
    <glyph glyph-name="afii10095" unicode="&#x44d;" horiz-adv-x="1278" 
d="M903 430h-365v237h365q-94 197 -318 197q-157 0 -283 -121l-227 125q203 248 502 248q269 0 442.5 -163t173.5 -413q0 -241 -166 -404.5t-447 -163.5q-299 0 -493 227l215 147q100 -129 288 -129q225 0 313 213zM918 544z" />
    <glyph glyph-name="afii10096" unicode="&#x44e;" horiz-adv-x="1771" 
d="M411 0h-274v1088h274v-431h145q50 216 209.5 337.5t344.5 121.5q239 0 407.5 -165.5t168.5 -405.5q0 -235 -164 -404t-411 -169q-197 0 -354.5 124.5t-200.5 310.5h-145v-407zM1411 544q0 140 -83.5 227.5t-214.5 87.5q-128 0 -211.5 -90.5t-83.5 -223.5
q0 -143 83.5 -230.5t211.5 -87.5q126 0 212 87.5t86 229.5z" />
    <glyph glyph-name="afii10097" unicode="&#x44f;" horiz-adv-x="1067" 
d="M323 446q-88 29 -144.5 109.5t-56.5 181.5q0 121 69 212t164.5 115t298.5 24h276v-1088h-274v394h-53l-259 -394h-323zM656 599v261h-95q-155 0 -155 -130q0 -131 173 -131h77z" />
    <glyph glyph-name="afii10071" unicode="&#x451;" horiz-adv-x="1311" 
d="M1228 465h-877q19 -116 101.5 -184.5t210.5 -68.5q153 0 263 107l230 -108q-86 -122 -206 -180.5t-285 -58.5q-256 0 -417 161.5t-161 404.5q0 249 160.5 413.5t402.5 164.5q257 0 418 -164.5t161 -434.5zM954 680q-27 91 -106.5 148t-184.5 57q-114 0 -200 -64
q-54 -40 -100 -141h591zM434 1573q60 0 102 -42t42 -101q0 -60 -42 -102t-102 -42q-59 0 -101 42t-42 102q0 59 42 101t101 42zM877 1573q60 0 102 -42t42 -101q0 -60 -42 -102t-102 -42q-59 0 -101 42t-42 102q0 59 42 101t101 42z" />
    <glyph glyph-name="afii10099" unicode="&#x452;" 
d="M409 978q152 138 327 138q142 0 256 -95t114 -302v-719q0 -117 -18.5 -221t-97.5 -154.5t-172 -50.5q-87 0 -205 41v215q62 -31 114 -31q59 0 84 39.5t25 141.5v497q0 165 -14 238t-58.5 112t-116.5 39q-84 0 -144 -55t-77 -128t-17 -246v-437h-272v1225h-155v174h155
v109h272v-109h347v-174h-347v-247z" />
    <glyph glyph-name="afii10100" unicode="&#x453;" horiz-adv-x="819" 
d="M137 1088h635v-260h-361v-828h-274v1088zM496 1682h323l-366 -392h-196z" />
    <glyph glyph-name="afii10101" unicode="&#x454;" horiz-adv-x="1278" 
d="M375 430h365v237h-365q94 197 318 197q157 0 283 -121l227 125q-203 248 -502 248q-269 0 -442.5 -163t-173.5 -413q0 -241 166 -404.5t447 -163.5q299 0 493 227l-215 147q-100 -129 -288 -129q-225 0 -313 213zM360 544z" />
    <glyph glyph-name="afii10102" unicode="&#x455;" horiz-adv-x="901" 
d="M804 936l-169 -169q-103 102 -187 102q-46 0 -72 -19.5t-26 -48.5q0 -22 16.5 -40.5t81.5 -50.5l100 -50q158 -78 217 -159t59 -190q0 -145 -106.5 -242t-285.5 -97q-238 0 -380 186l168 183q48 -56 112.5 -90.5t114.5 -34.5q54 0 87 26t33 60q0 63 -119 123l-92 46
q-264 133 -264 333q0 129 99.5 220.5t254.5 91.5q106 0 199.5 -46.5t158.5 -133.5z" />
    <glyph glyph-name="afii10103" unicode="&#x456;" horiz-adv-x="491" 
d="M245 1536q72 0 123.5 -52t51.5 -126q0 -73 -51 -124.5t-122 -51.5q-73 0 -124.5 52.5t-51.5 127.5q0 72 51 123t123 51zM108 1088h274v-1088h-274v1088z" />
    <glyph glyph-name="afii10104" unicode="&#x457;" horiz-adv-x="491" 
d="M109 1088h274v-1088h-274v1088zM24 1573q60 0 102 -42t42 -101q0 -60 -42 -102t-102 -42q-59 0 -101 42t-42 102q0 59 42 101t101 42zM467 1573q60 0 102 -42t42 -101q0 -60 -42 -102t-102 -42q-59 0 -101 42t-42 102q0 59 42 101t101 42z" />
    <glyph glyph-name="afii10105" unicode="&#x458;" horiz-adv-x="533" 
d="M266 1536q73 0 124.5 -52t51.5 -126q0 -73 -51 -125t-122 -52q-73 0 -124.5 53t-51.5 128q0 72 50.5 123t122.5 51zM130 1088h273v-1124q0 -155 -30.5 -231.5t-96.5 -117.5t-159 -41q-82 0 -204 41v215q64 -31 113 -31q52 0 78 31t26 114v1144z" />
    <glyph glyph-name="afii10106" unicode="&#x459;" horiz-adv-x="1598" 
d="M832 0l-272 687l-277 -687h-277l464 1088h176l164 -392h235q162 0 259.5 -30t159 -113.5t61.5 -207.5t-57.5 -207.5t-145.5 -110.5t-247 -27h-243zM1013 210h34q74 0 107 10.5t58.5 40.5t25.5 73q0 141 -161 141h-174zM1101 0z" />
    <glyph glyph-name="afii10107" unicode="&#x45a;" horiz-adv-x="1729" 
d="M817 0v451h-406v-451h-274v1088h274v-392h406v392h274v-392h81q205 0 292 -36.5t138 -117.5t51 -195q0 -124 -57 -208t-145.5 -111.5t-248.5 -27.5h-385zM1091 210h83q74 0 107 10.5t58.5 40.5t25.5 73q0 140 -161 140h-113v-264z" />
    <glyph glyph-name="afii10108" unicode="&#x45b;" 
d="M408 978q152 138 328 138q143 0 256.5 -95t113.5 -302v-719h-270v477q0 171 -14.5 242.5t-59.5 109t-117 37.5q-83 0 -143 -55t-77 -128t-17 -246v-437h-271v1225h-155v174h155v109h271v-109h348v-174h-348v-247z" />
    <glyph glyph-name="afii10109" unicode="&#x45c;" horiz-adv-x="1100" 
d="M138 1088h273v-407l376 407h333l-485 -530l491 -558h-362l-324 384l-29 -34v-350h-273v1088zM709 1679h323l-366 -392h-196z" />
    <glyph glyph-name="afii10110" unicode="&#x45e;" horiz-adv-x="1188" 
d="M17 1088h279l283 -683l312 683h280l-682 -1486h-282l224 479zM205 1568h221q26 -41 72.5 -61.5t113.5 -20.5q68 0 123 24q36 16 63 58h221q-19 -127 -121.5 -204t-286.5 -77q-124 0 -207.5 34.5t-134.5 98.5t-64 148z" />
    <glyph glyph-name="afii10193" unicode="&#x45f;" 
d="M137 0v1088h274v-826h406v826h274v-1088h-349v-191h-256v191h-349z" />
    <glyph glyph-name="afii10050" unicode="&#x490;" horiz-adv-x="983" 
d="M167 1471h498v212h269v-486h-490v-1197h-277v1471z" />
    <glyph glyph-name="afii10098" unicode="&#x491;" horiz-adv-x="881" 
d="M138 1088h438v160h257v-420h-421v-828h-274v1088z" />
    <glyph glyph-name="Wgrave" unicode="&#x1e80;" horiz-adv-x="1843" 
d="M56 1471h276l212 -939l263 939h233l266 -939l210 939h276l-331 -1471h-269l-271 951l-266 -951h-266zM876 1977l239 -392h-196l-366 392h323z" />
    <glyph glyph-name="wgrave" unicode="&#x1e81;" horiz-adv-x="1638" 
d="M17 1088h267l219 -619l236 619h163l231 -612l219 612h269l-397 -1088h-173l-232 620l-239 -620h-171zM771 1679l239 -392h-196l-366 392h323z" />
    <glyph glyph-name="Wacute" unicode="&#x1e82;" horiz-adv-x="1843" 
d="M56 1471h276l212 -939l263 939h233l266 -939l210 939h276l-331 -1471h-269l-271 951l-266 -951h-266zM972 1977h323l-366 -392h-196z" />
    <glyph glyph-name="wacute" unicode="&#x1e83;" horiz-adv-x="1638" 
d="M17 1088h267l219 -619l236 619h163l231 -612l219 612h269l-397 -1088h-173l-232 620l-239 -620h-171zM867 1679h323l-366 -392h-196z" />
    <glyph glyph-name="Wdieresis" unicode="&#x1e84;" horiz-adv-x="1843" 
d="M56 1471h276l212 -939l263 939h233l266 -939l210 939h276l-331 -1471h-269l-271 951l-266 -951h-266zM702 1871q60 0 102 -42t42 -101q0 -60 -42 -102t-102 -42q-59 0 -101 42t-42 102q0 59 42 101t101 42zM1145 1871q60 0 102 -42t42 -101q0 -60 -42 -102t-102 -42
q-59 0 -101 42t-42 102q0 59 42 101t101 42z" />
    <glyph glyph-name="wdieresis" unicode="&#x1e85;" horiz-adv-x="1638" 
d="M17 1088h267l219 -619l236 619h163l231 -612l219 612h269l-397 -1088h-173l-232 620l-239 -620h-171zM597 1573q60 0 102 -42t42 -101q0 -60 -42 -102t-102 -42q-59 0 -101 42t-42 102q0 59 42 101t101 42zM1040 1573q60 0 102 -42t42 -101q0 -60 -42 -102t-102 -42
q-59 0 -101 42t-42 102q0 59 42 101t101 42z" />
    <glyph glyph-name="Ygrave" unicode="&#x1ef2;" horiz-adv-x="1270" 
d="M63 1471h301l274 -528l272 528h297l-430 -834v-637h-282v637zM587 1977l239 -392h-196l-366 392h323z" />
    <glyph glyph-name="ygrave" unicode="&#x1ef3;" horiz-adv-x="1188" 
d="M17 1088h279l283 -683l312 683h280l-682 -1486h-282l224 479zM546 1679l239 -392h-196l-366 392h323z" />
    <glyph glyph-name="endash" unicode="&#x2013;" horiz-adv-x="1024" 
d="M-12 469v242h1048v-242h-1048z" />
    <glyph glyph-name="emdash" unicode="&#x2014;" horiz-adv-x="2048" 
d="M-12 469v242h2072v-242h-2072z" />
    <glyph glyph-name="afii00208" unicode="&#x2015;" horiz-adv-x="1536" 
d="M-12 469v242h1560v-242h-1560z" />
    <glyph glyph-name="underscoredbl" unicode="&#x2017;" horiz-adv-x="1024" 
d="M-12 -113h1048v-102h-1048v102zM-12 -290h1048v-102h-1048v102z" />
    <glyph glyph-name="quoteleft" unicode="&#x2018;" horiz-adv-x="573" 
d="M419 947h-252v139q0 131 32.5 226.5t109.5 195.5l98 -77q-37 -54 -54.5 -93t-34.5 -104h101v-287z" />
    <glyph glyph-name="quoteright" unicode="&#x2019;" horiz-adv-x="573" 
d="M155 1508h252v-138q0 -132 -32.5 -227t-109.5 -196l-98 77q37 54 54.5 93.5t34.5 104.5h-101v286z" />
    <glyph glyph-name="quotesinglbase" unicode="&#x201a;" horiz-adv-x="573" 
d="M155 286h252v-138q0 -132 -32.5 -227t-109.5 -195l-98 76q37 55 54.5 94t34.5 104h-101v286z" />
    <glyph glyph-name="quotereversed" unicode="&#x201b;" horiz-adv-x="573" 
d="M418 1508h-252v-138q0 -132 32.5 -227t109.5 -196l98 77q-37 54 -54.5 93.5t-34.5 104.5h101v286z" />
    <glyph glyph-name="quotedblleft" unicode="&#x201c;" horiz-adv-x="983" 
d="M415 947h-252v139q0 131 32.5 226.5t109.5 195.5l98 -77q-37 -54 -54.5 -93t-34.5 -104h101v-287zM823 947h-252v139q0 131 32 226.5t110 195.5l98 -77q-37 -54 -54.5 -93t-34.5 -104h101v-287z" />
    <glyph glyph-name="quotedblright" unicode="&#x201d;" horiz-adv-x="983" 
d="M568 1508h252v-138q0 -132 -32.5 -227t-110.5 -196l-97 77q37 54 54.5 93.5t33.5 104.5h-100v286zM160 1508h252v-138q0 -132 -32.5 -227t-109.5 -196l-98 77q37 54 54.5 93.5t34.5 104.5h-101v286z" />
    <glyph glyph-name="quotedblbase" unicode="&#x201e;" horiz-adv-x="983" 
d="M568 286h252v-138q0 -132 -32.5 -227t-110.5 -195l-97 76q37 55 54.5 94t33.5 104h-100v286zM160 286h252v-138q0 -132 -32.5 -227t-109.5 -195l-98 76q37 55 54.5 94t34.5 104h-101v286z" />
    <glyph glyph-name="dagger" unicode="&#x2020;" horiz-adv-x="1147" 
d="M442 1508h267l-48 -548l453 49v-271l-453 55l48 -1191h-267l50 1191l-452 -55v271l452 -49z" />
    <glyph glyph-name="daggerdbl" unicode="&#x2021;" horiz-adv-x="1147" 
d="M439 1508h269l-51 -468l454 48v-269l-454 53l51 -324l-51 -321l454 55v-274l-454 53l51 -459h-269l49 459l-449 -53v274l449 -55l-49 321l49 324l-449 -53v269l449 -48z" />
    <glyph glyph-name="bullet" unicode="&#x2022;" 
d="M614 1053q127 0 217 -90t90 -217q0 -128 -90 -218t-217 -90t-217 90t-90 218q0 127 90 217t217 90z" />
    <glyph glyph-name="ellipsis" unicode="&#x2026;" horiz-adv-x="2048" 
d="M1023 285q65 0 111 -45.5t46 -110.5t-46 -111t-111 -46t-110.5 46t-45.5 111t45.5 110.5t110.5 45.5zM341 285q65 0 111 -45.5t46 -110.5t-46 -111t-111 -46t-111 46t-46 111t46 110.5t111 45.5zM1706 285q65 0 111 -45.5t46 -110.5t-46 -111t-111 -46t-111 46t-46 111
t46 110.5t111 45.5z" />
    <glyph glyph-name="perthousand" unicode="&#x2030;" horiz-adv-x="2621" 
d="M1351 1536h202l-1166 -1636h-202l997 1405q-90 -15 -169 -22.5t-146 -7.5q-69 0 -146 7q22 -70 22 -127q0 -146 -101.5 -248t-247.5 -102q-147 0 -250 102t-103 247q0 94 46 174.5t129.5 130t165.5 49.5q62 0 171 -24q193 -42 340 -42q133 0 247.5 23.5t210.5 70.5z
M392 1325q-70 0 -119.5 -49.5t-49.5 -118.5q0 -70 49.5 -119.5t119.5 -49.5t119.5 49.5t49.5 119.5t-49.5 119t-119.5 49zM2229 663q146 0 248.5 -103t102.5 -249q0 -145 -102.5 -248t-248.5 -103q-145 0 -248 103t-103 248q0 146 103 249t248 103zM2228 482q-70 0 -120 -50
t-50 -120t50 -120t120 -50q71 0 120.5 50t49.5 120t-49.5 120t-120.5 50zM1367 663q145 0 248 -103t103 -249q0 -145 -103 -248t-248 -103q-146 0 -248.5 103t-102.5 248q0 146 102.5 249t248.5 103zM1366 482q-71 0 -120.5 -50t-49.5 -120t49.5 -120t120.5 -50
q70 0 119.5 50t49.5 120t-49.5 120t-119.5 50z" />
    <glyph glyph-name="minute" unicode="&#x2032;" horiz-adv-x="451" 
d="M287 1004h-156l16 504h266z" />
    <glyph glyph-name="second" unicode="&#x2033;" horiz-adv-x="737" 
d="M636 1004h-156l16 504h267zM225 1004h-156l16 504h267z" />
    <glyph glyph-name="guilsinglleft" unicode="&#x2039;" horiz-adv-x="491" 
d="M210 1088h255l-185 -548l185 -540h-255l-183 540z" />
    <glyph glyph-name="guilsinglright" unicode="&#x203a;" horiz-adv-x="491" 
d="M282 0h-255l185 548l-185 540h255l183 -540z" />
    <glyph glyph-name="exclamdbl" unicode="&#x203c;" horiz-adv-x="1153" 
d="M143 1508h276v-1075h-276v1075zM735 1508h275v-1075h-275v1075zM281 314q70 0 121 -49t51 -122q0 -70 -50.5 -120.5t-121.5 -50.5q-70 0 -120.5 50.5t-50.5 120.5q0 74 51 122.5t120 48.5zM872 314q70 0 121 -49t51 -122q0 -70 -50 -120.5t-122 -50.5q-71 0 -121 50
t-50 121t50.5 121t120.5 50z" />
    <glyph glyph-name="radicalex" unicode="&#x203e;" horiz-adv-x="1147" 
d="M-42 1869h1231v-74h-1231v74z" />
    <glyph glyph-name="fraction" unicode="&#x2044;" horiz-adv-x="328" 
d="M-235 -37l626 1545h171l-626 -1545h-171z" />
    <glyph glyph-name="fraction" unicode="&#x2215;" horiz-adv-x="328" 
d="M-235 -37l626 1545h171l-626 -1545h-171z" />
    <glyph glyph-name="nsuperior" unicode="&#x207f;" horiz-adv-x="700" 
d="M77 1256h201v-54q74 71 154 71q89 0 144 -67t55 -185v-446h-200v300q0 135 -13 177.5t-53 42.5q-46 0 -66.5 -55t-20.5 -189v-276h-201v681z" />
    <glyph glyph-name="franc" unicode="&#x20a3;" horiz-adv-x="983" 
d="M449 413h226v-163h-226v-250h-277v250h-172v163h172v1058h730v-273h-453v-267h453v-269h-453v-249z" />
    <glyph glyph-name="afii08941" unicode="&#x20a4;" horiz-adv-x="1147" 
d="M479 959h363v-173h-302q9 -31 26 -98h276v-174h-256q-8 -112 -67 -259q47 -6 116 -18q55 -11 78 -11q92 0 123 110h259q-6 -157 -120 -265t-269 -108q-39 0 -139 14q-154 23 -231 23q-103 0 -193 -34l-94 238q86 36 159 44q86 146 93 266h-247v174h228q-8 28 -35 98h-193
v173h130q-23 77 -23 147q0 190 124.5 296t304.5 106q173 0 297.5 -108t124.5 -304h-281q-32 155 -145 155q-61 0 -102 -43.5t-41 -113.5q0 -42 36 -135z" />
    <glyph glyph-name="peseta" unicode="&#x20a7;" horiz-adv-x="2368" 
d="M1046 1088h90v401h272v-401h355q62 28 144 28q228 0 364 -180l-169 -169q-99 102 -187 102q-40 0 -69 -17.5t-29 -50.5q0 -24 18.5 -42.5t79.5 -48.5l100 -50q156 -77 216 -158.5t60 -190.5q0 -146 -107.5 -242.5t-284.5 -96.5q-238 0 -380 186l168 183
q35 -44 101.5 -84.5t125.5 -40.5q51 0 85.5 25t34.5 61q0 63 -119 123l-92 46q-264 133 -264 333q0 23 5 49h-156v-853h-272v853h-134q-108 -234 -555 -245v-608h-280v1471h342q170 0 266.5 -29.5t176.5 -123.5t94 -230zM447 872q191 -1 256.5 42.5t65.5 130.5
q0 85 -57.5 119t-193.5 34h-71v-326z" />
    <glyph glyph-name="Euro" unicode="&#x20ac;" horiz-adv-x="1147" 
d="M449 508q60 -132 182 -204.5t276 -72.5q99 0 203 41v-282q-92 -27 -207 -27q-273 0 -475 144t-274 401h-144l39 164h78q-2 19 -2 65q0 43 2 62h-117l41 164h105q75 254 282.5 399t468.5 145q102 0 203 -30l-61 -263q-77 25 -148 25q-144 0 -265 -73t-185 -203h538
l-37 -164h-549q-4 -40 -4 -62q0 -25 4 -65h519l-39 -164h-434z" />
    <glyph glyph-name="afii61248" unicode="&#x2105;" horiz-adv-x="1805" 
d="M693 1340l-169 -86q-51 74 -127 74q-70 0 -110.5 -52.5t-40.5 -129.5t39 -126t104 -49q89 0 135 79l162 -103q-103 -153 -293 -153q-165 0 -258 106t-93 249q0 153 101 256t253 103q199 0 297 -168zM509 -37l627 1545h171l-627 -1545h-171zM1435 698q135 0 231 -104
t96 -253q0 -148 -93.5 -253t-232.5 -105q-135 0 -228 105t-93 251q0 152 96.5 255.5t223.5 103.5zM1438 515q-52 0 -86.5 -49t-34.5 -125q0 -77 33.5 -127t87.5 -50q52 0 87.5 48.5t35.5 127.5q0 72 -32 123.5t-91 51.5z" />
    <glyph glyph-name="afii61289" unicode="&#x2113;" horiz-adv-x="989" 
d="M65 371l-44 257l148 72q0 332 40.5 471t143 229.5t242.5 90.5q150 0 240 -99.5t90 -247.5q0 -144 -96 -273.5t-378 -308.5q-1 -227 43 -298t133 -71q105 0 267 123v-241q-144 -99 -295 -99q-367 0 -421 447q-55 -28 -113 -52zM451 859q136 99 185.5 164t49.5 131
q0 49 -27 78.5t-67 29.5q-54 0 -95 -60.5t-44 -259.5z" />
    <glyph glyph-name="afii61352" unicode="&#x2116;" horiz-adv-x="2273" 
d="M167 1471h268l631 -968v968h280v-1471h-269l-630 965v-965h-280v1471zM2197 658q0 -144 -103.5 -247t-247.5 -103q-146 0 -248.5 102.5t-102.5 247.5q0 144 103 247t248 103q144 0 247.5 -103t103.5 -247zM2015 658q0 70 -50 119.5t-120 49.5t-120 -49.5t-50 -119.5
q0 -71 49.5 -120.5t120.5 -49.5q70 0 120 50t50 120zM1495 175h702v-175h-702v175z" />
    <glyph glyph-name="trademark" unicode="&#x2122;" horiz-adv-x="2048" 
d="M1905 1471v-840h-176v691l-275 -691h-88l-266 691v-691h-176v840h267l219 -540l230 540h265zM809 1471v-147h-262v-693h-182v693h-264v147h708z" />
    <glyph glyph-name="Ohm" unicode="&#x2126;" horiz-adv-x="1573" 
d="M462 206q-132 56 -214 139.5t-126.5 202t-44.5 263.5q0 310 191.5 501t508.5 191q242 0 395 -82t245.5 -243.5t92.5 -364.5q0 -213 -98 -368t-284 -237l330 23h72v-231h-642v243q105 50 168 121.5t100.5 181.5t37.5 238q0 244 -113 372t-294 128q-174 0 -286.5 -131.5
t-112.5 -363.5q0 -128 39 -239t104 -184.5t169 -122.5v-243h-645v230h98z" />
    <glyph glyph-name="estimated" unicode="&#x212e;" 
d="M321 531v-371q120 -121 298 -121q254 0 395 246l72 -43q-118 -170 -231.5 -223t-235.5 -53q-232 0 -380.5 158.5t-148.5 406.5q0 252 149.5 408.5t379.5 156.5q214 0 366 -142t163 -423h-827zM917 605v297q-124 121 -300 121q-175 0 -296 -122v-296h596z" />
    <glyph glyph-name="oneeighth" unicode="&#x215b;" horiz-adv-x="1720" 
d="M437 -37l626 1545h171l-626 -1545h-171zM207 1489h265v-756h-188v599h-193zM1560 410q121 -74 121 -194q0 -95 -78 -164.5t-230 -69.5q-149 0 -233.5 62t-84.5 172q0 118 117 194q-77 64 -77 152q0 92 76 152.5t197 60.5q123 0 197 -64t74 -151q0 -78 -79 -150zM1455 550
q0 70 -92 70q-39 0 -61.5 -20t-22.5 -50q0 -33 24 -55.5t64 -22.5q41 0 64.5 22.5t23.5 55.5zM1493 226q0 45 -37.5 70.5t-85.5 25.5q-52 0 -91 -26.5t-39 -66.5q0 -37 33 -64.5t94 -27.5q126 0 126 89z" />
    <glyph glyph-name="threeeighths" unicode="&#x215c;" horiz-adv-x="1720" 
d="M252 1282h-183q39 226 284 226q113 0 187 -60.5t74 -140.5q0 -96 -93 -149q65 -25 103 -78.5t38 -113.5q0 -101 -89 -176t-232 -75q-137 0 -218.5 73t-84.5 193h184q15 -111 127 -111q46 0 85 24.5t39 66.5q0 103 -197 105v138q154 0 154 82q0 27 -20.5 47t-54.5 20
q-67 0 -103 -71zM462 -37l627 1545h170l-626 -1545h-171zM1560 410q121 -74 121 -194q0 -95 -78 -164.5t-230 -69.5q-168 0 -243 69.5t-75 164.5q0 118 117 194q-76 64 -76 152q0 92 76 152.5t197 60.5q126 0 198 -65t72 -150q0 -78 -79 -150zM1455 550q0 70 -92 70
q-39 0 -61.5 -20t-22.5 -50q0 -34 25.5 -56t62.5 -22q41 0 64.5 22.5t23.5 55.5zM1494 226q0 45 -38 70.5t-86 25.5q-52 0 -90.5 -26.5t-38.5 -66.5q0 -37 33 -64.5t94 -27.5q126 0 126 89z" />
    <glyph glyph-name="fiveeighths" unicode="&#x215d;" horiz-adv-x="1720" 
d="M461 -37l627 1545h171l-627 -1545h-171zM205 1489h429v-151h-287l-29 -110q35 3 52 3q111 0 193.5 -71t82.5 -181t-89.5 -187t-219.5 -77q-112 0 -199 56.5t-110 158.5h196q38 -62 116 -62q49 0 84.5 28.5t35.5 77.5q0 45 -32.5 73.5t-77.5 28.5q-52 0 -100 -39l-153 29z
M1560 410q121 -74 121 -194q0 -95 -78.5 -164.5t-230.5 -69.5q-149 0 -233.5 62t-84.5 172q0 118 118 194q-77 64 -77 152q0 92 76 152.5t197 60.5q123 0 197 -64t74 -151q0 -78 -79 -150zM1454 550q0 70 -92 70q-39 0 -61.5 -20t-22.5 -50q0 -33 24.5 -55.5t63.5 -22.5
q42 0 65 22.5t23 55.5zM1493 226q0 45 -37.5 70.5t-86.5 25.5q-51 0 -90 -26.5t-39 -66.5q0 -37 33 -64.5t94 -27.5q126 0 126 89z" />
    <glyph glyph-name="seveneighths" unicode="&#x215e;" horiz-adv-x="1720" 
d="M399 -37l626 1545h171l-626 -1545h-171zM74 1489h594v-81l-398 -693l-150 79l310 544h-356v151zM1560 410q121 -74 121 -194q0 -95 -78.5 -164.5t-230.5 -69.5q-168 0 -243 69.5t-75 164.5q0 118 118 194q-77 64 -77 152q0 92 76 152.5t197 60.5q123 0 197 -64t74 -151
q0 -78 -79 -150zM1454 550q0 70 -92 70q-39 0 -61.5 -20t-22.5 -50q0 -33 24.5 -55.5t63.5 -22.5q42 0 65 22.5t23 55.5zM1493 226q0 45 -37.5 70.5t-86.5 25.5q-51 0 -90 -26.5t-39 -66.5q0 -37 33 -64.5t94 -27.5q126 0 126 89z" />
    <glyph glyph-name="arrowleft" unicode="&#x2190;" horiz-adv-x="2048" 
d="M492 876h76q-81 -170 -195 -309h1595v-101h-1595q102 -102 198 -309h-78q-223 253 -414 341v45q177 71 413 333z" />
    <glyph glyph-name="arrowup" unicode="&#x2191;" horiz-adv-x="1024" 
d="M153 1050q262 236 333 413h46q87 -192 340 -415v-77q-207 96 -309 197v-1597h-101v1597q-139 -114 -309 -195v77z" />
    <glyph glyph-name="arrowright" unicode="&#x2192;" horiz-adv-x="2048" 
d="M1555 876q237 -262 413 -333v-45q-191 -88 -414 -341h-77q95 207 197 309h-1595v101h1595q-114 139 -195 309h76z" />
    <glyph glyph-name="arrowdown" unicode="&#x2193;" horiz-adv-x="1024" 
d="M153 -16v76q170 -81 309 -195v1598h101v-1598q102 102 309 197v-77q-253 -223 -340 -414h-46q-71 176 -333 413z" />
    <glyph glyph-name="arrowboth" unicode="&#x2194;" horiz-adv-x="2048" 
d="M1968 540v-45q-181 -79 -406 -337h-80q69 172 194 311h-1305q125 -139 194 -311h-80q-224 258 -406 337v45q182 79 406 338h80q-69 -172 -194 -311h1305q-125 139 -194 311h80q225 -259 406 -338z" />
    <glyph glyph-name="arrowupdn" unicode="&#x2195;" horiz-adv-x="1024" 
d="M489 1463h45q79 -182 337 -407v-80q-171 69 -311 195v-1306q140 126 311 194v-79q-258 -225 -337 -407h-45q-79 182 -337 407v79q171 -68 311 -194v1306q-140 -126 -311 -195v80q258 225 337 407z" />
    <glyph glyph-name="arrowupdnbse" unicode="&#x21a8;" horiz-adv-x="1024" 
d="M489 1463h45q79 -182 337 -407v-80q-171 69 -311 195v-1306q140 126 311 194v-79q-258 -225 -337 -407h-45q-79 182 -337 407v79q171 -68 311 -194v1306q-140 -126 -311 -195v80q258 225 337 407zM154 -522h717v-98h-717v98z" />
    <glyph glyph-name="partialdiff" unicode="&#x2202;" horiz-adv-x="1012" 
d="M380 1123l-137 84q52 141 150 212.5t220 71.5q104 0 185 -57t130.5 -180t49.5 -311q0 -292 -102 -560q-77 -202 -218 -305t-302 -103q-139 0 -225 92.5t-86 261.5q0 166 89.5 306.5t258.5 224t393 83.5l41 -1q-1 192 -62.5 279.5t-156.5 87.5q-67 0 -119 -38t-109 -148z
M815 758l-44 1q-141 0 -256.5 -56t-178 -157t-62.5 -208q0 -76 41.5 -124.5t99.5 -48.5q130 0 245.5 151.5t154.5 441.5z" />
    <glyph glyph-name="increment" unicode="&#x2206;" horiz-adv-x="1253" 
d="M1226 0h-1200l628 1387zM990 82l-399 967l-440 -967h839z" />
    <glyph glyph-name="product" unicode="&#x220f;" horiz-adv-x="1685" 
d="M162 1508h1362v-1906h-191v1732h-978v-1732h-193v1906z" />
    <glyph glyph-name="summation" unicode="&#x2211;" horiz-adv-x="1460" 
d="M139 1508h1237v-164h-988l607 -775l-649 -806h1040v-161h-1264v187l620 772l-603 772v175z" />
    <glyph glyph-name="minus" unicode="&#x2212;" 
d="M115 860h999v-250h-999v250z" />
    <glyph glyph-name="periodcentered" unicode="&#x2219;" horiz-adv-x="573" 
d="M287 892q65 0 111 -46t46 -111t-46 -111t-111 -46t-111 46t-46 111t46 111t111 46z" />
    <glyph glyph-name="radical" unicode="&#x221a;" horiz-adv-x="1124" 
d="M1047 1869h74l-312 -1947l-496 1021l-198 -91l-34 64l301 151l405 -823z" />
    <glyph glyph-name="infinity" unicode="&#x221e;" horiz-adv-x="1460" 
d="M679 843q77 126 155 177t168 51q133 0 220 -94t87 -255t-87 -255t-220 -94q-90 0 -167.5 50.5t-155.5 177.5q-59 -82 -137 -127t-150 -45q-103 0 -172.5 80t-69.5 213t69.5 212.5t172.5 79.5q72 0 150 -44.5t137 -126.5zM772 724q84 -129 118 -158q53 -45 115 -45
q75 0 116.5 58t41.5 147q0 92 -44 145t-111 53q-54 0 -105.5 -38.5t-130.5 -161.5zM593 726q-100 141 -190 141q-47 0 -80 -37.5t-33 -102.5q0 -67 32.5 -105.5t80.5 -38.5q40 0 73 23q52 36 117 120z" />
    <glyph glyph-name="orthogonal" unicode="&#x221f;" horiz-adv-x="2005" 
d="M362 1279h100v-1179h1181v-100h-1281v1279z" />
    <glyph glyph-name="intersection" unicode="&#x2229;" horiz-adv-x="1206" 
d="M239 0h-110v621l2 238q1 116 18.5 209t58.5 169t106 135.5t139.5 89.5t149.5 30q118 0 225 -68.5t165 -174t71.5 -224t13.5 -404.5v-621h-110v628q0 243 -10 348.5t-52 190t-127.5 139.5t-175.5 55t-174.5 -55t-126 -137t-52.5 -189.5t-11 -351.5v-628z" />
    <glyph glyph-name="integral" unicode="&#x222b;" horiz-adv-x="561" 
d="M201 948q0 209 16 499q10 184 54 292q25 60 71.5 92t92.5 32q49 0 87 -33t38 -74q0 -46 -26.5 -75t-65.5 -29q-35 0 -76 36q-23 20 -40 20q-18 0 -29 -14.5t-11 -49.5q0 -42 9 -145q37 -410 37 -665q0 -67 -15 -567q-9 -305 -84 -410q-55 -77 -141 -77q-52 0 -85 34
t-33 87q0 44 25.5 71.5t64.5 27.5q40 0 70 -33q28 -31 48 -31q17 0 28 14.5t11 46.5q0 42 -9 120q-37 316 -37 831z" />
    <glyph glyph-name="approxequal" unicode="&#x2248;" horiz-adv-x="1124" 
d="M47 806v318q152 74 250 74q64 0 140.5 -21t203.5 -83q83 -41 109 -48q35 -10 69 -10q111 0 258 113v-322q-126 -72 -247 -72q-66 0 -133 18t-218 85q-96 42 -128.5 51t-65.5 9q-50 0 -101 -22.5t-137 -89.5zM47 323v319q152 74 250 74q64 0 140.5 -21.5t203.5 -83.5
q83 -40 109 -47q35 -10 69 -10q111 0 258 113v-323q-126 -71 -247 -71q-66 0 -133 17.5t-218 84.5q-96 43 -128.5 51.5t-65.5 8.5q-50 0 -101 -22.5t-137 -89.5z" />
    <glyph glyph-name="notequal" unicode="&#x2260;" horiz-adv-x="1124" 
d="M803 1074h258v-250h-365l-76 -178h441v-250h-548l-186 -433h-193l186 433h-258v250h365l76 178h-441v250h548l186 434h193z" />
    <glyph glyph-name="equivalence" unicode="&#x2261;" 
d="M115 1288h999v-250h-999v250zM115 860h999v-250h-999v250zM115 432h999v-250h-999v250z" />
    <glyph glyph-name="lessequal" unicode="&#x2264;" horiz-adv-x="1124" 
d="M1061 568v-250l-999 509v221l999 508v-249l-712 -370zM62 206h999v-250h-999v250z" />
    <glyph glyph-name="greaterequal" unicode="&#x2265;" horiz-adv-x="1124" 
d="M62 568l713 369l-713 370v249l999 -508v-221l-999 -509v250zM1061 206v-250h-999v250h999z" />
    <glyph glyph-name="house" unicode="&#x2302;" 
d="M153 0v634l461 519l462 -519v-634h-923zM234 81h761v519l-381 427l-380 -427v-519z" />
    <glyph glyph-name="revlogicalnot" unicode="&#x2310;" 
d="M1114 1074v-249h-749v-428h-250v677h999z" />
    <glyph glyph-name="integraltp" unicode="&#x2320;" 
d="M687 -515h-145v1811q0 207 86 324t206 117q74 0 106 -34.5t32 -74.5q0 -41 -26.5 -66.5t-61.5 -25.5q-34 0 -55.5 13.5t-42.5 47.5q-24 37 -47 37q-29 0 -40.5 -24.5t-11.5 -153.5v-1971z" />
    <glyph glyph-name="integralbt" unicode="&#x2321;" 
d="M542 1737h145v-1811q0 -207 -86 -324t-206 -117q-59 0 -98.5 28t-39.5 81q0 41 26.5 66.5t60.5 25.5q35 0 56.5 -14t42.5 -47q24 -37 47 -37q29 0 40.5 24t11.5 154v1971z" />
    <glyph glyph-name="SF100000" unicode="&#x2500;" horiz-adv-x="1460" 
d="M1478 534h-1496v175h1496v-175z" />
    <glyph glyph-name="SF110000" unicode="&#x2502;" horiz-adv-x="1270" 
d="M452 -621v2485h175v-2485h-175z" />
    <glyph glyph-name="SF010000" unicode="&#x250c;" horiz-adv-x="1460" 
d="M1479 709v-175h-661v-1155h-175v1330h836z" />
    <glyph glyph-name="SF030000" unicode="&#x2510;" horiz-adv-x="1460" 
d="M642 534h-660v175h835v-1330h-175v1155z" />
    <glyph glyph-name="SF020000" unicode="&#x2514;" horiz-adv-x="1460" 
d="M643 534v1330h175v-1155h661v-175h-836z" />
    <glyph glyph-name="SF040000" unicode="&#x2518;" horiz-adv-x="1460" 
d="M817 534h-835v175h660v1155h175v-1330z" />
    <glyph glyph-name="SF080000" unicode="&#x251c;" horiz-adv-x="1460" 
d="M643 -621v2485h175v-1155h661v-175h-661v-1155h-175z" />
    <glyph glyph-name="SF090000" unicode="&#x2524;" horiz-adv-x="1460" 
d="M642 -621v1155h-660v175h660v1155h175v-2485h-175z" />
    <glyph glyph-name="SF060000" unicode="&#x252c;" horiz-adv-x="1460" 
d="M642 534h-660v175h1496v-175h-661v-1155h-175v1155z" />
    <glyph glyph-name="SF070000" unicode="&#x2534;" horiz-adv-x="1460" 
d="M1478 534h-1496v175h660v1155h175v-1155h661v-175z" />
    <glyph glyph-name="SF050000" unicode="&#x253c;" horiz-adv-x="1460" 
d="M642 534h-660v175h660v1155h175v-1155h661v-175h-661v-1155h-175v1155z" />
    <glyph glyph-name="SF430000" unicode="&#x2550;" horiz-adv-x="1460" 
d="M1478 724h-1496v175h1496v-175zM1478 344h-1496v175h1496v-175z" />
    <glyph glyph-name="SF240000" unicode="&#x2551;" horiz-adv-x="1460" 
d="M833 -621v2485h175v-2485h-175zM453 -621v2485h175v-2485h-175z" />
    <glyph glyph-name="SF510000" unicode="&#x2552;" horiz-adv-x="1460" 
d="M643 -621v1520h836v-175h-661v-205h661v-175h-661v-965h-175z" />
    <glyph glyph-name="SF520000" unicode="&#x2553;" horiz-adv-x="1460" 
d="M453 -621v1330h1026v-175h-471v-1155h-175v1140h-205v-1140h-175z" />
    <glyph glyph-name="SF390000" unicode="&#x2554;" horiz-adv-x="1460" 
d="M628 -621h-175v1520h1025v-175h-850v-1345zM1008 344v-965h-175v1140h645v-175h-470z" />
    <glyph glyph-name="SF220000" unicode="&#x2555;" horiz-adv-x="1460" 
d="M642 344h-660v175h660v205h-660v175h835v-1520h-175v965z" />
    <glyph glyph-name="SF210000" unicode="&#x2556;" horiz-adv-x="1460" 
d="M452 -621v1155h-470v175h1025v-1330h-175v1155h-205v-1155h-175z" />
    <glyph glyph-name="SF250000" unicode="&#x2557;" horiz-adv-x="1460" 
d="M832 -621v1345h-850v175h1025v-1520h-175zM452 344h-470v175h645v-1140h-175v965z" />
    <glyph glyph-name="SF500000" unicode="&#x2558;" horiz-adv-x="1460" 
d="M643 344v1520h175v-965h661v-175h-661v-205h661v-175h-836z" />
    <glyph glyph-name="SF490000" unicode="&#x2559;" horiz-adv-x="1460" 
d="M1478 534h-1025v1330h175v-1155h205v1155h175v-1155h470v-175z" />
    <glyph glyph-name="SF380000" unicode="&#x255a;" horiz-adv-x="1460" 
d="M628 1864v-1345h850v-175h-1025v1520h175zM1008 899h470v-175h-645v1140h175v-965z" />
    <glyph glyph-name="SF280000" unicode="&#x255b;" horiz-adv-x="1460" 
d="M817 344h-835v175h660v205h-660v175h660v965h175v-1520z" />
    <glyph glyph-name="SF270000" unicode="&#x255c;" horiz-adv-x="1460" 
d="M1007 534h-1025v175h470v1155h175v-1155h205v1155h175v-1330z" />
    <glyph glyph-name="SF260000" unicode="&#x255d;" horiz-adv-x="1460" 
d="M832 1864h175v-1520h-1025v175h850v1345zM452 899v965h175v-1140h-645v175h470z" />
    <glyph glyph-name="SF360000" unicode="&#x255e;" horiz-adv-x="1460" 
d="M643 -621v2485h175v-965h661v-175h-661v-205h661v-175h-661v-965h-175z" />
    <glyph glyph-name="SF370000" unicode="&#x255f;" horiz-adv-x="1460" 
d="M833 -621v2485h175v-1155h471v-175h-471v-1155h-175zM453 -621v2485h175v-2485h-175z" />
    <glyph glyph-name="SF420000" unicode="&#x2560;" horiz-adv-x="1460" 
d="M453 -621v2485h175v-2485h-175zM833 724v1140h175v-965h471v-175h-646zM833 -621v1140h646v-175h-471v-965h-175z" />
    <glyph glyph-name="SF190000" unicode="&#x2561;" horiz-adv-x="1460" 
d="M642 344h-660v175h660v205h-660v175h660v965h175v-2485h-175v965z" />
    <glyph glyph-name="SF200000" unicode="&#x2562;" horiz-adv-x="1460" 
d="M452 -621v1155h-470v175h470v1155h175v-2485h-175zM832 -621v2485h175v-2485h-175z" />
    <glyph glyph-name="SF230000" unicode="&#x2563;" horiz-adv-x="1460" 
d="M832 -621v2485h175v-2485h-175zM627 1864v-1140h-645v175h470v965h175zM452 344h-470v175h645v-1140h-175v965z" />
    <glyph glyph-name="SF470000" unicode="&#x2564;" horiz-adv-x="1460" 
d="M1478 724h-1496v175h1496v-175zM642 344h-660v175h1496v-175h-661v-965h-175v965z" />
    <glyph glyph-name="SF480000" unicode="&#x2565;" horiz-adv-x="1460" 
d="M452 -621v1155h-470v175h1496v-175h-471v-1155h-175v1140h-205v-1140h-175z" />
    <glyph glyph-name="SF410000" unicode="&#x2566;" horiz-adv-x="1460" 
d="M1478 724h-1496v175h1496v-175zM452 344h-470v175h645v-1140h-175v965zM832 -621v1140h646v-175h-471v-965h-175z" />
    <glyph glyph-name="SF450000" unicode="&#x2567;" horiz-adv-x="1460" 
d="M1478 724h-1496v175h660v965h175v-965h661v-175zM1478 344h-1496v175h1496v-175z" />
    <glyph glyph-name="SF460000" unicode="&#x2568;" horiz-adv-x="1460" 
d="M1478 534h-1496v175h470v1155h175v-1155h205v1155h175v-1155h471v-175z" />
    <glyph glyph-name="SF400000" unicode="&#x2569;" horiz-adv-x="1460" 
d="M627 724h-645v175h470v965h175v-1140zM1478 724h-646v1140h175v-965h471v-175zM1478 344h-1496v175h1496v-175z" />
    <glyph glyph-name="SF540000" unicode="&#x256a;" horiz-adv-x="1460" 
d="M642 344h-660v175h660v205h-660v175h660v965h175v-965h661v-175h-661v-205h661v-175h-661v-965h-175v965z" />
    <glyph glyph-name="SF530000" unicode="&#x256b;" horiz-adv-x="1460" 
d="M452 -621v1155h-470v175h470v1155h175v-1155h205v1155h175v-1155h471v-175h-471v-1155h-175v1155h-205v-1155h-175z" />
    <glyph glyph-name="SF440000" unicode="&#x256c;" horiz-adv-x="1460" 
d="M1008 899h470v-175h-645v1140h175v-965zM452 899v965h175v-1140h-645v175h470zM452 344h-470v175h645v-1140h-175v965zM1008 344v-965h-175v1140h645v-175h-470z" />
    <glyph glyph-name="upblock" unicode="&#x2580;" horiz-adv-x="1460" 
d="M1478 621h-1496v1243h1496v-1243z" />
    <glyph glyph-name="dnblock" unicode="&#x2584;" horiz-adv-x="1460" 
d="M1478 -621h-1496v1242h1496v-1242z" />
    <glyph glyph-name="block" unicode="&#x2588;" horiz-adv-x="1460" 
d="M-18 -621v2485h1496v-2485h-1496z" />
    <glyph glyph-name="lfblock" unicode="&#x258c;" horiz-adv-x="1460" 
d="M-18 -621v2485h748v-2485h-748z" />
    <glyph glyph-name="rtblock" unicode="&#x2590;" horiz-adv-x="1460" 
d="M730 -621v2485h748v-2485h-748z" />
    <glyph glyph-name="ltshade" unicode="&#x2591;" horiz-adv-x="1460" 
d="M107 1864h125v-125h-125v125zM605 1864h125v-125h-125v125zM1104 1864h125v-125h-125v125zM356 1615h125v-125h-125v125zM855 1615h124v-125h-124v125zM1353 1615h125v-125h-125v125zM1104 1366h125v-125h-125v125zM605 1366h125v-125h-125v125zM107 1366h125v-125h-125
v125zM1353 1116h125v-124h-125v124zM855 1116h124v-124h-124v124zM356 1116h125v-124h-125v124zM107 867h125v-125h-125v125zM605 867h125v-125h-125v125zM1104 867h125v-125h-125v125zM1353 618h125v-125h-125v125zM855 618h124v-125h-124v125zM356 618h125v-125h-125v125z
M107 369h125v-125h-125v125zM605 369h125v-125h-125v125zM1104 369h125v-125h-125v125zM356 119h125v-124h-125v124zM855 119h124v-124h-124v124zM1353 119h125v-124h-125v124zM1104 -130h125v-125h-125v125zM605 -130h125v-125h-125v125zM107 -130h125v-125h-125v125z
M356 -379h125v-125h-125v125zM855 -379h124v-125h-124v125zM1353 -379h125v-125h-125v125z" />
    <glyph glyph-name="shade" unicode="&#x2592;" horiz-adv-x="1460" 
d="M107 1864h124v-125h-124v125zM356 1864h124v-125h-124v125zM605 1864h125v-125h-125v125zM854 1864h125v-125h-125v125zM1104 1864h124v-125h-124v125zM1353 1864h124v-125h-124v125zM-18 1615h125v-125h-125v125zM231 1615h125v-125h-125v125zM480 1615h125v-125h-125
v125zM730 1615h124v-125h-124v125zM979 1615h125v-125h-125v125zM1228 1615h125v-125h-125v125zM107 1366h124v-125h-124v125zM356 1366h124v-125h-124v125zM605 1366h125v-125h-125v125zM854 1366h125v-125h-125v125zM1104 1366h124v-125h-124v125zM1353 1366h124v-125
h-124v125zM-18 1116h125v-124h-125v124zM231 1116h125v-124h-125v124zM480 1116h125v-124h-125v124zM730 1116h124v-124h-124v124zM979 1116h125v-124h-125v124zM1228 1116h125v-124h-125v124zM107 867h124v-125h-124v125zM356 867h124v-125h-124v125zM605 867h125v-125
h-125v125zM854 867h125v-125h-125v125zM1104 867h124v-125h-124v125zM1353 867h124v-125h-124v125zM-18 618h125v-125h-125v125zM480 618h125v-125h-125v125zM730 618h124v-125h-124v125zM979 618h125v-125h-125v125zM1228 618h125v-125h-125v125zM231 618h125v-125h-125
v125zM1353 369h124v-125h-124v125zM1104 369h124v-125h-124v125zM854 369h125v-125h-125v125zM605 369h125v-125h-125v125zM356 369h124v-125h-124v125zM107 369h124v-125h-124v125zM-18 119h125v-124h-125v124zM231 119h125v-124h-125v124zM480 119h125v-124h-125v124z
M730 119h124v-124h-124v124zM979 119h125v-124h-125v124zM1228 119h125v-124h-125v124zM1353 -130h124v-125h-124v125zM1104 -130h124v-125h-124v125zM854 -130h125v-125h-125v125zM605 -130h125v-125h-125v125zM356 -130h124v-125h-124v125zM107 -130h124v-125h-124v125z
M-18 -379h125v-125h-125v125zM231 -379h125v-125h-125v125zM480 -379h125v-125h-125v125zM730 -379h124v-125h-124v125zM979 -379h125v-125h-125v125zM1228 -379h125v-125h-125v125z" />
    <glyph glyph-name="dkshade" unicode="&#x2593;" horiz-adv-x="1495" 
d="M1495 1490v-374h-124v-124h124v-374h-124v-125h124v-374h-124v-124h124v-374h-124v-125h124v-124h-1495v373h125v125h-125v374h125v125h-125v373h125v125h-125v374h125v125h-125v373h125v125h124v-125h125v125h124v-125h125v125h125v-125h124v125h125v-125h125v125h124
v-125h125v125h124v-249h-124v-125h124zM125 1615v-125h124v125h-124zM374 1615v-125h124v125h-124zM623 1615v-125h125v125h-125zM872 1615v-125h125v125h-125zM1122 1615v-125h124v125h-124zM1371 1366h-125v-125h125v125zM1122 1366h-125v-125h125v125zM872 1366h-124
v-125h124v125zM623 1366h-125v-125h125v125zM374 1366h-125v-125h125v125zM125 1116v-124h124v124h-124zM374 1116v-124h124v124h-124zM623 1116v-124h125v124h-125zM872 1116v-124h125v124h-125zM1122 1116v-124h124v124h-124zM374 867h-125v-125h125v125zM498 867v-125
h125v125h-125zM748 867v-125h124v125h-124zM997 867v-125h125v125h-125zM1246 867v-125h125v125h-125zM125 618v-125h124v125h-124zM623 618v-125h125v125h-125zM498 493v125h-124v-125h124zM872 618v-125h125v125h-125zM1122 618v-125h124v125h-124zM1371 244v125h-125
v-125h125zM1122 244v125h-125v-125h125zM872 244v125h-124v-125h124zM623 244v125h-125v-125h125zM374 244v125h-125v-125h125zM125 119v-124h124v124h-124zM374 119v-124h124v124h-124zM623 119v-124h125v124h-125zM872 119v-124h125v124h-125zM1122 119v-124h124v124h-124
zM1371 -255v125h-125v-125h125zM1122 -255v125h-125v-125h125zM872 -255v125h-124v-125h124zM623 -255v125h-125v-125h125zM374 -255v125h-125v-125h125zM125 -379v-125h124v125h-124zM374 -379v-125h124v125h-124zM623 -379v-125h125v125h-125zM872 -379v-125h125v125h-125
zM1122 -379v-125h124v125h-124z" />
    <glyph glyph-name="filledbox" unicode="&#x25a0;" horiz-adv-x="1237" 
d="M146 944h944v-944h-944v944z" />
    <glyph glyph-name="H22073" unicode="&#x25a1;" horiz-adv-x="1237" 
d="M146 944h944v-944h-944v944zM222 868v-792h792v792h-792z" />
    <glyph glyph-name="H18543" unicode="&#x25aa;" horiz-adv-x="726" 
d="M594 909v-464h-463v463z" />
    <glyph glyph-name="H18551" unicode="&#x25ab;" horiz-adv-x="726" 
d="M594 909v-464h-463v463zM518 833l-311 -1v-311h311v312z" />
    <glyph glyph-name="filledrect" unicode="&#x25ac;" horiz-adv-x="2048" 
d="M0 703h2047v-386h-2047v386z" />
    <glyph glyph-name="triagup" unicode="&#x25b2;" horiz-adv-x="2027" 
d="M304 0l710 1419l710 -1419h-1420z" />
    <glyph glyph-name="triagrt" unicode="&#x25ba;" horiz-adv-x="2027" 
d="M288 1417l1451 -724l-1451 -724v1448z" />
    <glyph glyph-name="triagdn" unicode="&#x25bc;" horiz-adv-x="2027" 
d="M1724 1388l-710 -1419l-710 1419h1420z" />
    <glyph glyph-name="triaglf" unicode="&#x25c4;" horiz-adv-x="2027" 
d="M1739 1417v-1448l-1451 724z" />
    <glyph glyph-name="lozenge" unicode="&#x25ca;" horiz-adv-x="1012" 
d="M549 1422l418 -713l-418 -709h-111l-391 709l391 713h111zM495 1325l-340 -616l340 -615l359 615z" />
    <glyph glyph-name="circle" unicode="&#x25cb;" 
d="M1055 578q0 -182 -129.5 -311.5t-310.5 -129.5q-183 0 -312 129t-129 312q0 182 129.5 311t310.5 129q183 0 312 -129t129 -311zM979 578q0 150 -107 257t-257 107q-151 0 -258 -107.5t-107 -256.5t107 -257t258 -108q150 0 257 107.5t107 257.5z" />
    <glyph glyph-name="H18533" unicode="&#x25cf;" horiz-adv-x="1237" 
d="M619 1018q181 0 310.5 -129t129.5 -311t-129 -311.5t-311 -129.5t-311.5 129.5t-129.5 311.5q0 189 131.5 314.5t309.5 125.5z" />
    <glyph glyph-name="invbullet" unicode="&#x25d8;" 
d="M124 0v980h980v-980h-980zM816 490q0 83 -59 142.5t-143 59.5q-82 0 -142 -59t-60 -143q0 -83 59.5 -142.5t142.5 -59.5q84 0 143 60t59 142z" />
    <glyph glyph-name="invcircle" unicode="&#x25d9;" 
d="M38 0v1155h1155v-1155h-1155zM1056 577q0 181 -129.5 311t-310.5 130q-183 0 -312 -130t-129 -311t129 -310.5t312 -129.5q181 0 310.5 129.5t129.5 310.5zM980 577q0 -150 -107 -257t-257 -107q-151 0 -258 107t-107 257q0 151 107.5 258t257.5 107t257 -106.5
t107 -258.5z" />
    <glyph glyph-name="openbullet" unicode="&#x25e6;" horiz-adv-x="726" 
d="M363 928q101 0 176 -72t75 -179q0 -104 -73.5 -177.5t-177.5 -73.5t-177.5 73.5t-73.5 177.5t74 177.5t177 73.5zM363 852q-71 0 -123 -50t-52 -125q0 -73 51.5 -124t123.5 -51t123.5 51t51.5 124q0 74 -52 124.5t-123 50.5z" />
    <glyph glyph-name="smileface" unicode="&#x263a;" horiz-adv-x="2091" 
d="M1683 518q0 -262 -187 -449.5t-450 -187.5q-264 0 -451 186.5t-187 450.5q0 263 187.5 450.5t450.5 187.5q264 0 450.5 -186.5t186.5 -451.5zM1591 518q0 225 -160.5 385t-384.5 160q-225 0 -385 -160t-160 -385q0 -224 160 -384t385 -160q224 0 384.5 160t160.5 384z
M882 650q0 -33 -23.5 -57t-57.5 -24q-33 0 -57 24t-24 57q0 34 24 57.5t57 23.5q34 0 57.5 -23.5t23.5 -57.5zM1371 650q0 -33 -24 -57t-57 -24t-57 24t-24 57q0 34 24 57.5t57 23.5t57 -23.5t24 -57.5zM752 313l62 36q79 -144 232 -144t231 144l63 -36q-104 -195 -294 -195
q-191 0 -294 195z" />
    <glyph glyph-name="invsmileface" unicode="&#x263b;" horiz-adv-x="2155" 
d="M1715 518q0 -262 -187 -449.5t-450 -187.5q-264 0 -451 186.5t-187 450.5q0 263 187.5 450.5t450.5 187.5q264 0 450.5 -186.5t186.5 -451.5zM914 650q0 34 -23.5 57.5t-57.5 23.5q-33 0 -57 -23.5t-24 -57.5q0 -33 24 -57t57 -24q34 0 57.5 24t23.5 57zM1403 650
q0 34 -24 57.5t-57 23.5t-57 -23.5t-24 -57.5q0 -33 24 -57t57 -24t57 24t24 57zM784 313q103 -195 294 -195q190 0 294 195l-63 36q-78 -144 -231 -144t-232 144z" />
    <glyph glyph-name="sun" unicode="&#x263c;" horiz-adv-x="1878" 
d="M902 1621h76v-337q191 -7 350 -140l289 283l52 -53l-286 -286q140 -175 143 -358h336v-69h-336q-14 -190 -143 -348l286 -289l-57 -51l-284 280q-167 -125 -350 -139v-337h-76v337q-203 25 -345 139l-296 -280l-49 51l284 289q-125 153 -144 352h-336v69h336
q14 197 144 349l-284 287l49 57l291 -283q180 130 350 140v337zM1450 699q0 212 -150.5 362t-362.5 150q-211 0 -361.5 -150.5t-150.5 -361.5t150.5 -362t361.5 -151t362 151t151 362z" />
    <glyph glyph-name="female" unicode="&#x2640;" horiz-adv-x="1131" 
d="M591 481v-365h417v-54h-417v-399h-54v399h-418v54h418v365q-81 0 -189.5 51.5t-183.5 167.5t-75 256q0 196 139.5 336t336.5 140q196 0 336 -140t140 -336q0 -185 -127.5 -323.5t-322.5 -151.5zM992 955q0 176 -125 301t-302 125q-176 0 -301.5 -125.5t-125.5 -300.5
q0 -176 125.5 -301.5t301.5 -125.5t301.5 125.5t125.5 301.5z" />
    <glyph glyph-name="male" unicode="&#x2642;" horiz-adv-x="1366" 
d="M1107 1372l29 -10q35 -359 161 -615l-25 -16q-149 188 -222 415l-295 -635q110 -42 201 -162t91 -268q0 -188 -133 -304t-326 -116q-205 0 -345.5 134.5t-140.5 322.5t130.5 316t306.5 128q76 0 170 -33l293 636q-214 -90 -457 -104v27q165 51 255.5 97.5t306.5 186.5z
M531 516q-158 0 -272 -113.5t-114 -268.5q0 -172 116.5 -282.5t274.5 -110.5q162 0 273.5 113.5t111.5 267.5q0 169 -118.5 281.5t-271.5 112.5z" />
    <glyph glyph-name="spade" unicode="&#x2660;" horiz-adv-x="1092" 
d="M547 1231q18 -82 64.5 -169t203.5 -230q122 -111 169.5 -181t47.5 -152q0 -96 -64.5 -160t-155.5 -64q-154 0 -254 190q0 -230 101 -325.5t277 -102.5l7 -37h-793l8 37q182 0 282.5 105t100.5 282v41q-90 -190 -262 -190q-92 0 -155.5 66t-63.5 155q0 150 188 305
q262 215 299 430z" />
    <glyph glyph-name="club" unicode="&#x2663;" horiz-adv-x="1354" 
d="M1103 0h-848l8 34q153 33 219.5 68.5t125 138.5t58.5 228l-1 42q-55 -117 -143.5 -177.5t-183.5 -60.5q-115 0 -196.5 81t-81.5 199q0 111 72.5 193t169.5 82q64 0 163 -51q-67 106 -67 182q0 113 79 192.5t197 79.5t198.5 -79.5t80.5 -187.5q0 -94 -69 -187
q106 53 162 53q105 0 176 -82t71 -191q0 -120 -81 -201.5t-193 -81.5q-78 0 -167 49.5t-165 187.5q4 -157 48 -250.5t122.5 -144.5t237.5 -82z" />
    <glyph glyph-name="heart" unicode="&#x2665;" horiz-adv-x="1210" 
d="M607 -24q-32 122 -92.5 228.5t-275.5 389.5q-101 133 -140 212t-39 163q0 110 74 185.5t183 75.5q206 0 290 -251q34 129 113.5 190.5t171.5 61.5q109 0 183.5 -75t74.5 -177q0 -84 -40 -179t-174 -264q-284 -360 -329 -560z" />
    <glyph glyph-name="diamond" unicode="&#x2666;" horiz-adv-x="1038" 
d="M517 1231q193 -323 461 -627q-52 -52 -214 -265t-247 -363q-101 190 -457 628q324 383 457 627z" />
    <glyph glyph-name="musicalnote" unicode="&#x266a;" horiz-adv-x="1579" 
d="M926 1535h60q164 -100 366 -309t202 -285q0 -16 -20 -44.5t-39 -28.5q-28 0 -63 44q-55 66 -195 190t-242 188l26 -1374q0 -122 -71.5 -193t-217 -131.5t-291.5 -60.5q-197 0 -306 99t-109 228q0 159 162.5 279t372.5 120q192 0 396 -94z" />
    <glyph glyph-name="musicalnotedbl" unicode="&#x266b;" horiz-adv-x="2048" 
d="M832 1195l934 291v-1301q0 -148 -37.5 -221t-125 -121t-200.5 -48q-145 0 -212.5 77t-67.5 186q0 117 90 202t234 85q84 0 200 -50v850l-699 -217v-981q0 -123 -29.5 -203t-121 -136.5t-216.5 -56.5q-121 0 -199 69t-78 192q0 129 93 210.5t230 81.5q95 0 205 -54v1145z
" />
    <glyph glyph-name="apple" unicode="&#xf000;" horiz-adv-x="1617" 
 />
    <glyph glyph-name="fi" unicode="&#xf001;" horiz-adv-x="1064" 
d="M4 1088h101q0 165 45.5 253t142 141.5t234.5 53.5q120 0 207.5 -39t137.5 -106.5t69 -180.5h-284q-15 47 -50.5 72t-82.5 25q-43 0 -78.5 -24t-53.5 -68q-13 -30 -13 -127h160v-230h-160v-858h-274v858h-101v230zM668 1088h273v-1088h-273v1088z" />
    <glyph glyph-name="fi" unicode="&#xfb01;" horiz-adv-x="1064" 
d="M4 1088h101q0 165 45.5 253t142 141.5t234.5 53.5q120 0 207.5 -39t137.5 -106.5t69 -180.5h-284q-15 47 -50.5 72t-82.5 25q-43 0 -78.5 -24t-53.5 -68q-13 -30 -13 -127h160v-230h-160v-858h-274v858h-101v230zM668 1088h273v-1088h-273v1088z" />
    <glyph glyph-name="fl" unicode="&#xf002;" horiz-adv-x="1064" 
d="M4 1088h102q0 162 46.5 253t140.5 143t231 52q141 0 235.5 -52.5t138.5 -136.5t44 -259v-1088h-274v1067q0 135 -26 178q-37 62 -117 62q-46 0 -79.5 -23t-50 -64t-16.5 -132h159v-230h-159v-858h-273v858h-102v230z" />
    <glyph glyph-name="fl" unicode="&#xfb02;" horiz-adv-x="1064" 
d="M4 1088h102q0 162 46.5 253t140.5 143t231 52q141 0 235.5 -52.5t138.5 -136.5t44 -259v-1088h-274v1067q0 135 -26 178q-37 62 -117 62q-46 0 -79.5 -23t-50 -64t-16.5 -132h159v-230h-159v-858h-273v858h-102v230z" />
    <glyph glyph-name="foursuperior" unicode="&#xf003;" horiz-adv-x="688" 
d="M400 1508h182v-485h78v-140h-78v-150h-169v150h-395v148zM413 1023v269l-217 -269h217z" />
    <glyph glyph-name="commaaccent" unicode="&#xf004;" horiz-adv-x="574" 
d="M252 -75l172 -90l-221 -379l-123 59z" />
    <glyph glyph-name="undercommaaccent" unicode="&#xf005;" horiz-adv-x="682" 
d="M226 -79q61 4 96 4q117 0 175.5 -52.5t58.5 -122.5q0 -76 -65 -136.5t-192 -60.5q-83 0 -194 36l35 131q70 -16 110 -16q106 0 106 71q0 57 -81 57q-24 0 -75 -5z" />
    <glyph glyph-name="pi1" unicode="&#xf006;" horiz-adv-x="1124" 
d="M0 1063h1124v-202h-169v-861h-288v861h-208v-861h-292v861h-167v202z" />
    <glyph glyph-name="noGamma" unicode="&#xf100;" horiz-adv-x="1101" 
d="M167 1467h900v-228h-599v-1239h-301v1467z" />
    <glyph glyph-name="noTheta" unicode="&#xf101;" horiz-adv-x="1635" 
d="M828 1503q326 0 518 -194.5t192 -564.5q0 -390 -192.5 -587.5t-510.5 -197.5q-366 0 -552.5 206.5t-186.5 569.5q0 344 181 556t551 212zM828 1290q-201 0 -310 -130t-109 -437q0 -290 111.5 -419t296.5 -129q125 0 221.5 61.5t143.5 183t47 310.5q0 325 -118.5 442.5
t-282.5 117.5zM559 865h521v-231h-521v231z" />
    <glyph glyph-name="noPhi" unicode="&#xf102;" horiz-adv-x="1896" 
d="M794 1503h303v-168q703 -34 703 -605q0 -302 -189 -456t-513 -161v-288h-304v288q-362 15 -530 175t-168 432q0 161 56 289.5t206.5 220t435.5 107.5v166zM794 1125q-141 -7 -231 -70t-123.5 -149t-33.5 -180q0 -89 33 -178t122 -153t233 -70v800zM1097 1123v-798
q119 12 202 51.5t135.5 133t52.5 216.5q0 177 -103.5 283.5t-286.5 113.5z" />
    <glyph glyph-name="noalpha" unicode="&#xf103;" horiz-adv-x="1352" 
d="M952 228q-137 -256 -408 -256q-209 0 -334 140.5t-125 393.5q0 239 128.5 406.5t351.5 167.5q239 0 381 -230q11 86 45 201h284q-70 -222 -70 -490q0 -298 86 -561h-285q-38 118 -54 228zM654 894q-133 0 -202.5 -99t-69.5 -277q0 -183 75.5 -267.5t188.5 -84.5
q128 0 204 100t76 278q0 157 -71 253.5t-201 96.5z" />
    <glyph glyph-name="nodelta" unicode="&#xf104;" horiz-adv-x="1347" 
d="M625 958q-232 176 -232 337q0 115 106 187.5t312 72.5q94 0 264 -35v-191q-120 27 -203 27q-187 0 -187 -94q0 -39 35.5 -79t140.5 -117q213 -155 307 -281t94 -300q0 -227 -153.5 -370t-421.5 -143q-299 0 -450.5 148.5t-151.5 362.5q0 215 143.5 347.5t396.5 127.5z
M677 816q-294 0 -294 -339q0 -144 74.5 -231.5t214.5 -87.5q142 0 217.5 90.5t75.5 250.5q0 147 -76 232t-212 85z" />
    <glyph glyph-name="noepsilon" unicode="&#xf105;" horiz-adv-x="1113" 
d="M1027 -3q-113 -25 -267 -25q-214 0 -365.5 66.5t-230.5 195t-79 289.5q0 243 167 400t500 157q135 0 256 -27v-199q-120 28 -249 28q-152 0 -252.5 -67.5t-116.5 -183.5h613v-187h-613q39 -274 399 -274q116 0 238 25v-198z" />
    <glyph glyph-name="nosigma" unicode="&#xf106;" horiz-adv-x="1509" 
d="M1146 861q113 -129 113 -325q0 -247 -159.5 -405.5t-426.5 -158.5q-269 0 -428.5 160t-159.5 406q0 243 167 392.5t389 149.5q47 0 132 -7q107 -10 168 -10h533v-202h-328zM667 911q-136 0 -211.5 -95.5t-75.5 -287.5q0 -181 77 -275.5t220 -94.5q128 0 208 98t80 295
q0 172 -81 266t-217 94z" />
    <glyph glyph-name="notau" unicode="&#xf107;" horiz-adv-x="1110" 
d="M34 1063h1043v-204h-377v-859h-290v859h-376v204z" />
    <glyph glyph-name="nophi" unicode="&#xf108;" horiz-adv-x="1659" 
d="M683 1331h290v-255q319 -15 460 -166.5t141 -382.5q0 -212 -135.5 -365t-461.5 -175v-376h-296v374q-308 19 -452 164.5t-144 381.5q0 177 82.5 303t195 172t320.5 73v252zM684 894q-302 -14 -302 -370q0 -178 83 -267.5t219 -89.5v727zM975 894v-727q302 16 302 371
q0 158 -76 256t-226 100z" />
  </font>
</defs>
</svg>
