<?xml version="1.0" standalone="no"?>
<!DOCTYPE svg PUBLIC "-//W3C//DTD SVG 1.1//EN" "http://www.w3.org/Graphics/SVG/1.1/DTD/svg11.dtd" >
<svg>
<metadata>
Created by FontForge 20090622 at Wed Jan 30 11:08:08 2019
 By deploy user
Copyright (c) 1989, 1995 Adobe Systems Incorporated.  All Rights Reserved.Avenir is a trademark of Linotype-Hell AG and/or its subsidiaries.
</metadata>
<defs>
<font id="AvenirLT-Heavy" horiz-adv-x="260" >
  <font-face 
    font-family="Avenir LT 55 Roman"
    font-weight="700"
    font-stretch="normal"
    units-per-em="1000"
    panose-1="2 0 9 3 4 0 0 2 0 3"
    ascent="800"
    descent="-200"
    x-height="480"
    cap-height="708"
    bbox="-166 -250 1160 939"
    underline-thickness="50"
    underline-position="-75"
    unicode-range="U+0020-U+FB02"
  />
<missing-glyph horiz-adv-x="296" 
 />
    <glyph glyph-name=".notdef" horiz-adv-x="296" 
 />
    <glyph glyph-name="exclam" unicode="!" horiz-adv-x="296" 
d="M68 70q0 32 23.5 55t56.5 23q32 0 56 -22t24 -54t-23.5 -55t-56.5 -23q-16 0 -30.5 6t-25.5 16t-17.5 24t-6.5 30zM208 222h-120v486h120v-486z" />
    <glyph glyph-name="quotedbl" unicode="&#x22;" horiz-adv-x="519" 
d="M297 708h102v-264h-102v264zM120 708h102v-264h-102v264z" />
    <glyph glyph-name="numbersign" unicode="#" horiz-adv-x="592" 
d="M253 415l-17 -122h103l17 122h-103zM137 209h-90v84h101l18 122h-90v84h101l30 209h88l-30 -209h103l30 209h87l-30 -209h90v-84h-102l-17 -122h90v-84h-100l-31 -209h-87l30 209h-104l-30 -209h-87z" />
    <glyph glyph-name="dollar" unicode="$" horiz-adv-x="592" 
d="M318 96q21 4 39.5 12.5t32.5 21t22.5 30t8.5 39.5t-9.5 37t-24.5 25t-33 17t-36 13v-195zM264 610q-35 -6 -62.5 -29.5t-27.5 -61.5q0 -23 7.5 -37t19.5 -24t28.5 -16.5t34.5 -14.5v183zM318 720h9q51 0 104.5 -17.5t91.5 -51.5l-83 -93q-23 25 -55 39.5t-67 14.5v-200
l4 -1q42 -11 82.5 -25t72 -36.5t51 -56.5t19.5 -85q0 -50 -18 -88.5t-49 -66t-72.5 -43.5t-89.5 -21v-72h-54v71q-66 -1 -126.5 20t-106.5 69l91 93q24 -34 62 -52t80 -22v211l-5 1q-42 12 -80 26.5t-67.5 38t-46.5 57t-17 83.5q0 45 18 81t48 62.5t69 42.5t81 20v67h54v-66
z" />
    <glyph glyph-name="percent" unicode="%" horiz-adv-x="907" 
d="M621 740l83 -38l-416 -734l-83 38zM306 534q0 38 -26 64t-64 26t-64 -26t-26 -64t26 -64t64 -26t64 26t26 64zM30 534q0 39 14.5 72.5t40 59t59 40t72.5 14.5t72.5 -14.5t59 -40t40 -59t14.5 -72.5t-14.5 -72.5t-40 -59t-59 -40t-72.5 -14.5t-72.5 14.5t-59 40t-40 59
t-14.5 72.5zM781 174q0 38 -26 64t-64 26t-64 -26t-26 -64t26 -64t64 -26t64 26t26 64zM505 174q0 39 14.5 72.5t40 59t59 40t72.5 14.5t72.5 -14.5t59 -40t40 -59t14.5 -72.5t-14.5 -72.5t-40 -59t-59 -40t-72.5 -14.5t-72.5 14.5t-59 40t-40 59t-14.5 72.5z" />
    <glyph glyph-name="ampersand" unicode="&#x26;" horiz-adv-x="741" 
d="M277 318q-18 -11 -35 -22.5t-31 -25.5t-22.5 -32t-8.5 -41t9 -43t24.5 -34t35.5 -22t43 -8q41 0 72 22t58 48zM325 618q-35 0 -60 -19.5t-25 -51.5q0 -14 6 -27.5t16 -27t21.5 -25.5t23.5 -23q15 8 32 18.5t31.5 24t23.5 29.5t9 36q0 29 -23 47.5t-55 18.5zM574 167
l153 -167h-155l-75 81q-43 -51 -92 -75t-117 -24q-47 0 -90.5 13.5t-76.5 40t-53 65t-20 89.5q0 36 12 66.5t32.5 56t48.5 45t60 31.5q-17 19 -31.5 37t-25.5 37t-17.5 41t-6.5 48q0 43 16.5 76t44.5 54.5t65 32.5t77 11t76 -10t63.5 -30.5t44 -52.5t16.5 -75
q0 -33 -12 -60.5t-32 -50t-45.5 -41t-51.5 -31.5l114 -123l79 120h141z" />
    <glyph glyph-name="quoteright" unicode="&#x2019;" horiz-adv-x="296" 
d="M122 708h122l-85 -264h-107z" />
    <glyph glyph-name="parenleft" unicode="(" horiz-adv-x="296" 
d="M279 680l-1 -4q-60 -84 -94 -184.5t-34 -203.5q0 -104 34 -204.5t94 -184.5l-84 -55q-69 95 -107.5 208t-38.5 236q0 122 38.5 235.5t107.5 208.5z" />
    <glyph glyph-name="parenright" unicode=")" horiz-adv-x="296" 
d="M17 -104l1 4q60 84 94 184.5t34 203.5q0 104 -34 204t-94 184l84 56q69 -95 107.5 -208t38.5 -236q0 -122 -38.5 -235.5t-107.5 -208.5z" />
    <glyph glyph-name="asterisk" unicode="*" horiz-adv-x="463" 
d="M274 566l135 44l26 -80l-136 -44l86 -117l-69 -50l-86 118l-84 -115l-67 51l86 113l-137 47l26 80l136 -47v142h84v-142z" />
    <glyph glyph-name="plus" unicode="+" horiz-adv-x="666" 
d="M282 354v220h102v-220h220v-102h-220v-220h-102v220h-220v102h220z" />
    <glyph glyph-name="comma" unicode="," horiz-adv-x="296" 
d="M108 138h122l-85 -264h-107z" />
    <glyph glyph-name="hyphen" unicode="-" horiz-adv-x="315" 
d="M281 195h-247v102h247v-102z" />
    <glyph glyph-name="hyphen" unicode="&#xad;" horiz-adv-x="315" 
d="M281 195h-247v102h247v-102z" />
    <glyph glyph-name="period" unicode="." horiz-adv-x="296" 
d="M68 70q0 32 23.5 55t56.5 23q32 0 56 -22t24 -54t-23.5 -55t-56.5 -23q-16 0 -30.5 6t-25.5 16t-17.5 24t-6.5 30z" />
    <glyph glyph-name="slash" unicode="/" horiz-adv-x="389" 
d="M74 -48l-83 30l312 776l83 -32z" />
    <glyph glyph-name="zero" unicode="0" horiz-adv-x="592" 
d="M160 354q0 -33 4.5 -76.5t18.5 -82.5t41 -66t72 -27t72 27t41 66t18.5 82.5t4.5 76.5t-4.5 76.5t-18.5 82.5t-41 66t-72 27t-72 -27t-41 -66t-18.5 -82.5t-4.5 -76.5zM40 354q0 84 13.5 143.5t35.5 100t49.5 65t56 37t55 16.5t46.5 4t46.5 -4t55 -16.5t56 -37t49.5 -65
t35.5 -100t13.5 -143.5t-13.5 -143.5t-35.5 -100t-49.5 -65t-56 -37t-55 -16.5t-46.5 -4t-46.5 4t-55 16.5t-56 37t-49.5 65t-35.5 100t-13.5 143.5z" />
    <glyph glyph-name="one" unicode="1" horiz-adv-x="592" 
d="M268 570l-133 -123l-70 83l214 178h109v-708h-120v570z" />
    <glyph glyph-name="two" unicode="2" horiz-adv-x="592" 
d="M59 127l275 266l25 25.5t23.5 28.5t17.5 31.5t7 34.5q0 22 -8.5 39t-22.5 29t-32.5 18.5t-39.5 6.5q-45 0 -74 -26t-35 -70l-126 10q4 49 23.5 86.5t50.5 62.5t72 38t89 13t89.5 -12.5t72.5 -37t49 -62.5t18 -89q0 -67 -30.5 -115.5t-78.5 -92.5l-219 -203h328v-108h-474
v127z" />
    <glyph glyph-name="three" unicode="3" horiz-adv-x="592" 
d="M222 423h31q26 0 50.5 3t44 13t31.5 29t12 51q0 41 -28 67t-73 26q-36 0 -64.5 -20.5t-41.5 -57.5l-127 34q12 39 34 68t52 47.5t66 27.5t75 9q46 0 87 -12t72 -35.5t49.5 -59t18.5 -82.5q0 -57 -32 -101.5t-89 -58.5v-2q68 -10 103 -58t35 -114q0 -51 -19.5 -90
t-52.5 -65.5t-76.5 -40t-90.5 -13.5q-44 0 -83 9.5t-70.5 29.5t-54.5 51.5t-35 75.5l128 34q11 -44 39 -68t76 -24q24 0 45.5 8t38 22.5t26 35t9.5 45.5q0 34 -14.5 55.5t-37 33t-50.5 15.5t-55 4h-29v108z" />
    <glyph glyph-name="four" unicode="4" horiz-adv-x="592" 
d="M335 538h-2l-177 -286h179v286zM335 144h-301v119l285 445h136v-456h103v-108h-103v-144h-120v144z" />
    <glyph glyph-name="five" unicode="5" horiz-adv-x="592" 
d="M505 600h-285l-3 -141q14 5 35.5 7t40.5 2q52 0 95.5 -16.5t74.5 -47.5t48.5 -74t17.5 -97q0 -57 -19.5 -102.5t-54 -77t-81.5 -48.5t-101 -17q-85 0 -144.5 40t-84.5 122l126 34q12 -38 41 -60t75 -22q27 0 49.5 9t39 25.5t25.5 38.5t9 48q0 37 -13.5 63t-36.5 42.5
t-53 24t-63 7.5q-39 0 -77.5 -9t-70.5 -25l7 382h403v-108z" />
    <glyph glyph-name="six" unicode="6" horiz-adv-x="592" 
d="M170 231q0 -27 10 -50.5t27.5 -41t41 -27.5t50.5 -10t50.5 10t41 27.5t27.5 41t10 50.5t-10 50.5t-27.5 41t-41 27.5t-50.5 10t-50.5 -10t-41 -27.5t-27.5 -41t-10 -50.5zM437 708l-170 -262l2 -2q11 6 29.5 9t36.5 3q47 0 86 -18t67.5 -49t44 -72t15.5 -87
q0 -55 -19 -100t-52.5 -76.5t-80 -48.5t-100.5 -17q-56 0 -102 16.5t-79.5 47.5t-52 76t-18.5 101t18.5 101.5t47.5 92.5l181 285h146z" />
    <glyph glyph-name="seven" unicode="7" horiz-adv-x="592" 
d="M42 708h481v-110l-283 -598h-141l289 594h-346v114z" />
    <glyph glyph-name="eight" unicode="8" horiz-adv-x="592" 
d="M296 327q-24 0 -46 -8t-38 -23t-25.5 -35.5t-9.5 -44.5q0 -51 33.5 -82.5t85.5 -31.5t85.5 31.5t33.5 82.5q0 24 -9.5 44.5t-25.5 35.5t-38 23t-46 8zM296 618q-46 0 -71.5 -28t-25.5 -68q0 -42 26 -70.5t71 -28.5q20 0 37.5 7.5t31 21t21 31.5t7.5 39q0 40 -27.5 68
t-69.5 28zM296 720q45 0 84.5 -12.5t69 -36t46.5 -58t17 -79.5q0 -57 -26.5 -100t-80.5 -59v-2q25 -5 48.5 -20.5t41.5 -38t28.5 -51.5t10.5 -62q0 -53 -19 -92.5t-51 -66.5t-76 -40.5t-93 -13.5q-50 0 -93.5 13.5t-75.5 40.5t-51 66.5t-19 92.5q0 33 10.5 62t28.5 51.5
t41.5 38t48.5 20.5v2q-54 16 -80.5 59t-26.5 100q0 45 17 79.5t46.5 58t69 36t84.5 12.5z" />
    <glyph glyph-name="nine" unicode="9" horiz-adv-x="592" 
d="M422 477q0 27 -10 50.5t-27.5 41t-41 27.5t-50.5 10t-50.5 -10t-41 -27.5t-27.5 -41t-10 -50.5t10 -50.5t27.5 -41t41 -27.5t50.5 -10t50.5 10t41 27.5t27.5 41t10 50.5zM155 0l170 262l-2 2q-11 -6 -29.5 -9t-36.5 -3q-47 0 -86 18t-67.5 49t-44 72t-15.5 87
q0 55 19 100t52.5 76.5t80 48.5t100.5 17q55 0 101.5 -16.5t80 -47.5t52 -76t18.5 -101t-18.5 -101.5t-47.5 -92.5l-181 -285h-146z" />
    <glyph glyph-name="colon" unicode=":" horiz-adv-x="296" 
d="M68 409q0 32 23.5 55t56.5 23q32 0 56 -22t24 -54t-23.5 -55t-56.5 -23q-16 0 -30.5 6t-25.5 16t-17.5 24t-6.5 30zM68 70q0 32 23.5 55t56.5 23q32 0 56 -22t24 -54t-23.5 -55t-56.5 -23q-16 0 -30.5 6t-25.5 16t-17.5 24t-6.5 30z" />
    <glyph glyph-name="semicolon" unicode=";" horiz-adv-x="296" 
d="M68 409q0 32 23.5 55t56.5 23q32 0 56 -22t24 -54t-23.5 -55t-56.5 -23q-16 0 -30.5 6t-25.5 16t-17.5 24t-6.5 30zM108 138h122l-85 -264h-107z" />
    <glyph glyph-name="semicolon" unicode="&#x37e;" horiz-adv-x="296" 
d="M68 409q0 32 23.5 55t56.5 23q32 0 56 -22t24 -54t-23.5 -55t-56.5 -23q-16 0 -30.5 6t-25.5 16t-17.5 24t-6.5 30zM108 138h122l-85 -264h-107z" />
    <glyph glyph-name="less" unicode="&#x3c;" horiz-adv-x="666" 
d="M80 267v72l506 225v-110l-338 -151l338 -151v-110z" />
    <glyph glyph-name="equal" unicode="=" horiz-adv-x="666" 
d="M604 264v-102h-542v102h542zM604 444v-102h-542v102h542z" />
    <glyph glyph-name="greater" unicode="&#x3e;" horiz-adv-x="666" 
d="M586 339v-72l-506 -225v110l338 151l-338 151v110z" />
    <glyph glyph-name="question" unicode="?" horiz-adv-x="519" 
d="M190 70q0 32 23.5 55t56.5 23q32 0 56 -22t24 -54t-23.5 -55t-56.5 -23q-16 0 -30.5 6t-25.5 16t-17.5 24t-6.5 30zM210 209v55q0 22 2.5 37.5t9 28t17 24l25.5 27.5l77 78q25 25 25 65q0 39 -25.5 63.5t-64.5 24.5q-42 0 -69 -28.5t-31 -69.5l-128 10q6 48 25 85.5
t49.5 63.5t70.5 39.5t88 13.5q45 0 83.5 -13t67 -37.5t44.5 -61t16 -83.5q0 -33 -9 -58t-24 -46t-34.5 -40l-41.5 -40l-24 -23t-16.5 -20.5t-9.5 -24t-3 -32.5v-38h-120z" />
    <glyph glyph-name="at" unicode="@" horiz-adv-x="800" 
d="M727 133q-54 -74 -134.5 -112.5t-172.5 -38.5q-80 0 -150.5 27.5t-123.5 76.5t-83.5 117.5t-30.5 149.5q0 80 30 148t82 118t121.5 78.5t148.5 28.5q66 0 129.5 -21.5t113.5 -63.5t80.5 -103.5t30.5 -140.5q0 -53 -12.5 -92t-32 -66t-44 -44t-49 -26t-47 -12.5
t-37.5 -3.5q-42 0 -60 17t-19 37h-2q-20 -20 -50 -37t-78 -17q-32 0 -58.5 12.5t-45.5 34.5t-29.5 53t-10.5 68q0 44 14 84.5t39.5 72t62.5 50t84 18.5q40 0 66.5 -13t41.5 -44h2l8 45h94l-37 -197l-6 -28t-3 -29q0 -18 5.5 -27.5t21.5 -9.5t31.5 8.5t27.5 27t19.5 46.5
t7.5 67q0 60 -19.5 105.5t-54 76.5t-82.5 46.5t-105 15.5q-62 0 -113 -21t-87.5 -59t-56.5 -90t-20 -113q0 -66 22 -118t61.5 -88t93.5 -55.5t117 -19.5q57 0 104.5 16t84.5 45h110zM401 456q-25 0 -45 -9.5t-33.5 -26t-20.5 -38.5t-7 -47q0 -8 1.5 -23.5t9 -30.5
t24.5 -26.5t48 -11.5q28 0 47 11t30 28.5t15.5 39t4.5 42.5q0 40 -18 66t-56 26z" />
    <glyph glyph-name="A" unicode="A" horiz-adv-x="722" 
d="M468 270l-109 288l-111 -288h220zM308 708h109l305 -708h-144l-66 162h-307l-64 -162h-141z" />
    <glyph glyph-name="B" unicode="B" horiz-adv-x="648" 
d="M205 108h116q24 0 51.5 3t50.5 14t38 31.5t15 55.5q0 56 -36.5 78t-113.5 22h-121v-204zM205 420h115q63 0 94.5 24.5t31.5 64.5q0 46 -32.5 68.5t-104.5 22.5h-104v-180zM79 708h276q40 0 79 -9.5t69.5 -31t49.5 -55.5t19 -82q0 -60 -34 -99t-89 -56v-2
q33 -4 61.5 -18.5t48.5 -37t31.5 -52t11.5 -63.5q0 -58 -23 -96.5t-60.5 -62t-86 -33.5t-98.5 -10h-255v708z" />
    <glyph glyph-name="C" unicode="C" horiz-adv-x="685" 
d="M565 542q-39 42 -75.5 56t-73.5 14q-55 0 -99.5 -19.5t-76.5 -54t-49.5 -80.5t-17.5 -99q0 -57 17.5 -105t49.5 -83t76.5 -55t99.5 -20q43 0 83.5 20.5t75.5 65.5l104 -74q-48 -66 -117 -96t-147 -30q-82 0 -150.5 26.5t-118 75t-77.5 116.5t-28 151q0 85 28 154.5
t77.5 118.5t118 75.5t150.5 26.5q72 0 133.5 -25.5t114.5 -86.5z" />
    <glyph glyph-name="D" unicode="D" horiz-adv-x="759" 
d="M299 114q59 0 111.5 13.5t91.5 42t61.5 74t22.5 110.5q0 64 -20 110t-55.5 74.5t-84 42t-106.5 13.5h-115v-480h94zM79 708h279q70 0 135 -21.5t115 -65.5t80 -110.5t30 -156.5q0 -91 -34.5 -157.5t-89 -110t-121 -65t-130.5 -21.5h-264v708z" />
    <glyph glyph-name="E" unicode="E" horiz-adv-x="611" 
d="M79 708h469v-114h-343v-174h325v-114h-325v-192h361v-114h-487v708z" />
    <glyph glyph-name="F" unicode="F" horiz-adv-x="574" 
d="M79 708h457v-114h-331v-186h312v-114h-312v-294h-126v708z" />
    <glyph glyph-name="G" unicode="G" horiz-adv-x="778" 
d="M708 52q-131 -70 -293 -70q-82 0 -150.5 26.5t-118 75t-77.5 116.5t-28 151q0 85 28 154.5t77.5 118.5t118 75.5t150.5 26.5q81 0 152 -19.5t127 -69.5l-93 -94q-34 33 -82.5 51t-102.5 18q-55 0 -99.5 -19.5t-76.5 -54t-49.5 -80.5t-17.5 -99q0 -57 17.5 -105t49.5 -83
t76.5 -55t99.5 -20q48 0 90.5 9t75.5 28v167h-145v114h271v-362z" />
    <glyph glyph-name="H" unicode="H" horiz-adv-x="741" 
d="M79 708h126v-282h331v282h126v-708h-126v312h-331v-312h-126v708z" />
    <glyph glyph-name="I" unicode="I" horiz-adv-x="278" 
d="M76 708h126v-708h-126v708z" />
    <glyph glyph-name="J" unicode="J" horiz-adv-x="500" 
d="M426 196q0 -42 -13.5 -81t-40 -68.5t-66.5 -47t-93 -17.5q-84 0 -137.5 39t-70.5 124l118 28q6 -35 28.5 -56t55.5 -21q54 0 73.5 36.5t19.5 100.5v475h126v-512z" />
    <glyph glyph-name="K" unicode="K" horiz-adv-x="685" 
d="M79 708h126v-300h6l293 300h170l-331 -327l353 -381h-177l-307 348h-7v-348h-126v708z" />
    <glyph glyph-name="L" unicode="L" horiz-adv-x="519" 
d="M79 708h126v-594h301v-114h-427v708z" />
    <glyph glyph-name="M" unicode="M" horiz-adv-x="926" 
d="M82 708h192l189 -496l191 496h190v-708h-120v588h-2l-215 -588h-88l-215 588h-2v-588h-120v708z" />
    <glyph glyph-name="N" unicode="N" horiz-adv-x="796" 
d="M79 708h167l343 -526l2 -2h-2l2 2v526h126v-708h-160l-350 543h-2v-543h-126v708z" />
    <glyph glyph-name="O" unicode="O" horiz-adv-x="833" 
d="M173 359q0 -57 17.5 -105t49.5 -83t76.5 -55t99.5 -20t100 20t77 55t49.5 83t17.5 105q0 53 -17.5 99t-49.5 80.5t-77 54t-100 19.5t-99.5 -19.5t-76.5 -54t-49.5 -80.5t-17.5 -99zM41 351q0 85 28 154.5t77.5 118.5t118 75.5t150.5 26.5q83 1 152 -24.5t119 -74.5
t78 -118t28 -154q0 -83 -28 -151t-78 -117t-119 -76.5t-152 -28.5q-82 0 -150.5 26.5t-118 75t-77.5 116.5t-28 151z" />
    <glyph glyph-name="P" unicode="P" horiz-adv-x="611" 
d="M281 401q27 0 56 2t53.5 12t40 30t15.5 56q0 33 -14 52.5t-36 30t-49 13.5t-52 3h-90v-199h76zM79 708h238q51 0 98.5 -10t83.5 -33.5t57.5 -63t21.5 -98.5q0 -67 -23 -108t-62 -63.5t-90.5 -30.5t-107.5 -8h-90v-293h-126v708z" />
    <glyph glyph-name="Q" unicode="Q" horiz-adv-x="852" 
d="M410 612q-51 0 -94.5 -18.5t-75 -51.5t-49.5 -78t-18 -98q0 -54 18 -100.5t50 -80t75.5 -52.5t95.5 -19t96.5 19t76.5 52.5t50 80t18 100.5q0 53 -18 98t-50 78t-76.5 51.5t-98.5 18.5zM839 0h-412q-83 0 -153.5 25.5t-122 73t-81 116t-29.5 154.5q0 78 29.5 143.5
t80.5 113t118.5 74t143.5 26.5t143.5 -26.5t118.5 -74t80.5 -113t29.5 -143.5q0 -56 -13.5 -98.5t-35.5 -75t-48.5 -54.5t-51.5 -37v-2h203v-102z" />
    <glyph glyph-name="R" unicode="R" horiz-adv-x="630" 
d="M303 408q27 0 54 2.5t49.5 12t36.5 29t14 54.5q0 31 -13 50t-34 28.5t-46.5 12.5t-49.5 3h-109v-192h98zM79 708h246q51 0 98.5 -9.5t84.5 -32.5t59 -62t22 -99q0 -77 -42.5 -129t-121.5 -63l188 -313h-152l-164 300h-92v-300h-126v708z" />
    <glyph glyph-name="S" unicode="S" horiz-adv-x="574" 
d="M426 556q-20 29 -53.5 42.5t-70.5 13.5q-22 0 -42.5 -5t-37 -16t-26.5 -28.5t-10 -41.5q0 -36 25 -55t62 -33t81 -27t81 -36t62 -61t25 -101q0 -57 -21 -99.5t-56.5 -70.5t-82.5 -42t-99 -14q-66 0 -127 22t-105 74l95 92q23 -35 60.5 -54.5t79.5 -19.5q22 0 44 6t40 18
t29 30.5t11 42.5q0 39 -25 60t-62 35.5t-81 27.5t-81 35.5t-62 60t-25 100.5q0 55 22.5 95t59 66.5t83.5 39.5t96 13q56 0 108.5 -17t94.5 -56z" />
    <glyph glyph-name="T" unicode="T" horiz-adv-x="574" 
d="M224 594h-217v114h560v-114h-217v-594h-126v594z" />
    <glyph glyph-name="U" unicode="U" horiz-adv-x="722" 
d="M646 260q0 -64 -22 -115.5t-60 -87.5t-90 -55.5t-113 -19.5t-113 19.5t-90.5 55.5t-60 87.5t-21.5 115.5v448h126v-444q0 -26 8 -54.5t26.5 -52.5t49 -39.5t75.5 -15.5t75.5 15.5t49 39.5t26.5 52.5t8 54.5v444h126v-448z" />
    <glyph glyph-name="V" unicode="V" horiz-adv-x="667" 
d="M-3 708h145l193 -535l199 535h136l-286 -708h-109z" />
    <glyph glyph-name="W" unicode="W" horiz-adv-x="981" 
d="M0 708h138l133 -510h2l159 510h124l156 -510h2l139 510h128l-206 -708h-120l-164 539h-2l-164 -539h-116z" />
    <glyph glyph-name="X" unicode="X" horiz-adv-x="685" 
d="M252 370l-236 338h159l167 -262l165 262h153l-232 -338l257 -370h-160l-187 299l-186 -299h-152z" />
    <glyph glyph-name="Y" unicode="Y" horiz-adv-x="630" 
d="M252 303l-266 405h158l174 -282l176 282h150l-266 -405v-303h-126v303z" />
    <glyph glyph-name="Z" unicode="Z" horiz-adv-x="611" 
d="M35 114l378 480h-372v114h529v-114l-381 -480h387v-114h-541v114z" />
    <glyph glyph-name="bracketleft" unicode="[" horiz-adv-x="278" 
d="M258 654h-90v-732h90v-78h-192v888h192v-78z" />
    <glyph glyph-name="backslash" unicode="\" horiz-adv-x="389" 
d="M86 758l312 -776l-83 -30l-312 774z" />
    <glyph glyph-name="bracketright" unicode="]" horiz-adv-x="278" 
d="M20 -78h90v732h-90v78h192v-888h-192v78z" />
    <glyph glyph-name="asciicircum" unicode="^" horiz-adv-x="666" 
d="M69 343l223 365h82l223 -365h-118l-147 239l-145 -239h-118z" />
    <glyph glyph-name="underscore" unicode="_" horiz-adv-x="500" 
d="M0 -125v50h500v-50h-500z" />
    <glyph glyph-name="quoteleft" unicode="&#x2018;" horiz-adv-x="296" 
d="M174 444h-122l85 264h107z" />
    <glyph glyph-name="a" unicode="a" horiz-adv-x="537" 
d="M361 215h-25q-25 0 -56 -2t-58.5 -9.5t-46.5 -22t-19 -40.5q0 -17 7.5 -28.5t19.5 -19.5t27 -11.5t30 -3.5q62 0 91.5 29.5t29.5 80.5v27zM368 66h-3q-26 -41 -66 -59.5t-88 -18.5q-33 0 -64.5 9t-56 27t-39.5 45t-15 63q0 39 14 66.5t37.5 46t54.5 29.5t64.5 16.5
t67.5 7t64 1.5h30v13q0 45 -31 67.5t-79 22.5q-38 0 -71 -13.5t-57 -36.5l-63 63q40 41 93.5 59t110.5 18q51 0 86 -11.5t58 -29.5t35.5 -41.5t18 -47.5t6.5 -46.5t1 -39.5v-276h-108v66z" />
    <glyph glyph-name="b" unicode="b" horiz-adv-x="630" 
d="M466 240q0 28 -9.5 54t-28 46t-44.5 32t-59 12t-59 -12t-44.5 -32t-28 -46t-9.5 -54t9.5 -54t28 -46t44.5 -32t59 -12t59 12t44.5 32t28 46t9.5 54zM68 756h120v-337h3q9 12 23 24.5t34 23.5t46 18t60 7q51 0 94 -19.5t73.5 -53.5t47.5 -80t17 -99t-16 -99t-47 -80
t-75 -53.5t-99 -19.5q-51 0 -95 20t-70 64h-2v-72h-114v756z" />
    <glyph glyph-name="c" unicode="c" horiz-adv-x="482" 
d="M396 336q-21 22 -44 35t-47 13q-33 0 -59 -12t-44.5 -32t-28 -46t-9.5 -54t9.5 -54t28 -46t44.5 -32t59 -12q28 0 52 11.5t41 33.5l80 -86q-18 -18 -41.5 -31t-47.5 -21t-46 -11.5t-38 -3.5q-54 0 -102 18t-83 51t-55.5 79.5t-20.5 103.5t20.5 103.5t55.5 79.5t83 51
t102 18q46 0 92.5 -17.5t81.5 -55.5z" />
    <glyph glyph-name="d" unicode="d" horiz-adv-x="630" 
d="M164 240q0 -28 9.5 -54t28 -46t44.5 -32t59 -12t59 12t44.5 32t28 46t9.5 54t-9.5 54t-28 46t-44.5 32t-59 12t-59 -12t-44.5 -32t-28 -46t-9.5 -54zM448 72h-2q-26 -44 -70 -64t-95 -20q-56 0 -99.5 19.5t-74.5 53.5t-47 80t-16 99t17 99t47.5 80t73.5 53.5t94 19.5
q34 0 60 -7t46 -18t34 -23.5t23 -24.5h3v337h120v-756h-114v72z" />
    <glyph glyph-name="e" unicode="e" horiz-adv-x="574" 
d="M410 288q-1 53 -33 83.5t-89 30.5q-54 0 -85.5 -31t-38.5 -83h246zM164 198q6 -54 42 -84t87 -30q45 0 75.5 18.5t53.5 46.5l86 -65q-42 -52 -94 -74t-109 -22q-54 0 -102 18t-83 51t-55.5 79.5t-20.5 103.5t20.5 103.5t55.5 79.5t83 51t102 18q50 0 91.5 -17.5t71 -50.5
t46 -81.5t16.5 -111.5v-33h-366z" />
    <glyph glyph-name="f" unicode="f" horiz-adv-x="352" 
d="M111 378h-99v102h99v68q0 50 7 90.5t26.5 69.5t54.5 44.5t91 15.5q41 0 76 -7l-8 -102q-13 3 -25 5t-25 2q-25 0 -40 -8t-23.5 -21.5t-11 -31.5t-2.5 -38v-87h111v-102h-111v-378h-120v378z" />
    <glyph glyph-name="g" unicode="g" horiz-adv-x="630" 
d="M306 384q-32 0 -58 -10.5t-44.5 -29t-29 -45t-10.5 -58.5q0 -29 10.5 -54t29.5 -44t45 -30t56 -11q33 0 59.5 11t45 29.5t28.5 44.5t10 56q0 63 -38 102t-104 39zM562 480v-437q0 -65 -16 -117.5t-49.5 -89t-84.5 -56.5t-121 -20q-67 0 -127 17t-111 62l72 98
q36 -33 75 -51t90 -18q43 0 72.5 12t47 33t25 50.5t7.5 65.5v35h-2q-26 -35 -69 -52.5t-88 -17.5q-54 0 -98 19.5t-75.5 52.5t-48.5 78t-17 96q0 53 16 99t47 80t74.5 53.5t99.5 19.5q51 0 95 -20t70 -64h2v72h114z" />
    <glyph glyph-name="h" unicode="h" horiz-adv-x="574" 
d="M188 413h2q14 30 49.5 54.5t91.5 24.5q48 0 81.5 -16t54.5 -42t30 -60t9 -71v-303h-120v243q0 20 -2 44.5t-10.5 46t-26.5 36t-49 14.5q-30 0 -50.5 -10t-34 -27t-19.5 -39t-6 -46v-262h-120v756h120v-343z" />
    <glyph glyph-name="i" unicode="i" 
d="M53 643q0 29 21.5 50.5t54.5 21.5t55.5 -20.5t22.5 -51.5t-22.5 -51.5t-55.5 -20.5t-54.5 21.5t-21.5 50.5zM70 480h120v-480h-120v480z" />
    <glyph glyph-name="j" unicode="j" 
d="M53 643q0 29 21.5 50.5t54.5 21.5t55.5 -20.5t22.5 -51.5t-22.5 -51.5t-55.5 -20.5t-54.5 21.5t-21.5 50.5zM190 480v-509q0 -45 -6 -83.5t-23.5 -67t-49.5 -44.5t-83 -16q-17 0 -33 2t-32 7l9 104q10 -2 19 -3.5t19 -1.5q22 0 34.5 9.5t18 24.5t6.5 33t1 35v510h120z
" />
    <glyph glyph-name="k" unicode="k" horiz-adv-x="537" 
d="M68 756h120v-475l185 199h154l-206 -218l219 -262h-159l-191 245h-2v-245h-120v756z" />
    <glyph glyph-name="l" unicode="l" 
d="M70 756h120v-756h-120v756z" />
    <glyph glyph-name="m" unicode="m" horiz-adv-x="870" 
d="M63 480h114v-75h2q16 34 51.5 60.5t95.5 26.5q113 0 150 -89q26 46 65 67.5t93 21.5q48 0 81 -16t53.5 -44t29.5 -65.5t9 -80.5v-286h-120v272q0 22 -4 42.5t-14 36t-27 24.5t-44 9q-28 0 -47.5 -10.5t-32 -28t-18 -40t-5.5 -45.5v-260h-120v286q0 45 -19 71.5t-63 26.5
q-30 0 -50.5 -10t-34 -27t-19.5 -39t-6 -46v-262h-120v480z" />
    <glyph glyph-name="n" unicode="n" horiz-adv-x="574" 
d="M68 480h114v-77h2q17 36 52 62.5t95 26.5q48 0 81.5 -16t54.5 -42t30 -60t9 -71v-303h-120v243q0 20 -2 44.5t-10.5 46t-26.5 36t-49 14.5q-30 0 -50.5 -10t-34 -27t-19.5 -39t-6 -46v-262h-120v480z" />
    <glyph glyph-name="o" unicode="o" horiz-adv-x="610" 
d="M164 240q0 -28 9.5 -54t28 -46t44.5 -32t59 -12t59 12t44.5 32t28 46t9.5 54t-9.5 54t-28 46t-44.5 32t-59 12t-59 -12t-44.5 -32t-28 -46t-9.5 -54zM44 240q0 57 20.5 103.5t55.5 79.5t83 51t102 18t102 -18t83 -51t55.5 -79.5t20.5 -103.5t-20.5 -103.5t-55.5 -79.5
t-83 -51t-102 -18t-102 18t-83 51t-55.5 79.5t-20.5 103.5z" />
    <glyph glyph-name="p" unicode="p" horiz-adv-x="630" 
d="M466 240q0 28 -9.5 54t-28 46t-44.5 32t-59 12t-59 -12t-44.5 -32t-28 -46t-9.5 -54t9.5 -54t28 -46t44.5 -32t59 -12t59 12t44.5 32t28 46t9.5 54zM68 480h114v-72h2q26 44 70 64t95 20q55 0 99 -19.5t75 -53.5t47 -80t16 -99t-17 -99t-47.5 -80t-73.5 -53.5t-94 -19.5
q-34 0 -60 7t-46 18t-34 23.5t-23 24.5h-3v-289h-120v708z" />
    <glyph glyph-name="q" unicode="q" horiz-adv-x="630" 
d="M164 240q0 -28 9.5 -54t28 -46t44.5 -32t59 -12t59 12t44.5 32t28 46t9.5 54t-9.5 54t-28 46t-44.5 32t-59 12t-59 -12t-44.5 -32t-28 -46t-9.5 -54zM562 -228h-120v289h-3q-9 -12 -23 -24.5t-34 -23.5t-46 -18t-60 -7q-51 0 -94 19.5t-73.5 53.5t-47.5 80t-17 99t16 99
t47 80t74.5 53.5t99.5 19.5q51 0 95 -20t70 -64h2v72h114v-708z" />
    <glyph glyph-name="r" unicode="r" horiz-adv-x="389" 
d="M68 480h120v-76h2q20 42 57 65t85 23q11 0 21.5 -2t21.5 -5v-116q-15 4 -29.5 6.5t-28.5 2.5q-42 0 -67.5 -15.5t-39 -35.5t-18 -40t-4.5 -30v-257h-120v480z" />
    <glyph glyph-name="s" unicode="s" horiz-adv-x="444" 
d="M324 347q-35 49 -94 49q-24 0 -47 -12t-23 -39q0 -22 19 -32t48 -17l62.5 -14.5t62.5 -23t48 -42.5t19 -74q0 -43 -18.5 -72.5t-48 -47.5t-66.5 -26t-74 -8q-56 0 -103 16t-84 58l80 75q23 -26 49.5 -42.5t64.5 -16.5q13 0 27 3t26 10t19.5 17.5t7.5 24.5q0 25 -19 37
t-48 19.5t-62.5 14t-62.5 21t-48 40.5t-19 72q0 40 16.5 69.5t43.5 48.5t62 28t71 9q48 0 95 -16.5t76 -56.5z" />
    <glyph glyph-name="t" unicode="t" horiz-adv-x="389" 
d="M12 378v102h99v139h120v-139h132v-102h-132v-210q0 -36 13.5 -57t53.5 -21q16 0 35 3.5t30 11.5v-101q-19 -9 -46.5 -12.5t-48.5 -3.5q-48 0 -78.5 10.5t-48 32t-24 53.5t-6.5 74v220h-99z" />
    <glyph glyph-name="u" unicode="u" horiz-adv-x="574" 
d="M506 0h-114v77h-2q-17 -36 -52 -62.5t-95 -26.5q-48 0 -81.5 15.5t-54.5 42t-30 60.5t-9 71v303h120v-243q0 -20 2 -44.5t10.5 -46t26 -36t49.5 -14.5q30 0 50.5 10t34 27t19.5 39t6 46v262h120v-480z" />
    <glyph glyph-name="v" unicode="v" horiz-adv-x="519" 
d="M3 480h131l128 -336h2l129 336h123l-189 -480h-128z" />
    <glyph glyph-name="w" unicode="w" horiz-adv-x="796" 
d="M3 480h130l104 -336h2l97 336h130l104 -336h2l100 336h121l-163 -480h-119l-114 328h-2l-101 -328h-124z" />
    <glyph glyph-name="x" unicode="x" horiz-adv-x="537" 
d="M192 258l-166 222h146l96 -144l104 144h137l-164 -222l193 -258h-146l-125 172l-126 -172h-142z" />
    <glyph glyph-name="y" unicode="y" horiz-adv-x="519" 
d="M3 480h132l134 -333h2l120 333h125l-227 -583q-13 -34 -28.5 -59.5t-36.5 -43t-49.5 -26t-68.5 -8.5q-47 0 -92 12l15 108q14 -5 29.5 -8.5t31.5 -3.5q22 0 37 4t25.5 12.5t17.5 22t15 32.5l23 57z" />
    <glyph glyph-name="z" unicode="z" horiz-adv-x="482" 
d="M34 111l257 271v2h-245v96h390v-109l-260 -275h272v-96h-414v111z" />
    <glyph glyph-name="braceleft" unicode="{" horiz-adv-x="278" 
d="M0 332q10 0 26 3t31 10.5t26 21.5t11 35v198q0 34 14 58.5t34 41t42 24.5t38 8h91v-84h-55q-21 0 -33.5 -7t-19 -17.5t-8 -22.5t-1.5 -23v-188q0 -29 -11 -48t-26.5 -30.5t-32 -16.5t-28.5 -6v-2q12 -1 28.5 -5t32 -15t26.5 -31.5t11 -55.5v-182q0 -11 1.5 -23t8 -22.5
t19 -17.5t33.5 -7h55v-84h-91q-16 0 -38 8t-42 24.5t-34 41t-14 58.5v191q0 24 -11 39t-26 23.5t-31 11.5t-26 3v88z" />
    <glyph glyph-name="bar" unicode="|" horiz-adv-x="222" 
d="M162 750v-1000h-102v1000h102z" />
    <glyph glyph-name="braceright" unicode="}" horiz-adv-x="278" 
d="M278 244q-11 0 -27 -3t-31 -10.5t-25.5 -21.5t-10.5 -35v-198q0 -34 -14 -58.5t-34 -41t-42 -24.5t-38 -8h-91v84h55q21 0 33.5 7t19 17.5t8 22.5t1.5 23v188q0 29 11 48t26.5 30t32 16t28.5 7v2q-12 1 -28.5 5t-32 15t-26.5 31.5t-11 55.5v182q0 11 -1.5 23t-8 22.5
t-19 17.5t-33.5 7h-55v84h91q16 0 38 -8t42 -24.5t34 -41t14 -58.5v-191q0 -24 10.5 -39t25.5 -23.5t31 -11.5t27 -3v-88z" />
    <glyph glyph-name="asciitilde" unicode="~" horiz-adv-x="666" 
d="M565 301q-11 -16 -23.5 -31.5t-27 -27.5t-33 -19.5t-41.5 -7.5q-28 0 -52.5 9.5t-49.5 23.5q-24 14 -52 24.5t-63 10.5q-17 0 -30.5 -6.5t-24 -16t-18 -21.5t-13.5 -24l-36 84q8 16 19 31.5t26 27.5t34 19.5t43 7.5q29 0 58 -9.5t58 -22.5l54.5 -24t46.5 -12q15 0 28 6.5
t23.5 16t19.5 21.5l18 24z" />
    <glyph glyph-name="exclamdown" unicode="&#xa1;" horiz-adv-x="296" 
d="M228 416q0 -32 -23.5 -55t-56.5 -23q-32 0 -56 22t-24 54t23.5 55t56.5 23q16 0 30.5 -6t25.5 -16t17.5 -24t6.5 -30zM88 265h120v-487h-120v487z" />
    <glyph glyph-name="cent" unicode="&#xa2;" horiz-adv-x="592" 
d="M300 389q-28 -6 -48 -19.5t-33.5 -33t-20 -44.5t-6.5 -52q0 -53 27 -94.5t81 -55.5v299zM354 492q48 -2 93.5 -17t76.5 -52l-77 -78q-19 20 -42.5 31.5t-50.5 13.5v-300q28 0 53.5 13t43.5 33l73 -79q-32 -35 -77.5 -51t-92.5 -18v-72h-54v72q-51 4 -92.5 25.5t-70 55
t-44 77.5t-15.5 95q0 105 59.5 171t162.5 80v67h54v-67z" />
    <glyph glyph-name="sterling" unicode="&#xa3;" horiz-adv-x="592" 
d="M66 96h102v219h-102v84h102v100q0 37 13 76t41 71.5t72 53t106 20.5q54 0 104 -15.5t87 -48.5l-81 -87q-22 20 -48 31.5t-58 11.5q-28 0 -49.5 -10.5t-36.5 -27.5t-22.5 -39t-7.5 -46v-90h162v-84h-162v-219h253v-96h-475v96z" />
    <glyph glyph-name="yen" unicode="&#xa5;" horiz-adv-x="592" 
d="M236 177h-170v78h170v48l-19 34h-151v78h108l-162 293h135l155 -294l149 294h129l-162 -293h108v-78h-151l-19 -34v-48h170v-78h-170v-177h-120v177z" />
    <glyph glyph-name="florin" unicode="&#x192;" horiz-adv-x="592" 
d="M480 336h-138l-57 -288q-19 -96 -64 -141.5t-123 -45.5q-26 0 -52.5 6t-49.5 18l45 92q10 -7 22.5 -10.5t24.5 -3.5q39 0 55 29.5t25 74.5l53 269h-113v90h131l22 111q7 37 20 70.5t34 58.5t51.5 39.5t74.5 14.5q32 0 60.5 -8t56.5 -23l-46 -93q-27 16 -55 16
q-22 0 -36 -9.5t-23 -24t-13.5 -32.5t-8.5 -36l-18 -84h122v-90z" />
    <glyph glyph-name="section" unicode="&#xa7;" horiz-adv-x="593" 
d="M362 194q18 10 32 30t14 40q0 19 -7.5 32t-19 23t-26 17.5t-28.5 15.5l-89 42q-24 -11 -41 -26t-17 -44q0 -18 8 -31.5t20.5 -23t27.5 -17t29 -13.5zM398 566q-11 30 -37 47t-58 17q-30 0 -55.5 -16t-25.5 -50q0 -28 22 -46.5t55.5 -34t72.5 -31.5t72.5 -38.5t55.5 -54.5
t22 -79q0 -42 -24 -76.5t-61 -51.5q29 -22 45 -52.5t16 -66.5q0 -45 -20 -78.5t-52 -55.5t-72 -32.5t-79 -10.5q-36 0 -69 6.5t-62 20.5t-52.5 37.5t-38.5 58.5l107 52q11 -38 44 -55.5t70 -17.5q15 0 31.5 3.5t30 11t22 20t8.5 30.5q0 28 -22 46t-55.5 33t-72.5 30.5
t-72.5 37t-55.5 52t-22 77.5q0 55 26.5 90t69.5 58q-31 20 -48.5 48t-17.5 66q0 42 18 73t47 51.5t65.5 30.5t73.5 10q29 0 59 -5t57.5 -17t50 -31.5t36.5 -47.5z" />
    <glyph glyph-name="currency" unicode="&#xa4;" horiz-adv-x="592" 
d="M150 355q0 -69 39.5 -110.5t106.5 -41.5t106.5 41.5t39.5 110.5t-39.5 110t-106.5 41t-106.5 -41t-39.5 -110zM36 155l49 49q-23 32 -36 70t-13 81q0 42 13 80.5t36 70.5l-49 49l60 59l49 -48q32 23 70 35.5t81 12.5t81 -12.5t70 -35.5l49 48l60 -59l-49 -49
q49 -67 49 -151q0 -42 -13 -80.5t-36 -70.5l49 -49l-60 -60l-49 49q-32 -23 -70 -36t-81 -13q-84 0 -151 49l-49 -49z" />
    <glyph glyph-name="quotesingle" unicode="'" horiz-adv-x="296" 
d="M97 708h102v-264h-102v264z" />
    <glyph glyph-name="quotedblleft" unicode="&#x201c;" horiz-adv-x="519" 
d="M391 444h-122l85 264h107zM180 444h-122l85 264h107z" />
    <glyph glyph-name="guillemotleft" unicode="&#xab;" horiz-adv-x="519" 
d="M365 248l116 -175l-76 -51l-152 226l152 224l75 -51zM142 248l116 -175l-76 -51l-152 226l152 224l75 -51z" />
    <glyph glyph-name="guilsinglleft" unicode="&#x2039;" horiz-adv-x="296" 
d="M142 248l116 -175l-76 -51l-152 226l152 224l75 -51z" />
    <glyph glyph-name="guilsinglright" unicode="&#x203a;" horiz-adv-x="296" 
d="M154 246l-116 175l76 51l152 -226l-152 -224l-75 51z" />
    <glyph glyph-name="endash" unicode="&#x2013;" horiz-adv-x="500" 
d="M500 198h-500v96h500v-96z" />
    <glyph glyph-name="dagger" unicode="&#x2020;" horiz-adv-x="593" 
d="M353 505h199v-96h-199v-535h-114v535h-198v96h198v203h114v-203z" />
    <glyph glyph-name="daggerdbl" unicode="&#x2021;" horiz-adv-x="593" 
d="M353 523h193v-96h-193v-271h193v-96h-193v-186h-114v186h-192v96h192v271h-192v96h192v185h114v-185z" />
    <glyph glyph-name="periodcentered" unicode="&#xb7;" horiz-adv-x="296" 
d="M68 291q0 32 23.5 55t56.5 23q32 0 56 -22t24 -54t-23.5 -55t-56.5 -23q-16 0 -30.5 6t-25.5 16t-17.5 24t-6.5 30z" />
    <glyph glyph-name="periodcentered" unicode="&#x2219;" horiz-adv-x="296" 
d="M68 291q0 32 23.5 55t56.5 23q32 0 56 -22t24 -54t-23.5 -55t-56.5 -23q-16 0 -30.5 6t-25.5 16t-17.5 24t-6.5 30z" />
    <glyph glyph-name="paragraph" unicode="&#xb6;" horiz-adv-x="600" 
d="M246 338q-49 0 -88.5 13.5t-67.5 38t-43.5 58t-15.5 72.5q0 50 17 86t47.5 58.5t73.5 33t95 10.5h269v-834h-90v762h-107v-762h-90v464z" />
    <glyph glyph-name="bullet" unicode="&#x2022;" horiz-adv-x="500" 
d="M73 354q0 37 14 69t38 56t56 38t69 14t69 -14t56 -38t38 -56t14 -69t-14 -69t-38 -56t-56 -38t-69 -14t-69 14t-56 38t-38 56t-14 69z" />
    <glyph glyph-name="quotesinglbase" unicode="&#x201a;" horiz-adv-x="296" 
d="M122 138h122l-85 -264h-107z" />
    <glyph glyph-name="quotedblbase" unicode="&#x201e;" horiz-adv-x="519" 
d="M129 138h122l-85 -264h-107zM338 138h122l-85 -264h-107z" />
    <glyph glyph-name="quotedblright" unicode="&#x201d;" horiz-adv-x="519" 
d="M128 708h122l-85 -264h-107zM339 708h122l-85 -264h-107z" />
    <glyph glyph-name="guillemotright" unicode="&#xbb;" horiz-adv-x="519" 
d="M154 246l-116 175l76 51l152 -226l-152 -224l-75 51zM377 246l-116 175l76 51l152 -226l-152 -224l-75 51z" />
    <glyph glyph-name="ellipsis" unicode="&#x2026;" horiz-adv-x="1000" 
d="M753 70q0 32 23.5 55t56.5 23q32 0 56 -22t24 -54t-23.5 -55t-56.5 -23q-16 0 -30.5 6t-25.5 16t-17.5 24t-6.5 30zM420 70q0 32 23.5 55t56.5 23q32 0 56 -22t24 -54t-23.5 -55t-56.5 -23q-16 0 -30.5 6t-25.5 16t-17.5 24t-6.5 30zM87 70q0 32 23.5 55t56.5 23
q32 0 56 -22t24 -54t-23.5 -55t-56.5 -23q-16 0 -30.5 6t-25.5 16t-17.5 24t-6.5 30z" />
    <glyph glyph-name="perthousand" unicode="&#x2030;" horiz-adv-x="1167" 
d="M550 740l83 -38l-416 -734l-83 38zM897 165q0 -38 24 -62.5t62 -24.5t62.5 24.5t24.5 62.5t-24.5 62t-62.5 24t-62 -24t-24 -62zM501 165q0 -38 24 -62.5t62 -24.5t62.5 24.5t24.5 62.5t-24.5 62t-62.5 24t-62 -24t-24 -62zM97 544q0 -38 24 -62.5t62 -24.5t62.5 24.5
t24.5 62.5t-24.5 62t-62.5 24t-62 -24t-24 -62zM7 544q0 36 14 68t38 56t56 38t68 14t68.5 -14t56.5 -38t38 -56t14 -68t-14 -68.5t-38 -56.5t-56.5 -38t-68.5 -14t-68 14t-56 38t-38 56.5t-14 68.5zM807 165q0 36 14 68t38 56t56 38t68 14t68.5 -14t56.5 -38t38 -56t14 -68
t-14 -68.5t-38 -56.5t-56.5 -38t-68.5 -14t-68 14t-56 38t-38 56.5t-14 68.5zM411 165q0 36 14 68t38 56t56 38t68 14t68.5 -14t56.5 -38t38 -56t14 -68t-14 -68.5t-38 -56.5t-56.5 -38t-68.5 -14t-68 14t-56 38t-38 56.5t-14 68.5z" />
    <glyph glyph-name="questiondown" unicode="&#xbf;" horiz-adv-x="519" 
d="M329 416q0 -32 -23.5 -55t-56.5 -23q-32 0 -56 22t-24 54t23.5 55t56.5 23q16 0 30.5 -6t25.5 -16t17.5 -24t6.5 -30zM309 277v-55q0 -23 -2.5 -38t-9 -27.5t-17 -24l-25.5 -27.5l-77 -78q-25 -25 -25 -65q0 -39 25.5 -63.5t64.5 -24.5q42 0 69 28.5t31 69.5l128 -10
q-6 -48 -25 -85.5t-49.5 -63.5t-70.5 -39.5t-88 -13.5q-45 0 -83.5 12.5t-67 37.5t-44.5 61.5t-16 83.5q0 33 9 58t24 46t34.5 40l41.5 40l24 23t16.5 20.5t9.5 23.5t3 33v38h120z" />
    <glyph glyph-name="grave" unicode="`" 
d="M177 564h-94l-141 144h136z" />
    <glyph glyph-name="acute" unicode="&#xb4;" 
d="M182 708h136l-141 -144h-94z" />
    <glyph glyph-name="circumflex" unicode="&#x2c6;" 
d="M198 564l-69 90l-69 -90h-112l115 144h135l114 -144h-114z" />
    <glyph glyph-name="tilde" unicode="&#x2dc;" 
d="M-54 568q4 24 11.5 47t20.5 40.5t32.5 28.5t47.5 11q20 0 40.5 -6t39.5 -12.5l35.5 -12.5t28.5 -6q20 0 30.5 12.5t15.5 29.5h66q-4 -24 -11.5 -47t-20.5 -40.5t-32.5 -28.5t-47.5 -11q-20 0 -40.5 6t-39.5 13l-35.5 13t-28.5 6q-20 0 -30.5 -13t-15.5 -30h-66z" />
    <glyph glyph-name="macron" unicode="&#xaf;" 
d="M290 595h-320v78h320v-78z" />
    <glyph glyph-name="macron" unicode="&#x2c9;" 
d="M290 595h-320v78h320v-78z" />
    <glyph glyph-name="dieresis" unicode="&#xa8;" 
d="M156 636q0 29 21.5 50.5t54.5 21.5t55.5 -20.5t22.5 -51.5t-22.5 -51.5t-55.5 -20.5t-54.5 21.5t-21.5 50.5zM-50 636q0 29 21.5 50.5t54.5 21.5t55.5 -20.5t22.5 -51.5t-22.5 -51.5t-55.5 -20.5t-54.5 21.5t-21.5 50.5z" />
    <glyph glyph-name="cedilla" unicode="&#xb8;" 
d="M177 -60q22 0 43.5 -2t39 -10.5t28 -25t10.5 -45.5q0 -27 -13.5 -46t-33.5 -30t-45 -16t-47 -5q-56 0 -106 28l22 46q38 -20 82 -20q8 0 18 2t18.5 6.5t14.5 13t6 20.5q0 20 -17.5 28t-33.5 8q-10 0 -19 -2t-18 -5l-27 25l62 90h58z" />
    <glyph glyph-name="emdash" unicode="&#x2014;" horiz-adv-x="1000" 
d="M1000 198h-1000v96h1000v-96z" />
    <glyph glyph-name="AE" unicode="&#xc6;" horiz-adv-x="1000" 
d="M529 294v300h-15l-187 -300h202zM529 186h-268l-114 -186h-153l453 708h496v-114h-288v-174h270v-114h-270v-192h300v-114h-426v186z" />
    <glyph glyph-name="ordfeminine" unicode="&#xaa;" horiz-adv-x="349" 
d="M211 553q-12 0 -29 -1t-32.5 -5t-26.5 -11t-11 -20q0 -15 15.5 -23t34.5 -8q43 0 60 17.5t17 44.5v6h-28zM243 470h-2q-15 -25 -44.5 -35t-58.5 -10q-13 0 -31.5 3.5t-36 13t-30 27t-12.5 44.5q0 35 20 55t49.5 30t64 12.5t64.5 2.5h17v8q0 17 -20 25t-49 8
q-25 0 -45 -8.5t-38 -23.5l-43 53q26 23 62 34t76 11q72 0 103.5 -29.5t31.5 -90.5v-169h-78v39z" />
    <glyph glyph-name="Oslash" unicode="&#xd8;" horiz-adv-x="833" 
d="M781 712l-86 -94q47 -49 72 -115.5t25 -147.5q0 -83 -28 -151t-78 -117t-119 -76.5t-152 -28.5q-69 0 -129 19.5t-107 54.5l-85 -92l-50 43l87 94q-43 48 -66.5 111t-23.5 139q0 85 28 154.5t77.5 118.5t118 75.5t150.5 26.5q67 2 124.5 -15.5t105.5 -49.5l87 94z
M264 148q31 -25 69 -38.5t83 -13.5q55 0 100 20t77 55t49.5 83t17.5 105q0 97 -54 162zM559 567q-62 45 -143 45q-55 0 -99.5 -19.5t-76.5 -54t-49.5 -80.5t-17.5 -99q0 -47 12 -88t34 -74z" />
    <glyph glyph-name="OE" unicode="&#x152;" horiz-adv-x="1000" 
d="M519 594h-63q-23 0 -52 -4.5t-58.5 -15t-58 -28t-50.5 -44t-35.5 -63.5t-13.5 -85t13.5 -85t35.5 -63.5t50.5 -44t58 -28t58.5 -15t52 -4.5h63v480zM645 420h270v-114h-270v-192h305v-114h-497q-96 0 -170.5 27t-126.5 75t-79 112.5t-27 139.5q0 76 27 140.5t79 112
t126.5 74.5t170.5 27h480v-114h-288v-174z" />
    <glyph glyph-name="ordmasculine" unicode="&#xba;" horiz-adv-x="397" 
d="M197 497q21 0 37 7t26.5 18t16 24t5.5 26t-5.5 26.5t-16 24.5t-26.5 18t-37 7t-37 -7t-26.5 -18t-15.5 -24.5t-5 -26.5t5 -26t15.5 -24t26.5 -18t37 -7zM197 425q-35 0 -65.5 10.5t-53 30t-35.5 46.5t-12 60q0 33 13 60t35.5 46.5t52.5 30.5t65 11t66 -11t54 -30.5
t36 -46.5t13 -60t-13 -60t-36 -46.5t-54 -30t-66 -10.5z" />
    <glyph glyph-name="ae" unicode="&#xe6;" horiz-adv-x="852" 
d="M700 288q-3 51 -33 82.5t-83 31.5q-50 0 -81.5 -32t-34.5 -82h232zM239 79q30 0 54 10t40 25.5t24.5 36t8.5 41.5v12h-60q-25 0 -51.5 -2.5t-48.5 -9t-36 -19t-14 -32.5q0 -17 8.5 -29t21 -19.5t27 -10.5t26.5 -3zM816 204h-350q-1 -29 10 -52.5t28.5 -40t38.5 -25
t40 -8.5q45 0 75 18.5t53 46.5l83 -59q-40 -51 -92.5 -73.5t-118.5 -22.5q-61 0 -107 25t-72 61q-32 -49 -82.5 -67t-110.5 -18q-32 0 -63.5 8.5t-56 26t-40 44.5t-15.5 65q0 85 60.5 120t171.5 35h98q0 53 -27 84t-81 31q-38 0 -71 -13.5t-57 -36.5l-63 63q40 41 93.5 59
t110.5 18q42 2 86 -15.5t73 -55.5q29 32 66 51.5t89 18.5q58 0 101.5 -20t72.5 -54.5t43 -81t14 -99.5v-33z" />
    <glyph glyph-name="oslash" unicode="&#xf8;" horiz-adv-x="610" 
d="M579 474l-70 -71q26 -32 41.5 -73t15.5 -90q0 -57 -20.5 -103.5t-55.5 -79.5t-83 -51t-102 -18q-46 0 -86.5 13t-72.5 36l-70 -71l-40 41l67 68q-28 32 -43.5 73.5t-15.5 91.5q0 57 20.5 103.5t55.5 79.5t83 51t102 18q46 0 87 -13t74 -37l71 72zM227 119q32 -23 78 -23
q33 0 59 12t44.5 32t28 46t9.5 54q0 43 -21 78zM384 360q-16 11 -36 17.5t-43 6.5q-33 0 -59 -12t-44.5 -32t-28 -46t-9.5 -54q0 -45 23 -80z" />
    <glyph glyph-name="oe" unicode="&#x153;" horiz-adv-x="926" 
d="M156 240q0 -30 9.5 -57.5t28 -48t44.5 -32.5t59 -12q34 0 60.5 12t45 32.5t28 48t9.5 57.5t-9.5 57.5t-28 48t-45 32.5t-60.5 12q-33 0 -59 -12t-44.5 -32.5t-28 -48t-9.5 -57.5zM770 288q-1 53 -32 83.5t-79 30.5q-21 0 -43 -7.5t-39.5 -21.5t-28.5 -35.5t-12 -49.5h234
zM540 204q-1 -27 10 -49t28.5 -38t38.5 -24.5t40 -8.5q45 0 75 18.5t53 46.5l83 -59q-40 -56 -92.5 -79t-118.5 -23q-60 0 -105 20t-73 57q-36 -40 -82.5 -58.5t-99.5 -18.5q-54 0 -102 18t-83 51t-55.5 79.5t-20.5 103.5t20.5 103.5t55.5 79.5t83 51t102 18t101 -19t83 -59
q32 40 78 59t100 19q58 0 101.5 -20t72.5 -54.5t43 -81t14 -99.5v-33h-350z" />
    <glyph glyph-name="germandbls" unicode="&#xdf;" horiz-adv-x="611" 
d="M56 511q0 136 59.5 196.5t180.5 60.5q43 0 82.5 -11.5t69.5 -35t47.5 -58t17.5 -80.5q0 -55 -27.5 -96t-78.5 -62v-2q40 -5 70 -23t50 -45.5t30 -62.5t10 -74q0 -51 -17.5 -93.5t-48.5 -73t-74.5 -47t-94.5 -16.5q-21 0 -42 2.5t-42 8.5v101q14 -6 27 -8t28 -2
q63 0 103.5 37t40.5 101q0 71 -42.5 107t-109.5 36h-14v102h8q45 0 74.5 24.5t29.5 69.5q0 42 -29.5 67.5t-71.5 25.5q-60 0 -88 -34.5t-28 -86.5v-539h-120v511z" />
    <glyph glyph-name="divide" unicode="&#xf7;" horiz-adv-x="666" 
d="M258 123q0 31 22 53t53 22t53 -22t22 -53t-22 -53t-53 -22t-53 22t-22 53zM258 483q0 31 22 53t53 22t53 -22t22 -53t-22 -53t-53 -22t-53 22t-22 53zM604 354v-102h-542v102h542z" />
    <glyph glyph-name="threequarters" unicode="&#xbe;" horiz-adv-x="889" 
d="M627 740l83 -38l-416 -734l-83 38zM712 85h-198v78l188 262h112v-256h52v-84h-52v-85h-102v85zM142 552h32q13 0 26 1.5t22.5 6.5t15.5 14t6 23q0 16 -14.5 24.5t-38.5 8.5q-23 0 -39.5 -11.5t-21.5 -32.5l-103 20q7 32 23 53.5t37.5 35t48 19.5t55.5 6q30 0 58 -7
t49.5 -21t34.5 -35.5t13 -50.5q0 -35 -20.5 -60.5t-58.5 -32.5v-2q42 -5 64.5 -34t22.5 -66q0 -32 -13.5 -56t-36 -40t-52.5 -24t-64 -8q-62 0 -106.5 27t-58.5 91l103 22q5 -23 20 -36.5t42 -13.5t45.5 11t18.5 37q0 17 -7.5 26.5t-19.5 14t-28 5.5t-32 1h-23v84zM715 335
h-2l-118 -176v-2h120v178z" />
    <glyph glyph-name="onequarter" unicode="&#xbc;" horiz-adv-x="889" 
d="M600 740l83 -38l-416 -734l-83 38zM705 303l-1 2l-95 -136h96v134zM705 85h-198v78l188 262h112v-256h53v-84h-53v-85h-102v85zM168 606l-84 -75l-55 66l150 117h91v-425h-102v317z" />
    <glyph glyph-name="onesuperior" unicode="&#xb9;" horiz-adv-x="385" 
d="M179 606l-84 -75l-55 66l150 117h91v-425h-102v317z" />
    <glyph glyph-name="multiply" unicode="&#xd7;" horiz-adv-x="666" 
d="M333 374l182 182l70 -70l-181 -181l185 -186l-74 -74l-183 181l-181 -181l-74 73l185 182l-184 186l72 71z" />
    <glyph glyph-name="registered" unicode="&#xae;" horiz-adv-x="800" 
d="M124 354q0 -60 21.5 -112.5t58.5 -91.5t87.5 -61.5t108.5 -22.5t108.5 22.5t87.5 61.5t58.5 91.5t21.5 112.5t-21.5 112.5t-58.5 91.5t-87.5 61.5t-108.5 22.5t-108.5 -22.5t-87.5 -61.5t-58.5 -91.5t-21.5 -112.5zM28 354q0 77 29.5 144.5t80 118t118 80t144.5 29.5
t144.5 -29.5t118 -80t80 -118t29.5 -144.5t-29.5 -144.5t-80 -118t-118 -80t-144.5 -29.5t-144.5 29.5t-118 80t-80 118t-29.5 144.5zM352 391h47q9 0 20 1t20.5 5t16 12.5t6.5 23.5t-6.5 23.5t-16 12.5t-20.5 5t-20 1h-47v-84zM257 553h125q34 0 65.5 -5t56 -17.5t39.5 -35
t15 -57.5q0 -26 -8 -47.5t-20.5 -36.5t-28 -24.5t-31.5 -11.5l100 -155h-105l-89 150h-23v-150h-96v390z" />
    <glyph glyph-name="Thorn" unicode="&#xde;" horiz-adv-x="611" 
d="M281 264q27 0 56 2t53.5 12t40 30t15.5 56q0 33 -14 52.5t-36 30t-49 13.5t-52 3h-90v-199h76zM79 708h126v-137h112q51 0 98.5 -10t83.5 -33.5t57.5 -63t21.5 -98.5q0 -67 -23 -108t-62 -63.5t-90.5 -30.5t-107.5 -8h-90v-156h-126v708z" />
    <glyph glyph-name="brokenbar" unicode="&#xa6;" horiz-adv-x="222" 
d="M162 175v-350h-102v350h102zM162 675v-350h-102v350h102z" />
    <glyph glyph-name="Eth" unicode="&#xd0;" horiz-adv-x="759" 
d="M299 114q59 0 111.5 13.5t91.5 42t61.5 74t22.5 110.5q0 64 -20 110t-55.5 74.5t-84 42t-106.5 13.5h-115v-186h216v-84h-216v-210h94zM79 324h-66v84h66v300h279q70 0 135 -21.5t115 -65.5t80 -110.5t30 -156.5q0 -91 -34.5 -157.5t-89 -110t-121 -65t-130.5 -21.5h-264
v324z" />
    <glyph glyph-name="onehalf" unicode="&#xbd;" horiz-adv-x="889" 
d="M602 740l83 -38l-416 -734l-83 38zM535 95l179 152q14 12 27.5 26t13.5 29q0 21 -16.5 30t-39.5 9q-27 0 -43.5 -15.5t-18.5 -38.5l-96 6q5 72 49.5 105t113.5 33q66 0 109.5 -32t43.5 -96q0 -65 -58 -109l-140 -108v-2h198v-84h-322v95zM171 606l-84 -75l-55 66l150 117
h91v-425h-102v317z" />
    <glyph glyph-name="ccedilla" unicode="&#xe7;" horiz-adv-x="482" 
d="M396 336q-21 22 -44 35t-47 13q-33 0 -59 -12t-44.5 -32t-28 -46t-9.5 -54t9.5 -54t28 -46t44.5 -32t59 -12q28 0 52 11.5t41 33.5l80 -86q-18 -18 -41 -30.5t-46.5 -21t-45.5 -12t-38 -3.5l-34 -48q22 0 43.5 -2t39 -10.5t28 -25t10.5 -45.5q0 -27 -13.5 -46t-33.5 -30
t-45 -16t-47 -5q-56 0 -106 28l22 46q38 -20 82 -20q8 0 18 2t18.5 6.5t14.5 13t6 20.5q0 20 -17.5 28t-33.5 8q-10 0 -19 -2t-18 -5l-27 25l57 83q-45 8 -83 29t-65.5 53t-43.5 73.5t-16 91.5q0 57 20.5 103.5t55.5 79.5t83 51t102 18q46 0 92.5 -17.5t81.5 -55.5z" />
    <glyph glyph-name="eth" unicode="&#xf0;" horiz-adv-x="610" 
d="M305 96q33 0 59 12t44.5 32t28 46t9.5 54t-9.5 54t-28 46t-44.5 32t-59 12t-59 -12t-44.5 -32t-28 -46t-9.5 -54t9.5 -54t28 -46t44.5 -32t59 -12zM506 712l-117 -54q36 -39 68 -82.5t56.5 -91t38.5 -99.5t14 -108q0 -63 -16.5 -116t-49.5 -91.5t-82 -60t-113 -21.5
q-54 0 -102 18t-83 51t-55.5 79.5t-20.5 103.5t20 103.5t54.5 79.5t80 51t96.5 18q33 0 62.5 -8.5t51.5 -29.5l2 2q-26 42 -58.5 79t-67.5 73l-3 3l-106 -49l-60 57l107 50q-7 7 -17 15.5l-21 17.5l-21.5 17.5l-17.5 14.5l100 58q27 -21 50.5 -42.5t34.5 -32.5l111 51z" />
    <glyph glyph-name="plusminus" unicode="&#xb1;" horiz-adv-x="666" 
d="M62 134h542v-102h-542v102zM283 574h102v-143h219v-102h-219v-143h-102v143h-221v102h221v143z" />
    <glyph glyph-name="Ccedilla" unicode="&#xc7;" horiz-adv-x="685" 
d="M565 542q-39 42 -75.5 56t-73.5 14q-55 0 -99.5 -19.5t-76.5 -54t-49.5 -80.5t-17.5 -99q0 -57 17.5 -105t49.5 -83t76.5 -55t99.5 -20q43 0 83.5 20.5t75.5 65.5l104 -74q-48 -66 -115 -95.5t-145 -30.5l-29 -42q22 0 43.5 -2t39 -10.5t28 -25t10.5 -45.5
q0 -27 -13.5 -46t-33.5 -30t-45 -16t-47 -5q-56 0 -106 28l22 46q38 -20 82 -20q8 0 18 2t18.5 6.5t14.5 13t6 20.5q0 20 -17.5 28t-33.5 8q-10 0 -19 -2t-18 -5l-27 25l51 75q-72 8 -131 38t-101.5 77.5t-66 111t-23.5 139.5q0 85 28 154.5t77.5 118.5t118 75.5t150.5 26.5
q72 0 133.5 -25.5t114.5 -86.5z" />
    <glyph glyph-name="thorn" unicode="&#xfe;" horiz-adv-x="630" 
d="M466 240q0 28 -9.5 54t-28 46t-44.5 32t-59 12t-59 -12t-44.5 -32t-28 -46t-9.5 -54t9.5 -54t28 -46t44.5 -32t59 -12t59 12t44.5 32t28 46t9.5 54zM68 756h120v-338h2q22 36 65 55t94 19q55 0 99 -19.5t75 -53.5t47 -80t16 -99t-17 -99t-47.5 -80t-73.5 -53.5t-94 -19.5
q-34 0 -60 7t-46 18t-34 23.5t-23 24.5h-3v-289h-120v984z" />
    <glyph glyph-name="copyright" unicode="&#xa9;" horiz-adv-x="800" 
d="M124 354q0 -60 21.5 -112.5t58.5 -91.5t87.5 -61.5t108.5 -22.5t108.5 22.5t87.5 61.5t58.5 91.5t21.5 112.5t-21.5 112.5t-58.5 91.5t-87.5 61.5t-108.5 22.5t-108.5 -22.5t-87.5 -61.5t-58.5 -91.5t-21.5 -112.5zM28 354q0 77 29.5 144.5t80 118t118 80t144.5 29.5
t144.5 -29.5t118 -80t80 -118t29.5 -144.5t-29.5 -144.5t-80 -118t-118 -80t-144.5 -29.5t-144.5 29.5t-118 80t-80 118t-29.5 144.5zM588 297q-5 -38 -21.5 -66.5t-40.5 -48t-53.5 -29.5t-62.5 -10q-47 0 -84 16.5t-62.5 45.5t-39 68t-13.5 84q0 46 13 84.5t37.5 66.5
t61.5 43.5t85 15.5q34 0 64 -9t54 -27t40 -45.5t22 -63.5h-94q-7 35 -29 48t-49 13q-58 0 -83.5 -35t-25.5 -89q0 -28 7 -52t20.5 -42t33.5 -28t46 -10q32 0 55 15.5t25 54.5h94z" />
    <glyph glyph-name="logicalnot" unicode="&#xac;" horiz-adv-x="666" 
d="M502 342h-440v102h542v-297h-102v195z" />
    <glyph glyph-name="twosuperior" unicode="&#xb2;" horiz-adv-x="385" 
d="M31 384l180 152q14 12 27.5 26t13.5 29q0 21 -16.5 30t-39.5 9q-27 0 -43.5 -15.5t-18.5 -38.5l-96 6q5 72 49.5 105t113.5 33q66 0 109.5 -32t43.5 -96q0 -65 -58 -109l-140 -108v-2h198v-84h-323v95z" />
    <glyph glyph-name="threesuperior" unicode="&#xb3;" horiz-adv-x="385" 
d="M146 552h32q13 0 26 1.5t22.5 6.5t15.5 14t6 23q0 16 -14.5 24.5t-38.5 8.5q-23 0 -39.5 -11.5t-21.5 -32.5l-103 20q7 32 23 53.5t37.5 35t48 19.5t55.5 6q30 0 58 -7t49.5 -21t34.5 -35.5t13 -50.5q0 -35 -20.5 -60.5t-58.5 -32.5v-2q42 -5 64.5 -34t22.5 -66
q0 -32 -13.5 -56t-36 -40t-52.5 -24t-64 -8q-62 0 -106.5 27t-58.5 91l103 22q5 -23 20 -36.5t42 -13.5t45.5 11t18.5 37q0 17 -7.5 26.5t-19.5 14t-28 5.5t-32 1h-23v84z" />
    <glyph glyph-name="trademark" unicode="&#x2122;" horiz-adv-x="1000" 
d="M480 708h142l98 -268l98 268h142v-412h-102v268h-2l-101 -268h-70l-101 268h-2v-268h-102v412zM162 618h-122v90h346v-90h-122v-322h-102v322z" />
    <glyph glyph-name="degree" unicode="&#xb0;" horiz-adv-x="400" 
d="M118 560q0 -34 24 -58t58 -24t58 24t24 58t-24 58t-58 24t-58 -24t-24 -58zM40 560q0 33 12.5 62t34.5 51t51 34.5t62 12.5t62 -12.5t51 -34.5t34.5 -51t12.5 -62t-12.5 -62t-34.5 -51t-51 -34.5t-62 -12.5t-62 12.5t-51 34.5t-34.5 51t-12.5 62z" />
    <glyph glyph-name="mu" unicode="&#xb5;" horiz-adv-x="574" 
d="M188 480v-243q0 -20 2 -44.5t10.5 -46t26 -36t49.5 -14.5q30 0 50.5 10t34 27t19.5 39t6 46v262h120v-480h-114v77h-2q-17 -36 -52 -62.5t-95 -26.5q-33 0 -55 7v-223h-120v708h120z" />
    <glyph glyph-name="mu" unicode="&#x3bc;" horiz-adv-x="574" 
d="M188 480v-243q0 -20 2 -44.5t10.5 -46t26 -36t49.5 -14.5q30 0 50.5 10t34 27t19.5 39t6 46v262h120v-480h-114v77h-2q-17 -36 -52 -62.5t-95 -26.5q-33 0 -55 7v-223h-120v708h120z" />
    <glyph glyph-name="space" unicode=" " horiz-adv-x="296" 
 />
    <glyph glyph-name="space" unicode="&#xa0;" horiz-adv-x="296" 
 />
    <glyph glyph-name="Aacute" unicode="&#xc1;" horiz-adv-x="722" 
d="M468 270l-109 288l-111 -288h220zM308 708h109l305 -708h-144l-66 162h-307l-64 -162h-141zM413 900h136l-141 -144h-94z" />
    <glyph glyph-name="Acircumflex" unicode="&#xc2;" horiz-adv-x="722" 
d="M468 270l-109 288l-111 -288h220zM308 708h109l305 -708h-144l-66 162h-307l-64 -162h-141zM429 756l-69 90l-69 -90h-112l115 144h135l114 -144h-114z" />
    <glyph glyph-name="Adieresis" unicode="&#xc4;" horiz-adv-x="722" 
d="M468 270l-109 288l-111 -288h220zM308 708h109l305 -708h-144l-66 162h-307l-64 -162h-141zM387 828q0 29 21.5 50.5t54.5 21.5t55.5 -20.5t22.5 -51.5t-22.5 -51.5t-55.5 -20.5t-54.5 21.5t-21.5 50.5zM181 828q0 29 21.5 50.5t54.5 21.5t55.5 -20.5t22.5 -51.5
t-22.5 -51.5t-55.5 -20.5t-54.5 21.5t-21.5 50.5z" />
    <glyph glyph-name="Agrave" unicode="&#xc0;" horiz-adv-x="722" 
d="M468 270l-109 288l-111 -288h220zM308 708h109l305 -708h-144l-66 162h-307l-64 -162h-141zM408 756h-94l-141 144h136z" />
    <glyph glyph-name="Aring" unicode="&#xc5;" horiz-adv-x="722" 
d="M468 270l-109 288l-111 -288h220zM308 708h109l305 -708h-144l-66 162h-307l-64 -162h-141zM418 837q0 23 -17 38.5t-40 15.5t-40 -15.5t-17 -38.5t17 -38.5t40 -15.5t40 15t17 39zM466 837q0 -45 -30 -73.5t-75 -28.5t-75 28.5t-30 72.5q0 22 8 41t22 32.5t33 21.5t42 8
q45 0 75 -28.5t30 -73.5z" />
    <glyph glyph-name="Atilde" unicode="&#xc3;" horiz-adv-x="722" 
d="M468 270l-109 288l-111 -288h220zM308 708h109l305 -708h-144l-66 162h-307l-64 -162h-141zM177 760q4 24 11.5 47t20.5 40.5t32.5 28.5t47.5 11q20 0 40.5 -6t39.5 -12.5l35.5 -12.5t28.5 -6q20 0 30.5 12.5t15.5 29.5h66q-4 -24 -11.5 -47t-20.5 -40.5t-32.5 -28.5
t-47.5 -11q-20 0 -40.5 6t-39.5 13l-35.5 13t-28.5 6q-20 0 -30.5 -13t-15.5 -30h-66z" />
    <glyph glyph-name="Eacute" unicode="&#xc9;" horiz-adv-x="611" 
d="M79 708h469v-114h-343v-174h325v-114h-325v-192h361v-114h-487v708zM358 900h136l-141 -144h-94z" />
    <glyph glyph-name="Ecircumflex" unicode="&#xca;" horiz-adv-x="611" 
d="M79 708h469v-114h-343v-174h325v-114h-325v-192h361v-114h-487v708zM374 756l-69 90l-69 -90h-112l115 144h135l114 -144h-114z" />
    <glyph glyph-name="Edieresis" unicode="&#xcb;" horiz-adv-x="611" 
d="M79 708h469v-114h-343v-174h325v-114h-325v-192h361v-114h-487v708zM332 828q0 29 21.5 50.5t54.5 21.5t55.5 -20.5t22.5 -51.5t-22.5 -51.5t-55.5 -20.5t-54.5 21.5t-21.5 50.5zM126 828q0 29 21.5 50.5t54.5 21.5t55.5 -20.5t22.5 -51.5t-22.5 -51.5t-55.5 -20.5
t-54.5 21.5t-21.5 50.5z" />
    <glyph glyph-name="Egrave" unicode="&#xc8;" horiz-adv-x="611" 
d="M79 708h469v-114h-343v-174h325v-114h-325v-192h361v-114h-487v708zM353 756h-94l-141 144h136z" />
    <glyph glyph-name="Iacute" unicode="&#xcd;" horiz-adv-x="278" 
d="M76 708h126v-708h-126v708zM191 900h136l-141 -144h-94z" />
    <glyph glyph-name="Icircumflex" unicode="&#xce;" horiz-adv-x="278" 
d="M76 708h126v-708h-126v708zM207 756l-69 90l-69 -90h-112l115 144h135l114 -144h-114z" />
    <glyph glyph-name="Idieresis" unicode="&#xcf;" horiz-adv-x="278" 
d="M76 708h126v-708h-126v708zM165 828q0 29 21.5 50.5t54.5 21.5t55.5 -20.5t22.5 -51.5t-22.5 -51.5t-55.5 -20.5t-54.5 21.5t-21.5 50.5zM-41 828q0 29 21.5 50.5t54.5 21.5t55.5 -20.5t22.5 -51.5t-22.5 -51.5t-55.5 -20.5t-54.5 21.5t-21.5 50.5z" />
    <glyph glyph-name="Igrave" unicode="&#xcc;" horiz-adv-x="278" 
d="M76 708h126v-708h-126v708zM186 756h-94l-141 144h136z" />
    <glyph glyph-name="Ntilde" unicode="&#xd1;" horiz-adv-x="796" 
d="M79 708h167l343 -526l2 -2h-2l2 2v526h126v-708h-160l-350 543h-2v-543h-126v708zM214 760q4 24 11.5 47t20.5 40.5t32.5 28.5t47.5 11q20 0 40.5 -6t39.5 -12.5l35.5 -12.5t28.5 -6q20 0 30.5 12.5t15.5 29.5h66q-4 -24 -11.5 -47t-20.5 -40.5t-32.5 -28.5t-47.5 -11
q-20 0 -40.5 6t-39.5 13l-35.5 13t-28.5 6q-20 0 -30.5 -13t-15.5 -30h-66z" />
    <glyph glyph-name="Oacute" unicode="&#xd3;" horiz-adv-x="833" 
d="M173 359q0 -57 17.5 -105t49.5 -83t76.5 -55t99.5 -20t100 20t77 55t49.5 83t17.5 105q0 53 -17.5 99t-49.5 80.5t-77 54t-100 19.5t-99.5 -19.5t-76.5 -54t-49.5 -80.5t-17.5 -99zM41 351q0 85 28 154.5t77.5 118.5t118 75.5t150.5 26.5q83 1 152 -24.5t119 -74.5
t78 -118t28 -154q0 -83 -28 -151t-78 -117t-119 -76.5t-152 -28.5q-82 0 -150.5 26.5t-118 75t-77.5 116.5t-28 151zM469 900h136l-141 -144h-94z" />
    <glyph glyph-name="Ocircumflex" unicode="&#xd4;" horiz-adv-x="833" 
d="M173 359q0 -57 17.5 -105t49.5 -83t76.5 -55t99.5 -20t100 20t77 55t49.5 83t17.5 105q0 53 -17.5 99t-49.5 80.5t-77 54t-100 19.5t-99.5 -19.5t-76.5 -54t-49.5 -80.5t-17.5 -99zM41 351q0 85 28 154.5t77.5 118.5t118 75.5t150.5 26.5q83 1 152 -24.5t119 -74.5
t78 -118t28 -154q0 -83 -28 -151t-78 -117t-119 -76.5t-152 -28.5q-82 0 -150.5 26.5t-118 75t-77.5 116.5t-28 151zM485 756l-69 90l-69 -90h-112l115 144h135l114 -144h-114z" />
    <glyph glyph-name="Odieresis" unicode="&#xd6;" horiz-adv-x="833" 
d="M173 359q0 -57 17.5 -105t49.5 -83t76.5 -55t99.5 -20t100 20t77 55t49.5 83t17.5 105q0 53 -17.5 99t-49.5 80.5t-77 54t-100 19.5t-99.5 -19.5t-76.5 -54t-49.5 -80.5t-17.5 -99zM41 351q0 85 28 154.5t77.5 118.5t118 75.5t150.5 26.5q83 1 152 -24.5t119 -74.5
t78 -118t28 -154q0 -83 -28 -151t-78 -117t-119 -76.5t-152 -28.5q-82 0 -150.5 26.5t-118 75t-77.5 116.5t-28 151zM443 828q0 29 21.5 50.5t54.5 21.5t55.5 -20.5t22.5 -51.5t-22.5 -51.5t-55.5 -20.5t-54.5 21.5t-21.5 50.5zM237 828q0 29 21.5 50.5t54.5 21.5
t55.5 -20.5t22.5 -51.5t-22.5 -51.5t-55.5 -20.5t-54.5 21.5t-21.5 50.5z" />
    <glyph glyph-name="Ograve" unicode="&#xd2;" horiz-adv-x="833" 
d="M173 359q0 -57 17.5 -105t49.5 -83t76.5 -55t99.5 -20t100 20t77 55t49.5 83t17.5 105q0 53 -17.5 99t-49.5 80.5t-77 54t-100 19.5t-99.5 -19.5t-76.5 -54t-49.5 -80.5t-17.5 -99zM41 351q0 85 28 154.5t77.5 118.5t118 75.5t150.5 26.5q83 1 152 -24.5t119 -74.5
t78 -118t28 -154q0 -83 -28 -151t-78 -117t-119 -76.5t-152 -28.5q-82 0 -150.5 26.5t-118 75t-77.5 116.5t-28 151zM464 756h-94l-141 144h136z" />
    <glyph glyph-name="Otilde" unicode="&#xd5;" horiz-adv-x="833" 
d="M173 359q0 -57 17.5 -105t49.5 -83t76.5 -55t99.5 -20t100 20t77 55t49.5 83t17.5 105q0 53 -17.5 99t-49.5 80.5t-77 54t-100 19.5t-99.5 -19.5t-76.5 -54t-49.5 -80.5t-17.5 -99zM41 351q0 85 28 154.5t77.5 118.5t118 75.5t150.5 26.5q83 1 152 -24.5t119 -74.5
t78 -118t28 -154q0 -83 -28 -151t-78 -117t-119 -76.5t-152 -28.5q-82 0 -150.5 26.5t-118 75t-77.5 116.5t-28 151zM233 760q4 24 11.5 47t20.5 40.5t32.5 28.5t47.5 11q20 0 40.5 -6t39.5 -12.5l35.5 -12.5t28.5 -6q20 0 30.5 12.5t15.5 29.5h66q-4 -24 -11.5 -47
t-20.5 -40.5t-32.5 -28.5t-47.5 -11q-20 0 -40.5 6t-39.5 13l-35.5 13t-28.5 6q-20 0 -30.5 -13t-15.5 -30h-66z" />
    <glyph glyph-name="Scaron" unicode="&#x160;" horiz-adv-x="574" 
d="M426 556q-20 29 -53.5 42.5t-70.5 13.5q-22 0 -42.5 -5t-37 -16t-26.5 -28.5t-10 -41.5q0 -36 25 -55t62 -33t81 -27t81 -36t62 -61t25 -101q0 -57 -21 -99.5t-56.5 -70.5t-82.5 -42t-99 -14q-66 0 -127 22t-105 74l95 92q23 -35 60.5 -54.5t79.5 -19.5q22 0 44 6t40 18
t29 30.5t11 42.5q0 39 -25 60t-62 35.5t-81 27.5t-81 35.5t-62 60t-25 100.5q0 55 22.5 95t59 66.5t83.5 39.5t96 13q56 0 108.5 -17t94.5 -56zM220 900l69 -90l69 90h110l-115 -144h-133l-114 144h114z" />
    <glyph glyph-name="Uacute" unicode="&#xda;" horiz-adv-x="722" 
d="M646 260q0 -64 -22 -115.5t-60 -87.5t-90 -55.5t-113 -19.5t-113 19.5t-90.5 55.5t-60 87.5t-21.5 115.5v448h126v-444q0 -26 8 -54.5t26.5 -52.5t49 -39.5t75.5 -15.5t75.5 15.5t49 39.5t26.5 52.5t8 54.5v444h126v-448zM413 900h136l-141 -144h-94z" />
    <glyph glyph-name="Ucircumflex" unicode="&#xdb;" horiz-adv-x="722" 
d="M646 260q0 -64 -22 -115.5t-60 -87.5t-90 -55.5t-113 -19.5t-113 19.5t-90.5 55.5t-60 87.5t-21.5 115.5v448h126v-444q0 -26 8 -54.5t26.5 -52.5t49 -39.5t75.5 -15.5t75.5 15.5t49 39.5t26.5 52.5t8 54.5v444h126v-448zM429 756l-69 90l-69 -90h-112l115 144h135
l114 -144h-114z" />
    <glyph glyph-name="Udieresis" unicode="&#xdc;" horiz-adv-x="722" 
d="M646 260q0 -64 -22 -115.5t-60 -87.5t-90 -55.5t-113 -19.5t-113 19.5t-90.5 55.5t-60 87.5t-21.5 115.5v448h126v-444q0 -26 8 -54.5t26.5 -52.5t49 -39.5t75.5 -15.5t75.5 15.5t49 39.5t26.5 52.5t8 54.5v444h126v-448zM387 828q0 29 21.5 50.5t54.5 21.5t55.5 -20.5
t22.5 -51.5t-22.5 -51.5t-55.5 -20.5t-54.5 21.5t-21.5 50.5zM181 828q0 29 21.5 50.5t54.5 21.5t55.5 -20.5t22.5 -51.5t-22.5 -51.5t-55.5 -20.5t-54.5 21.5t-21.5 50.5z" />
    <glyph glyph-name="Ugrave" unicode="&#xd9;" horiz-adv-x="722" 
d="M646 260q0 -64 -22 -115.5t-60 -87.5t-90 -55.5t-113 -19.5t-113 19.5t-90.5 55.5t-60 87.5t-21.5 115.5v448h126v-444q0 -26 8 -54.5t26.5 -52.5t49 -39.5t75.5 -15.5t75.5 15.5t49 39.5t26.5 52.5t8 54.5v444h126v-448zM408 756h-94l-141 144h136z" />
    <glyph glyph-name="Yacute" unicode="&#xdd;" horiz-adv-x="630" 
d="M252 303l-266 405h158l174 -282l176 282h150l-266 -405v-303h-126v303zM367 900h136l-141 -144h-94z" />
    <glyph glyph-name="Ydieresis" unicode="&#x178;" horiz-adv-x="630" 
d="M252 303l-266 405h158l174 -282l176 282h150l-266 -405v-303h-126v303zM341 828q0 29 21.5 50.5t54.5 21.5t55.5 -20.5t22.5 -51.5t-22.5 -51.5t-55.5 -20.5t-54.5 21.5t-21.5 50.5zM135 828q0 29 21.5 50.5t54.5 21.5t55.5 -20.5t22.5 -51.5t-22.5 -51.5t-55.5 -20.5
t-54.5 21.5t-21.5 50.5z" />
    <glyph glyph-name="Zcaron" horiz-adv-x="611" 
d="M35 114l378 480h-372v114h529v-114l-381 -480h387v-114h-541v114zM239 900l69 -90l69 90h110l-115 -144h-133l-114 144h114z" />
    <glyph glyph-name="Zcaron" unicode="&#x17d;" horiz-adv-x="611" 
d="M35 114l378 480h-372v114h529v-114l-381 -480h387v-114h-541v114zM239 900l69 -90l69 90h110l-115 -144h-133l-114 144h114z" />
    <glyph glyph-name="aacute" unicode="&#xe1;" horiz-adv-x="537" 
d="M361 215h-25q-25 0 -56 -2t-58.5 -9.5t-46.5 -22t-19 -40.5q0 -17 7.5 -28.5t19.5 -19.5t27 -11.5t30 -3.5q62 0 91.5 29.5t29.5 80.5v27zM368 66h-3q-26 -41 -66 -59.5t-88 -18.5q-33 0 -64.5 9t-56 27t-39.5 45t-15 63q0 39 14 66.5t37.5 46t54.5 29.5t64.5 16.5
t67.5 7t64 1.5h30v13q0 45 -31 67.5t-79 22.5q-38 0 -71 -13.5t-57 -36.5l-63 63q40 41 93.5 59t110.5 18q51 0 86 -11.5t58 -29.5t35.5 -41.5t18 -47.5t6.5 -46.5t1 -39.5v-276h-108v66zM321 708h136l-141 -144h-94z" />
    <glyph glyph-name="acircumflex" unicode="&#xe2;" horiz-adv-x="537" 
d="M361 215h-25q-25 0 -56 -2t-58.5 -9.5t-46.5 -22t-19 -40.5q0 -17 7.5 -28.5t19.5 -19.5t27 -11.5t30 -3.5q62 0 91.5 29.5t29.5 80.5v27zM368 66h-3q-26 -41 -66 -59.5t-88 -18.5q-33 0 -64.5 9t-56 27t-39.5 45t-15 63q0 39 14 66.5t37.5 46t54.5 29.5t64.5 16.5
t67.5 7t64 1.5h30v13q0 45 -31 67.5t-79 22.5q-38 0 -71 -13.5t-57 -36.5l-63 63q40 41 93.5 59t110.5 18q51 0 86 -11.5t58 -29.5t35.5 -41.5t18 -47.5t6.5 -46.5t1 -39.5v-276h-108v66zM337 564l-69 90l-69 -90h-112l115 144h135l114 -144h-114z" />
    <glyph glyph-name="adieresis" unicode="&#xe4;" horiz-adv-x="537" 
d="M361 215h-25q-25 0 -56 -2t-58.5 -9.5t-46.5 -22t-19 -40.5q0 -17 7.5 -28.5t19.5 -19.5t27 -11.5t30 -3.5q62 0 91.5 29.5t29.5 80.5v27zM368 66h-3q-26 -41 -66 -59.5t-88 -18.5q-33 0 -64.5 9t-56 27t-39.5 45t-15 63q0 39 14 66.5t37.5 46t54.5 29.5t64.5 16.5
t67.5 7t64 1.5h30v13q0 45 -31 67.5t-79 22.5q-38 0 -71 -13.5t-57 -36.5l-63 63q40 41 93.5 59t110.5 18q51 0 86 -11.5t58 -29.5t35.5 -41.5t18 -47.5t6.5 -46.5t1 -39.5v-276h-108v66zM295 636q0 29 21.5 50.5t54.5 21.5t55.5 -20.5t22.5 -51.5t-22.5 -51.5t-55.5 -20.5
t-54.5 21.5t-21.5 50.5zM89 636q0 29 21.5 50.5t54.5 21.5t55.5 -20.5t22.5 -51.5t-22.5 -51.5t-55.5 -20.5t-54.5 21.5t-21.5 50.5z" />
    <glyph glyph-name="agrave" unicode="&#xe0;" horiz-adv-x="537" 
d="M361 215h-25q-25 0 -56 -2t-58.5 -9.5t-46.5 -22t-19 -40.5q0 -17 7.5 -28.5t19.5 -19.5t27 -11.5t30 -3.5q62 0 91.5 29.5t29.5 80.5v27zM368 66h-3q-26 -41 -66 -59.5t-88 -18.5q-33 0 -64.5 9t-56 27t-39.5 45t-15 63q0 39 14 66.5t37.5 46t54.5 29.5t64.5 16.5
t67.5 7t64 1.5h30v13q0 45 -31 67.5t-79 22.5q-38 0 -71 -13.5t-57 -36.5l-63 63q40 41 93.5 59t110.5 18q51 0 86 -11.5t58 -29.5t35.5 -41.5t18 -47.5t6.5 -46.5t1 -39.5v-276h-108v66zM316 564h-94l-141 144h136z" />
    <glyph glyph-name="aring" unicode="&#xe5;" horiz-adv-x="537" 
d="M361 215h-25q-25 0 -56 -2t-58.5 -9.5t-46.5 -22t-19 -40.5q0 -17 7.5 -28.5t19.5 -19.5t27 -11.5t30 -3.5q62 0 91.5 29.5t29.5 80.5v27zM368 66h-3q-26 -41 -66 -59.5t-88 -18.5q-33 0 -64.5 9t-56 27t-39.5 45t-15 63q0 39 14 66.5t37.5 46t54.5 29.5t64.5 16.5
t67.5 7t64 1.5h30v13q0 45 -31 67.5t-79 22.5q-38 0 -71 -13.5t-57 -36.5l-63 63q40 41 93.5 59t110.5 18q51 0 86 -11.5t58 -29.5t35.5 -41.5t18 -47.5t6.5 -46.5t1 -39.5v-276h-108v66zM326 655q0 23 -17 38.5t-40 15.5t-40 -15.5t-17 -38.5t17 -38.5t40 -15.5t40 15
t17 39zM374 655q0 -45 -30 -73.5t-75 -28.5t-75 28.5t-30 72.5q0 22 8 41t22 32.5t33 21.5t42 8q45 0 75 -28.5t30 -73.5z" />
    <glyph glyph-name="atilde" unicode="&#xe3;" horiz-adv-x="537" 
d="M361 215h-25q-25 0 -56 -2t-58.5 -9.5t-46.5 -22t-19 -40.5q0 -17 7.5 -28.5t19.5 -19.5t27 -11.5t30 -3.5q62 0 91.5 29.5t29.5 80.5v27zM368 66h-3q-26 -41 -66 -59.5t-88 -18.5q-33 0 -64.5 9t-56 27t-39.5 45t-15 63q0 39 14 66.5t37.5 46t54.5 29.5t64.5 16.5
t67.5 7t64 1.5h30v13q0 45 -31 67.5t-79 22.5q-38 0 -71 -13.5t-57 -36.5l-63 63q40 41 93.5 59t110.5 18q51 0 86 -11.5t58 -29.5t35.5 -41.5t18 -47.5t6.5 -46.5t1 -39.5v-276h-108v66zM85 568q4 24 11.5 47t20.5 40.5t32.5 28.5t47.5 11q20 0 40.5 -6t39.5 -12.5
l35.5 -12.5t28.5 -6q20 0 30.5 12.5t15.5 29.5h66q-4 -24 -11.5 -47t-20.5 -40.5t-32.5 -28.5t-47.5 -11q-20 0 -40.5 6t-39.5 13l-35.5 13t-28.5 6q-20 0 -30.5 -13t-15.5 -30h-66z" />
    <glyph glyph-name="eacute" unicode="&#xe9;" horiz-adv-x="574" 
d="M410 288q-1 53 -33 83.5t-89 30.5q-54 0 -85.5 -31t-38.5 -83h246zM164 198q6 -54 42 -84t87 -30q45 0 75.5 18.5t53.5 46.5l86 -65q-42 -52 -94 -74t-109 -22q-54 0 -102 18t-83 51t-55.5 79.5t-20.5 103.5t20.5 103.5t55.5 79.5t83 51t102 18q50 0 91.5 -17.5t71 -50.5
t46 -81.5t16.5 -111.5v-33h-366zM339 708h136l-141 -144h-94z" />
    <glyph glyph-name="ecircumflex" unicode="&#xea;" horiz-adv-x="574" 
d="M410 288q-1 53 -33 83.5t-89 30.5q-54 0 -85.5 -31t-38.5 -83h246zM164 198q6 -54 42 -84t87 -30q45 0 75.5 18.5t53.5 46.5l86 -65q-42 -52 -94 -74t-109 -22q-54 0 -102 18t-83 51t-55.5 79.5t-20.5 103.5t20.5 103.5t55.5 79.5t83 51t102 18q50 0 91.5 -17.5t71 -50.5
t46 -81.5t16.5 -111.5v-33h-366zM355 564l-69 90l-69 -90h-112l115 144h135l114 -144h-114z" />
    <glyph glyph-name="edieresis" unicode="&#xeb;" horiz-adv-x="574" 
d="M410 288q-1 53 -33 83.5t-89 30.5q-54 0 -85.5 -31t-38.5 -83h246zM164 198q6 -54 42 -84t87 -30q45 0 75.5 18.5t53.5 46.5l86 -65q-42 -52 -94 -74t-109 -22q-54 0 -102 18t-83 51t-55.5 79.5t-20.5 103.5t20.5 103.5t55.5 79.5t83 51t102 18q50 0 91.5 -17.5t71 -50.5
t46 -81.5t16.5 -111.5v-33h-366zM313 636q0 29 21.5 50.5t54.5 21.5t55.5 -20.5t22.5 -51.5t-22.5 -51.5t-55.5 -20.5t-54.5 21.5t-21.5 50.5zM107 636q0 29 21.5 50.5t54.5 21.5t55.5 -20.5t22.5 -51.5t-22.5 -51.5t-55.5 -20.5t-54.5 21.5t-21.5 50.5z" />
    <glyph glyph-name="egrave" unicode="&#xe8;" horiz-adv-x="574" 
d="M410 288q-1 53 -33 83.5t-89 30.5q-54 0 -85.5 -31t-38.5 -83h246zM164 198q6 -54 42 -84t87 -30q45 0 75.5 18.5t53.5 46.5l86 -65q-42 -52 -94 -74t-109 -22q-54 0 -102 18t-83 51t-55.5 79.5t-20.5 103.5t20.5 103.5t55.5 79.5t83 51t102 18q50 0 91.5 -17.5t71 -50.5
t46 -81.5t16.5 -111.5v-33h-366zM334 564h-94l-141 144h136z" />
    <glyph glyph-name="iacute" unicode="&#xed;" 
d="M70 480h120v-480h-120v480zM171 708h136l-141 -144h-94z" />
    <glyph glyph-name="icircumflex" unicode="&#xee;" 
d="M70 480h120v-480h-120v480zM198 564l-69 90l-69 -90h-112l115 144h135l114 -144h-114z" />
    <glyph glyph-name="idieresis" unicode="&#xef;" 
d="M70 480h120v-480h-120v480zM156 636q0 29 21.5 50.5t54.5 21.5t55.5 -20.5t22.5 -51.5t-22.5 -51.5t-55.5 -20.5t-54.5 21.5t-21.5 50.5zM-50 636q0 29 21.5 50.5t54.5 21.5t55.5 -20.5t22.5 -51.5t-22.5 -51.5t-55.5 -20.5t-54.5 21.5t-21.5 50.5z" />
    <glyph glyph-name="igrave" unicode="&#xec;" 
d="M70 480h120v-480h-120v480zM189 564h-94l-141 144h136z" />
    <glyph glyph-name="ntilde" unicode="&#xf1;" horiz-adv-x="574" 
d="M68 480h114v-77h2q17 36 52 62.5t95 26.5q48 0 81.5 -16t54.5 -42t30 -60t9 -71v-303h-120v243q0 20 -2 44.5t-10.5 46t-26.5 36t-49 14.5q-30 0 -50.5 -10t-34 -27t-19.5 -39t-6 -46v-262h-120v480zM103 568q4 24 11.5 47t20.5 40.5t32.5 28.5t47.5 11q20 0 40.5 -6
t39.5 -12.5l35.5 -12.5t28.5 -6q20 0 30.5 12.5t15.5 29.5h66q-4 -24 -11.5 -47t-20.5 -40.5t-32.5 -28.5t-47.5 -11q-20 0 -40.5 6t-39.5 13l-35.5 13t-28.5 6q-20 0 -30.5 -13t-15.5 -30h-66z" />
    <glyph glyph-name="oacute" unicode="&#xf3;" horiz-adv-x="610" 
d="M164 240q0 -28 9.5 -54t28 -46t44.5 -32t59 -12t59 12t44.5 32t28 46t9.5 54t-9.5 54t-28 46t-44.5 32t-59 12t-59 -12t-44.5 -32t-28 -46t-9.5 -54zM44 240q0 57 20.5 103.5t55.5 79.5t83 51t102 18t102 -18t83 -51t55.5 -79.5t20.5 -103.5t-20.5 -103.5t-55.5 -79.5
t-83 -51t-102 -18t-102 18t-83 51t-55.5 79.5t-20.5 103.5zM357 708h136l-141 -144h-94z" />
    <glyph glyph-name="ocircumflex" unicode="&#xf4;" horiz-adv-x="610" 
d="M164 240q0 -28 9.5 -54t28 -46t44.5 -32t59 -12t59 12t44.5 32t28 46t9.5 54t-9.5 54t-28 46t-44.5 32t-59 12t-59 -12t-44.5 -32t-28 -46t-9.5 -54zM44 240q0 57 20.5 103.5t55.5 79.5t83 51t102 18t102 -18t83 -51t55.5 -79.5t20.5 -103.5t-20.5 -103.5t-55.5 -79.5
t-83 -51t-102 -18t-102 18t-83 51t-55.5 79.5t-20.5 103.5zM373 564l-69 90l-69 -90h-112l115 144h135l114 -144h-114z" />
    <glyph glyph-name="odieresis" unicode="&#xf6;" horiz-adv-x="610" 
d="M164 240q0 -28 9.5 -54t28 -46t44.5 -32t59 -12t59 12t44.5 32t28 46t9.5 54t-9.5 54t-28 46t-44.5 32t-59 12t-59 -12t-44.5 -32t-28 -46t-9.5 -54zM44 240q0 57 20.5 103.5t55.5 79.5t83 51t102 18t102 -18t83 -51t55.5 -79.5t20.5 -103.5t-20.5 -103.5t-55.5 -79.5
t-83 -51t-102 -18t-102 18t-83 51t-55.5 79.5t-20.5 103.5zM331 636q0 29 21.5 50.5t54.5 21.5t55.5 -20.5t22.5 -51.5t-22.5 -51.5t-55.5 -20.5t-54.5 21.5t-21.5 50.5zM125 636q0 29 21.5 50.5t54.5 21.5t55.5 -20.5t22.5 -51.5t-22.5 -51.5t-55.5 -20.5t-54.5 21.5
t-21.5 50.5z" />
    <glyph glyph-name="ograve" unicode="&#xf2;" horiz-adv-x="610" 
d="M164 240q0 -28 9.5 -54t28 -46t44.5 -32t59 -12t59 12t44.5 32t28 46t9.5 54t-9.5 54t-28 46t-44.5 32t-59 12t-59 -12t-44.5 -32t-28 -46t-9.5 -54zM44 240q0 57 20.5 103.5t55.5 79.5t83 51t102 18t102 -18t83 -51t55.5 -79.5t20.5 -103.5t-20.5 -103.5t-55.5 -79.5
t-83 -51t-102 -18t-102 18t-83 51t-55.5 79.5t-20.5 103.5zM352 564h-94l-141 144h136z" />
    <glyph glyph-name="otilde" unicode="&#xf5;" horiz-adv-x="610" 
d="M164 240q0 -28 9.5 -54t28 -46t44.5 -32t59 -12t59 12t44.5 32t28 46t9.5 54t-9.5 54t-28 46t-44.5 32t-59 12t-59 -12t-44.5 -32t-28 -46t-9.5 -54zM44 240q0 57 20.5 103.5t55.5 79.5t83 51t102 18t102 -18t83 -51t55.5 -79.5t20.5 -103.5t-20.5 -103.5t-55.5 -79.5
t-83 -51t-102 -18t-102 18t-83 51t-55.5 79.5t-20.5 103.5zM121 568q4 24 11.5 47t20.5 40.5t32.5 28.5t47.5 11q20 0 40.5 -6t39.5 -12.5l35.5 -12.5t28.5 -6q20 0 30.5 12.5t15.5 29.5h66q-4 -24 -11.5 -47t-20.5 -40.5t-32.5 -28.5t-47.5 -11q-20 0 -40.5 6t-39.5 13
l-35.5 13t-28.5 6q-20 0 -30.5 -13t-15.5 -30h-66z" />
    <glyph glyph-name="scaron" unicode="&#x161;" horiz-adv-x="444" 
d="M324 347q-35 49 -94 49q-24 0 -47 -12t-23 -39q0 -22 19 -32t48 -17l62.5 -14.5t62.5 -23t48 -42.5t19 -74q0 -43 -18.5 -72.5t-48 -47.5t-66.5 -26t-74 -8q-56 0 -103 16t-84 58l80 75q23 -26 49.5 -42.5t64.5 -16.5q13 0 27 3t26 10t19.5 17.5t7.5 24.5q0 25 -19 37
t-48 19.5t-62.5 14t-62.5 21t-48 40.5t-19 72q0 40 16.5 69.5t43.5 48.5t62 28t71 9q48 0 95 -16.5t76 -56.5zM155 708l69 -90l69 90h110l-115 -144h-133l-114 144h114z" />
    <glyph glyph-name="uacute" unicode="&#xfa;" horiz-adv-x="574" 
d="M506 0h-114v77h-2q-17 -36 -52 -62.5t-95 -26.5q-48 0 -81.5 15.5t-54.5 42t-30 60.5t-9 71v303h120v-243q0 -20 2 -44.5t10.5 -46t26 -36t49.5 -14.5q30 0 50.5 10t34 27t19.5 39t6 46v262h120v-480zM339 708h136l-141 -144h-94z" />
    <glyph glyph-name="ucircumflex" unicode="&#xfb;" horiz-adv-x="574" 
d="M506 0h-114v77h-2q-17 -36 -52 -62.5t-95 -26.5q-48 0 -81.5 15.5t-54.5 42t-30 60.5t-9 71v303h120v-243q0 -20 2 -44.5t10.5 -46t26 -36t49.5 -14.5q30 0 50.5 10t34 27t19.5 39t6 46v262h120v-480zM355 564l-69 90l-69 -90h-112l115 144h135l114 -144h-114z" />
    <glyph glyph-name="udieresis" unicode="&#xfc;" horiz-adv-x="574" 
d="M506 0h-114v77h-2q-17 -36 -52 -62.5t-95 -26.5q-48 0 -81.5 15.5t-54.5 42t-30 60.5t-9 71v303h120v-243q0 -20 2 -44.5t10.5 -46t26 -36t49.5 -14.5q30 0 50.5 10t34 27t19.5 39t6 46v262h120v-480zM313 636q0 29 21.5 50.5t54.5 21.5t55.5 -20.5t22.5 -51.5
t-22.5 -51.5t-55.5 -20.5t-54.5 21.5t-21.5 50.5zM107 636q0 29 21.5 50.5t54.5 21.5t55.5 -20.5t22.5 -51.5t-22.5 -51.5t-55.5 -20.5t-54.5 21.5t-21.5 50.5z" />
    <glyph glyph-name="ugrave" unicode="&#xf9;" horiz-adv-x="574" 
d="M506 0h-114v77h-2q-17 -36 -52 -62.5t-95 -26.5q-48 0 -81.5 15.5t-54.5 42t-30 60.5t-9 71v303h120v-243q0 -20 2 -44.5t10.5 -46t26 -36t49.5 -14.5q30 0 50.5 10t34 27t19.5 39t6 46v262h120v-480zM334 564h-94l-141 144h136z" />
    <glyph glyph-name="yacute" unicode="&#xfd;" horiz-adv-x="519" 
d="M3 480h132l134 -333h2l120 333h125l-227 -583q-13 -34 -28.5 -59.5t-36.5 -43t-49.5 -26t-68.5 -8.5q-47 0 -92 12l15 108q14 -5 29.5 -8.5t31.5 -3.5q22 0 37 4t25.5 12.5t17.5 22t15 32.5l23 57zM312 708h136l-141 -144h-94z" />
    <glyph glyph-name="ydieresis" unicode="&#xff;" horiz-adv-x="519" 
d="M3 480h132l134 -333h2l120 333h125l-227 -583q-13 -34 -28.5 -59.5t-36.5 -43t-49.5 -26t-68.5 -8.5q-47 0 -92 12l15 108q14 -5 29.5 -8.5t31.5 -3.5q22 0 37 4t25.5 12.5t17.5 22t15 32.5l23 57zM286 636q0 29 21.5 50.5t54.5 21.5t55.5 -20.5t22.5 -51.5t-22.5 -51.5
t-55.5 -20.5t-54.5 21.5t-21.5 50.5zM80 636q0 29 21.5 50.5t54.5 21.5t55.5 -20.5t22.5 -51.5t-22.5 -51.5t-55.5 -20.5t-54.5 21.5t-21.5 50.5z" />
    <glyph glyph-name="zcaron" horiz-adv-x="482" 
d="M34 111l257 271v2h-245v96h390v-109l-260 -275h272v-96h-414v111zM174 708l69 -90l69 90h110l-115 -144h-133l-114 144h114z" />
    <glyph glyph-name="zcaron" unicode="&#x17e;" horiz-adv-x="482" 
d="M34 111l257 271v2h-245v96h390v-109l-260 -275h272v-96h-414v111zM174 708l69 -90l69 90h110l-115 -144h-133l-114 144h114z" />
    <glyph glyph-name="Euro" horiz-adv-x="592" 
d="M560 74q-25 -35 -77.5 -60.5t-124.5 -25.5q-60 0 -104.5 17t-77 47.5t-52.5 72.5t-30 93h-79l28 90h40q-1 10 -1 20v21q0 14 0.5 26.5t1.5 24.5h-66l31 93h52q32 110 108.5 168.5t185.5 58.5q41 0 82 -9.5t64 -23.5l-37 -103q-44 29 -111 29q-50 0 -93.5 -27.5
t-66.5 -92.5h248l-29 -93h-238q-3 -27 -3 -57v-18t1 -17h216l-29 -90h-174q15 -57 48.5 -90.5t90.5 -33.5q42 0 70.5 14.5t50.5 40.5z" />
    <glyph glyph-name="Euro" unicode="&#x20ac;" horiz-adv-x="592" 
d="M560 74q-25 -35 -77.5 -60.5t-124.5 -25.5q-60 0 -104.5 17t-77 47.5t-52.5 72.5t-30 93h-79l28 90h40q-1 10 -1 20v21q0 14 0.5 26.5t1.5 24.5h-66l31 93h52q32 110 108.5 168.5t185.5 58.5q41 0 82 -9.5t64 -23.5l-37 -103q-44 29 -111 29q-50 0 -93.5 -27.5
t-66.5 -92.5h248l-29 -93h-238q-3 -27 -3 -57v-18t1 -17h216l-29 -90h-174q15 -57 48.5 -90.5t90.5 -33.5q42 0 70.5 14.5t50.5 40.5z" />
    <glyph glyph-name="fraction" unicode="&#x2215;" horiz-adv-x="167" 
d="M250 740l83 -38l-416 -734l-83 38z" />
    <glyph glyph-name="fi" unicode="&#xfb01;" horiz-adv-x="593" 
d="M404 643q0 29 21.5 50.5t54.5 21.5t55.5 -20.5t22.5 -51.5t-22.5 -51.5t-55.5 -20.5t-54.5 21.5t-21.5 50.5zM420 480h120v-480h-120v480zM111 378h-99v102h99v68q0 50 7 90.5t26.5 69.5t54.5 44.5t91 15.5q41 0 76 -7l-8 -102q-13 3 -25 5t-25 2q-25 0 -40 -8
t-23.5 -21.5t-11 -31.5t-2.5 -38v-87h111v-102h-111v-378h-120v378z" />
    <glyph glyph-name="fl" unicode="&#xfb02;" horiz-adv-x="593" 
d="M420 756h120v-756h-120v756zM111 378h-99v102h99v68q0 50 7 90.5t26.5 69.5t54.5 44.5t91 15.5q41 0 76 -7l-8 -102q-13 3 -25 5t-25 2q-25 0 -40 -8t-23.5 -21.5t-11 -31.5t-2.5 -38v-87h111v-102h-111v-378h-120v378z" />
    <glyph glyph-name="breve" unicode="&#x2d8;" 
d="M27 708q7 -38 36 -52t67 -14q43 0 68 12t36 54h66q-8 -74 -53.5 -109t-117.5 -35t-118 34.5t-51 109.5h67z" />
    <glyph glyph-name="dotaccent" unicode="&#x2d9;" 
d="M53 636q0 29 21.5 50.5t54.5 21.5t55.5 -20.5t22.5 -51.5t-22.5 -51.5t-55.5 -20.5t-54.5 21.5t-21.5 50.5z" />
    <glyph glyph-name="ring" unicode="&#x2da;" 
d="M187 655q0 23 -17 38.5t-40 15.5t-40 -15.5t-17 -38.5t17 -38.5t40 -15.5t40 15t17 39zM235 655q0 -45 -30 -73.5t-75 -28.5t-75 28.5t-30 72.5q0 22 8 41t22 32.5t33 21.5t42 8q45 0 75 -28.5t30 -73.5z" />
    <glyph glyph-name="hungarumlaut" unicode="&#x2dd;" 
d="M284 708h136l-141 -144h-94zM79 708h136l-141 -144h-94z" />
    <glyph glyph-name="ogonek" unicode="&#x2db;" 
d="M202 -196q-21 -17 -46.5 -27.5t-53.5 -10.5q-20 0 -38.5 5.5t-33 17t-23 28t-8.5 38.5q0 21 9.5 43t24.5 41.5t32.5 37t33.5 29.5h61q-12 -10 -26 -25t-27 -32.5t-21.5 -36t-8.5 -34.5q0 -19 13.5 -32.5t32.5 -13.5q14 0 28.5 6t25.5 15z" />
    <glyph glyph-name="caron" unicode="&#x2c7;" 
d="M63 708l69 -90l69 90h110l-115 -144h-133l-114 144h114z" />
    <glyph glyph-name="Lslash" unicode="&#x141;" horiz-adv-x="519" 
d="M79 187l-70 -62v110l70 62v411h126v-300l206 181v-109l-206 -182v-184h301v-114h-427v187z" />
    <glyph glyph-name="dotlessi" unicode="&#x131;" 
d="M70 480h120v-480h-120v480z" />
    <glyph glyph-name="lslash" unicode="&#x142;" 
d="M70 273l-69 -69v109l69 69v374h120v-255l69 69v-107l-69 -68v-395h-120v273z" />
    <glyph glyph-name="minus" unicode="&#x2212;" horiz-adv-x="666" 
d="M604 354v-102h-542v102h542z" />
    <glyph glyph-name="nonbreakingspace" horiz-adv-x="296" 
 />
    <glyph glyph-name=".null" horiz-adv-x="0" 
 />
    </font>
</defs>
</svg>
