<?xml version="1.0" standalone="no"?>
<!DOCTYPE svg PUBLIC "-//W3C//DTD SVG 1.1//EN" "http://www.w3.org/Graphics/SVG/1.1/DTD/svg11.dtd" >
<svg>
<metadata>
Created by FontForge 20090622 at Wed Jan 30 12:19:45 2019
 By deploy user
Copyright (c) 2004 Linotype Library GmbH, www.linotype.com. All rights reserved. This software may not be reproduced, used, displayed, modified, disclosed or transferred without the express written approval of Linotype Library GmbH. Avenir is a trademark of Heidelberger Druckmaschinen AG, exclusively licensed through Linotype Library GmbH, and may be registered in certain jurisdictions. This typeface is original artwork of Adrian Frutiger and Akira Kobayashi. The design may be protected in certain jurisdictions.
</metadata>
<defs>
<font id="AvenirNextLTPro-CnIt" horiz-adv-x="220" >
  <font-face 
    font-family="AvenirNext LT Pro Cn"
    font-weight="400"
    font-style="italic"
    font-stretch="normal"
    units-per-em="1000"
    panose-1="2 11 5 6 2 2 2 2 2 4"
    ascent="756"
    descent="-244"
    x-height="496"
    cap-height="708"
    bbox="-189 -250 829 951"
    underline-thickness="50"
    underline-position="-50"
    slope="-12"
    unicode-range="U+000D-U+FB02"
  />
<missing-glyph horiz-adv-x="512" 
d="M222 117h56v67h-56v-67zM225 234h46q0 52 6 72q6 19 43 52q37 34 50 60t13 60q0 59 -35 95t-89 36q-56 0 -92 -34t-43 -103l50 -8q11 95 82 95q31 0 53.5 -24.5t22.5 -60.5q0 -20 -9.5 -37t-40.5 -46q-31 -31 -46 -59q-13 -25 -13 -81zM462 50h-412v617h412v-617z
M512 718h-512v-718h512v718z" />
    <glyph glyph-name="IJ" unicode="IJ" horiz-adv-x="605" 
d="M232 708l-123 -708h-68l123 708h68zM614 708l-90 -514q-19 -107 -57.5 -159t-116.5 -52q-57 0 -92.5 31t-47.5 81l58 24q7 -32 28 -53t54 -21q50 0 72 37.5t36 121.5l88 504h68z" />
    <glyph glyph-name="ij" unicode="ij" horiz-adv-x="437" 
d="M186 496l-86 -496h-64l86 496h64zM222 660q0 -23 -14 -38.5t-35 -15.5q-17 0 -27.5 11.5t-10.5 28.5q0 21 14 37.5t34 16.5q18 0 28.5 -11t10.5 -29zM410 497l-100 -570q-15 -82 -48 -124.5t-99 -42.5q-14 0 -38 6l10 61q13 -5 28 -5q37 0 54 28.5t26 81.5l100 565h67z
M443 660q0 -23 -14 -38.5t-35 -15.5q-17 0 -27.5 11.5t-10.5 28.5q0 21 14 37.5t34 16.5q18 0 28.5 -11t10.5 -29z" />
    <glyph glyph-name="napostrophe" unicode="&#x22;n" horiz-adv-x="487" 
d="M435 392q0 -22 -8 -72l-55 -320h-65l55 320q6 38 6 58q0 77 -62 77q-48 0 -84.5 -49t-49.5 -120l-50 -286h-65l65 370q5 27 18 126h64q-1 -11 -14 -94h2q20 47 57 79t82 32q54 0 79 -35t25 -86zM191 708l-91 -184h-51l82 184h60z" />
    <glyph glyph-name="fi" unicode="fi" horiz-adv-x="447" 
d="M333 766l-10 -53q-16 4 -28 4q-66 0 -86 -115l-18 -106h82l-9 -53h-82l-77 -443h-63l76 443h-68l9 53h68l19 105q30 171 149 171q21 0 38 -6zM417 496l-86 -496h-64l86 496h64zM453 660q0 -23 -14 -38.5t-35 -15.5q-17 0 -27.5 11.5t-10.5 28.5q0 21 14 37.5t34 16.5
q18 0 28.5 -11t10.5 -29z" />
    <glyph glyph-name="fl" unicode="fl" horiz-adv-x="452" 
d="M333 766l-10 -53q-16 4 -28 4q-66 0 -86 -115l-18 -106h82l-9 -53h-82l-77 -443h-63l76 443h-68l9 53h68l19 105q30 171 149 171q21 0 38 -6zM469 756l-131 -756h-66l132 756h65z" />
    <glyph glyph-name=".notdef" horiz-adv-x="512" 
d="M222 117h56v67h-56v-67zM225 234h46q0 52 6 72q6 19 43 52q37 34 50 60t13 60q0 59 -35 95t-89 36q-56 0 -92 -34t-43 -103l50 -8q11 95 82 95q31 0 53.5 -24.5t22.5 -60.5q0 -20 -9.5 -37t-40.5 -46q-31 -31 -46 -59q-13 -25 -13 -81zM462 50h-412v617h412v-617z
M512 718h-512v-718h512v718z" />
    <glyph glyph-name=".null" horiz-adv-x="185" 
 />
    <glyph glyph-name=".null" horiz-adv-x="185" 
 />
    <glyph glyph-name="nonmarkingreturn" horiz-adv-x="333" 
 />
    <glyph glyph-name="CR" unicode="&#xd;" horiz-adv-x="0" 
 />
    <glyph glyph-name="space" unicode=" " horiz-adv-x="185" 
 />
    <glyph glyph-name="exclam" unicode="!" horiz-adv-x="290" 
d="M259 708l-86 -497h-65l86 497h65zM161 49q0 -23 -14.5 -39.5t-36.5 -16.5q-18 0 -29 12.5t-11 29.5q0 22 14 39t36 17q19 0 30 -12t11 -30z" />
    <glyph glyph-name="quotedbl" unicode="&#x22;" horiz-adv-x="335" 
d="M340 708l-43 -245h-54l42 245h55zM217 708l-42 -245h-55l43 245h54z" />
    <glyph glyph-name="numbersign" unicode="#" horiz-adv-x="367" 
d="M390 486l-9 -53h-69l-42 -157h61l-10 -53h-65l-57 -223h-48l58 223h-75l-58 -223h-48l57 223h-63l10 53h68l43 157h-65l9 53h69l57 222h49l-58 -222h75l58 222h47l-58 -222h64zM264 433h-75l-40 -157h74z" />
    <glyph glyph-name="dollar" unicode="$" horiz-adv-x="465" 
d="M460 648l-41 -47q-34 46 -98 48l-47 -264q60 -33 92 -74.5t32 -101.5q0 -90 -56.5 -148t-136.5 -59l-14 -81h-36l14 81q-43 2 -81.5 22t-60.5 51l44 48q18 -28 47.5 -44.5t61.5 -18.5l48 275q-59 32 -88 69.5t-29 99.5q0 85 56.5 142t127.5 59l14 81h36l-15 -80
q87 -3 130 -58zM334 199q0 77 -71 121l-45 -260q46 0 81 40t35 99zM283 648q-43 -1 -77 -39.5t-34 -95.5q0 -72 68 -112z" />
    <glyph glyph-name="percent" unicode="%" horiz-adv-x="638" 
d="M598 224q0 -89 -45.5 -162t-112.5 -73q-46 0 -72 34.5t-26 92.5q0 90 45 162.5t113 72.5q47 0 72.5 -34.5t25.5 -92.5zM542 222q0 79 -49 79q-41 0 -68 -59t-27 -123q0 -80 49 -80q41 0 68 60t27 123zM340 595q0 -89 -45.5 -161.5t-112.5 -72.5q-46 0 -72 34.5t-26 91.5
q0 90 45.5 163t113.5 73q47 0 72 -34.5t25 -93.5zM284 593q0 80 -49 80q-41 0 -68 -59.5t-27 -122.5q0 -80 49 -80q41 0 68 59.5t27 122.5zM564 722l-405 -745l-41 14l405 746z" />
    <glyph glyph-name="ampersand" unicode="&#x26;" horiz-adv-x="520" 
d="M512 380l-123 -225l78 -155h-74l-43 92q-71 -109 -166 -109q-69 0 -108 43t-39 115q0 84 44.5 149t119.5 106q-39 80 -39 137q0 85 43.5 138.5t113.5 53.5q60 0 90.5 -35.5t30.5 -92.5q0 -74 -43 -125.5t-121 -95.5l83 -167l89 171h64zM379 591q0 35 -17 57.5t-47 22.5
q-42 0 -67 -39.5t-25 -94.5q0 -50 32 -117q60 35 92 73.5t32 97.5zM322 147l-99 203q-51 -26 -86.5 -80.5t-35.5 -118.5q0 -51 23 -80t67 -29q77 0 131 105z" />
    <glyph glyph-name="quotesingle" unicode="'" horiz-adv-x="212" 
d="M217 708l-42 -245h-55l43 245h54z" />
    <glyph glyph-name="parenleft" unicode="(" horiz-adv-x="244" 
d="M280 714q-91 -120 -144.5 -276.5t-53.5 -305.5q0 -159 50 -273l-50 -21q-57 129 -57 292q0 161 55.5 322t154.5 287z" />
    <glyph glyph-name="parenright" unicode=")" horiz-adv-x="244" 
d="M238 447q0 -161 -55.5 -322t-154.5 -287l-45 25q91 120 145 276.5t54 305.5q0 157 -51 273l50 22q57 -129 57 -293z" />
    <glyph glyph-name="asterisk" unicode="*" horiz-adv-x="420" 
d="M440 553l-134 -45l85 -127l-44 -31l-83 128l-83 -126l-44 31l85 125l-135 47l17 48l133 -47v152h54v-152l133 46z" />
    <glyph glyph-name="plus" unicode="+" horiz-adv-x="666" 
d="M363 558v-225h225v-60h-225v-225h-60v225h-225v60h225v225h60z" />
    <glyph glyph-name="comma" unicode="," horiz-adv-x="212" 
d="M135 116l-113 -248h-52l101 248h64z" />
    <glyph glyph-name="hyphen" unicode="-" horiz-adv-x="221" 
d="M196 290l-10 -55h-150l10 55h150z" />
    <glyph glyph-name="period" unicode="." horiz-adv-x="212" 
d="M118 49q0 -23 -14.5 -39.5t-36.5 -16.5q-18 0 -29 12.5t-11 29.5q0 22 14 39t36 17q19 0 30 -12t11 -30z" />
    <glyph glyph-name="slash" unicode="/" horiz-adv-x="259" 
d="M332 743l-315 -776l-45 10l315 776z" />
    <glyph glyph-name="zero" unicode="0" horiz-adv-x="465" 
d="M460 500q0 -71 -13.5 -152.5t-41.5 -166t-82 -139.5t-124 -55q-79 0 -113.5 60t-34.5 155q0 75 13 158t41 167.5t81.5 139t124.5 54.5q55 0 89.5 -32.5t47 -79.5t12.5 -109zM390 505q0 155 -85 155q-51 0 -90 -54.5t-58 -135t-28 -150t-9 -119.5q0 -153 84 -153
q52 0 91 54.5t58 134t28 148.5t9 120z" />
    <glyph glyph-name="one" unicode="1" horiz-adv-x="465" 
d="M390 708l-123 -708h-67l109 630l-148 -99l-23 52l188 125h64z" />
    <glyph glyph-name="two" unicode="2" horiz-adv-x="465" 
d="M446 567q0 -63 -30.5 -117.5t-118.5 -156.5l-200 -232h277l-11 -61h-352l13 66l237 275q66 77 91.5 124.5t25.5 95.5q0 42 -22.5 70t-68.5 28q-83 0 -118 -107l-64 14q52 155 190 155q72 0 111.5 -45t39.5 -109z" />
    <glyph glyph-name="three" unicode="3" horiz-adv-x="465" 
d="M443 567q0 -65 -36 -122t-104 -72l-1 -1l1 -1q47 -10 73 -50t26 -96q0 -94 -57 -166t-158 -72q-67 0 -110.5 34.5t-59.5 93.5l61 22q27 -91 110 -91q66 0 106.5 50.5t40.5 127.5q0 53 -31 85t-83 32h-22l10 58h22q60 0 103 45.5t43 117.5q0 40 -23.5 70.5t-66.5 30.5
q-66 0 -108 -70l-53 22q56 106 169 106q72 0 110 -44t38 -110z" />
    <glyph glyph-name="four" unicode="4" horiz-adv-x="465" 
d="M434 228l-10 -58h-88l-30 -170h-62l29 170h-253l11 65l306 473h92l-83 -480h88zM357 643h-2l-263 -415h194z" />
    <glyph glyph-name="five" unicode="5" horiz-adv-x="465" 
d="M459 708l-11 -60h-216l-46 -222q39 18 77 18q71 0 108.5 -47.5t37.5 -120.5q0 -123 -63.5 -206t-164.5 -83q-115 0 -152 115l59 26q25 -81 101 -81q68 0 110 63.5t42 152.5q0 59 -26 93.5t-79 34.5q-66 0 -122 -34l68 351h277z" />
    <glyph glyph-name="six" unicode="6" horiz-adv-x="465" 
d="M429 270q0 -118 -62 -200.5t-163 -82.5q-78 0 -122.5 51.5t-44.5 131.5q0 109 88 240l199 298h74l-207 -303l1 -1q42 39 91 39q68 0 107 -48t39 -125zM359 268q0 56 -25 89t-74 33q-67 0 -111 -67.5t-44 -149.5q0 -57 28 -92.5t75 -35.5q67 0 109 67.5t42 155.5z" />
    <glyph glyph-name="seven" unicode="7" horiz-adv-x="465" 
d="M482 708l-10 -58l-341 -650h-74l344 648h-275l11 60h345z" />
    <glyph glyph-name="eight" unicode="8" horiz-adv-x="465" 
d="M458 572q0 -67 -33 -119.5t-92 -73.5l-2 -2l2 -1q84 -32 84 -143q0 -106 -59 -176t-157 -70q-78 0 -120.5 46t-42.5 120q0 79 41.5 143.5t108.5 80.5v2q-70 35 -70 126q0 89 50 152.5t140 63.5q77 0 113.5 -41.5t36.5 -107.5zM348 233q0 53 -24.5 84.5t-70.5 31.5
q-61 0 -104 -56.5t-43 -131.5q0 -53 25.5 -86t74.5 -33q66 0 104 56.5t38 134.5zM392 568q0 45 -23 73t-65 28q-54 0 -87.5 -48.5t-33.5 -113.5q0 -45 21.5 -75t60.5 -30q55 0 91 51.5t36 114.5z" />
    <glyph glyph-name="nine" unicode="9" horiz-adv-x="465" 
d="M469 543q0 -63 -21.5 -119t-65.5 -124l-195 -300h-74l209 314l-2 1q-36 -36 -87 -36q-64 0 -104 43.5t-40 125.5q0 111 59 192t158 81q80 0 121.5 -49t41.5 -129zM401 538q0 56 -25.5 90.5t-71.5 34.5q-64 0 -104.5 -64t-40.5 -148q0 -54 23.5 -87t69.5 -33
q66 0 107.5 62.5t41.5 144.5z" />
    <glyph glyph-name="colon" unicode=":" horiz-adv-x="255" 
d="M141 55q0 -23 -14.5 -39.5t-36.5 -16.5q-18 0 -29 12.5t-11 29.5q0 22 14 39.5t36 17.5q19 0 30 -12t11 -31zM212 455q0 -23 -15 -39.5t-37 -16.5q-18 0 -29 12.5t-11 29.5q0 22 14.5 39t36.5 17q19 0 30 -12t11 -30z" />
    <glyph glyph-name="semicolon" unicode=";" horiz-adv-x="255" 
d="M152 116l-113 -248h-53l101 248h65zM212 455q0 -23 -15 -39.5t-37 -16.5q-18 0 -29 12.5t-11 29.5q0 22 14.5 39t36.5 17q19 0 30 -12t11 -30z" />
    <glyph glyph-name="less" unicode="&#x3c;" horiz-adv-x="666" 
d="M588 564v-60l-429 -201l429 -201v-60l-510 238v46z" />
    <glyph glyph-name="equal" unicode="=" horiz-adv-x="666" 
d="M78 408h510v-60h-510v60zM78 258h510v-60h-510v60z" />
    <glyph glyph-name="greater" unicode="&#x3e;" horiz-adv-x="666" 
d="M78 504v60l510 -238v-46l-510 -238v60l429 201z" />
    <glyph glyph-name="question" unicode="?" horiz-adv-x="364" 
d="M402 582q0 -62 -29.5 -106.5t-83.5 -92.5q-40 -35 -56.5 -62.5t-23.5 -69.5l-6 -39h-57l8 50q15 89 83 150l29 26q36 32 53.5 62t17.5 75q0 40 -21 66t-59 26q-44 0 -74 -32.5t-43 -78.5l-56 15q19 69 64.5 111.5t116.5 42.5q69 0 103 -43t34 -100zM204 49
q0 -23 -15 -39.5t-37 -16.5q-18 0 -29 12.5t-11 29.5q0 22 14.5 39t36.5 17q19 0 30 -12t11 -30z" />
    <glyph glyph-name="at" unicode="@" horiz-adv-x="635" 
d="M641 488q0 -76 -23.5 -150t-70.5 -126t-105 -52q-51 0 -60 46q-3 13 -1 32h-1q-45 -78 -108 -78q-41 0 -62 30t-21 77q0 62 25.5 128.5t71.5 114t97 47.5q35 0 52.5 -21t15.5 -55h3l21 53h51l-72 -184q-26 -67 -26 -104q0 -33 29 -33q30 0 56 28t42.5 70t26 88t9.5 85
q0 91 -47 143t-137 52q-87 0 -158.5 -62.5t-109 -156.5t-37.5 -192q0 -108 53 -173t156 -65q111 0 193 86l24 -41q-97 -94 -225 -94q-125 0 -189.5 78t-64.5 204q0 115 45 220.5t129.5 174.5t187.5 69q113 0 171.5 -64t58.5 -175zM428 445q0 58 -46 58q-34 0 -66 -38
t-51 -90.5t-19 -97.5q0 -64 49 -64t91 87t42 145z" />
    <glyph glyph-name="A" unicode="A" horiz-adv-x="464" 
d="M413 0h-69l-8 178h-221l-80 -178h-70l320 708h92zM336 232l-15 414h-4l-181 -414h200z" />
    <glyph glyph-name="B" unicode="B" horiz-adv-x="482" 
d="M471 559q0 -75 -36.5 -123.5t-93.5 -63.5v-2q39 -6 69.5 -43t30.5 -98q0 -111 -65 -170t-158 -59h-177l123 708h148q69 0 114 -37.5t45 -111.5zM374 229q0 56 -33.5 85t-80.5 29h-96l-49 -285h98q72 0 116.5 45.5t44.5 125.5zM404 551q0 49 -29.5 74t-79.5 25h-77
l-44 -253h89q58 0 99.5 41t41.5 113z" />
    <glyph glyph-name="C" unicode="C" horiz-adv-x="473" 
d="M527 644l-51 -45q-35 64 -108 64q-70 0 -126 -68.5t-83 -162t-27 -186.5q0 -90 32 -145t101 -55q75 0 133 73l37 -45q-76 -91 -182 -91q-93 0 -143 71t-50 188t38.5 227t112 183t164.5 73q107 0 152 -81z" />
    <glyph glyph-name="D" unicode="D" horiz-adv-x="535" 
d="M519 437q0 -120 -37 -218t-112.5 -158.5t-176.5 -60.5h-152l123 708h145q106 0 158 -73t52 -198zM450 434q0 101 -38.5 157.5t-113.5 56.5h-78l-102 -588h85q110 0 178.5 109t68.5 265z" />
    <glyph glyph-name="E" unicode="E" horiz-adv-x="408" 
d="M439 708l-10 -60h-211l-44 -252h201l-10 -57h-200l-48 -278h227l-11 -61h-292l123 708h275z" />
    <glyph glyph-name="F" unicode="F" horiz-adv-x="389" 
d="M444 708l-12 -62h-212l-45 -255h198l-10 -59h-197l-58 -332h-67l123 708h280z" />
    <glyph glyph-name="G" unicode="G" horiz-adv-x="530" 
d="M528 643l-52 -45q-33 65 -108 65q-54 0 -100 -40.5t-75 -103t-45 -135t-16 -139.5q0 -199 136 -199q64 0 106 34l42 242h-101l11 59h167l-59 -338q-77 -58 -176 -58q-97 0 -147.5 69t-50.5 188q0 114 38 224t112 184.5t165 74.5q110 0 153 -82z" />
    <glyph glyph-name="H" unicode="H" horiz-adv-x="568" 
d="M572 708l-123 -708h-67l59 337h-274l-58 -337h-68l123 708h68l-55 -311h273l54 311h68z" />
    <glyph glyph-name="I" unicode="I" horiz-adv-x="228" 
d="M232 708l-123 -708h-68l123 708h68z" />
    <glyph glyph-name="J" unicode="J" horiz-adv-x="375" 
d="M384 708l-90 -514q-19 -107 -57.5 -159t-116.5 -52q-57 0 -92.5 31t-47.5 81l58 24q7 -32 28 -53t54 -21q50 0 72 37.5t36 121.5l88 504h68z" />
    <glyph glyph-name="K" unicode="K" horiz-adv-x="476" 
d="M535 708l-298 -333l190 -375h-76l-179 364h-2l-63 -364h-66l123 708h66l-55 -319h2l278 319h80z" />
    <glyph glyph-name="L" unicode="L" horiz-adv-x="355" 
d="M322 63l-11 -63h-270l123 708h68l-112 -645h202z" />
    <glyph glyph-name="M" unicode="M" horiz-adv-x="708" 
d="M712 708l-124 -708h-67l107 613h-3l-281 -613h-66l-64 613h-3l-107 -613h-63l124 708h102l62 -595l4 1l271 594h108z" />
    <glyph glyph-name="N" unicode="N" horiz-adv-x="557" 
d="M561 708l-123 -708h-83l-147 592h-2l-102 -592h-63l123 708h84l143 -592h3l104 592h63z" />
    <glyph glyph-name="O" unicode="O" horiz-adv-x="564" 
d="M548 466q0 -116 -35.5 -225.5t-105.5 -183.5t-157 -74q-91 0 -140.5 69t-49.5 186t34.5 226.5t105 185t159.5 75.5q93 0 141 -70t48 -189zM476 456q0 208 -121 208q-68 0 -121 -72.5t-77.5 -168.5t-24.5 -189q0 -85 30 -136.5t92 -51.5q65 0 117.5 66t78.5 159t26 185z
" />
    <glyph glyph-name="P" unicode="P" horiz-adv-x="453" 
d="M474 549q0 -107 -57 -169.5t-151 -62.5h-103l-55 -317h-67l123 708h151q71 0 115 -40.5t44 -118.5zM407 541q0 51 -26 79.5t-76 28.5h-85l-47 -275h92q64 0 103 45t39 122z" />
    <glyph glyph-name="Q" unicode="Q" horiz-adv-x="567" 
d="M548 469q0 -76 -21.5 -160t-64.5 -154.5t-96 -92.5v-2h145l-10 -60h-254q-90 0 -138.5 63.5t-48.5 179.5q0 85 21 170t58 155t95 113.5t125 43.5q92 0 140.5 -69.5t48.5 -186.5zM477 457q0 207 -120 207q-68 0 -121.5 -71t-79 -166t-25.5 -186q0 -82 32.5 -131t91.5 -49
q65 0 117.5 65.5t78.5 155t26 175.5z" />
    <glyph glyph-name="R" unicode="R" horiz-adv-x="473" 
d="M482 550q0 -86 -45.5 -143.5t-115.5 -69.5l96 -337h-69l-91 329h-93l-57 -329h-66l123 708h153q77 0 121 -40t44 -118zM417 542q0 53 -30.5 80.5t-80.5 27.5h-86l-46 -267h94q66 0 107.5 43.5t41.5 115.5z" />
    <glyph glyph-name="S" unicode="S" horiz-adv-x="430" 
d="M453 661l-47 -48q-37 50 -104 50q-51 0 -92 -39.5t-41 -108.5q0 -43 22.5 -72t63.5 -55q57 -36 90.5 -79t33.5 -106q0 -101 -58.5 -160.5t-147.5 -59.5q-52 0 -97 22t-71 58l47 49q45 -66 121 -66q57 0 97.5 39t40.5 105q0 82 -96 142q-53 32 -83.5 73t-30.5 105
q0 96 59.5 155.5t145.5 59.5q100 0 147 -64z" />
    <glyph glyph-name="T" unicode="T" horiz-adv-x="336" 
d="M420 708l-10 -59h-137l-113 -649h-68l114 649h-137l10 59h341z" />
    <glyph glyph-name="U" unicode="U" horiz-adv-x="546" 
d="M558 708l-80 -460q-22 -124 -76 -194.5t-161 -70.5q-87 0 -130.5 49.5t-43.5 131.5q0 34 8 84l80 460h68l-79 -450q-8 -45 -8 -84q0 -128 108 -128q33 0 59 12t43 31t30.5 48.5t21 57t13.5 63.5l79 450h68z" />
    <glyph glyph-name="V" unicode="V" horiz-adv-x="454" 
d="M531 708l-301 -708h-89l-52 708h73l36 -631h2l258 631h73z" />
    <glyph glyph-name="W" unicode="W" horiz-adv-x="725" 
d="M794 708l-264 -708h-90l-11 609h-2l-222 -609h-90l-16 708h69l9 -622h3l226 622h82l13 -622h2l224 622h67z" />
    <glyph glyph-name="X" unicode="X" horiz-adv-x="454" 
d="M508 708l-220 -336l114 -372h-73l-87 315l-199 -315h-74l244 373l-102 335h70l79 -281l176 281h72z" />
    <glyph glyph-name="Y" unicode="Y" horiz-adv-x="426" 
d="M504 708l-250 -416l-51 -292h-67l51 292l-103 416h72l74 -345h2l197 345h75z" />
    <glyph glyph-name="Z" unicode="Z" horiz-adv-x="393" 
d="M442 708l-10 -60l-358 -586h259l-10 -62h-335l10 59l360 589h-246l11 60h319z" />
    <glyph glyph-name="bracketleft" unicode="[" horiz-adv-x="242" 
d="M284 732l-9 -51h-94l-138 -786h93l-9 -51h-155l157 888h155z" />
    <glyph glyph-name="backslash" unicode="\" horiz-adv-x="259" 
d="M197 -23l-49 -10l-40 776l48 10z" />
    <glyph glyph-name="bracketright" unicode="]" horiz-adv-x="242" 
d="M291 732l-157 -888h-154l10 51h94l138 786h-94l9 51h154z" />
    <glyph glyph-name="asciicircum" unicode="^" horiz-adv-x="666" 
d="M80 275l229 433h48l229 -433h-62l-191 361l-191 -361h-62z" />
    <glyph glyph-name="underscore" unicode="_" horiz-adv-x="500" 
d="M0 -125v50h500v-50h-500z" />
    <glyph glyph-name="grave" unicode="`" 
d="M221 569h-52l-107 144h66z" />
    <glyph glyph-name="a" unicode="a" horiz-adv-x="400" 
d="M356 383q0 -28 -8 -71l-35 -206q-12 -68 -14 -106h-55q2 36 13 93h-2q-40 -106 -134 -106q-45 0 -72.5 30.5t-27.5 84.5q0 55 20.5 96t55 63t73 32t80.5 10h37q9 51 9 69q0 85 -73 85q-56 0 -102 -53l-30 40q26 31 65 50t77 19q123 0 123 -130zM280 253h-37
q-69 0 -115 -33t-46 -109q0 -34 16.5 -52.5t43.5 -18.5q52 0 84.5 53t46.5 124z" />
    <glyph glyph-name="b" unicode="b" horiz-adv-x="464" 
d="M429 340q0 -83 -24.5 -163.5t-73 -137t-109.5 -56.5q-49 0 -75.5 29t-30.5 78h-2l-15 -90h-63l132 756h64l-61 -347h2q20 47 54.5 75.5t77.5 28.5q60 0 92 -46.5t32 -126.5zM362 333q0 57 -19.5 90t-57.5 33q-44 0 -79.5 -48.5t-53 -113.5t-17.5 -127q0 -127 77 -127
q45 0 81 50t52.5 115.5t16.5 127.5z" />
    <glyph glyph-name="c" unicode="c" horiz-adv-x="332" 
d="M362 470l-38 -48q-24 33 -68 33q-45 0 -80 -48.5t-52 -113t-17 -127.5q0 -122 87 -122q40 0 78 36l24 -51q-49 -46 -109 -46q-73 0 -110 49.5t-37 130.5q0 84 24.5 162.5t76 133t118.5 54.5q68 0 103 -43z" />
    <glyph glyph-name="d" unicode="d" horiz-adv-x="460" 
d="M477 756l-132 -756h-63l16 91h-1q-48 -108 -138 -108q-59 0 -89 47t-30 129q0 83 24 163t73.5 135.5t111.5 55.5q45 0 71.5 -28t30.5 -74h2l60 345h64zM333 328q0 59 -19.5 93.5t-57.5 34.5q-46 0 -81.5 -49.5t-52 -114.5t-16.5 -128q0 -57 19.5 -90t57.5 -33
q44 0 79.5 48t53 113t17.5 126z" />
    <glyph glyph-name="e" unicode="e" horiz-adv-x="418" 
d="M388 352q0 -46 -13 -118h-263q-6 -35 -6 -68q0 -57 21.5 -89.5t63.5 -32.5q61 0 103 75l47 -30q-60 -106 -157 -106q-68 0 -106 47.5t-38 132.5q0 83 25.5 162t77 133.5t116.5 54.5q67 0 98 -43.5t31 -117.5zM327 350q0 105 -73 105q-51 0 -85.5 -54.5t-45.5 -112.5h197
q7 44 7 62z" />
    <glyph glyph-name="f" unicode="f" horiz-adv-x="233" 
d="M333 766l-10 -53q-16 4 -28 4q-66 0 -86 -115l-18 -106h82l-9 -53h-82l-77 -443h-63l76 443h-68l9 53h68l19 105q30 171 149 171q21 0 38 -6z" />
    <glyph glyph-name="g" unicode="g" horiz-adv-x="460" 
d="M433 496l-85 -488q-21 -118 -69 -183t-143 -65q-48 0 -88.5 21.5t-61.5 55.5l45 44q41 -62 111 -62q62 0 93.5 48.5t48.5 139.5l16 84h-2q-47 -108 -133 -108q-60 0 -92.5 48t-32.5 129q0 83 23.5 162.5t72.5 135t111 55.5q46 0 73.5 -28t31.5 -74h3l15 85h63zM334 328
q0 59 -19.5 93.5t-58.5 34.5q-46 0 -81 -49.5t-51.5 -114.5t-16.5 -128q0 -123 76 -123q44 0 80 48t53.5 112.5t17.5 126.5z" />
    <glyph glyph-name="h" unicode="h" horiz-adv-x="466" 
d="M414 392q0 -28 -7 -72l-56 -320h-65l55 320q6 38 6 58q0 77 -62 77q-48 0 -84.5 -49t-49.5 -120l-50 -286h-65l131 756h65l-62 -352h2q19 46 56.5 77.5t82.5 31.5q53 0 78 -35t25 -86z" />
    <glyph glyph-name="i" unicode="i" horiz-adv-x="216" 
d="M186 496l-86 -496h-64l86 496h64zM222 660q0 -23 -14 -38.5t-35 -15.5q-17 0 -27.5 11.5t-10.5 28.5q0 21 14 37.5t34 16.5q18 0 28.5 -11t10.5 -29z" />
    <glyph glyph-name="j" unicode="j" horiz-adv-x="217" 
d="M190 497l-100 -570q-15 -82 -48 -124.5t-99 -42.5q-14 0 -38 6l10 61q13 -5 28 -5q37 0 54 28.5t26 81.5l100 565h67zM223 660q0 -23 -14 -38.5t-35 -15.5q-17 0 -27.5 11.5t-10.5 28.5q0 21 14 37.5t34 16.5q18 0 28.5 -11t10.5 -29z" />
    <glyph glyph-name="k" unicode="k" horiz-adv-x="398" 
d="M423 496l-217 -234l143 -262h-73l-132 250h-2l-42 -250h-64l131 756h64l-84 -479h2l195 219h79z" />
    <glyph glyph-name="l" unicode="l" horiz-adv-x="216" 
d="M233 756l-132 -756h-65l132 756h65z" />
    <glyph glyph-name="m" unicode="m" horiz-adv-x="709" 
d="M657 392q0 -28 -7 -72l-55 -320h-66l56 320q6 38 6 58q0 77 -63 77q-43 0 -80 -44t-47 -102l-53 -309h-66l56 320q6 38 6 60q0 75 -62 75q-48 0 -84 -49t-49 -120l-50 -286h-65l65 370q2 11 5.5 36.5l7.5 55t5 34.5h64q-2 -18 -14 -94h2q20 47 57 79t82 32q82 0 95 -82
q2 -13 2 -40h2q20 53 58 87.5t89 34.5q53 0 78 -35t25 -86z" />
    <glyph glyph-name="n" unicode="n" horiz-adv-x="464" 
d="M412 392q0 -22 -8 -72l-55 -320h-65l55 320q6 38 6 58q0 77 -62 77q-48 0 -84.5 -49t-49.5 -120l-50 -286h-65l65 370l18 126h64q-1 -11 -14 -94h2q20 47 57 79t82 32q54 0 79 -35t25 -86z" />
    <glyph glyph-name="o" unicode="o" horiz-adv-x="436" 
d="M401 330q0 -85 -26.5 -163.5t-78.5 -131t-116 -52.5q-65 0 -102.5 49.5t-37.5 132.5q0 86 26 165t77.5 131t116.5 52q67 0 104 -49.5t37 -133.5zM334 328q0 128 -80 128q-44 0 -79.5 -49t-52 -114.5t-16.5 -127.5q0 -124 79 -124q45 0 80 48t52 112.5t17 126.5z" />
    <glyph glyph-name="p" unicode="p" horiz-adv-x="464" 
d="M429 336q0 -83 -23.5 -162.5t-72 -135t-110.5 -55.5q-45 0 -73 28.5t-32 73.5h-2l-56 -325h-65l128 736h63l-15 -90h1q47 107 134 107q59 0 91 -48t32 -129zM362 333q0 123 -76 123q-44 0 -79.5 -48t-53 -113t-17.5 -126q0 -60 19.5 -94.5t57.5 -34.5q45 0 80.5 49.5
t52 115t16.5 128.5z" />
    <glyph glyph-name="q" unicode="q" horiz-adv-x="460" 
d="M433 496l-128 -736h-65l58 326h-2q-45 -103 -132 -103q-59 0 -91.5 47t-32.5 126q0 83 24 163.5t73 137t110 56.5q96 0 105 -106h2l16 89h63zM334 329q0 127 -77 127q-45 0 -81 -49.5t-52.5 -115t-16.5 -127.5q0 -57 19.5 -90t57.5 -33q44 0 79.5 48t53 113t17.5 127z
" />
    <glyph glyph-name="r" unicode="r" horiz-adv-x="264" 
d="M309 509l-14 -66q-8 2 -16 2q-47 0 -84.5 -58t-50.5 -134l-44 -253h-66l65 370q16 98 19 126h63q0 -5 -18 -110h3q23 61 58 92.5t74 31.5q8 0 11 -1z" />
    <glyph glyph-name="s" unicode="s" horiz-adv-x="336" 
d="M337 465l-38 -44q-26 40 -81 40q-37 0 -63 -27t-26 -69q0 -31 14.5 -49t48.5 -37q93 -52 93 -131q0 -78 -47.5 -121.5t-117.5 -43.5q-42 0 -76.5 18.5t-53.5 47.5l44 41q35 -52 92 -52q40 0 67.5 27.5t27.5 72.5q0 59 -75 98q-80 42 -80 122q0 69 45.5 112t113.5 43
q75 0 112 -48z" />
    <glyph glyph-name="t" unicode="t" horiz-adv-x="246" 
d="M272 496l-9 -53h-85l-55 -309q-4 -28 -4 -42q0 -24 10 -34t32 -10q19 0 39 9l-5 -53q-23 -11 -52 -11q-45 0 -66.5 24.5t-21.5 63.5q0 19 4 42l57 320h-68l8 53h67l23 136h63l-22 -136h85z" />
    <glyph glyph-name="u" unicode="u" horiz-adv-x="464" 
d="M431 496l-65 -370q-5 -27 -18 -126h-64q1 11 14 94h-2q-20 -47 -57 -79t-82 -32q-53 0 -78 35t-25 86q0 28 7 72l55 320h65l-55 -320q-6 -38 -6 -58q0 -77 62 -77q48 0 85 49.5t50 119.5l49 286h65z" />
    <glyph glyph-name="v" unicode="v" horiz-adv-x="372" 
d="M401 496l-219 -496h-77l-43 496h66l26 -427h2l176 427h69z" />
    <glyph glyph-name="w" unicode="w" horiz-adv-x="572" 
d="M594 496l-189 -496h-77l-14 405v-1l-156 -404h-75l-13 496h65l2 -421h1l162 421h63l14 -422h1l151 422h65z" />
    <glyph glyph-name="x" unicode="x" horiz-adv-x="374" 
d="M388 496l-160 -235l88 -261h-68l-65 209l-134 -209h-71l177 261l-79 235h68l55 -187l118 187h71z" />
    <glyph glyph-name="y" unicode="y" horiz-adv-x="372" 
d="M401 496l-261 -605q-29 -68 -61 -99.5t-82 -31.5q-26 0 -43 7l13 59q12 -6 31 -6q28 0 45.5 18.5t34.5 57.5l37 90l-54 510h67l33 -421h2l171 421h67z" />
    <glyph glyph-name="z" unicode="z" horiz-adv-x="329" 
d="M344 496l-10 -55l-274 -385h210l-10 -56h-279l10 57l273 383h-190l9 56h261z" />
    <glyph glyph-name="braceleft" unicode="{" horiz-adv-x="242" 
d="M55 287q45 -10 45 -77q0 -14 -5 -41l-32 -183q-4 -20 -4 -40q0 -51 43 -51h36l-10 -51h-48q-80 0 -80 89q0 20 5 50l31 177q4 24 4 47q0 54 -40 54l7 54q27 0 45 22t28 79l31 177q24 139 121 139h51l-9 -51h-35q-30 0 -46 -23t-24 -68l-32 -183q-10 -55 -32.5 -83.5
t-49.5 -34.5v-2z" />
    <glyph glyph-name="bar" unicode="|" horiz-adv-x="222" 
d="M81 750h60v-1000h-60v1000z" />
    <glyph glyph-name="braceright" unicode="}" horiz-adv-x="242" 
d="M216 289q-45 10 -45 77q0 14 5 41l32 183q4 20 4 40q0 51 -43 51h-36l10 51h48q80 0 80 -89q0 -20 -5 -50l-31 -177q-4 -24 -4 -47q0 -54 40 -54l-7 -54q-27 0 -45 -22t-28 -79l-31 -177q-24 -139 -121 -139h-51l9 51h35q30 0 46 23t24 68l32 183q10 55 32.5 83.5
t49.5 34.5v2z" />
    <glyph glyph-name="asciitilde" unicode="~" horiz-adv-x="666" 
d="M535 368l42 -40q-60 -93 -136 -93q-55 0 -111 36q-63 40 -103 40q-56 0 -96 -73l-42 40q19 27 34.5 44t43.5 33t58 16q57 0 110 -35q64 -41 103 -41q53 0 97 73z" />
    <glyph glyph-name="uni00A0" unicode="&#xa0;" horiz-adv-x="185" 
 />
    <glyph glyph-name="exclamdown" unicode="&#xa1;" horiz-adv-x="290" 
d="M193 299l-86 -497h-65l86 497h65zM231 475q0 -22 -14 -39.5t-36 -17.5q-19 0 -30 12t-11 30q0 23 14.5 40t36.5 17q18 0 29 -12.5t11 -29.5z" />
    <glyph glyph-name="cent" unicode="&#xa2;" horiz-adv-x="465" 
d="M419 458l-37 -46q-20 35 -73 38l-71 -407q51 1 92 49l21 -43q-48 -56 -122 -59l-11 -62h-37l11 62q-64 4 -96 51t-32 126q0 77 25 153.5t76.5 131t115.5 54.5l12 66h37l-12 -66q70 -3 101 -48zM272 450q-36 -1 -66 -29t-48 -70t-27.5 -88.5t-9.5 -88.5q0 -121 81 -128z
" />
    <glyph glyph-name="sterling" unicode="&#xa3;" horiz-adv-x="465" 
d="M479 689l-37 -52q-25 29 -74 29q-57 0 -84.5 -45t-41.5 -121l-19 -106h136l-9 -53h-135l-48 -280h203l-11 -61h-365l12 61h95l48 280h-88l9 53h87l20 113q38 220 196 220q68 0 106 -38z" />
    <glyph glyph-name="currency" unicode="&#xa4;" horiz-adv-x="860" 
d="M636 468q51 -67 51 -159q0 -96 -55 -164l94 -93l-43 -44l-95 95q-67 -51 -157 -51t-158 53l-97 -97q-28 30 -43 44l96 96q-53 64 -53 161q0 91 50 157l-93 92l44 43l92 -92q70 55 162 55q93 0 160 -54l91 91l44 -43zM431 496q-81 0 -131.5 -54t-50.5 -133
q0 -80 50.5 -134.5t131.5 -54.5t131.5 54.5t50.5 134.5q0 79 -50.5 133t-131.5 54z" />
    <glyph glyph-name="yen" unicode="&#xa5;" horiz-adv-x="465" 
d="M521 708l-205 -323h116l-8 -49h-144l-20 -111h145l-10 -48h-143l-31 -177h-68l32 177h-145l9 48h144l19 111h-143l8 49h119l-93 323h70l82 -322l194 322h72z" />
    <glyph glyph-name="brokenbar" unicode="&#xa6;" horiz-adv-x="222" 
d="M81 675h60v-350h-60v350zM81 175h60v-350h-60v350z" />
    <glyph glyph-name="section" unicode="&#xa7;" horiz-adv-x="475" 
d="M474 670l-42 -42q-33 46 -104 46q-47 0 -86 -30t-39 -83q0 -40 23.5 -64t90.5 -57q107 -54 107 -143q0 -61 -38.5 -99.5t-92.5 -47.5q29 -17 46.5 -47t17.5 -64q0 -87 -57.5 -132.5t-135.5 -45.5q-50 0 -95 19.5t-68 52.5l44 44q41 -61 123 -61q54 0 90 29.5t36 85.5
q0 39 -26.5 63.5t-90.5 53.5q-56 26 -80 57t-24 79q0 61 39 104t92 54q-63 39 -63 105q0 81 55 131t137 50q98 0 141 -58zM365 292q0 61 -83 103l-37 18q-44 -4 -78 -36t-34 -83q0 -39 19.5 -60t57.5 -38l40 -18q45 3 80 33t35 81z" />
    <glyph glyph-name="dieresis" unicode="&#xa8;" 
d="M298 659q0 -21 -13 -35.5t-32 -14.5q-17 0 -27 11t-10 27q0 20 13 35t32 15q16 0 26.5 -10.5t10.5 -27.5zM153 659q0 -21 -12.5 -35.5t-31.5 -14.5q-17 0 -26.5 11t-9.5 27q0 20 12.5 35t31.5 15q16 0 26 -10.5t10 -27.5z" />
    <glyph glyph-name="copyright" unicode="&#xa9;" horiz-adv-x="640" 
d="M320 -20q-127 0 -205.5 102t-78.5 273t78.5 273t205.5 102t205.5 -102t78.5 -273t-78.5 -273t-205.5 -102zM320 686q-106 0 -169 -92.5t-63 -238.5t63 -238.5t169 -92.5t169 92.5t63 238.5t-63 238.5t-169 92.5zM394 235l41 -45q-37 -60 -104 -60q-71 0 -112 62.5
t-41 164.5q0 103 40.5 165t111.5 62q70 0 104 -55l-40 -45q-20 39 -66 39q-40 0 -61.5 -46t-21.5 -120q0 -73 21.5 -118.5t61.5 -45.5q43 0 66 42z" />
    <glyph glyph-name="ordfeminine" unicode="&#xaa;" horiz-adv-x="298" 
d="M309 641q0 -17 -5 -45l-21 -124q-8 -43 -8 -64h-43q3 33 7 53h-1q-27 -62 -80 -62q-26 0 -45 19.5t-19 51.5q0 65 40.5 94t100.5 29h22q5 33 4 43q-3 43 -43 43q-31 0 -60 -31l-24 31q39 42 91 42q40 0 62 -22t22 -58zM251 557h-21q-88 0 -88 -77q0 -19 9 -30.5t23 -11.5
q28 0 47 30t26 68z" />
    <glyph glyph-name="guillemotleft" unicode="&#xab;" horiz-adv-x="340" 
d="M337 431l-121 -188l54 -186l-44 -18l-63 210l136 208zM209 431l-121 -188l55 -186l-45 -18l-62 210l136 208z" />
    <glyph glyph-name="logicalnot" unicode="&#xac;" horiz-adv-x="666" 
d="M588 408v-278h-60v218h-450v60h510z" />
    <glyph glyph-name="uni00AD" unicode="&#xad;" horiz-adv-x="221" 
d="M196 290l-10 -55h-150l10 55h150z" />
    <glyph glyph-name="registered" unicode="&#xae;" horiz-adv-x="480" 
d="M367 372h-44l-38 106h-32v-106h-40v255h74q32 0 52.5 -18.5t20.5 -56.5q0 -49 -37 -66zM318 550q0 40 -37 40h-28v-83h28q16 0 26.5 11t10.5 32zM280 274q-76 0 -123 61t-47 164t47 164t123 61t123 -61t47 -164t-47 -164t-123 -61zM280 698q-64 0 -101.5 -55.5
t-37.5 -143.5t37.5 -143.5t101.5 -55.5t101.5 55.5t37.5 143.5t-37.5 143.5t-101.5 55.5z" />
    <glyph glyph-name="macron" unicode="&#xaf;" 
d="M308 663l-9 -47h-244l9 47h244z" />
    <glyph glyph-name="degree" unicode="&#xb0;" horiz-adv-x="315" 
d="M336 601q0 -71 -40 -131.5t-104 -60.5q-46 0 -72 34.5t-26 85.5q0 70 39.5 131.5t106.5 61.5q45 0 70.5 -34.5t25.5 -86.5zM293 599q0 37 -15.5 60t-42.5 23q-39 0 -67.5 -46t-28.5 -105q0 -37 15.5 -59.5t42.5 -22.5q39 0 67.5 46t28.5 104z" />
    <glyph glyph-name="plusminus" unicode="&#xb1;" horiz-adv-x="666" 
d="M78 347v60h225v156h60v-156h225v-60h-225v-151h-60v151h-225zM78 48v60h510v-60h-510z" />
    <glyph glyph-name="twosuperior" unicode="&#xb2;" horiz-adv-x="310" 
d="M338 620q0 -40 -18 -71.5t-72 -91.5l-114 -127h156l-9 -52h-224l10 56l148 162q39 42 51.5 67.5t12.5 51.5q0 22 -12 37t-35 15q-46 0 -65 -61l-55 10q31 103 127 103q46 0 72.5 -28t26.5 -71z" />
    <glyph glyph-name="threesuperior" unicode="&#xb3;" horiz-adv-x="310" 
d="M334 624q0 -42 -23 -74.5t-61 -41.5l-1 -2l1 -1q59 -15 59 -87q0 -64 -39 -105.5t-99 -41.5q-90 0 -112 86l53 16q15 -51 60 -51q35 0 57 26t22 69q0 30 -17 47t-46 17h-15l7 48h16q35 0 58 24.5t23 63.5q0 22 -13.5 38t-35.5 16q-38 0 -60 -40l-47 17q36 74 114 74
q46 0 72.5 -27t26.5 -71z" />
    <glyph glyph-name="acute" unicode="&#xb4;" 
d="M303 713l-131 -144h-53l116 144h68z" />
    <glyph glyph-name="mu" unicode="&#xb5;" horiz-adv-x="556" 
d="M72 -228v696h66v-259q0 -88 28 -124.5t99 -36.5q62 0 102 48t40 132v240h66v-365q0 -18 5 -103h-71v76h-2q-22 -36 -67 -62t-90 -26q-69 0 -110 29v-245h-66z" />
    <glyph glyph-name="paragraph" unicode="&#xb6;" horiz-adv-x="600" 
d="M513 708v-834h-66v780h-124v-780h-66v442q-91 0 -150 53.5t-59 132.5q0 97 61 151.5t167 54.5h237z" />
    <glyph glyph-name="periodcentered" unicode="&#xb7;" horiz-adv-x="212" 
d="M156 266q-1 -23 -15.5 -39t-35.5 -16q-18 0 -29.5 12.5t-10.5 30.5q1 22 15.5 38.5t35.5 16.5q19 0 30 -12t10 -31z" />
    <glyph glyph-name="cedilla" unicode="&#xb8;" 
d="M142 -139q-6 -48 -43 -69t-82 -21q-48 0 -85 19l20 35q28 -16 67 -16q25 0 46.5 12t24.5 38q2 19 -10.5 28.5t-34.5 9.5q-25 0 -48 -10l-14 15l76 98h40l-59 -76q12 4 36 4q30 0 50 -17t16 -50z" />
    <glyph glyph-name="onesuperior" unicode="&#xb9;" horiz-adv-x="310" 
d="M295 708l-76 -433h-59l65 367l-82 -52l-20 45l119 73h53z" />
    <glyph glyph-name="ordmasculine" unicode="&#xba;" horiz-adv-x="298" 
d="M318 606q0 -82 -36.5 -145.5t-100.5 -63.5q-43 0 -66 31.5t-23 83.5q0 82 38 146t98 64q44 0 67 -31.5t23 -84.5zM268 604q0 74 -44 74q-36 0 -59 -56t-23 -112q0 -69 43 -69q36 0 59.5 53.5t23.5 109.5z" />
    <glyph glyph-name="guillemotright" unicode="&#xbb;" horiz-adv-x="340" 
d="M116 457l62 -211l-136 -207l-38 25l121 189l-54 185zM243 457l62 -211l-135 -207l-38 25l121 189l-54 185z" />
    <glyph glyph-name="onequarter" unicode="&#xbc;" horiz-adv-x="724" 
d="M666 148l-9 -49h-55l-17 -99h-54l18 99h-159l9 53l185 282h78l-51 -286h55zM598 376h-2l-144 -228h107zM606 724l-405 -747l-40 16l406 747zM295 708l-76 -433h-59l65 367l-82 -52l-20 45l119 73h53z" />
    <glyph glyph-name="onehalf" unicode="&#xbd;" horiz-adv-x="724" 
d="M695 342q0 -40 -18 -72t-71 -91l-115 -127h156l-9 -52h-224l10 56l148 162q39 42 51.5 67.5t12.5 51.5q0 22 -11.5 37t-34.5 15q-46 0 -65 -61l-56 10q31 103 127 103q46 0 72.5 -28t26.5 -71zM606 724l-405 -747l-40 16l406 747zM295 708l-76 -433h-59l65 367l-82 -52
l-20 45l119 73h53z" />
    <glyph glyph-name="threequarters" unicode="&#xbe;" horiz-adv-x="724" 
d="M666 148l-9 -49h-55l-17 -99h-54l18 99h-159l9 53l185 282h78l-51 -286h55zM598 376h-2l-144 -228h107zM334 624q0 -42 -23 -74.5t-61 -41.5l-1 -2l1 -1q59 -15 59 -87q0 -64 -39 -105.5t-99 -41.5q-90 0 -112 86l53 16q15 -51 60 -51q35 0 57 26t22 69q0 30 -17 47
t-46 17h-15l7 48h16q35 0 58 24.5t23 63.5q0 22 -13.5 38t-35.5 16q-38 0 -60 -40l-47 17q36 74 114 74q46 0 72.5 -27t26.5 -71zM606 724l-405 -747l-40 16l406 747z" />
    <glyph glyph-name="questiondown" unicode="&#xbf;" horiz-adv-x="364" 
d="M288 -61q-20 -69 -65 -112t-116 -43q-69 0 -103 43.5t-34 100.5q0 62 29 106t84 92q40 35 56.5 62.5t23.5 69.5l6 39h58l-9 -49q-15 -89 -83 -150l-28 -26q-36 -33 -54 -62.5t-18 -74.5q0 -40 21.5 -66t59.5 -26q44 0 73.5 32t42.5 78zM260 475q0 -22 -14.5 -39.5
t-36.5 -17.5q-19 0 -29.5 11.5t-10.5 30.5q0 23 14.5 40t36.5 17q18 0 29 -12.5t11 -29.5z" />
    <glyph glyph-name="Agrave" unicode="&#xc0;" horiz-adv-x="464" 
d="M413 0h-69l-8 178h-221l-80 -178h-70l320 708h92zM336 232l-15 414h-4l-181 -414h200zM375 764h-53l-108 144h68z" />
    <glyph glyph-name="Aacute" unicode="&#xc1;" horiz-adv-x="464" 
d="M413 0h-69l-8 178h-221l-80 -178h-70l320 708h92zM336 232l-15 414h-4l-181 -414h200zM483 908l-130 -144h-53l116 144h67z" />
    <glyph glyph-name="Acircumflex" unicode="&#xc2;" horiz-adv-x="464" 
d="M413 0h-69l-8 178h-221l-80 -178h-70l320 708h92zM336 232l-15 414h-4l-181 -414h200zM472 764h-55l-57 110l-93 -110h-62l127 144h65z" />
    <glyph glyph-name="Atilde" unicode="&#xc3;" horiz-adv-x="464" 
d="M413 0h-69l-8 178h-221l-80 -178h-70l320 708h92zM336 232l-15 414h-4l-181 -414h200zM476 876q-10 -45 -33.5 -70t-52.5 -25t-59 24q-30 23 -50 23q-29 0 -43 -48h-36q10 45 33 70.5t52 25.5q28 0 60 -24q31 -23 51 -23q28 0 42 47h36z" />
    <glyph glyph-name="Adieresis" unicode="&#xc4;" horiz-adv-x="464" 
d="M413 0h-69l-8 178h-221l-80 -178h-70l320 708h92zM336 232l-15 414h-4l-181 -414h200zM461 854q0 -21 -13 -36t-32 -15q-16 0 -26 11.5t-10 27.5q0 20 12.5 34.5t32.5 14.5q16 0 26 -10t10 -27zM317 854q0 -21 -13 -36t-32 -15q-16 0 -26 11.5t-10 27.5q0 20 12.5 34.5
t32.5 14.5q16 0 26 -10t10 -27z" />
    <glyph glyph-name="Aring" unicode="&#xc5;" horiz-adv-x="464" 
d="M413 0h-69l-8 178h-221l-80 -178h-70l320 708h92zM336 232l-15 414h-4l-181 -414h200zM442 866q0 -48 -29.5 -81.5t-72.5 -33.5q-38 0 -59 22t-21 60q0 49 28.5 83.5t70.5 34.5q40 0 61.5 -24t21.5 -61zM409 864q0 24 -13 40.5t-38 16.5q-29 0 -47 -25.5t-18 -59.5
q0 -25 13 -40t36 -15q29 0 48 25t19 58z" />
    <glyph glyph-name="AE" unicode="&#xc6;" horiz-adv-x="621" 
d="M652 708l-11 -60h-199l-44 -252h188l-10 -57h-187l-48 -278h214l-11 -61h-278l30 175h-176l-94 -175h-71l382 708h315zM379 648h-9l-222 -417h158z" />
    <glyph glyph-name="Ccedilla" unicode="&#xc7;" horiz-adv-x="473" 
d="M331 -139q-6 -48 -43 -69t-82 -21q-48 0 -85 19l20 35q28 -16 67 -16q25 0 46.5 12t24.5 38q2 19 -10.5 28.5t-34.5 9.5q-25 0 -48 -10l-14 15l63 82q-85 7 -130 77t-45 181q0 117 38.5 226.5t112 182.5t164.5 73q107 0 152 -81l-51 -45q-35 64 -108 64q-70 0 -126 -68
t-83 -161.5t-27 -186.5q0 -90 32 -145t101 -55q75 0 133 73l37 -45q-67 -80 -160 -90l-46 -60q12 4 36 4q30 0 50 -17t16 -50z" />
    <glyph glyph-name="Egrave" unicode="&#xc8;" horiz-adv-x="408" 
d="M439 708l-10 -60h-211l-44 -252h201l-10 -57h-200l-48 -278h227l-11 -61h-292l123 708h275zM345 764h-53l-108 144h68z" />
    <glyph glyph-name="Eacute" unicode="&#xc9;" horiz-adv-x="408" 
d="M439 708l-10 -60h-211l-44 -252h201l-10 -57h-200l-48 -278h227l-11 -61h-292l123 708h275zM453 908l-130 -144h-53l116 144h67z" />
    <glyph glyph-name="Ecircumflex" unicode="&#xca;" horiz-adv-x="408" 
d="M439 708l-10 -60h-211l-44 -252h201l-10 -57h-200l-48 -278h227l-11 -61h-292l123 708h275zM442 764h-55l-57 110l-93 -110h-62l127 144h65z" />
    <glyph glyph-name="Edieresis" unicode="&#xcb;" horiz-adv-x="408" 
d="M439 708l-10 -60h-211l-44 -252h201l-10 -57h-200l-48 -278h227l-11 -61h-292l123 708h275zM431 854q0 -21 -13 -36t-32 -15q-16 0 -26 11.5t-10 27.5q0 20 12.5 34.5t32.5 14.5q16 0 26 -10t10 -27zM287 854q0 -21 -13 -36t-32 -15q-16 0 -26 11.5t-10 27.5
q0 20 12.5 34.5t32.5 14.5q16 0 26 -10t10 -27z" />
    <glyph glyph-name="Igrave" unicode="&#xcc;" horiz-adv-x="228" 
d="M232 708l-123 -708h-68l123 708h68zM237 764h-53l-108 144h68z" />
    <glyph glyph-name="Iacute" unicode="&#xcd;" horiz-adv-x="228" 
d="M232 708l-123 -708h-68l123 708h68zM353 908l-130 -144h-53l116 144h67z" />
    <glyph glyph-name="Icircumflex" unicode="&#xce;" horiz-adv-x="228" 
d="M232 708l-123 -708h-68l123 708h68zM335 764h-55l-57 110l-93 -110h-62l127 144h65z" />
    <glyph glyph-name="Idieresis" unicode="&#xcf;" horiz-adv-x="228" 
d="M232 708l-123 -708h-68l123 708h68zM328 854q0 -21 -13 -36t-32 -15q-16 0 -26 11.5t-10 27.5q0 20 12.5 34.5t32.5 14.5q16 0 26 -10t10 -27zM184 854q0 -21 -13 -36t-32 -15q-16 0 -26 11.5t-10 27.5q0 20 12.5 34.5t32.5 14.5q16 0 26 -10t10 -27z" />
    <glyph glyph-name="Eth" unicode="&#xd0;" horiz-adv-x="535" 
d="M519 437q0 -120 -37 -218t-112.5 -158.5t-176.5 -60.5h-152l59 341h-62l9 49h62l55 318h145q106 0 158 -73t52 -198zM450 434q0 101 -38.5 157.5t-113.5 56.5h-78l-45 -258h136l-9 -49h-135l-49 -281h85q110 0 178.5 109t68.5 265z" />
    <glyph glyph-name="Ntilde" unicode="&#xd1;" horiz-adv-x="557" 
d="M561 708l-123 -708h-83l-147 592h-2l-102 -592h-63l123 708h84l143 -592h3l104 592h63zM519 876q-10 -45 -33.5 -70t-52.5 -25t-59 24q-30 23 -50 23q-29 0 -43 -48h-36q10 45 33 70.5t52 25.5q28 0 60 -24q31 -23 51 -23q28 0 42 47h36z" />
    <glyph glyph-name="Ograve" unicode="&#xd2;" horiz-adv-x="564" 
d="M548 466q0 -116 -35.5 -225.5t-105.5 -183.5t-157 -74q-91 0 -140.5 69t-49.5 186t34.5 226.5t105 185t159.5 75.5q93 0 141 -70t48 -189zM476 456q0 208 -121 208q-68 0 -121 -72.5t-77.5 -168.5t-24.5 -189q0 -85 30 -136.5t92 -51.5q65 0 117.5 66t78.5 159t26 185z
M416 764h-53l-108 144h68z" />
    <glyph glyph-name="Oacute" unicode="&#xd3;" horiz-adv-x="564" 
d="M548 466q0 -116 -35.5 -225.5t-105.5 -183.5t-157 -74q-91 0 -140.5 69t-49.5 186t34.5 226.5t105 185t159.5 75.5q93 0 141 -70t48 -189zM476 456q0 208 -121 208q-68 0 -121 -72.5t-77.5 -168.5t-24.5 -189q0 -85 30 -136.5t92 -51.5q65 0 117.5 66t78.5 159t26 185z
M518 908l-130 -144h-53l116 144h67z" />
    <glyph glyph-name="Ocircumflex" unicode="&#xd4;" horiz-adv-x="564" 
d="M548 466q0 -116 -35.5 -225.5t-105.5 -183.5t-157 -74q-91 0 -140.5 69t-49.5 186t34.5 226.5t105 185t159.5 75.5q93 0 141 -70t48 -189zM476 456q0 208 -121 208q-68 0 -121 -72.5t-77.5 -168.5t-24.5 -189q0 -85 30 -136.5t92 -51.5q65 0 117.5 66t78.5 159t26 185z
M509 764h-55l-57 110l-93 -110h-62l127 144h65z" />
    <glyph glyph-name="Otilde" unicode="&#xd5;" horiz-adv-x="564" 
d="M548 466q0 -116 -35.5 -225.5t-105.5 -183.5t-157 -74q-91 0 -140.5 69t-49.5 186t34.5 226.5t105 185t159.5 75.5q93 0 141 -70t48 -189zM476 456q0 208 -121 208q-68 0 -121 -72.5t-77.5 -168.5t-24.5 -189q0 -85 30 -136.5t92 -51.5q65 0 117.5 66t78.5 159t26 185z
M521 876q-10 -45 -33.5 -70t-52.5 -25t-59 24q-30 23 -50 23q-29 0 -43 -48h-36q10 45 33 70.5t52 25.5q28 0 60 -24q31 -23 51 -23q28 0 42 47h36z" />
    <glyph glyph-name="Odieresis" unicode="&#xd6;" horiz-adv-x="564" 
d="M548 466q0 -116 -35.5 -225.5t-105.5 -183.5t-157 -74q-91 0 -140.5 69t-49.5 186t34.5 226.5t105 185t159.5 75.5q93 0 141 -70t48 -189zM476 456q0 208 -121 208q-68 0 -121 -72.5t-77.5 -168.5t-24.5 -189q0 -85 30 -136.5t92 -51.5q65 0 117.5 66t78.5 159t26 185z
M500 854q0 -21 -13 -36t-32 -15q-16 0 -26 11.5t-10 27.5q0 20 12.5 34.5t32.5 14.5q16 0 26 -10t10 -27zM356 854q0 -21 -13 -36t-32 -15q-16 0 -26 11.5t-10 27.5q0 20 12.5 34.5t32.5 14.5q16 0 26 -10t10 -27z" />
    <glyph glyph-name="multiply" unicode="&#xd7;" horiz-adv-x="666" 
d="M174 505l159 -159l158 159l43 -42l-159 -160l159 -159l-43 -43l-158 159l-159 -159l-42 43l159 159l-159 160z" />
    <glyph glyph-name="Oslash" unicode="&#xd8;" horiz-adv-x="564" 
d="M580 723l-66 -93q34 -64 34 -164q0 -116 -35.5 -225.5t-105.5 -183.5t-157 -74q-86 0 -136 62l-56 -84l-40 25l71 100q-29 63 -29 152q0 117 34.5 226.5t105 185t159.5 75.5q80 0 130 -57l53 78zM476 456q0 61 -11 104l-307 -456q31 -58 96 -58t117.5 66t78.5 159t26 185
zM132 234q0 -48 8 -80l305 457q-32 53 -90 53q-68 0 -121 -72.5t-77.5 -168.5t-24.5 -189z" />
    <glyph glyph-name="Ugrave" unicode="&#xd9;" horiz-adv-x="546" 
d="M558 708l-80 -460q-22 -124 -76 -194.5t-161 -70.5q-87 0 -130.5 49.5t-43.5 131.5q0 34 8 84l80 460h68l-79 -450q-8 -45 -8 -84q0 -128 108 -128q33 0 59 12t43 31t30.5 48.5t21 57t13.5 63.5l79 450h68zM390 764h-53l-108 144h68z" />
    <glyph glyph-name="Uacute" unicode="&#xda;" horiz-adv-x="546" 
d="M558 708l-80 -460q-22 -124 -76 -194.5t-161 -70.5q-87 0 -130.5 49.5t-43.5 131.5q0 34 8 84l80 460h68l-79 -450q-8 -45 -8 -84q0 -128 108 -128q33 0 59 12t43 31t30.5 48.5t21 57t13.5 63.5l79 450h68zM500 908l-130 -144h-53l116 144h67z" />
    <glyph glyph-name="Ucircumflex" unicode="&#xdb;" horiz-adv-x="546" 
d="M558 708l-80 -460q-22 -124 -76 -194.5t-161 -70.5q-87 0 -130.5 49.5t-43.5 131.5q0 34 8 84l80 460h68l-79 -450q-8 -45 -8 -84q0 -128 108 -128q33 0 59 12t43 31t30.5 48.5t21 57t13.5 63.5l79 450h68zM499 764h-55l-57 110l-93 -110h-62l127 144h65z" />
    <glyph glyph-name="Udieresis" unicode="&#xdc;" horiz-adv-x="546" 
d="M558 708l-80 -460q-22 -124 -76 -194.5t-161 -70.5q-87 0 -130.5 49.5t-43.5 131.5q0 34 8 84l80 460h68l-79 -450q-8 -45 -8 -84q0 -128 108 -128q33 0 59 12t43 31t30.5 48.5t21 57t13.5 63.5l79 450h68zM491 854q0 -21 -13 -36t-32 -15q-16 0 -26 11.5t-10 27.5
q0 20 12.5 34.5t32.5 14.5q16 0 26 -10t10 -27zM347 854q0 -21 -13 -36t-32 -15q-16 0 -26 11.5t-10 27.5q0 20 12.5 34.5t32.5 14.5q16 0 26 -10t10 -27z" />
    <glyph glyph-name="Yacute" unicode="&#xdd;" horiz-adv-x="426" 
d="M504 708l-250 -416l-51 -292h-67l51 292l-103 416h72l74 -345h2l197 345h75zM444 908l-130 -144h-53l116 144h67z" />
    <glyph glyph-name="Thorn" unicode="&#xde;" horiz-adv-x="453" 
d="M449 406q0 -107 -57 -169.5t-151 -62.5h-103l-30 -174h-67l123 708h66l-25 -143h85q71 0 115 -40.5t44 -118.5zM382 398q0 51 -26 79.5t-76 28.5h-85l-48 -275h93q64 0 103 45t39 122z" />
    <glyph glyph-name="germandbls" unicode="&#xdf;" horiz-adv-x="448" 
d="M448 620q0 -76 -38.5 -130.5t-103.5 -65.5l-1 -1q46 -9 75.5 -53.5t29.5 -109.5q0 -109 -57 -188t-161 -79q-25 0 -47 5l10 55q19 -4 35 -4q75 0 116 62t41 146q0 59 -27.5 97t-80.5 38h-15l9 56h15q59 0 99.5 48t40.5 117q0 41 -18.5 69.5t-59.5 28.5q-94 0 -125 -184
l-91 -527h-63l91 527q20 114 64.5 177.5t129.5 63.5q68 0 100 -42.5t32 -105.5z" />
    <glyph glyph-name="agrave" unicode="&#xe0;" horiz-adv-x="400" 
d="M356 383q0 -28 -8 -71l-35 -206q-12 -68 -14 -106h-55q2 36 13 93h-2q-40 -106 -134 -106q-45 0 -72.5 30.5t-27.5 84.5q0 55 20.5 96t55 63t73 32t80.5 10h37q9 51 9 69q0 85 -73 85q-56 0 -102 -53l-30 40q26 31 65 50t77 19q123 0 123 -130zM280 253h-37
q-69 0 -115 -33t-46 -109q0 -34 16.5 -52.5t43.5 -18.5q52 0 84.5 53t46.5 124zM291 569h-52l-107 144h66z" />
    <glyph glyph-name="aacute" unicode="&#xe1;" horiz-adv-x="400" 
d="M356 383q0 -28 -8 -71l-35 -206q-12 -68 -14 -106h-55q2 36 13 93h-2q-40 -106 -134 -106q-45 0 -72.5 30.5t-27.5 84.5q0 55 20.5 96t55 63t73 32t80.5 10h37q9 51 9 69q0 85 -73 85q-56 0 -102 -53l-30 40q26 31 65 50t77 19q123 0 123 -130zM280 253h-37
q-69 0 -115 -33t-46 -109q0 -34 16.5 -52.5t43.5 -18.5q52 0 84.5 53t46.5 124zM398 713l-131 -144h-53l116 144h68z" />
    <glyph glyph-name="acircumflex" unicode="&#xe2;" horiz-adv-x="400" 
d="M356 383q0 -28 -8 -71l-35 -206q-12 -68 -14 -106h-55q2 36 13 93h-2q-40 -106 -134 -106q-45 0 -72.5 30.5t-27.5 84.5q0 55 20.5 96t55 63t73 32t80.5 10h37q9 51 9 69q0 85 -73 85q-56 0 -102 -53l-30 40q26 31 65 50t77 19q123 0 123 -130zM280 253h-37
q-69 0 -115 -33t-46 -109q0 -34 16.5 -52.5t43.5 -18.5q52 0 84.5 53t46.5 124zM386 569h-56l-55 110l-94 -110h-62l127 144h65z" />
    <glyph glyph-name="atilde" unicode="&#xe3;" horiz-adv-x="400" 
d="M356 383q0 -28 -8 -71l-35 -206q-12 -68 -14 -106h-55q2 36 13 93h-2q-40 -106 -134 -106q-45 0 -72.5 30.5t-27.5 84.5q0 55 20.5 96t55 63t73 32t80.5 10h37q9 51 9 69q0 85 -73 85q-56 0 -102 -53l-30 40q26 31 65 50t77 19q123 0 123 -130zM280 253h-37
q-69 0 -115 -33t-46 -109q0 -34 16.5 -52.5t43.5 -18.5q52 0 84.5 53t46.5 124zM392 681q-10 -45 -33.5 -70t-52.5 -25t-59 24q-30 23 -50 23q-28 0 -43 -47h-37q10 44 34 69.5t53 25.5q27 0 59 -24q31 -23 51 -23q28 0 42 47h36z" />
    <glyph glyph-name="adieresis" unicode="&#xe4;" horiz-adv-x="400" 
d="M356 383q0 -28 -8 -71l-35 -206q-12 -68 -14 -106h-55q2 36 13 93h-2q-40 -106 -134 -106q-45 0 -72.5 30.5t-27.5 84.5q0 55 20.5 96t55 63t73 32t80.5 10h37q9 51 9 69q0 85 -73 85q-56 0 -102 -53l-30 40q26 31 65 50t77 19q123 0 123 -130zM280 253h-37
q-69 0 -115 -33t-46 -109q0 -34 16.5 -52.5t43.5 -18.5q52 0 84.5 53t46.5 124zM371 659q0 -21 -13 -35.5t-32 -14.5q-17 0 -27 11t-10 27q0 20 12.5 35t32.5 15q16 0 26.5 -10.5t10.5 -27.5zM226 659q0 -21 -12.5 -35.5t-31.5 -14.5q-17 0 -26.5 11t-9.5 27q0 20 12.5 35
t31.5 15q16 0 26 -10.5t10 -27.5z" />
    <glyph glyph-name="aring" unicode="&#xe5;" horiz-adv-x="400" 
d="M356 383q0 -28 -8 -71l-35 -206q-12 -68 -14 -106h-55q2 36 13 93h-2q-40 -106 -134 -106q-45 0 -72.5 30.5t-27.5 84.5q0 55 20.5 96t55 63t73 32t80.5 10h37q9 51 9 69q0 85 -73 85q-56 0 -102 -53l-30 40q26 31 65 50t77 19q123 0 123 -130zM280 253h-37
q-69 0 -115 -33t-46 -109q0 -34 16.5 -52.5t43.5 -18.5q52 0 84.5 53t46.5 124zM350 671q0 -48 -30 -81.5t-73 -33.5q-38 0 -58.5 22t-20.5 60q0 49 28.5 84t70.5 35q40 0 61.5 -24.5t21.5 -61.5zM316 669q0 24 -12.5 40.5t-37.5 16.5q-29 0 -47 -25t-18 -60q0 -25 13 -40
t36 -15q28 0 47 25t19 58z" />
    <glyph glyph-name="ae" unicode="&#xe6;" horiz-adv-x="647" 
d="M617 352q0 -47 -13 -114h-264q-6 -40 -6 -72q0 -57 21 -89.5t63 -32.5q62 0 104 75l46 -30q-60 -106 -156 -106q-57 0 -90 35t-38 93q-44 -128 -155 -128q-47 0 -77.5 32t-30.5 87q0 54 20 92t55 57t72 27.5t80 8.5h37q11 68 11 85q0 85 -73 85q-56 0 -102 -53l-30 40
q26 31 65 50t77 19q109 0 111 -108q25 51 62 79.5t82 28.5q67 0 98 -43.5t31 -117.5zM278 238h-37q-159 0 -159 -127q0 -34 17 -53.5t43 -19.5q36 0 65 29.5t43 64.5t22 73zM554 350q0 105 -73 105q-35 0 -64.5 -30.5t-44.5 -66t-21 -70.5h197q6 37 6 62z" />
    <glyph glyph-name="ccedilla" unicode="&#xe7;" horiz-adv-x="332" 
d="M265 -139q-6 -48 -43 -69t-82 -21q-48 0 -85 19l20 35q28 -16 67 -16q25 0 46.5 12t24.5 38q2 19 -10.5 28.5t-34.5 9.5q-25 0 -48 -10l-14 15l63 82q-64 7 -96.5 55t-32.5 124q0 84 24.5 162.5t76 133t118.5 54.5q68 0 103 -43l-38 -48q-24 33 -68 33q-45 0 -80 -48.5
t-52 -113t-17 -127.5q0 -122 87 -122q40 0 78 36l24 -51q-38 -35 -86 -44l-47 -61q12 4 36 4q30 0 50 -17t16 -50z" />
    <glyph glyph-name="egrave" unicode="&#xe8;" horiz-adv-x="418" 
d="M388 352q0 -46 -13 -118h-263q-6 -35 -6 -68q0 -57 21.5 -89.5t63.5 -32.5q61 0 103 75l47 -30q-60 -106 -157 -106q-68 0 -106 47.5t-38 132.5q0 83 25.5 162t77 133.5t116.5 54.5q67 0 98 -43.5t31 -117.5zM327 350q0 105 -73 105q-51 0 -85.5 -54.5t-45.5 -112.5h197
q7 44 7 62zM307 569h-52l-107 144h66z" />
    <glyph glyph-name="eacute" unicode="&#xe9;" horiz-adv-x="418" 
d="M388 352q0 -46 -13 -118h-263q-6 -35 -6 -68q0 -57 21.5 -89.5t63.5 -32.5q61 0 103 75l47 -30q-60 -106 -157 -106q-68 0 -106 47.5t-38 132.5q0 83 25.5 162t77 133.5t116.5 54.5q67 0 98 -43.5t31 -117.5zM327 350q0 105 -73 105q-51 0 -85.5 -54.5t-45.5 -112.5h197
q7 44 7 62zM414 713l-131 -144h-53l116 144h68z" />
    <glyph glyph-name="ecircumflex" unicode="&#xea;" horiz-adv-x="418" 
d="M388 352q0 -46 -13 -118h-263q-6 -35 -6 -68q0 -57 21.5 -89.5t63.5 -32.5q61 0 103 75l47 -30q-60 -106 -157 -106q-68 0 -106 47.5t-38 132.5q0 83 25.5 162t77 133.5t116.5 54.5q67 0 98 -43.5t31 -117.5zM327 350q0 105 -73 105q-51 0 -85.5 -54.5t-45.5 -112.5h197
q7 44 7 62zM412 569h-56l-55 110l-94 -110h-62l127 144h65z" />
    <glyph glyph-name="edieresis" unicode="&#xeb;" horiz-adv-x="418" 
d="M388 352q0 -46 -13 -118h-263q-6 -35 -6 -68q0 -57 21.5 -89.5t63.5 -32.5q61 0 103 75l47 -30q-60 -106 -157 -106q-68 0 -106 47.5t-38 132.5q0 83 25.5 162t77 133.5t116.5 54.5q67 0 98 -43.5t31 -117.5zM327 350q0 105 -73 105q-51 0 -85.5 -54.5t-45.5 -112.5h197
q7 44 7 62zM398 659q0 -21 -13 -35.5t-32 -14.5q-17 0 -27 11t-10 27q0 20 13 35t32 15q16 0 26.5 -10.5t10.5 -27.5zM253 659q0 -21 -12.5 -35.5t-31.5 -14.5q-17 0 -26.5 11t-9.5 27q0 20 12.5 35t31.5 15q16 0 26 -10.5t10 -27.5z" />
    <glyph glyph-name="igrave" unicode="&#xec;" horiz-adv-x="216" 
d="M186 496l-86 -496h-65l87 496h64zM192 569h-52l-107 144h66z" />
    <glyph glyph-name="iacute" unicode="&#xed;" horiz-adv-x="216" 
d="M186 496l-86 -496h-65l87 496h64zM313 713l-131 -144h-53l116 144h68z" />
    <glyph glyph-name="icircumflex" unicode="&#xee;" horiz-adv-x="216" 
d="M186 496l-86 -496h-65l87 496h64zM297 569h-56l-55 110l-94 -110h-62l127 144h65z" />
    <glyph glyph-name="idieresis" unicode="&#xef;" horiz-adv-x="216" 
d="M186 496l-86 -496h-65l87 496h64zM288 659q0 -21 -13 -35.5t-32 -14.5q-17 0 -27 11t-10 27q0 20 13 35t32 15q16 0 26.5 -10.5t10.5 -27.5zM143 659q0 -21 -12.5 -35.5t-31.5 -14.5q-17 0 -26.5 11t-9.5 27q0 20 12.5 35t31.5 15q16 0 26 -10.5t10 -27.5z" />
    <glyph glyph-name="eth" unicode="&#xf0;" horiz-adv-x="436" 
d="M422 715l-100 -54q32 -54 55.5 -145.5t23.5 -185.5q0 -85 -26.5 -163.5t-78.5 -131t-116 -52.5q-65 0 -102.5 49.5t-37.5 132.5q0 134 60.5 238t155.5 104q47 0 69 -35l3 2q-16 92 -64 163l-101 -57l-24 35l102 57q-28 43 -63 73l60 29q44 -46 63 -77l94 52zM334 327
q0 60 -20 94.5t-60 34.5q-44 0 -79.5 -49t-52 -114.5t-16.5 -127.5q0 -124 79 -124q45 0 80 47.5t52 112t17 126.5z" />
    <glyph glyph-name="ntilde" unicode="&#xf1;" horiz-adv-x="464" 
d="M412 392q0 -22 -8 -72l-55 -320h-65l55 320q6 38 6 58q0 77 -62 77q-48 0 -84.5 -49t-49.5 -120l-50 -286h-65l65 370l18 126h64q-1 -11 -14 -94h2q20 47 57 79t82 32q54 0 79 -35t25 -86zM435 681q-10 -45 -33.5 -70t-52.5 -25t-59 24q-30 23 -50 23q-28 0 -43 -47h-37
q10 44 34 69.5t53 25.5q27 0 59 -24q31 -23 51 -23q28 0 42 47h36z" />
    <glyph glyph-name="ograve" unicode="&#xf2;" horiz-adv-x="436" 
d="M401 330q0 -85 -26.5 -163.5t-78.5 -131t-116 -52.5q-65 0 -102.5 49.5t-37.5 132.5q0 86 26 165t77.5 131t116.5 52q67 0 104 -49.5t37 -133.5zM334 328q0 128 -80 128q-44 0 -79.5 -49t-52 -114.5t-16.5 -127.5q0 -124 79 -124q45 0 80 48t52 112.5t17 126.5zM317 569
h-52l-107 144h66z" />
    <glyph glyph-name="oacute" unicode="&#xf3;" horiz-adv-x="436" 
d="M401 330q0 -85 -26.5 -163.5t-78.5 -131t-116 -52.5q-65 0 -102.5 49.5t-37.5 132.5q0 86 26 165t77.5 131t116.5 52q67 0 104 -49.5t37 -133.5zM334 328q0 128 -80 128q-44 0 -79.5 -49t-52 -114.5t-16.5 -127.5q0 -124 79 -124q45 0 80 48t52 112.5t17 126.5zM419 713
l-131 -144h-53l116 144h68z" />
    <glyph glyph-name="ocircumflex" unicode="&#xf4;" horiz-adv-x="436" 
d="M401 330q0 -85 -26.5 -163.5t-78.5 -131t-116 -52.5q-65 0 -102.5 49.5t-37.5 132.5q0 86 26 165t77.5 131t116.5 52q67 0 104 -49.5t37 -133.5zM334 328q0 128 -80 128q-44 0 -79.5 -49t-52 -114.5t-16.5 -127.5q0 -124 79 -124q45 0 80 48t52 112.5t17 126.5zM414 569
h-56l-55 110l-94 -110h-62l127 144h65z" />
    <glyph glyph-name="otilde" unicode="&#xf5;" horiz-adv-x="436" 
d="M401 330q0 -85 -26.5 -163.5t-78.5 -131t-116 -52.5q-65 0 -102.5 49.5t-37.5 132.5q0 86 26 165t77.5 131t116.5 52q67 0 104 -49.5t37 -133.5zM334 328q0 128 -80 128q-44 0 -79.5 -49t-52 -114.5t-16.5 -127.5q0 -124 79 -124q45 0 80 48t52 112.5t17 126.5zM423 681
q-10 -45 -33.5 -70t-52.5 -25t-59 24q-30 23 -50 23q-28 0 -43 -47h-37q10 44 34 69.5t53 25.5q27 0 59 -24q31 -23 51 -23q28 0 42 47h36z" />
    <glyph glyph-name="odieresis" unicode="&#xf6;" horiz-adv-x="436" 
d="M401 330q0 -85 -26.5 -163.5t-78.5 -131t-116 -52.5q-65 0 -102.5 49.5t-37.5 132.5q0 86 26 165t77.5 131t116.5 52q67 0 104 -49.5t37 -133.5zM334 328q0 128 -80 128q-44 0 -79.5 -49t-52 -114.5t-16.5 -127.5q0 -124 79 -124q45 0 80 48t52 112.5t17 126.5zM400 659
q0 -21 -13 -35.5t-32 -14.5q-17 0 -27 11t-10 27q0 20 13 35t32 15q16 0 26.5 -10.5t10.5 -27.5zM255 659q0 -21 -12.5 -35.5t-31.5 -14.5q-17 0 -26.5 11t-9.5 27q0 20 12.5 35t31.5 15q16 0 26 -10.5t10 -27.5z" />
    <glyph glyph-name="divide" unicode="&#xf7;" horiz-adv-x="666" 
d="M588 333v-60h-510v60h510zM387 465q0 -22 -15.5 -38t-38.5 -16t-38.5 16t-15.5 38t15.5 38t38.5 16t38.5 -16t15.5 -38zM387 141q0 -22 -15.5 -38t-38.5 -16t-38.5 16t-15.5 38t15.5 38t38.5 16t38.5 -16t15.5 -38z" />
    <glyph glyph-name="oslash" unicode="&#xf8;" horiz-adv-x="436" 
d="M424 518l-50 -71q27 -47 27 -117q0 -85 -26.5 -163.5t-78.5 -131t-116 -52.5t-102 47l-46 -72l-31 21l58 84q-19 41 -19 102q0 86 26 165t77.5 131t116.5 52q55 0 91 -36l41 62zM334 328q0 32 -6 59l-208 -302q19 -44 65 -44q45 0 80 48t52 112.5t17 126.5zM106 165
q0 -26 2 -38l204 299q-21 30 -58 30q-44 0 -79.5 -49t-52 -114.5t-16.5 -127.5z" />
    <glyph glyph-name="ugrave" unicode="&#xf9;" horiz-adv-x="464" 
d="M431 496l-65 -370q-5 -27 -18 -126h-64q1 11 14 94h-2q-20 -47 -57 -79t-82 -32q-53 0 -78 35t-25 86q0 28 7 72l55 320h65l-55 -320q-6 -38 -6 -58q0 -77 62 -77q48 0 85 49.5t50 119.5l49 286h65zM305 569h-52l-107 144h66z" />
    <glyph glyph-name="uacute" unicode="&#xfa;" horiz-adv-x="464" 
d="M431 496l-65 -370q-5 -27 -18 -126h-64q1 11 14 94h-2q-20 -47 -57 -79t-82 -32q-53 0 -78 35t-25 86q0 28 7 72l55 320h65l-55 -320q-6 -38 -6 -58q0 -77 62 -77q48 0 85 49.5t50 119.5l49 286h65zM429 713l-131 -144h-53l116 144h68z" />
    <glyph glyph-name="ucircumflex" unicode="&#xfb;" horiz-adv-x="464" 
d="M431 496l-65 -370q-5 -27 -18 -126h-64q1 11 14 94h-2q-20 -47 -57 -79t-82 -32q-53 0 -78 35t-25 86q0 28 7 72l55 320h65l-55 -320q-6 -38 -6 -58q0 -77 62 -77q48 0 85 49.5t50 119.5l49 286h65zM416 569h-56l-55 110l-94 -110h-62l127 144h65z" />
    <glyph glyph-name="udieresis" unicode="&#xfc;" horiz-adv-x="464" 
d="M431 496l-65 -370q-5 -27 -18 -126h-64q1 11 14 94h-2q-20 -47 -57 -79t-82 -32q-53 0 -78 35t-25 86q0 28 7 72l55 320h65l-55 -320q-6 -38 -6 -58q0 -77 62 -77q48 0 85 49.5t50 119.5l49 286h65zM412 659q0 -21 -13 -35.5t-32 -14.5q-17 0 -27 11t-10 27q0 20 13 35
t32 15q16 0 26.5 -10.5t10.5 -27.5zM267 659q0 -21 -12.5 -35.5t-31.5 -14.5q-17 0 -26.5 11t-9.5 27q0 20 12.5 35t31.5 15q16 0 26 -10.5t10 -27.5z" />
    <glyph glyph-name="yacute" unicode="&#xfd;" horiz-adv-x="372" 
d="M401 496l-261 -605q-29 -68 -61 -99.5t-82 -31.5q-26 0 -43 7l13 59q12 -6 31 -6q28 0 45.5 18.5t34.5 57.5l37 90l-54 510h67l33 -421h2l171 421h67zM384 713l-131 -144h-53l116 144h68z" />
    <glyph glyph-name="thorn" unicode="&#xfe;" horiz-adv-x="465" 
d="M429 340q0 -83 -24.5 -163.5t-73 -137t-109.5 -56.5q-49 0 -75.5 28.5t-29.5 72.5h-2l-57 -324h-65l175 996h64l-61 -347h2q20 47 54.5 75.5t77.5 28.5q60 0 92 -46.5t32 -126.5zM362 333q0 57 -19.5 90t-57.5 33q-44 0 -79.5 -48.5t-53 -113.5t-17.5 -127
q0 -127 77 -127q45 0 81 50t52.5 115.5t16.5 127.5z" />
    <glyph glyph-name="ydieresis" unicode="&#xff;" horiz-adv-x="372" 
d="M401 496l-261 -605q-29 -68 -61 -99.5t-82 -31.5q-26 0 -43 7l13 59q12 -6 31 -6q28 0 45.5 18.5t34.5 57.5l37 90l-54 510h67l33 -421h2l171 421h67zM375 659q0 -21 -13 -35.5t-32 -14.5q-17 0 -27 11t-10 27q0 20 12.5 35t32.5 15q16 0 26.5 -10.5t10.5 -27.5zM230 659
q0 -21 -12.5 -35.5t-31.5 -14.5q-17 0 -26.5 11t-9.5 27q0 20 12.5 35t31.5 15q16 0 26 -10.5t10 -27.5z" />
    <glyph glyph-name="Amacron" unicode="&#x100;" horiz-adv-x="464" 
d="M413 0h-69l-8 178h-221l-80 -178h-70l320 708h92zM336 232l-15 414h-4l-181 -414h200zM473 858l-8 -47h-244l8 47h244z" />
    <glyph glyph-name="amacron" unicode="&#x101;" horiz-adv-x="400" 
d="M356 383q0 -28 -8 -71l-35 -206q-12 -68 -14 -106h-55q2 36 13 93h-2q-40 -106 -134 -106q-45 0 -72.5 30.5t-27.5 84.5q0 55 20.5 96t55 63t73 32t80.5 10h37q9 51 9 69q0 85 -73 85q-56 0 -102 -53l-30 40q26 31 65 50t77 19q123 0 123 -130zM280 253h-37
q-69 0 -115 -33t-46 -109q0 -34 16.5 -52.5t43.5 -18.5q52 0 84.5 53t46.5 124zM384 663l-9 -47h-244l9 47h244z" />
    <glyph glyph-name="Abreve" unicode="&#x102;" horiz-adv-x="464" 
d="M413 0h-69l-8 178h-221l-80 -178h-70l320 708h92zM336 232l-15 414h-4l-181 -414h200zM482 900q-37 -131 -146 -131q-51 0 -81 32.5t-30 98.5h46q0 -41 18 -62t49 -21q73 0 99 83h45z" />
    <glyph glyph-name="abreve" unicode="&#x103;" horiz-adv-x="400" 
d="M356 383q0 -28 -8 -71l-35 -206q-12 -68 -14 -106h-55q2 36 13 93h-2q-40 -106 -134 -106q-45 0 -72.5 30.5t-27.5 84.5q0 55 20.5 96t55 63t73 32t80.5 10h37q9 51 9 69q0 85 -73 85q-56 0 -102 -53l-30 40q26 31 65 50t77 19q123 0 123 -130zM280 253h-37
q-69 0 -115 -33t-46 -109q0 -34 16.5 -52.5t43.5 -18.5q52 0 84.5 53t46.5 124zM391 705q-37 -131 -146 -131q-51 0 -81 32.5t-30 98.5h46q0 -41 18 -62t49 -21q73 0 99 83h45z" />
    <glyph glyph-name="Aogonek" unicode="&#x104;" horiz-adv-x="464" 
d="M417 -188q-40 -34 -87 -34q-36 0 -57 20t-16 57q5 39 34.5 72.5t76.5 72.5h-24l-8 178h-221l-80 -178h-70l320 708h92l36 -708q-54 -49 -76 -75t-25 -56q-2 -21 8.5 -33t30.5 -12q31 0 56 23zM336 232l-15 414h-4l-181 -414h200z" />
    <glyph glyph-name="aogonek" unicode="&#x105;" horiz-adv-x="400" 
d="M300 -188q-40 -34 -87 -34q-36 0 -57 20t-16 57q5 39 34.5 72.5t76.5 72.5h-7q2 36 13 93h-2q-40 -106 -134 -106q-45 0 -72.5 30.5t-27.5 84.5q0 55 20.5 96t55 63t73 32t80.5 10h37q9 51 9 69q0 85 -73 85q-56 0 -102 -53l-30 40q26 31 65 50t77 19q123 0 123 -130
q0 -28 -8 -71l-35 -206q-12 -68 -14 -106h-3q-54 -49 -76 -75t-25 -56q-2 -21 8.5 -33t30.5 -12q31 0 56 23zM280 253h-37q-69 0 -115 -33t-46 -109q0 -34 16.5 -52.5t43.5 -18.5q52 0 84.5 53t46.5 124z" />
    <glyph glyph-name="Cacute" unicode="&#x106;" horiz-adv-x="473" 
d="M527 644l-51 -45q-35 64 -108 64q-70 0 -126 -68.5t-83 -162t-27 -186.5q0 -90 32 -145t101 -55q75 0 133 73l37 -45q-76 -91 -182 -91q-93 0 -143 71t-50 188t38.5 227t112 183t164.5 73q107 0 152 -81zM500 908l-130 -144h-53l116 144h67z" />
    <glyph glyph-name="cacute" unicode="&#x107;" horiz-adv-x="332" 
d="M362 470l-38 -48q-24 33 -68 33q-45 0 -80 -48.5t-52 -113t-17 -127.5q0 -122 87 -122q40 0 78 36l24 -51q-49 -46 -109 -46q-73 0 -110 49.5t-37 130.5q0 84 24.5 162.5t76 133t118.5 54.5q68 0 103 -43zM397 713l-131 -144h-53l116 144h68z" />
    <glyph glyph-name="Ccircumflex" unicode="&#x108;" horiz-adv-x="473" 
d="M527 644l-51 -45q-35 64 -108 64q-70 0 -126 -68.5t-83 -162t-27 -186.5q0 -90 32 -145t101 -55q75 0 133 73l37 -45q-76 -91 -182 -91q-93 0 -143 71t-50 188t38.5 227t112 183t164.5 73q107 0 152 -81zM524 764h-55l-57 110l-93 -110h-62l127 144h65z" />
    <glyph glyph-name="ccircumflex" unicode="&#x109;" horiz-adv-x="332" 
d="M362 470l-38 -48q-24 33 -68 33q-45 0 -80 -48.5t-52 -113t-17 -127.5q0 -122 87 -122q40 0 78 36l24 -51q-49 -46 -109 -46q-73 0 -110 49.5t-37 130.5q0 84 24.5 162.5t76 133t118.5 54.5q68 0 103 -43zM407 569h-56l-55 110l-94 -110h-62l127 144h65z" />
    <glyph glyph-name="Cdotaccent" unicode="&#x10a;" horiz-adv-x="473" 
d="M527 644l-51 -45q-35 64 -108 64q-70 0 -126 -68.5t-83 -162t-27 -186.5q0 -90 32 -145t101 -55q75 0 133 73l37 -45q-76 -91 -182 -91q-93 0 -143 71t-50 188t38.5 227t112 183t164.5 73q107 0 152 -81zM443 855q0 -23 -14 -38.5t-35 -15.5q-17 0 -27.5 11.5t-10.5 28.5
q0 21 14 37.5t34 16.5q18 0 28.5 -11t10.5 -29z" />
    <glyph glyph-name="cdotaccent" unicode="&#x10b;" horiz-adv-x="332" 
d="M362 470l-38 -48q-24 33 -68 33q-45 0 -80 -48.5t-52 -113t-17 -127.5q0 -122 87 -122q40 0 78 36l24 -51q-49 -46 -109 -46q-73 0 -110 49.5t-37 130.5q0 84 24.5 162.5t76 133t118.5 54.5q68 0 103 -43zM330 660q0 -23 -14 -38.5t-35 -15.5q-17 0 -27.5 11.5
t-10.5 28.5q0 21 14 37.5t34 16.5q18 0 28.5 -11t10.5 -29z" />
    <glyph glyph-name="Ccaron" unicode="&#x10c;" horiz-adv-x="473" 
d="M527 644l-51 -45q-35 64 -108 64q-70 0 -126 -68.5t-83 -162t-27 -186.5q0 -90 32 -145t101 -55q75 0 133 73l37 -45q-76 -91 -182 -91q-93 0 -143 71t-50 188t38.5 227t112 183t164.5 73q107 0 152 -81zM546 907l-125 -144h-65l-77 144h56l55 -109l95 109h61z" />
    <glyph glyph-name="ccaron" unicode="&#x10d;" horiz-adv-x="332" 
d="M362 470l-38 -48q-24 33 -68 33q-45 0 -80 -48.5t-52 -113t-17 -127.5q0 -122 87 -122q40 0 78 36l24 -51q-49 -46 -109 -46q-73 0 -110 49.5t-37 130.5q0 84 24.5 162.5t76 133t118.5 54.5q68 0 103 -43zM426 712l-125 -144h-65l-76 144h55l55 -109l94 109h62z" />
    <glyph glyph-name="Dcaron" unicode="&#x10e;" horiz-adv-x="535" 
d="M519 437q0 -120 -37 -218t-112.5 -158.5t-176.5 -60.5h-152l123 708h145q106 0 158 -73t52 -198zM450 434q0 101 -38.5 157.5t-113.5 56.5h-78l-102 -588h85q110 0 178.5 109t68.5 265zM483 907l-125 -144h-65l-77 144h56l55 -109l95 109h61z" />
    <glyph glyph-name="dcaron" unicode="&#x10f;" horiz-adv-x="517" 
d="M477 756l-132 -756h-63l16 91h-1q-48 -108 -138 -108q-59 0 -89 47t-30 129q0 83 24 163t73.5 135.5t111.5 55.5q45 0 71.5 -28t30.5 -74h2l60 345h64zM333 328q0 59 -19.5 93.5t-57.5 34.5q-46 0 -81.5 -49.5t-52 -114.5t-16.5 -128q0 -57 19.5 -90t57.5 -33
q44 0 79.5 48t53 113t17.5 126zM616 708l-91 -184h-51l82 184h60z" />
    <glyph glyph-name="Dcroat" unicode="&#x110;" horiz-adv-x="535" 
d="M519 437q0 -120 -37 -218t-112.5 -158.5t-176.5 -60.5h-152l59 341h-62l9 49h62l55 318h145q106 0 158 -73t52 -198zM450 434q0 101 -38.5 157.5t-113.5 56.5h-78l-45 -258h136l-9 -49h-135l-49 -281h85q110 0 178.5 109t68.5 265z" />
    <glyph glyph-name="dcroat" unicode="&#x111;" horiz-adv-x="460" 
d="M488 615l-7 -40h-36l-100 -575h-63l16 91h-1q-48 -108 -138 -108q-59 0 -89 47t-30 129q0 83 24 163t73.5 135.5t111.5 55.5q45 0 71.5 -28t30.5 -74h2l28 164h-122l7 40h121l26 141h64l-26 -141h37zM333 328q0 59 -19.5 93.5t-57.5 34.5q-46 0 -81.5 -49.5t-52 -114.5
t-16.5 -128q0 -57 19.5 -90t57.5 -33q44 0 79.5 48t53 113t17.5 126z" />
    <glyph glyph-name="Emacron" unicode="&#x112;" horiz-adv-x="408" 
d="M439 708l-10 -60h-211l-44 -252h201l-10 -57h-200l-48 -278h227l-11 -61h-292l123 708h275zM444 858l-8 -47h-244l8 47h244z" />
    <glyph glyph-name="emacron" unicode="&#x113;" horiz-adv-x="418" 
d="M388 352q0 -46 -13 -118h-263q-6 -35 -6 -68q0 -57 21.5 -89.5t63.5 -32.5q61 0 103 75l47 -30q-60 -106 -157 -106q-68 0 -106 47.5t-38 132.5q0 83 25.5 162t77 133.5t116.5 54.5q67 0 98 -43.5t31 -117.5zM327 350q0 105 -73 105q-51 0 -85.5 -54.5t-45.5 -112.5h197
q7 44 7 62zM413 663l-9 -47h-244l9 47h244z" />
    <glyph glyph-name="Ebreve" unicode="&#x114;" horiz-adv-x="408" 
d="M439 708l-10 -60h-211l-44 -252h201l-10 -57h-200l-48 -278h227l-11 -61h-292l123 708h275zM456 900q-37 -131 -146 -131q-51 0 -81 32.5t-30 98.5h46q0 -41 18 -62t49 -21q73 0 99 83h45z" />
    <glyph glyph-name="ebreve" unicode="&#x115;" horiz-adv-x="418" 
d="M388 352q0 -46 -13 -118h-263q-6 -35 -6 -68q0 -57 21.5 -89.5t63.5 -32.5q61 0 103 75l47 -30q-60 -106 -157 -106q-68 0 -106 47.5t-38 132.5q0 83 25.5 162t77 133.5t116.5 54.5q67 0 98 -43.5t31 -117.5zM327 350q0 105 -73 105q-51 0 -85.5 -54.5t-45.5 -112.5h197
q7 44 7 62zM423 705q-37 -131 -146 -131q-51 0 -81 32.5t-30 98.5h46q0 -41 18 -62t49 -21q73 0 99 83h45z" />
    <glyph glyph-name="Edotaccent" unicode="&#x116;" horiz-adv-x="408" 
d="M439 708l-10 -60h-211l-44 -252h201l-10 -57h-200l-48 -278h227l-11 -61h-292l123 708h275zM365 855q0 -23 -14 -38.5t-35 -15.5q-17 0 -27.5 11.5t-10.5 28.5q0 21 14 37.5t34 16.5q18 0 28.5 -11t10.5 -29z" />
    <glyph glyph-name="edotaccent" unicode="&#x117;" horiz-adv-x="418" 
d="M388 352q0 -46 -13 -118h-263q-6 -35 -6 -68q0 -57 21.5 -89.5t63.5 -32.5q61 0 103 75l47 -30q-60 -106 -157 -106q-68 0 -106 47.5t-38 132.5q0 83 25.5 162t77 133.5t116.5 54.5q67 0 98 -43.5t31 -117.5zM327 350q0 105 -73 105q-51 0 -85.5 -54.5t-45.5 -112.5h197
q7 44 7 62zM333 660q0 -23 -14 -38.5t-35 -15.5q-17 0 -27.5 11.5t-10.5 28.5q0 21 14 37.5t34 16.5q18 0 28.5 -11t10.5 -29z" />
    <glyph glyph-name="Eogonek" unicode="&#x118;" horiz-adv-x="408" 
d="M213 -188q-40 -34 -87 -34q-36 0 -57 20t-16 57q5 39 34.5 72.5t76.5 72.5h-123l123 708h275l-10 -60h-211l-44 -252h201l-10 -57h-200l-48 -278h227l-11 -61h-124q-54 -49 -76 -75t-25 -56q-2 -21 8.5 -33t30.5 -12q31 0 56 23z" />
    <glyph glyph-name="eogonek" unicode="&#x119;" horiz-adv-x="418" 
d="M228 -188q-40 -34 -87 -34q-36 0 -57 20t-16 57q8 60 92 130q-58 8 -89 54.5t-31 123.5q0 83 25.5 162t77 133.5t116.5 54.5q67 0 98 -43.5t31 -117.5q0 -46 -13 -118h-263q-6 -35 -6 -68q0 -57 21.5 -89.5t63.5 -32.5q61 0 103 75l47 -30q-54 -93 -135 -104
q-43 -39 -61.5 -64t-21.5 -52q-2 -21 8.5 -33t30.5 -12q31 0 56 23zM327 350q0 105 -73 105q-51 0 -85.5 -54.5t-45.5 -112.5h197q7 44 7 62z" />
    <glyph glyph-name="Ecaron" unicode="&#x11a;" horiz-adv-x="408" 
d="M439 708l-10 -60h-211l-44 -252h201l-10 -57h-200l-48 -278h227l-11 -61h-292l123 708h275zM467 907l-125 -144h-65l-77 144h56l55 -109l95 109h61z" />
    <glyph glyph-name="ecaron" unicode="&#x11b;" horiz-adv-x="418" 
d="M388 352q0 -46 -13 -118h-263q-6 -35 -6 -68q0 -57 21.5 -89.5t63.5 -32.5q61 0 103 75l47 -30q-60 -106 -157 -106q-68 0 -106 47.5t-38 132.5q0 83 25.5 162t77 133.5t116.5 54.5q67 0 98 -43.5t31 -117.5zM327 350q0 105 -73 105q-51 0 -85.5 -54.5t-45.5 -112.5h197
q7 44 7 62zM431 712l-125 -144h-65l-76 144h55l55 -109l94 109h62z" />
    <glyph glyph-name="Gcircumflex" unicode="&#x11c;" horiz-adv-x="530" 
d="M528 643l-52 -45q-33 65 -108 65q-54 0 -100 -40.5t-75 -103t-45 -135t-16 -139.5q0 -199 136 -199q64 0 106 34l42 242h-101l11 59h167l-59 -338q-77 -58 -176 -58q-97 0 -147.5 69t-50.5 188q0 114 38 224t112 184.5t165 74.5q110 0 153 -82zM521 764h-55l-57 110
l-93 -110h-62l127 144h65z" />
    <glyph glyph-name="gcircumflex" unicode="&#x11d;" horiz-adv-x="460" 
d="M433 496l-85 -488q-21 -118 -69 -183t-143 -65q-48 0 -88.5 21.5t-61.5 55.5l45 44q41 -62 111 -62q62 0 93.5 48.5t48.5 139.5l16 84h-2q-47 -108 -133 -108q-60 0 -92.5 48t-32.5 129q0 83 23.5 162.5t72.5 135t111 55.5q46 0 73.5 -28t31.5 -74h3l15 85h63zM334 328
q0 59 -19.5 93.5t-58.5 34.5q-46 0 -81 -49.5t-51.5 -114.5t-16.5 -128q0 -123 76 -123q44 0 80 48t53.5 112.5t17.5 126.5zM429 569h-56l-55 110l-94 -110h-62l127 144h65z" />
    <glyph glyph-name="Gbreve" unicode="&#x11e;" horiz-adv-x="530" 
d="M528 643l-52 -45q-33 65 -108 65q-54 0 -100 -40.5t-75 -103t-45 -135t-16 -139.5q0 -199 136 -199q64 0 106 34l42 242h-101l11 59h167l-59 -338q-77 -58 -176 -58q-97 0 -147.5 69t-50.5 188q0 114 38 224t112 184.5t165 74.5q110 0 153 -82zM537 900
q-37 -131 -146 -131q-51 0 -81 32.5t-30 98.5h46q0 -41 18 -62t49 -21q73 0 99 83h45z" />
    <glyph glyph-name="gbreve" unicode="&#x11f;" horiz-adv-x="460" 
d="M433 496l-85 -488q-21 -118 -69 -183t-143 -65q-48 0 -88.5 21.5t-61.5 55.5l45 44q41 -62 111 -62q62 0 93.5 48.5t48.5 139.5l16 84h-2q-47 -108 -133 -108q-60 0 -92.5 48t-32.5 129q0 83 23.5 162.5t72.5 135t111 55.5q46 0 73.5 -28t31.5 -74h3l15 85h63zM334 328
q0 59 -19.5 93.5t-58.5 34.5q-46 0 -81 -49.5t-51.5 -114.5t-16.5 -128q0 -123 76 -123q44 0 80 48t53.5 112.5t17.5 126.5zM444 705q-37 -131 -146 -131q-51 0 -81 32.5t-30 98.5h46q0 -41 18 -62t49 -21q73 0 99 83h45z" />
    <glyph glyph-name="Gdotaccent" unicode="&#x120;" horiz-adv-x="530" 
d="M528 643l-52 -45q-33 65 -108 65q-54 0 -100 -40.5t-75 -103t-45 -135t-16 -139.5q0 -199 136 -199q64 0 106 34l42 242h-101l11 59h167l-59 -338q-77 -58 -176 -58q-97 0 -147.5 69t-50.5 188q0 114 38 224t112 184.5t165 74.5q110 0 153 -82zM439 855q0 -23 -14 -38.5
t-35 -15.5q-17 0 -27.5 11.5t-10.5 28.5q0 21 14 37.5t34 16.5q18 0 28.5 -11t10.5 -29z" />
    <glyph glyph-name="gdotaccent" unicode="&#x121;" horiz-adv-x="460" 
d="M433 496l-85 -488q-21 -118 -69 -183t-143 -65q-48 0 -88.5 21.5t-61.5 55.5l45 44q41 -62 111 -62q62 0 93.5 48.5t48.5 139.5l16 84h-2q-47 -108 -133 -108q-60 0 -92.5 48t-32.5 129q0 83 23.5 162.5t72.5 135t111 55.5q46 0 73.5 -28t31.5 -74h3l15 85h63zM334 328
q0 59 -19.5 93.5t-58.5 34.5q-46 0 -81 -49.5t-51.5 -114.5t-16.5 -128q0 -123 76 -123q44 0 80 48t53.5 112.5t17.5 126.5zM348 660q0 -23 -14 -38.5t-35 -15.5q-17 0 -27.5 11.5t-10.5 28.5q0 21 14 37.5t34 16.5q18 0 28.5 -11t10.5 -29z" />
    <glyph glyph-name="Gcommaaccent" unicode="&#x122;" horiz-adv-x="530" 
d="M528 643l-52 -45q-33 65 -108 65q-54 0 -100 -40.5t-75 -103t-45 -135t-16 -139.5q0 -199 136 -199q64 0 106 34l42 242h-101l11 59h167l-59 -338q-77 -58 -176 -58q-97 0 -147.5 69t-50.5 188q0 114 38 224t112 184.5t165 74.5q110 0 153 -82zM265 -45l-91 -184h-51
l82 184h60z" />
    <glyph glyph-name="gcommaaccent" unicode="&#x123;" horiz-adv-x="460" 
d="M433 496l-85 -488q-21 -118 -69 -183t-143 -65q-48 0 -88.5 21.5t-61.5 55.5l45 44q41 -62 111 -62q62 0 93.5 48.5t48.5 139.5l16 84h-2q-47 -108 -133 -108q-60 0 -92.5 48t-32.5 129q0 83 23.5 162.5t72.5 135t111 55.5q46 0 73.5 -28t31.5 -74h3l15 85h63zM334 328
q0 59 -19.5 93.5t-58.5 34.5q-46 0 -81 -49.5t-51.5 -114.5t-16.5 -128q0 -123 76 -123q44 0 80 48t53.5 112.5t17.5 126.5zM271 569l91 184h51l-82 -184h-60z" />
    <glyph glyph-name="Hcircumflex" unicode="&#x124;" horiz-adv-x="568" 
d="M572 708l-123 -708h-67l59 337h-274l-58 -337h-68l123 708h68l-55 -311h273l54 311h68zM516 764h-55l-57 110l-93 -110h-62l127 144h65z" />
    <glyph glyph-name="hcircumflex" unicode="&#x125;" horiz-adv-x="466" 
d="M414 392q0 -28 -7 -72l-56 -320h-65l55 320q6 38 6 58q0 77 -62 77q-48 0 -84.5 -49t-49.5 -120l-50 -286h-65l131 756h65l-62 -352h2q19 46 56.5 77.5t82.5 31.5q53 0 78 -35t25 -86zM455 796h-56l-55 110l-94 -110h-62l127 144h65z" />
    <glyph glyph-name="Hbar" unicode="&#x126;" horiz-adv-x="568" 
d="M572 708l-123 -708h-67l59 337h-274l-58 -337h-68l123 708h68l-28 -156h272l28 156h68zM177 397h273l19 113h-273z" />
    <glyph glyph-name="hbar" unicode="&#x127;" horiz-adv-x="466" 
d="M331 615l-7 -40h-125l-29 -171h2q19 46 56.5 77.5t82.5 31.5q53 0 78 -35t25 -86q0 -28 -7 -72l-56 -320h-65l55 320q6 38 6 58q0 77 -62 77q-48 0 -84.5 -49t-49.5 -120l-50 -286h-65l99 575h-33l7 40h32l26 141h65l-26 -141h125z" />
    <glyph glyph-name="Itilde" unicode="&#x128;" horiz-adv-x="228" 
d="M232 708l-123 -708h-68l123 708h68zM351 876q-10 -45 -33.5 -70t-52.5 -25t-59 24q-30 23 -50 23q-29 0 -43 -48h-36q10 45 33 70.5t52 25.5q28 0 60 -24q31 -23 51 -23q28 0 42 47h36z" />
    <glyph glyph-name="itilde" unicode="&#x129;" horiz-adv-x="216" 
d="M186 496l-86 -496h-65l87 496h64zM307 681q-10 -45 -33.5 -70t-52.5 -25t-59 24q-30 23 -50 23q-28 0 -43 -47h-37q10 44 34 69.5t53 25.5q27 0 59 -24q31 -23 51 -23q28 0 42 47h36z" />
    <glyph glyph-name="Imacron" unicode="&#x12a;" horiz-adv-x="228" 
d="M232 708l-123 -708h-68l123 708h68zM342 858l-8 -47h-244l8 47h244z" />
    <glyph glyph-name="imacron" unicode="&#x12b;" horiz-adv-x="216" 
d="M186 496l-86 -496h-65l87 496h64zM300 663l-9 -47h-244l9 47h244z" />
    <glyph glyph-name="Iogonek" unicode="&#x12e;" horiz-adv-x="228" 
d="M111 -188q-40 -34 -87 -34q-36 0 -57 20t-16 57q5 39 34.5 72.5t76.5 72.5h-21l123 708h68l-123 -708h-2q-54 -49 -76 -75t-25 -56q-2 -21 8.5 -33t30.5 -12q31 0 56 23z" />
    <glyph glyph-name="iogonek" unicode="&#x12f;" horiz-adv-x="216" 
d="M103 -188q-40 -34 -87 -34q-36 0 -57 20t-16 57q5 39 34.5 72.5t76.5 72.5h-18l86 496h64l-86 -496h-1q-54 -49 -76 -75t-25 -56q-2 -21 8.5 -33t30.5 -12q31 0 56 23zM222 660q0 -23 -14 -38.5t-35 -15.5q-17 0 -27.5 11.5t-10.5 28.5q0 21 14 37.5t34 16.5
q18 0 28.5 -11t10.5 -29z" />
    <glyph glyph-name="Idotaccent" unicode="&#x130;" horiz-adv-x="228" 
d="M232 708l-123 -708h-68l123 708h68zM263 855q0 -23 -14 -38.5t-35 -15.5q-17 0 -27.5 11.5t-10.5 28.5q0 21 14 37.5t34 16.5q18 0 28.5 -11t10.5 -29z" />
    <glyph glyph-name="dotlessi" unicode="&#x131;" horiz-adv-x="216" 
d="M186 496l-86 -496h-65l87 496h64z" />
    <glyph glyph-name="Jcircumflex" unicode="&#x134;" horiz-adv-x="375" 
d="M384 708l-90 -514q-19 -107 -57.5 -159t-116.5 -52q-57 0 -92.5 31t-47.5 81l58 24q7 -32 28 -53t54 -21q50 0 72 37.5t36 121.5l88 504h68zM489 764h-55l-57 110l-93 -110h-62l127 144h65z" />
    <glyph glyph-name="jcircumflex" unicode="&#x135;" horiz-adv-x="217" 
d="M190 497l-100 -570q-15 -82 -48 -124.5t-99 -42.5q-14 0 -38 6l10 61q13 -5 28 -5q37 0 54 28.5t26 81.5l100 565h67zM295 569h-56l-55 110l-94 -110h-62l127 144h65z" />
    <glyph glyph-name="Kcommaaccent" unicode="&#x136;" horiz-adv-x="476" 
d="M535 708l-298 -333l190 -375h-76l-179 364h-2l-63 -364h-66l123 708h66l-55 -319h2l278 319h80zM240 -45l-91 -184h-51l82 184h60z" />
    <glyph glyph-name="kcommaaccent" unicode="&#x137;" horiz-adv-x="398" 
d="M423 496l-217 -234l143 -262h-73l-132 250h-2l-42 -250h-64l131 756h64l-84 -479h2l195 219h79zM201 -45l-91 -184h-51l82 184h60z" />
    <glyph glyph-name="Lacute" unicode="&#x139;" horiz-adv-x="355" 
d="M322 63l-11 -63h-270l123 708h68l-112 -645h202zM362 908l-130 -144h-53l116 144h67z" />
    <glyph glyph-name="lacute" unicode="&#x13a;" horiz-adv-x="216" 
d="M233 756l-132 -756h-65l132 756h65zM356 941l-131 -144h-53l116 144h68z" />
    <glyph glyph-name="Lcommaaccent" unicode="&#x13b;" horiz-adv-x="355" 
d="M322 63l-11 -63h-270l123 708h68l-112 -645h202zM198 -45l-91 -184h-51l82 184h60z" />
    <glyph glyph-name="lcommaaccent" unicode="&#x13c;" horiz-adv-x="216" 
d="M233 756l-132 -756h-65l132 756h65zM96 -45l-91 -184h-51l82 184h60z" />
    <glyph glyph-name="Lcaron" unicode="&#x13d;" horiz-adv-x="355" 
d="M322 63l-11 -63h-270l123 708h68l-112 -645h202zM393 708l-91 -184h-51l82 184h60z" />
    <glyph glyph-name="lcaron" unicode="&#x13e;" horiz-adv-x="270" 
d="M233 756l-132 -756h-65l132 756h65zM375 708l-91 -184h-51l82 184h60z" />
    <glyph glyph-name="Ldot" unicode="&#x13f;" horiz-adv-x="355" 
d="M322 63l-11 -63h-270l123 708h68l-112 -645h202zM336 440q0 -23 -14 -38.5t-35 -15.5q-17 0 -27.5 11.5t-10.5 28.5q0 21 14 37.5t34 16.5q18 0 28.5 -11t10.5 -29z" />
    <glyph glyph-name="ldot" unicode="&#x140;" horiz-adv-x="285" 
d="M233 756l-132 -756h-65l132 756h65zM319 470q0 -23 -14 -38.5t-35 -15.5q-17 0 -27.5 11.5t-10.5 28.5q0 21 14 37.5t34 16.5q18 0 28.5 -11t10.5 -29z" />
    <glyph glyph-name="Lslash" unicode="&#x141;" horiz-adv-x="355" 
d="M333 491l-12 -65l-162 -136l-39 -227h201l-11 -63h-270l42 237l-56 -48l11 66l55 47l72 406h68l-62 -352z" />
    <glyph glyph-name="lslash" unicode="&#x142;" horiz-adv-x="216" 
d="M240 497l-11 -62l-61 -52l-67 -383h-65l57 331l-53 -44l12 63l52 43l64 363h65l-54 -311z" />
    <glyph glyph-name="Nacute" unicode="&#x143;" horiz-adv-x="557" 
d="M561 708l-123 -708h-83l-147 592h-2l-102 -592h-63l123 708h84l143 -592h3l104 592h63zM505 908l-130 -144h-53l116 144h67z" />
    <glyph glyph-name="nacute" unicode="&#x144;" horiz-adv-x="464" 
d="M412 392q0 -22 -8 -72l-55 -320h-65l55 320q6 38 6 58q0 77 -62 77q-48 0 -84.5 -49t-49.5 -120l-50 -286h-65l65 370l18 126h64q-1 -11 -14 -94h2q20 47 57 79t82 32q54 0 79 -35t25 -86zM408 713l-131 -144h-53l116 144h68z" />
    <glyph glyph-name="Ncommaaccent" unicode="&#x145;" horiz-adv-x="557" 
d="M561 708l-123 -708h-83l-147 592h-2l-102 -592h-63l123 708h84l143 -592h3l104 592h63zM256 -45l-91 -184h-51l82 184h60z" />
    <glyph glyph-name="ncommaaccent" unicode="&#x146;" horiz-adv-x="464" 
d="M412 392q0 -22 -8 -72l-55 -320h-65l55 320q6 38 6 58q0 77 -62 77q-48 0 -84.5 -49t-49.5 -120l-50 -286h-65l65 370l18 126h64q-1 -11 -14 -94h2q20 47 57 79t82 32q54 0 79 -35t25 -86zM211 -45l-91 -184h-51l82 184h60z" />
    <glyph glyph-name="Ncaron" unicode="&#x147;" horiz-adv-x="557" 
d="M561 708l-123 -708h-83l-147 592h-2l-102 -592h-63l123 708h84l143 -592h3l104 592h63zM523 907l-125 -144h-65l-77 144h56l55 -109l95 109h61z" />
    <glyph glyph-name="ncaron" unicode="&#x148;" horiz-adv-x="464" 
d="M412 392q0 -22 -8 -72l-55 -320h-65l55 320q6 38 6 58q0 77 -62 77q-48 0 -84.5 -49t-49.5 -120l-50 -286h-65l65 370l18 126h64q-1 -11 -14 -94h2q20 47 57 79t82 32q54 0 79 -35t25 -86zM438 712l-125 -144h-65l-76 144h55l55 -109l94 109h62z" />
    <glyph glyph-name="Omacron" unicode="&#x14c;" horiz-adv-x="564" 
d="M548 466q0 -116 -35.5 -225.5t-105.5 -183.5t-157 -74q-91 0 -140.5 69t-49.5 186t34.5 226.5t105 185t159.5 75.5q93 0 141 -70t48 -189zM476 456q0 208 -121 208q-68 0 -121 -72.5t-77.5 -168.5t-24.5 -189q0 -85 30 -136.5t92 -51.5q65 0 117.5 66t78.5 159t26 185z
M512 858l-8 -47h-244l8 47h244z" />
    <glyph glyph-name="omacron" unicode="&#x14d;" horiz-adv-x="436" 
d="M401 330q0 -85 -26.5 -163.5t-78.5 -131t-116 -52.5q-65 0 -102.5 49.5t-37.5 132.5q0 86 26 165t77.5 131t116.5 52q67 0 104 -49.5t37 -133.5zM334 328q0 128 -80 128q-44 0 -79.5 -49t-52 -114.5t-16.5 -127.5q0 -124 79 -124q45 0 80 48t52 112.5t17 126.5zM414 663
l-9 -47h-244l9 47h244z" />
    <glyph glyph-name="Obreve" unicode="&#x14e;" horiz-adv-x="564" 
d="M548 466q0 -116 -35.5 -225.5t-105.5 -183.5t-157 -74q-91 0 -140.5 69t-49.5 186t34.5 226.5t105 185t159.5 75.5q93 0 141 -70t48 -189zM476 456q0 208 -121 208q-68 0 -121 -72.5t-77.5 -168.5t-24.5 -189q0 -85 30 -136.5t92 -51.5q65 0 117.5 66t78.5 159t26 185z
M521 900q-37 -131 -146 -131q-51 0 -81 32.5t-30 98.5h46q0 -41 18 -62t49 -21q73 0 99 83h45z" />
    <glyph glyph-name="obreve" unicode="&#x14f;" horiz-adv-x="436" 
d="M401 330q0 -85 -26.5 -163.5t-78.5 -131t-116 -52.5q-65 0 -102.5 49.5t-37.5 132.5q0 86 26 165t77.5 131t116.5 52q67 0 104 -49.5t37 -133.5zM334 328q0 128 -80 128q-44 0 -79.5 -49t-52 -114.5t-16.5 -127.5q0 -124 79 -124q45 0 80 48t52 112.5t17 126.5zM422 705
q-37 -131 -146 -131q-51 0 -81 32.5t-30 98.5h46q0 -41 18 -62t49 -21q73 0 99 83h45z" />
    <glyph glyph-name="Ohungarumlaut" unicode="&#x150;" horiz-adv-x="564" 
d="M548 466q0 -116 -35.5 -225.5t-105.5 -183.5t-157 -74q-91 0 -140.5 69t-49.5 186t34.5 226.5t105 185t159.5 75.5q93 0 141 -70t48 -189zM476 456q0 208 -121 208q-68 0 -121 -72.5t-77.5 -168.5t-24.5 -189q0 -85 30 -136.5t92 -51.5q65 0 117.5 66t78.5 159t26 185z
M464 908l-130 -144h-52l116 144h66zM592 908l-130 -144h-51l116 144h65z" />
    <glyph glyph-name="ohungarumlaut" unicode="&#x151;" horiz-adv-x="436" 
d="M401 330q0 -85 -26.5 -163.5t-78.5 -131t-116 -52.5q-65 0 -102.5 49.5t-37.5 132.5q0 86 26 165t77.5 131t116.5 52q67 0 104 -49.5t37 -133.5zM334 328q0 128 -80 128q-44 0 -79.5 -49t-52 -114.5t-16.5 -127.5q0 -124 79 -124q45 0 80 48t52 112.5t17 126.5zM496 713
l-131 -144h-52l116 144h67zM367 713l-131 -144h-52l116 144h67z" />
    <glyph glyph-name="OE" unicode="&#x152;" horiz-adv-x="661" 
d="M692 708l-10 -60h-199l-44 -252h189l-11 -57h-188l-47 -278h214l-11 -61h-314q-102 0 -156.5 68t-54.5 190q0 116 38 217t114 167t175 66h305zM418 648h-40q-105 0 -177 -116.5t-72 -272.5q0 -98 40 -148.5t113 -50.5h35z" />
    <glyph glyph-name="oe" unicode="&#x153;" horiz-adv-x="695" 
d="M665 352q0 -46 -13 -118h-264q-7 -40 -7 -68q0 -57 21.5 -89.5t63.5 -32.5q61 0 103 75l47 -30q-60 -106 -157 -106q-106 0 -129 109q-55 -109 -151 -109q-65 0 -102 49.5t-37 132.5q0 86 26.5 165t78.5 131t117 52q103 0 122 -110q26 51 66 80.5t86 29.5q67 0 98 -43.5
t31 -117.5zM333 330q0 58 -19.5 92t-57.5 34q-44 0 -80 -49t-53 -115t-17 -128q0 -123 78 -123q45 0 80.5 48.5t52 113.5t16.5 127zM602 350q0 105 -73 105q-51 0 -85.5 -54.5t-45.5 -112.5h197q7 44 7 62z" />
    <glyph glyph-name="Racute" unicode="&#x154;" horiz-adv-x="473" 
d="M482 550q0 -86 -45.5 -143.5t-115.5 -69.5l96 -337h-69l-91 329h-93l-57 -329h-66l123 708h153q77 0 121 -40t44 -118zM417 542q0 53 -30.5 80.5t-80.5 27.5h-86l-46 -267h94q66 0 107.5 43.5t41.5 115.5zM456 908l-130 -144h-53l116 144h67z" />
    <glyph glyph-name="racute" unicode="&#x155;" horiz-adv-x="264" 
d="M309 509l-14 -66q-8 2 -16 2q-47 0 -84.5 -58t-50.5 -134l-44 -253h-66l65 370q16 98 19 126h63q0 -5 -18 -110h3q23 61 58 92.5t74 31.5q8 0 11 -1zM331 713l-131 -144h-53l116 144h68z" />
    <glyph glyph-name="Rcommaaccent" unicode="&#x156;" horiz-adv-x="473" 
d="M482 550q0 -86 -45.5 -143.5t-115.5 -69.5l96 -337h-69l-91 329h-93l-57 -329h-66l123 708h153q77 0 121 -40t44 -118zM417 542q0 53 -30.5 80.5t-80.5 27.5h-86l-46 -267h94q66 0 107.5 43.5t41.5 115.5zM235 -45l-91 -184h-51l82 184h60z" />
    <glyph glyph-name="rcommaaccent" unicode="&#x157;" horiz-adv-x="264" 
d="M309 509l-14 -66q-8 2 -16 2q-47 0 -84.5 -58t-50.5 -134l-44 -253h-66l65 370q16 98 19 126h63q0 -5 -18 -110h3q23 61 58 92.5t74 31.5q8 0 11 -1zM93 -45l-91 -184h-51l82 184h60z" />
    <glyph glyph-name="Rcaron" unicode="&#x158;" horiz-adv-x="473" 
d="M482 550q0 -86 -45.5 -143.5t-115.5 -69.5l96 -337h-69l-91 329h-93l-57 -329h-66l123 708h153q77 0 121 -40t44 -118zM417 542q0 53 -30.5 80.5t-80.5 27.5h-86l-46 -267h94q66 0 107.5 43.5t41.5 115.5zM478 907l-125 -144h-65l-77 144h56l55 -109l95 109h61z" />
    <glyph glyph-name="rcaron" unicode="&#x159;" horiz-adv-x="264" 
d="M309 509l-14 -66q-8 2 -16 2q-47 0 -84.5 -58t-50.5 -134l-44 -253h-66l65 370q16 98 19 126h63q0 -5 -18 -110h3q23 61 58 92.5t74 31.5q8 0 11 -1zM378 712l-125 -144h-65l-76 144h55l55 -109l94 109h62z" />
    <glyph glyph-name="Sacute" unicode="&#x15a;" horiz-adv-x="430" 
d="M453 661l-47 -48q-37 50 -104 50q-51 0 -92 -39.5t-41 -108.5q0 -43 22.5 -72t63.5 -55q57 -36 90.5 -79t33.5 -106q0 -101 -58.5 -160.5t-147.5 -59.5q-52 0 -97 22t-71 58l47 49q45 -66 121 -66q57 0 97.5 39t40.5 105q0 82 -96 142q-53 32 -83.5 73t-30.5 105
q0 96 59.5 155.5t145.5 59.5q100 0 147 -64zM442 908l-130 -144h-53l116 144h67z" />
    <glyph glyph-name="sacute" unicode="&#x15b;" horiz-adv-x="336" 
d="M337 465l-38 -44q-26 40 -81 40q-37 0 -63 -27t-26 -69q0 -31 14.5 -49t48.5 -37q93 -52 93 -131q0 -78 -47.5 -121.5t-117.5 -43.5q-42 0 -76.5 18.5t-53.5 47.5l44 41q35 -52 92 -52q40 0 67.5 27.5t27.5 72.5q0 59 -75 98q-80 42 -80 122q0 69 45.5 112t113.5 43
q75 0 112 -48zM364 713l-131 -144h-53l116 144h68z" />
    <glyph glyph-name="Scircumflex" unicode="&#x15c;" horiz-adv-x="430" 
d="M453 661l-47 -48q-37 50 -104 50q-51 0 -92 -39.5t-41 -108.5q0 -43 22.5 -72t63.5 -55q57 -36 90.5 -79t33.5 -106q0 -101 -58.5 -160.5t-147.5 -59.5q-52 0 -97 22t-71 58l47 49q45 -66 121 -66q57 0 97.5 39t40.5 105q0 82 -96 142q-53 32 -83.5 73t-30.5 105
q0 96 59.5 155.5t145.5 59.5q100 0 147 -64zM460 764h-55l-57 110l-93 -110h-62l127 144h65z" />
    <glyph glyph-name="scircumflex" unicode="&#x15d;" horiz-adv-x="336" 
d="M337 465l-38 -44q-26 40 -81 40q-37 0 -63 -27t-26 -69q0 -31 14.5 -49t48.5 -37q93 -52 93 -131q0 -78 -47.5 -121.5t-117.5 -43.5q-42 0 -76.5 18.5t-53.5 47.5l44 41q35 -52 92 -52q40 0 67.5 27.5t27.5 72.5q0 59 -75 98q-80 42 -80 122q0 69 45.5 112t113.5 43
q75 0 112 -48zM377 569h-56l-55 110l-94 -110h-62l127 144h65z" />
    <glyph glyph-name="Scedilla" unicode="&#x15e;" horiz-adv-x="430" 
d="M248 -139q-6 -48 -43 -69t-82 -21q-48 0 -85 19l20 35q28 -16 67 -16q25 0 46.5 12t24.5 38q2 19 -10.5 28.5t-34.5 9.5q-25 0 -48 -10l-14 15l63 82q-99 10 -147 79l47 49q45 -66 121 -66q57 0 97.5 39t40.5 105q0 82 -96 142q-53 32 -83.5 73t-30.5 105
q0 96 59.5 155.5t145.5 59.5q100 0 147 -64l-47 -48q-37 50 -104 50q-51 0 -92 -39.5t-41 -108.5q0 -43 22.5 -72t63.5 -55q57 -36 90.5 -79t33.5 -106q0 -95 -52.5 -153.5t-134.5 -65.5l-46 -60q12 4 36 4q30 0 50 -17t16 -50z" />
    <glyph glyph-name="scedilla" unicode="&#x15f;" horiz-adv-x="336" 
d="M197 -139q-6 -48 -43 -69t-82 -21q-48 0 -85 19l20 35q28 -16 67 -16q25 0 46.5 12t24.5 38q2 19 -10.5 28.5t-34.5 9.5q-25 0 -48 -10l-14 15l64 83q-77 8 -112 65l44 41q35 -52 92 -52q40 0 67.5 27t27.5 72q0 59 -75 98q-80 42 -80 122q0 69 45.5 111.5t113.5 42.5
q75 0 112 -48l-38 -44q-26 40 -81 40q-38 0 -63.5 -26.5t-25.5 -68.5q0 -31 14.5 -49t48.5 -37q93 -52 93 -131q0 -71 -40 -113.5t-103 -49.5l-47 -61q12 4 36 4q30 0 50 -17t16 -50z" />
    <glyph glyph-name="Scaron" unicode="&#x160;" horiz-adv-x="430" 
d="M453 661l-47 -48q-37 50 -104 50q-51 0 -92 -39.5t-41 -108.5q0 -43 22.5 -72t63.5 -55q57 -36 90.5 -79t33.5 -106q0 -101 -58.5 -160.5t-147.5 -59.5q-52 0 -97 22t-71 58l47 49q45 -66 121 -66q57 0 97.5 39t40.5 105q0 82 -96 142q-53 32 -83.5 73t-30.5 105
q0 96 59.5 155.5t145.5 59.5q100 0 147 -64zM472 907l-125 -144h-65l-77 144h56l55 -109l95 109h61z" />
    <glyph glyph-name="scaron" unicode="&#x161;" horiz-adv-x="336" 
d="M337 465l-38 -44q-26 40 -81 40q-37 0 -63 -27t-26 -69q0 -31 14.5 -49t48.5 -37q93 -52 93 -131q0 -78 -47.5 -121.5t-117.5 -43.5q-42 0 -76.5 18.5t-53.5 47.5l44 41q35 -52 92 -52q40 0 67.5 27.5t27.5 72.5q0 59 -75 98q-80 42 -80 122q0 69 45.5 112t113.5 43
q75 0 112 -48zM393 712l-125 -144h-65l-76 144h55l55 -109l94 109h62z" />
    <glyph glyph-name="Tcommaaccent" unicode="&#x162;" horiz-adv-x="336" 
d="M420 708l-10 -59h-137l-113 -649h-68l114 649h-137l10 59h341zM149 -45l-91 -184h-51l82 184h60z" />
    <glyph glyph-name="tcommaaccent" unicode="&#x163;" horiz-adv-x="246" 
d="M272 496l-9 -53h-85l-55 -309q-4 -28 -4 -42q0 -24 10 -34t32 -10q19 0 39 9l-5 -53q-23 -11 -52 -11q-45 0 -66.5 24.5t-21.5 63.5q0 19 4 42l57 320h-68l8 53h67l23 136h63l-22 -136h85zM137 -45l-91 -184h-51l82 184h60z" />
    <glyph glyph-name="Tcaron" unicode="&#x164;" horiz-adv-x="336" 
d="M420 708l-10 -59h-137l-113 -649h-68l114 649h-137l10 59h341zM417 907l-125 -144h-65l-77 144h56l55 -109l95 109h61z" />
    <glyph glyph-name="tcaron" unicode="&#x165;" horiz-adv-x="266" 
d="M272 496l-9 -53h-85l-55 -309q-4 -28 -4 -42q0 -24 10 -34t32 -10q19 0 39 9l-5 -53q-23 -11 -52 -11q-45 0 -66.5 24.5t-21.5 63.5q0 19 4 42l57 320h-68l8 53h67l23 136h63l-22 -136h85zM383 731l-91 -184h-51l82 184h60z" />
    <glyph glyph-name="Tbar" unicode="&#x166;" horiz-adv-x="336" 
d="M332 536l-8 -40h-77l-87 -496h-68l87 496h-77l8 40h77l19 113h-137l10 59h341l-10 -59h-137l-19 -113h78z" />
    <glyph glyph-name="tbar" unicode="&#x167;" horiz-adv-x="246" 
d="M230 309l-8 -40h-75l-24 -135q-4 -28 -4 -42q0 -24 10 -34t32 -10q19 0 39 9l-5 -53q-23 -11 -52 -11q-45 0 -66.5 24.5t-21.5 63.5q0 19 4 42l26 146h-53l8 40h52l24 134h-68l8 53h67l23 136h63l-22 -136h85l-9 -53h-85l-24 -134h76z" />
    <glyph glyph-name="Utilde" unicode="&#x168;" horiz-adv-x="546" 
d="M558 708l-80 -460q-22 -124 -76 -194.5t-161 -70.5q-87 0 -130.5 49.5t-43.5 131.5q0 34 8 84l80 460h68l-79 -450q-8 -45 -8 -84q0 -128 108 -128q33 0 59 12t43 31t30.5 48.5t21 57t13.5 63.5l79 450h68zM512 876q-10 -45 -33.5 -70t-52.5 -25t-59 24q-30 23 -50 23
q-29 0 -43 -48h-36q10 45 33 70.5t52 25.5q28 0 60 -24q31 -23 51 -23q28 0 42 47h36z" />
    <glyph glyph-name="utilde" unicode="&#x169;" horiz-adv-x="464" 
d="M431 496l-65 -370q-5 -27 -18 -126h-64q1 11 14 94h-2q-20 -47 -57 -79t-82 -32q-53 0 -78 35t-25 86q0 28 7 72l55 320h65l-55 -320q-6 -38 -6 -58q0 -77 62 -77q48 0 85 49.5t50 119.5l49 286h65zM437 681q-10 -45 -33.5 -70t-52.5 -25t-59 24q-30 23 -50 23
q-28 0 -43 -47h-37q10 44 34 69.5t53 25.5q27 0 59 -24q31 -23 51 -23q28 0 42 47h36z" />
    <glyph glyph-name="Umacron" unicode="&#x16a;" horiz-adv-x="546" 
d="M558 708l-80 -460q-22 -124 -76 -194.5t-161 -70.5q-87 0 -130.5 49.5t-43.5 131.5q0 34 8 84l80 460h68l-79 -450q-8 -45 -8 -84q0 -128 108 -128q33 0 59 12t43 31t30.5 48.5t21 57t13.5 63.5l79 450h68zM502 858l-8 -47h-244l8 47h244z" />
    <glyph glyph-name="umacron" unicode="&#x16b;" horiz-adv-x="464" 
d="M431 496l-65 -370q-5 -27 -18 -126h-64q1 11 14 94h-2q-20 -47 -57 -79t-82 -32q-53 0 -78 35t-25 86q0 28 7 72l55 320h65l-55 -320q-6 -38 -6 -58q0 -77 62 -77q48 0 85 49.5t50 119.5l49 286h65zM425 663l-9 -47h-244l9 47h244z" />
    <glyph glyph-name="Ubreve" unicode="&#x16c;" horiz-adv-x="546" 
d="M558 708l-80 -460q-22 -124 -76 -194.5t-161 -70.5q-87 0 -130.5 49.5t-43.5 131.5q0 34 8 84l80 460h68l-79 -450q-8 -45 -8 -84q0 -128 108 -128q33 0 59 12t43 31t30.5 48.5t21 57t13.5 63.5l79 450h68zM512 900q-37 -131 -146 -131q-51 0 -81 32.5t-30 98.5h46
q0 -41 18 -62t49 -21q73 0 99 83h45z" />
    <glyph glyph-name="ubreve" unicode="&#x16d;" horiz-adv-x="464" 
d="M431 496l-65 -370q-5 -27 -18 -126h-64q1 11 14 94h-2q-20 -47 -57 -79t-82 -32q-53 0 -78 35t-25 86q0 28 7 72l55 320h65l-55 -320q-6 -38 -6 -58q0 -77 62 -77q48 0 85 49.5t50 119.5l49 286h65zM427 705q-37 -131 -146 -131q-51 0 -81 32.5t-30 98.5h46q0 -41 18 -62
t49 -21q73 0 99 83h45z" />
    <glyph glyph-name="Uring" unicode="&#x16e;" horiz-adv-x="546" 
d="M558 708l-80 -460q-22 -124 -76 -194.5t-161 -70.5q-87 0 -130.5 49.5t-43.5 131.5q0 34 8 84l80 460h68l-79 -450q-8 -45 -8 -84q0 -128 108 -128q33 0 59 12t43 31t30.5 48.5t21 57t13.5 63.5l79 450h68zM466 866q0 -48 -29.5 -81.5t-72.5 -33.5q-38 0 -59 22t-21 60
q0 49 28.5 83.5t70.5 34.5q40 0 61.5 -24t21.5 -61zM433 864q0 24 -13 40.5t-38 16.5q-29 0 -47 -25.5t-18 -59.5q0 -25 13 -40t36 -15q29 0 48 25t19 58z" />
    <glyph glyph-name="uring" unicode="&#x16f;" horiz-adv-x="464" 
d="M431 496l-65 -370q-5 -27 -18 -126h-64q1 11 14 94h-2q-20 -47 -57 -79t-82 -32q-53 0 -78 35t-25 86q0 28 7 72l55 320h65l-55 -320q-6 -38 -6 -58q0 -77 62 -77q48 0 85 49.5t50 119.5l49 286h65zM391 671q0 -48 -30 -81.5t-73 -33.5q-38 0 -58.5 22t-20.5 60
q0 49 28.5 84t70.5 35q40 0 61.5 -24.5t21.5 -61.5zM357 669q0 24 -12.5 40.5t-37.5 16.5q-29 0 -47 -25t-18 -60q0 -25 13 -40t36 -15q28 0 47 25t19 58z" />
    <glyph glyph-name="Uhungarumlaut" unicode="&#x170;" horiz-adv-x="546" 
d="M558 708l-80 -460q-22 -124 -76 -194.5t-161 -70.5q-87 0 -130.5 49.5t-43.5 131.5q0 34 8 84l80 460h68l-79 -450q-8 -45 -8 -84q0 -128 108 -128q33 0 59 12t43 31t30.5 48.5t21 57t13.5 63.5l79 450h68zM449 908l-130 -144h-52l116 144h66zM577 908l-130 -144h-51
l116 144h65z" />
    <glyph glyph-name="uhungarumlaut" unicode="&#x171;" horiz-adv-x="464" 
d="M431 496l-65 -370q-5 -27 -18 -126h-64q1 11 14 94h-2q-20 -47 -57 -79t-82 -32q-53 0 -78 35t-25 86q0 28 7 72l55 320h65l-55 -320q-6 -38 -6 -58q0 -77 62 -77q48 0 85 49.5t50 119.5l49 286h65zM500 713l-131 -144h-52l116 144h67zM371 713l-131 -144h-52l116 144h67
z" />
    <glyph glyph-name="Uogonek" unicode="&#x172;" horiz-adv-x="546" 
d="M283 -188q-40 -34 -87 -34q-36 0 -57 20t-16 57q8 60 92 130q-74 7 -111 55t-37 124q0 34 8 84l80 460h68l-79 -450q-8 -45 -8 -84q0 -128 108 -128q33 0 59 12t43 31t30.5 48.5t21 57t13.5 63.5l79 450h68l-80 -460q-21 -119 -71 -188.5t-147 -75.5q-42 -38 -60.5 -63
t-21.5 -52q-2 -21 8.5 -33t30.5 -12q31 0 56 23z" />
    <glyph glyph-name="uogonek" unicode="&#x173;" horiz-adv-x="464" 
d="M203 -188q-40 -34 -87 -34q-36 0 -57 20t-16 57q8 60 92 130q-42 8 -61.5 41t-19.5 78q0 28 7 72l55 320h65l-55 -320q-6 -38 -6 -58q0 -77 62 -77q48 0 85 49.5t50 119.5l49 286h65l-65 -370q-5 -27 -18 -126h-64q1 11 14 94h-2q-40 -91 -113 -108q-44 -40 -63 -64.5
t-22 -52.5q-2 -21 8.5 -33t30.5 -12q31 0 56 23z" />
    <glyph glyph-name="Wcircumflex" unicode="&#x174;" horiz-adv-x="725" 
d="M794 708l-264 -708h-90l-11 609h-2l-222 -609h-90l-16 708h69l9 -622h3l226 622h82l13 -622h2l224 622h67zM597 764h-55l-57 110l-93 -110h-62l127 144h65z" />
    <glyph glyph-name="wcircumflex" unicode="&#x175;" horiz-adv-x="572" 
d="M594 496l-189 -496h-77l-14 405v-1l-156 -404h-75l-13 496h65l2 -421h1l162 421h63l14 -422h1l151 422h65zM487 569h-56l-55 110l-94 -110h-62l127 144h65z" />
    <glyph glyph-name="Ycircumflex" unicode="&#x176;" horiz-adv-x="426" 
d="M504 708l-250 -416l-51 -292h-67l51 292l-103 416h72l74 -345h2l197 345h75zM445 764h-55l-57 110l-93 -110h-62l127 144h65z" />
    <glyph glyph-name="ycircumflex" unicode="&#x177;" horiz-adv-x="372" 
d="M401 496l-261 -605q-29 -68 -61 -99.5t-82 -31.5q-26 0 -43 7l13 59q12 -6 31 -6q28 0 45.5 18.5t34.5 57.5l37 90l-54 510h67l33 -421h2l171 421h67zM385 569h-56l-55 110l-94 -110h-62l127 144h65z" />
    <glyph glyph-name="Ydieresis" unicode="&#x178;" horiz-adv-x="426" 
d="M504 708l-250 -416l-51 -292h-67l51 292l-103 416h72l74 -345h2l197 345h75zM430 854q0 -21 -13 -36t-32 -15q-16 0 -26 11.5t-10 27.5q0 20 12.5 34.5t32.5 14.5q16 0 26 -10t10 -27zM286 854q0 -21 -13 -36t-32 -15q-16 0 -26 11.5t-10 27.5q0 20 12.5 34.5t32.5 14.5
q16 0 26 -10t10 -27z" />
    <glyph glyph-name="Zacute" unicode="&#x179;" horiz-adv-x="393" 
d="M442 708l-10 -60l-358 -586h259l-10 -62h-335l10 59l360 589h-246l11 60h319zM417 908l-130 -144h-53l116 144h67z" />
    <glyph glyph-name="zacute" unicode="&#x17a;" horiz-adv-x="329" 
d="M344 496l-10 -55l-274 -385h210l-10 -56h-279l10 57l273 383h-190l9 56h261zM366 713l-131 -144h-53l116 144h68z" />
    <glyph glyph-name="Zdotaccent" unicode="&#x17b;" horiz-adv-x="393" 
d="M442 708l-10 -60l-358 -586h259l-10 -62h-335l10 59l360 589h-246l11 60h319zM344 855q0 -23 -14 -38.5t-35 -15.5q-17 0 -27.5 11.5t-10.5 28.5q0 21 14 37.5t34 16.5q18 0 28.5 -11t10.5 -29z" />
    <glyph glyph-name="zdotaccent" unicode="&#x17c;" horiz-adv-x="329" 
d="M344 496l-10 -55l-274 -385h210l-10 -56h-279l10 57l273 383h-190l9 56h261zM279 660q0 -23 -14 -38.5t-35 -15.5q-17 0 -27.5 11.5t-10.5 28.5q0 21 14 37.5t34 16.5q18 0 28.5 -11t10.5 -29z" />
    <glyph glyph-name="Zcaron" unicode="&#x17d;" horiz-adv-x="393" 
d="M442 708l-10 -60l-358 -586h259l-10 -62h-335l10 59l360 589h-246l11 60h319zM443 907l-125 -144h-65l-77 144h56l55 -109l95 109h61z" />
    <glyph glyph-name="zcaron" unicode="&#x17e;" horiz-adv-x="329" 
d="M344 496l-10 -55l-274 -385h210l-10 -56h-279l10 57l273 383h-190l9 56h261zM376 712l-125 -144h-65l-76 144h55l55 -109l94 109h62z" />
    <glyph glyph-name="florin" unicode="&#x192;" horiz-adv-x="465" 
d="M510 700l-27 -54q-18 16 -46 16q-37 0 -58.5 -26t-37.5 -73l-49 -144h105l-9 -52h-114l-126 -370q-23 -68 -56 -104t-87 -36q-36 0 -55 11l20 57q13 -8 29 -8q19 0 33.5 7.5t25 25t17.5 34t17 46.5l114 337h-96l9 52h103l46 136q27 80 63.5 123.5t103.5 43.5q50 0 75 -22
z" />
    <glyph glyph-name="Scommaaccent" unicode="&#x218;" horiz-adv-x="430" 
d="M453 661l-47 -48q-37 50 -104 50q-51 0 -92 -39.5t-41 -108.5q0 -43 22.5 -72t63.5 -55q57 -36 90.5 -79t33.5 -106q0 -101 -58.5 -160.5t-147.5 -59.5q-52 0 -97 22t-71 58l47 49q45 -66 121 -66q57 0 97.5 39t40.5 105q0 82 -96 142q-53 32 -83.5 73t-30.5 105
q0 96 59.5 155.5t145.5 59.5q100 0 147 -64zM184 -45l-91 -184h-51l82 184h60z" />
    <glyph glyph-name="scommaaccent" unicode="&#x219;" horiz-adv-x="336" 
d="M337 465l-38 -44q-26 40 -81 40q-37 0 -63 -27t-26 -69q0 -31 14.5 -49t48.5 -37q93 -52 93 -131q0 -78 -47.5 -121.5t-117.5 -43.5q-42 0 -76.5 18.5t-53.5 47.5l44 41q35 -52 92 -52q40 0 67.5 27.5t27.5 72.5q0 59 -75 98q-80 42 -80 122q0 69 45.5 112t113.5 43
q75 0 112 -48zM135 -45l-91 -184h-51l82 184h60z" />
    <glyph glyph-name="uni021A" unicode="&#x21a;" horiz-adv-x="336" 
d="M420 708l-10 -59h-137l-113 -649h-68l114 649h-137l10 59h341zM149 -45l-91 -184h-51l82 184h60z" />
    <glyph glyph-name="uni021B" unicode="&#x21b;" horiz-adv-x="246" 
d="M272 496l-9 -53h-85l-55 -309q-4 -28 -4 -42q0 -24 10 -34t32 -10q19 0 39 9l-5 -53q-23 -11 -52 -11q-45 0 -66.5 24.5t-21.5 63.5q0 19 4 42l57 320h-68l8 53h67l23 136h63l-22 -136h85zM137 -45l-91 -184h-51l82 184h60z" />
    <glyph glyph-name="circumflex" unicode="&#x2c6;" 
d="M303 569h-56l-55 110l-94 -110h-62l127 144h65z" />
    <glyph glyph-name="caron" unicode="&#x2c7;" 
d="M328 712l-125 -144h-65l-76 144h55l55 -109l94 109h62z" />
    <glyph glyph-name="uni02C9" unicode="&#x2c9;" 
d="M317 858l-8 -47h-244l8 47h244z" />
    <glyph glyph-name="breve" unicode="&#x2d8;" 
d="M322 705q-37 -131 -146 -131q-51 0 -81 32.5t-30 98.5h46q0 -41 18 -62t49 -21q73 0 99 83h45z" />
    <glyph glyph-name="dotaccent" unicode="&#x2d9;" 
d="M225 660q0 -23 -14 -38.5t-35 -15.5q-17 0 -27.5 11.5t-10.5 28.5q0 21 14 37.5t34 16.5q18 0 28.5 -11t10.5 -29z" />
    <glyph glyph-name="ring" unicode="&#x2da;" 
d="M277 671q0 -48 -30 -81.5t-73 -33.5q-38 0 -58.5 22t-20.5 60q0 49 28.5 84t70.5 35q40 0 61.5 -24.5t21.5 -61.5zM243 669q0 24 -12.5 40.5t-37.5 16.5q-29 0 -47 -25t-18 -60q0 -25 13 -40t36 -15q28 0 47 25t19 58z" />
    <glyph glyph-name="ogonek" unicode="&#x2db;" 
d="M121 -188q-40 -34 -87 -34q-36 0 -57 20t-16 57q5 39 34.5 72.5t76.5 72.5h45q-54 -49 -76 -75t-25 -56q-2 -21 8.5 -33t30.5 -12q31 0 56 23z" />
    <glyph glyph-name="tilde" unicode="&#x2dc;" 
d="M316 681q-10 -45 -33.5 -70t-52.5 -25t-59 24q-30 23 -50 23q-28 0 -43 -47h-37q10 44 34 69.5t53 25.5q27 0 59 -24q31 -23 51 -23q28 0 42 47h36z" />
    <glyph glyph-name="hungarumlaut" unicode="&#x2dd;" 
d="M360 713l-131 -144h-52l116 144h67zM231 713l-131 -144h-52l116 144h67z" />
    <glyph glyph-name="uni0394" unicode="&#x394;" horiz-adv-x="670" 
d="M657 0h-642l281 712h74zM561 62l-229 583l-226 -583h455z" />
    <glyph glyph-name="uni03A9" unicode="&#x3a9;" horiz-adv-x="744" 
d="M685 0h-251v181q89 15 136.5 78.5t47.5 155.5q0 106 -72.5 175.5t-179.5 69.5t-179.5 -69.5t-72.5 -175.5q0 -92 48 -156t136 -78v-181h-251v58h197v82q-92 26 -144.5 102t-52.5 174q0 131 94 218t226 87t225 -86.5t93 -217.5q0 -99 -52 -175t-145 -102v-82h197v-58z" />
    <glyph glyph-name="uni03BC" unicode="&#x3bc;" horiz-adv-x="556" 
d="M72 -228v696h66v-259q0 -88 28 -124.5t99 -36.5q62 0 102 48t40 132v240h66v-365q0 -18 5 -103h-71v76h-2q-22 -36 -67 -62t-90 -26q-69 0 -110 29v-245h-66z" />
    <glyph glyph-name="pi" unicode="&#x3c0;" horiz-adv-x="563" 
d="M530 11q-37 -17 -64 -17q-23 0 -38.5 7t-23.5 16t-12 27t-5 31t-1 36v298h-220v-409h-64v409h-70v59h494v-59h-76v-305q0 -18 1.5 -27.5t10.5 -18t26 -8.5q20 0 42 10v-49z" />
    <glyph glyph-name="endash" unicode="&#x2013;" horiz-adv-x="355" 
d="M344 290l-10 -57h-312l10 57h312z" />
    <glyph glyph-name="emdash" unicode="&#x2014;" horiz-adv-x="455" 
d="M444 290l-10 -57h-412l10 57h412z" />
    <glyph glyph-name="quoteleft" unicode="&#x2018;" horiz-adv-x="183" 
d="M228 708l-85 -238h-60l94 238h51z" />
    <glyph glyph-name="quoteright" unicode="&#x2019;" horiz-adv-x="183" 
d="M228 708l-94 -238h-51l85 238h60z" />
    <glyph glyph-name="quotesinglbase" unicode="&#x201a;" horiz-adv-x="183" 
d="M120 108l-91 -238h-51l82 238h60z" />
    <glyph glyph-name="quotedblleft" unicode="&#x201c;" horiz-adv-x="311" 
d="M356 708l-85 -238h-60l93 238h52zM228 708l-85 -238h-60l94 238h51z" />
    <glyph glyph-name="quotedblright" unicode="&#x201d;" horiz-adv-x="309" 
d="M228 708l-93 -238h-52l85 238h60zM354 708l-93 -238h-51l85 238h59z" />
    <glyph glyph-name="quotedblbase" unicode="&#x201e;" horiz-adv-x="309" 
d="M247 108l-91 -238h-51l82 238h60zM120 108l-90 -238h-52l83 238h59z" />
    <glyph glyph-name="dagger" unicode="&#x2020;" horiz-adv-x="370" 
d="M408 503l-11 -57h-143l-102 -573h-60l102 573h-144l10 57h144l36 205h60l-36 -205h144z" />
    <glyph glyph-name="daggerdbl" unicode="&#x2021;" horiz-adv-x="370" 
d="M409 510l-10 -56h-144l-57 -328h143l-10 -57h-144l-34 -196h-60l34 196h-144l11 57h144l57 328h-144l11 56h143l35 198h60l-34 -198h143z" />
    <glyph glyph-name="bullet" unicode="&#x2022;" horiz-adv-x="500" 
d="M73 354q0 74 51.5 125.5t125.5 51.5t125.5 -51.5t51.5 -125.5t-51.5 -125.5t-125.5 -51.5t-125.5 51.5t-51.5 125.5z" />
    <glyph glyph-name="ellipsis" unicode="&#x2026;" horiz-adv-x="899" 
d="M766 49q0 -23 -14.5 -39.5t-36.5 -16.5q-18 0 -29 12.5t-11 29.5q0 22 14.5 39t36.5 17q19 0 29.5 -11.5t10.5 -30.5zM166 49q0 -23 -14.5 -39.5t-36.5 -16.5q-18 0 -29 12.5t-11 29.5q0 22 14.5 39t36.5 17q19 0 29.5 -11.5t10.5 -30.5zM466 49q0 -23 -14.5 -39.5
t-36.5 -16.5q-18 0 -29 12.5t-11 29.5q0 22 14.5 39t36.5 17q19 0 29.5 -11.5t10.5 -30.5z" />
    <glyph glyph-name="perthousand" unicode="&#x2030;" horiz-adv-x="862" 
d="M336 601q0 -84 -44 -154t-107 -70q-45 0 -69.5 32.5t-24.5 87.5q0 86 43.5 156t108.5 70q45 0 69 -33.5t24 -88.5zM282 599q0 76 -47 76q-39 0 -65 -57t-26 -117q0 -76 47 -76q40 0 65.5 57t25.5 117zM555 212q0 -84 -44 -154t-107 -70q-45 0 -69.5 32.5t-24.5 87.5
q0 86 43.5 156t108.5 70q45 0 69 -33.5t24 -88.5zM501 210q0 76 -47 76q-39 0 -65 -57t-26 -117q0 -76 47 -76q40 0 65.5 57t25.5 117zM829 212q0 -84 -44 -154t-107 -70q-45 0 -69.5 32.5t-24.5 87.5q0 86 43.5 156t108.5 70q45 0 69 -33.5t24 -88.5zM775 210q0 76 -47 76
q-39 0 -65 -57t-26 -117q0 -76 47 -76q40 0 65.5 57t25.5 117zM544 722l-405 -745l-40 14l406 746z" />
    <glyph glyph-name="guilsinglleft" unicode="&#x2039;" horiz-adv-x="212" 
d="M209 431l-121 -188l55 -186l-45 -18l-62 210l136 208z" />
    <glyph glyph-name="guilsinglright" unicode="&#x203a;" horiz-adv-x="212" 
d="M116 457l61 -211l-135 -207l-38 25l121 189l-54 185z" />
    <glyph glyph-name="fraction" unicode="&#x2044;" horiz-adv-x="73" 
d="M256 723l-405 -747l-40 14l406 747z" />
    <glyph glyph-name="Euro" unicode="&#x20ac;" horiz-adv-x="466" 
d="M517 707l-26 -56q-28 17 -82 17q-68 0 -122.5 -54t-88.5 -153h223l-21 -48h-217q-16 -48 -23 -116h200l-19 -49h-183q-3 -102 35 -154t104 -52q59 0 104 28l2 -58q-54 -30 -113 -30q-97 0 -150 71t-49 195h-65l20 49h48q6 68 21 116h-58l19 48h52q95 265 289 265
q58 0 100 -19z" />
    <glyph glyph-name="afii61289" unicode="&#x2113;" horiz-adv-x="500" 
d="M459 621q0 -83 -68 -172.5t-174 -173.5q-35 -148 -35 -180q0 -30 16 -43.5t38 -13.5q42 0 99 41h2l19 -40q-71 -53 -137 -53q-48 0 -77 25.5t-29 71.5q0 21 27 145l-69 -60h-2l-21 39l105 84l56 262q17 84 58.5 126t97.5 42q41 0 67.5 -28t26.5 -72zM401 617
q0 24 -11.5 40t-30.5 16q-58 0 -80 -106l-49 -228q67 62 119 137.5t52 140.5z" />
    <glyph glyph-name="trademark" unicode="&#x2122;" horiz-adv-x="760" 
d="M717 296h-53v343h-2l-100 -343h-41l-99 343h-2v-343h-53v412h87l89 -315l88 315h86v-412zM313 658h-85v-362h-60v362h-84v50h229v-50z" />
    <glyph glyph-name="Omega" unicode="&#x2126;" horiz-adv-x="744" 
d="M685 0h-251v181q89 15 136.5 78.5t47.5 155.5q0 106 -72.5 175.5t-179.5 69.5t-179.5 -69.5t-72.5 -175.5q0 -92 48 -156t136 -78v-181h-251v58h197v82q-92 26 -144.5 102t-52.5 174q0 131 94 218t226 87t225 -86.5t93 -217.5q0 -99 -52 -175t-145 -102v-82h197v-58z" />
    <glyph glyph-name="estimated" unicode="&#x212e;" horiz-adv-x="604" 
d="M561 259h-404v-181q59 -59 145 -59q122 0 193 120l35 -21q-46 -72 -98 -103.5t-130 -31.5q-115 0 -186.5 79t-71.5 197q0 119 71 197.5t187 78.5q115 0 186.5 -77t72.5 -199zM157 295h291v145q-63 60 -147 60t-144 -60v-145z" />
    <glyph glyph-name="partialdiff" unicode="&#x2202;" horiz-adv-x="496" 
d="M455 363q0 -50 -4.5 -96t-19.5 -99t-38.5 -91t-65.5 -63.5t-97 -25.5q-90 0 -144.5 66t-54.5 158q0 90 52.5 151.5t141.5 61.5q97 0 166 -84q0 9 0.5 26t0.5 26q0 46 -9 90.5t-28.5 87t-56 69t-85.5 26.5q-52 0 -112 -46l-36 43q67 58 145 58q68 0 118.5 -33t76.5 -88.5
t38 -114t12 -122.5zM386 278q-68 91 -155 91q-64 0 -100.5 -46.5t-36.5 -112.5t36.5 -117.5t100.5 -51.5q41 0 72 23.5t47.5 61.5t25 75.5t10.5 76.5z" />
    <glyph glyph-name="Delta" unicode="&#x2206;" horiz-adv-x="670" 
d="M657 0h-642l281 712h74zM561 62l-229 583l-226 -583h455z" />
    <glyph glyph-name="product" unicode="&#x220f;" horiz-adv-x="711" 
d="M641 -214h-66v938h-438v-938h-66v1000h570v-1000z" />
    <glyph glyph-name="summation" unicode="&#x2211;" horiz-adv-x="604" 
d="M578 -214h-553v55l329 448l-315 441v56h527v-62h-442l309 -435l-328 -442h473v-61z" />
    <glyph glyph-name="minus" unicode="&#x2212;" horiz-adv-x="666" 
d="M588 333v-60h-510v60h510z" />
    <glyph glyph-name="uni2215" unicode="&#x2215;" horiz-adv-x="73" 
d="M256 723l-405 -747l-40 14l406 747z" />
    <glyph glyph-name="uni2219" unicode="&#x2219;" horiz-adv-x="212" 
d="M156 266q-1 -23 -15.5 -39t-35.5 -16q-18 0 -29.5 12.5t-10.5 30.5q1 22 15.5 38.5t35.5 16.5q19 0 30 -12t10 -31z" />
    <glyph glyph-name="radical" unicode="&#x221a;" horiz-adv-x="493" 
d="M502 786l-210 -1000h-66l-164 340l-46 -22l-24 50l100 48l158 -332l189 916h63z" />
    <glyph glyph-name="infinity" unicode="&#x221e;" horiz-adv-x="741" 
d="M700 252q0 -64 -38.5 -106t-101.5 -42q-36 0 -73.5 18.5t-59 36.5t-56.5 52q-9 -7 -33 -28.5t-36.5 -31t-34 -23t-42.5 -19t-44 -5.5q-62 0 -101 41.5t-39 103.5q0 63 38 105.5t100 42.5q28 0 53.5 -8.5t54.5 -30.5t40.5 -32t43.5 -41l22.5 21.5l24.5 23l23 20.5t27.5 20
l27 14t31 11t31.5 3q63 0 102.5 -41.5t39.5 -104.5zM643 249q0 40 -22 66t-61 26q-9 0 -18.5 -1.5t-19 -6l-17.5 -8.5t-18.5 -11.5l-16.5 -11.5t-17 -14l-15 -13.5l-15.5 -14t-13.5 -12.5l47.5 -41t46.5 -28.5t60 -16.5q37 0 58.5 24.5t21.5 62.5zM333 249q-3 2 -18 15
l-21 18l-20.5 16.5t-24 17t-22.5 12t-25 9.5t-24 3q-37 0 -58.5 -26.5t-21.5 -63.5q0 -39 22.5 -63.5t61.5 -24.5q62 0 151 87z" />
    <glyph glyph-name="integral" unicode="&#x222b;" horiz-adv-x="543" 
d="M406 736q0 -16 -10.5 -25t-26.5 -9q-20 0 -32.5 20t-19.5 20q-10 0 -17 -9.5t-10.5 -25.5t-5.5 -34t-2.5 -39t0 -36.5l1 -30t0.5 -16.5v-504q0 -122 -16 -173q-28 -87 -106 -87q-24 0 -42 12t-18 35q0 13 9.5 22.5t23.5 9.5q15 0 23.5 -9.5t14 -19t12.5 -9.5q32 0 32 159
l1 21v495q0 8 -1 43.5t0 53.5t3.5 52t10.5 53t20.5 40t34.5 31t51 10q27 0 48.5 -12.5t21.5 -37.5z" />
    <glyph glyph-name="approxequal" unicode="&#x2248;" horiz-adv-x="666" 
d="M596 402q-6 -58 -37 -97.5t-86 -39.5q-48 0 -145 37q-98 36 -133 36q-32 0 -53 -23.5t-26 -56.5h-45q8 60 38 99.5t86 39.5q45 0 143 -36q97 -37 136 -37q62 0 79 78h43zM596 232q-7 -59 -37.5 -98.5t-86.5 -39.5q-49 0 -144 37q-98 36 -133 36q-32 0 -53 -23.5
t-26 -56.5h-45q9 60 38 100t85 40q44 0 144 -36q95 -37 136 -37q61 0 78 78h44z" />
    <glyph glyph-name="notequal" unicode="&#x2260;" horiz-adv-x="666" 
d="M584 120h-287l-76 -144l-52 27l62 117h-149v60h181l68 130h-249v60h282l77 147l52 -28l-63 -119h154v-60h-186l-69 -130h255v-60z" />
    <glyph glyph-name="lessequal" unicode="&#x2264;" horiz-adv-x="666" 
d="M584 108l-502 188v65l502 189v-65l-419 -157l419 -155v-65zM584 6h-502v59h502v-59z" />
    <glyph glyph-name="greaterequal" unicode="&#x2265;" horiz-adv-x="666" 
d="M584 296l-502 -188v65l420 155l-420 157v65l502 -189v-65zM584 6h-502v59h502v-59z" />
    <glyph glyph-name="lozenge" unicode="&#x25ca;" horiz-adv-x="593" 
d="M498 356l-171 -391h-63l-169 391l169 391h63zM433 356l-137 325l-136 -325l136 -325z" />
    <glyph glyph-name="uniF8FF" unicode="&#xf8ff;" horiz-adv-x="512" 
d="M222 117h56v67h-56v-67zM225 234h46q0 52 6 72q6 19 43 52q37 34 50 60t13 60q0 59 -35 95t-89 36q-56 0 -92 -34t-43 -103l50 -8q11 95 82 95q31 0 53.5 -24.5t22.5 -60.5q0 -20 -9.5 -37t-40.5 -46q-31 -31 -46 -59q-13 -25 -13 -81zM462 50h-412v617h412v-617z
M512 718h-512v-718h512v718z" />
    <glyph glyph-name="ydieresis.sc" horiz-adv-x="350" 
d="M407 550l-195 -329l-38 -221h-66l38 221l-80 329h71l51 -260h2l144 260h73zM372 700q0 -21 -13 -35.5t-32 -14.5q-17 0 -27 11t-10 27q0 20 13 35t32 15q16 0 26.5 -10.5t10.5 -27.5zM227 700q0 -21 -12.5 -35.5t-31.5 -14.5q-17 0 -26.5 11t-9.5 27q0 20 12.5 35
t31.5 15q16 0 26 -10.5t10 -27.5z" />
    <glyph glyph-name="n.sc" horiz-adv-x="464" 
d="M453 550l-96 -550h-78l-104 439h-2l-73 -439h-63l95 550h80l103 -443h2l73 443h63z" />
    <glyph glyph-name="umacron.sc" horiz-adv-x="456" 
d="M449 550l-63 -359q-36 -203 -189 -203q-70 0 -105.5 40t-35.5 104q0 30 5 59l63 359h67l-62 -352q-5 -32 -5 -56q0 -93 76 -93q95 0 120 149l62 352h67zM436 704l-9 -47h-244l9 47h244z" />
    <glyph glyph-name="ohungarumlaut.sc" horiz-adv-x="468" 
d="M443 358q0 -90 -28.5 -174t-84 -140t-124.5 -56q-73 0 -113.5 54t-40.5 146q0 90 27.5 174.5t83 142t126.5 57.5q75 0 114.5 -55.5t39.5 -148.5zM285 503q-49 0 -88 -53t-57.5 -124t-18.5 -139q0 -61 22 -100t68 -39q48 0 87 53t57.5 124.5t18.5 138.5q0 61 -21.5 100
t-67.5 39zM525 754l-131 -144h-52l116 144h67zM396 754l-131 -144h-52l116 144h67z" />
    <glyph glyph-name="iogonek.sc" horiz-adv-x="210" 
d="M107 -188q-40 -34 -87 -34q-35 0 -54 19t-19 54q0 27 20 57t39 47.5t52 44.5h-21l95 550h67l-96 -550q-39 -35 -56 -52t-31.5 -40t-14.5 -43q0 -41 40 -41q31 0 56 23z" />
    <glyph glyph-name="p.sc" horiz-adv-x="382" 
d="M385 423q0 -87 -45 -136t-120 -49h-76l-41 -238h-66l95 550h127q57 0 91.5 -32t34.5 -95zM319 414q0 79 -71 79h-60l-34 -200h64q47 0 74 32.5t27 88.5z" />
    <glyph glyph-name="macron.sc" 
d="M308 704l-9 -47h-244l9 47h244z" />
    <glyph glyph-name="ugrave.sc" horiz-adv-x="456" 
d="M449 550l-63 -359q-36 -203 -189 -203q-70 0 -105.5 40t-35.5 104q0 30 5 59l63 359h67l-62 -352q-5 -32 -5 -56q0 -93 76 -93q95 0 120 149l62 352h67zM317 610h-52l-107 144h66z" />
    <glyph glyph-name="oe.sc" horiz-adv-x="546" 
d="M556 550l-11 -59h-151l-31 -178h144l-10 -55h-144l-34 -198h164l-11 -60h-255q-79 0 -122 52t-43 145q0 89 30 168.5t91 132t139 52.5h244zM330 492h-27q-75 0 -129 -89.5t-54 -205.5q0 -71 29 -105t79 -34h28z" />
    <glyph glyph-name="udieresis.sc" horiz-adv-x="456" 
d="M449 550l-63 -359q-36 -203 -189 -203q-70 0 -105.5 40t-35.5 104q0 30 5 59l63 359h67l-62 -352q-5 -32 -5 -56q0 -93 76 -93q95 0 120 149l62 352h67zM420 700q0 -21 -13 -35.5t-32 -14.5q-17 0 -27 11t-10 27q0 20 13 35t32 15q16 0 26.5 -10.5t10.5 -27.5zM275 700
q0 -21 -12.5 -35.5t-31.5 -14.5q-17 0 -26.5 11t-9.5 27q0 20 12.5 35t31.5 15q16 0 26 -10.5t10 -27.5z" />
    <glyph glyph-name="grave.sc" 
d="M221 610h-52l-107 144h66z" />
    <glyph glyph-name="hungarumlaut.cap" 
d="M241 908l-130 -144h-52l116 144h66zM369 908l-130 -144h-51l116 144h65z" />
    <glyph glyph-name="otilde.sc" horiz-adv-x="468" 
d="M443 358q0 -90 -28.5 -174t-84 -140t-124.5 -56q-73 0 -113.5 54t-40.5 146q0 90 27.5 174.5t83 142t126.5 57.5q75 0 114.5 -55.5t39.5 -148.5zM285 503q-49 0 -88 -53t-57.5 -124t-18.5 -139q0 -61 22 -100t68 -39q48 0 87 53t57.5 124.5t18.5 138.5q0 61 -21.5 100
t-67.5 39zM454 722q-10 -45 -33.5 -70t-52.5 -25t-59 24q-30 23 -50 23q-28 0 -43 -47h-37q10 44 34 69.5t53 25.5q27 0 59 -24q31 -23 51 -23q28 0 42 47h36z" />
    <glyph glyph-name="imacron.sc" horiz-adv-x="210" 
d="M199 550l-96 -550h-66l95 550h67zM311 704l-9 -47h-244l9 47h244z" />
    <glyph glyph-name="ocircumflex.sc" horiz-adv-x="468" 
d="M443 358q0 -90 -28.5 -174t-84 -140t-124.5 -56q-73 0 -113.5 54t-40.5 146q0 90 27.5 174.5t83 142t126.5 57.5q75 0 114.5 -55.5t39.5 -148.5zM285 503q-49 0 -88 -53t-57.5 -124t-18.5 -139q0 -61 22 -100t68 -39q48 0 87 53t57.5 124.5t18.5 138.5q0 61 -21.5 100
t-67.5 39zM447 610h-56l-55 110l-94 -110h-62l127 144h65z" />
    <glyph glyph-name="perthousand.sc" horiz-adv-x="787" 
d="M278 459q0 -70 -37 -126t-93 -56q-38 0 -59 27.5t-21 73.5q0 71 37 127.5t93 56.5q39 0 59.5 -27.5t20.5 -75.5zM225 456q0 59 -35 59q-29 0 -49 -43.5t-20 -88.5q0 -58 35 -58q30 0 49.5 43t19.5 88zM505 171q0 -71 -37.5 -127t-92.5 -56q-38 0 -59.5 27.5t-21.5 73.5
q0 71 37 127.5t93 56.5q39 0 60 -28t21 -74zM451 168q0 57 -35 57q-29 0 -48.5 -43t-19.5 -88q0 -58 35 -58q29 0 48.5 43.5t19.5 88.5zM754 171q0 -71 -37.5 -127t-92.5 -56q-38 0 -59.5 27.5t-21.5 73.5q0 71 37 127.5t93 56.5q39 0 60 -28t21 -74zM700 168q0 57 -35 57
q-29 0 -48.5 -43t-19.5 -88q0 -58 35 -58q29 0 48.5 43.5t19.5 88.5zM463 559l-319 -577l-40 16l318 578z" />
    <glyph glyph-name="napostrophe.sc" horiz-adv-x="526" 
d="M162 550l-91 -184h-51l82 184h60zM515 550l-96 -550h-78l-104 439h-2l-73 -439h-63l95 550h80l103 -443h2l73 443h63z" />
    <glyph glyph-name="ij.sc" horiz-adv-x="537" 
d="M199 550l-96 -550h-66l95 550h67zM530 550l-70 -397q-14 -83 -47 -124t-96 -41q-48 0 -76.5 24t-39.5 64l57 24q15 -51 60 -51q35 0 51 26.5t26 84.5l68 390h67z" />
    <glyph glyph-name="percent.sc" horiz-adv-x="538" 
d="M278 459q0 -70 -37 -126t-93 -56q-38 0 -59 27.5t-21 73.5q0 71 37 127.5t93 56.5q39 0 59.5 -27.5t20.5 -75.5zM225 456q0 59 -35 59q-29 0 -49 -43.5t-20 -88.5q0 -58 35 -58q30 0 49.5 43t19.5 88zM505 171q0 -71 -37.5 -127t-92.5 -56q-38 0 -59.5 27.5t-21.5 73.5
q0 71 37 127.5t93 56.5q39 0 60 -28t21 -74zM451 168q0 57 -35 57q-29 0 -48.5 -43t-19.5 -88q0 -58 35 -58q29 0 48.5 43.5t19.5 88.5zM463 559l-319 -577l-40 16l318 578z" />
    <glyph glyph-name="obreve.sc" horiz-adv-x="468" 
d="M443 358q0 -90 -28.5 -174t-84 -140t-124.5 -56q-73 0 -113.5 54t-40.5 146q0 90 27.5 174.5t83 142t126.5 57.5q75 0 114.5 -55.5t39.5 -148.5zM285 503q-49 0 -88 -53t-57.5 -124t-18.5 -139q0 -61 22 -100t68 -39q48 0 87 53t57.5 124.5t18.5 138.5q0 61 -21.5 100
t-67.5 39zM447 746q-37 -131 -146 -131q-51 0 -81 32.5t-30 98.5h46q0 -41 18 -62t49 -21q73 0 99 83h45z" />
    <glyph glyph-name="two.onum" horiz-adv-x="435" 
d="M112 63v-2h238l-11 -61h-322l10 59q188 153 248.5 219t60.5 138q0 40 -23 66.5t-66 26.5q-74 0 -123 -82l-48 29q66 110 177 110q71 0 110 -40t39 -105q0 -30 -6.5 -57t-27 -57t-37.5 -51t-59.5 -59l-69.5 -60.5z" />
    <glyph glyph-name="nine.sc" horiz-adv-x="410" 
d="M74 346q0 85 47.5 150.5t128.5 65.5q66 0 100.5 -38.5t34.5 -103.5q0 -89 -70 -192l-153 -228h-72l163 233l-1 1q-25 -20 -64 -20q-49 0 -81.5 33t-32.5 99zM142 350q0 -39 16.5 -63t49.5 -24q49 0 79.5 45.5t30.5 106.5q0 41 -18.5 66t-52.5 25q-47 0 -76 -49t-29 -107z
" />
    <glyph glyph-name="oacute.sc" horiz-adv-x="468" 
d="M443 358q0 -90 -28.5 -174t-84 -140t-124.5 -56q-73 0 -113.5 54t-40.5 146q0 90 27.5 174.5t83 142t126.5 57.5q75 0 114.5 -55.5t39.5 -148.5zM285 503q-49 0 -88 -53t-57.5 -124t-18.5 -139q0 -61 22 -100t68 -39q48 0 87 53t57.5 124.5t18.5 138.5q0 61 -21.5 100
t-67.5 39zM452 754l-131 -144h-53l116 144h68z" />
    <glyph glyph-name="idotaccent.sc" horiz-adv-x="210" 
d="M199 550l-96 -550h-66l95 550h67zM235 701q0 -23 -14 -38.5t-35 -15.5q-17 0 -27.5 11.5t-10.5 28.5q0 21 14 37.5t34 16.5q18 0 28.5 -11t10.5 -29z" />
    <glyph glyph-name="ucircumflex.sc" horiz-adv-x="456" 
d="M449 550l-63 -359q-36 -203 -189 -203q-70 0 -105.5 40t-35.5 104q0 30 5 59l63 359h67l-62 -352q-5 -32 -5 -56q0 -93 76 -93q95 0 120 149l62 352h67zM432 610h-56l-55 110l-94 -110h-62l127 144h65z" />
    <glyph glyph-name="macron.cap" 
d="M317 858l-8 -47h-244l8 47h244z" />
    <glyph glyph-name="oslash.sc" horiz-adv-x="468" 
d="M443 358q0 -90 -28.5 -174t-84 -140t-124.5 -56t-109 48l-54 -84l-33 23l65 95q-23 49 -23 118q0 90 27.5 174.5t83 142t126.5 57.5q63 0 103 -42l43 65l36 -23l-54 -78q26 -50 26 -126zM374 364q0 32 -6 57l-228 -330q23 -43 71 -43t87 53t57.5 124.5t18.5 138.5z
M285 503q-49 0 -88 -53t-57.5 -124t-18.5 -139q0 -25 5 -53l225 331q-23 38 -66 38z" />
    <glyph glyph-name="yacute.sc" horiz-adv-x="350" 
d="M407 550l-195 -329l-38 -221h-66l38 221l-80 329h71l51 -260h2l144 260h73zM393 754l-131 -144h-53l116 144h68z" />
    <glyph glyph-name="uhungarumlaut.sc" horiz-adv-x="456" 
d="M449 550l-63 -359q-36 -203 -189 -203q-70 0 -105.5 40t-35.5 104q0 30 5 59l63 359h67l-62 -352q-5 -32 -5 -56q0 -93 76 -93q95 0 120 149l62 352h67zM513 754l-131 -144h-52l116 144h67zM384 754l-131 -144h-52l116 144h67z" />
    <glyph glyph-name="omacron.sc" horiz-adv-x="468" 
d="M443 358q0 -90 -28.5 -174t-84 -140t-124.5 -56q-73 0 -113.5 54t-40.5 146q0 90 27.5 174.5t83 142t126.5 57.5q75 0 114.5 -55.5t39.5 -148.5zM285 503q-49 0 -88 -53t-57.5 -124t-18.5 -139q0 -61 22 -100t68 -39q48 0 87 53t57.5 124.5t18.5 138.5q0 61 -21.5 100
t-67.5 39zM444 704l-9 -47h-244l9 47h244z" />
    <glyph glyph-name="z.sc" horiz-adv-x="338" 
d="M360 550l-10 -57l-268 -432h195l-10 -61h-271l9 57l271 434h-184l11 59h257z" />
    <glyph glyph-name="questiondown.sc" horiz-adv-x="314" 
d="M170 504q0 22 13.5 36.5t34.5 14.5q17 0 27 -11t10 -27q0 -20 -13.5 -36t-33.5 -16q-17 0 -27.5 11t-10.5 28zM17 101q0 47 24 82.5t68 72.5q30 26 42 46.5t17 50.5l5 28h55l-6 -37q-12 -71 -66 -120l-21 -18q-28 -24 -42 -45.5t-14 -53.5q0 -28 16 -46.5t43 -18.5
q32 0 53 23.5t31 55.5l55 -15q-38 -118 -146 -118q-59 0 -86.5 34.5t-27.5 78.5z" />
    <glyph glyph-name="idieresis.sc" horiz-adv-x="210" 
d="M199 550l-96 -550h-66l95 550h67zM300 700q0 -21 -13 -35.5t-32 -14.5q-17 0 -27 11t-10 27q0 20 13 35t32 15q16 0 26.5 -10.5t10.5 -27.5zM155 700q0 -21 -12.5 -35.5t-31.5 -14.5q-17 0 -26.5 11t-9.5 27q0 20 12.5 35t31.5 15q16 0 26 -10.5t10 -27.5z" />
    <glyph glyph-name="one.sc" horiz-adv-x="410" 
d="M323 550l-95 -550h-66l82 474l-111 -66l-24 50l152 92h62z" />
    <glyph glyph-name="question.sc" horiz-adv-x="314" 
d="M179 46q0 -22 -13.5 -36.5t-34.5 -14.5q-17 0 -27 11t-10 27q0 20 13.5 36t33.5 16q17 0 27.5 -11t10.5 -28zM332 449q0 -47 -24 -82.5t-68 -72.5q-30 -26 -42 -46.5t-17 -50.5l-5 -28h-55l6 37q12 71 66 120l21 18q28 24 42 45.5t14 53.5q0 28 -16 46.5t-43 18.5
q-32 0 -53 -23.5t-31 -55.5l-55 15q38 118 146 118q59 0 86.5 -34.5t27.5 -78.5z" />
    <glyph glyph-name="iacute.sc" horiz-adv-x="210" 
d="M199 550l-96 -550h-66l95 550h67zM323 754l-131 -144h-53l116 144h68z" />
    <glyph glyph-name="three.sc" horiz-adv-x="410" 
d="M160 -12q-55 0 -91 28t-49 76l60 21q20 -68 81 -68q45 0 75 35t30 94q0 38 -23 61.5t-61 23.5h-20l10 56h21q43 0 74 33t31 86q0 28 -17 49.5t-48 21.5q-48 0 -79 -53l-52 20q44 90 140 90q58 0 89.5 -35t31.5 -88q0 -49 -27 -93t-80 -56v-2q35 -8 55 -39t20 -73
q0 -75 -46 -131.5t-125 -56.5z" />
    <glyph glyph-name="ordfeminine.sc" horiz-adv-x="298" 
d="M277 404h-50v67h-87l-31 -67h-52l152 316h64zM229 513v157h-2l-70 -157h72z" />
    <glyph glyph-name="l.sc" horiz-adv-x="310" 
d="M270 61l-11 -61h-222l95 550h67l-85 -489h156z" />
    <glyph glyph-name="scommaaccent.sc" horiz-adv-x="360" 
d="M166 -45l-91 -184h-51l82 184h60zM365 511l-45 -48q-28 37 -76 37q-36 0 -65 -27.5t-29 -77.5q0 -54 62 -90q44 -29 69.5 -61t25.5 -81q0 -79 -47 -125t-118 -46q-90 0 -133 59l45 47q35 -47 88 -47q41 0 69.5 26.5t28.5 72.5q0 61 -69 102q-41 26 -64.5 57t-23.5 81
q0 76 47.5 122t116.5 46q79 0 118 -47z" />
    <glyph glyph-name="uring.sc" horiz-adv-x="456" 
d="M449 550l-63 -359q-36 -203 -189 -203q-70 0 -105.5 40t-35.5 104q0 30 5 59l63 359h67l-62 -352q-5 -32 -5 -56q0 -93 76 -93q95 0 120 149l62 352h67zM397 712q0 -48 -30 -81.5t-73 -33.5q-38 0 -58.5 22t-20.5 60q0 49 28.5 84t70.5 35q40 0 61.5 -24.5t21.5 -61.5z
M363 710q0 24 -12.5 40.5t-37.5 16.5q-29 0 -47 -25.5t-18 -59.5q0 -25 13 -40t36 -15q28 0 47 25t19 58z" />
    <glyph glyph-name="i.sc" horiz-adv-x="210" 
d="M199 550l-96 -550h-66l95 550h67z" />
    <glyph glyph-name="hcircumflex.sc" horiz-adv-x="472" 
d="M461 550l-96 -550h-66l45 256h-196l-45 -256h-66l95 550h67l-41 -235h196l40 235h67zM444 610h-56l-55 110l-94 -110h-62l127 144h65z" />
    <glyph glyph-name="ograve.sc" horiz-adv-x="468" 
d="M443 358q0 -90 -28.5 -174t-84 -140t-124.5 -56q-73 0 -113.5 54t-40.5 146q0 90 27.5 174.5t83 142t126.5 57.5q75 0 114.5 -55.5t39.5 -148.5zM285 503q-49 0 -88 -53t-57.5 -124t-18.5 -139q0 -61 22 -100t68 -39q48 0 87 53t57.5 124.5t18.5 138.5q0 61 -21.5 100
t-67.5 39zM330 610h-52l-107 144h66z" />
    <glyph glyph-name="ycircumflex.sc" horiz-adv-x="350" 
d="M407 550l-195 -329l-38 -221h-66l38 221l-80 329h71l51 -260h2l144 260h73zM384 610h-56l-55 110l-94 -110h-62l127 144h65z" />
    <glyph glyph-name="o.sc" horiz-adv-x="468" 
d="M443 358q0 -90 -28.5 -174t-84 -140t-124.5 -56q-73 0 -113.5 54t-40.5 146q0 90 27.5 174.5t83 142t126.5 57.5q75 0 114.5 -55.5t39.5 -148.5zM285 503q-49 0 -88 -53t-57.5 -124t-18.5 -139q0 -61 22 -100t68 -39q48 0 87 53t57.5 124.5t18.5 138.5q0 61 -21.5 100
t-67.5 39z" />
    <glyph glyph-name="scircumflex.sc" horiz-adv-x="360" 
d="M365 511l-45 -48q-28 37 -76 37q-36 0 -65 -27.5t-29 -77.5q0 -54 62 -90q44 -29 69.5 -61t25.5 -81q0 -79 -47 -125t-118 -46q-90 0 -133 59l45 47q35 -47 88 -47q41 0 69.5 26.5t28.5 72.5q0 61 -69 102q-41 26 -64.5 57t-23.5 81q0 76 47.5 122t116.5 46q79 0 118 -47
zM397 610h-56l-55 110l-94 -110h-62l127 144h65z" />
    <glyph glyph-name="j.sc" horiz-adv-x="327" 
d="M320 550l-70 -397q-14 -83 -47 -124t-96 -41q-48 0 -76.5 24t-39.5 64l57 24q15 -51 60 -51q35 0 51 26.5t26 84.5l68 390h67z" />
    <glyph glyph-name="igrave.sc" horiz-adv-x="210" 
d="M199 550l-96 -550h-66l95 550h67zM211 610h-52l-107 144h66z" />
    <glyph glyph-name="aring.sc" horiz-adv-x="397" 
d="M342 0h-68l-5 131h-163l-58 -131h-68l247 550h88zM270 183l-10 305h-3l-131 -305h144zM382 712q0 -48 -30 -81.5t-73 -33.5q-38 0 -58.5 22t-20.5 60q0 49 28.5 84t70.5 35q40 0 61.5 -24.5t21.5 -61.5zM348 710q0 24 -12.5 40.5t-37.5 16.5q-29 0 -47 -25.5t-18 -59.5
q0 -25 13 -40t36 -15q28 0 47 25t19 58z" />
    <glyph glyph-name="ring.sc" 
d="M277 712q0 -48 -30 -81.5t-73 -33.5q-38 0 -58.5 22t-20.5 60q0 49 28.5 84t70.5 35q40 0 61.5 -24.5t21.5 -61.5zM243 710q0 24 -12.5 40.5t-37.5 16.5q-29 0 -47 -25.5t-18 -59.5q0 -25 13 -40t36 -15q28 0 47 25t19 58z" />
    <glyph glyph-name="hungarumlaut.sc" 
d="M360 754l-131 -144h-52l116 144h67zM231 754l-131 -144h-52l116 144h67z" />
    <glyph glyph-name="sterling.sc" horiz-adv-x="410" 
d="M393 532l-36 -51q-17 22 -54 22q-70 0 -92 -118l-13 -74h103l-9 -51h-101l-34 -200h153l-11 -60h-289l11 60h72l34 200h-68l10 51h65l14 81q29 170 159 170q58 0 86 -30z" />
    <glyph glyph-name="nacute.sc" horiz-adv-x="464" 
d="M453 550l-96 -550h-78l-104 439h-2l-73 -439h-63l95 550h80l103 -443h2l73 443h63zM451 754l-131 -144h-53l116 144h68z" />
    <glyph glyph-name="ubreve.sc" horiz-adv-x="456" 
d="M449 550l-63 -359q-36 -203 -189 -203q-70 0 -105.5 40t-35.5 104q0 30 5 59l63 359h67l-62 -352q-5 -32 -5 -56q0 -93 76 -93q95 0 120 149l62 352h67zM439 746q-37 -131 -146 -131q-51 0 -81 32.5t-30 98.5h46q0 -41 18 -62t49 -21q73 0 99 83h45z" />
    <glyph glyph-name="seven.sc" horiz-adv-x="410" 
d="M392 550l-10 -54l-260 -496h-72l262 491h-209l10 59h279z" />
    <glyph glyph-name="odieresis.sc" horiz-adv-x="468" 
d="M443 358q0 -90 -28.5 -174t-84 -140t-124.5 -56q-73 0 -113.5 54t-40.5 146q0 90 27.5 174.5t83 142t126.5 57.5q75 0 114.5 -55.5t39.5 -148.5zM285 503q-49 0 -88 -53t-57.5 -124t-18.5 -139q0 -61 22 -100t68 -39q48 0 87 53t57.5 124.5t18.5 138.5q0 61 -21.5 100
t-67.5 39zM432 700q0 -21 -13 -35.5t-32 -14.5q-17 0 -27 11t-10 27q0 20 13 35t32 15q16 0 26.5 -10.5t10.5 -27.5zM287 700q0 -21 -12.5 -35.5t-31.5 -14.5q-17 0 -26.5 11t-9.5 27q0 20 12.5 35t31.5 15q16 0 26 -10.5t10 -27.5z" />
    <glyph glyph-name="zcaron.sc" horiz-adv-x="338" 
d="M360 550l-10 -57l-268 -432h195l-10 -61h-271l9 57l271 434h-184l11 59h257zM399 753l-125 -144h-65l-76 144h55l55 -109l94 109h62z" />
    <glyph glyph-name="nine.onum" horiz-adv-x="482" 
d="M451 384q0 -74 -29.5 -153t-79.5 -149.5t-105 -130t-118 -112.5l-46 42q70 55 140 132.5t107 145.5l-2 1q-41 -41 -107 -41q-69 0 -107.5 48t-38.5 125q0 114 60 194t160 80q78 0 122 -51.5t44 -130.5zM233 171q68 0 109.5 63.5t41.5 146.5q0 58 -28 93t-76 35
q-67 0 -106.5 -64.5t-39.5 -150.5q0 -56 24.5 -89.5t74.5 -33.5z" />
    <glyph glyph-name="germandbls.sc" horiz-adv-x="720" 
d="M365 511l-45 -48q-28 37 -76 37q-36 0 -65 -27.5t-29 -77.5q0 -54 62 -90q44 -29 69.5 -61t25.5 -81q0 -79 -47 -125t-118 -46q-90 0 -133 59l45 47q35 -47 88 -47q41 0 69.5 26.5t28.5 72.5q0 61 -69 102q-41 26 -64.5 57t-23.5 81q0 76 47.5 122t116.5 46q79 0 118 -47
zM725 511l-45 -48q-28 37 -76 37q-36 0 -65 -27.5t-29 -77.5q0 -54 62 -90q44 -29 69.5 -61t25.5 -81q0 -79 -47 -125t-118 -46q-90 0 -133 59l45 47q35 -47 88 -47q41 0 69.5 26.5t28.5 72.5q0 61 -69 102q-41 26 -64.5 57t-23.5 81q0 76 47.5 122t116.5 46q79 0 118 -47z
" />
    <glyph glyph-name="aacute.sc" horiz-adv-x="397" 
d="M342 0h-68l-5 131h-163l-58 -131h-68l247 550h88zM270 183l-10 305h-3l-131 -305h144zM424 754l-131 -144h-53l116 144h68z" />
    <glyph glyph-name="q.sc" horiz-adv-x="468" 
d="M52 188q0 90 27.5 174.5t83 142t126.5 57.5q74 0 113.5 -55t39.5 -147q0 -88 -37.5 -180.5t-93.5 -119.5v-2h106l-9 -58h-204q-74 0 -113 48.5t-39 139.5zM285 503q-49 0 -88 -52.5t-57.5 -122t-18.5 -134.5q0 -61 21.5 -99t68.5 -38q48 0 87 51.5t57.5 120.5t18.5 135
q0 61 -21.5 100t-67.5 39z" />
    <glyph glyph-name="exclamdown.sc" horiz-adv-x="253" 
d="M53 0l66 381h64l-66 -381h-64zM129 504q0 22 13.5 36.5t33.5 14.5q17 0 27 -11t10 -27q0 -20 -13 -36t-33 -16q-17 0 -27.5 11t-10.5 28z" />
    <glyph glyph-name="jcircumflex.sc" horiz-adv-x="327" 
d="M320 550l-70 -397q-14 -83 -47 -124t-96 -41q-48 0 -76.5 24t-39.5 64l57 24q15 -51 60 -51q35 0 51 26.5t26 84.5l68 390h67zM423 610h-56l-55 110l-94 -110h-62l127 144h65z" />
    <glyph glyph-name="lacute.sc" horiz-adv-x="310" 
d="M270 61l-11 -61h-222l95 550h67l-85 -489h156zM331 754l-131 -144h-53l116 144h68z" />
    <glyph glyph-name="zacute.sc" horiz-adv-x="338" 
d="M360 550l-10 -57l-268 -432h195l-10 -61h-271l9 57l271 434h-184l11 59h257zM377 754l-131 -144h-53l116 144h68z" />
    <glyph glyph-name="six.onum" horiz-adv-x="482" 
d="M46 170q0 139 95 281.5t237 262.5l46 -42q-69 -54 -138 -130t-104 -139l2 -1q41 40 106 40q69 0 107.5 -47.5t38.5 -124.5q0 -118 -61.5 -200.5t-162.5 -82.5q-78 0 -122 51.5t-44 131.5zM268 390q-68 0 -111.5 -67.5t-43.5 -150.5q0 -58 28 -93t75 -35q68 0 110 67
t42 156q0 56 -25 89.5t-75 33.5z" />
    <glyph glyph-name="k.sc" horiz-adv-x="395" 
d="M437 550l-223 -260l140 -290h-75l-127 277h-2l-48 -277h-65l95 550h65l-42 -245h1l204 245h77z" />
    <glyph glyph-name="tcommaaccent.sc" horiz-adv-x="290" 
d="M129 -45l-91 -184h-51l82 184h60zM340 550l-10 -57h-105l-86 -493h-66l86 493h-105l10 57h276z" />
    <glyph glyph-name="r.sc" horiz-adv-x="401" 
d="M393 425q0 -66 -33.5 -111t-87.5 -58l73 -256h-70l-65 247h-65l-43 -247h-65l95 550h127q134 0 134 -125zM329 416q0 77 -79 77h-63l-33 -194h66q47 0 78 32.5t31 84.5z" />
    <glyph glyph-name="lslash.sc" horiz-adv-x="310" 
d="M164 347l123 106l-11 -63l-123 -106l-39 -223h156l-11 -61h-222l40 231l-50 -44l11 63l50 44l44 256h67z" />
    <glyph glyph-name="scaron.sc" horiz-adv-x="360" 
d="M365 511l-45 -48q-28 37 -76 37q-36 0 -65 -27.5t-29 -77.5q0 -54 62 -90q44 -29 69.5 -61t25.5 -81q0 -79 -47 -125t-118 -46q-90 0 -133 59l45 47q35 -47 88 -47q41 0 69.5 26.5t28.5 72.5q0 61 -69 102q-41 26 -64.5 57t-23.5 81q0 76 47.5 122t116.5 46q79 0 118 -47
zM415 753l-125 -144h-65l-76 144h55l55 -109l94 109h62z" />
    <glyph glyph-name="icircumflex.sc" horiz-adv-x="210" 
d="M199 550l-96 -550h-66l95 550h67zM309 610h-56l-55 110l-94 -110h-62l127 144h65z" />
    <glyph glyph-name="itilde.sc" horiz-adv-x="210" 
d="M199 550l-96 -550h-66l95 550h67zM324 722q-10 -45 -33.5 -70t-52.5 -25t-59 24q-30 23 -50 23q-28 0 -43 -47h-37q10 44 34 69.5t53 25.5q27 0 59 -24q31 -23 51 -23q28 0 42 47h36z" />
    <glyph glyph-name="s.sc" horiz-adv-x="360" 
d="M365 511l-45 -48q-28 37 -76 37q-36 0 -65 -27.5t-29 -77.5q0 -54 62 -90q44 -29 69.5 -61t25.5 -81q0 -79 -47 -125t-118 -46q-90 0 -133 59l45 47q35 -47 88 -47q41 0 69.5 26.5t28.5 72.5q0 61 -69 102q-41 26 -64.5 57t-23.5 81q0 76 47.5 122t116.5 46q79 0 118 -47
z" />
    <glyph glyph-name="hbar.sc" horiz-adv-x="472" 
d="M461 550l-96 -550h-66l45 256h-196l-45 -256h-66l95 550h67l-19 -110h195l19 110h67zM158 315h196l13 80h-195z" />
    <glyph glyph-name="y.sc" horiz-adv-x="350" 
d="M407 550l-195 -329l-38 -221h-66l38 221l-80 329h71l51 -260h2l144 260h73z" />
    <glyph glyph-name="kcommaaccent.sc" horiz-adv-x="395" 
d="M218 -45l-91 -184h-51l82 184h60zM437 550l-223 -260l140 -290h-75l-127 277h-2l-48 -277h-65l95 550h65l-42 -245h1l204 245h77z" />
    <glyph glyph-name="zdotaccent.sc" horiz-adv-x="338" 
d="M360 550l-10 -57l-268 -432h195l-10 -61h-271l9 57l271 434h-184l11 59h257zM289 701q0 -23 -14 -38.5t-35 -15.5q-17 0 -27.5 11.5t-10.5 28.5q0 21 14 37.5t34 16.5q18 0 28.5 -11t10.5 -29z" />
    <glyph glyph-name="exclam.sc" horiz-adv-x="253" 
d="M218 550l-66 -381h-64l66 381h64zM142 46q0 -22 -13.5 -36.5t-33.5 -14.5q-17 0 -27 11t-10 27q0 20 13 36t33 16q17 0 27.5 -11t10.5 -28z" />
    <glyph glyph-name="a.sc" horiz-adv-x="397" 
d="M342 0h-68l-5 131h-163l-58 -131h-68l247 550h88zM270 183l-10 305h-3l-131 -305h144z" />
    <glyph glyph-name="h.sc" horiz-adv-x="472" 
d="M461 550l-96 -550h-66l45 256h-196l-45 -256h-66l95 550h67l-41 -235h196l40 235h67z" />
    <glyph glyph-name="m.sc" horiz-adv-x="584" 
d="M476 0h-67l81 455h-3l-203 -455h-63l-41 455h-2l-80 -455h-61l97 550h98l39 -437h3l194 437h105z" />
    <glyph glyph-name="tilde.sc" 
d="M316 722q-10 -45 -33.5 -70t-52.5 -25t-59 24q-30 23 -50 23q-28 0 -43 -47h-37q10 44 34 69.5t53 25.5q27 0 59 -24q31 -23 51 -23q28 0 42 47h36z" />
    <glyph glyph-name="grave.cap" 
d="M232 764h-53l-108 144h68z" />
    <glyph glyph-name="seven.onum" horiz-adv-x="408" 
d="M419 497q-238 -423 -353 -656l-67 15q172 333 348 638h-277l11 60h348z" />
    <glyph glyph-name="tbar.sc" horiz-adv-x="290" 
d="M340 550l-10 -57h-105l-17 -96h75l-9 -49h-75l-60 -348h-66l60 348h-75l9 49h75l17 96h-105l10 57h276z" />
    <glyph glyph-name="acute.cap" 
d="M312 908l-130 -144h-53l116 144h67z" />
    <glyph glyph-name="wcircumflex.sc" horiz-adv-x="604" 
d="M652 550l-207 -550h-85l-12 458h-1l-172 -458h-82l-12 550h69v-467h1l175 467h75l14 -468h2l164 468h71zM508 610h-56l-55 110l-94 -110h-62l127 144h65z" />
    <glyph glyph-name="ebreve.sc" horiz-adv-x="346" 
d="M356 550l-10 -59h-160l-31 -178h152l-10 -55h-152l-34 -198h173l-10 -60h-237l95 550h224zM397 746q-37 -131 -146 -131q-51 0 -81 32.5t-30 98.5h46q0 -41 18 -62t49 -21q73 0 99 83h45z" />
    <glyph glyph-name="ncommaaccent.sc" horiz-adv-x="464" 
d="M231 -45l-91 -184h-51l82 184h60zM453 550l-96 -550h-78l-104 439h-2l-73 -439h-63l95 550h80l103 -443h2l73 443h63z" />
    <glyph glyph-name="three.onum" horiz-adv-x="415" 
d="M400 485q-102 -100 -228 -208l1 -3q17 5 33 5q72 0 111 -51t39 -126q0 -108 -68.5 -185t-195.5 -77q-55 0 -86 8l13 62q29 -9 74 -9q82 0 138 50.5t56 146.5q0 58 -29 92.5t-92 34.5q-45 0 -85 -14l-6 55q120 98 252 224v4h-234l10 60h309z" />
    <glyph glyph-name="one.onum" horiz-adv-x="355" 
d="M282 554l-95 -554h-66l83 479l-112 -70l-22 50l151 95h61z" />
    <glyph glyph-name="ntilde.sc" horiz-adv-x="464" 
d="M453 550l-96 -550h-78l-104 439h-2l-73 -439h-63l95 550h80l103 -443h2l73 443h63zM452 722q-10 -45 -33.5 -70t-52.5 -25t-59 24q-30 23 -50 23q-28 0 -43 -47h-37q10 44 34 69.5t53 25.5q27 0 59 -24q31 -23 51 -23q28 0 42 47h36z" />
    <glyph glyph-name="w.sc" horiz-adv-x="604" 
d="M652 550l-207 -550h-85l-12 458h-1l-172 -458h-82l-12 550h69v-467h1l175 467h75l14 -468h2l164 468h71z" />
    <glyph glyph-name="acute.sc" 
d="M303 754l-131 -144h-53l116 144h68z" />
    <glyph glyph-name="four.sc" horiz-adv-x="410" 
d="M356 184l-10 -57h-64l-22 -127h-61l22 127h-199l10 63l234 360h88l-64 -366h66zM285 487h-2l-191 -303h140z" />
    <glyph glyph-name="Euro.sc" horiz-adv-x="410" 
d="M388 493q-22 14 -64 14q-49 0 -88 -37.5t-63 -105.5h170l-20 -47h-165q-13 -34 -16 -82h152l-18 -47h-136q0 -67 26.5 -104.5t75.5 -37.5q44 0 79 19v-56q-36 -22 -87 -22q-77 0 -119 55.5t-41 145.5h-53l19 47h37q2 43 15 82h-46l18 47h41q73 199 227 199q51 0 81 -15z
" />
    <glyph glyph-name="dotaccent.cap" 
d="M235 855q0 -23 -14 -38.5t-35 -15.5q-17 0 -27.5 11.5t-10.5 28.5q0 21 14 37.5t34 16.5q18 0 28.5 -11t10.5 -29z" />
    <glyph glyph-name="aogonek.sc" horiz-adv-x="397" 
d="M323 -188q-40 -34 -87 -34q-35 0 -54 19t-19 54q0 27 20 57t39 47.5t52 44.5l-5 131h-163l-58 -131h-68l247 550h88l27 -550h-23q-39 -35 -56 -52t-31.5 -40t-14.5 -43q0 -41 40 -41q31 0 56 23zM270 183l-10 305h-3l-131 -305h144z" />
    <glyph glyph-name="five.onum" horiz-adv-x="418" 
d="M164 238q-47 0 -92 -18l76 334h274l-11 -60h-215l-49 -209q26 7 50 7q76 0 117.5 -49.5t41.5 -124.5q0 -127 -71.5 -202.5t-185.5 -75.5q-45 0 -88 8l13 63q35 -10 75 -10q97 0 142.5 61t45.5 148q0 60 -32 94t-91 34z" />
    <glyph glyph-name="florin.sc" horiz-adv-x="410" 
d="M425 544l-25 -54q-15 13 -36 13q-47 0 -72 -73l-35 -101h82l-10 -50h-89l-94 -276q-39 -113 -120 -113q-32 0 -48 8l19 56q9 -6 22 -6q27 0 41.5 20t28.5 63l84 248h-74l10 50h80l32 94q21 66 52 102.5t88 36.5q41 0 64 -18z" />
    <glyph glyph-name="atilde.sc" horiz-adv-x="397" 
d="M342 0h-68l-5 131h-163l-58 -131h-68l247 550h88zM270 183l-10 305h-3l-131 -305h144zM429 722q-10 -45 -33.5 -70t-52.5 -25t-59 24q-30 23 -50 23q-28 0 -43 -47h-37q10 44 34 69.5t53 25.5q27 0 59 -24q31 -23 51 -23q28 0 42 47h36z" />
    <glyph glyph-name="dollar.sc" horiz-adv-x="410" 
d="M378 505l-39 -47q-28 35 -76 35l-34 -188q102 -52 102 -140q0 -72 -46 -118t-111 -46l-11 -63h-32l10 63q-33 1 -65 16t-50 38l42 48q33 -44 84 -46l34 197q-49 25 -72 54t-23 81q0 67 46 113t102 47l11 62h33l-11 -62q68 0 106 -44zM228 492q-30 0 -53.5 -27.5
t-23.5 -66.5q0 -54 46 -79zM268 155q0 58 -50 86l-32 -184q31 -1 56.5 28t25.5 70z" />
    <glyph glyph-name="ccedilla.sc" horiz-adv-x="395" 
d="M275 -140q0 -48 -38.5 -68.5t-86.5 -20.5t-85 19l20 35q28 -16 67 -16q27 0 49 11t22 38q0 39 -45 39q-25 0 -48 -10l-14 15l68 88q-63 8 -97.5 63t-34.5 140q0 92 31 176t89.5 138.5t129.5 54.5q87 0 123 -65l-49 -44q-27 48 -81 48q-51 0 -92.5 -50t-61.5 -118.5
t-20 -136.5q0 -67 24.5 -107.5t72.5 -40.5q54 0 97 52l36 -43q-55 -63 -128 -68l-50 -65q16 4 33 4q29 0 49 -17t20 -51z" />
    <glyph glyph-name="gbreve.sc" horiz-adv-x="438" 
d="M425 496l-49 -43q-23 48 -81 48q-51 0 -92.5 -51t-61.5 -120.5t-20 -136.5t27 -107t81 -40q42 0 69 21l31 176h-79l11 58h143l-46 -267q-61 -46 -139 -46q-81 0 -124 55t-43 149q0 89 30.5 173t89.5 140.5t130 56.5q88 0 123 -66zM456 746q-37 -131 -146 -131
q-51 0 -81 32.5t-30 98.5h46q0 -41 18 -62t49 -21q73 0 99 83h45z" />
    <glyph glyph-name="lcaron.sc" horiz-adv-x="310" 
d="M363 550l-91 -184h-51l82 184h60zM270 61l-11 -61h-222l95 550h67l-85 -489h156z" />
    <glyph glyph-name="racute.sc" horiz-adv-x="401" 
d="M393 425q0 -66 -33.5 -111t-87.5 -58l73 -256h-70l-65 247h-65l-43 -247h-65l95 550h127q134 0 134 -125zM329 416q0 77 -79 77h-63l-33 -194h66q47 0 78 32.5t31 84.5zM401 754l-131 -144h-53l116 144h68z" />
    <glyph glyph-name="dcroat.sc" horiz-adv-x="446" 
d="M83 266h-55l8 47h55l41 237h124q83 0 124 -56.5t41 -153.5q0 -146 -69.5 -243t-190.5 -97h-124zM156 313h109l-8 -47h-109l-35 -208h58q80 0 131.5 81t51.5 197q0 74 -28 115t-80 41h-59z" />
    <glyph glyph-name="four.onum" horiz-adv-x="442" 
d="M396 566l-321 -495h182l45 262h63l-45 -262h85l-11 -59h-83l-30 -172h-64l30 172h-254l11 63l317 491h75z" />
    <glyph glyph-name="tilde.cap" 
d="M326 876q-10 -45 -33.5 -70t-52.5 -25t-59 24q-30 23 -50 23q-29 0 -43 -48h-36q10 45 33 70.5t52 25.5q28 0 60 -24q31 -23 51 -23q28 0 42 47h36z" />
    <glyph glyph-name="utilde.sc" horiz-adv-x="456" 
d="M449 550l-63 -359q-36 -203 -189 -203q-70 0 -105.5 40t-35.5 104q0 30 5 59l63 359h67l-62 -352q-5 -32 -5 -56q0 -93 76 -93q95 0 120 149l62 352h67zM445 722q-10 -45 -33.5 -70t-52.5 -25t-59 24q-30 23 -50 23q-28 0 -43 -47h-37q10 44 34 69.5t53 25.5q27 0 59 -24
q31 -23 51 -23q28 0 42 47h36z" />
    <glyph glyph-name="acircumflex.sc" horiz-adv-x="397" 
d="M342 0h-68l-5 131h-163l-58 -131h-68l247 550h88zM270 183l-10 305h-3l-131 -305h144zM418 610h-56l-55 110l-94 -110h-62l127 144h65z" />
    <glyph glyph-name="fi.sc" horiz-adv-x="543" 
d="M361 550l-11 -60h-163l-32 -182h152l-10 -58h-151l-43 -250h-66l95 550h229zM532 550l-96 -550h-66l95 550h67z" />
    <glyph glyph-name="ldot.sc" horiz-adv-x="310" 
d="M270 61l-11 -61h-222l95 550h67l-85 -489h156zM304 321q0 -23 -14 -38.5t-35 -15.5q-17 0 -27.5 11.5t-10.5 28.5q0 21 14 37.5t34 16.5q18 0 28.5 -11t10.5 -29z" />
    <glyph glyph-name="zero.sc" horiz-adv-x="410" 
d="M379 385q0 -43 -6 -91.5t-21.5 -104t-38.5 -99.5t-60 -73t-83 -29q-122 0 -122 171q0 46 6 96t21 106t38 100t60.5 72.5t83.5 28.5q65 0 93.5 -49.5t28.5 -127.5zM311 392q0 112 -61 112q-37 0 -65 -41.5t-42 -102.5t-20.5 -113.5t-6.5 -90.5q0 -110 60 -110
q37 0 65.5 41.5t42.5 101.5t20.5 112.5t6.5 90.5z" />
    <glyph glyph-name="b.sc" horiz-adv-x="409" 
d="M384 431q0 -57 -28 -93.5t-71 -48.5v-2q30 -4 53 -32.5t23 -75.5q0 -85 -52 -132t-126 -47h-146l95 550h127q51 0 88 -30.5t37 -88.5zM319 423q0 34 -21.5 52t-55.5 18h-57l-31 -180h61q42 0 73 29t31 81zM294 180q0 41 -24.5 60.5t-58.5 19.5h-66l-36 -203h70
q52 0 83.5 32.5t31.5 90.5z" />
    <glyph glyph-name="caron.cap" 
d="M338 907l-125 -144h-65l-77 144h56l55 -109l95 109h61z" />
    <glyph glyph-name="two.sc" horiz-adv-x="410" 
d="M250 227l-150 -166h208l-10 -61h-282l12 64l186 209q50 56 68 90.5t18 66.5q0 30 -16.5 51t-48.5 21q-31 0 -53.5 -22.5t-32.5 -57.5l-63 14q19 59 59 92.5t98 33.5q64 0 94 -37t30 -89q0 -45 -23.5 -88t-93.5 -121z" />
    <glyph glyph-name="dotaccent.sc" 
d="M225 701q0 -23 -14 -38.5t-35 -15.5q-17 0 -27.5 11.5t-10.5 28.5q0 21 14 37.5t34 16.5q18 0 28.5 -11t10.5 -29z" />
    <glyph glyph-name="yen.sc" horiz-adv-x="410" 
d="M268 305h84l-8 -46h-110l-14 -80h110l-8 -47h-110l-23 -132h-66l23 132h-110l8 47h110l14 80h-110l8 47h86l-67 244h68l57 -242l142 242h70z" />
    <glyph glyph-name="scedilla.sc" horiz-adv-x="360" 
d="M221 -139q-6 -48 -43 -69t-82 -21q-48 0 -85 19l20 35q28 -16 67 -16q25 0 46.5 12t24.5 38q2 19 -10.5 28.5t-34.5 9.5q-25 0 -48 -10l-14 15l70 90q-85 5 -123 59l45 47q35 -47 88 -47q41 0 69.5 26.5t28.5 72.5q0 61 -69 102q-41 26 -64.5 57t-23.5 81q0 76 47.5 122
t116.5 46q79 0 118 -47l-45 -48q-28 37 -76 37q-36 0 -65 -27.5t-29 -77.5q0 -54 62 -90q44 -29 69.5 -61t25.5 -81q0 -70 -37 -114t-96 -54l-55 -71q12 4 36 4q30 0 50 -17t16 -50z" />
    <glyph glyph-name="cent.sc" horiz-adv-x="410" 
d="M419 458l-37 -46q-20 35 -73 38l-71 -407q51 1 92 49l21 -43q-48 -56 -122 -59l-11 -62h-37l11 62q-64 4 -96 51t-32 126q0 77 25 153.5t76.5 131t115.5 54.5l12 66h37l-12 -66q70 -3 101 -48zM272 450q-36 -1 -66 -29t-48 -70t-27.5 -88.5t-9.5 -88.5q0 -121 81 -128z
" />
    <glyph glyph-name="uogonek.sc" horiz-adv-x="456" 
d="M246 -188q-40 -34 -87 -34q-35 0 -54 19t-19 54t26 68t70 70q-63 4 -94.5 43t-31.5 100q0 30 5 59l63 359h67l-62 -352q-5 -32 -5 -56q0 -93 76 -93q95 0 120 149l62 352h67l-63 -359q-32 -181 -155 -200q-49 -45 -70 -71.5t-21 -54.5q0 -41 40 -41q31 0 56 23z" />
    <glyph glyph-name="emacron.sc" horiz-adv-x="346" 
d="M356 550l-10 -59h-160l-31 -178h152l-10 -55h-152l-34 -198h173l-10 -60h-237l95 550h224zM392 704l-9 -47h-244l9 47h244z" />
    <glyph glyph-name="rcaron.sc" horiz-adv-x="401" 
d="M393 425q0 -66 -33.5 -111t-87.5 -58l73 -256h-70l-65 247h-65l-43 -247h-65l95 550h127q134 0 134 -125zM329 416q0 77 -79 77h-63l-33 -194h66q47 0 78 32.5t31 84.5zM424 753l-125 -144h-65l-76 144h55l55 -109l94 109h62z" />
    <glyph glyph-name="eth.sc" horiz-adv-x="446" 
d="M83 266h-55l8 47h55l41 237h124q83 0 124 -56.5t41 -153.5q0 -146 -69.5 -243t-190.5 -97h-124zM156 313h109l-8 -47h-109l-35 -208h58q80 0 131.5 81t51.5 197q0 74 -28 115t-80 41h-59z" />
    <glyph glyph-name="ampersand.sc" horiz-adv-x="434" 
d="M426 298l-106 -174l64 -124h-69l-34 67q-52 -79 -126 -79q-55 0 -86.5 33t-31.5 90q0 64 34 115t91 82q-29 57 -29 103q0 67 36 109t92 42q50 0 76 -28.5t26 -74.5q0 -56 -33.5 -94t-95.5 -74l59 -117l71 124h62zM304 453q0 25 -13 40.5t-34 15.5q-30 0 -47.5 -27
t-17.5 -66q0 -38 22 -84q45 27 67.5 53.5t22.5 67.5zM257 117l-73 147q-36 -17 -60.5 -57t-24.5 -86q0 -77 64 -77q54 0 94 73z" />
    <glyph glyph-name="eight.onum" horiz-adv-x="465" 
d="M392 568q0 45 -23 73t-65 28q-54 0 -87.5 -48.5t-33.5 -113.5q0 -45 21.5 -75t60.5 -30q55 0 91 51.5t36 114.5zM348 233q0 53 -24.5 84.5t-70.5 31.5q-61 0 -104 -56.5t-43 -131.5q0 -53 25.5 -86t74.5 -33q66 0 104 56.5t38 134.5zM333 379v-2q40 -16 62 -54t22 -90
q0 -106 -59 -176t-157 -70q-78 0 -120.5 46t-42.5 120q0 79 41.5 143.5t108.5 80.5v2q-70 35 -70 126q0 89 50 152.5t140 63.5q77 0 113.5 -41.5t36.5 -107.5t-33.5 -119t-91.5 -74z" />
    <glyph glyph-name="ncaron.sc" horiz-adv-x="464" 
d="M453 550l-96 -550h-78l-104 439h-2l-73 -439h-63l95 550h80l103 -443h2l73 443h63zM455 753l-125 -144h-65l-76 144h55l55 -109l94 109h62z" />
    <glyph glyph-name="x.sc" horiz-adv-x="384" 
d="M414 550l-171 -260l91 -290h-72l-64 231l-144 -231h-75l191 291l-80 259h70l56 -206l126 206h72z" />
    <glyph glyph-name="breve.sc" 
d="M322 746q-37 -131 -146 -131q-51 0 -81 32.5t-30 98.5h46q0 -41 18 -62t49 -21q73 0 99 83h45z" />
    <glyph glyph-name="fl.sc" horiz-adv-x="643" 
d="M361 550l-11 -60h-163l-32 -182h152l-10 -58h-151l-43 -250h-66l95 550h229zM603 61l-11 -61h-222l95 550h67l-85 -489h156z" />
    <glyph glyph-name="dcaron.sc" horiz-adv-x="446" 
d="M421 340q0 -146 -69.5 -243t-190.5 -97h-124l95 550h124q83 0 124 -56.5t41 -153.5zM354 336q0 74 -28 115t-80 41h-59l-74 -434h58q80 0 131.5 81t51.5 197zM421 753l-125 -144h-65l-76 144h55l55 -109l94 109h62z" />
    <glyph glyph-name="agrave.sc" horiz-adv-x="397" 
d="M342 0h-68l-5 131h-163l-58 -131h-68l247 550h88zM270 183l-10 305h-3l-131 -305h144zM311 610h-52l-107 144h66z" />
    <glyph glyph-name="rcommaaccent.sc" horiz-adv-x="401" 
d="M213 -45l-91 -184h-51l82 184h60zM393 425q0 -66 -33.5 -111t-87.5 -58l73 -256h-70l-65 247h-65l-43 -247h-65l95 550h127q134 0 134 -125zM329 416q0 77 -79 77h-63l-33 -194h66q47 0 78 32.5t31 84.5z" />
    <glyph glyph-name="u.sc" horiz-adv-x="456" 
d="M449 550l-63 -359q-36 -203 -189 -203q-70 0 -105.5 40t-35.5 104q0 30 5 59l63 359h67l-62 -352q-5 -32 -5 -56q0 -93 76 -93q95 0 120 149l62 352h67z" />
    <glyph glyph-name="uacute.sc" horiz-adv-x="456" 
d="M449 550l-63 -359q-36 -203 -189 -203q-70 0 -105.5 40t-35.5 104q0 30 5 59l63 359h67l-62 -352q-5 -32 -5 -56q0 -93 76 -93q95 0 120 149l62 352h67zM445 754l-131 -144h-53l116 144h68z" />
    <glyph glyph-name="zero.onum" horiz-adv-x="489" 
d="M447 363q0 -91 -28.5 -176t-84.5 -142t-126 -57q-74 0 -114 54t-40 146t27.5 177t83.5 143t127 58q74 0 114.5 -54.5t40.5 -148.5zM379 365q0 64 -22.5 103t-69.5 39q-49 0 -88.5 -53.5t-58 -125t-18.5 -140.5q0 -64 22.5 -102.5t69.5 -38.5q49 0 88 53.5t58 125
t19 139.5z" />
    <glyph glyph-name="eacute.sc" horiz-adv-x="346" 
d="M356 550l-10 -59h-160l-31 -178h152l-10 -55h-152l-34 -198h173l-10 -60h-237l95 550h224zM398 754l-131 -144h-53l116 144h68z" />
    <glyph glyph-name="dotlessj" horiz-adv-x="217" 
d="M190 497l-100 -570q-15 -82 -48 -124.5t-99 -42.5q-14 0 -38 6l10 61q13 -5 28 -5q37 0 54 28.5t26 81.5l100 565h67z" />
    <glyph glyph-name="eight.sc" horiz-adv-x="410" 
d="M384 442q0 -51 -26 -92t-71 -56v-2q66 -25 66 -110q0 -83 -47.5 -138.5t-126.5 -55.5q-65 0 -99.5 36t-34.5 95q0 61 32.5 111t82.5 62l1 2q-55 28 -55 96q0 72 40.5 122t113.5 50q64 0 94 -33.5t30 -86.5zM319 438q0 32 -16.5 52t-46.5 20q-38 0 -62.5 -35t-24.5 -83
q0 -32 15.5 -53.5t44.5 -21.5q39 0 64.5 37.5t25.5 83.5zM285 183q0 38 -18 60t-51 22q-43 0 -73.5 -41.5t-30.5 -95.5q0 -38 18 -62t54 -24q48 0 74.5 42t26.5 99z" />
    <glyph glyph-name="dieresis.sc" 
d="M298 700q0 -21 -13 -35.5t-32 -14.5q-17 0 -27 11t-10 27q0 20 13 35t32 15q16 0 26.5 -10.5t10.5 -27.5zM153 700q0 -21 -12.5 -35.5t-31.5 -14.5q-17 0 -26.5 11t-9.5 27q0 20 12.5 35t31.5 15q16 0 26 -10.5t10 -27.5z" />
    <glyph glyph-name="edieresis.sc" horiz-adv-x="346" 
d="M356 550l-10 -59h-160l-31 -178h152l-10 -55h-152l-34 -198h173l-10 -60h-237l95 550h224zM379 700q0 -21 -13 -35.5t-32 -14.5q-17 0 -27 11t-10 27q0 20 12.5 35t32.5 15q16 0 26.5 -10.5t10.5 -27.5zM234 700q0 -21 -12.5 -35.5t-31.5 -14.5q-17 0 -26.5 11t-9.5 27
q0 20 12.5 35t31.5 15q16 0 26 -10.5t10 -27.5z" />
    <glyph glyph-name="caron.alt" 
d="M260 708l-91 -184h-51l82 184h60z" />
    <glyph glyph-name="amacron.sc" horiz-adv-x="397" 
d="M342 0h-68l-5 131h-163l-58 -131h-68l247 550h88zM270 183l-10 305h-3l-131 -305h144zM417 704l-9 -47h-244l9 47h244z" />
    <glyph glyph-name="ccircumflex.sc" horiz-adv-x="395" 
d="M425 497l-49 -44q-27 48 -81 48q-51 0 -92.5 -50t-61.5 -118.5t-20 -136.5q0 -67 24.5 -107.5t72.5 -40.5q54 0 97 52l36 -43q-59 -69 -145 -69q-73 0 -113.5 56.5t-40.5 148.5t31 176t89.5 138.5t129.5 54.5q87 0 123 -65zM445 610h-56l-55 110l-94 -110h-62l127 144h65
z" />
    <glyph glyph-name="g.sc" horiz-adv-x="438" 
d="M425 496l-49 -43q-23 48 -81 48q-51 0 -92.5 -51t-61.5 -120.5t-20 -136.5t27 -107t81 -40q42 0 69 21l31 176h-79l11 58h143l-46 -267q-61 -46 -139 -46q-81 0 -124 55t-43 149q0 89 30.5 173t89.5 140.5t130 56.5q88 0 123 -66z" />
    <glyph glyph-name="ecaron.sc" horiz-adv-x="346" 
d="M356 550l-10 -59h-160l-31 -178h152l-10 -55h-152l-34 -198h173l-10 -60h-237l95 550h224zM411 753l-125 -144h-65l-76 144h55l55 -109l94 109h62z" />
    <glyph glyph-name="eogonek.sc" horiz-adv-x="346" 
d="M254 -188q-40 -34 -87 -34q-35 0 -54 19t-19 54q0 27 20 57t39 47.5t52 44.5h-168l95 550h224l-10 -59h-160l-31 -178h152l-10 -55h-152l-34 -198h173l-10 -60h-24q-39 -35 -56 -52t-31.5 -40t-14.5 -43q0 -41 40 -41q31 0 56 23z" />
    <glyph glyph-name="lcommaaccent.sc" horiz-adv-x="310" 
d="M184 -45l-91 -184h-51l82 184h60zM270 61l-11 -61h-222l95 550h67l-85 -489h156z" />
    <glyph glyph-name="ae.sc" horiz-adv-x="527" 
d="M537 550l-10 -59h-152l-31 -178h143l-9 -55h-143l-35 -198h164l-11 -60h-226l23 129h-131l-69 -129h-70l295 550h262zM313 492h-6l-162 -309h114z" />
    <glyph glyph-name="ccaron.sc" horiz-adv-x="395" 
d="M425 497l-49 -44q-27 48 -81 48q-51 0 -92.5 -50t-61.5 -118.5t-20 -136.5q0 -67 24.5 -107.5t72.5 -40.5q54 0 97 52l36 -43q-59 -69 -145 -69q-73 0 -113.5 56.5t-40.5 148.5t31 176t89.5 138.5t129.5 54.5q87 0 123 -65zM465 753l-125 -144h-65l-76 144h55l55 -109
l94 109h62z" />
    <glyph glyph-name="v.sc" horiz-adv-x="389" 
d="M434 550l-234 -550h-86l-38 550h69l26 -473h2l190 473h71z" />
    <glyph glyph-name="thorn.sc" horiz-adv-x="382" 
d="M366 315q0 -87 -45 -136t-120 -49h-76l-22 -130h-66l95 550h66l-19 -108h61q57 0 91.5 -32t34.5 -95zM300 306q0 79 -71 79h-60l-34 -200h64q47 0 74 32.5t27 88.5z" />
    <glyph glyph-name="ring.cap" 
d="M287 866q0 -48 -29.5 -81.5t-72.5 -33.5q-38 0 -59 22t-21 60q0 49 28.5 83.5t70.5 34.5q40 0 61.5 -24t21.5 -61zM254 864q0 24 -13 40.5t-38 16.5q-29 0 -47 -25.5t-18 -59.5q0 -25 13 -40t36 -15q29 0 48 25t19 58z" />
    <glyph glyph-name="e.sc" horiz-adv-x="346" 
d="M356 550l-10 -59h-160l-31 -178h152l-10 -55h-152l-34 -198h173l-10 -60h-237l95 550h224z" />
    <glyph glyph-name="abreve.sc" horiz-adv-x="397" 
d="M342 0h-68l-5 131h-163l-58 -131h-68l247 550h88zM270 183l-10 305h-3l-131 -305h144zM421 746q-37 -131 -146 -131q-51 0 -81 32.5t-30 98.5h46q0 -41 18 -62t49 -21q73 0 99 83h45z" />
    <glyph glyph-name="adieresis.sc" horiz-adv-x="397" 
d="M342 0h-68l-5 131h-163l-58 -131h-68l247 550h88zM270 183l-10 305h-3l-131 -305h144zM405 700q0 -21 -13 -35.5t-32 -14.5q-17 0 -27 11t-10 27q0 20 12.5 35t32.5 15q16 0 26.5 -10.5t10.5 -27.5zM260 700q0 -21 -12.5 -35.5t-31.5 -14.5q-17 0 -26.5 11t-9.5 27
q0 20 12.5 35t31.5 15q16 0 26 -10.5t10 -27.5z" />
    <glyph glyph-name="five.sc" horiz-adv-x="410" 
d="M373 550l-10 -58h-168l-33 -158q28 13 54 13q56 0 88 -37.5t32 -95.5q0 -98 -52 -162t-133 -64q-93 0 -125 95l57 24q19 -62 74 -62q49 0 81 46.5t32 109.5q0 42 -21 68t-58 26q-51 0 -99 -25l56 280h225z" />
    <glyph glyph-name="ecircumflex.sc" horiz-adv-x="346" 
d="M356 550l-10 -59h-160l-31 -178h152l-10 -55h-152l-34 -198h173l-10 -60h-237l95 550h224zM392 610h-56l-55 110l-94 -110h-62l127 144h65z" />
    <glyph glyph-name="circumflex.cap" 
d="M313 764h-55l-57 110l-93 -110h-62l127 144h65z" />
    <glyph glyph-name="commaaccent" 
d="M100 -45l-91 -184h-51l82 184h60z" />
    <glyph glyph-name="cacute.sc" horiz-adv-x="395" 
d="M425 497l-49 -44q-27 48 -81 48q-51 0 -92.5 -50t-61.5 -118.5t-20 -136.5q0 -67 24.5 -107.5t72.5 -40.5q54 0 97 52l36 -43q-59 -69 -145 -69q-73 0 -113.5 56.5t-40.5 148.5t31 176t89.5 138.5t129.5 54.5q87 0 123 -65zM455 754l-131 -144h-53l116 144h68z" />
    <glyph glyph-name="breve.cap" 
d="M332 900q-37 -131 -146 -131q-51 0 -81 32.5t-30 98.5h46q0 -41 18 -62t49 -21q73 0 99 83h45z" />
    <glyph glyph-name="edotaccent.sc" horiz-adv-x="346" 
d="M356 550l-10 -59h-160l-31 -178h152l-10 -55h-152l-34 -198h173l-10 -60h-237l95 550h224zM307 701q0 -23 -14 -38.5t-35 -15.5q-17 0 -27.5 11.5t-10.5 28.5q0 21 14 37.5t34 16.5q18 0 28.5 -11t10.5 -29z" />
    <glyph glyph-name="six.sc" horiz-adv-x="410" 
d="M350 211q0 -94 -49.5 -158.5t-131.5 -64.5q-62 0 -98 41t-36 105q0 87 70 192l151 224h73l-156 -223l1 -1q26 19 60 19q53 0 84.5 -37t31.5 -97zM281 208q0 87 -71 87q-48 0 -78 -49.5t-30 -109.5q0 -41 19 -66.5t53 -25.5q48 0 77.5 49.5t29.5 114.5z" />
    <glyph glyph-name="egrave.sc" horiz-adv-x="346" 
d="M356 550l-10 -59h-160l-31 -178h152l-10 -55h-152l-34 -198h173l-10 -60h-237l95 550h224zM281 610h-52l-107 144h66z" />
    <glyph glyph-name="c.sc" horiz-adv-x="395" 
d="M425 497l-49 -44q-27 48 -81 48q-51 0 -92.5 -50t-61.5 -118.5t-20 -136.5q0 -67 24.5 -107.5t72.5 -40.5q54 0 97 52l36 -43q-59 -69 -145 -69q-73 0 -113.5 56.5t-40.5 148.5t31 176t89.5 138.5t129.5 54.5q87 0 123 -65z" />
    <glyph glyph-name="circumflex.sc" 
d="M303 610h-56l-55 110l-94 -110h-62l127 144h65z" />
    <glyph glyph-name="t.sc" horiz-adv-x="290" 
d="M340 550l-10 -57h-105l-86 -493h-66l86 493h-105l10 57h276z" />
    <glyph glyph-name="dieresis.cap" 
d="M307 854q0 -21 -13 -36t-32 -15q-16 0 -26 11.5t-10 27.5q0 20 12.5 34.5t32.5 14.5q16 0 26 -10t10 -27zM163 854q0 -21 -13 -36t-32 -15q-16 0 -26 11.5t-10 27.5q0 20 12.5 34.5t32.5 14.5q16 0 26 -10t10 -27z" />
    <glyph glyph-name="sacute.sc" horiz-adv-x="360" 
d="M365 511l-45 -48q-28 37 -76 37q-36 0 -65 -27.5t-29 -77.5q0 -54 62 -90q44 -29 69.5 -61t25.5 -81q0 -79 -47 -125t-118 -46q-90 0 -133 59l45 47q35 -47 88 -47q41 0 69.5 26.5t28.5 72.5q0 61 -69 102q-41 26 -64.5 57t-23.5 81q0 76 47.5 122t116.5 46q79 0 118 -47
zM403 754l-131 -144h-53l116 144h68z" />
    <glyph glyph-name="caron.sc" 
d="M328 753l-125 -144h-65l-76 144h55l55 -109l94 109h62z" />
    <glyph glyph-name="d.sc" horiz-adv-x="446" 
d="M421 340q0 -146 -69.5 -243t-190.5 -97h-124l95 550h124q83 0 124 -56.5t41 -153.5zM354 336q0 74 -28 115t-80 41h-59l-74 -434h58q80 0 131.5 81t51.5 197z" />
    <glyph glyph-name="cdotaccent.sc" horiz-adv-x="395" 
d="M425 497l-49 -44q-27 48 -81 48q-51 0 -92.5 -50t-61.5 -118.5t-20 -136.5q0 -67 24.5 -107.5t72.5 -40.5q54 0 97 52l36 -43q-59 -69 -145 -69q-73 0 -113.5 56.5t-40.5 148.5t31 176t89.5 138.5t129.5 54.5q87 0 123 -65zM368 701q0 -23 -14 -38.5t-35 -15.5
q-17 0 -27.5 11.5t-10.5 28.5q0 21 14 37.5t34 16.5q18 0 28.5 -11t10.5 -29z" />
    <glyph glyph-name="f.sc" horiz-adv-x="333" 
d="M361 550l-11 -60h-163l-32 -182h152l-10 -58h-151l-43 -250h-66l95 550h229z" />
    <glyph glyph-name="commaaccent.alt" 
d="M123 569l91 184h51l-82 -184h-60z" />
    <glyph glyph-name="tcaron.sc" horiz-adv-x="290" 
d="M340 550l-10 -57h-105l-86 -493h-66l86 493h-105l10 57h276zM370 753l-125 -144h-65l-76 144h55l55 -109l94 109h62z" />
    <glyph glyph-name="gdotaccent.sc" horiz-adv-x="438" 
d="M425 496l-49 -43q-23 48 -81 48q-51 0 -92.5 -51t-61.5 -120.5t-20 -136.5t27 -107t81 -40q42 0 69 21l31 176h-79l11 58h143l-46 -267q-61 -46 -139 -46q-81 0 -124 55t-43 149q0 89 30.5 173t89.5 140.5t130 56.5q88 0 123 -66zM366 701q0 -23 -14 -38.5t-35 -15.5
q-17 0 -27.5 11.5t-10.5 28.5q0 21 14 37.5t34 16.5q18 0 28.5 -11t10.5 -29z" />
    <glyph glyph-name="gcommaaccent.sc" horiz-adv-x="438" 
d="M245 -45l-91 -184h-51l82 184h60zM425 496l-49 -43q-23 48 -81 48q-51 0 -92.5 -51t-61.5 -120.5t-20 -136.5t27 -107t81 -40q42 0 69 21l31 176h-79l11 58h143l-46 -267q-61 -46 -139 -46q-81 0 -124 55t-43 149q0 89 30.5 173t89.5 140.5t130 56.5q88 0 123 -66z" />
    <glyph glyph-name="gcircumflex.sc" horiz-adv-x="438" 
d="M425 496l-49 -43q-23 48 -81 48q-51 0 -92.5 -51t-61.5 -120.5t-20 -136.5t27 -107t81 -40q42 0 69 21l31 176h-79l11 58h143l-46 -267q-61 -46 -139 -46q-81 0 -124 55t-43 149q0 89 30.5 173t89.5 140.5t130 56.5q88 0 123 -66zM441 610h-56l-55 110l-94 -110h-62
l127 144h65z" />
    </font>
</defs>
</svg>
