<?xml version="1.0" standalone="no"?>
<!DOCTYPE svg PUBLIC "-//W3C//DTD SVG 1.1//EN" "http://www.w3.org/Graphics/SVG/1.1/DTD/svg11.dtd" >
<svg xmlns="http://www.w3.org/2000/svg">
<metadata></metadata>
<defs>
<font id="rage_italicregular" horiz-adv-x="1024" >
<font-face units-per-em="2048" ascent="1638" descent="-410" />
<missing-glyph horiz-adv-x="512" />
<glyph horiz-adv-x="2048" />
<glyph horiz-adv-x="2048" />
<glyph unicode="&#xd;" horiz-adv-x="512" />
<glyph unicode=" "  horiz-adv-x="512" />
<glyph unicode="&#x09;" horiz-adv-x="512" />
<glyph unicode="&#xa0;" horiz-adv-x="512" />
<glyph unicode="!" horiz-adv-x="612" d="M674 983l-10 -8l-27 -49q-2 -6 -8 -13l-13 -18q-6 -21 -17 -34t-14 -25.5t-9.5 -19.5t-14.5 -40l-22 -67l-13 -17v-12q0 -6 -16 -16v-35q-11 -15 -23 -39l-9 -67q-10 -89 -29 -105l-13 -12q-5 -11 -20 -11q-8 0 -35 27l-12 4q-17 8 -33.5 38t-16.5 56q0 35 9.5 50.5 t10.5 23.5l51 134q30 80 65 132l14 39l10 12l10 39q4 4 13 11q15 50 29 66.5t20 39.5t15 28t14.5 32t37.5 36l-6 13v2q0 2 12.5 18t36 85t60.5 69q19 0 54.5 -49.5t35.5 -73.5q0 -31 -39 -77t-60.5 -87t-27 -58.5t-10.5 -21.5zM383 307l8 -8q20 -20 22.5 -31.5t10.5 -24 t8 -22.5q0 -4 -12 -18.5t-19.5 -63.5t-50.5 -49q-37 0 -53 19q-17 0 -22.5 4.5t-18 31.5t-21 36t-8.5 26q0 22 16 41.5t23 40.5q31 31 42 32t18.5 4t17.5 3q18 0 39 -21z" />
<glyph unicode="&#x22;" horiz-adv-x="868" d="M571 930h-4l-8 -4q-8 0 -33 24l-10 4q-14 7 -29.5 33.5t-15.5 48.5q0 6 6 16.5t10.5 39t30.5 36.5q10 3 10 9q0 2 -2 6v2q0 4 18.5 32t32 77t46.5 49q16 0 49 -44.5t33 -66.5q0 -31 -19 -56t-50.5 -74.5t-34.5 -68.5l-7 -37q-19 -18 -23 -26zM829 930h-4l-10 -4 q-8 0 -33 24l-10 4q-14 7 -29.5 33.5t-15.5 48.5q0 6 6 16.5t11.5 39t31.5 36.5q10 5 10 9q-4 4 -4 10l4 8q19 25 19 31l14 28q6 17 18.5 53t43.5 36q16 0 49 -44.5t33 -66.5q0 -31 -22 -59q-71 -95 -77 -119.5t-10 -41t-11 -23.5t-14 -19z" />
<glyph unicode="#" d="M253 309l2 17q1 5 9.5 18.5t13 24t7.5 12.5t10 18.5t12 20.5t10.5 21.5t19.5 25.5q0 12 12.5 28t12.5 31q0 9 -19 9h-10l-21 6q-4 2 -12 2h-8l-27 -4q-37 0 -37 53q0 35 35 35l35 10q2 0 9 -4t9 -4l13 2l51 -4h6q45 0 50 29.5t26 48.5q2 0 5 8t17.5 22.5t14.5 28.5 q0 8 -35 8h-12l-13 4q-4 2 -14 2h-6l-25 -2q-39 0 -39 53q0 31 41 35l13 4q12 4 16 4q2 0 9 -2.5t38 -7.5h6q74 0 78 17.5t8 17.5q21 22 31 51t23 37q-1 10 20 39l4 12q2 6 7 9.5t13 21.5t12 24.5t7 10.5l4 14q0 10 8 12t17 23l8 16l2 13q14 62 41 96l6 24q1 3 21 15l4 6 q14 20 22 22h4l27 3q8 0 24.5 -23.5t16.5 -38.5q0 -50 -39 -94l-10 -33l-45 -67l-13 -29q-6 -21 -19 -29t-13 -16q-2 -45 -37 -72q-6 -8 -11.5 -28.5t-16.5 -28.5t-11 -13q0 -6 20 -6q19 0 24 2t9 2t9 -2t9 -2q3 0 7 2h4l35 -2q4 0 5 2t3 2l27 -5q28 0 40 22q0 4 6.5 12 t11.5 20.5t11 17.5t10 21.5t10 18.5l9 6q1 7 9 21t11.5 25t11 18.5t16.5 28t13 24.5l4 14q2 6 10 12.5t15 22.5l8 16l2 13q6 37 25 69q11 12 24 51l2 5q19 10 28 23t15 15h4l27 3q8 0 24.5 -22t16.5 -38q0 -55 -39 -94l-10 -35q-15 -22 -47 -67l-15 -39q-4 -13 -16 -19 t-14 -16q0 -45 -35 -72q-6 -6 -9.5 -20.5t-8.5 -22.5t-5 -10q0 -6 19 -6h8l16 -2q15 0 20 2t11 2q4 0 16.5 -5t26.5 -6.5t14 -9.5q15 -21 15 -24q0 -44 -35.5 -59t-59.5 -15q-8 0 -15.5 3t-12.5 3l-35 -6l-49 4q-7 0 -35.5 -48t-28.5 -60q0 -17 47 -17l25 4q4 0 15.5 -5 t24 -6t21.5 -17t9 -17q0 -42 -34 -58t-61 -16q-8 0 -12 3l-16 2l-43 -7q-15 0 -21 2.5t-14 2.5q-4 0 -11.5 -8.5t-17.5 -14.5t-11 -32.5t-36 -53.5q-6 -8 -11 -28.5t-19.5 -30t-16.5 -19.5q0 -45 -43 -78q-4 -4 -4 -10q0 -25 -22.5 -59.5t-30.5 -48.5l-15 -15 q-4 -6 -17 -35.5t-38 -29.5q-11 0 -34 12t-23 35l2 12q6 10 8 26.5t18 26.5q43 65 74 127v15q0 2 20.5 36.5t28.5 55.5q4 2 12.5 22t20.5 27q2 12 13.5 29.5t11.5 23.5q0 10 -43 17q-2 2 -7 2q-12 0 -20 -3.5t-18 -3.5q-7 0 -16 4.5t-15 6.5q-80 -23 -80 -47 q-2 -45 -22.5 -61.5t-25.5 -38t-19.5 -30t-14.5 -18.5q-2 -47 -43 -78q-6 -4 -6 -10q0 -20 -18.5 -48t-32.5 -60l-17 -15q-4 -6 -17 -35.5t-38 -29.5q-6 0 -10 2l-15 6q-33 7 -33 33q0 4 7.5 35t21.5 36q9 19 16 25t11 18zM708 635l20 -2q8 8 13.5 33.5t15.5 32t14 20.5 q25 22 25 37q0 8 -17 8l-32 8q-2 2 -7 2q-12 0 -20 -3t-18 -3q-7 0 -27 12h-4l-31 -10q-33 -10 -58.5 -64.5t-25.5 -64.5q0 -8 12 -8q7 0 16 2t13 2q2 0 14 -6l9 4h10l24 -2q7 0 11 2h4q2 0 10 -2q2 -2 10 -2q15 0 19 4z" />
<glyph unicode="$" d="M-18 279v4l47 -17q2 0 7 3t9 3q8 0 14.5 -7t18.5 -13h6l12 4q0 -2 17 -6h24l8 -2q9 -2 13 -2l24 4h11l28 -4q39 0 43 26q28 62 49 93q3 3 6 14t16.5 37t29.5 57l30 57l2 17q6 18 21.5 41.5t28 50.5t14.5 41t16.5 31.5t20.5 33t12 26.5q18 34 18 52q0 2 -12 5t-26 3 q-61 0 -94.5 70.5t-33.5 99.5q0 74 54 105q24 20 27.5 28t29 19.5t34.5 24t17 12.5q13 0 19 -2q19 25 63.5 40t71.5 27l39 11l20 10q6 4 25 6q51 37 55 90q4 17 22.5 29t18.5 16t-2 13v4q0 32 21 32q28 0 28 -36q0 -9 -5 -18t-8.5 -40t-55.5 -53q-5 -2 -5 -8q0 -8 9 -8 q8 0 16 2h47q19 0 27 6q8 0 33 53v12q0 6 15.5 22t23.5 39t17 33.5t9 20.5h4q3 0 19 -6h4q20 0 20 -25q0 -24 -24 -74l-31 -79q0 -7 28.5 -11t32.5 -8l2 -10q33 -31 33 -72q0 -37 -13 -71.5t-30 -34.5q-12 0 -23.5 26t-11.5 31q0 12 12.5 22.5t12.5 14.5q0 27 -45 27 q-54 0 -62.5 -7.5t-20 -32t-21 -30.5t-11.5 -10q4 -25 4 -27q0 -14 -18 -31l-35 -104q0 -8 45 -21l8 -4q13 -6 34.5 -14.5t39.5 -32.5l4 -2q32 -24 51 -112t19 -109l-2 -29l2 -16l-8 -23q0 -2 3 -12t3 -18t-11.5 -19.5t-15.5 -33.5t-13 -29.5t-9 -11.5q0 -14 -25.5 -51.5 t-52.5 -58.5l-64 -52q-10 0 -18 -15q-21 -16 -35 -20q-2 0 -43 -24.5t-70 -32.5l-24 -15q-2 -4 -65 -23.5t-86 -21.5t-31 -20.5t-37 -77.5q-13 -12 -27 -12q-4 0 -12 11t-8 15l2 17l-5 22q0 13 -14 17l-82 -11q-3 0 -21 -24.5t-23 -46t-38 -21.5q-6 0 -24.5 22.5t-18.5 27.5 q0 1 6 26q-12 10 -31.5 11t-35.5 9l-17 7q-18 8 -28 14l-17 6q-19 13 -48 57.5t-29 51.5zM707 979l18 -2l35 4h12q2 -2 6 -2t8 14l43 91q5 16 7 18l10 2q10 10 10 12l-2 14q0 4 17.5 26t17.5 40q0 8 -6 8q-10 -9 -17 -12l-30 2q-19 0 -88 -43q-3 -4 -7 -41 q-18 -53 -38.5 -92t-20.5 -41t2 -4q4 0 11 3.5t12 2.5zM573 1079l-47 -28q-54 -34 -59 -51q-2 -7 -5 -9t-3 -12q0 -25 73 -25q5 0 14 2t27 2q19 0 31 23l12 14q10 10 16.5 34t26 41t19.5 38q0 16 -6 16l-2 -2q-39 -8 -97 -43zM608 623q27 30 36 53.5t12 29t23 54.5t32 67 q0 4 -29 4l-34 -2q-17 0 -19 -1t-13.5 -18t-22.5 -25.5t-15.5 -34t-24.5 -60.5l-33 -76q-8 -19 -14 -27.5t-24.5 -57t-22.5 -53.5t-6 -23l-7 -17q-4 -8 -4 -12v-8l-4 -2l2 -11q-2 -4 -5 -13t-23 -28l-2 -4v-34q-19 -19 -19 -31q8 -6 25 -6q4 0 22 12l33 4q4 2 8 12l15 31 q13 20 18 45q10 10 27 43l53 131q11 28 16 43v15zM651 373l15 14q10 2 20 2q25 0 91.5 47.5t84.5 69.5q6 8 14.5 15.5t18.5 29.5q12 6 23 20l12 7q41 51 57 165v5q0 38 -65.5 56.5t-79.5 18.5l-15 -4l-49 2q-6 0 -8 -12t-36.5 -77.5t-45.5 -100.5l-18 -64l-15 -28l-34 -101 q-3 -4 -9 -7t-18 -34l-25 -47q-2 -2 -2 -6q0 -6 6 -6q2 0 31 14l14 4q25 9 33 17z" />
<glyph unicode="%" horiz-adv-x="1008" d="M473 502l10 4q13 5 33 55l62 76q10 10 32.5 44t34 41.5t17.5 16.5q12 3 12 9q0 2 -2 8v10q0 5 13 16t23.5 26t29 33.5t26.5 34t14 15.5q4 0 8 -2q11 18 25 31q0 15 33 53l8 12q6 10 16 16l19 19l14 10q6 4 14 12v15q0 10 14.5 21.5t26.5 25.5l37 39l27 20l10 15 q19 16 35 26q25 29 27 37q-19 14 -21 14q-6 0 -14 -22q-5 -2 -21 -4q-4 -14 -11 -18.5t-11 -11.5t-19 -7h-4q-2 2 -4 2q-12 0 -22 -12t-21 -21q-6 -20 -20 -20q-9 -11 -19 -25l-16 -8l-15 -16l-18 -11q-45 -32 -63 -57l-54 -45h-10q-12 0 -26.5 -18.5t-24.5 -24.5l-19 -18 q-6 -7 -12 -7q-8 0 -12 2q-20 -25 -43 -34l-10 -7h-2q-2 0 -8.5 6.5t-14.5 6.5q-16 0 -16 -29q-6 -5 -40.5 -19t-49.5 -25t-23 -11q-22 0 -49 16.5t-27 44.5q0 57 2.5 72t32 41t35.5 41q43 43 59 45l13 8q6 6 18 12q20 37 68 56q7 6 61 39q4 -2 6 -2q8 0 28.5 14t24.5 14 l19 -4l65 19q13 0 13 -11l-2 -22q2 -4 8 -4q8 0 16 9q35 40 74 46q41 16 59 27l19 2l16 12q12 -2 19 -2q10 12 34 16h9l4 8l59 19q90 28 94 41q17 6 36.5 17t29.5 11q14 0 27.5 -18t13.5 -35q0 -43 -35 -102l-21 -45q-4 -12 -22 -12q-19 0 -65 -38.5t-66 -68.5 q-21 -21 -41 -37t-36.5 -37.5t-23 -28.5t-17.5 -15.5t-38 -22.5l-47 -62l-22 -18q-8 -27 -38.5 -42t-54.5 -81l-4 -2h-14l-4 -2q-4 -28 -8 -33l-13 -6q-1 -3 -6 -31q-27 -7 -38 -27t-31.5 -45.5t-28.5 -36t-23 -24.5l-10 -14q-12 -13 -18 -16t-9.5 -32.5t-35.5 -58.5 l-72 -112q-13 -26 -37 -103l4 -20l-4 -31q25 -57 25 -78q0 -52 -13 -77t-53 -25l-29 4q-51 4 -59 25.5t-20.5 44t-12.5 69.5q0 10 4.5 25.5t4.5 27.5q0 23 15 45.5t18 35t10 20.5q0 16 30 55q13 25 27 55q33 48 53 68l35 59zM750 1141l-17 -4l-10 2q-55 0 -64.5 -16.5 t-13.5 -22.5l-20 4q-4 0 -19.5 -19.5t-32.5 -19.5q-32 -48 -69 -72.5t-53 -58.5q12 6 26 11t78.5 47t71 53t69.5 47l21 20h8q29 0 29 21q0 4 -4 8zM811 561h10q6 0 15.5 7t15.5 7t6 -14q0 -16 -9 -25.5t-9 -19.5q8 0 18 6q6 0 17.5 4t17.5 4t22.5 -30.5t18.5 -48t6 -31.5v-4 q0 -10 -7 -16.5t-9 -19.5t-14.5 -20.5t-20.5 -15.5q-3 -25 -27 -52.5t-39 -31.5l-61 -61q-4 -2 -15.5 -6.5t-23 -12.5t-37.5 -20l-24 -13q-64 0 -82 70l-11 23q-10 16 -10 43q0 14 21.5 45.5t33.5 44.5l11 22q24 27 66 67t44 44q14 1 68 49zM803 393v4q-33 -4 -33 49 q0 13 16.5 26t16.5 15q0 5 -4 5q-23 0 -40.5 -39t-27.5 -50h-18q-4 0 -20 -28t-25 -72l-6 -8q-23 -3 -23 -29q0 -39 10 -39q2 0 7.5 4.5t29 15.5t39.5 32.5t25.5 33t17.5 25.5l6 4q12 12 19 31l8 14q2 4 2 6z" />
<glyph unicode="&#x26;" horiz-adv-x="1466" d="M561 907q0 4 4 15l-4 10q0 29 13.5 45t33 52t34.5 47t30.5 32.5t30 32t28.5 30.5l35 23q10 4 18 15q31 42 58 42q6 2 43 20.5t61 32t64 21.5l12 8q2 0 4 2l37 -4l57 12l37 -6q36 -28 55 -110v-21q0 -22 -7 -35.5t-16.5 -36t-42 -39t-36.5 -16.5q-6 0 -17.5 9.5 t-18.5 13.5t-7 16q0 41 35 61.5t37 57.5l2 6q-4 2 -8 2h-5l-20 8q-2 0 -10 -3t-13 -3l-24 4l-34 -12q-13 -4 -21.5 -14.5t-24 -18t-44 -26t-51.5 -43t-46 -49.5t-33 -48l-23 -22l-10 -6q-2 0 -4 -9.5t-13.5 -21.5t-11.5 -20l-6 -13q-6 -6 -6 -28q0 -7 17 -15l6 -4 q12 -7 51 -10q16 8 37 8l47 8q6 0 22 -4h9q4 0 39.5 15.5t56 16.5t31 5t20.5 6t24.5 10.5t25.5 10.5t21.5 17t22 25.5t19.5 20.5l36 56q36 57 50 57q20 0 28 -17l13 -18q4 -6 8 -39l4 -16q-7 -36 -47 -62q-10 -4 -10 -20l6 -8q35 20 51 20q4 0 45 -12q7 9 33 15.5t39.5 12 t24 2t12.5 -3.5l38 3q20 0 29.5 -18.5t17.5 -24t13.5 -34t5.5 -32.5q0 -6 -15.5 -15.5t-27.5 -9.5q-8 0 -22.5 3t-22.5 3h-12l-33 -4q-4 0 -25 6q-64 -14 -90 -14l-22 6q-3 0 -16 -8t-23 -8q-15 0 -20 2t-9 2t-12 -7t-12 -7h-25q-4 0 -6 -19l-4 -6q-13 -4 -13 -14 q-11 -17 -28 -31q-2 -14 -10.5 -26.5t-15.5 -29t-19 -9.5l-13 -9q-16 -47 -34 -49q-9 -8 -13 -21.5t-8 -21.5l-4 -10l-16 -23l-7 -22l-10 -2q-4 -8 -9 -19.5t-15 -17.5l-2 -2v-12q0 -17 -19 -21l-10 -6q-2 -4 -6 -10q2 -6 2 -21q0 -8 -19 -30l-6 -29q-12 -10 -12 -14l2 -21 l-8 -14q3 -32 6 -35q8 0 18 -4h13q18 0 30 -6q13 4 20 4t16 8t14 8l20 -2q8 0 18 10l60 39l37 20q19 11 36 24.5t21 13.5l19 -2q10 20 12 20l12 4q11 16 24 25.5t17 15.5t15.5 13.5t19.5 19.5t22 12q7 0 13 -12l8 -10q6 -9 6 -11l-8 -24l2 -19q-10 -16 -12 -21t-12.5 -11.5 t-18.5 -18.5l-55 -59q-21 -22 -27 -25q-2 0 -12 -10q-5 -24 -13 -27q-14 4 -16 4q-16 0 -27 -30h-8q-4 0 -37 -19l-22 -10l-17 -2q-33 -31 -55 -31l-20 2q-2 0 -45 -10l-33 -10q-10 0 -29 24q-8 4 -21.5 11.5t-19.5 19.5l-8 10q-10 11 -13 17t-18 20q-8 35 -10 35 q-4 0 -8 -12q-12 -6 -43 -53l-6 -7l-15 -2q-2 0 -16 -20.5t-30.5 -27.5t-23.5 -14t-20.5 -11t-24 -12.5t-22.5 -16.5l-16 2q-6 0 -19.5 -11.5t-21.5 -11.5l-25 9q-22 -13 -35 -23h-4l-12 2h-4l-16 -4h-7q-8 0 -18 7t-16 7q-7 0 -20 -8t-23 -8q-13 0 -31 12l-74 33 q-9 4 -27 6q-46 16 -75 73t-29 81q0 87 22.5 142t38.5 59q34 58 58 67l10 12l16 11l37 32l6 9q9 0 33 24q10 4 17 6l16 17q10 18 70 39l55 32l10 -2q17 11 24 13t25.5 14t47 18.5t28.5 20.5q-2 2 -16 10q-63 42 -66 80v12zM449 223l22 8q6 2 16 2h5l6 -2q32 0 67 31 q2 2 8.5 4t10.5 5t15 6.5t15 7.5t13 4q11 0 28 20h13q9 0 19.5 14.5t23.5 18.5l4 2l12 23q11 5 23 12l12 2q5 19 28 38t44 81q4 10 13 19t23.5 43.5t20.5 47.5l24 -4q7 6 7 12q0 5 -6.5 9t-6.5 6q0 29 21 43q4 16 18 20q-2 2 -2 6q0 3 5 9t10.5 14t10.5 12t15 26t21.5 28.5 t11.5 11.5q0 8 -8 8q-2 0 -7.5 -2t-32 -4t-37.5 -8t-23 -6t-34 -10l-22 -9l-25 2l-22 -6l-12 4q-27 -10 -51.5 -16t-35 -14.5t-34.5 -16.5t-23 -20q-2 -5 -26 -13l-4 -2l-2 -10q-6 -4 -13 -6l-12 -8l-10 -2q-8 -14 -39 -21q-19 -12 -26 -21.5t-15 -15.5l-6 -10l-19 -8 q-12 -27 -22 -27h-15q-16 -12 -36.5 -39.5t-40 -46t-27.5 -55.5l-14 -6q-15 -23 -15 -34t-6 -40v-2l2 -10l-2 -47q0 -21 18.5 -28t28.5 -13.5t29 -10.5l10 -6h4l21 2l16 -6q5 0 17 4z" />
<glyph unicode="'" horiz-adv-x="612" d="M571 930h-4l-8 -4q-8 0 -33 24l-10 4q-14 7 -29.5 33.5t-15.5 48.5q0 6 6 16.5t10.5 39t30.5 36.5q10 3 10 9q0 2 -2 6v2q0 4 18.5 32t32 77t46.5 49q16 0 49 -44.5t33 -66.5q0 -31 -19 -56t-50.5 -74.5t-34.5 -68.5l-7 -37q-19 -18 -23 -26z" />
<glyph unicode="(" horiz-adv-x="911" d="M535 874l8 21q22 55 51 84q-2 24 45 72q24 47 29 59q6 2 22 4q10 12 31 29q7 32 33 46.5t32 24.5l68 72l100 78l13 6l12 12l8 4l19 17h4q9 0 33 22.5t51 22.5q24 0 24 -27q0 -22 -37 -26q-4 0 -8 -4v-21q0 -18 -37 -20q-4 -2 -16 -15.5t-30.5 -19.5t-32.5 -29l-15 -24 q-10 -17 -12 -17l-21 -8q-2 -4 -12 -19.5t-14 -25.5q-4 -3 -27 -12l-24 -49q-12 -23 -32 -48.5t-32 -54.5q-25 -37 -45 -57q-18 -10 -18 -31q-17 -26 -19 -41q-30 -68 -38.5 -86t-20.5 -53l-17 -33l-14 -41q-2 -6 -8 -14l-23 -31l-2 -10l8 -27v-4l-16 -33l-6 -69l2 -23 l-10 -51l2 -29l-2 -20l4 -47l-8 -29q0 -6 5 -25.5t7 -46t16 -43.5l-6 -30q6 -21 57.5 -91t51.5 -83q0 -17 -19 -17q-49 0 -82 62q-4 6 -16 19t-18.5 27.5t-22.5 26.5q-29 36 -39 72l-12 16q-27 27 -27 52l12 10q2 0 2 4q0 10 -6.5 22.5t-15 50.5t-8.5 40l2 28l-2 31l2 12 q0 4 -6 25v6q0 4 4 21.5t4 27.5q0 15 10 39v8l6 21v2l-4 30l19 74q2 8 17 21.5t15 46.5l13 24q6 13 6 17l-4 26z" />
<glyph unicode=")" horiz-adv-x="911" d="M674 1208l-15 19l-10 10q-8 4 -10 37q-11 13 -14 18v15q-5 2 -14 21.5t-13 23.5q-43 27 -43 51q0 22 14 22q49 0 97 -73q4 -6 16 -21q63 -81 75 -143.5t25 -95.5t13 -86l6 -43l-6 -23q-2 -4 -2 -14q0 -13 5 -48.5t5 -46.5l-17 -71l7 -55l-9 -30q-9 -35 -21.5 -56 t-16.5 -62.5t-21 -77.5l-47 -94l-11 -31q-14 -36 -26 -49.5t-14 -25t-9.5 -14.5t-15.5 -11l-2 -21q-10 -14 -45 -28q-4 -4 -10 -15.5t-15.5 -17.5t-17.5 -16l-4 -2h-4q-11 0 -18 -21.5t-17 -25t-16 -11.5l-19 -8l-14 -18q-4 -4 -17.5 -9.5t-20.5 -9.5t-24 -10l-12 -8 q-31 -31 -41 -31l-16 2v-2q-21 -11 -33 -28t-41 -17q-12 0 -12 16q0 19 35 43l55 54q18 24 33.5 37.5t47.5 47.5t32 42q0 21 22.5 38t22.5 19l2 18q17 15 41 58l10 8q1 1 26 72l33 57l2 25q24 77 44.5 108.5t21 41.5t1.5 24t30 73l-7 47q23 12 23 15q0 4 -3 11t-3 13t11 59 l13 70v4q0 3 -6 29v4q0 4 4 31l-8 88q-2 19 -14.5 40t-12.5 30q0 15 15 28z" />
<glyph unicode="*" horiz-adv-x="793" d="M848 1221l-23 -21q-4 -4 -25.5 -16.5t-21.5 -18.5q0 -10 35 -55t35 -63l-5 -26q-5 -28 -22 -28q-35 0 -55.5 34t-36.5 34q-8 0 -17.5 -53.5t-39.5 -53.5q-15 0 -28 21.5t-13 48.5q0 4 4 11l22 61q0 12 -12 12q-41 0 -123 -59q-8 -5 -10 -5q-20 0 -20 29q0 24 10 33.5 t35.5 18t40 20.5t33 16t36.5 23q-18 41 -39.5 65.5t-21.5 55.5q0 20 16 20q10 0 41 -27l19 -14q24 -20 30 -29.5t13 -9.5q6 0 6 10q0 9 11 25t11 20v21q0 6 15 14q4 8 4 11v4l-7 22q0 14 25 14q49 0 49 -65q0 -12 -22 -27l-9 -24v-8l-2 -9q0 -6 5 -6l37 21l14 18 q10 10 30 10q29 -21 29 -26q0 -6 -13.5 -24.5t-39.5 -24.5z" />
<glyph unicode="+" d="M1008 799h22q10 0 18 -14l17 -27q0 -58 -40.5 -75t-66.5 -17l-32 8l-45 -8l-105 10q-4 0 -24 -6l-13 -2q-16 -2 -18 -11.5t-10.5 -19.5t-8.5 -14q0 -1 -14 -37v-17q0 -3 -6.5 -40t-17.5 -55.5t-17 -49.5q-4 -6 -15 -16.5t-18 -24.5t-14 -14l-20 2q-9 -4 -11 -4 q-16 0 -35.5 28.5t-19.5 50.5q0 62 15.5 84.5t19.5 55t37 82.5q4 4 4 6q0 6 -6 6q-4 0 -17.5 -6t-23.5 -6q-47 0 -89 5t-53 5h-8l-28 -2q-30 0 -42 23t-12 44q0 29 35 40.5t47 11.5q2 0 11.5 -5.5t11.5 -5.5l14 4q23 -8 25 -8l84 4l32 -2q4 0 16.5 4.5t26.5 5.5t16 6t10 24 t23 32.5t15 17.5v9q-2 2 -2 10q0 16 16 47l15 33q17 38 32 57l21 49q14 31 35 31q15 0 46.5 -14t31.5 -38q0 -11 -4.5 -40t-13.5 -37t-12 -17.5t-10.5 -17.5t-20.5 -42t-15 -44l-11 -20q-8 -13 -8 -25q0 -27 19 -27q12 0 43.5 11.5t64.5 11.5h6l33 -4l33 8z" />
<glyph unicode="," horiz-adv-x="502" d="M125 111l6 12q4 8 7 11t15.5 28.5t45.5 30.5q10 10 28 10q24 0 57 -45.5t33 -57.5q0 -16 -22 -37q0 -32 -19.5 -55.5t-24.5 -35t-13 -17.5q0 -2 -35 -47.5t-51 -45.5l-43 15q-13 2 -13 10q0 27 28 52.5t32 52.5q-41 41 -41 94q0 4 10 25z" />
<glyph unicode="-" horiz-adv-x="498" d="M170 397h12q21 0 31 4q6 -4 16 -4q2 0 9 2h28q10 0 35 9h2q10 -7 16 -7h5l18 5q37 0 90 -19l19 6q8 0 22 -8l8 -2q2 -23 2 -33q0 -26 -14 -35.5t-34.5 -27t-37.5 -17.5l-22 6h-6l-23 -4q-4 -2 -12 -2q-17 0 -31.5 10.5t-17.5 10.5l-58 -8l-20 6q-2 2 -8 2t-23.5 -5 t-28.5 -5q-8 0 -20 5t-18 5q-9 0 -24 -4t-26 -4q-10 0 -26 16l-4 2h-21q-22 0 -22 41q0 6 12 22.5t24.5 17.5t26.5 7t43 6l29 -6h4z" />
<glyph unicode="." horiz-adv-x="502" d="M274 139l19 -14q14 -8 14 -35q0 -6 -5 -14t-9 -17q-35 -69 -82 -69q-15 0 -47 27t-40.5 49t-14 28t-5.5 10q0 11 8.5 24t12.5 32.5t21.5 29t25.5 18.5t21 9q8 0 16 -7t22.5 -14.5t29.5 -32.5z" />
<glyph unicode="/" horiz-adv-x="932" d="M373 502l10 4q13 5 33 55l61 76q10 10 32.5 44t34.5 41.5t17 16.5q12 3 12 9q0 2 -2 8v10q0 5 13.5 16t23.5 26t28.5 33.5t27 34t14.5 15.5q4 0 8 -2q10 18 25 31q0 18 15 33.5t26.5 33t33 32.5t29.5 23v15q0 10 14.5 21.5t26.5 25.5l14 12l13 17q10 10 37 32l10 13 q5 8 35 26l57 76q37 50 78 72l6 6l45 22q10 6 20 6q15 0 28 -18t13 -35q0 -43 -34 -102l-21 -45q-4 -12 -22 -12q-19 0 -65.5 -38.5t-65.5 -68.5q-21 -21 -41 -37t-37 -37.5t-23.5 -28.5t-17 -15.5t-37.5 -22.5l-47 -62l-23 -18q-7 -27 -38 -42t-54 -81l-4 -2h-14l-4 -2 q-5 -28 -9 -33l-12 -6q-2 -3 -6 -31q-28 -7 -38.5 -27t-31.5 -45.5t-29 -36t-22 -24.5l-10 -14q-12 -13 -18.5 -16t-9.5 -32.5t-36 -58.5l-49 -76l-10 -20l-12 -16q-13 -26 -37 -103l4 -20l-4 -31q24 -57 24 -78q0 -52 -13 -77t-52 -25l-29 4q-52 4 -59.5 25.5t-20 44 t-12.5 69.5q0 10 4 25.5t4 27.5q0 23 15.5 45.5t18.5 35t9 20.5q0 16 31 55l27 55q33 48 53 68l16 31l19 28z" />
<glyph unicode="0" horiz-adv-x="1061" d="M209 301l-8 8q-6 6 -6 15l-7 90q0 8 6.5 47.5t15.5 55t9 18.5q0 8 -2 14q10 24 17.5 29.5t11.5 9.5q-6 12 -6 16q0 14 8 23l20 45q4 10 15 10l4 2h4q4 0 10 -2h4q4 0 4 4t-4 4l-4 -2h-6q-8 0 -8 6l10 30q10 34 51 44q2 2 2 10l-12 -4q-4 9 -4 10q0 31 33 64q2 2 26 36 t51 34l13 16q0 2 -5.5 5t-5.5 7t17 28t37 36l6 8q23 35 41 41l37 43q21 23 46 44.5t32 22.5l38 33q19 15 39 25l17 16q10 10 41 19q21 26 48 40.5t29 14.5q52 0 52 -21q0 -1 -13 -14.5t-30 -17.5q-19 -15 -29 -39l55 14l60 -4q4 0 10 2l8 -8q27 -4 33 -6q15 -19 27 -27 l22 -25l18 -14q18 -18 35 -59t19 -45t3 -13.5t11 -29t10 -27.5q0 -6 -6 -16q4 -11 4 -19l-10 -18l4 -35l-8 -29v-24q0 -13 -8 -30t-9.5 -22.5t-9.5 -21.5q4 -16 4 -18q0 -15 -16 -15q-15 0 -15 -16l3 -33q0 -20 -20 -40q-9 -9 -9 -36q0 -12 -8 -22t-20.5 -38t-34 -41 t-22.5 -31.5t-20.5 -27t-19.5 -10.5q0 -16 -26.5 -45.5t-26.5 -32.5l-47 -59q-47 -61 -88 -63q-4 0 -18 -15q-56 -61 -130 -75q-16 -7 -35 -15t-41 -8l-18 2q-15 -16 -25 -16q-14 0 -28.5 7t-26.5 9h-4q-6 0 -12 -6l-8 -4q-23 6 -39.5 18.5t-42.5 26.5l-74 69q-10 10 -25 33 zM825 1235q-8 0 -8 -8q0 -10 10 -10q19 0 19 8q-10 10 -21 10zM319 223l5 2q6 -7 34 -12l23 -4q29 0 45 12l23 8q92 35 145 78h16q4 0 6.5 13t32.5 22l6 4q20 52 62 66q15 23 26 32l17 19q6 10 26 26t60.5 64.5t44.5 58.5l8 17q9 4 14.5 7t16 28.5t26.5 42.5q9 5 9 12 q0 4 -3.5 10t-3.5 8q0 6 10.5 13.5t12.5 15.5l8 22q10 21 12.5 33.5t6.5 14.5q0 10 8 18q5 35 9.5 48t9.5 32.5t16 38.5q-4 18 -4 22l10 41l-4 20q0 3 -7.5 14t-7.5 24q0 4 -4 11t-6 18.5t-20.5 20.5t-30.5 9q-4 0 -16.5 -7t-63.5 -23.5t-80 -32.5q-8 -13 -22 -19l-22 -16 q-5 -4 -9 -4q-8 0 -12 16t-11 16q-58 -48 -73 -56t-15 -19q-4 -7 -10 -14t-16 -21l-15 -15q-18 -18 -24 -30l-10 -10q-13 -11 -18 -29t-6 -18v1q-1 0 -2 -0.5t-3 -3.5h-14q-9 0 -18 -37.5t-52 -66.5q-8 -16 -8 -41q0 -18 -35 -53q-2 -4 -6 -29q-29 -49 -45.5 -65.5 t-45 -132.5t-28.5 -138l2 -16q0 -23 11.5 -37t11.5 -16q0 -6 -5.5 -8.5t-5.5 -4.5l2 -2q2 0 6 2z" />
<glyph unicode="1" horiz-adv-x="537" d="M483 950l90 135q0 2 -4 7q-61 0 -61 49q0 24 32.5 41t47 31t35.5 25t39 34q0 2 16 6t34.5 13t30.5 9q80 -63 80 -81q0 -17 -17.5 -34.5t-22.5 -25.5t-27 -26q0 -3 -13 -21l-16 -33q-12 -24 -16 -30l-9 -17q-12 -24 -36 -51q-2 0 -16 -30l-32 -64q-8 -8 -24.5 -22 t-36.5 -77l-31 -77q-10 -27 -27 -50.5t-26 -68.5l-14 -17q-7 -23 -15 -75q-7 -14 -8 -22.5t-9.5 -13.5t-8.5 -28q0 -16 -8 -33l-17 -41q-14 -7 -14 -14q0 -4 2 -16v-4q0 -11 -3 -19t-6 -25.5t-10.5 -52t-7.5 -53.5l4 -20q0 -4 -8 -19l4 -16q0 -17 -22 -17q-50 0 -81.5 69.5 t-31.5 135.5l12 54v30q0 1 11 17l51 133l33 76q43 99 66.5 146.5t33.5 72.5l12 12q14 14 45 98z" />
<glyph unicode="2" horiz-adv-x="926" d="M537 623l-9 -15q-1 -2 -23 -12t-56.5 -48t-53.5 -42q-2 0 -10 -8.5t-18.5 -13.5t-26.5 -23.5t-24.5 -23.5t-18.5 -31q-23 -31 -43 -35q-4 -4 -4 -13q0 -43 35 -43q4 0 10 2t27.5 4.5t29.5 8.5t29 6h4l21 -2l69 14l14 6l33 -2q10 0 24.5 8.5t22.5 10.5q2 2 4 2l27 -2 l35 12l47 6q10 2 66 2q10 0 36 -4q2 -2 9 -2q4 0 23.5 3t35.5 3q68 0 74 -31l22 -45q13 -24 13 -32v-9l-5 -14l2 -14q0 -31 -14 -36t-20 -11h-2q-29 0 -50 37l-12 -5l-18 7q-8 -5 -25 -5q-6 0 -29 17h-4q-6 0 -17 -4t-15 -4q-2 0 -8.5 3t-10.5 3q-8 0 -43 -12l-139 -23 l-25 4q-27 0 -49 -15q-10 -7 -14 -7l-33 8l-147 -25q-6 -1 -15.5 9t-13.5 10q-2 -2 -7 -16.5t-24 -14.5q-45 0 -69 22q-2 2 -9 2l-20 5q0 4 -10 20l-9 27l-12 20q-10 17 -10 45q0 84 28.5 110.5t30.5 35.5q25 45 97 106l43 43q2 2 6 4.5t35.5 28.5t46.5 36t43 32l48 36 q32 30 101 70l6 6l21 6l12 13q16 12 39 12l80 49l38 15q20 10 44.5 23.5t52.5 20.5l27 11l20 18q8 6 31.5 15.5t36 19.5t45.5 24.5t33 42.5q0 19 -21.5 22t-33 11t-13.5 8l-55 -2l-13 4q-20 5 -26 5q-13 0 -27 -4.5t-22 -4.5l-31 9q-10 -3 -53 -21l-9 -2q-8 -8 -14 -8l-26 2 l-46 -21q-16 -12 -28.5 -16t-21.5 -11t-17 -7l-27 8q-6 0 -14 -10.5t-14 -10.5q-43 0 -43 84q0 29 27.5 60.5t51.5 31.5l78 11q4 0 27 -4h4l27 14q12 4 16 4l31 -2l73 10l87 -9q40 -5 51 -7l20 -2q41 0 94 -80q4 -8 26.5 -35t22.5 -72q0 -22 -22 -49l-4 -12q-2 -6 -32.5 -46 t-63.5 -40l-21 2q-10 0 -14 -6l-74 -49q-20 -17 -51 -31l-14 -10l-19 -4q-4 -2 -20 -20.5t-25 -18.5l-27 2q-12 0 -36.5 -23.5t-49.5 -40.5l-16 -18l-28.5 -9.5t-32 -18.5t-25.5 -16t-18 -9z" />
<glyph unicode="3" horiz-adv-x="950" d="M768 526l10 -10q8 4 13 19q13 5 61 51l22 12q54 38 54 64l-4 24l6 27q-23 22 -38 41.5t-40 19.5q-4 0 -21 -6h-4q-13 0 -30 14l-35 -4l-25 2q-2 0 -12 -4t-12 -4l-19 8h-2l-14 -8q-4 -2 -33 -2l-141 -16q-21 -3 -53 18l-9 4q-20 10 -41.5 43t-21.5 55q0 37 20 37 q7 0 11 -2h8q8 0 30.5 14.5t58.5 15.5t130 38q10 6 29.5 7t31 21.5t31.5 20.5h10q11 0 31 10h12q14 9 72 33l25 12q16 8 30 13l2 6q-14 8 -22 8l-37 -10h-4l-14 6h-5q-18 -12 -20 -12q-4 0 -14 10h-4q-3 0 -12 -8.5t-13 -8.5t-8 5q0 4 -4 4l-15 -7q-12 0 -24.5 7.5 t-18.5 7.5q-4 0 -14 -10.5t-23 -10.5q-24 0 -35.5 6.5t-15.5 6.5q-14 0 -54 -10.5t-50 -10.5h-2l-17 2q-30 0 -67 -16h-6q-13 0 -27 12l-23 14q-7 6 -26 35.5t-19 36.5q0 14 11.5 29.5t21.5 15.5q4 0 13.5 -4t15.5 -4q14 0 23.5 2t17.5 2q49 0 61 -4h11q2 2 6 2t10 -9t10 -9 q42 0 49.5 10t10.5 10q4 0 12 -10l12 2q2 0 6 -2h43l117 4l29 -4q71 0 86 6q10 -2 30 -2h19l10 -6h2q2 0 14 6h3q2 0 11 -3t32 -5q73 -45 73 -115q0 -41 -23.5 -49t-33.5 -17.5t-17.5 -11.5t-28 -14t-32.5 -18.5t-19.5 -11.5t-17.5 -5q-2 0 -19.5 -7t-31.5 -7 q-15 0 -23 -10.5t-26 -10.5q-4 0 -14 2q-7 -10 -19 -18q15 -11 49 -19l39 -12q9 -2 37 -35l14 -6q24 -17 33 -35l23 -18q11 -7 15 -38l7 -58q0 -6 -10 -21q14 -35 14 -39q0 -6 -8 -24l-2 -6q0 -25 -22 -48l-5 -12q-8 -24 -21 -34.5t-21.5 -26t-22.5 -23.5t-30.5 -29.5 t-37.5 -21.5l-8 -4q-20 -33 -33.5 -34t-29.5 -4l-24 -5q-7 -1 -11 -12t-10 -15q-41 -16 -62.5 -34.5t-40.5 -18.5q-6 0 -15 7t-14 7q-8 0 -33.5 -22.5t-29.5 -22.5l-20 2l-49 -14q-11 0 -24 -10t-22 -10q-4 0 -20 12q0 2 -4 2q-11 0 -37.5 -24.5t-63.5 -24.5l-22 2l-33 -4 q-15 0 -27 6q-22 -12 -24 -12t-16.5 6t-27.5 8t-22 18l-36 69q-17 35 -17 60q0 27 29 27q2 0 14 -6h2q4 0 13.5 8t66.5 8q4 0 18 -8q0 -2 3 -2l47 4q30 0 51 14t42 16l50 7l16 -2l79 21q86 21 104 34l57 29q21 10 43.5 13t32.5 16l6 6h18q4 0 13 4q3 13 16 24z" />
<glyph unicode="4" horiz-adv-x="969" d="M279 850l4 4q-2 2 -2 6q0 18 12 38.5t39 33.5l6 8q18 18 29 27l14 16q6 6 14 6h17q11 23 16 25l21 14q2 0 7 -4t7 -4q5 0 5 4l-7 18q0 9 14 22t22.5 24.5t30.5 23.5l21 25q10 8 23.5 15t36 35t35.5 32t42 24l2 6v39q0 4 6 4q2 -2 29 -10q2 6 6 6q14 0 14 -28 q0 -23 -17 -28t-32 -67l-6 -14q-34 -20 -53 -68q0 -12 -10 -18l-17 2q-10 -14 -13 -35.5t-11 -21.5l-13 2q-14 0 -18 -19.5t-6 -21.5q-20 2 -31 -35q-8 -12 -24 -27l-15 -16l-16 -12q-21 -13 -42.5 -46.5t-35.5 -51t-14 -25.5q0 -19 51 -19q8 0 19.5 -5t25.5 -8t28 -10 t47 -14l27 -6l27 2h6l33 -2q20 0 31.5 23.5t28 47.5t22.5 36l8 10q8 6 12 27.5t27 25.5q18 19 18 27l-2 14q0 4 13 17l18 34q4 15 13 29t11.5 31.5t4.5 17.5t15 18.5t19 20.5l9 6q6 6 18 13q7 48 14 49l5 16q6 2 15 14.5t7 14.5l10 2q6 10 17 18l-6 25v4q0 10 16.5 58 t30.5 48q28 0 49.5 -32t21.5 -99q0 -16 -16 -34t-30.5 -59.5t-27 -49t-19.5 -35t-16 -48.5t-20 -31t-20 -48q-4 -12 -20.5 -13t-16.5 -7q0 -58 -41 -82q-10 -6 -13 -28.5t-9.5 -36t-6.5 -19.5q0 -10 8 -10q33 0 54.5 12t46 18.5t49.5 18.5q19 -17 33 -17.5t30 -17.5l37 -20 q17 -9 17 -23q0 -27 -24.5 -36t-36 -16t-24.5 -9.5t-44 -13t-66 -32.5h-4q-4 0 -18 11q0 2 -2 2l-43 -15q-2 0 -11 2h-4q-4 0 -35 -8q-12 6 -14 6q-8 0 -42 -65t-34 -70v-20q0 -6 -7 -17.5t-9 -23.5t-10 -35l-19 6q-2 -4 -2 -12t2 -14v-9q0 -8 -10 -14v-16q0 -17 -9 -33.5 t-9 -42.5q0 -10 -11 -37l6 -68l-10 -49l-12 -8q-6 0 -6 -9t-10 -9q-9 0 -16 6t-27.5 14t-40.5 43l-29 27q-10 8 -14 15t-16.5 19.5t-12.5 34.5q0 25 22 52v8q0 2 3.5 7t11.5 23l14 27q10 27 22.5 32t12.5 7l-4 8q-4 2 -4 6q0 52 33 84l14 19q10 20 18 30.5t15.5 37 t23.5 59.5v4q0 22 -16 22l-21 -4h-18q-47 0 -58.5 14.5t-17.5 14.5h-22q-29 0 -39.5 11t-12.5 11l-69 -16q-4 0 -9.5 8t-7.5 8q-6 0 -13 -4t-9 -4l-25 2l-12 -4q-17 0 -58.5 29.5t-41.5 69.5q0 22 17 29t22 11l67 64z" />
<glyph unicode="5" horiz-adv-x="866" d="M735 524h8q4 4 9 25l16 12q1 6 13 23.5t20 33.5l18 37v11q10 9 14 32l9 43l-6 51q0 14 -33.5 30t-69.5 16q-35 0 -55.5 -7.5t-32.5 -9.5t-24.5 -9t-20.5 -7q-4 0 -22 6h-3q-27 -20 -34 -20q-6 0 -11 14h-2q-6 -4 -17 -12.5t-30 -16.5l-22 -22q-8 -4 -29 -9l-8 -6 q-57 -43 -88 -43q-7 0 -47.5 46t-40.5 79q0 6 8 17.5t12 11.5h10q7 0 7 18l2 2q18 4 28 13t21 18q6 46 47 70l18 20q7 10 23 27q6 24 31.5 50t27.5 52.5t21 32.5l4 4q-5 23 29 59.5t43 36.5q10 0 12 -15t10 -21l-2 -11q2 -4 10 -4q10 0 47 19l15 2q2 0 12 20l37 -2 q19 0 64.5 19.5t58.5 19.5q2 0 26 -14q3 3 27 10l59 16q54 20 91 31.5t38 15.5h4q3 0 15 -4h6q4 0 15.5 7.5t21.5 7.5q24 0 31 -25v-33l6 -69q0 -13 -10.5 -26t-20.5 -13q-4 0 -17.5 6t-17.5 6t-25.5 -10t-48.5 -16t-81 -25l-9 -2h-32l-19 -8q-18 -7 -55 -9l-72 -28 q-14 -6 -53 -15l-41 -12h-6l-21 2q-2 0 -30 -14h-7l-28 10q-10 0 -21.5 -11t-22.5 -13.5t-28 -28.5l-8 -4q-14 6 -16 6l-3 -2q0 -4 5 -10v-5q0 -2 -10 -21.5t-18.5 -26t-8.5 -33.5q0 -7 6 -7q30 0 47 21q2 2 8 2h4l39 -6q6 0 12.5 10t12.5 10t18 -5t19 -5q2 0 19 3t34 3 q43 0 57 -8q6 -2 24.5 -5t37.5 -22q61 -10 89 -61.5t34 -91t15 -65t9 -56.5q0 -41 -17 -58t-19 -30l-3 -27q0 -9 -22.5 -35t-31.5 -50t-26 -29l-18 6q-6 0 -19.5 -34t-33.5 -34q-11 -8 -16 -23.5t-24.5 -16.5t-31.5 -21.5t-16 -20.5q-5 0 -15 10q0 2 -4 2q-8 0 -32.5 -25.5 t-41.5 -25.5q-4 0 -12 4q-2 1 -22.5 -19t-40.5 -20q-4 0 -17 5q-14 -23 -30.5 -30t-31 -21.5t-26.5 -14.5q-6 0 -16 12h-2l-31 -20h-4l-8 4h-2q-4 0 -14.5 -9.5t-18.5 -9.5q-4 0 -25 13h-4q-22 -17 -41 -17q-8 0 -22 9h-8l-11 -5h-6l-23 8q-24 7 -24 9h-6l-19 -6 q-14 0 -58 63.5t-44 89.5q0 15 12 15q2 0 17 2q6 -4 15 -8.5t36 -22.5l14 2q4 0 12.5 -5t16.5 -5q4 0 16 10h2l21 -8h16l25 10q2 0 18 -6q17 16 25 16q2 0 16 -6q17 2 23 5t14 3q23 0 38.5 8t41 14t55.5 25l15 3l16 8q8 12 22.5 19t46.5 32t56 43l63 43q11 7 13 10.5t15 5.5 t23.5 16.5t26.5 24.5z" />
<glyph unicode="6" horiz-adv-x="981" d="M1051 1331l14 -16l14 -10q15 -15 15 -41q0 -33 -25 -39q-6 -6 -63 -6l-13 -11q-6 0 -20 -12q-21 -29 -39 -29l-21 4q-12 -8 -22 -26.5t-45 -30.5q-4 -4 -13.5 -25.5t-35 -24.5t-19.5 -9q-14 -19 -20 -19q-18 0 -28.5 -16t-35.5 -29q-8 -12 -25.5 -33t-20.5 -39t-25 -26 q-7 0 -17.5 -25.5t-40.5 -40.5q-19 -39 -30 -39l-25 15q0 -29 -16 -47l-7 -15q-4 -9 -16 -24q2 0 4 -2h8q13 0 25 6q19 35 94 43l8 2q3 9 36.5 14.5t48 13t53.5 9.5l34 4q23 6 37 6q4 0 9.5 -6t11.5 -6q8 0 18 3t16 3q5 0 9 -8l4 -4q4 4 8 6q14 -8 29 -13t53.5 -56 t38.5 -107l2 -19q2 -4 2 -8q0 -6 -5 -15.5t-6 -35t-36 -31.5q-19 -37 -29 -47l-18 -25l-15 -6q-14 -6 -26.5 -30.5t-23.5 -35t-33.5 -35t-34.5 -32.5l-11 -10q-28 -29 -67 -37l4 -12q0 -8 -14.5 -17.5t-24.5 -9.5l-4 2h-6q-4 0 -8.5 -10t-31 -19.5t-50 -22.5t-38 -15 t-55.5 -17q-16 -2 -41 10h-4q-12 -10 -24 -10q-6 0 -18.5 5t-32 8.5t-42 15.5t-33.5 15t-14.5 10.5t-13.5 13.5q-57 31 -74 86q-4 24 -13.5 32.5t-16 49.5t-6.5 47q0 4 9.5 39.5t18.5 44.5q19 35 21 61q12 31 34.5 54.5t28.5 39.5q2 3 10.5 11t16.5 28.5t22 24.5l11 6 q4 8 18 27q2 28 53 80l4 10q19 28 56 37q4 4 4 8t-2 16v2q0 27 24.5 41.5t42.5 34t39 35.5t26 24.5t21 20t23 26t27 28.5t32.5 29.5t36 24t31.5 25t26 16.5l29 9q10 3 14.5 14.5t12.5 13.5q27 30 53.5 38.5t34.5 16t17 11.5t19.5 11t20.5 8t22.5 4t16.5 3q12 0 23 -12z M289 244l41 2l30 6q5 2 13 2t17 -3t13 -3q21 0 60 26l35 17q20 26 55 26q20 9 22 23q4 3 19 8q3 0 32.5 26t53.5 41.5t50 44.5t31 32q37 19 41.5 25.5t4.5 19.5q24 19 34.5 34t26.5 31l9 16q4 11 16 15l2 4v16q20 26 20 35q0 12 -38 23q-13 -9 -17 -9l-18 9h-2l-33 -6l-21 4 q-9 0 -18.5 -7.5t-18.5 -7.5q-10 0 -17 -6t-11 -6l-25 8q-17 -18 -26 -18q-12 7 -15 8q-22 -26 -33 -26q-2 0 -14 8q-28 0 -33.5 -8.5t-10.5 -10.5t-7 -10q-26 -16 -27 -17l-20 2q-4 0 -23.5 -22.5t-23.5 -22.5l-23 13q-24 -23 -35.5 -40.5t-26 -25.5t-34.5 -37q-4 4 -8 4 q-6 0 -10 -12q0 7 -2.5 2t-6.5 -16.5t-10 -20t-10 -24.5l-8 -19q-4 -6 -9.5 -21.5t-11.5 -24.5t-10 -36l-10 -18q0 -26 16.5 -40t24.5 -13z" />
<glyph unicode="7" horiz-adv-x="858" d="M457 1139h-17l-24 -4q-75 0 -80 16l-8 8q-6 2 -17.5 35t-11.5 45q0 76 63 76q25 0 125 -41l39 6l23 -4l87 7q14 1 26 9l8 -4h16l35 2q59 0 70 21q33 -6 38 -6l29 2l166 -15q2 0 10 4h2l8 -4l15 -2q43 -19 63 -49.5t18.5 -49t2.5 -46.5v-10q0 -58 -45 -78 q-17 -8 -21 -15.5t-19.5 -16.5t-22.5 -17.5t-29 -24.5q-13 -16 -24 -30.5t-42 -20.5l-47 -51h-25l-10 -11q-8 -30 -14 -30t-21 -7.5t-30 -29t-17 -21.5q-13 0 -40 -28.5t-45.5 -51t-42 -46t-29 -36t-15.5 -22.5l-20 -2q-2 -2 -19 -41l-4 -4q-17 -2 -20 -6l-45 -80l-21 -29 q-12 -12 -32.5 -60t-32.5 -67q-27 -10 -27 -59l6 -39q2 -4 2 -12q0 -29 -18 -29q-2 0 -50.5 44.5t-48.5 90.5q0 2 2.5 11.5t2.5 15.5q0 56 12 67t22 35v23q0 13 97 135l12 24q8 19 25.5 26t26.5 24.5t30 38.5l44 49q28 30 52 59l12 6q9 4 30.5 27.5t31.5 32t20.5 18.5 t17.5 16.5t17 15.5t24.5 16t32.5 36q4 16 66 47l25 25q26 22 52 34.5t41 33t36.5 35.5t21.5 20q0 8 -18.5 13t-28.5 11l-12 -2l-15 2h-10q-22 0 -34.5 -8t-20.5 -8q-6 0 -18.5 8t-20.5 8q-4 0 -22.5 -8t-20.5 -8q-21 14 -25 14q-2 0 -24.5 -8t-44.5 -8q-15 0 -28 -5.5 t-34 -5.5q-10 0 -29.5 -7t-29.5 -7q-17 0 -31 2h-10q-20 0 -58 -10z" />
<glyph unicode="8" horiz-adv-x="979" d="M285 635l10 6q2 21 18 24t26.5 23.5t12.5 20.5q12 0 23 6q-1 21 67 71l103 82q14 15 29.5 24t21.5 15l27 11q14 6 26.5 20t20.5 18q-2 19 -60 21l-155 31q-19 3 -25 16.5t-27.5 29.5t-21.5 76q0 20 50.5 61t82 52.5t40.5 20t38 10.5q35 24 55 24h10q41 27 62 27l26 -6 l13 2q2 2 6 2l18 -6q31 22 56 31q6 -7 10 -7l74 15l18 -4l39 4q2 0 14 -10h23q8 0 26 -11l21 -4q61 -12 61 -74q0 -37 -24.5 -51t-26.5 -14q-12 0 -20 29l-23 22l-10 21l-8 4q-37 -11 -39 -11q-6 0 -12.5 8.5t-10.5 8.5l-16 -8q-2 -2 -8 -2l-13 6h-2q-4 0 -20.5 -7.5 t-22.5 -7.5l-16 5h-10q-15 0 -35.5 -18.5t-32.5 -18.5q-4 0 -33 12h-2q-4 0 -11 -4t-30.5 -15.5t-35 -23.5t-15.5 -12l-14 10q0 2 -2 2q-6 0 -15.5 -19.5t-19.5 -19.5l-12 10q0 2 -2 2l-15 -8q-6 -4 -16 -7t-23.5 -16.5t-13.5 -21.5l2 -4q15 -3 39 -10l14 -2q37 -9 49 -27 q25 -10 54 -18q47 -24 67 -39l9 -2q8 -2 12 -4q51 15 65 33.5t64 29.5q4 2 20.5 16.5t52 23.5t66.5 30l19 8q22 12 29 19.5t16 7.5q49 0 69 -25q1 0 25 -34.5t24 -43.5q0 -33 -34 -33h-7l-16 6q-4 0 -14 -14l-4 -4q-46 0 -78 -20q-3 -10 -12 -10t-24.5 -11t-25.5 -12.5 t-14 -5.5l-14 -13h-9l-22 2q-13 -14 -38.5 -31.5t-25.5 -21.5q0 -16 17.5 -34.5t17.5 -26.5v-4l-2 -7l29 -36l2 -17q6 -30 13 -40.5t7 -12.5l-4 -23q9 -8 9 -36q0 -21 -7.5 -35.5t-7.5 -40.5q0 -15 -5 -26t-5 -29l-4 -15q-12 -8 -16.5 -28.5t-12.5 -31.5t-15 -23.5 t-16.5 -21.5t-15.5 -25.5t-20 -22.5q-16 -35 -29 -35q-2 0 -7 2t-12 2q-8 0 -15 -26.5t-9 -26.5l-21 2q-2 -2 -13 -23.5t-17 -25.5l-21 2q-16 -43 -26 -43q-4 0 -8.5 2t-8.5 2t-11 -5.5t-16.5 -9.5t-21.5 -19t-26.5 -19.5t-26.5 -18.5q-6 0 -24.5 -13.5t-24.5 -13.5h-6 l-23 4l-31 -6l-22 -8l-19 2l-16 -2q-6 0 -27 12l-16 -2q-23 0 -64 33t-41 35q-8 14 -15 20.5t-15 22.5l-17 18q-6 7 -18 35.5t-12 39.5l-9 54q0 3 5.5 11t5.5 10l-4 24q0 39 27 80t33 55t32 40t31 39t8 18zM500 289h8l27 14q15 15 51 23q9 15 35 30t37.5 35.5t60.5 44.5 l10 13q16 18 28.5 22t12.5 10v6l-2 15q0 8 20.5 28.5t27.5 32.5t12.5 17.5t11.5 19.5l18 37q2 6 8 33v10l8 35q0 56 -5 63q-3 4 -13 26.5t-18.5 30t-19.5 21.5t-17 14t-18.5 -15t-14.5 -15q-16 0 -28.5 -10.5t-30.5 -16.5q-17 -16 -25 -24.5t-22.5 -12.5t-51.5 -41l-71 -61 q-17 -6 -30.5 -18.5t-27.5 -22.5q-36 -43 -44.5 -53.5t-17 -13.5t-22.5 -36q-5 -5 -15.5 -6.5t-15 -12t-26.5 -36.5l-14 -41l-19 -10q-17 -42 -28 -54t-11 -21t-13 -44t-13 -49q0 -20 32 -41q17 4 48 4q8 0 15 4t15 6t17.5 8.5t36.5 8.5l14 8q16 8 32.5 10t29 13.5 t18.5 11.5z" />
<glyph unicode="9" horiz-adv-x="928" d="M244 793v8q0 22 13 34.5t17.5 19.5t14.5 17q4 0 25.5 39t41.5 47q4 5 19 39l37 29q2 2 6 11.5t10 11.5t12 10t11 8l14 4q2 0 17.5 15.5t35.5 31.5l6 8q13 17 30 25t32 23l6 4q19 8 35 34l35 23q40 30 49 35l6 6q6 6 22 12l15 10q30 23 44.5 26.5t22.5 12.5h6q18 19 34 24 t47.5 17.5t62.5 18.5l12 6q8 4 12 4t31 -12t27 -39q0 -25 -15.5 -47.5t-31.5 -22.5q-13 0 -23 10.5t-14 10.5q-6 0 -29 -11l-6 -2h-21q-6 0 -36 -22l-46 -27q-1 -1 -28.5 -20t-41 -24t-26.5 -27q-30 -13 -45 -27l-14 -8q-8 -27 -33 -27q-6 0 -16 -35q-45 -39 -49 -39 q-5 0 -13 6h-4q-10 0 -10 -22q-9 -19 -43 -41l-4 -8q-9 -16 -21 -25l-30 -43q-45 -54 -71 -80t-26 -63q0 -6 9 -6q30 0 41.5 15t29 23.5t19.5 12.5l6 10q21 3 36.5 15.5t36.5 26t41.5 32.5t38.5 29.5t30 16t12.5 18t19.5 12.5q8 0 16 10t19 16l6 11l18 10l13 14 q10 16 20 18.5t16 14.5q21 12 45 41q0 8 13 11.5t20 14.5l15 21h2q2 0 10 -2h4q22 0 35 37q0 2 8 4t12 8l13 6q24 21 38 35l11 6l41 49l43 33q22 28 43 37l45 33q8 4 12 4q33 0 55.5 -29t22.5 -72q0 -22 -25 -59l-41 -61q-14 -22 -55 -43q-10 -11 -14 -45l-2 -7 q-12 -6 -28.5 -34.5t-26 -38t-27.5 -37.5l-49 -55q-18 -20 -31 -41l-10 -11q-5 -4 -5 -6q0 -48 -19 -60t-24 -18l-22 -6q2 -6 4 -16l-41 -90q-17 -38 -42.5 -65t-37.5 -91q-3 -5 -18 -10.5t-21 -33.5t-23.5 -69t-23.5 -67l-12 -31q-14 -36 -14 -49q0 -1 5.5 -43.5t16 -58 t10.5 -19.5q0 -6 -12 -8l-8 -2q-19 -17 -29 -17q-57 0 -99 38.5t-42 103.5l18 65q10 36 10.5 47t11.5 22t15 28l4 8q8 16 8 22t13.5 22.5t17.5 23t12 12.5l7 6v41q19 18 22 37q14 26 24.5 40.5t12.5 28.5v4q33 35 44 52t19 24q3 2 3 4v23q0 14 22 14q14 14 14 27q0 2 -4 14 q11 10 24.5 15.5t16 16.5t13.5 27q43 43 55 74l10 15q30 22 90 122q-22 -22 -48 -41.5t-42 -39t-18 -19.5l-11 2q-12 0 -30 -33l-13 -8q-8 -4 -13 -17.5t-26 -31.5l-26 -14q-24 -37 -76 -50q-18 -34 -45 -34q-9 -8 -17 -21.5t-18 -13.5q-2 0 -7 2t-11 2t-24 -32t-36 -32 l-34 3q-17 0 -34.5 -33t-39.5 -33l-19 6q-6 -22 -22 -22q-3 0 -59 33t-68 57q-2 6 -9 17t-7 13q0 37 8 50z" />
<glyph unicode=":" horiz-adv-x="502" d="M336 504l18 -15q15 -8 15 -34q0 -6 -6.5 -15.5t-8.5 -15.5q-35 -70 -82 -70q-15 0 -46.5 27.5t-40.5 49.5t-14 28t-5 10q0 10 8 23.5t12 33t21.5 28.5t26 18.5t20.5 9.5q8 0 16.5 -7.5t23.5 -15.5t29 -32zM268 123l19 -14q14 -9 14 -35q0 -6 -5 -14.5t-9 -16.5 q-35 -70 -82 -70q-15 0 -47 27.5t-40.5 49.5t-14 28t-5.5 10q0 10 8.5 23.5t12.5 33t21.5 28.5t25.5 18.5t20 9.5q9 0 17 -7.5t22.5 -14.5t29.5 -32z" />
<glyph unicode=";" horiz-adv-x="502" d="M334 504l18 -15q15 -8 15 -34q0 -6 -6.5 -15.5t-8.5 -15.5q-35 -70 -82 -70q-15 0 -46.5 27.5t-40.5 49.5t-14 28t-5 10q0 10 8 23.5t12 33t21.5 28.5t26 18.5t20.5 9.5q8 0 16 -7.5t23.5 -15.5t29.5 -32zM106 111l7 12q4 8 7 11t15 28.5t45 30.5q10 10 29 10 q24 0 57 -45.5t33 -57.5q0 -16 -23 -37q0 -32 -19 -55.5t-24.5 -35t-13.5 -17.5q0 -2 -34.5 -47.5t-51.5 -45.5l-43 15q-12 2 -12 10q0 27 28 52.5t31 52.5q-41 41 -41 94q0 4 10 25z" />
<glyph unicode="&#x3c;" d="M1057 1251v-71l-649 -424l649 -432v-195l-846 565v13z" />
<glyph unicode="=" d="M471 932l4 -2q17 -8 19 -8l14 2l24 -6l82 2l33 -2q6 0 14.5 5t10.5 5l43 -2l18 4q10 -4 23 -4q14 0 28 4q8 -4 17 -4q13 0 28 6h7q2 0 18 -8l14 2l23 -2q6 0 30.5 11t63.5 11l41 -4l31 6l30 -14h23q3 0 17 -17.5t14 -21.5q0 -55 -40.5 -73.5t-74.5 -18.5l-33 8l-45 -8 q-29 0 -66 5l-32 5l-43 -10q-8 0 -33 14h-4q-2 0 -21.5 -8t-33.5 -8q-19 0 -38.5 7t-23.5 7t-18 -5t-21 -5l-61 2l-92 8l-32 -2q-44 0 -44 66q0 41 42 41q7 0 44 12zM342 649h4l14 2l25 -8l82 4l33 -2q4 0 13 5t11 5l43 -2l19 2l22 -2l29 2q35 0 45 2h6l55 -6l19 6 q49 17 76 17l41 -4l30 6l31 -14h23q2 0 16 -18t14 -21q0 -55 -40 -74t-74 -19l-33 9l-45 -11q-10 -1 -37 3l-62 10l-43 -11q-8 0 -32 15h-4q-2 0 -21.5 -8.5t-34.5 -8.5q-18 0 -37.5 7.5t-21.5 7.5t-18.5 -6.5t-22.5 -6.5l-41 5l-61 -3l-43 9h-9l-31 -3q-44 0 -44 66 q0 10 6.5 24t48.5 22l31 7z" />
<glyph unicode="&#x3e;" d="M293 129v74l649 422l-649 434v192l846 -565v-12z" />
<glyph unicode="?" horiz-adv-x="1163" d="M535 764l94 57q27 17 41 17q2 0 108 53q28 11 42.5 19.5t41 17.5t43.5 26q2 0 4 2l27 -2q4 2 12 12.5t29 18.5l20 -4q9 8 19 8q26 0 88 39q12 6 44 16.5t43 19.5t34 11t73 30t50 58q0 4 -9.5 11.5t-21.5 20.5t-23 13l-45 -2l-32 13q-31 -11 -37 -11q-23 0 -64 15 q-30 -17 -69 -17h-5l-22 2q-2 0 -17.5 -9t-31.5 -9l-23 6h-4q-4 0 -16.5 -6t-40 -9t-37.5 -5l-45 -5l-21 -8q-14 -6 -24 -6q-6 0 -20.5 6t-16.5 6q-6 0 -19 -10t-33 -15t-24 -11q-20 -24 -39 -23q-1 0 -12.5 -36t-54.5 -36q-66 0 -66 56l9 45q9 53 67 72.5t80 19.5 q8 0 18 -8l13 16l24 -2q15 12 37 12q2 0 8 -4h4q2 0 12.5 2t16.5 2h4l14 -2q2 0 6 4t33 19l21 -10q22 12 47 14l6 2q21 14 55 14l66 2q26 0 33.5 -7t11.5 -7t13 4t20 4q22 0 32 -4q0 -2 2 -2l31 4q15 0 22 -3t9 -3l24 6h7l14 -2q2 0 10 -8l4 -2h23q15 -10 20 -10q2 0 12.5 3 t14.5 3q35 -25 49 -25l21 2q9 0 40.5 -36.5t30.5 -69.5l4 -4h6q5 -5 5 -19v-31q0 -55 -31 -71q-2 0 -16.5 -19.5t-34 -22.5t-24.5 -6t-32.5 -27t-40.5 -24q-12 0 -39 15h-4q-6 0 -8 -5t-10 -12.5t-16.5 -15.5t-20.5 -11t-29.5 -20.5t-33.5 -17.5l-23 -4q-37 -19 -72 -19 q-1 0 -27 -15t-44 -15q-4 0 -23 6q-15 -21 -45 -37l-37 -29q-12 -12 -28 -12l-39 2q-2 0 -16 -15t-70 -51l-23 5q-34 -32 -54 -34.5t-35 -12t-17 -7.5q-7 -8 -30.5 -34.5t-23.5 -47.5l2 -18q0 -117 -45 -117q-18 0 -23 18.5t-9 30t-7.5 26.5t-17.5 26.5t-27 33.5l-10 15 q-14 20 -14 30q0 22 21 70.5t55 63.5l51 41h6q3 0 25 16zM528 317l19 -14q10 -8 12 -14l27 -49q8 -11 8 -21q0 -4 -7 -12t-14.5 -31.5t-33.5 -42.5l-15 -12q-2 -4 -5 -5t-11 -9.5t-10 -8.5q-39 0 -50.5 7t-19.5 21.5t-16.5 22t-8.5 14.5t-7 24.5t-7 21.5q0 16 11.5 25.5 t14.5 17.5t22.5 28.5t28.5 34t40 13.5q9 0 22 -11z" />
<glyph unicode="@" horiz-adv-x="1493" d="M1458 541v-4q0 -9 -21.5 -25t-29.5 -27l-4 -4q-40 -5 -53 -26q-26 -12 -43 -13q-10 -9 -26 -12l-36 -6q-26 0 -36.5 5t-37.5 12.5t-44 40.5t-17 40q0 8 2 13v12q0 13 -6 20l2 15l-2 34l4 17q2 2 2 8q0 10 -2 16q-8 -4 -18.5 -12t-20.5 -10t-11 -11.5t-13 -23.5 q-5 0 -21 -18.5t-33.5 -23.5t-40.5 -31t-110 -90t-127 -64q-6 0 -23 2h-14q-5 0 -36.5 15.5t-35.5 32.5t-12 36.5t-8 23.5l4 47l-2 25q0 8 10 16l6 9v22q19 27 25 39t15 21.5t14.5 19.5t13.5 17.5t19 23.5t25.5 26.5t43.5 42.5q9 10 72 51l63 42q39 16 61 30l93 33 q6 0 20 -6q18 8 27 8q55 0 65 -86q0 -14 13 -14q6 0 14 14q29 56 84 56q49 0 49 -48q0 -29 -9.5 -53.5t-28.5 -52.5t-31.5 -63.5t-22.5 -53.5l4 -39l-4 -10q-4 -8 -4 -10q0 -55 30 -55q2 0 15 4l10 2q2 0 9 -3t14 -3q16 0 59 36l16 4q8 9 14.5 19t19.5 20.5t20 31.5 t20.5 38.5t22.5 34.5l6 10v25q0 16 22 26q4 4 4 8q0 5 -7 17t-7 18v8q2 3 2 7l-2 28l6 27l-14 51q0 46 -21.5 84t-44.5 51l-8 13q-28 42 -127 84q-12 4 -18 10q-4 -2 -9 -2q-10 0 -19 8t-32 8l-26 6l-15 -2l-55 6l-152 -26q-44 -8 -59 -17q-4 -2 -13 -6t-22.5 -12t-32.5 -10 q-22 -14 -46 -21t-62 -39l-21 -8q-10 -2 -22 -16.5t-29.5 -24.5t-34.5 -27t-51 -28l-8 -6q-2 -12 -28 -36t-42 -50l-6 -6q-6 -7 -18 -23t-25 -25.5t-32 -54.5l-5 -6v-18q0 -11 -28 -39q-4 -24 -17.5 -46t-14.5 -47.5t-13 -58.5l-2 -14q-3 -7 -7 -19l9 -32q-2 -7 -3 -18 t-3.5 -16t-2.5 -7l11 -52q0 -10 12 -32.5t25.5 -55t46.5 -65.5l4 -10q2 -9 16.5 -17t24.5 -16t28 -17l21 -12h16q3 0 19 -12l6 -4h14l12 -6q9 -4 13 -4q6 0 18 4t19 4q6 0 18 -3t19 -3q10 0 18 2l27 2q21 2 73 15t66 22l31 20q12 4 36.5 9t32.5 14l6 2q2 0 6.5 -6.5 t6.5 -6.5q6 0 9 16.5t11 22.5q39 29 52.5 44.5t37.5 15.5q8 0 30.5 -21.5t22.5 -30.5q0 -2 -4 -6t-4 -6l4 -33q0 -4 -7 -7l-45 -20q-22 -9 -51.5 -21.5t-57 -28t-43.5 -15.5q-9 0 -15 3t-10 3t-18 -10t-36 -16t-24 -6l-16 4q-2 0 -7.5 -5.5t-15.5 -6.5t-27.5 -10t-41.5 -9 l-37 -8l-25 4l-16 -2q-2 2 -10 4l-19 8l-35 8q-22 -8 -26 -8q-37 0 -72 27l-27 -2q-25 0 -35 11t-22 17t-22.5 17.5t-34.5 23.5q-9 11 -27 39l-20 19q-13 10 -19 41l-6 10q-15 23 -23 65q-5 12 -16 25v14l-2 6q-2 7 -2 19q0 4 2 10t2 8l-8 31l4 18l-8 72q0 6 10 25.5 t10 25.5q0 2 -2 8v7q0 4 5 14t10.5 28.5t19.5 41.5l4 12q0 8 9.5 18.5t9.5 20.5v18q0 19 65 84l35 64q8 10 20 18l11 21q3 8 51 46t55 42l19 14q83 61 118 76l76 47l31 10l39 19l28 6l56 30l24 2l58 13h26l31 8l76 8l24 -2q2 0 17 6l20 2q8 0 32 -8t30 -8h22q4 0 29 -8 l22 -2q17 0 27 -6.5t21 -9t38 -17.5t35 -23l60 -32l29 -31l18 -13q3 -2 17 -32q9 -17 17 -30q11 -19 12 -23q3 -11 8 -23q9 -24 11 -28q4 -15 8 -37q2 -11 10.5 -28.5t8.5 -35.5l-2 -31l4 -30q-6 -13 -6 -21l-18 -79q-7 -30 -14 -38.5t-36 -62.5l-14 -21l-4 -16 q-2 -4 -15 -14l-10 -11q-4 -6 -17.5 -13t-25.5 -19zM1116 793l-12 2l-23 -2l-41 8q-49 -19 -75.5 -24t-49 -21.5t-34 -21.5t-25.5 -18.5t-34.5 -28.5t-23.5 -22.5t-13.5 -16.5t-26.5 -38l-10 -6q-13 -8 -27 -45l-14 -20q-2 -2 -2 -23q0 -33 20 -33q14 0 67.5 29t80 52.5 t71.5 47t60 50.5l103 100q28 27 28 33q0 4 -7 4q-9 -7 -12 -6z" />
<glyph unicode="A" horiz-adv-x="1221" d="M268 578l2 22v8l9 27q20 61 42.5 90t24.5 41t15.5 26.5t19.5 26.5l8 12q0 18 22.5 39.5t25 33.5t30.5 44q0 9 20.5 32.5t26.5 33.5t25 18q4 21 20 35t24.5 24.5t20.5 16.5l10 12q7 10 33.5 30t34.5 30l25 10l4 4l2 12q4 2 14 13.5t18 17.5l27 27q16 10 27.5 16t14.5 15.5 t36 19.5q18 24 51 28q12 21 72 46.5t84 25.5q22 0 41 -6l16 2q4 -2 19 -8h2l8 -2q35 -40 35 -85q0 -21 -2 -50q-11 -35 -11 -56q0 -14 -10 -34l-8 -27q-6 -59 -41 -59q-55 0 -55 51q0 33 28 55q49 31 49 100q0 19 -16 19h-2q-10 -6 -16 -6l-19 6h-2l-8 -4q-2 2 -14.5 -6.5 t-34 -15.5t-43 -30.5t-48 -34t-46.5 -38.5q0 -2 -2 -2l-21 2q-4 0 -14 -25l-6 -4h-7q-4 -2 -14 -12l-12 -10q-6 -19 -23 -27l-12 -21q-8 -4 -18.5 -12t-17.5 -11t-14 -22.5t-46 -33.5q-4 -4 -4 -7q0 -2 2 -8v-2q0 -20 -52 -61v-4q0 -11 -17 -41.5t-29.5 -42t-12.5 -15.5v-14 q0 -16 -14 -20q-13 -11 -19 -17q0 -20 -17 -30.5t-20 -16.5l7 -12v-4q0 -29 -29 -37v-4q0 -10 -14.5 -29.5t-26.5 -26.5q-2 0 -4 -4l4 -28q-26 -55 -51 -86q-10 -2 -10 -9l4 -16v-4q0 -25 -8.5 -35t-8.5 -12l6 -14q0 -9 -8 -13t-8 -8q0 -2 2 -6v-6q0 -8 -14 -56v-14l-4 -14 q0 -2 5 -12.5t5 -18.5l-6 -14q-2 -2 -2 -6q0 -19 8.5 -48.5t28.5 -29.5q34 0 41.5 8t43 35.5t47 39t18 14.5t54.5 62.5t84 106.5q2 2 5.5 13.5t22 29t54.5 68.5l19 18q22 31 25.5 38.5t14.5 15t17 20t17.5 14.5t11.5 10l-2 21q14 22 32 29q-2 4 -2 12q0 24 20.5 30.5 t21.5 13.5t5 17l3 8q8 17 16 25l12 18l21 21q0 2 2 4l-4 23q0 6 26 16l2 4v18q0 9 19 19q5 21 20 29q2 26 18.5 44.5t29 37t36.5 18.5q13 0 46.5 -18.5t33.5 -53.5q0 -4 -10 -24t-19 -80q-21 -56 -28 -66q6 -14 6 -22q0 -13 -17 -31q-3 -19 -8 -31v-16q0 -19 -28 -27 q-3 0 -8 -24.5t-5 -26.5l4 -27q0 -14 -8 -22t-21.5 -27.5t-13.5 -23.5q0 -17 -4 -27t-5 -21.5t-9 -21.5t-10 -16q6 -13 6 -15q0 -6 -6 -24q-11 -10 -11 -17q0 -1 7 -14q-2 -12 -11 -33l-2 -6l4 -57q0 -2 -8 -12v-5q0 -10 6 -10q4 0 31 15.5t30 21.5q9 18 83 59l130 110 q13 13 19 13q17 0 17 -16q0 -23 -11 -53v-15q0 -26 -28 -49q-2 -8 -13.5 -13t-16.5 -14.5t-22.5 -17.5t-27.5 -18l-8 -4q-15 -7 -20 -22t-11 -15q-23 0 -62 -39l-12 -4l-12 -8q-10 -9 -16 -9l-15 2l-53 -10q-12 0 -23 19h-16l-14 16q-24 8 -43 54.5t-19 80.5q0 21 9.5 65 t9.5 65q0 22 8 43.5t8 35.5q0 4 8 27.5t8 48.5q0 2 -4 2q-52 -76 -70 -86q-7 -4 -16 -14q11 -17 11 -19q0 -16 -39 -55l-11 -23q-6 -6 -8 -6l-22 2l-6 -8l6 -20q-11 -23 -27 -27l-4 -4l-2 -10l-10 -7q-2 0 -2 -2l4 -20q-4 -6 -11.5 -11.5t-14.5 -25.5t-23 -20l-9 4h-2 l-2 -19l2 -8q0 -8 -16 -18l-10 -11q0 -12 -22.5 -34.5t-33.5 -40.5q-17 -9 -36 -33q-33 -28 -39.5 -35.5t-24.5 -9.5q-13 -14 -34 -17.5t-36.5 -9.5t-19.5 -6q-37 0 -74 29q-25 1 -35 18l-43 39q-41 61 -41 131q0 14 4.5 24.5t4.5 14.5t-5.5 9t-5.5 9q0 9 17 19 q-12 12 -12 22q0 9 8 23t12 14t14 -10q0 -2 2 -2q4 0 4 4q0 10 -11 16t-13 23q-4 4 -4 6l18 76q7 30 33 55z" />
<glyph unicode="B" horiz-adv-x="1440" d="M1118 297h-4q0 -4 -20 -25h-15l-6 -2q-26 -26 -37 -26l-20 4h-4q-13 0 -26 -15.5t-28 -15.5q-6 0 -22 6q-12 -16 -37 -16l-55 -29q-10 -4 -16.5 -8t-19.5 -5t-28 -9.5t-24 -8.5l-23 7q-33 -25 -66.5 -29t-48.5 -8l-28 -2l-43 -11q-15 -6 -35 -6q-25 0 -47 19 q-12 -8 -25 -21l-6 -2q-2 0 -8 3t-10 3q-2 0 -7.5 -3t-11.5 -3q-7 0 -32 21q-7 -6 -13 -6q-26 0 -41 36l-17 -6q-4 0 -12 17.5t-8 31.5q0 38 162 141t203 115l10 7q6 6 13 6q2 0 10 -4h6q12 0 17 14t24 14l10 2l113 62q8 4 55 21t64.5 26.5t54.5 15.5l10 6q16 7 27 7 q67 0 67 -66l-16 -32q-15 -34 -41 -34q-8 0 -12 5.5t-7 5.5l-51 -2l-22 8q-1 -1 -23 -8h-16q-4 0 -27 -15l-26 -10q-43 -8 -118 -42t-87 -32q-19 -8 -32 -22.5t-50 -26.5q-135 -67 -135 -94q0 -23 124 -23q58 0 72 11l107 24l10 11h21q13 0 28 11t37 11q14 0 27.5 9 t22.5 10.5t15.5 5.5t33.5 10.5t34 17.5l12 6q6 4 19 11h12q2 0 19 14l47 27h12q20 0 39 34q12 11 31 11q29 14 65 53l27 18q24 22 37 37q2 0 2 2l16 -2l2 6q0 2 -2 7v4q0 8 8 12t8 8l-6 21q4 4 4 12q0 20 -20 33l-2 6v8q-10 4 -23 6q-8 22 -52.5 40t-130.5 35l-85 17l-41 -4 q-10 0 -29.5 4t-28.5 4t-28 7q-27 -9 -35 -9l-24 6l-29 -4q-86 0 -86 25q0 79 92 117q12 4 25 12l80 25q10 2 28.5 11t34.5 15l14 8l11 2q8 10 33.5 20.5t82.5 48t64 46.5q6 4 17.5 9t11.5 34q0 19 -21 27l-12 8q-2 4 -9.5 6t-16 5.5t-90.5 13.5l-58 10l-23 -4l-24 2 l-45 -13l-19 13q0 2 -4 2t-12 -9.5t-17 -9.5q-16 0 -32 4h-4q-15 0 -15 -10q0 -6 21 -41l-4 -18l2 -23q0 -8 -15 -26l-2 -13q-6 -18 -25.5 -61t-21.5 -53l-35 -70l-6 -20q-23 -59 -33 -76t-15 -35t-19 -35l-43 -110q-5 -7 -15 -15q-11 -27 -20 -59q0 -29 -17 -53l-4 -19 q0 -4 -8 -18.5t-12 -26.5t-12 -12q-29 0 -52 39.5t-32 44.5q-17 20 -17 39q0 18 18.5 54t23.5 49t13.5 27.5t12.5 26t8 15.5q14 14 16 35.5t25 37.5q-2 5 -2 11q0 8 12 20t15.5 23.5t7.5 19.5l8 4q2 8 3 19.5t15 13.5q5 40 16.5 43.5t26.5 15.5q-12 9 -12 15q0 22 23 37 q-2 5 -5.5 9.5t-3.5 6.5l24 56q11 28 34 44h2l-6 27q0 14 30 25q11 12 9 22h-5l-16 6l-44 -8q-18 -4 -50 -16l-12 4h-5q-4 0 -16 -8l-8 -5q-6 3 -12 3q-30 0 -50.5 -6.5t-35.5 -4.5q-6 -3 -21 -8h-10q-2 0 -9.5 -4.5t-33.5 -11.5q-12 4 -14 4q-4 0 -27 -16.5t-37 -17.5 t-21.5 -7t-19.5 -15l-12 -18q-4 -14 -21.5 -23.5t-24.5 -16.5t-14 -7q-12 0 -27.5 17.5t-15.5 29.5q0 33 17.5 51.5t34.5 38.5q30 23 84.5 34t64.5 17q0 2 2 2l17 -6q6 -4 22 13q92 36 135 36h4l27 -2l21 8q22 8 33 8q12 0 16 -3.5t8 -3.5q6 0 14 14q19 10 52.5 13t54.5 9h6 l24 -2l51 9l68 -5l31 5l26 -2l58 4l91 -14q51 -7 105 -39.5t70 -50t16 -50.5q0 -72 -99 -142.5t-157 -84.5q-71 -27 -71 -33t39 -12.5t50 -11.5t19 -7t39 -14t45 -14q120 -44 139 -89q3 -1 16 -3.5t25 -47.5q17 -3 27 -49l4 -12q6 -12 6 -21q0 -80 -18 -90q-4 -4 -6 -17.5 t-38.5 -52t-55.5 -40.5q-5 -2 -17 -17l-10 -8q-16 -8 -21.5 -14t-10.5 -7t-13 -14.5t-19 -13.5q-2 2 -10 4h-2q-40 -45 -82 -45z" />
<glyph unicode="C" horiz-adv-x="1108" d="M289 621l12 12v8q0 4 10 24.5t18.5 27.5t12.5 16.5t18 11.5q-6 10 -6 16l-4 19q0 2 6 8l6 8q5 4 13 10t9 16.5t14.5 29t20.5 18.5t12 4t9 4q6 0 10.5 -9t6.5 -9q8 0 8 10q0 5 -9.5 7.5t-12.5 10.5t-6 13.5t-3 7.5q0 8 9.5 18t17.5 10t16 9q-12 6 -12 14q12 12 23.5 35.5 t25.5 23.5q2 0 10 -4q2 4 11 27l-7 20q19 27 27 31l8 6q6 28 47 47q53 56 64 56q2 0 8 -7l10 3q6 0 6 -7q-32 -30 -32 -32h1q3 2 7.5 6t15.5 14q0 -4 4 -4q11 14 11 29q0 2 -11 8l-2 6q0 6 35.5 37t77.5 55l10 12q4 5 11 5q8 0 24 -11l4 2q-2 4 -2 15q0 6 8 8q10 15 43 26 t45 21l21 8q16 2 27.5 6t27.5 4q3 0 16 6.5t19 6.5t22 -13q0 -2 4 -2l13 9h2q14 -13 30 -25q42 -31 42 -75l-5 -42l2 -35q0 -17 -16 -30q-7 -45 -18 -64.5t-17.5 -53.5t-58.5 -95q0 -2 -12.5 -17.5t-30.5 -54.5q-28 -30 -35.5 -47.5t-28.5 -26.5h-4l4 -22q-38 -62 -75 -62 q-23 0 -45.5 20.5t-22.5 41.5q0 49 115 119q2 0 8 -2l8 14q-4 8 -4 10q0 14 31 33q14 29 30 31l39 61l4 10v15q0 4 21 18l2 4v21q0 12 16 20q4 5 8.5 32.5t16.5 49.5q-4 47 -11.5 57.5t-23.5 10.5q-14 0 -47 -17.5t-43 -17.5q-4 0 -8 3t-8 3q-5 0 -10 -10.5t-12 -12.5 t-17.5 -11t-28.5 -17l-16 -21l-17 -12q-3 -21 -26 -21q-5 0 -17 -24l-8 -8h-16l-2 -9v-10q0 -6 -7 -10l-38 -41l-7 -4h-8l-4 -2q-3 -36 -20 -37q0 -13 -29 -35l-8 -10h-13l-2 -2q7 -6 7 -8q0 -6 -11.5 -22.5t-17.5 -14.5q-4 -28 -19 -49l-8 -15q-6 -10 -12 -16v-8 q0 -26 -49 -47l6 -25q-4 -8 -16 -24l-9 -19q-6 -18 -14 -22q-3 -9 -9.5 -16t-6.5 -11l2 -14q-15 -27 -18 -38.5t-10 -21.5t-11 -22.5t-19 -26.5q-12 -43 -12 -47l-14 -12q0 -2 -6 -15l-2 -8v-14q0 -13 -25 -31q12 -4 12 -16q0 -23 -9 -35t-13 -24.5t-15 -32.5q11 -7 11 -17 l-9 -67l7 -19q-2 -2 -13 -6q2 -12 12 -20.5t31 -49.5q4 -4 17 -4q12 0 18 2t26.5 4.5t43.5 18.5h16q24 0 33.5 17.5t19.5 17.5q9 0 29 8h6q4 8 8 11t16.5 18.5t22.5 15.5q35 23 54 41q2 2 11 3t14 10t45 42t48 52.5t19 19.5q4 0 14 -2h2q4 0 6 9t41 32q1 20 31 35l35 34 l16 -2q6 4 7 18t16 19h8l6 4q7 33 23 33h8q8 0 8 19q0 18 43 28l20 10q2 3 9 3q26 0 26 -41q0 -11 -8 -17l-14 -12l-2 -17l-36 -33q-9 -7 -10 -18.5t-6 -11.5q-3 -5 -12.5 -8.5t-12.5 -10.5q-14 -33 -44 -40q-17 -39 -32 -46.5t-17 -15.5q-4 -26 -27 -24q-37 -36 -47 -56 q0 -2 -2 -2l-14 2q-2 -2 -10.5 -12t-23 -11t-20.5 -17.5t-11 -20.5t-11 -13.5t-12 -9.5q-9 0 -13 17q-8 -4 -16 -15l6 -14q0 -4 -4 -7t-14.5 -19.5t-49.5 -22.5q-2 0 -8 -13.5t-28 -15.5q-21 -31 -35 -31l-43 -14q-11 0 -19 2q-6 -14 -14 -14l-14 -4q-7 -10 -17 -10 q-14 0 -14 8q0 2 2 6v4q0 6 -4 6q0 -43 -23 -43q-4 0 -22 8h-2l-19 -10q-2 -2 -8 -2q-37 0 -74 23h-10q-31 0 -47 36l-2 4q-24 6 -27 31q-4 6 -20 21q-2 14 -9 25.5t-7 13.5l-23 75q-4 33 -4 54l-2 8v6l4 27l-2 10q0 8 18.5 59t23.5 76t9 31z" />
<glyph unicode="D" horiz-adv-x="1409" d="M219 852l6 22l25 27q2 2 2 4v6q0 15 31 33q2 25 34 37l5 4v8q0 15 21.5 20t33.5 19q18 4 57 43q4 8 10 8l23 2q29 31 37 32t17 7t26 9q5 7 71 41h21q4 0 13.5 8t29 11t52 13.5t52.5 14.5l19 10h31l10 8l63 8l64 15l18 -2l13 2l22 -5q4 0 13.5 4.5t17.5 4.5q30 0 54.5 -7 t37.5 -8.5t21 -5.5t10 -4l26 2q2 0 8.5 -7t18.5 -11h18q2 -2 6 -2q12 -10 43 -25q22 -17 23 -18q8 3 62 -42t69 -69l21 -27l10 -26l10 -17q16 -41 29 -96l8 -20q2 -2 2 -9l-6 -28l8 -37q0 -12 -8 -35q4 -10 4 -12t-8 -31.5t-8 -34.5l4 -20q0 -4 -8.5 -12.5t-8.5 -12.5 q0 -13 -7 -25t-9 -16l-17 -28q-4 -15 -10 -17t-6 -14q-2 -2 -14 -12l-10 -15l-41 -43q-6 -22 -48 -51l-12 -12q-54 -44 -66 -52t-20 -18t-26 -20q-3 -5 -25 -21l-14 2q-7 -12 -17 -17t-15 -9t-7 -4t-9 2q-10 -15 -27.5 -22t-26.5 -13t-11 -6l-16 6q0 -22 -16 -24t-27 -9 l-21 2q-37 -37 -106 -37q-13 -16 -17 -16l-18 4q-8 -4 -14 -4q-5 0 -37 -10q-12 8 -29 8l2 -17q0 -10 -27 -10q-10 0 -22 6q-12 -4 -15 -4q-6 0 -9 7.5t-5 7.5q-20 -33 -70 -33q-5 0 -57 -13l-12 -2q-4 0 -8 2l-17 2q-4 0 -16 5q-6 -11 -10 -11q-19 0 -47 -6q-9 5 -41.5 7.5 t-40.5 11.5h-2q-2 0 -7 -2h-4q-4 0 -10 3t-19.5 5t-27.5 21.5t-14 33.5q0 19 16 35t33 16q8 0 22 -6h11l16 -2l6 2q-4 14 -4 15q0 30 21 51l14 39q2 4 12 11t10 19l9 21l2 14l10 14q8 11 10 21t14 14q0 21 14.5 34t14.5 20q0 20 14 22q5 4 5 8t-5 13q7 20 19.5 22t15.5 4 q-8 2 -8 10q0 9 6 17l10 26q5 13 25 25q-6 6 -6 10q0 2 6 8l14 -4q0 2 2 2l2 23l-2 14q0 2 23 13l4 10q-14 0 -27 4q-19 -8 -28 -14q-2 -3 -17 -3h-6q-2 0 -18 5q-4 -2 -8.5 -9.5t-6.5 -7.5l-30 10q-4 0 -15.5 -11t-21.5 -11q-5 0 -17 6q-8 -6 -38 -6q-13 0 -27 -6l-16 2 l-13 -2q-4 0 -30 18q-15 -4 -19 -4l-16 8q-16 8 -25.5 9t-18 5t-9.5 4.5t-9 9.5t-18 13t-10 17l-4 45q0 6 5 16t5 18q0 13 16 21zM457 752h4q16 0 16 -13q0 -4 -4 -10q4 -2 6 -2q4 0 14 15.5t52 15.5q2 0 5 -2t5 -2t9 6t11 6l45 10q64 10 64 25l-2 14q4 8 18.5 24.5 t14.5 34.5l6 23v10q0 27 37 33v2l-10 31l2 4q14 7 14 10q0 2 -9.5 12.5t-9.5 61.5q0 29 33 29q43 0 77 -38t34 -85q0 -35 -35 -105l-6 -22h16l25 4l18 -2q13 0 30 8t31.5 10t28.5 12q29 7 49.5 10t38.5 13h5q2 0 8 -8h2q2 0 6 2q6 14 26.5 21.5t26.5 15.5l17 18 q0 2 32.5 21.5t48.5 19.5q31 0 37 -24l6 -17v-2q0 -25 -39.5 -61t-104.5 -52t-79 -16q-6 0 -12 10l-21 -6l-6 -10q0 -2 -4 -2l-12 8h-4q-10 -9 -37.5 -18t-42.5 -15h-20q-16 0 -44 -10l-18 -2q-35 -6 -39 -8t-15 -27l-25 -55q-5 -12 -17 -31l-15 -24q-2 0 -2 -2l5 -15v-2 q-62 -83 -85 -144t-50.5 -110.5t-34.5 -68.5t-13 -30t-6 -13q0 -5 6 -5h8q11 9 22 10t23 3l11 -4h16q1 0 17 10l8 -2l18 2l17 -2q2 0 7 3t13 4t12 4t6 3l9 -2q2 -2 4 -2q6 0 12 16l18 -6q0 15 9 15q28 0 32 2l11 -2h2q2 0 12 6l109 41q12 2 45 26l20 9q21 10 27 16t10 6 q29 0 39 25q4 2 16 12l10 2q15 4 33 18l19 15q6 6 22 8q37 45 53 53l15 8q2 17 14 27t15.5 22.5t11.5 12.5h6q4 0 4 4l-2 18q0 17 20 17v6l-2 16v2q0 17 15.5 22t15.5 19q0 11 -3 23t-3 14q0 19 27 31l2 4q0 2 -7.5 8t-7.5 12q0 3 4 13t4 12t-5 10t-5 15q0 8 6 20t6 16 q0 9 -2 15q-12 6 -12 14v4l2 8l-2 13l4 12q-6 18 -10 35.5t-13.5 28t-9.5 14.5v2l5 14q0 2 -7 4q-51 68 -135 103t-86 35l-22 -2q-17 8 -19 8l-10 -2q-2 -2 -4 -2q-4 0 -18 8l-25 -2l-25 2q-47 4 -75 -4l-80 -13q-4 0 -33 -10q-16 -10 -66 -20h-24q-2 0 -12 -10t-64 -25 q-14 -14 -23.5 -16.5t-13.5 -7.5t-8 -5h-14q-11 0 -24 -16t-60 -37l-11 -10l-20 -11q-6 -2 -10 -8l-4 -4q-25 -7 -32 -23t-18.5 -19t-14.5 -15t-15 -20t-39 -46.5t-27 -56.5q0 -13 12 -37t35 -24q19 0 29 -4.5t18 -4.5q33 0 54 13z" />
<glyph unicode="E" horiz-adv-x="1161" d="M129 147l-14 39q0 2 8 17q-10 8 -10 12q0 10 8 27q-8 8 -8 16l6 21q6 22 16 28l2 6q-8 6 -8 11q0 2 10 20l2 14q2 21 25 33q0 46 20.5 61t30 32t43.5 63q19 12 39 22q7 26 19 30.5t34.5 32t55.5 30.5l10 4q5 16 28 31.5t41 22.5t30 16.5t30 17.5l16 8q7 5 19 18l8 2h8 q10 0 25.5 9t15.5 18l-14 -8h-7l-36 -13l-50 -6q-12 11 -24 13q-45 10 -45 73q0 46 19.5 69.5t27 46.5t27.5 44t22 31q0 4 12 10t17.5 19t34.5 30q-5 7 51 45q4 4 10 15.5t8 11.5q19 0 39 20l35 31q18 17 45 29q12 26 27 26q2 0 14 -6h4q2 0 19.5 18.5t31.5 26.5 q23 -8 27 -8v4q0 2 2 8l41 25l20 -2q27 20 56 20q2 0 14 -4q12 11 37 11q4 0 12 -5.5t12 -5.5q5 0 9 2t8 2q14 0 24.5 -10t25.5 -11t29.5 -33.5t14.5 -61.5l-2 -21l2 -16q-13 -24 -14.5 -41.5t-16.5 -38.5l-8 -27q-14 -12 -18 -20l-2 -2q-3 -31 -25 -31h-8q-25 0 -38 21.5 t-13 37.5q0 21 20.5 39.5t42.5 18.5l4 2q-2 4 -2 12t10 12l7 5q1 7 5.5 16.5t4.5 13.5q0 13 -13 38.5t-24 25.5q-4 0 -8 -2t-6 -2l-17 2q-34 0 -94 -35l-12 -4h-23q-2 0 -8 -10q-14 -5 -25.5 -23t-35 -28.5t-31.5 -18.5l-17 -6q-12 -4 -21 -17.5t-44 -40.5q-43 -43 -51 -59 l-13 -8l-26 -35q-25 -50 -49 -63q-4 0 -21.5 -43.5t-25 -47.5t-7.5 -8q0 -2 2 -8q19 6 32.5 14.5t19.5 8.5t24 12h6q9 0 21 12h14q6 7 23 15t48.5 25t73.5 29.5t75.5 21.5t39.5 9q56 0 56 -28q0 -51 -44.5 -91t-54.5 -40l-16 2l-72 -17q-11 -2 -18 -8l-78 -43l-35 -26 l-18 -5q-31 -28 -45 -30l-17 -4q-18 -39 -32 -39q-5 0 -15 8q-2 -2 -4 -8t-16.5 -25t-24 -22t-18.5 -7q-4 -36 -19 -36l-18 2v-13q0 -10 -15.5 -17t-18.5 -12t-7 -5l-14 8l-2 -4q4 -8 4 -13q0 -4 -7 -12t-18 -31q-11 -4 -14 -6q-8 -16 -19 -33q-8 0 -15 -14t-11 -30.5 t-17 -22.5q-9 -12 -18.5 -35t-12.5 -50.5t-16 -47.5q2 -2 2 -4l-2 -27q1 -1 7.5 -22t16 -24t15.5 -13q4 0 23 -6l10 6q10 0 18 -6h4l17 4l10 -4q8 0 20 8q0 2 3 2l14 -8q20 12 29.5 13t15 10t12.5 9q2 0 12 -6h3q2 0 10 7.5t22.5 11.5t22.5 10t28 16q19 2 31 13l10 4 q9 2 15.5 12t52.5 41l21 16q29 25 63.5 42.5t42.5 35.5l8 12q40 4 47 23q15 16 33 22q5 17 6 19l17 4l4 4q4 24 14 27.5t27.5 18.5t33.5 24l49 48q5 5 19 15q2 8 16 12l11 11q2 4 11 9t26.5 26.5t40.5 21.5q6 0 6 -6q0 -67 -21 -88.5t-72 -63.5q-2 0 -13 -15t-19 -17 q-3 -3 -14 -18t-19 -15q-9 0 -23 -21l-24 -16l-19 -21q-8 -6 -15 -8t-10 -11t-14.5 -16.5t-36.5 -31.5l-42 -38q-9 -9 -21 -15l-43 -43q-14 -19 -35 -19h-16q-2 2 -10 8l-6 2q-9 0 -9 -4l2 -26q-6 -4 -10 -4l-6 -2q-16 -28 -37.5 -44t-24.5 -19t-11.5 -5t-17.5 -9 t-28.5 -14.5t-31 -14.5t-13.5 -7q-8 0 -20 8q-13 -14 -18 -27.5t-13 -13.5q-6 0 -50.5 -15.5t-51.5 -23.5l-25 6q-15 -8 -31 -8l-18 4q-19 -6 -21 -6l-84 39q-12 6 -14 10t-6 4q-33 17 -43.5 38t-26.5 32z" />
<glyph unicode="F" horiz-adv-x="1022" d="M260 516l-27 2q-4 -2 -14 -14t-30.5 -22.5t-24.5 -20.5t-8 -15.5t-9.5 -14.5t-13.5 -15t-13 -18.5t-18 -12.5q-43 0 -43 55q0 16 20 59t44 50.5t36.5 13.5t23 10.5t55.5 36.5q2 2 51 15l37 22q8 10 14 11t16 6l17 2q11 13 35 20l28 12q28 16 72 29l6 4q2 2 6 4l27 -2 q12 0 16 19q4 2 6 2l25 -2q2 0 10 5t18.5 7t17.5 11t15 9h17q8 0 19 15.5t30 31.5q4 -2 8 -2q6 0 11 13.5t14.5 21.5t21.5 28.5t22.5 26t20 16t19.5 11.5l2 2v13q0 16 28 30q4 2 11 8v15q0 2 10 13.5t10 16.5q0 8 31.5 42.5t45 42.5t32.5 40l14 5q21 28 35 40.5t26 32.5 l15 17q6 2 6 8t-12 6q-13 0 -37 8l-17 -6l-18 2l-25 -12l-24 2q-25 -15 -35 -17t-15.5 -4t-12.5 -4t-19 -9t-33 -7q-8 0 -19.5 -9.5t-35.5 -23.5q0 -2 -2 -2l-29 2q-45 -45 -57 -45l-23 4q-35 -13 -54.5 -30t-37.5 -27l-18 2q-24 -24 -30.5 -28.5t-12 -15.5t-19.5 -11 l-22 -17q0 -15 -23 -33l-2 -4v-22q0 -8 -15.5 -21.5t-23.5 -13.5q-18 0 -36.5 23.5t-18.5 48.5q0 4 6 20l10 43q8 31 103 62l16 12q20 12 29 12l12 4l6 15q6 4 20.5 10t26.5 16t35 19l16 10h21q47 47 216 97t275 50q29 0 57.5 -36.5t28.5 -67.5q0 -19 -22 -39 q-16 -8 -24 -36.5t-27 -41.5q-40 -35 -43 -43l-9 -20q-4 -9 -13 -13t-17 -22t-41 -27q-2 -1 -3 -12.5t-24 -24.5l-12 -10q-10 -32 -19 -37l-10 -10q-14 -49 -46 -49q-7 0 -12.5 -17.5t-29.5 -31.5v-6q43 14 62 14l14 2l6 6q6 -4 12 -4q13 0 29 14l16 -2q2 2 7 2l51 15 q22 4 49 10h10q34 0 53 -21t19 -51l-4 -28l2 -15q0 -6 -19 -18l-10 -8q-24 -21 -51 -21q-46 0 -55 23q0 4 -13.5 5t-20.5 5t-11 4q-13 0 -27 4q-18 -12 -39 -12h-6l-12 4l-19 -14q-2 0 -6 2t-8 2q-6 0 -13.5 -4.5t-15.5 -4.5l-14 5q-6 -3 -13.5 -4t-16.5 -13t-19 -12 q-17 0 -33 -33l-6 -6h-6q-7 0 -10 -16.5t-7 -20.5q-16 -2 -19.5 -10.5t-10.5 -34.5l-9 -18l-12 -7q-10 -38 -36.5 -72t-39 -56.5t-23 -30.5t-14.5 -26.5t-10 -25t-24 -43.5l-31 -53l-13 -29q-7 -14 -18 -14q-6 0 -6 -10v-20q0 -4 -20 -48l-7 -20q-2 -4 -12 -9t-14 -26 t-11.5 -27t-9.5 -25.5t-20 -25.5q-2 -18 -3.5 -24t-17.5 -13h-2l6 -34q0 -7 -4 -7q-10 -6 -10 -10l4 -12v-4q0 -4 -8 -19v-2q0 -4 8 -37l-6 -12q0 -18 16 -18l31 20q14 0 14 -33l3 -10q-9 -6 -9 -10t2 -9t2 -9q0 -33 -59 -33h-4q-4 0 -12 4l-21 -2q-12 0 -43.5 23t-48 69.5 t-16.5 81.5l28 115q4 4 4 13t7 21l12 33q27 48 33 52t17 10t15 12q-18 6 -18 11q0 3 15.5 30t25.5 29q2 0 2 2t-2 8v2q0 2 12 22l-4 15q4 6 11.5 12t20.5 33.5t20 31t10 7.5l-3 28q0 4 7 11l6 12q4 8 10 15t16 24l7 8q4 6 12 25q0 20 22 43l38 59q40 61 40 70v2 q-22 0 -57 -19.5t-39 -19.5l-23 6q-4 -2 -32 -31q-47 0 -91 -31l-4 -2h-20l-4 -2l-6 -10q-11 -4 -27 -13.5t-27 -13.5z" />
<glyph unicode="G" horiz-adv-x="1075" d="M229 438h9l-5 13h-6q-8 0 -8 10q0 14 17 35v10q0 17 38 59l15 -2l-2 21l6 14q5 12 8 23l12 2l2 12v10q0 23 21 25q-4 12 -4 16q0 6 8 14l6 13q6 12 17.5 23.5t17.5 26.5t14 25l2 9q13 23 34 45l33 35q7 2 15 23.5t21 21.5h4q4 -4 6 -4t2 2l-2 16q20 20 20 27q0 16 50 49 q6 2 10.5 13t32.5 32l8 8q17 14 26 20q14 36 60 45l6 5q4 20 25 22q30 35 67 35q-2 6 -2 12q0 13 14 13q2 0 15 -5q12 23 25.5 29t18.5 11t13 8q2 2 13.5 4t27.5 18q4 0 21 10h6l4 -2q21 19 35 19l28 10q6 0 12.5 -3t8.5 -3q4 0 20 8h4q13 -8 37.5 -9t32.5 -34l12 -25 q6 -12 6 -20q0 -19 5.5 -27t5.5 -12q0 -6 -5.5 -16.5t-5.5 -26.5q0 -6 -8 -21l-8 -18q-27 -92 -51 -92q-58 0 -58 37q0 38 58 88q6 4 18 26.5t12 28.5q0 19 -18 19q-16 0 -28.5 -8.5t-30 -10.5t-23.5 -6l-16 -8q-17 -8 -60 -37l-270 -215l-4 -16q-2 -3 -16.5 -12t-20.5 -29 q-21 -37 -43 -54l-35 -47l-8 -18q-14 -6 -72 -84q-21 -25 -34 -31q-2 0 -2 -2l4 -16v-4q0 -11 -66 -105l-2 -4q-6 -38 -18.5 -58t-15.5 -32t-11 -23.5t-14.5 -30t-12.5 -27.5t-7 -18.5t-13 -29.5q6 -19 6 -21q0 -4 -16 -69v-4q0 -11 8 -25t14 -14q8 0 52 26t63 52l24 12 l15 14q20 2 26 4q18 43 31 49h19q10 9 10 27q0 6 28.5 36t43 47t18.5 19q6 15 29 36.5t30.5 40t22.5 18.5q14 0 14 6q0 4 6 16l2 8q18 26 31 35l8 10q8 17 15 21l12 12q2 13 13 23t24.5 34.5t29.5 41.5q24 15 38.5 55.5t39.5 58.5l25 41q18 23 43 23q21 0 53.5 -43.5 t32.5 -83.5l-9 -40q-8 -50 -23 -70.5t-17.5 -35.5t-16.5 -33t-24 -57l-29 -55l-8 -23q-11 -38 -12 -45q-1 -4 -3.5 -8.5t-5.5 -8t-6 -11t-3.5 -7.5t-0.5 1q-12 -23 -12 -27q0 -10 6 -10q8 0 18.5 12t20.5 17t13 13.5t19.5 18.5t20.5 10h8q31 20 35 28q3 4 32 18l30 14 q21 7 51 37l12 -2q17 8 21 8q6 0 6 -21q0 -12 -13.5 -19t-15.5 -11l2 -7v-4q0 -15 -15 -37.5t-33 -26t-25 -18t-11 -16.5q-2 2 -14 6h-4q-8 0 -18.5 -11t-37.5 -28l-16 -14q-6 -8 -14 -8q-60 -41 -60 -43q-52 -21 -67 -49l-19 -31q-7 -14 -14 -23l-16 -61q-8 -17 -21 -31v-2 l4 -22q-2 -5 -15.5 -21.5t-27.5 -67.5l-18 -61l-10 -16q-19 -23 -19 -27q0 -28 -27 -51q-2 -6 -18 -43l-12 -41l-19 -23l-4 -16q-6 -8 -17 -22.5t-18.5 -38t-27 -42t-19.5 -28.5q0 -5 -33.5 -49t-37.5 -60t-25 -18q-2 -2 -5 -17.5t-15.5 -18.5t-19.5 -17.5t-24 -14.5 q-20 0 -25 -9t-13 -9q-62 0 -76 57q-2 10 -9.5 18.5t-8.5 19.5t-11 32v2l4 12q2 0 2 4l-6 21q10 28 10 37l-2 24q-3 22 35 99q25 36 45 108q8 12 17 21l20 36l8 9q-2 4 -2 10q0 12 19.5 24.5t23.5 20.5l13 16l12 21q4 28 24 28q2 0 7 -2q6 9 6 17v4l-2 10q0 3 18 22l37 37 l10 17l62 53q6 6 18 23l94 94l8 4q9 4 9 6q0 21 13 42.5t19 39.5v12q4 5 9 15l10 8q2 11 8 16l-2 21q23 30 23 35q0 17 20 51v8q0 21 20 37q3 0 10 20t7 21l-2 12q-28 -39 -58 -53q-52 -52 -63 -71q-8 -13 -12 -13h-13q-4 0 -14 -9.5t-10 -13.5l6 -20q-5 -5 -12 -15l-2 -2 l-11 2l-4 -6l2 -14q-1 -1 -4.5 -7t-29.5 -22q-13 -25 -24 -27.5t-11 -11.5q0 -25 -35 -43q-4 -2 -9 -9t-16 -19l-6 -11q-2 0 -6 -2l-12 -2q-5 -2 -13 -26l-4 -4l-12 -2q-3 -2 -8 -19l-68 -67l-45 -15q-26 -8 -46 -8q-31 0 -48 18q-2 0 -4 3l-25 -3q-7 0 -32 23l-19 10 q0 1 -25.5 31t-25.5 41l-2 35l2 18l-2 41q0 10 8 28.5t9 25t8 14.5l2 14q0 12 7 18.5t11 12.5l4 4l16 -2l-6 16q0 2 2 2zM350 -438l-6 -13l6 -24l-4 -43q0 -23 10 -23q30 17 48 42.5t26 33.5t18.5 33.5t14.5 25.5h10q8 0 8 29q0 3 9.5 36t19.5 36q2 4 4 16l14 18q5 7 11 21 l6 25q20 60 49 69q4 2 4 9l9 30q8 40 34 49v2q0 5 -2 13v6q0 6 5 14t9 23.5t21 34.5v12q0 22 16.5 30.5t16.5 22.5l-5 23l-4 -2q0 -19 -25.5 -32t-32.5 -25.5t-20.5 -15.5t-15.5 -34q-4 -6 -29.5 -14t-28.5 -35t-14 -31l-24 -4q-8 -4 -12.5 -16t-36.5 -56l-15 -36l-10 -11 q-17 -27 -26 -75l-17 -29q-14 -14 -14 -27q0 -12 -19 -49v-16q-10 -17 -10 -21z" />
<glyph unicode="H" horiz-adv-x="1370" d="M651 1286l13 4q14 0 30 17q4 0 11 4h16q15 15 33 16.5t43.5 7.5t39 7t20.5 4.5t9 3.5l25 -4q27 0 37 -10.5t36.5 -30t26.5 -84.5v-2l-4 -23l2 -16q0 -6 -8 -15l-4 -12q0 -20 -12.5 -38.5t-14.5 -33.5l-12 -16l-16 -39l-25 -33l-18 -37l-21 -24l-2 -6q-7 -19 -20 -19v-18 q0 -10 -13.5 -32.5t-15.5 -35.5l-10 -18q10 -8 24 -8q3 0 25 10t35 10l94 19q3 0 12 -7q6 11 8 11l25 10q14 -4 16 -4q33 0 72 16q63 17 123 17l82 18q7 8 12.5 27.5t16 25.5t14.5 16.5t14 24.5l10 27l25 45l6 22q4 13 29 41v6q0 21 18 29l2 4v27q0 13 23 18l8 13l-2 32 q0 11 8 19t9 16t10 27l4 22q0 6 3 11.5t3 25.5q0 68 63 68q19 0 43.5 -25.5t24.5 -44.5q0 -59 -10 -82q-2 -4 -8.5 -23.5t-36.5 -70.5l-11 -18h-14l-2 -2l4 -27l-10 -10v-13q-4 -4 -7 -13t-14.5 -22.5t-11.5 -17.5v-12l-4 -8q-19 -39 -20 -47.5t-11 -20.5q0 -16 -22 -39 q2 -2 2 -4l-8 -29q4 -2 83 -2l19 2l40 -8q7 0 15 -2l4 -12q31 -2 31 -23q0 -32 -23 -57t-53 -25q-8 0 -19 7.5t-18 7.5l-26 -4l-25 8l-16 -2l-15 2l-16 -2l-12 2q-12 0 -25 -10h-18q-2 0 -30 -58.5t-40 -87.5q-2 -4 -14 -10q-8 -35 -31 -41l2 -14q-6 -13 -7 -25t-17.5 -24.5 t-19.5 -36.5t-16 -54t-17.5 -35.5t-17 -24t-23.5 -27.5t-11 -13l6 -14q-5 -35 -20 -35v-12q0 -11 -23 -21q6 -12 6 -16q0 -17 -8 -25q-14 -2 -14 -8l6 -12q2 -2 2 -8q0 -5 -10 -50q20 -13 20 -28l-2 -13q15 -14 15 -16l-7 -23q-3 -13 -18 -21.5t-43 -8.5q-25 0 -34 7 t-22.5 14t-15.5 14.5t-16 26t-14 48.5v13l-2 28v9l6 43l-4 36q0 4 4 11.5t6 13.5q-10 41 -10 49l-27 100q-1 5 12 21q-32 6 -36.5 16.5t-8.5 13.5t-8 11l-123 59q-1 1 -5.5 9t-19 10t-18.5 6l-10 8l-45 4l-21 -12q0 -8 -12.5 -24t-26.5 -52q-9 -24 -22 -24l-4 -9v-24 q0 -10 -10.5 -16.5t-18.5 -12.5q2 -2 4 -12v-4l-8 -15q-2 -2 -4 -18t-27 -35l-14 -16v-21l-13 -37q-13 -43 -28 -65q-12 -2 -12 -10l4 -13q2 -2 2 -6q0 -18 -16.5 -19t-18.5 -9q9 -29 9 -30q0 -9 -17 -16h-2l6 -38q-23 -22 -23 -37q3 -2 5 -15v-8q0 -39 -33 -39 q-13 0 -54.5 47t-41.5 97l7 48q7 52 15 63t14.5 28.5t11.5 23t11 17.5l10 16l4 17l8 18q23 37 21 39q0 10 14.5 23t14.5 33q0 18 26 44l6 11q46 94 64 106q-8 23 -14 23q-5 0 -13 -2.5t-15 -2.5t-17.5 -3t-32.5 -3q-8 0 -23 -4h-2q-4 0 -15.5 7.5t-11.5 9.5q0 22 35.5 47 t85.5 39q9 0 23 13t45 13l14 8l10 -2q23 29 37 54v12q0 4 21.5 29.5t23.5 29.5v17q18 19 26 41.5t36 50.5l14 29q23 43 44.5 73.5t29.5 55.5l16 20l11 29q19 43 28 53q-2 31 -12 31l-76 -15l-18 2q-23 -12 -43.5 -15t-46.5 -26l-21 3q-7 0 -17.5 -8t-56.5 -23q-4 -14 -8 -17 h-22l-33 -28q-29 -17 -42 -29t-22 -12q-17 0 -71 -90l-13 -9l-10 -16q-7 -2 -20 -4q-19 -21 -31 -21q-9 0 -37.5 15.5t-28.5 56.5q0 45 132 111l24 16q10 2 29 4q30 26 59 38.5t42 23t44 19.5t41 22.5t12 13.5l21 -2zM856 594l14 -12q4 2 9 2q16 0 58 -27.5t48 -39t17.5 -32 t20.5 -51.5t17 -39q7 13 13 31l37 86q0 2 10 14l8 15l10 2q-2 4 -2 12q0 12 25 37l10 31l25 32q4 18 16 38t14 20l8 4q7 37 19 49l2 6q-4 -2 -6 -2q-2 2 -12 4h-5q-10 0 -26 -6h-10q-2 0 -11 4h-4l-28 -12h-3l-10 8q-12 -2 -24 -2q-4 0 -19.5 -6t-29.5 -6l-48 -6l-24 2h-23 l-20 8q-19 -23 -43 -23l-8 -2h-2l-21 6q-6 0 -8 7.5t-6 7.5q-13 -29 -36.5 -32t-39.5 -13q-25 -7 -33 -7q-2 0 -8 3q-43 -67 -43 -70q0 -6 31 -6l14 -6q6 -5 22.5 -8t34.5 -9l15 4q2 0 19 -5zM494 659q8 -2 22 -2q8 0 8 7q0 6 -6 6q-16 0 -24 -11z" />
<glyph unicode="I" horiz-adv-x="768" d="M586 1372l6 10q7 13 22 13q2 0 15 -4q-2 2 -2 6q0 12 12 12h4q2 0 23 6l69 8q25 0 62 -12h14l27 -8q18 -17 26 -19t8 -6q6 -10 25 -24l29 -31l4 -8q8 -15 19.5 -31.5t11.5 -52.5l-5 -12q11 -5 11 -9l-6 -36v-31q0 -19 -5.5 -33t-5.5 -31q0 -4 -14 -22v-2l4 -27 q0 -4 -9 -13t-9 -14q0 -21 -11 -32q-1 -21 -24 -52.5t-28.5 -53.5t-27.5 -56q-8 -25 -11 -36t-21.5 -27.5t-18.5 -43.5q-6 -20 -28 -30l-23 -21v-12q0 -21 -24 -45l-34 -70q-10 -20 -26 -20l-4 -4q-3 -29 -10 -38t-15 -21t-15 -21.5t-15 -30t-23 -35.5l-10 -22v-8 q0 -27 -18 -27q-3 0 -11 2h-2q6 -21 6 -31q0 -6 -28 -63l-4 -15v-16q-15 -16 -20 -28.5t-16 -17.5t-11 -7l4 -6v-4l-7 -31l5 -37q0 -4 -9 -21q33 -24 33 -51q0 -43 -35 -51h-6l-20 -2q-35 0 -49 10t-35 31l-13 8q-6 4 -10 15l-10 10q-21 26 -21 84q0 6 9 14l2 6l-2 19 q0 5 22 65l29 60q24 49 33 57q3 16 10 37l6 4q2 14 15.5 30.5t19.5 39.5q14 2 14 6q0 2 -2 8v4q0 18 14.5 31.5t21.5 32t16.5 27.5t17.5 32q7 7 20 10.5t13 9.5q0 2 -9 19q27 62 58 96q4 6 8 19.5t16 19.5q11 34 26 56t27.5 48.5t30.5 26.5l4 6l-2 21q0 1 8.5 19t15.5 20 t17 16l-8 16q4 3 7 10t7 7q25 14 25 30q0 4 -2 13v4q0 6 18.5 26.5t18.5 49.5q2 14 12 26t10 20q0 7 6 15l-4 25q19 29 19 53q0 2 -5 10t-5 21q0 6 -11 16l-4 10q-31 11 -40 20t-50 9l-18 -4l-15 4q-6 -4 -10 -4h-2l-10 2q-17 0 -47.5 -13.5t-40.5 -13.5q-31 0 -41.5 -17.5 t-16.5 -17.5l-10 4h-2q-8 0 -14 -28l-2 -4q-39 -22 -62 -45l-65 -68q-33 -34 -36 -45.5t-20 -22.5q-16 -29 -16 -41q0 -26 -11 -35.5t-11 -15.5q0 -4 2 -8t8 -22v-5q0 -12 -7.5 -21t-7.5 -11q0 -3 17.5 -21t17.5 -26q0 -27 -23.5 -49.5t-49.5 -22.5q-23 0 -36.5 11t-13.5 67 l2 26l9 29l-2 31q0 4 19 34.5t24 44.5q18 59 55 91q8 6 8 14q0 14 12 27q0 4 14 16t17.5 25.5t18 17.5t20.5 27q23 28 55 45q15 28 35 35l27 18l6 10q6 6 16 10.5t19 14.5q28 14 37 14h8z" />
<glyph unicode="J" horiz-adv-x="979" d="M104 -295l5 21q-7 6 -7 15q0 43 13.5 57t25 44.5t19.5 37.5t19 41t50 69q7 51 45 61l37 58q5 6 14.5 8.5t24.5 15.5q6 23 39 39l29 29l16 8q6 4 31 28t49.5 38.5t46.5 28t26.5 24t15.5 33t20 47.5l20 26q2 2 2 4t-4 11v2q0 22 19.5 45.5t19.5 52.5q0 8 14.5 29.5 t22.5 25.5l-4 25q6 16 14 25.5t16 45.5q11 25 21 25q8 0 13 -10t7 -10q2 2 2 4q0 12 -10 16.5t-10 11.5q0 25 7 37t8 20.5t7.5 14.5t7.5 13t3 16v10q0 10 13 27.5t15 21.5t4 6l9 2l2 6q-15 2 -15 17q0 16 23 24q-6 13 -6 21q0 26 26 26h7l2 5q-9 10 -9 18q0 35 17 35 q2 0 6 -2l6 -2v6q-12 11 -12 20l8 23l-2 16q0 10 11 15.5t11 9.5l3 10q2 4 2 25q5 5 8 12v6l-2 21q0 2 5 11t5 13q0 70 -37 98q-12 2 -20 9q-2 0 -5 2h-34l-31 -15l-18 2q-13 -14 -15 -14l-14 2q-4 0 -11.5 -11t-18.5 -16t-23.5 -19.5t-24.5 -19.5t-19.5 -12.5t-31.5 -23.5 q-10 -27 -39 -37q-4 -4 -8 -23q-27 -23 -43 -49l-80 -119q-4 -5 -7 -23t-7 -22l-17 -18v-4l2 -10q-22 -20 -22 -25q0 -8 2 -14v-11q0 -1 -12 -46l-11 -44q-4 -8 -4 -24l-10 -62q0 -1 7 -11.5t7 -14.5l-2 -25l2 -37l-6 -22q8 -11 21 -39l8 -13h2l-2 -26q18 -13 27.5 -37.5 t30 -30.5t34.5 -37.5t14 -56.5q0 -31 -14 -31q-36 0 -42.5 8t-25.5 41l-26 66l-30 53q-9 15 -12 29t-11.5 22t-8.5 13l2 16l-4 21q0 10 -6 22t-7 29.5t-8.5 28t-7.5 28.5q0 8 -6 25q2 10 2 39l-6 30v4l-2 13v4q0 78 19 141q2 6 2 23l20 69l15 33q18 44 33.5 63t19.5 31.5 t26 22.5q19 35 23 39l12 2q14 30 43 35q0 24 47 45q17 10 26 22t30 12l108 41q3 2 17 -12h2q6 0 7 7t8 10.5t13 11.5h4l15 -4q41 0 59 6h16l9 2q75 0 94 -31l61 -53l11 -33l6 -67v-23l-9 -16q3 -6 3 -9l-15 -127l-19 -59q-21 -72 -34.5 -77t-13.5 -7q8 -11 8 -18l-4 -13v-16 l-14 -48q-6 -25 -27 -38q-4 0 -4 -4l8 -10v-4q0 -5 -4 -19t-5 -23.5t-10.5 -13.5t-11.5 -10v-27q0 -11 -18.5 -26t-18.5 -19l2 -24q-6 -10 -12 -33t-14.5 -30t-9.5 -19t-16 -33.5t-15 -28.5q0 -6 4 -6q10 0 20.5 15.5t42.5 29.5l33 27q8 8 24.5 14t42 34t54.5 36l29 20 q12 7 20 7q21 0 21 -21q0 -8 -6.5 -23.5t-8 -29t-26.5 -29.5l-13 -12l-20 2q-8 -4 -17 -20.5t-18 -16.5q-8 0 -18 -6l-13 -4h-10q-4 -3 -11 -17t-20 -17l-67 -36h-6q-21 -21 -27 -24h-18q-46 -33 -52 -41q0 -33 -20 -45h-2l2 -23q0 -4 -17 -20q-2 0 -2 -7l2 -16v-2 q0 -4 -16 -27.5t-20 -33.5q2 -5 2 -11q0 -16 -23 -26q0 -8 -29.5 -66.5t-42.5 -75.5l-102 -192q-6 -6 -16 -8q-7 -17 -23 -25q0 -31 -24 -41q-9 -24 -25 -39q-6 -38 -19.5 -41.5t-16.5 -16.5t-23 -20q-7 -34 -31 -36q-8 -9 -12.5 -23t-26 -24.5t-35.5 -23.5t-33 -22 q-45 3 -73.5 52t-28.5 94l4 33l-2 30zM188 -346l5 -12l1 -16q2 -7 5 -7q10 0 24 25l25 26q16 17 24.5 46.5t34.5 33.5q4 41 51 98q4 7 9 23.5t15 28.5t11.5 21.5t22.5 33.5q3 25 18 52t31 58l35 70l61 88q0 6 -3 6l-38 -20q-20 -8 -27.5 -21.5t-11.5 -13.5q-13 0 -24 -20.5 t-23 -31.5t-18 -14.5t-6 -5.5t-7 -20q-10 -8 -24 -26.5t-21.5 -23t-17.5 -30.5l-16 -10q-9 -26 -17 -41l-14 -2q-7 -12 -8 -23.5t-4 -11.5l-11 -4q-4 -5 -14 -27l-8 -6q-4 -4 -4 -27q0 -10 -9.5 -22t-17.5 -37l-12 -33q0 -14 -8 -32l-11 -7q0 -8 -6 -45q5 -9 8 -20z" />
<glyph unicode="K" horiz-adv-x="1438" d="M702 1016l17 16q16 64 51 74l6 6q-12 12 -12 21q0 4 4 14l4 20q2 11 15 35.5t18 81.5v6q0 21 -21 70v4q0 18 12.5 36.5t24.5 18.5q76 0 90.5 -27.5t26.5 -39.5q27 -19 27 -78q0 -37 -14.5 -49.5t-19.5 -25.5t-15.5 -24.5t-10.5 -13.5l4 -20q0 -23 -16 -29v-6h10 q10 0 16.5 6t29 12t31.5 13.5t16.5 10.5t17.5 9l60 33q31 17 60.5 29t45.5 28l34 10l17 -2q4 0 13 14.5t16 14.5l12 -2q16 8 22 8l13 2l26 23l21 2q28 25 63 22q5 3 16 13t25 10q3 0 17 8l16 10q8 11 18 13l25 8q10 6 14 6l13 -4q30 24 45 24q57 0 57 -52q0 -47 -39 -87 l-61 -37q-2 -1 -27 -5.5t-98 -41.5l-15 2q-10 -10 -20 -10l-12 2q-21 -10 -34.5 -13t-35 -15.5t-49 -19.5t-45 -17.5t-27.5 -10.5h-10q-8 0 -70 -28q-18 -7 -25 -9t-36 -12l-45 -26q-4 -1 -39 -19h-19q-3 0 -36 -22q-2 0 -7 -2h-2l-14 2q-4 0 -14.5 -9.5t-27.5 -14.5 t-20 -14l-16 -31q-9 -16 -17.5 -20.5t-15.5 -33.5l-57 -117l-12 -6q4 -17 4 -19q-4 -6 -12.5 -25.5t-14.5 -26.5t-18 -36q83 -52 90 -49l4 -4v-6q0 -10 12.5 -14.5t19.5 -9.5t32 -5l24 -24l12 2q8 0 23.5 -10.5t34 -18.5t27 -15t27.5 -12t19 -8q0 -18 48 -24q30 -15 34 -24 t19.5 -14t32.5 -16l26 -10q4 -4 7 -11t26 -13.5t27 -15.5t16 -17l18 4q50 -25 62 -37q6 -2 22.5 -7t22.5 -14.5t24 -15.5q52 -16 62 -84q-9 -21 -23 -43q-20 -8 -28 -12.5t-37 -11.5l-8 -7q0 -2 -4 -2q-45 0 -58 46q-2 6 -10 12q-8 -10 -12 -10q-12 0 -25 8.5t-31.5 26.5 t-45 35t-40.5 28q-41 42 -114 74q-6 4 -16.5 14t-51.5 30.5t-78 71.5l-8 4q-16 13 -28.5 25t-34.5 16q-21 13 -35 27q-105 70 -121 78q0 -47 -14 -47l-11 2q-4 0 -12 -31v-14l-13 -43q-12 -44 -32 -47v-15q-20 -32 -24.5 -49.5t-14.5 -39t-18 -52.5t-37 -98v-2l6 -17v-8 q0 -8 -8 -31q10 -20 10 -22q0 -6 -5 -16.5t-9 -19.5t-37 -20q-6 3 -19 15q-35 4 -51 33q0 2 -7 16t-7 27q0 2 -7 23.5t-7 31.5q0 60 30 104l2 13q3 11 13 31l14 30l2 14q2 15 9.5 25.5t27.5 54.5l8 13q11 25 13.5 28t2.5 8l2 11q7 6 7 14q4 2 14 10q9 28 25 62l31 68 q3 5 3 7q0 7 -151 113q-17 12 -17 33q0 33 68 65q6 2 43 26t53 24q6 0 53.5 27.5t51.5 28.5t7 4t15.5 8t32.5 16t20 12zM545 735l12 -6h4q9 0 43 92l31 74l-12 2q-5 0 -13 -10q-95 -36 -116 -53l-9 -5q-22 -10 -22 -36q34 -34 82 -58z" />
<glyph unicode="L" horiz-adv-x="1300" d="M74 170l32 6l31 15q34 16 62 16q6 0 12 -6l45 30q29 15 59 15q2 0 13.5 17.5t21.5 27.5l22 31q24 32 31 51v10q0 3 11.5 22t20.5 24t11 13v11q0 4 8 17t21.5 23.5t30.5 43.5l12 14l10 6q2 2 2 8q0 8 -2 13q11 10 13 18l8 27l10 6v18q0 6 15.5 25.5t33.5 68.5l31 60v4 q-18 -8 -27 -14l-28 -15q-2 0 -18.5 -15t-30.5 -16q-25 -27 -52.5 -31.5t-38.5 -13.5l-12 -6q-4 0 -12 -6t-12 -6q-9 0 -25 12h-4v-8q0 -16 -8.5 -18t-17.5 -5.5t-13 -3.5q-29 0 -33 14.5t-10 19.5t-6 12q0 26 25 53.5t42 29.5q2 0 17 7h4l19 -5q22 -5 26 -10.5t10 -5.5 l17 2l14 -2q4 0 16.5 15.5t32.5 17.5q47 15 98 47q4 10 17 14l12 15q0 4 22.5 10.5t40 36t17.5 33.5q0 2 -2 8q2 4 8 6q12 41 21 46.5t40 37.5v4l-4 10v4q0 45 41 68q9 53 31 61l12 6l-4 31q0 8 21 12l6 3l37 65q11 21 28 21q2 0 5 -3h4q8 0 8 9q0 2 -2 6v6q0 22 35.5 50 t83.5 28q10 0 38.5 -24.5t28.5 -74.5l-12 -38q6 -23 6 -25q0 -8 -16 -12q-2 -2 -2 -13q0 -10 -4.5 -20t-8.5 -31q-2 0 -6 -4l-18 -6q-3 -26 -6 -27h-5l-11 -4q-13 -4 -13 -12q0 -2 2 -12q2 -2 2 -6q0 -24 -49 -33q1 -16 -15 -27.5t-20 -19.5l-48 -48q-22 -22 -85 -57 q-4 -7 -9 -26t-12 -27l-36 -84v-8q0 -10 -13 -19v-14q0 -4 -12 -25l-33 -81q-12 -25 -21.5 -40.5t-14.5 -32t-15 -29.5t-14 -25.5t-35 -18.5q2 -4 9 -8t7 -8q-4 -7 -6 -11t-4.5 -15.5t-6.5 -18t-9 -12.5t-9 -12.5t-10 -10.5l-8 -21l-10 -8q-2 0 -2 -6q0 -2 2 -6 q-13 -29 -23 -39q-2 -2 -2 -25q17 0 25 -4q24 11 26 11q6 0 14.5 -3.5t10.5 -3.5l16 7l23 -7l12 2l27 -2l16 5l17 -3l16 5h8q6 0 45 -7h2q4 0 19 9h2q4 0 15 -3.5t17 -3.5l25 3l47 -9l12 4q2 0 5 -2q53 -7 118 -26l31 -6q2 -2 10 -2q10 0 25 8q51 -11 67 -25q2 -2 12.5 -7 t16.5 -11t25.5 -19.5t19.5 -31.5q0 -55 -15 -80t-30 -25q-37 0 -94 37q-8 12 -19.5 19.5t-13.5 21.5l-4 4h-29q-4 0 -12 6l-20 4q-21 11 -25 15t-13.5 5t-17.5 7q-16 1 -32 10h-21l-6 4q-4 13 -14 13h-9l-8 2h-18l-15 10h-4l-14 -6l-21 8l-14 -6q-35 0 -47 6l-16 -2 q-11 8 -13 8l-53 -8l-22 2l-21 -2l-8 6q-1 -3 -13.5 -9.5t-49.5 -13.5l-33 -6l-19 2l-12 -4q-17 -34 -37 -43q-4 0 -6 -12t-13.5 -20.5t-17.5 -15.5t-13 -10t-18.5 -28.5t-37.5 -25.5l-15 4q2 -4 6 -8.5t4 -8.5q0 -18 -26 -18q-2 0 -14.5 -9.5t-32.5 -15.5l-8 -8 q-5 -4 -19 -4l-59 -23h-2l-15 3q-2 0 -8 -3h-20q-7 0 -21 9l-14 -9q-2 3 -23 9q-26 0 -34.5 8t-12.5 8l-10 4q-10 4 -23.5 5t-38 33t-24.5 48q0 10 8 19t26 17t39 18zM1018 1206l29 19q8 5 37.5 58t29.5 83q0 8 -2 16q-29 -12 -34 -21t-41 -54t-37 -56.5t-16 -40t-16 -34 t-9.5 -19.5t-8.5 -18t4 -4q47 42 54 55.5t10 15.5zM59 113l-37 -17q-12 -4 -12 -10q2 -2 4 -6q17 -4 28 -11.5t24 -7.5l28 -6l27 2l8 -4q4 2 25 17q0 2 2 2l24 -2q6 4 15 11.5t24 12.5q10 17 31 33q4 12 8 18l6 21q-47 -4 -55 -6l-74 -23q-68 -21 -76 -24z" />
<glyph unicode="M" horiz-adv-x="1884" d="M381 918l6 2h27q12 0 35 28q2 2 53 19l4 4q14 12 20 16h19q2 0 16 9.5t59.5 21.5t59.5 20q6 2 44 6l28 5l22 -2q53 0 76 -70q0 -4 5 -12.5t5 -12.5q0 -42 -41 -88l-14 -37q0 -2 -10.5 -15t-18.5 -30.5t-43 -52.5q-6 -12 -17 -37.5t-18.5 -33.5t-39 -60t-31.5 -61 q-15 -11 -20.5 -37t-20.5 -49l-2 -7q32 11 32 35q0 3 17 15l8 14q12 14 21 16q2 8 21 23.5t25.5 21.5t21.5 12.5t34 49.5q2 8 15.5 13t22.5 16.5t15 15.5l8 12q11 10 15 12l49 60q39 25 43 39l8 2h6q16 13 21 18q0 30 22.5 39.5t32.5 23t22 13.5q3 0 11 -6h2q3 0 6 10v10 q0 17 10 28t27 14.5t33 25.5t36.5 23t27.5 16t43 32.5t45 19t16.5 5.5t15.5 4q10 0 29 -6l18 -4q23 -10 43 -37l10 -10v-4l2 -17v-8q13 -6 13 -12l-7 -13q-4 -7 -4 -16.5t-1 -19t-2.5 -18t-4 -16t-5.5 -14t-7 -12.5l-8 -32q-4 -19 -21.5 -45.5t-20.5 -37t-14 -28.5l2 -6v-14 q31 4 31 24q0 21 25 31l22 18q26 46 64 60q0 16 19 33l38 36l27 15q18 37 41 45l22 14q20 10 22.5 19.5t15.5 19.5t38 33l8 4l10 10q11 6 25 10l8 4q25 19 45 25.5t45 21.5l35 5q12 4 16 4q95 0 95 -107l-2 -16l2 -58q-25 -41 -25 -43l2 -18q0 -4 -13 -23.5t-15.5 -23.5 t-18.5 -21l-10 -30q-5 -10 -17 -19v-12q0 -15 -39 -45q-5 -26 -17.5 -38.5t-19 -26t-20.5 -25.5q0 -13 -17 -44t-26.5 -39.5t-19.5 -29.5l-9 -4q-6 -38 -14 -43l-16 2v-4q0 -2 4 -7t4 -11q0 -7 -6 -12t-7 -10t-4.5 -10t-4.5 -19.5t-15 -39.5t-15 -34t-3 -15t-2 -12t-5 -31 q19 -45 27 -61t8 -21q0 -40 -10 -53.5t-49 -13.5q-25 0 -43.5 17.5t-32.5 17.5v18l-2 2h-16q-2 2 -8.5 7t-12.5 14l-6 6q-8 10 -14 33l-6 20l2 16l-2 25q0 10 2 16l2 27q0 4 4 17.5t5 32t9 28.5t9 17t5.5 11.5t7.5 22.5t21 29q10 18 17 34q21 29 22 29h14q-10 12 -10 14 q0 27 21 27q4 0 10 -2l4 8l-4 17q0 17 26 34q0 29 27 52l-2 16q6 6 17 26.5t28 41.5l31 47l14 16q0 -1 0.5 -0.5t2 4t3.5 10.5l6 15l7 8q26 7 26 18q0 2 -8 13v4q0 8 12 20t22.5 33.5t10.5 26.5q0 4 -4 4q-32 0 -43 -23q0 -6 -39 -24l-10 -15q-12 -11 -21 -11t-23.5 -11.5 t-63.5 -52t-72 -66.5l-23 -16q-14 -7 -14 -11q0 -10 -17 -26l-12 -15q-14 5 -16 5q-11 0 -19 -11q8 -8 8 -10q0 -16 -30 -33l-43 -45q-2 -2 -15 -11t-19.5 -22.5t-35.5 -47t-34 -36t-12 -13.5t-29 -31t-25 -44q-19 -7 -19 -12l-6 -10l-8 -4q-2 -4 -3 -13.5t-40 -34 t-49 -24.5q-3 0 -9 -4t-8 -4q-3 0 -26.5 12t-34.5 56l8 26l-4 21q0 6 9.5 16t9.5 25q16 36 24 51l2 16q4 10 13.5 22.5t11.5 28t13 19.5t81 121v14l29 50q13 22 32 50l9 23q-31 12 -33 12q-6 0 -15 -8q0 -17 -59 -35q-12 -6 -31 -29l-28 -16q-6 -4 -19 -16l-14 -13 q-25 -6 -43 -28l-27 -19q-12 -10 -16 -15t-37 -22l-16 -16l-15 -8q-16 -17 -24 -29t-21 -14l-22 -8q-6 -26 -37 -50l-29 -36q-8 -7 -14 -11q-4 -10 -14 -14q-13 -16 -17 -22l-12 -9q-27 -10 -27 -16l2 -18q0 -11 -24 -21q-10 -5 -11.5 -16t-7.5 -23h-18q-3 0 -19 -10 q-2 0 -4 -2l4 -23q0 -12 -16 -27.5t-24.5 -27.5t-12.5 -12h-6l-6 -4q1 -19 -25 -41l-12 -15q-6 -5 -34 -50t-53 -73t-46 -37.5t-45 -19.5l-41 8q-6 11 -17.5 18t-11.5 15l-12 35q0 14 11 34.5t13.5 32t11.5 31t9 21.5q0 27 8.5 33.5t38.5 29.5q2 0 2 4v2l-2 17q23 39 29 39 q2 0 8 -2l-6 22q0 4 11 13t17 20l-4 12v4q0 19 25 39q4 8 16 41l26 46q10 19 21 25.5t12 15.5t7 20q0 -5 1.5 -0.5t5 19.5t22.5 24q23 59 36 59q4 0 11 -4h4q16 0 16 12q0 4 -4 4q-9 -10 -16 -10t-7 4q0 2 3 4l22 45l2 19q4 6 16 18l17 23v10q0 2 9 20.5t13 36.5l17 25 q4 12 4 22q0 15 -4 15l-58 -11q-47 -24 -67 -38l-23 -5q-2 0 -26.5 -13.5t-43 -15t-32.5 -14.5l-4 -2h-19q-11 -13 -15 -19.5t-7 -6.5q-101 -67 -128 -81t-41 -25.5t-24 -16.5v-12q0 -17 -24.5 -38.5t-42.5 -21.5q-6 0 -18.5 6.5t-28 8.5t-15.5 38q0 51 84 93q13 6 24 14 t89 39l29 14q10 10 33.5 18.5t37 14.5t21.5 8zM1319 676l10 18v2q0 2 -4 2q-10 0 -16 -20q2 -6 4 -6q4 0 6 4z" />
<glyph unicode="N" horiz-adv-x="1526" d="M190 723l-36 8q-29 5 -29 60q0 43 68.5 73.5t83 39.5t36.5 9q17 15 51.5 30t50 25.5t29 14.5t23.5 16q13 4 22 8.5t38.5 13.5t35.5 15l23 15q29 1 35.5 9t38.5 17l30 8q6 0 15 -10q4 23 18 23l31 -2q18 12 22 12l6 4q19 -2 28 -4t17 -14q9 14 17 14q16 0 37 -14l16 2 q25 0 27 -15.5t9 -24.5t13 -26l8 -12q9 -6 9 -14q0 -21 -25 -60l-27 -53q-12 -19 -26 -33l-8 -16q-15 -17 -24 -24t-11 -42q-4 -12 -11.5 -17.5t-11.5 -13.5q-20 -5 -28 -22l-50 -88q-3 -7 -21.5 -16t-37.5 -66q11 11 23 20l18 25l88 84q26 25 34 32.5t15 8.5q3 8 19 19 t30 28l13 12l6 11q8 18 22 18l8 8q5 19 25 19q4 4 5 17t18 13h8l2 2q2 9 7 12t9 13q0 -5 3.5 -1t12.5 20t20 20t14 14t15.5 16.5t21.5 13.5t16 7q4 0 12 -8q2 31 70 61l53 39q22 14 34 17.5t38 20t42 19.5t52 3l20 -4q8 4 21 4q25 0 66.5 -28t41.5 -81q0 -39 -31 -82 q-6 -6 -16 -29.5t-18.5 -38t-13.5 -32t-28.5 -41t-30.5 -59.5q-1 -5 -8 -14t-11.5 -23.5t-18.5 -33t-18 -36.5q0 -6 -31 -41l-33 -84q-11 -8 -28 -50l-35 -79q-15 -25 -21 -31v-24q-12 -17 -15 -46.5t-5 -40t-2 -14.5q0 -20 20 -20q29 0 43 14.5t22.5 19.5t30.5 27l66 54 q26 20 35 27.5t28 8.5q40 80 74 80q33 0 33 -18l-8 -14l6 -19v-4l-6 -33q-2 -6 -23 -20q-2 -14 -17.5 -23.5t-27.5 -21.5l-18 2q-7 -19 -20 -30l-29 -22q-15 -11 -36.5 -26t-47.5 -24t-34.5 -18t-19.5 -11h-16l-23 -6l-57 -7q-9 0 -75 40t-66 137q0 32 12 51l6 12q2 6 11 21 t16 34q18 9 18 15q0 2 -2 5t-2 7q0 8 8 20v19l58 90q0 1 23.5 50.5t28.5 53.5t6 8.5t4 11.5t4 16t15.5 25.5t26.5 37.5l10 14q11 14 17 30.5t12 23.5q51 60 57 110q7 12 15 21.5t8 21.5l-6 14q-25 -8 -50.5 -24.5t-54 -26.5t-40 -19.5t-56.5 -35.5l-14 -17q0 -2 -4 -4l-19 2 q-4 -2 -7.5 -12.5t-22.5 -15.5q-3 -1 -13 -23q-8 -6 -41 -14q-12 -10 -22 -28.5t-33 -26t-27 -11.5q-8 -46 -38 -54.5t-38 -35t-30 -31.5q-8 -6 -25.5 -28.5t-43 -40.5t-44 -44t-33.5 -35.5t-62 -61.5t-53 -62t-44 -49q-4 0 -19 -4q-4 -8 -9 -13l-40 -46q-25 -28 -59 -76 q-10 -5 -17 -7q-4 -4 -6 -16l-6 -12l-22 -15q-27 -61 -76 -61q-27 0 -49.5 41.5t-22.5 42.5q0 57 8.5 74t22.5 32q2 0 9 18.5t17.5 31t23.5 38t24 25.5q2 0 8 -2l4 4l-4 23q4 10 10 16t12 22.5t25 24.5q0 8 20 33q8 19 22.5 44.5t31.5 31.5v8q0 12 26 39q12 4 16.5 20 t18.5 25q15 20 33 46l39 50q12 13 18 17q0 30 19 30q2 0 8 -2q4 21 12 30t10 21.5t35 22.5l-4 14q16 35 35 45q3 3 18 43q0 6 -20 13q-6 -7 -10 -7l-33 3l-31 -11q-16 0 -18 -2l-13 -4q-19 -7 -24 -14h-4l-15 4h-4l-45 -29h-4l-33 4q-10 -16 -55 -24l-10 -17l-23 2 q-10 -6 -19 -16t-20 -12q-75 -33 -102 -63q-8 -9 -15.5 -15t-15.5 -21l-12 -18q-6 -16 -16.5 -18t-23.5 -14.5t-22 -12.5z" />
<glyph unicode="O" horiz-adv-x="1137" d="M248 532l6 5h6q6 6 6 8q0 4 -3 8t-3 8q0 21 19 29q-3 8 -3 24q0 9 8.5 18t15.5 34.5t30 29.5v4l-4 11q0 6 8 18v10q0 13 13 16t13 7q0 12 17 29l-4 16q0 8 18 22q33 33 33 50v10q0 9 29 33q0 2 2 2l14 -2q4 14 6 29.5t39 47.5l2 7q14 19 16 20l9 2q12 21 16 31t10 11 t11.5 7t15.5 8q13 17 24.5 35t32.5 31q4 37 21 37l14 -2q8 23 53 57l37 27h6q5 2 15 16l14 10q2 19 18 19h9q20 31 69 41q6 -2 15.5 -4t15.5 -15l10 -18q4 -14 8 -14l13 12q61 11 110 45q17 -4 22 -4t11 -4h4q2 0 14.5 7t14.5 7l33 -2l30 -6l42 2q20 0 53 -25 q11 -23 23.5 -26.5t35 -55t22.5 -67.5v-17l-4 -32l2 -23q0 -16 -8 -25.5t-8 -29.5q0 -30 -24.5 -81.5t-24.5 -68.5q-24 -63 -37 -63l-22 -57q-8 -20 -18.5 -26.5t-18.5 -12.5l2 -29q0 -10 -27 -31q-8 -18 -16.5 -35.5t-22.5 -27.5q-35 -46 -47 -74q-4 -4 -18 -14 q-25 -31 -40.5 -55.5t-31.5 -36.5l-14 -15q-9 -10 -23 -14q2 -4 2 -10q0 -21 -22.5 -34.5t-28.5 -21.5l-43 -41q-6 -4 -15.5 -18t-19.5 -23l-14 -22q-67 -45 -70 -45q-3 -2 -12 -21l-19 -6q-16 -33 -45 -39l-10 -4q-2 -4 -9 -7t-12.5 -6.5t-28.5 -10.5l-22 -7l-10 2 q-4 -22 -24 -22h-11q-4 -3 -18 -8l-4 -2q-7 -15 -8 -15l-31 2q-16 -8 -21 -8q-2 0 -10 2l-10 -10q-14 8 -16 8l-7 -2q-24 -6 -36 -6l-13 4q-28 14 -33 14l-38 -2q-2 0 -13.5 12.5t-32.5 26.5t-42 60t-21 59l-6 57l2 17l-6 55q0 25 20 53q-2 15 -2 23v14l2 23q0 15 15 28 l-2 25q5 6 10 18zM737 319l2 5v12q0 17 25 20q12 13 22.5 32.5t16.5 19.5h10q6 0 6 4l-2 16q6 10 25.5 30.5t38.5 42.5t33 44t27 37.5t19.5 25.5t26.5 21l4 4v20q0 2 23 37q35 27 38 45.5t15 35t16 28.5q17 10 17 14l8 14q8 17 12 29l17 16q14 19 17 38.5t14.5 24.5t11.5 9 q0 2 -4 12v5q0 10 12 22q24 49 27.5 62.5t15.5 31.5l-4 27q0 6 12 20q-8 29 -8 31q0 6 10 29l-2 20l4 13q0 16 -18 34q0 31 -56 31l-18 -2l-39 6q-67 -29 -90 -29q-12 0 -26.5 -16t-16.5 -16l-10 4h-4q-7 0 -9 -16.5t-18.5 -24.5t-49.5 -39t-43.5 -48.5t-25.5 -29t-20.5 -36 t-18.5 -42.5l-14 -22v-15q0 -6 -14 -14l4 -12l-2 -12l2 -17l-4 -24l10 -46q0 -77 -57 -77q-22 0 -33.5 8t-18 44.5t-6.5 45.5q0 1 8.5 32.5t14.5 39.5t6 14q0 2 -2 4q22 16 27.5 37.5t19.5 44.5q33 38 74 119q12 12 41 35q1 9 16 24l14 19l23 20q16 10 24 21q-30 -5 -51 -21 l-32 -25q-15 -13 -24 -16.5t-18.5 -18t-20.5 -24.5t-23.5 -26.5t-20.5 -20.5q-16 -4 -21 -29q-6 -10 -18 -24l-6 -17q-4 -6 -12.5 -14t-18.5 -22q-24 -15 -26 -15q2 -6 2 -14q0 -4 -18.5 -33t-26 -50.5t-17.5 -27.5t-20.5 -37.5t-34 -63.5t-26.5 -40t-23 -35 q-12 -26 -15 -41l-16 -16l-23 -76q0 -3 -10 -12q-5 -30 -16 -39q0 -8 -4 -17l-8 -28l-17 -19v-4l4 -10v-4q0 -8 -11 -27.5t-12 -49.5t-6.5 -41t-6.5 -23.5t-3 -18.5l4 -16l-4 -31q0 -1 4.5 -9.5t4.5 -10.5l-5 -13q-2 -2 -2 -4q0 -35 34 -48t54 -13q17 0 59 15t55 28.5 t28.5 19.5t27.5 15q22 28 33.5 30t34.5 25l12 6q11 20 13 20l14 9q14 26 20 26l15 -2q2 0 4 2t18 8z" />
<glyph unicode="P" horiz-adv-x="1260" d="M541 1247l8 10q7 10 20 11.5t25 7.5l147 41q21 5 52 8l32 10q13 6 37 6l33 7q4 0 7 -7.5t5 -7.5q47 31 60 31h2l24 -6q6 0 13 8l4 4q22 -10 24 -10q15 0 34 6t36 6l31 -2l69 4q6 0 13 -6l20 4q29 0 57.5 -8t68.5 -12t58 -27l17 -6h12q26 0 31 -21q6 -12 24 -24l13 -21 q-2 -6 -2 -12t22 -14l4 -2q1 -15 19 -34.5t18 -72.5v-24l4 -52q0 -53 -31.5 -128t-66.5 -105q-8 -27 -19 -27q-35 -32 -45 -32q-2 0 -6 2q-13 -24 -43.5 -42t-39.5 -21t-46 -17l-24 6q-15 -14 -21 -15l-53 -22q-67 -18 -88 -18l-25 8q-6 0 -18 -15l-19 -4q-6 6 -39 9 q-14 -9 -23 -9l-44 -6q-8 0 -10 15l-9 -3l-4 -14q-4 -2 -10 -2l-53 6l-25 -6l-41 8l-20 -2l-17 8l-16 -2l-16 4l-19 -4l-4 2q-4 -8 -10 -13t-16 -21q-23 -19 -29 -46t-35 -30q-2 -4 -6 -10q2 -2 6 -17v-4q0 -24 -39 -49q-6 -36 -14.5 -52t-11.5 -26.5t-17 -17.5l-4 -6v-29 q0 -2 -6 -12.5t-17 -30.5l-6 -10l-8 -33q-20 -14 -20 -39l2 -57q0 -15 -19.5 -31t-38.5 -16q-49 0 -67 59l-6 8q-21 17 -21 51q0 39 41 117l66 119q1 2 26 18l11 -4q4 2 4 8q0 2 -11 29v4q0 8 7 10l8 9l-2 20q18 27 19 35l10 23q10 23 16 24q0 40 24 59l8 17q3 6 13 7t10 3 q0 4 -3 10t-3 10q0 10 11.5 26t16.5 16l15 -9v6q-10 9 -10 15q0 8 9 21.5t11 19.5l8 10q2 0 10 28t23 27v10q0 10 23 48l53 94q2 10 16 35l-2 24q0 16 18.5 50t30.5 34q6 0 8.5 -2t4.5 -2l16 2l32 -29q13 -11 15 -39l4 -6q25 -46 25 -65q0 -24 -4.5 -36.5t-30.5 -29.5 q-25 -29 -31 -50.5t-20.5 -40.5t-25.5 -56t-38 -55q-3 -27 -8 -46v-2q0 -6 8 -6l33 4q6 0 14.5 -3t16.5 -3t20 8h6q4 0 25 -10l4 2q6 10 12 10l39 -4l19 2q14 9 43.5 10t41 6t20.5 6t23.5 8t24.5 7q23 0 64 21q14 -4 16 -4q19 0 31 16t27 18l61 27q8 3 35 33l18 12l12 17 q0 2 19 12q-4 2 -6 6l22 25q-2 10 -2 12v4q10 15 20.5 22t10.5 9l-10 12q14 14 14 18l-4 29l4 51q0 39 -5 50.5t-7 23.5q-19 37 -53 61q-3 2 -3 7l-2 10v4l-32 -4q-2 0 -6.5 10t-14.5 10l-14 -6h-2q-7 0 -35 19q-6 2 -25 2l-14 6q-6 4 -10 4h-6l-23 -4l-51 4l-31 6 q-17 -12 -22 -12q-4 0 -19 6h-2l-30 -4q-14 -2 -23 -4h-6q-33 0 -51 6h-6q-11 0 -18 -7.5t-13 -7.5q-4 0 -10 13q-13 -10 -19 -13l-18 7q-4 -8 -61 -17l-48 -10l-8 2q-23 -8 -38 -11t-26.5 -8.5t-24.5 -7.5t-38 -10l-16 4q-19 -11 -55 -26t-45 -24t-17 -9q-2 0 -12 2h-2 q-9 0 -29.5 -20.5t-35.5 -29.5t-26.5 -28.5t-52.5 -28.5q-2 -2 -4 -6v-16q-16 -9 -29 -35l-6 -10l-2 -19q0 -30 -8 -32t-16.5 -8.5t-16.5 -6.5q-17 0 -32 30t-15 36q0 59 39 87l74 54q37 27 63 27q8 4 17 19t41 22l16 -6q2 0 6 8t12.5 13t14.5 13l26 17q2 0 4 2l15 -4 q2 0 6 2t14 2q4 0 6 10q4 5 11 6z" />
<glyph unicode="Q" horiz-adv-x="1122" d="M293 616l8 25q-4 12 21 41q2 20 15.5 46.5t22 53.5t35.5 47q8 25 8 31q3 4 17 8q7 14 12 31l37 66q4 7 16 34l54 52q0 22 16 30t19.5 26.5t21 34.5t29.5 32q10 2 12 10l11 16q11 17 18 17h8q2 14 30.5 38.5t38 37t25.5 20.5l8 10q7 -2 37.5 23.5t44.5 25.5l19 -2l22 8 q32 0 51 -37q2 0 11 7l24 12q10 8 20.5 18.5t55.5 26.5l18 12q13 8 23 8l59 7q74 0 116 -42t48 -57q0 -4 2 -6l-6 -29q2 -4 22 -18l3 -10q0 -6 -7.5 -8t-7.5 -5q0 -4 5 -9t5 -13l-4 -46q0 -13 -11 -50t-11 -39l8 -31q-6 -12 -16 -18q-6 -46 -54 -162v-8l-12 -29 q-12 -30 -27 -35q0 -2 -14 -61.5t-39 -65.5q-10 -8 -16 -28.5t-23 -45.5l-10 -18q-2 -10 -15.5 -25.5t-24 -43.5t-30.5 -33q-1 -3 -3.5 -16t-10.5 -22t-11 -20.5t-26 -21.5q-10 -23 -17 -30t-15.5 -24.5t-36.5 -23.5l-7 -4v-10l-6 -13q-12 -10 -16 -24q-30 -40 -72 -64 q-16 -41 -41 -47q-10 -10 -10 -18l31 -58l16 -10q14 -8 23 -31q8 -3 14 -10v-16q24 -8 35 -8l24 4q11 0 21 -9l6 -2h18q17 0 36.5 -20.5t19.5 -36.5q0 -21 -8.5 -26t-14.5 -15t-41 -10q-4 0 -16 -6q-8 2 -28.5 4t-55.5 19.5t-40 25.5t-16.5 18.5t-20.5 31t-15 26.5 t-11.5 21.5t-15.5 27.5q-2 0 -2 4l2 20q0 1 -4.5 10t-7.5 9q-19 -29 -47 -27q-8 -5 -19.5 -16.5t-70.5 -38.5l-21 2q-10 -10 -20 -10h-2l-13 2q-16 -15 -26 -15l-35 7l-19 -7l-12 2l-14 -2q-6 5 -19.5 6t-18.5 6t-15.5 11t-18.5 16.5t-31.5 20.5t-35.5 45l-37 108 q-11 31 -11 64q0 4 9 24l-4 17l2 53l-4 23q16 30 16 32l-4 31q0 10 12 43t12 41q0 27 7.5 34t13.5 23zM813 436l14 21l13 6q5 3 13.5 18t39.5 41q2 4 8 20.5t21 22.5q0 31 25.5 50.5t32 38.5t26.5 53q41 58 49.5 65t12 33t11.5 32.5t13.5 20.5t11.5 27.5t8 26t16 22.5 q2 0 10 17t25 26l-6 14q0 41 16.5 58.5t16.5 21.5v6l-4 13v2q2 2 2 6v12l29 135q3 18 -3.5 41t-19.5 33l-12 12q-4 6 -56 8l-67 -24l-121 -84q-12 -8 -27.5 -29.5t-33 -32t-25.5 -26.5q-3 -2 -15 -3t-18 -36l-12 -25q-16 -7 -17.5 -16.5t-7.5 -20t-8 -20.5l-6 -12 q-4 -2 -8 -54q18 -34 18 -55q0 -11 -16.5 -41.5t-38.5 -30.5q-55 0 -55 68q0 27 24 72l-2 16q0 4 14.5 19.5t19.5 27.5t12 20.5t11.5 33t45.5 61.5q7 32 24 49l10 18q19 19 43 35l9 13h-11q-8 0 -20 -7l-10 -2l-13 -10q-8 -8 -34 -16l-7 -4q-2 -9 -14.5 -17.5t-21.5 -22.5 t-27 -32l-21 -33q-16 1 -31.5 -33t-24.5 -43.5t-12 -23.5t-11 -19q0 -13 -19 -27q-4 -3 -8 -18l-19 -28q0 -13 -14 -24t-14 -13l6 -17q0 -8 -24.5 -38.5t-32.5 -59.5l-4 -10q-17 -10 -17 -27q0 -8 -4 -35q-9 -4 -23.5 -26.5t-14 -41.5t-14.5 -45.5t-26 -72.5q-6 0 -8 -2 l6 -22q-23 -44 -23 -53l9 -27q-10 -10 -10 -17l2 -16l-4 -27l2 -24q0 -9 -2 -13l-5 -20l5 -31q0 -8 -5 -28q2 -4 9 -13q0 -76 28 -104q5 -7 9 -15l20 -2q6 0 11 3.5t13.5 4.5t14.5 7q20 4 33.5 16t30 13t44.5 34l13 8l49 41l7 3q7 3 7 8q-24 28 -33.5 51.5t-21.5 23.5 q-4 0 -11 -6q-19 -16 -34 -16q-57 0 -57 26q0 54 77 54q19 0 60 -23q2 -4 22 -24l31 -37q4 -4 6 -4q13 0 52 48t48 75q15 21 25 28z" />
<glyph unicode="R" horiz-adv-x="1380" d="M475 1139l-2 -11q-3 -17 -28 -34t-50 -17q-63 0 -63 60q0 21 32.5 51.5t87 42.5t78 23.5t72.5 17.5q8 -8 16 -8q13 0 18 9t23 5h5l53 14l16 -6q4 0 9.5 4t13.5 6h16l19 4q22 6 26 9l17 -2q19 0 62.5 10t66 11t33 3t12.5 2q6 0 15 -6t13 -6t56 12h6l45 -10q18 10 24 10 q21 0 35 -14l19 8l10 -2q6 0 18 2h8q7 0 15 -2q2 -2 4 -2q10 0 16 2h13l43 -10l18 2q2 0 12 -6l11 2q10 -7 36 -19q5 2 15 4h2q2 0 20 -12l29 -14l8 4q28 -14 29 -16l8 -17q12 -6 27 -16q3 -10 12 -23v-8q0 -2 15.5 -14.5t15.5 -18.5q0 -2 -2 -14v-2q0 -2 7 -13t7 -26 l-2 -14l2 -13l-10 -67q-9 -10 -12 -19.5t-15 -14.5t-19.5 -20.5t-21.5 -20.5t-26.5 -17.5t-28.5 -12.5l-107 -32l-12 4q-18 -29 -53 -29q-9 0 -40 -7l-20 -5l-16 2l-37 -7q-17 -3 -25 -7.5t-20 -4.5l-27 -14q-2 -2 -6 -2q-8 0 -10 2l-14 4q-8 -2 -14.5 -7t-12.5 -5l-12 10 l-19 -16q-12 -2 -32 -9q-13 7 -17 7l-35 -15l-20 6l-2 -6q-14 0 -28.5 -10t-24.5 -10q-7 0 -15 8q-4 0 -8 4q-10 -7 -15 -14.5t-22 -14.5l-24 7q0 -3 -19 -10.5t-20 -12.5l-10 -14q-7 -17 -11 -28t-10 -17.5t-11 -22.5t-18 -35l-2 -12q-6 -8 -18 -18l-23 -43 q-10 -15 -10 -21q0 -15 27 -29l106 -90l17 -10h2l-4 -18q8 -5 10 -5q6 0 6 9h6q2 0 10 -9l11 -6q7 -7 26 -23t19 -22l-2 -8h6q4 4 6 4q4 0 22 -12l13 -6q40 -29 48.5 -39t25 -22.5t26.5 -28.5l115 -86q144 -108 162 -144q4 -6 19 -12t43 -33.5t34 -42.5v-35q0 -4 -10 -10 l-13 -12q-26 -27 -45 -27q-47 0 -69 21l-5 2h-10q-16 0 -18 28l-4 13q-50 16 -76 51l-57 53q-2 2 -33 38.5t-54.5 52.5t-37 33t-36 32t-47.5 50.5t-28 37.5q-45 24 -43 53q-6 4 -29 8q-12 13 -15 14t-5 3l2 16q-30 9 -42 22.5t-32 36.5t-34.5 35.5t-15.5 19.5t-19 17 q-7 -12 -15 -19t-12 -16l-4 -6q-14 -14 -14 -31q-15 -12 -19 -43l-45 -102l-8 -37l-6 -63q-3 -27 -23 -27l-20 -2q-8 4 -37.5 7.5t-48.5 58.5q-2 6 -11.5 20t-9.5 25q0 8 6 26l4 23q0 6 25 57l53 101l26 39q5 8 11 30.5t18.5 37.5t12.5 22q0 12 -18.5 24t-20.5 23l-4 10 q-53 31 -53 70q0 21 53 52.5t71.5 35.5t36.5 14l17 4l14 12q12 4 29.5 7.5t30 41t22.5 43.5q20 41 27 62q2 4 11.5 18.5t19.5 48t14 33.5t16 4l-10 27q0 4 8 12q-14 17 -14 41q0 39 55 39q10 0 40 -17.5t32 -25.5t13 -25.5t11 -29.5q0 -39 -13 -51t-27 -53l-27 -76l-4 -19 l-5 -8l25 6q8 22 68 25l63 20h19l61 17q4 0 29 4h6l12 2q4 -2 8 -8h4q11 0 12 13t29 13q4 0 7.5 -5t7.5 -5q2 11 15.5 15.5t19.5 4.5l16 -2q-2 2 -2 6q0 9 61 19q17 6 27 15t63 26l60 18q37 12 51 72q-2 2 -18 27q0 2 -15 2q-4 4 -14 9.5t-23 18.5l-12 -4q-14 8 -32.5 12.5 t-39.5 20.5q-8 -4 -10 -4t-22 10l-27 12h-16l-7 2q-6 7 -10 7l-10 -2q-4 -2 -10 -2h-17q-2 0 -16 10h-33l-18 -4q-4 0 -13 8l-18 -4l-18 8l-27 -4q-8 6 -12 6l-80 -8q-4 0 -7 4t-9.5 6t-14.5 8q-21 -12 -41 -12l-31 4l-6 -2h-4q-2 0 -18 4q0 -4 -2 -6l-15 4l-55 -10h-2 l-10 2q-4 0 -11.5 -3t-11.5 -3l-22 2l-17 -4l-24 2l-21 -15h-4q-4 0 -9 3.5t-7 3.5l-15 -3l-12 3q-4 0 -16 -19q0 -2 -4 -2h-2l-15 4q-4 0 -16 -14q-19 -7 -37 -15q-14 -20 -24 -24zM541 666h-25q-6 0 -21.5 -11.5t-15.5 -15.5t23.5 -22.5t29.5 -18.5q18 0 43 82l-10 -4 l-12 2q-12 -10 -12 -12z" />
<glyph unicode="S" horiz-adv-x="1296" d="M922 330l8 20l26 29q20 33 33 39q2 8 6 15t6 22l9 16q4 4 4 6t-8 12l-5 21q0 8 -53 53h-8l-72 35l-4 10l-8 2l-10 -4h-2l-34 10q-41 11 -54 17q-2 -2 -6 -2l-40 9q-17 4 -20.5 8.5t-17 9t-17.5 8.5t-16 4l-25 -6q0 3 -28 10q-4 10 -6 10l-29 -4q-29 14 -30 14 q-5 0 -35 5.5t-39 11.5t-27 12l-6 6q-2 2 -11 4h-18q-6 0 -16.5 10t-27 20t-29 31.5t-13.5 43.5q-2 2 -2 4l6 32q9 61 57 113q8 27 33 39l4 14q29 25 41.5 40t28.5 24.5t25 17.5l18 8q-1 9 44.5 42.5t71 44t34 15.5t49.5 15q10 27 32 27h15l20 20l27 -2q2 2 11 12.5t30 10.5 l121 37h8l8 -2q8 0 20.5 14t32.5 14q4 0 15 -8q0 -2 2 -2l26 8l31 -2l39 10q37 0 65 -18l2 4v6q0 17 19 17q8 0 10 -4l12 -7h7q2 0 26 -12q15 10 19 10q19 0 30 -16l17 2q8 8 10 8q6 0 16 -16l6 -2h25q2 0 8 -6l11 -9q8 -8 11 -13t7 -9q26 11 28 11q10 0 15 -17 q0 -14 17.5 -27.5t17.5 -28.5q22 -10 22 -32l19 -49l-4 -17q8 -16 8 -18l-4 -37l4 -39q0 -31 -29 -53q-6 0 -19.5 -8.5t-15.5 -8.5q-26 0 -34.5 12.5t-16.5 18.5t-8 16q0 23 31 45q14 0 20 9q0 21 -9 29t-19.5 22t-22.5 22.5t-19.5 21.5t-13.5 13l-14 -2l-29 6q-46 6 -84 21 h-20l-54 8q-14 -6 -40 -6l-66 -10l-27 2q-3 0 -55 -17l-10 -2h-27q-2 0 -25.5 -10t-39.5 -14l-9 -4q-2 -2 -6 -2l-16 2l-88 -43l-14 8q-17 8 -19 8q-14 0 -14 -14l-2 -19q-13 -8 -17 -12t-10 -6h-12q-12 0 -22.5 -10.5t-18.5 -11.5t-23 -9q-2 -4 -16 -8t-21.5 -18.5 t-17.5 -14.5l-20 4l-11 -20q-21 -5 -24 -6q-13 -17 -26 -26t-25.5 -19.5t-18 -21.5t-16.5 -17.5t-19 -26.5l-10 -10q-25 -21 -25 -45q0 -17 24 -25t30 -13t18 -5t23 -5t37 -16q5 -16 10 -16q2 0 8 8t18 8q13 0 25 -16l8 6h4l13 -4h2l12 6q2 2 6 2q3 0 31 -10h2q2 0 16 4 q15 -4 17 -6l14 -8q0 -3 4 -3t12 4.5t15 4.5q8 0 18 -11q16 7 18 7q9 0 31 -15l19 -4h22l33 -6q14 -15 29 -23q2 11 14 11q16 0 49 -13l8 -2l8 -6q17 4 21 4q20 0 20 -14q0 -12 -6 -31q2 0 6 -4q5 6 11 8l16 9q4 4 6 4q23 0 65 -32t48 -73q0 -12 8 -28l-4 -13l2 -16 q0 -2 -4 -14l-2 -15q-2 -4 -6 -7t-6 -7l6 -17v-4q0 -4 -7.5 -11t-9.5 -13t-7 -12.5t-7 -15.5t-19.5 -20.5t-17.5 -17.5t4 -6q12 0 25.5 11.5t20.5 13.5t24 12l94 44q105 50 117 50q16 0 16 -16q0 -6 -14 -23q-2 -47 -41 -55q-15 -10 -23 -21h-8q-25 -28 -57 -28h-6 q-37 -37 -90 -41q-35 -35 -58 -35l-16 -4q-25 -10 -35 -10q-2 0 -8 -8l-15 -11q-19 -4 -41 -22t-33.5 -20.5t-24.5 -8.5t-105 -68l-13 -4q-39 -18 -49 -29.5t-24 -19.5h-4q-23 0 -54 -30q-2 -5 -43.5 -16.5t-79.5 -35.5q-24 -6 -59 -16t-51 -12l-70 -15q-23 -4 -53 -12 q-18 6 -31 6l-18 -2q-4 0 -12.5 7t-22.5 13.5t-14 34.5q0 25 55 49.5t72 34.5q8 11 27.5 13t33.5 12t43 18l40 21q3 2 5 2h14q7 0 21 11t29 16h12q2 0 6 5t18 13l3 2h10q11 9 26 15t29 16l78 30l18 -2q6 0 15.5 9.5t44.5 19.5q5 8 21 19t38 32zM573 80l-14 2 q-14 -8 -27.5 -9t-42 -18.5t-65.5 -33.5t-37 -21q49 6 102 27l72 20q14 4 19.5 8t21.5 11l16 12q5 2 22 8t17 12q0 4 -4 4q-36 0 -57 -11t-23 -11z" />
<glyph unicode="T" horiz-adv-x="1008" d="M442 1223l17 14l20 -2q17 0 29 9t19.5 10t18 10t30.5 12.5t29 12.5t20.5 11.5t26.5 8.5l91 28q2 0 11 -4h4q12 0 23.5 9.5t27.5 9.5q10 0 39 12l6 -6q16 18 27 18h6q2 0 18 -4q25 8 41 8l23 2q2 0 6 -2q8 9 22 11h11l41 10l12 -4q12 10 37 10h10l10 -2q2 0 18.5 6t80.5 6 l26 -4q25 10 27 10l28 -6l11 4h4q2 0 10 -4h2l72 10q2 0 8 -2q8 7 12 7l19 -5q8 0 28 11l6 -6l68 8l25 -2l22 4q33 0 49.5 -17.5t16.5 -35.5l4 -31l-6 -17l-2 -20q-5 -12 -15 -16q0 -2 -9 -4.5t-18 -8.5t-59 -6q-25 0 -32 15.5t-15 17.5l-43 18q-2 2 -12 2h-8l-41 -4 q-2 0 -11 2q-13 -6 -14 -6l-74 4l-30 -2l-21 4q-4 0 -14 -3t-42 -5t-32 -20q0 -11 8.5 -24t8.5 -21q-15 -21 -15 -27q-4 -3 -14 -13t-37 -31.5t-37 -39.5t-24 -18q-18 -17 -25 -31l-8 -8q-2 -2 -2 -9q0 -6 -6 -12l-9 -24q-7 -3 -41 -52l-12 -6l-12 -14h-14q-9 0 -9 -12 l4 -29q-15 -13 -24 -35l-12 -20q-21 -21 -21 -23q0 -5 -20 -43l-2 -10q0 -17 -70 -98q-10 -19 -12 -58q-30 -59 -41 -57q-2 -38 -12.5 -62t-27 -70.5t-34.5 -66.5l-4 -8q-4 -8 -10 -16q-2 -27 -19 -86l-6 -43l-20 -56q-3 -6 -3 -12q0 -4 6.5 -15.5t6.5 -21.5q0 -14 -5 -22.5 t-5 -22.5q0 -31 -33 -41h-8l-21 -2q-42 0 -76 40t-34 110q0 4 6 30.5t7 34.5t5 16.5t4 24.5q0 49 24.5 85t32.5 52q2 7 7 9q-3 8 -3 20q0 29 25 47q2 8 7 18.5t21 51t42 47.5q-1 2 12 16l-4 35q0 8 18 27l17 28q4 17 26 31q6 10 13 12q1 4 8.5 25t32 52.5t47 65.5t41 35 t20.5 21l6 37q29 25 35 35l14 16q4 14 10.5 18.5t16.5 18.5t25 25q13 41 59 71l16 17q17 24 28 32.5t16.5 22.5t21.5 21t16 16q0 4 -8 4t-27 -6h-8l-18 -4h-6l-17 4q-18 -6 -28 -6q-2 -2 -13 -9h-22l-12 -12l-9 -2l-26 4q-12 0 -29 -12q0 -2 -32.5 -7t-61.5 -18.5t-35 -13.5 l-18 4h-2q-13 0 -24 -13t-32 -16h-12q-15 0 -40.5 -12t-27.5 -12l-18 2q-12 -8 -20.5 -11t-16.5 -9.5t-16 -9.5t-18.5 -11t-16.5 -8h-4l-12 2q-7 0 -18 -12.5t-20.5 -15.5t-18 -9.5t-17.5 -7.5q-5 -5 -14 -22t-23 -29.5t-18.5 -19.5t-8.5 -7q-49 0 -49 61l20 43q21 51 64 62 q11 0 57 22z" />
<glyph unicode="U" horiz-adv-x="1440" d="M824 849l-27 -58q-17 -40 -30.5 -57.5t-25.5 -43.5l-28 -61l-25 -25q-6 -12 -6 -16q0 -18 -13 -47.5t-20 -55.5v-12q0 -7 -16 -31v-12q0 -4 -17 -37l2 -12q0 -2 -2 -6l-19 -59q-9 -28 -9.5 -40t-1.5 -22v-18l-4 -23l2 -12v-6q0 -13 -2 -21q6 -16 16 -22q4 0 6 -2.5 t4 -2.5l28 18q29 17 42 36l29 26l6 9l12 2q8 8 18.5 22t14.5 14q2 0 4 -2h14q6 0 10 -2l2 4v17q0 33 21 33q11 17 27 32l4 15q2 8 21.5 26t33.5 45l35 41q2 4 6 15l8 8l17 -2q4 2 4 8q0 2 -2 6t-2 12q0 9 29.5 47.5t37.5 57t16 18.5q4 0 6.5 -7t8.5 -7q2 0 2 2t-3 4t-3 6 q0 21 14 42.5t18.5 33.5t8.5 17.5t9 16.5t12 17t11.5 13.5t11.5 11.5t13 29t43 57q-6 6 -6 12q0 4 6 14q0 7 35.5 74t58.5 103l4 14l13 12l18 27l55 37q22 14 31 14q10 0 16 -2q7 6 11 6q2 0 8 -2h4q10 6 14 6t11 -4h6q10 0 31.5 -15.5t21.5 -23.5l-2 -12l2 -12 q0 -31 -23.5 -61.5t-27.5 -37.5l-13 -6q-1 -3 -2.5 -15.5t-8.5 -20t-16 -28.5t-16 -30v-14l-47 -113q-4 -12 -9.5 -21.5t-16.5 -9.5q3 -5 7.5 -8.5t4.5 -9.5q0 -27 -29 -35q6 -8 6 -14l5 -11l-19 -34v-17q-7 -9 -14 -28v-17q0 -5 -12 -26l-9 -17q-4 -9 -6 -16h-2l2 -21 q-2 -2 -12 -10v-20q-10 -9 -10 -27q0 -8 -11 -25q2 -8 2 -10q0 -24 -8 -43.5t-8 -25.5v-15q6 -6 6 -12q0 -2 -3 -11.5t-3 -17.5q0 -30 12 -30l23 7q12 4 17 13.5t16.5 14.5t12.5 15.5t19.5 15t79.5 65.5l31 18l8 14q8 8 26.5 31t29.5 23q30 0 30 -33q0 -5 -9.5 -39 t-13.5 -38t-12 -9.5t-16 -22.5q-46 -45 -68 -51q-6 -4 -22 -18.5t-26.5 -20.5t-21.5 -16t-26 -15l-8 -4q-4 2 -6 2q-6 0 -13.5 -9t-22.5 -14t-23.5 -12.5t-12.5 -7.5l-16 7q-12 -11 -15 -11l-12 6q-2 3 -11 6t-16.5 9t-20.5 14t-24 37l-8 10q-10 17 -10 21q0 6 2 24v6 q0 9 -4 28.5t-4 29.5l24 133l-4 24q0 15 12.5 40.5t24.5 113.5q-16 -49 -24 -49l-15 2q-4 -2 -4 -8q0 -4 4 -17v-14q0 -19 -37 -31q0 -2 -2 -6q11 -5 11 -10q0 -23 -18.5 -36t-24.5 -22.5t-11 -9.5l-6 9h-2l-10 -19q6 -8 6 -10q0 -4 -20.5 -35t-24.5 -31l-29 -28l-4 -9v-10 q0 -2 -4 -8l-39 -55l-12 -23l-41 -61q-10 -3 -22 -15l-7 -4q0 -16 -26 -30q-9 -27 -25 -37t-24 -19l-19 -12l-24 -20l-27 -9l-12 9q-8 -23 -14 -23l-23 4l-19 -4q-24 0 -62.5 32t-45.5 42l-12 16q-5 4 -8 12.5t-19 20.5l-10 16v13q-24 35 -26.5 45.5t-2.5 46.5v8l4 14l-2 23 q0 16 9.5 45t9.5 33v6l-3 6l13 42q6 22 10 27t6 34.5t29 29.5q2 0 6 -2q8 2 8 12h-4q-8 0 -8 11q0 14 6 22t6 23q0 18 16.5 36.5t16.5 20.5q0 15 15.5 43.5t25 51.5t22.5 41t19 35t24 34l11 20q12 19 22 31t12.5 29.5t17.5 24.5t17 17.5t7.5 20.5t7.5 19.5t12 21.5 t18.5 36.5t24.5 24.5l20 -2l2 7q0 2 -5 8t-5 12q0 29 19 29q6 0 14 -13q7 59 8.5 62.5t1.5 7.5l2 10q2 4 2 11t-7.5 18t-12.5 11q-1 0 -23 -5l-12 12q-10 -22 -20 -22l-17 6q-35 -22 -45 -22l-16 6h-2q-6 0 -12.5 -14.5t-26.5 -14.5h-10q-15 -18 -25 -20.5t-21.5 -12.5 t-19.5 -13t-27 -20l-10 -6q-18 -11 -20 -21.5t-11 -19.5q-36 -26 -36 -43l2 -18l-2 -26q0 -11 -18.5 -26.5t-30.5 -15.5q-72 0 -72 43l4 29l-2 23l2 20q0 23 27.5 43.5t37.5 30.5l39 20q13 10 20 20.5t44 26t54 30.5t50 26.5t50.5 20.5t21.5 9l12 -2q10 4 21.5 12.5 t25.5 8.5l123 28q19 5 72 -22t53 -119q0 -19 -30.5 -82t-67.5 -112l-6 -15l-27 -47l-16 -35q-11 -20 -23 -47l-18 -24q-11 -19 -14 -32z" />
<glyph unicode="V" horiz-adv-x="1147" d="M367 911l26 23q29 24 37 24q4 11 35 37q12 2 24.5 19.5t26.5 20.5t31 22t47 30l10 9q23 18 33 18l219 94q9 4 41.5 -14.5t32.5 -58.5q0 -62 -27 -72q2 -4 2 -10q0 -12 -30 -60.5t-38 -58.5t-12 -27l-10 -18q0 -10 -12 -28l-21 -36q-28 -38 -32 -67q0 -2 -13 -17l-16 -26 q-8 -43 -22.5 -50.5t-14.5 -13.5q0 -23 -12 -43l-45 -122q-6 -15 -23 -50l-6 -26l-20 -37v-29l-7 -12q-4 -6 -8 -29.5t-11 -38t-7 -22.5v-13l2 -16q0 -4 -4 -14q2 -11 2 -25q0 -6 4 -12l4 6q10 2 20.5 14.5t19.5 17.5t15 23.5t19 22.5q37 37 41 49l57 94l35 47q0 22 35 49 q16 25 22 38.5t12 13.5q11 0 15 -6.5t6 -6.5q8 0 8 11q0 14 -12 22q-2 0 -2 4q0 25 21.5 53.5t29.5 48t39 57.5t38 55.5t19 17.5h4q19 18 33 18q4 0 6 -12q13 8 13 12q0 10 -13.5 13t-13.5 12q0 6 39 52t43 46t10 -6l6 4v16q0 4 15 19q0 16 13 22t13 8l-4 15h2q13 8 17 12 l24 -2q8 0 12 14q-16 5 -16 13t15.5 20t15.5 24q0 11 47 50q14 16 27.5 33.5t54.5 40.5q3 25 12 28l25 -2l12 8l-2 21q43 28 56 34.5t22 16.5q46 31 63 31l21 -4q17 6 29 6q10 0 16 -3t21 -6.5t26.5 -29t11.5 -41.5l2 -33q0 -28 -25.5 -60t-41.5 -32l-13 2q-18 -8 -39.5 -12 t-42.5 -21l-6 -4h-12l-2 -4v-6q-5 -4 -14 -15t-28.5 -26.5t-37.5 -36t-43 -34t-33 -36.5l-4 -4h-10q-19 -22 -34 -41.5t-26.5 -27.5t-12.5 -12.5t-15 -18.5l-10 -20q-15 -7 -34.5 -33.5t-23.5 -30.5l-8 -10l-16 -10q-17 -17 -23 -25q0 -19 -20 -25q-10 -9 -16 -35t-13 -26 l-18 2q-3 -2 -11 -16l-6 -9q-6 -6 -11.5 -21t-23.5 -22q-12 -30 -14 -30l-10 -8q-4 -13 -4 -15q-18 -21 -29.5 -31.5t-9.5 -13.5q-4 -6 -10.5 -11t-10.5 -18.5t-16 -15.5l-6 -14v-13q-4 -3 -39 -49l-35 -59l-78 -105q-24 0 -24 -32l-23 -29q-10 -10 -12 -21.5t-21 -11.5 q-31 -37 -73 -37q-11 0 -17 -2l-31 21q-14 9 -19 14.5t-7 5.5q-20 9 -42 69.5t-22 100.5q0 6 11 54v2q0 2 -4.5 9t-4.5 13q0 8 7.5 13.5t7.5 11.5q0 28 10 39q6 18 6 28l-4 15q0 8 8 24q15 7 15 15l-2 28q0 18 22 21q-2 10 -2 16q0 10 5 19.5t6 23.5t8.5 20.5t11.5 25.5 t24 48t24 43.5t7 14.5q23 0 23 8t-13 16l-2 6q0 21 31 47q0 29 18 29l-6 16q0 13 18.5 45.5t28.5 73.5l11 15q8 10 8 14l-2 12q10 25 10 27q0 11 -8 16q-31 -4 -47 -28l-4 -5h-19q-16 0 -41 -34l-29 -23q-46 -34 -73.5 -56.5t-37.5 -38.5l-15 -23q-5 -9 -15 -52t-55 -43 q-66 0 -66 68q0 24 54 69z" />
<glyph unicode="W" horiz-adv-x="1616" d="M418 1022l18 6q40 13 76 49q4 8 29 10q14 15 23 18t30.5 15.5t60.5 22.5l21 10q8 6 33 8l28 8q37 7 76 7q3 0 29.5 -6.5t32.5 -13.5t29.5 -22.5t23.5 -78.5q0 -33 -10 -64q-4 0 -17 -11t-16.5 -30.5t-12 -23.5t-15.5 -25t-36 -71l-55 -95l-2 -8q-5 -24 -29 -65l-10 -21 l-4 -2q-9 -32 -16 -37l-7 -10q-7 -36 -18 -47q-4 -2 -6 -17l-12 -26q-7 -8 -8 -16.5t-5 -11.5t-9 -18.5t-12 -28.5t-7 -15l4 -15v-8q0 -2 -2 -12q-2 -2 -6.5 -4t-7.5 -7.5t-9 -9.5l2 -18l-2 -16v-5l23 7q2 7 51 41q9 9 14 28q21 13 31 23t23.5 17t19 20t49.5 57l10 16 q0 11 29 31l10 16q2 5 19 11q6 18 24.5 36.5t34 45t37.5 28.5l10 19q-2 12 14.5 31.5t26.5 35t25 27.5l6 14q4 19 21.5 28t17.5 11l-4 12q0 2 7 15.5t12 30t15 20.5q20 30 27.5 34t22.5 13v14l8 27l-2 14q0 9 16 13q3 0 11 17t14 26l2 12q16 22 35 27l18 14q10 8 20 8 q7 0 16 -4t36.5 -6t27.5 -62q0 -18 -9 -33.5t-10 -25.5t-26 -47l-4 -21l-35 -69v-10l2 -13q0 -8 -20 -12l-12 -6q2 -4 2 -6l-19 -76q0 -6 -16 -21q-2 0 -3 -16t-6 -26.5t-6.5 -20.5t-8.5 -22.5t-7 -22.5v-8q-8 -8 -8 -17v-6l2 -10q0 -4 -9 -7t-9 -7t6 -15v-10 q0 -6 -7.5 -19.5t-7.5 -27.5l-8 -33l2 -20l-4 -27l8 -41l-2 -31q0 -10 9.5 -16t13.5 -12t12 -6q37 0 67 30q74 77 76 78l13 8q7 31 9.5 32.5t10 6.5t15.5 25l8 12l10 25q25 5 30 32t9 31l20 2l7 12l-7 7q15 14 15 22q0 6 10 23l8 18q0 14 12.5 29.5t16.5 27.5v9q28 28 28 57 q3 8 17 35.5t14 46.5l-2 14q0 19 27 45l-4 23q0 8 13 19.5t13 17.5q0 4 -4 14v6q0 17 10 41q17 4 17 10q0 9 -11.5 16t-11.5 11q0 2 8 14l-2 29q0 6 11 16q-4 7 -5 12t-8.5 21.5t-7.5 26.5l6 33l-2 47q0 42 39 61l17 10q12 13 51 13q38 0 47 -35l8 -12q12 -19 12 -48l-8 -55 l6 -39q0 -4 -8 -14l-6 -10q6 -31 6 -41q0 -19 -7 -26t-9 -15l-6 -19q-10 -9 -11 -14t-4 -59q0 -9 -12 -16t-12 -13q0 -2 2 -12v-9q0 -38 -27 -57q-24 -83 -45.5 -109t-30.5 -55q-4 -4 -18 -12q-2 -6 -10 -31t-30 -63.5t-28 -42.5l-10 -21q-2 -12 -8 -12q-12 0 -23 -10v-19 q0 -4 -9 -13t-24.5 -44t-35.5 -47q-22 -3 -23 -3.5t-3.5 -10.5t-3.5 -17.5t-11 -17.5q-2 2 -6 2q-9 0 -9 -8v-5l2 -8q0 -14 -43 -47q-26 -12 -36 -28t-59.5 -42t-73.5 -26l-19 -2l-32 8q-35 8 -49 22t-20.5 25.5t-23 26t-16.5 55.5q0 6 -19 43q4 39 4 55v17q0 12 10.5 36.5 t10.5 28.5v6l-2 17q0 6 9 29.5t9 31.5t-8 8q-10 0 -11 -19t-40 -50l-31 -47q-2 -6 -8 -13l-14 -32q-2 -4 -9 -4q-2 0 -4 2l-10 2q-4 -2 -5.5 -19.5t-10.5 -25.5l-19 6l-2 -6v-17q0 -6 -20 -22q-10 0 -17 -11q-2 0 -2 -2l-16 2l-2 -4l2 -12q0 -10 -22 -34.5t-25 -24.5 q-8 0 -12 2l-2 -2l2 -17q-9 -12 -23 -14q-4 -4 -8 -10l-37 -35q-10 0 -23 -2q-3 2 -10 4q-1 -2 -3.5 -15.5t-22.5 -13.5l-7 -6q6 -10 -42.5 -49t-77.5 -39q-19 0 -33 13.5t-23.5 20.5t-16.5 20.5t-20.5 35t-13.5 45.5q0 2 6 27.5t10 48t9.5 26t12.5 19t7 16.5l-2 15 q-2 2 -2 6q0 6 10.5 21.5t14.5 36t8 25.5t9 17.5t13.5 20.5t71.5 141q17 49 33 60.5t18 17.5q-10 16 -10 18l18 29q0 12 9.5 21.5t11.5 15.5l8 4q7 26 14 35q0 6 2.5 8t20.5 33v16l6 12l14 9q19 47 25 53l6 10q6 8 12 12q25 67 25 70q0 6 -14 12l-8 6q-15 -6 -19 -6l-22 6 q-17 -8 -33 -24q-33 -17 -68 -17q-16 0 -38 -16.5t-74 -38.5l-15 -8q-9 -18 -18 -18l-35 4q-8 -44 -47 -52q-25 -24 -40 -40.5t-34.5 -30t-23.5 -33.5q-5 -4 -17 -31t-32.5 -37t-37 -22t-22.5 -12q-10 0 -20.5 9t-31 15t-20.5 29q0 16 37 67q0 2 62.5 48.5t74 56.5t46 25.5 t40 20.5t20.5 15.5t22 17t16 9.5z" />
<glyph unicode="X" horiz-adv-x="1227" d="M145 1083l-2 19q-2 17 91.5 70.5t185.5 78.5q4 2 17.5 10.5t41.5 18.5q4 -2 7 -2q10 0 23 12.5t25.5 13.5t22.5 7q31 18 47 18l25 -2q16 16 43 16q16 0 24 -18h2q9 0 17 29q8 8 18 8l25 -2q23 12 59 12l55 -10q63 -10 84 -23l13 -4q22 -8 37.5 -40.5t15.5 -45.5 q0 -4 -6 -20v-43q0 -4 -6 -15l4 -34q-21 -27 -21 -50q0 -25 -16 -38q8 -35 8 -37v-6q0 -2 -4 -15l2 -8q64 70 80.5 78t22.5 25.5t23 25.5t32.5 21.5t38 35t28.5 30.5t80 65h10l11 -13q6 2 6 6q0 3 -6 11q-2 0 -2 4q4 6 6 17t10 15.5t14 11.5t17 11q31 64 116 64q30 0 56 -35 l8 -4q12 -13 12 -37q0 -13 -14.5 -32.5t-42 -24.5t-34.5 -13t-13 -8l-12 4q-5 -8 -21 -17.5t-25 -15.5l-18 6q-6 -12 -9 -23t-11.5 -13t-14.5 -9l-12 -2h-4q-11 -16 -17 -20h-16q0 -2 -18 -23.5t-23 -21.5l-10 2q-6 0 -19.5 -8t-13.5 -23q-14 -14 -29 -16q-6 -13 -21 -21.5 t-18 -31.5q-28 -43 -51 -52q-30 -39 -45.5 -52t-19.5 -26l-2 -2l-8 2q-6 0 -19 -26q-16 -3 -17 -27t-18.5 -28.5t-17.5 -22.5v-8l2 -14l-14 -97v-10l2 -18l-11 -35l2 -15q-10 -16 -13 -24t-7 -14l2 -29l-2 -14q8 -19 8 -25q0 -8 -2 -12l-4 -21q-2 -6 -10 -13t-8 -11 q10 -15 11 -25t4 -16.5t3 -10.5l-2 -32l10 -31q0 -4 -8 -16v-3q18 -10 25 -30q21 -15 22 -15q6 0 14 9l13 -7h4q2 0 9 4.5t32.5 18.5t43 31.5t62.5 40.5q13 27 29 30l6 4q6 11 15.5 17t28.5 28.5t34 28.5q2 0 15.5 9.5t19.5 9.5q22 0 22 -17l-2 -16l2 -19q0 -19 -32 -54 t-56 -40l-8 -4q-30 -63 -67 -63q-15 0 -25 -13l-47 -49l-23 4q-4 -2 -24.5 -22.5t-36.5 -32.5l-2 -2l-17 4q-23 -22 -53 -22q-6 0 -12 8l-2 2l-31 -4q-2 2 -10 11t-21.5 14t-21.5 14l-23 10q-2 2 -12 18l-10 11q-37 36 -37 88q0 10 6 47v8q0 4 -6 20v4q0 5 5 17t5 18t6 25v2 l-8 37q2 7 27 14q-4 8 -10.5 60.5t-8.5 52.5q-4 0 -9 -22.5t-16.5 -34t-13.5 -24.5t-20 -16q-4 -10 -20.5 -19t-18.5 -13q-22 -37 -31 -37h-6v-21q-4 -6 -22 -14h-3l5 -16q-25 -27 -39 -45l-15 -17l-14 -8q-2 -6 -3 -17.5t-11.5 -16t-14.5 -7.5q-8 -26 -24 -31 q-9 -22 -17 -32l-18 -33q-7 -7 -21 -15l-2 -4v-16q0 -12 -14 -22.5t-22 -22.5q-9 -23 -27 -23l-51 -16q-18 5 -36 12t-20 23t-6 26.5t-4 24.5v18q0 19 27.5 60t42 51t25 19.5t31 23.5t28.5 29l37 32q12 10 22 17q2 0 8.5 13t34.5 26q26 61 58 80q28 48 59 51q20 17 25.5 34 t19.5 31q45 35 72 71t46 55t21 35t8 28l5 14v8l2 13q8 16 8 18t-4 10t-4 17q0 30 10 30h24q5 12 -7.5 22.5t-12.5 14.5q0 6 16 56q-6 12 -6 14q0 6 10.5 12t10.5 10l-7 25l5 25l-2 24l8 31q6 7 6 18q0 2 -3 11.5t-3 40.5q0 6 3 12t3 10t-14 21l-7 12q-10 20 -45 20l-26 -8 l-25 4l-43 -8q-10 0 -26 -14q-13 -4 -23 -4q-2 -2 -23.5 -14.5t-23.5 -12.5l-23 6q-12 -8 -28.5 -15t-45 -28.5t-30.5 -21.5l-25 8h-2q-6 0 -14 -13t-21 -18.5t-14 -5.5l-16 2q0 -29 -29 -33q-16 -16 -27 -24l-4 -5q-15 -44 -33 -51.5t-30 -19.5q-8 -2 -49 -21 q-4 2 -10.5 8.5t-28 18.5t-21.5 49z" />
<glyph unicode="Y" horiz-adv-x="1362" d="M446 1022l3 -14q0 -4 -20.5 -19.5t-25.5 -15.5q-71 0 -71 41l6 22l-2 25q0 16 35 51q10 4 28 21t58 30q4 2 12 17q25 14 38 19t45 22.5t64.5 31t57.5 27.5l20 6l15 12q8 5 19 7t22 8l6 2h12q2 0 9 5.5t56.5 11t51.5 5.5q26 0 47.5 -31.5t21.5 -72.5q0 -29 -21.5 -60.5 t-32.5 -58.5t-20.5 -35t-21.5 -32l-33 -52q-8 -16 -15 -44.5t-28 -35.5q-9 -31 -21.5 -47t-15.5 -28.5t-8.5 -22.5t-15.5 -41q-29 -32 -33.5 -57t-28.5 -35q-9 -30 -15.5 -40.5t-12 -26t-10.5 -19.5l-29 -82l-6 -27q-13 -18 -16.5 -34t-10.5 -31v-16q0 -7 -6 -19l-6 -18 q0 -23 -15 -31v-2q0 -3 7 -25v-4l-11 -30v-5l7 -20l-3 -29q0 -16 13 -41.5t18 -25.5q2 0 8 8q21 6 32.5 16.5t27.5 14.5q2 2 5.5 10t14.5 14q0 2 4 2l11 -2h2q2 0 6 8.5t13 15.5t32 37t47 42l61 75l25 21q6 24 14 30.5t17 20.5l10 10l4 8q19 32 32 47t15 23t19.5 33.5 t38 60.5t29.5 47.5t12.5 27t21.5 28.5l51 96l29 49l6 6q6 6 10 23l13 28q6 17 9 25t15 23l2 8q2 10 8 22l15 6q4 9 5.5 25t13.5 27.5t22 11.5q2 2 15 28.5t48 26.5q42 0 76.5 -49t34.5 -78q0 -30 -35 -37q-28 -35 -42.5 -69.5t-25.5 -53.5q-20 -61 -20 -67 q-10 -12 -17.5 -35.5t-12.5 -29t-18.5 -44.5t-21.5 -47v-24q0 -39 -37 -92l-6 -23l-10 -8v-25q-14 -6 -16 -24l-5 -25q-2 0 -2 -4t7 -4q20 0 32 31q2 1 23 12t24 14l15 13q12 6 21 20t22.5 16t19.5 12.5t39 26.5l53 43q16 13 45 13q17 0 17 -21q0 -8 -12.5 -20.5 t-13.5 -19.5t-5 -11t-7 -23.5t-18.5 -23.5t-24.5 -13.5t-17.5 -11.5t-17.5 -8t-19.5 -10.5t-28.5 -28.5q0 -2 -25 -14l-16 -15q-16 -10 -31 -18h-6l-6 -2q-12 -18 -53 -53l-51 -43q-14 -12 -15.5 -22.5t-13.5 -26.5t-12 -23q0 -72 -27 -82q-4 -2 -4 -18q0 -49 -16 -64 q-5 -12 -21 -41l-2 -2l2 -22q0 -13 -10 -29t-10 -27l-11 -41q-4 -14 -11.5 -21.5t-31.5 -78.5q-19 -29 -21 -35t-18 -6l-12 -2q1 -4 5.5 -13t4.5 -14q0 -23 -10 -39t-12 -28l-6 -14q-2 -3 -4 -12t-13 -23l-6 -13q-4 -12 -20 -24q-7 -27 -31.5 -70.5t-44.5 -58.5l-10 -10 q-2 -2 -6 -2h-7l-12 4q-6 0 -9 -18.5t-18 -18.5q-8 0 -12 4q-26 -27 -38.5 -29t-18.5 -4t-8 -2q-9 0 -24 26.5t-23 28.5l-13 9q-2 0 -19.5 35t-17.5 63l-6 41l4 16q-6 17 -6 19q0 24 12.5 40.5t12.5 18.5q0 3 -10 20v5q0 8 20 57l6 20l4 2h8q2 0 5.5 12.5t11.5 17.5t8 9v4 l-4 13q0 4 10 14t17.5 27.5t14.5 21.5t9 23q18 35 45 35l6 6l-4 12q0 14 47 53l9 15q6 12 14 12l29 -6l4 2l-7 30q3 3 7 5q3 5 7.5 21.5t10.5 16.5q2 0 23 -12l8 8q0 4 -4 10.5t-4 10.5q0 24 43 33q8 10 12 24.5t18 19t35 26.5t21 30q0 20 18 51q18 9 18 12t-8 13q-2 0 -2 4 q0 18 17 22l2 2l-4 29q19 27 26 72v12q0 6 8 14t17 33l-2 21q0 4 14 28l2 11q-15 -8 -24 -25l-11 -10q-12 -15 -16 -23t-11.5 -14t-11.5 -14.5t-10 -13.5t-8 -15l-6 -10q-16 -5 -19 -15l-22 -43q-27 -8 -27 -39v-8q-2 -1 -14 -3.5t-12 -12.5q0 -6 -9 -19q-12 2 -41 -45 l-10 -14q-9 -10 -26 -16q-11 -17 -20 -20.5t-9 -10.5l2 -19q0 -8 -25 -10q-10 -8 -12 -30.5t-22 -22.5q-7 0 -21 -14q-10 -2 -18.5 -12.5t-12.5 -11.5t-10 -5l-14 4q-10 -18 -15 -18l-26 2l-15 -4q-22 0 -60.5 29t-53.5 53t-26 33.5t-12 20.5t-12 25t-14 47l-4 15v8l4 25 l-2 18l17 68l-2 22q0 4 10 21l4 20q0 10 8 27l4 22q0 13 10.5 24t18.5 11q6 0 10 6q-12 8 -12 15q0 12 6 21t8 30l55 108q6 14 10 29t13 26.5t14 19t8 14.5t7 18.5t22 27.5l6 15q6 14 29 37l6 20q2 10 17.5 26.5t17.5 23.5q14 48 27.5 63.5t23.5 36.5l12 12h19q2 0 2 4 q0 2 -4 9t-4 11q0 27 18 27q4 0 7 -3t8 -3q2 0 4 2v8l-4 13v2q0 6 6 28.5t6 26.5q0 5 -5.5 17t-13.5 12q-2 0 -16 -5h-2l-12 9h-2q-4 0 -4 -9q-9 -12 -17 -12l-14 6q-2 0 -20.5 -10t-22.5 -10h-2l-17 4q-8 0 -11 -13.5t-36 -15.5q-8 -12 -19.5 -17.5t-84.5 -56.5l-8 -4 q-7 -22 -27 -39.5t-20 -40.5zM840 -125l6 4q-2 4 -2 8q0 9 10 25q-2 4 -2 12q0 4 12 23l2 18q2 17 9.5 22t8.5 15t8 27.5t7 25.5l14 54q-57 -66 -70.5 -78.5t-22.5 -30.5t-30 -48t-35.5 -51t-21 -38.5t-27 -57.5t-27 -59t-10 -47.5t-26.5 -40.5q-2 0 -2 -4q0 -2 6 -6l4 -6 v-21q0 -6 -8 -12v-12q0 -11 -10 -50q10 -16 10 -41l-4 -10q0 -2 4 -6l6 -12q0 -4 2 -4q4 0 8 12l13 14q6 8 19.5 35t23.5 34t10 11t-2 19v2q0 12 9 17t9 9l7 15q10 24 10 41q4 6 15 16t11 20l-2 19q0 22 45 94l15 -2q2 0 2 4l-8 6q-9 0 -9 13q0 14 13 22z" />
<glyph unicode="Z" horiz-adv-x="1159" d="M274 1270l27 10l23 14l45 9l22 -5q16 9 23 9q4 0 14 -4.5t38 -7.5t48.5 -14t39.5 -20.5t44 -23.5l115 -57l24 -8q26 -10 43 -21.5t39 -17.5h10q13 0 25 -5.5t31 -5.5q12 0 43 -6h10l10 -2q10 6 15 6q6 0 14 -8q14 8 20 8q7 0 31 -4h6q6 0 25 6h4l14 -6q9 11 78 21l21 10 h4l12 -4l8 2q2 0 6 -2h2q23 0 47.5 12t38 15.5t40 16.5t34.5 13q14 0 14 -35q0 -14 -10 -23.5t-51 -40t-49 -48.5q-2 -4 -14.5 -10.5t-28 -17.5t-23.5 -14t-30.5 -20.5t-31.5 -19.5t-22.5 -16.5t-27 -22.5t-19.5 -16.5t-8 -8.5q-18 0 -53 -30l-35 -29l-18 -8l-107 -107 q-13 -13 -29 -16l-8 -8q0 -22 -18.5 -30.5t-32.5 -35.5l-14 -14q-4 -2 -8.5 -14.5t-16.5 -24.5t-16 -20.5t-11 -10.5l-8 -4l-14 -29q-10 -4 -15.5 -11t-14.5 -14t-10 -16.5t-25.5 -28t-31 -34.5t-18.5 -35.5t-22 -42.5q2 -4 6 -4l89 45q99 44 118 57q7 15 22 15l21 -2 q19 26 33 30t27 14.5t15 10.5q9 0 11 -2t4 -2q16 10 26.5 13t12.5 14.5t22 15.5l35 10q10 6 39 12h27q8 -12 22 -21t14 -22q0 -24 -8 -42.5t-11 -30t-30 -43.5q21 10 41.5 24.5t38 20.5t46 26.5t62 35t54.5 30.5l12 4q6 0 14.5 5t10.5 5q9 0 17.5 -9t8.5 -15l-24 -45 q-24 -39 -50 -43l-52 -11q-9 0 -27 -26q0 -2 -10.5 -8.5t-12.5 -6.5l-18 2q-51 -45 -72 -45q-33 0 -53 -32q-4 -7 -27 -7h-10q-2 -2 -2 -10q0 -18 -12 -31l-10 -12q-3 0 -7 -10v-14q-13 -21 -18 -21q-18 0 -23 -15.5t-6 -15.5l4 -26q0 -4 -12 -13.5t-20.5 -19.5t-16.5 -14 l-8 -6q2 -5 2 -13l-10 -18q-10 -19 -17 -23.5t-36 -66.5q-9 0 -15 -4q-7 -14 -12 -47q-5 -11 -25 -27q0 -2 -10 -27q-19 -27 -29 -61q-21 -29 -34 -31q-2 -2 -7.5 -20t-19.5 -42l-20 -36q-13 -17 -17 -25l-4 -2h-10l-12 -6l2 -25q0 -6 -19 -24l-43 -70l-49 -67 q-19 -27 -30 -31t-20 -17.5t-13 -15.5h-7q-14 0 -23 -9t-21.5 -11t-24.5 -6q-40 11 -51 30l-9 11q-20 25 -20 53l2 24l-2 23l14 69l-4 19l15 47q14 51 31.5 85.5t37.5 55.5l6 -6q0 -2 2 -2q-6 33 -6 35q0 4 7 17.5t8 18.5t6.5 13t8.5 27.5t38 29.5q1 2 8 27q6 12 22.5 19.5 t18.5 9.5h8q6 0 6 4q-8 12 -8 20q0 11 21.5 29t30.5 39.5t36 28.5l4 2q14 34 41 43q34 24 67 49.5t57 37t41 31t46 33.5q36 16 44.5 24t10.5 34q21 23 21 30q0 6 -6 6q-4 0 -21 -12l-168 -63l-12 -7q-12 -6 -39 -6q-2 -4 -27.5 -18t-33 -21.5t-16.5 -9.5t-19 -9t-15 -7 q-30 0 -37 -6l-20 -21q-10 -10 -25.5 -11t-31.5 -9l-27 -6q-8 -2 -18 -13q-2 2 -8 2q-5 0 -24 -10t-36 -10l-22 6q-12 -14 -17 -14q-6 0 -18 12q-25 12 -38 18.5t-13 18.5q0 28 63 94q4 10 35 46l47 56q18 21 36.5 29t18.5 25q0 16 9.5 25t23.5 27.5t23.5 26t15.5 18.5 t27 23l8 13q6 6 20 14q25 29 67.5 64.5t51.5 44.5l178 143l236 164q71 38 71 43q0 2 -2 4l-14 -6l-18 4q-64 -23 -136 -23l-18 2h-10l-31 -6l-14 8h-4q-11 0 -43 -4h-4l-25 7l-25 -5q-6 0 -20 15q-6 -2 -14 -2q-7 0 -19 6q-12 -4 -14 -4q-4 0 -29 14q-22 -6 -26 -6 q-9 0 -25 14q-10 0 -67 24.5t-97 26.5q-12 13 -16 13q-21 0 -51 -6h-5q-2 2 -6 2q-2 0 -7 -5.5t-24.5 -7.5t-44.5 -26q-4 -6 -9 -9.5t-11 -13.5q-37 -18 -37 -63q0 -17 19.5 -39t34 -26.5t21.5 -10.5t13 -8t33 -17q10 5 14 5q13 0 21 -8.5t10 -8.5t4 2l14 4l23 -2 q6 -2 12 -2l17 2q2 2 4 2l28 -8q9 -4 15 -4q26 0 70 8l72 12q27 6 41.5 20.5t41.5 22.5q21 41 72 41t51 -28q0 -29 -39 -53.5t-63.5 -25.5t-61.5 -12.5t-45 -11.5h-4l-18 2l-31 -10q-4 0 -21 2h-4q-8 0 -25.5 -6t-66.5 -6l-22 4l-25 -2q-4 0 -10 6t-8 6q-5 0 -17 -2h-4 q-6 0 -18.5 9.5t-14.5 9.5l-41 4h-6l-20 14h-43q-7 12 -32.5 20.5t-33.5 27t-17 33.5t-9 26l-11 30l4 23l-8 20q2 4 4 15q2 2 2 8t-6 22v2q0 4 6 13.5t14 34t17.5 39t31.5 29t27 28.5zM328 -403l2 -60q0 -6 -7.5 -15t-7.5 -11q0 -13 7 -15q3 1 18 17l10 4q2 0 6 6l6 6 q3 0 9 22l12 7q4 16 18 32q38 13 38 18l-7 32q16 0 62 98q4 6 17 12t21 22t24.5 57.5t29.5 43.5l28 33q4 33 28 49.5t34 58.5q12 25 29 41l12 37q2 6 25.5 40.5t25.5 55.5l-2 2q-23 -10 -32 -17t-14 -8t-15 -11l-13 -9q-1 -1 -26 -24t-31 -35q-29 -6 -43 -43 q-29 -10 -34.5 -14t-7 -19t-26.5 -43l-14 -18l-18 -4q-31 -47 -41.5 -60.5t-10.5 -21.5q0 -13 -12 -31q-18 -12 -20 -18v-4q0 -46 -10 -54t-17 -22l-4 -6l-8 -29l2 -16l-4 -5h-2q-9 0 -9 -6v-4q2 -2 2 -4q0 -4 -10 -13t-10 -16q0 -2 2 -6t2 -6q0 -4 -7 -14.5t-7 -11.5z" />
<glyph unicode="[" horiz-adv-x="920" d="M563 967h8q9 0 10 12t11 24.5t20.5 30t16.5 22.5t16 21l4 4q10 3 10 4v2l-2 11q0 20 25 28q2 4 8 11l-2 16q17 16 17 29l6 14q8 6 12 21l55 61q0 22 27 31q10 22 24.5 38.5t27.5 41t54 26.5l13 4q34 8 55 8q8 0 12 7q13 -4 15 -4q8 0 22 10l16 -4q3 0 12 7t38 7h20l25 4 h2q28 0 49.5 -23.5t21.5 -56.5l-2 -20l2 -23q0 -5 -16 -12l-8 -8q-21 -17 -41 -17q-51 0 -54 15.5t-20 17.5q-25 11 -49 16q-15 -8 -25 -8q-4 0 -12 2t-12 2q-6 0 -7 -16t-25.5 -38.5t-26 -27.5t-5.5 -20.5t-13 -19t-14 -20t-34 -28.5l-2 -4v-16q0 -4 -19 -16l-12 -11 q-2 -31 -12 -37l-8 -10q-11 -51 -39 -49l-6 -8v-12l-4 -13q-23 -11 -41 -57q-15 -2 -16 -19.5t-5 -17.5q-12 0 -15 -6.5t-7 -38.5l-7 -20l-10 -7q-14 -61 -43 -97q-4 -5 -12 -28.5t-19.5 -35t-12.5 -30t-22.5 -61t-24 -64t-6.5 -28t-18 -6.5q-2 -2 -4 -6l2 -29l-14 -49 q-5 -20 -14 -26l-10 -15v-26q-5 -4 -9 -6.5t-6 -4.5l2 -30q0 -14 -18 -21q0 -17 -0.5 -22.5t-2 -6t-14.5 -6.5v-2l9 -28v-4q0 -5 -6.5 -9t-6.5 -8l9 -18q0 -8 -9 -17q4 -8 13 -41q-7 -8 -7 -12q0 -18 19 -18l18 8q6 0 13.5 -6t13.5 -6q4 0 13 7t26 7q6 0 11 2t13 2l78 49 q31 0 31 -51q0 -18 -28 -55t-58 -37q-4 0 -19.5 2t-19.5 2q-55 0 -84 -12h-2l-31 10l-22 -2q-1 0 -32 22.5t-37 31t-17 44.5l-10 21q-9 16 -13 57l17 113q2 2 2 12q0 13 15.5 60t31.5 55t18 14q-18 5 -18 11q0 3 12 30t21 29v2l-3 10q0 2 11 22l-4 15q0 6 7 12t13 37 q10 22 21 28l4 5l-2 32l16 33q39 77 39 94q6 6 27 58l12 20q8 12 13.5 33.5t22 47.5t21.5 26z" />
<glyph unicode="\" horiz-adv-x="932" d="M852 625l4 -11q2 -5 2 -8q0 -8 -2 -16q8 -8 8 -25l-4 -30q0 -25 14 -33v-2l-6 -17l2 -28l-2 -31q0 -20 7.5 -37.5t7.5 -24.5l-6 -67l4 -19l-7 -28l3 -10l-9 -25l2 -18q0 -23 -14 -56l-12 -33q-13 -47 -58 -81l-41 -41q-30 -26 -75 -31q-4 0 -29 -4h-6q-37 0 -37 37 q0 28 82 127q16 16 23.5 30.5t19.5 30.5q27 80 27 100l-5 25l5 31q0 53 -12 76q-5 10 -5 16q0 20 21 63q-13 4 -14 17.5t-6 24t-6 31t-13 38.5q2 10 2 29q0 18 -19 18l-4 4q0 17 13 29q-11 12 -11 14t6.5 13.5t6.5 13.5t-10.5 3t-10.5 5l6 35v8q0 29 -15 38t-15 19q0 2 4 21 q-11 10 -23 78q-36 30 -38.5 58t-21 57t-20.5 53q-10 10 -22 47q-24 24 -43 35h-11q-6 0 -6 8l6 39l-2 28q0 9 14 52.5t40 64t43 20.5q10 0 29.5 -13t24.5 -21.5t17.5 -17.5t20.5 -65t10 -65q20 -15 22.5 -28t10.5 -26t8 -20v-6l1 -2l2 -3l1 -2l1 -3l1 -2l2 -3l1 -3l1 -2 l4 -14l7 -9q6 -8 6 -18q0 -6 -9 -21q-2 0 -2 -2t11 -15.5t20.5 -46.5t9.5 -38q0 -4 -6 -20q4 -11 4 -31q4 2 11 2q6 0 6 -17q0 -6 4 -14l2 -14q0 -2 5 -13.5t5 -20.5t2 -28q10 -10 10 -18l-6 -10q-8 -4 -8 -13l10 -6v-12q17 -8 17 -47l-2 -10q2 -2 4 -12.5t10 -30.5z" />
<glyph unicode="]" horiz-adv-x="920" d="M698 471h-6q-8 0 -10 -4l2 -14q-2 -2 -19 -32t-38 -44l-13 -21q-12 -2 -12 -4v-2l2 -10q0 -18 -24 -29q-2 -4 -9 -10l2 -16q-16 -25 -16 -29q0 -3 -13.5 -25t-23.5 -30l-18 -25l-8 -6q-11 -10 -23 -37l-14 -4q-11 -23 -25 -39t-27.5 -40.5t-54.5 -26.5l-12 -5 q-35 -8 -55 -8q-7 0 -13 -6q-8 4 -14 4q-8 0 -23 -10l-14 4q-2 0 -6 -2l-45 -12h-21l-24 -4h-2q-29 0 -50.5 23.5t-21.5 55.5l2 21l-2 22q0 5 19 13l6 8q20 16 43 16q37 0 53 -16q0 -11 14.5 -14.5t19.5 -8t13 -5.5t21 -5q15 8 26 8q4 0 12.5 -2t12.5 -2q2 2 6 4l-2 23 q50 50 52 55l7 27q2 10 11.5 13t14.5 21t34 27l2 4v17q0 4 18 16l12 10q3 31 13 37l8 10q10 52 39 50l6 8v12l4 12q21 10 41 58q14 2 15 19.5t5 17.5q13 0 15.5 6.5t7.5 38.5l6 20l10 6q3 26 29.5 74.5t34.5 75.5l16 16q6 6 7 24.5t22.5 61.5t24 64.5t6.5 28t18 6.5q2 2 4 6 l-2 28l14 49q6 20 16.5 32t12.5 38l8 6q2 0 4 2l-2 31q0 13 17 21q2 28 16 34v2q0 2 -8 29v4q0 4 6 8t6 9l-6 18q0 10 6 16l-10 41q0 2 2 5t2 6q0 20 -16 20q-4 0 -11.5 -4t-9.5 -4q-4 0 -12 6t-14 6q-4 0 -13.5 -7t-25.5 -7q-6 0 -11.5 -2t-13.5 -2l-78 -49q-30 0 -30 51 q0 18 28 55t57 37q4 0 19.5 -2t20.5 -2q55 0 83 12h3q2 0 13.5 -5t16.5 -5l23 2q1 0 31.5 -23t36.5 -31.5t18 -43.5l10 -21q12 -24 12 -57l-6 -45q-6 -60 -8 -68q-2 -2 -2 -12q0 -35 -39 -109q-27 -15 -27 -20q17 -4 17 -12q0 -5 -10.5 -30.5t-20.5 -27.5q-2 0 -2 -2 q2 -2 4 -10l-12 -23l6 -14q0 -8 -12 -14l-4 -4q-9 -52 -27 -60l-4 -4l4 -33q-19 -38 -54 -116l-67 -152q-18 -43 -33 -43z" />
<glyph unicode="^" d="M1073 588h-72l-423 649l-433 -649h-194l565 846h12z" />
<glyph unicode="_" d="M49 -180h926v-82h-926v82z" />
<glyph unicode="`" d="M525 989l23 -6l20 4q27 0 31 -43l2 -12q9 -33 11 -59t9 -41t7 -17l-3 -10q-2 -2 -2 -6q0 -11 13.5 -23t13.5 -18q0 -23 -33 -23q-8 0 -19 2t-18 2h-6l-10 -2q-4 0 -12 10.5t-31 30.5l-4 6v21q-24 31 -23 39q-10 9 -10 33l-26 63q-7 15 28 43z" />
<glyph unicode="a" horiz-adv-x="877" d="M760 338l16 14q15 0 18 13.5t21.5 21.5t34.5 32.5t33 24.5q6 0 14 -10t8 -16q0 -33 -20 -68l-4 -28l-7 -13q-15 -8 -19.5 -17t-23.5 -22l-10 -14q-22 -7 -29.5 -23t-21 -18t-29.5 -20q-10 -5 -24 -9l-2 -10q-10 -10 -31.5 -16t-32 -11.5t-14.5 -5.5q-19 0 -35 7.5 t-33 9.5q-6 6 -7 13t-10 18.5t-9 31.5l4 19q0 4 -5 10t-5 10t2 6t2 6q0 5 -2 11t-2 10l6 49q0 6 -4 6t-14.5 -10t-24.5 -10q-8 -6 -13 -25q-8 -10 -20 -18l-4 -6q-2 -7 -15 -11.5t-18 -11.5l-10 -10l-19 2q-2 -2 -11 -17.5t-23 -25.5l-76 -62q-12 -8 -35 -20l-6 -6 q-80 -53 -113 -53q-27 0 -63 15t-39 36l-10 41q-9 14 -9 39q0 12 2 16v6l-2 33q0 12 19 12l-2 27q0 4 17.5 31.5t23.5 31.5l10 13q-1 12 14 25.5t24 27.5t34 31l30 30q35 35 76 56q6 2 24.5 20t42 26.5t46 21.5t35.5 13h8q4 0 53 25h6q4 0 19 -8h2l16 8q4 2 10 2 q62 0 68 -86q2 -18 10 -18q10 0 28.5 36.5t78.5 36.5q43 0 43 -55q0 -65 -58 -123q-4 -8 -6 -18l-14 -41v-2q0 -6 -8.5 -16.5t-8.5 -18.5l2 -25l-4 -28q0 -19 7 -25q32 8 46.5 26.5t20.5 20.5l10 4q9 15 21 25zM428 338q4 22 24.5 33.5t24.5 23.5q19 14 54.5 50t35.5 44 q0 3 -4 3h-2l-8 -5l-18 2l-19 -2l-14 7l-13 -2l-20 4q-16 0 -27.5 -6.5t-44 -14.5t-58.5 -27.5t-38 -19.5q-7 -15 -47 -43q-24 -8 -31 -35q-26 -21 -26 -24l-7 -17q-8 -7 -20 -11.5t-14 -21t-13.5 -30t-11.5 -21.5q0 -49 19 -49q8 0 33.5 10.5t29.5 14.5t16 8l19 10q4 4 9 5 t10 6.5t18 12t20 17.5q17 10 55 31l21 16q22 10 27 17t20 14z" />
<glyph unicode="b" horiz-adv-x="637" d="M367 123l-7 -14q-4 -11 -20 -11q-2 0 -33 -12t-51 -12l-27 -2q-24 0 -47 13.5t-33 24.5t-27.5 66t-17.5 66q0 39 21 43q0 6 -9.5 22.5t-9.5 18.5q0 62 27 96q-12 39 -12 43q0 2 5 16.5t7 26.5t6 20l2 17q2 12 15 12q6 0 6 8v8l-2 13q0 28 14 40.5t18.5 37t11.5 30.5 t11 21l14 28l11 37q2 11 12 14t10 9l-2 12q8 21 11 30t18 15q14 34 24.5 48t16.5 32t30 35q2 4 8.5 20.5t16.5 18.5t10 8l-4 8q0 8 15 29l12 22q9 10 20 15q14 28 36 56t38 60q23 27 43 39l33 41q12 25 24 25q19 36 47 47q5 2 28.5 21.5t41.5 19.5q16 0 41 -35t25 -59 q0 -6 -6.5 -17.5t-7.5 -24t-12 -70.5t-19 -66l-27 -52q-4 -12 -9 -14t-12 -16l5 -21h-2q-11 -12 -23 -45q-16 -24 -27.5 -45.5t-11.5 -28.5l-6 -14q-22 -33 -29 -53q-10 -8 -15.5 -22t-14.5 -20.5t-11.5 -22.5t-5.5 -19l-20 2v-2l2 -29q0 -4 -9.5 -9t-16.5 -21.5t-25 -18.5 q-9 -6 -11 -12l4 -19q-2 -2 -15.5 -21t-16.5 -20l-21 -2q-6 -2 -6 -35q0 -22 -20 -30q-52 -80 -60.5 -89t-32.5 -14q0 -2 -4 -2q-10 0 -43 29h-2q-13 -58 -20.5 -66t-7.5 -18l10 -18v-3q0 -28 -10 -69v-6l4 -21v-37l-2 -22q8 -14 8 -25q0 -32 16 -32q8 0 25 20l12 6 q18 8 34.5 36t16.5 48q0 21 -41 21q-20 4 -20 43q0 18 15 32.5t26 30.5q24 37 51 37l51 18q8 0 15.5 -3t19.5 -7q32 12 33 12q35 0 47 -36q0 -7 16 -7q35 0 58.5 21.5t50 35t43 28t20.5 14.5h15q2 0 12 13t37 13q10 0 10 -8q0 -53 -15.5 -62.5t-37.5 -43.5l-11 -6 q-10 -9 -18 -20t-16 -13q-23 -35 -35 -35q-6 0 -13.5 5t-9.5 5q-6 0 -10 -24q-6 -9 -33 -29q-4 0 -14 12q0 2 -2 2q-16 0 -19.5 -18t-22.5 -20l-40 -7l-23 2q-8 0 -34.5 -49t-32.5 -51q-31 -10 -43 -37zM707 1270v12q-23 -6 -33 -43l-8 -8q-19 -12 -30 -33.5t-36 -52.5 l-4 -12l-23 -29l-4 -19q-2 -4 -15 -13t-17.5 -24.5t-22 -37t-24 -29t-23.5 -53.5l-6 -10q0 -9 -10 -15l-37 -45q0 -4 -4 -29q-15 -2 -19 -12l-16 -37q-2 -6 -10 -14q-13 -48 -37 -70l-23 -47q-4 -8 -6 -22l-2 -6q-12 -23 -12 -35q0 -4 -2 -25h2q2 0 8 5t16 11.5t16 24.5 t19.5 25.5t17.5 15.5l60 80q6 8 16.5 18.5t10.5 16.5l8 14q6 6 20.5 22t22.5 22t9 19t11 27l4 8q11 13 18 19t8 13t23 26q2 15 23.5 48.5t32.5 60.5t21.5 37.5t13.5 37.5l10 16l31 86l-5 21z" />
<glyph unicode="c" horiz-adv-x="690" d="M86 369v10q0 10 20 43t46 43q2 0 2 2l-2 16q4 4 20 26t31 19q11 16 28 26.5t31 27.5l37 23q39 26 57 26h15q12 20 32 20q19 0 25 -6q2 -2 4 -2q1 0 12 8t27 8q4 0 45 -16q12 12 23 12q4 0 14 -6t20.5 -10.5t20.5 -37t10 -36.5q0 -16 -26.5 -37.5t-49.5 -21.5q-8 0 -20 14 q-30 6 -51 15q-28 -6 -43 -15h-2l-9 8l-8 2h-2q-3 -4 -8 -14q-16 -11 -27.5 -14.5t-18.5 -11t-23.5 -15.5t-24.5 -22q-20 -11 -29 -13h-6q-8 -16 -37 -53l-26 -43q-9 -8 -22 -18.5t-13 -18.5q0 -2 2 -10v-10q0 -6 -9.5 -14.5t-9.5 -12.5l2 -22l-8 -35q0 -31 45 -31h15l43 7 q21 3 35 6t16 3t16 11h10l9 2q4 21 57 35q12 18 40.5 26.5t57.5 36.5h15q3 0 18.5 11.5t32 18.5t20.5 12t15 9q18 28 43 35l4 4q16 14 20 14l12 -2q10 0 12.5 12.5t32 34t37.5 21.5q19 0 19 -20q0 -15 -17 -17q11 -26 11 -29q0 -33 -33 -43q-4 -2 -4 -6l-2 -18q1 0 0 -1.5 t-4 -4.5l-15 -2l-4 -6q-22 -12 -51 -41l-20 -21h-3q-10 10 -16 10q-4 0 -10 -14q-34 -34 -49 -39q-6 -2 -21 -16l-20 -13h-15q-3 -3 -5.5 -8.5t-17.5 -16.5t-21.5 -19.5t-18.5 -12.5l-18 4q-9 -16 -33 -16q-6 -4 -17.5 -15.5t-15.5 -11.5t-21 12h-2q-10 0 -10 -15t-18.5 -16 t-34.5 -10h-2q-23 0 -33 8.5t-18 12.5q-31 -10 -33 -10q-12 0 -23 10l-43 22q-4 3 -14 27l-6 8q-32 6 -43 66l-8 24q-2 2 -2 9q0 10 8 30.5t16 55t33 43.5z" />
<glyph unicode="d" horiz-adv-x="924" d="M43 176l-8 51q0 6 6 19q6 0 10 4l-6 18q0 35 19.5 60.5t21.5 34.5t28.5 58.5t39.5 63.5l6 13l8 2q23 37 65 67q14 22 34 36t27 20t21 8l4 2q29 29 50 29q7 7 28 16h11q6 0 12 4t12 4q4 0 21 -8q16 16 26 16q21 0 42.5 -16t27.5 -39t10 -27t8 -10q8 0 21 37l12 16 q27 35 37 82q2 2 6 16.5t21 49.5q29 42 41 86l12 18q12 8 13 17.5t6 17.5t11.5 19.5t10.5 15.5t12 27.5t19.5 26.5t23.5 11l2 7l-4 14q0 12 26.5 42t38 49.5t39 60t39.5 49.5l23 24q16 23 45 23q22 0 46 -23.5t24 -46.5q0 -8 -11 -37l-2 -12q0 -16 -11 -38t-13 -34l-56 -137 q-10 -4 -12 -6q-26 -57 -41 -62v-20q0 -11 -14 -16l-4 -2q-9 -38 -23 -55t-20.5 -34.5t-20.5 -19.5t-14 -39q-4 -20 -20 -20q-15 0 -19 -26t-39 -28q-10 -6 -12 -14l8 -25q0 -6 -37 -47l-8 -26q-19 -7 -31 -103l-12 -69l2 -27l-4 -14l12 -41l-2 -23q0 -16 12 -16q6 0 27 18 l14 6q63 32 78 62q4 4 14.5 8t15.5 11t8 10q61 40 79 70t37 36l8 8q12 10 20 10q17 0 17 -10l-8 -28q10 -27 10 -31q0 -35 -31 -43q-13 -13 -20.5 -30t-32.5 -21q-17 -24 -31 -31.5t-14 -15.5v-9q-8 -12 -14 -16l-19 4q-4 -12 -18 -33q-5 4 -9 4q-14 0 -23 -17t-13 -17h-23 q-5 -3 -16 -13t-37 -10l-31 -6q-44 0 -81 28.5t-39.5 52t-16.5 56.5l-2 41q-11 64 -25 64l-2 -13l-8 -4q-6 -31 -20 -31q-6 -3 -13 -10l-6 -4q-4 -2 -11.5 -17t-41.5 -42q-14 -37 -21 -37l-12 8h-2q-8 0 -13 -23.5t-20 -23.5q-4 0 -7.5 -13.5t-17.5 -17t-25 -27.5t-15 -24 q-2 0 -6 2l-17 -4q-5 -7 -14 -23q-9 -3 -16 -8q-31 -30 -82 -30q-36 0 -57 15.5t-25 26.5t-15 27.5t-14 40.5zM788 809l-10 -29q13 2 23 27q30 43 41 53q13 0 19.5 16.5t23.5 32.5q0 7 15 27t19.5 28.5t18.5 22.5t26.5 48t21.5 41t9 28q0 29 -4 29q-9 0 -13.5 -11.5 t-19.5 -29.5l-34 -57q-20 -34 -26.5 -54t-15 -23.5t-20.5 -19.5l-14 -14q-5 -12 -8 -29l-9 -8v-19q0 -13 -15 -23.5t-15 -13.5zM442 403l7 13q17 6 22 30q8 6 41 52t33 51q-10 10 -23 10q-2 0 -12 -4t-20.5 -6t-22.5 -8l-25 4q-11 0 -49 -29l-23 4q-6 0 -20 -26l-51 -41h-6 q-14 0 -19 -25q-17 -22 -32 -30.5t-21 -24.5v-13q-28 -31 -28 -47q-21 -20 -27.5 -43t-15.5 -39q4 -14 6 -34.5t20 -20.5q29 0 64 35q2 2 17 11t41.5 35.5t29.5 27.5q10 10 12 10l8 8q0 4 8.5 9t22.5 20.5t21.5 18.5t10.5 8.5t10 10.5t7 11l2 12z" />
<glyph unicode="e" horiz-adv-x="662" d="M137 487l21 17q24 2 26 25t33 40l12 17q15 15 82 39q17 10 23 18q2 2 4 2l16 -4q13 0 33.5 7t39.5 7l42 2q4 0 16.5 -6t30.5 -6q22 0 40.5 -20t18.5 -37q0 -31 -32 -63t-51 -36q-17 -17 -26 -21.5t-18.5 -14t-15.5 -9.5q-4 0 -6 2.5t-6 2.5q-16 0 -35 -39l-18 2 q-17 -11 -22 -24t-21 -13q-37 -37 -50 -37q-2 0 -14 4q-8 -10 -8 -21q0 -12 -16 -14l-13 -12l-10 2l-20 -21q-15 0 -31 -10q-2 -12 -6 -30.5t-4 -20.5q0 -29 53 -29l48 7q19 0 35.5 10t35.5 10q6 0 18 4l10 -4q7 15 26 27t30 12l10 6q4 12 12 16l8 7q8 8 15 8h14l4 2 q12 26 33.5 30.5t27 14.5t19.5 12t23.5 13.5t23.5 21.5t19.5 15t9.5 5q6 0 6 -9t4 -9t4 4t-2 10v7q0 15 16 20l45 29q2 21 11.5 24.5t14.5 8t11 4.5q13 0 13 -15l-5 -26l5 -27q0 -6 -9.5 -16.5t-14.5 -32t-13 -23.5h-6q-18 -19 -28.5 -22.5t-16.5 -12.5l-34 -39 q-10 -10 -17 -18t-11 -8l-8 8q0 2 -4 2q-10 0 -12.5 -12t-10.5 -21q-30 -14 -39 -26l-6 -2h-18q-13 0 -18 -19.5t-28.5 -22.5t-33.5 -12q-2 -2 -9 -4t-28 -16l-84 -30q-10 -5 -13 -5l-28 -4q-6 0 -12 8t-8 8l-18 -6q-20 -6 -38 -6q-10 0 -22 7t-19 10q-29 0 -41 45l-12 -2 q-4 0 -27 71q-6 8 -19 11.5t-13 19.5q0 45 19.5 60.5t21.5 23.5l14 52q4 3 10 20l23 42q4 7 18 35zM348 547l-12 -6q-4 -2 -23.5 -17.5t-38 -25t-38 -49.5t-19.5 -46t6 -6l34 15q19 9 35.5 23t47.5 34l8 8q2 4 18.5 14.5t24.5 20.5l10 4q17 27 34.5 33t17.5 12q0 12 -19 12 q-8 0 -24 -10h-23q-4 0 -22 -12z" />
<glyph unicode="f" horiz-adv-x="446" d="M-137 -188l10 22l6 25q0 4 9.5 12t9.5 14q24 93 49 127l24 60q4 20 18.5 32t14.5 21q0 6 -20.5 17.5t-20.5 21.5t66 39q0 28 30 59q7 6 7 14q0 24 10 39l8 23q4 12 16.5 26.5t12.5 28.5v8q-13 1 -37 -34q-25 0 -41 -37q-8 -21 -37 -27q-13 -24 -43 -33q-21 13 -21 22 l9 62q0 21 102 105q6 0 39 38l55 62q45 45 68 66q43 68 43 90q20 18 34.5 74.5t27 82t14.5 37.5q40 121 59 152l10 33l15 12q2 5 4 31q11 4 23 44t24 55t16 31.5t24.5 33t41.5 16.5q7 0 23.5 -20.5t20 -47t5.5 -36t2 -25.5l2 -29q0 -8 -8 -51t-11.5 -61.5t-20.5 -24.5 t-17 -12t8 -9.5t8 -5.5q0 -4 -11.5 -26.5t-21.5 -28.5q6 -12 6 -14q0 -5 -14.5 -31.5t-23.5 -35.5t-18 -41t-46 -54q-14 -14 -24.5 -46t-30.5 -40l-13 -19v-4q0 -15 -10 -33t-20 -42.5t-19 -32.5q-4 -23 -14 -41.5t-12 -32.5l-7 -8q-20 -3 -20 -19l4 -22q0 -1 -18 -33 l-4 -20q-5 -25 -19 -33.5t-18 -37.5l-4 -24q0 -2 2 -6q2 0 12 11q14 -5 16 -5q6 0 11.5 8.5t17.5 12.5l4 2q5 14 15 15t17 9.5t11 8.5q2 0 14 -8h2l9 4l-2 16q0 10 9 13t13 10l37 24q24 10 35.5 21.5t25 16.5t21 12.5t33.5 9.5q29 25 45 34l8 11q2 2 8 4t15.5 12t17.5 10 q20 0 20 -20q0 -33 -30 -53l-2 -3q-5 -40 -25 -40q-4 0 -14 -17q-11 2 -13 2q-8 -12 -20 -22h-6q-16 0 -129 -93q-6 -6 -10 -8l-19 2q0 -2 -12 -20q-15 -5 -33 -19t-26.5 -18t-15.5 -13.5t-19 -13.5l-13 -12h-6q-8 0 -19.5 -10t-11.5 -19q0 -4 9 -16q8 6 56 -60.5t48 -127.5 q0 -45 -13.5 -58.5t-13.5 -19.5q0 -4 3 -23v-4q0 -10 -11.5 -12t-13.5 -8v-25l-4 -12q-13 -7 -27 -47q-30 -31 -43 -35l-2 -4l2 -27q0 -10 -9 -16t-24.5 -25.5t-31.5 -27.5q-4 -19 -15.5 -27t-23.5 -23l-6 -4q-9 -2 -17 -22l-8 -2q-14 -24 -27.5 -34.5t-19.5 -19.5l-16 -10 q-9 -18 -37 -41q-2 0 -8 6h-3q-4 0 -7 -8t-11 -15t-16 -20l-4 -4q-13 0 -41 -35q-19 -4 -33 -14q-21 -24 -29 -24q-1 0 -22 16.5t-21 52.5q0 9 -12 21q-2 11 -4 32v9q0 12 8 28l6 21q2 8 6 13t11.5 28.5t17.5 46.5l2 10q11 48 18 47q6 15 12 40t8.5 41t14.5 26zM70 4l4 -43 q0 -4 -16.5 -38.5t-21.5 -55.5t-22 -21h-10q-2 -4 -2 -8l2 -22q0 -13 -7 -46t-20 -42l-6 -7q-2 -15 -15.5 -47.5t-22.5 -51t-14 -46t-13 -35.5q-6 -28 -12 -46.5t-15 -49.5q2 -4 6 -4q6 0 15 22q4 4 13.5 5.5t16.5 21.5l2 4q11 2 16 11.5t11 11.5t14 10l7 2q4 2 7 11t7 14 h14l4 2q8 32 19.5 41.5t17.5 22.5t14.5 20t12.5 26q18 21 23 33t14 20l2 7l-4 12v4q0 8 23.5 40t29.5 53.5t11 34.5t8 29.5t11 27t8 28.5q0 31 -28 78q-2 2 -4 12t-19.5 23.5t-25.5 13.5l-8 -4q-2 -2 -12.5 -6t-10.5 -19v-4l2 -22q0 -9 -26 -23z" />
<glyph unicode="g" horiz-adv-x="745" d="M-47 -526l-16 -11q-10 -6 -21 -6q-25 0 -48.5 33t-23.5 68q0 63 12.5 89.5t14.5 39.5q0 1 21.5 49.5t40.5 73.5t32 47l4 8q15 24 29 33q0 6 38.5 41.5t72.5 60.5l10 14q24 15 28 15l58 16q8 8 39 31h8l27 8q22 10 68.5 18.5t53 20t11 21.5t22.5 42q4 17 7 27t6.5 12 t11.5 19.5t16 29.5q2 0 2 2l-6 17q8 24 16.5 29.5t8.5 7.5l-7 18l17 37q0 4 -4 4q-53 -37 -62 -37q-5 -7 -22 -24q-17 -6 -23 -21l-8 -2l-6 -10q0 -2 -7 -5t-28 -16l-12 2q-4 0 -10 -20q-17 -20 -32.5 -24.5t-19.5 -10.5l-8 -10l-10 2q-21 0 -21 -16q0 -9 -12 -21 q-8 0 -20 -6h-15q-10 -22 -36 -27l-29 -20l-17 -6q-12 -6 -24 -14.5t-41 -10.5q-14 8 -43 15.5t-41 97.5h-2q-8 0 -17.5 -6t-13.5 -6q-24 0 -24 20q0 45 34 59l25 31l64 63q67 67 90 86t50 37l51 34q26 17 32 18.5t12.5 6.5t36.5 15l18 8q56 19 72 19l14 -2q11 0 21 8 q14 0 43 22l36 10q15 5 25 5h19q21 0 27.5 -33t11.5 -33q2 0 12 15l14 10q15 10 19 10q24 0 30 -20v-2l4 -5q9 -48 9 -59q0 -48 -20.5 -75t-24.5 -38q-20 -81 -40 -122q-5 -11 -24 -58l-10 -10q-4 -2 -4 -6l2 -14q-17 -27 -17 -43q0 -9 -16 -37q2 -2 17.5 -10.5t35 -32 t19.5 -35.5q0 -3 -11 -39q-36 -27 -61 -27q-10 0 -29 13l-6 -2v4q-13 3 -20.5 7.5t-14.5 4.5q-8 0 -8 -8q0 -4 2 -8q-6 -5 -16 -15q0 -3 -14 -29.5t-25 -35.5q-22 -1 -30 -33t-19 -41l-10 4q-34 -68 -68 -98q-21 -5 -21.5 -7.5t-2 -13t-24 -33t-26.5 -22.5l-10 -2l-6 -6 q1 -20 -53 -64q-29 -16 -31 -22q-8 -19 -59 -45l-19 -17q-13 -12 -26 -17zM297 307l12 17q6 8 20.5 12t23.5 17q24 34 57 50l10 7q15 29 27 31.5t21 18t9 25.5q0 4 -6 4q-14 0 -24.5 -8t-14.5 -8l-20 2q-18 -10 -50 -24l-18 -15q-12 -8 -21.5 -10t-14.5 -12.5t-13 -10.5 l-8 -4q-4 -4 -23 -4q-10 -6 -20.5 -17t-12.5 -11q-23 -25 -39.5 -31t-21.5 -17q-19 -5 -32 -22.5t-23.5 -24t-18.5 -16.5l-10 -8q-6 -4 -16.5 -26.5t-10.5 -31.5q0 -6 7 -6q10 0 37.5 14.5t35.5 22.5t11 8l38 -2q6 13 20.5 17t22.5 17t45 28l11 18h10zM315 -12l-30 -4 q-11 8 -17 8q-4 0 -6 -6q-12 -16 -53 -27t-55.5 -22.5t-24.5 -12.5t-10 -4q-10 -8 -15 -14q-10 -4 -20 -12.5t-21 -10.5q-18 -39 -26 -39q-2 0 -10 2h-2q-13 -26 -20 -30t-12 -11.5t-19.5 -16.5t-19.5 -30.5t-12.5 -29t-9.5 -33.5l-6 -14q-3 -6 -8.5 -34.5t-5.5 -29.5 q0 -14 12 -25q4 5 17 7l59 24q3 2 22 18.5t33.5 21.5t26.5 18q8 12 19.5 20t13.5 20q23 20 42 37.5t24.5 29t17.5 19.5l4 13q2 1 8.5 2.5t21.5 32.5l27 45q24 24 39 61l14 12q4 2 4 9z" />
<glyph unicode="h" horiz-adv-x="901" d="M29 444l8 11q26 6 33 20q3 7 50 52t52 48q32 58 39 87q12 6 12 14l8 16l9 2l4 4v9q0 18 39 84q39 81 42 89.5t12 25t27.5 63.5t57.5 98q4 2 12 22.5t25 40.5l12 21l21 35t27.5 39.5t19 30.5t15.5 23t18.5 25.5t29.5 18.5q39 0 56.5 -32t17.5 -56q0 -3 -12 -43l-15 -90 q-20 -10 -20 -23q0 -53 -41 -110q-4 -4 -6.5 -26t-17.5 -36t-27 -47l-93 -133l-8 -8q-6 -4 -14 -17l-16 5q-27 0 -27 -17q0 -6 4 -16v-2q0 -1 -74 -105q-4 -6 -14 -39l-14 -30q-21 -29 -29.5 -56.5t-22.5 -44.5q-20 -45 -20 -47q0 -6 6 -6t28.5 30t37 40t24.5 28l10 7 q4 2 17 12l10 -2q8 6 10 14t6 12q26 3 32.5 19t15.5 16q8 0 21 18.5t36.5 30t35 20.5t46.5 21.5t47 12.5h6l8 -2l15 2q35 0 70 -19.5t30 -60.5l-8 -62l-11 -49q-2 -12 -16 -53t-14 -47l-4 -19l4 -26l-2 -21q0 -10 10 -10q4 0 22 18q11 -2 21 12t27 29q0 4 13 7.5t36 23.5 q4 9 39 38.5t67 45.5l6 8q17 17 31 17t14 -15q0 -10 -5 -21t-7 -28.5t-20 -50.5l-4 -10q-7 -17 -17 -20t-21.5 -16.5t-47.5 -25.5q-16 -30 -25 -30l-18 8q-21 -17 -21 -35q-26 -22 -31 -29l-20 2q-8 0 -8 -22q0 -2 -20.5 -13.5t-31.5 -20.5t-47 -9q-4 0 -12 7t-23.5 12 t-21.5 23.5t-13 29t-7 16.5l2 20l-5 21l9 14q-6 14 -6 19l10 61q11 66 18 86q2 2 2 12l-2 25l2 14q0 15 -10 16t-12 5q-13 6 -15 6q-8 0 -14 -12.5t-16 -22.5l-25 4v-2q0 -8 -27 -31q-25 -6 -43 -26q-8 0 -27.5 -15.5t-25.5 -17.5l-8 -16l-16 -5q-7 -20 -33 -26l-10 -19 q-21 -2 -29 -21.5t-12 -19.5q-2 0 -6.5 2.5t-8.5 2.5q-22 0 -24 -33q0 -4 -41 -47t-44 -44t-11.5 -20.5t-23.5 -29t-22.5 -15.5t-11.5 -6q-21 0 -34 30t-13 31l6 21l-2 18q0 1 12.5 40.5t28.5 62t25 73.5q-45 -30 -54 -30q-20 0 -20 26q0 48 31 86z" />
<glyph unicode="i" horiz-adv-x="616" d="M428 926l-6 39v6q0 47 32 52q7 1 42 13q18 -4 37.5 -31.5t19.5 -48.5q0 -2 -3 -9t-4 -26.5t-19.5 -34t-39.5 -14.5q-14 0 -35.5 19.5t-23.5 34.5zM-4 426l16 14h6q7 0 21 15l10 4q20 30 35 35l16 12q4 4 11.5 7t24 19.5t26.5 16.5t16 -2q6 12 24 23.5t29 27.5l13 6 q16 8 28.5 20.5t32.5 12.5q29 0 60.5 -29.5t31.5 -56.5l-17 -78q-17 -86 -38 -90l-4 -21q-14 -10 -14 -16l6 -24q0 -5 -11 -15q-2 0 -2 -6v-41q0 -11 -14 -18q2 -2 6 -4q6 6 27 6l16 -2l22 22q7 2 19.5 9.5t42.5 19.5l131 100q27 27 41 27q15 0 15 -19q0 -22 -8.5 -36.5 t-15.5 -35t-16.5 -28.5t-15.5 -17.5t-32.5 -27.5t-45 -36.5t-30.5 -26.5l-43 -31l-6 -10q-2 -2 -18.5 -8.5t-29.5 -16.5l-18 -10q-6 -4 -19.5 -5t-23.5 -11.5t-16 -10.5l-15 2l-20 -6q-17 0 -41.5 20.5t-24.5 43.5v6l2 14q0 4 -6 20.5t-6 18.5l2 14l-2 6q0 27 4 34t6 19.5 t4 20.5l5 25q4 12 10 16q2 8 8 27l4 18l10 14q8 8 9.5 21.5t10.5 28.5t9 18q0 12 -12 12q-4 0 -25 -16l-18 6q-2 0 -11 -10q0 -4 -9 -6t-17 -15l-8 -2l-13 6h-4q-10 0 -12 -22q-11 -16 -29 -21l-22 -6q-11 -4 -16 -18t-20 -25.5t-20 -11.5q-28 0 -28 31l8 47z" />
<glyph unicode="j" horiz-adv-x="506" d="M399 1094q29 0 57.5 -27t28.5 -53q0 -4 -6 -11.5t-15 -30t-48 -22.5q-37 0 -55.5 37t-18.5 47q0 4 2 12.5t3 24.5t20 16l22 5q2 2 10 2zM176 309v4q0 6 6 15l23 51q2 8 5 12t3 19l8 26q2 4 2 19l10 37l-2 20q-39 -22 -61 -41l-20 -10q-5 -4 -15 -25l-18 -12 q-19 -18 -19 -23q0 -10 -24 -20.5t-27 -30.5v-4q-10 -10 -20 -10q-15 0 -30 15.5t-15 27.5q0 35 8 42t16 18.5t37 25.5q24 30 39 37.5t39 38.5q58 43 92 61q2 0 17 18.5t59 45.5l12 14q8 10 27 10q26 0 49.5 -29.5t23.5 -60.5q0 -18 -10 -33l-6 -18q-4 -29 -12 -45 q-8 -43 -11 -76q-14 -20 -27 -76l-13 -45q0 -24 -11.5 -45.5t-15.5 -56.5l-8 -12l-2 -17q0 -6 -3 -8t-9.5 -20.5t-12.5 -28.5q-10 -17 -10 -62l2 -6q-8 -1 -19.5 -26.5t-11.5 -28.5q0 -6 4 -6l41 12q21 4 31 5t18.5 4t51 10.5t59.5 7.5l20 -2l50 8q4 2 14 2q55 0 87 -31 t32 -74q0 -51 -56 -55h-6l-14 -2q-14 0 -26.5 28.5t-26.5 28.5l-15 -2q-14 7 -23 7t-17.5 6t-25 10t-42.5 14q-33 -8 -43 -8h-12l-48 -14h-8l-18 6q-14 -13 -53 -27q-6 -6 -8.5 -22.5t-12.5 -28.5l-4 -14q-4 -9 -12 -14t-8 -9q0 -2 4 -16v-4q0 -2 -2 -6l-2 -11v-10 q0 -4 -9.5 -12t-19.5 -29l-4 -4q-4 -4 -4 -8l2 -35q0 -14 -17 -18q-12 -27 -14 -39.5t-10 -20.5l-37 -65q0 -11 -8 -30.5t-9 -27.5q-6 -6 -12 -10q-12 -44 -17 -47.5t-11 -28.5q-18 -12 -23.5 -35t-30.5 -41q-25 -61 -82.5 -119.5t-83.5 -58.5q-4 0 -12 6q-19 0 -28 16.5 t-17 24t-10 15.5t-9.5 19t-7.5 22l-4 47l2 78q2 2 7 17q23 89 29.5 98.5t8.5 27.5q9 12 20 36.5t12 39t16 24.5q10 29 28 45l10 17q21 30 41 35q28 57 86 115t86 67q6 13 16.5 20t22.5 19l19 16q18 58 27 77t14.5 49t15.5 50l2 19q0 2 10 17t19 67q0 10 8 23.5t8 17.5z M-164 -633h4q8 0 15 4l-9 21q0 14 15.5 37.5t30 54.5t30.5 39l-8 14q8 24 10 37l88 219q20 46 19 60q-25 -18 -39 -39q0 -2 -23.5 -22t-42.5 -30l-47 -65q-11 -16 -20 -21q-34 -60 -41.5 -80t-14.5 -26l-10 -25l-12 -20l-2 -25q-8 -20 -13.5 -27.5t-7.5 -11.5l4 -45 q-18 -24 -18 -41l7 -43q3 -24 11 -24q5 0 16 12t21.5 15t20.5 8q5 15 16 24z" />
<glyph unicode="k" horiz-adv-x="883" d="M-37 373v4l6 6q0 6 11.5 19.5t14.5 21.5t10 12t12.5 14.5t23.5 20.5l102 129q17 21 25 29q33 41 53 98q4 6 12 12q25 49 46 111l10 16q1 3 17 32.5t23.5 37.5t14.5 37l22 44q9 20 27 64q25 9 25 11q0 4 -3 9t-5 9q4 14 16 23l4 4q0 4 8 16l2 6q18 40 46.5 67t54.5 27 q24 0 27 -18t9.5 -29.5t6.5 -23.5v-25l-6 -86q0 -2 2 -8q-9 -8 -11 -21l-41 -110q-5 -1 -21 -31l-15 -29q-24 -46 -37 -53l-6 -8q-11 -16 -19 -16q0 -25 -17.5 -41.5t-26.5 -37t-34 -32.5q-8 -16 -20 -35l-45 -61q-18 -25 -27.5 -60.5t-19.5 -50.5l-4 -10q-23 -14 -23 -17 q0 -5 -4 -32q-8 -21 -10 -23l2 -22l-13 -2q-2 -2 -6 -17v-20l2 -2q4 0 9 14q14 10 36 21l7 4q8 24 16 30l20 27l29 25q41 40 41 43q0 2 2 4l14 -2l7 4l-3 18q1 1 15 12l31 31l16 12q8 7 20.5 18t20.5 11l12 -4q12 30 53 48t48 18l57 -13q8 -8 34.5 -23.5t26.5 -76.5 q0 -6 -12 -31l2 -18q0 -6 -16 -21l-6 -20l-58 -53q-10 -7 -20.5 -10t-21.5 -12t-49 -27.5t-38 -30.5q0 -4 13.5 -22.5t19.5 -31.5t22.5 -30t28.5 -19t25 -6q1 2 18 8.5t25 14.5l14 4q14 2 19.5 12t28.5 23.5t36.5 31t24.5 17.5h12q14 0 16 20q27 12 39 25.5t27 21.5l6 4 q27 29 45 29q10 0 14 -10q-8 -33 -8 -46q0 -9 -11.5 -36t-12.5 -27l-11 4h-2q-6 0 -12 -7t-12 -9t-12.5 -12t-20.5 -15.5t-22.5 -15.5t-12.5 -13t-8 -7.5t-9 -7.5t-12.5 -12t-19.5 -15t-18.5 -18.5t-17 -17.5t-29.5 -17l-27 -19q-10 -6 -12 -6h-3l-10 2q-4 0 -4 -6 q-12 -17 -22 -17q-11 0 -27.5 -7t-24.5 -7q-14 0 -53 10q-8 9 -18 13t-25 37l-14 12q-17 12 -55 102l-9 12q-32 7 -32 31q0 5 12 29l10 6q6 12 14.5 14t14.5 14.5t18 12.5h4q14 14 27.5 21.5t22 15.5t44 20t35.5 76q0 6 -10 8q-29 -10 -43 -26q-20 -2 -31 -20.5t-20 -18.5 l-19 2q-6 0 -12 -16.5t-16 -16.5h-8l-13 -6l-4 -16q-23 -25 -37 -25l-8 -23q-16 -6 -37 -30l-6 -4q-8 -9 -12 -15t-12 -6q-13 -8 -23 -33q-12 0 -16 -18.5t-17 -18.5h-8q-10 -23 -17 -28.5t-16 -16.5t-14 -22t-20 -23t-23 -20l-16 -10q-13 -9 -17 -13t-10 -4 q-10 0 -28.5 15.5t-18.5 23.5q0 58 10 82l27 70q12 32 28.5 56t16.5 34q0 14 -10 14q-35 -35 -46 -41q-57 7 -57 23z" />
<glyph unicode="l" horiz-adv-x="543" d="M98 317v7q0 14 2 22q-6 16 -6 29q0 2 10 28l9 31q7 18 8 19q-6 16 -6 18q0 23 13 38t22 42l20 61l33 80q1 3 9.5 16t14 22.5t15.5 27.5l10 2q4 4 4 8q0 2 -4 16l35 58l21 43q10 17 22 22q20 37 35 45q6 19 22 41l19 2q5 14 10 21l2 20q0 -6 5 3.5t15 35.5l27 31l8 14 q5 7 16 27q15 6 25 22l21 17q-2 11 24 49q17 7 31 18l14 4q0 35 25 48l12 8q16 8 18 8l7 2q12 4 28 4q37 0 67 -27.5t30 -62.5q0 -14 -15 -29l-4 -8q-14 -55 -20 -55q-4 0 -11 -6q-2 -33 -4 -37q-18 -3 -18 -45q-2 -6 -14.5 -20.5t-19.5 -40t-15 -25.5h-11l3 -15 q0 -14 -13.5 -27.5t-16.5 -28.5t-24 -36l-10 -16q-6 -10 -16 -21t-17 -34l-26 -48q-27 -49 -41 -47q-9 -39 -12 -45t-14 -11t-17 -17.5t-13 -18.5l-18 -37q-16 -7 -23 -26q-16 -4 -20 -27q-4 -4 -10 -18l-35 -35q-27 -19 -29 -43.5t-26 -24.5q-17 0 -50 15h-2 q-3 -14 -14 -31l4 -27q0 -5 -16 -63q8 -15 8 -21l-2 -22l5 -27q5 -33 24 -33l24 -4q2 0 25 15l37 20q2 0 2 -2q10 -4 16 -4q10 0 10 16v13q6 10 14.5 12t15.5 9t11 7h10q15 0 15 35q4 2 10 8h12q8 0 17.5 19.5t13.5 23.5q18 2 25 6q32 58 49 58h6q17 16 18.5 28.5t10 16.5 t15.5 10t9 6q15 0 15 -11l-3 -28l7 -30q0 -4 -8.5 -15.5t-8.5 -25.5q0 -29 -10 -31t-16.5 -13.5t-21.5 -21t-23 -27.5l-17 -4l-10 -6q-12 -31 -25.5 -38t-33.5 -42q-3 0 -3 -2l-16 2q-9 -16 -18 -19t-15 -11.5t-21.5 -14.5t-19.5 -14t-12 -9t-15 -7.5t-12 -6.5q-2 0 -14 2 h-4q-17 -12 -28 -12q-13 0 -19 -4q-6 4 -18.5 6t-28.5 10q-17 -4 -21 -4q-17 0 -43 33.5t-26 65.5q0 1 -11.5 15.5t-11.5 31.5v10l2 12v19l2 6q15 2 15 4zM301 582l21 12q4 16 26 38.5t31 22.5h8q0 7 3 14t3 19q0 6 27 33l8 18q9 26 45 43q14 29 21 29l8 2q4 15 16 27l4 6 v16q0 2 13.5 16.5t19.5 27t16.5 19.5t14.5 25l16 2q0 13 2 17l2 10q5 12 35 63l16 37q0 6 8.5 14.5t8.5 24.5l8 33q0 23 -8 23q-10 -7 -18.5 -10t-16.5 -36q-30 -7 -34.5 -28.5t-24.5 -36.5l-7 -12q-2 -11 -19 -23t-32 -41q-50 -69 -55 -74l-10 -12l-15 2q4 -16 4 -18 q0 -6 -6 -11.5t-9 -13.5t-12 -18.5t-16.5 -34t-13.5 -27.5l-14 2q-13 -8 -13 -16l3 -14q0 -4 -5.5 -9.5t-10.5 -21.5t-25 -48.5t-31.5 -69t-22.5 -46.5q2 -2 6 -2q13 0 25 27z" />
<glyph unicode="m" horiz-adv-x="1290" d="M410 534l28 13q14 9 27 26l35 25q30 20 39 20l16 -6q2 0 12.5 12.5t24.5 12.5q18 0 49 -27t31 -48l-4 -34q0 -8 8 -45v-8l-4 -24l4 -25l-11 -49q0 -19 13 -19q17 16 29 19l14 14q8 8 12 8t10.5 9.5t16.5 13.5t14 14q56 61 86 70q4 0 13.5 10t15.5 12l22 17l9 -4h2 q2 0 16 10t20 10q38 0 62.5 -25.5t24.5 -39.5l-5 -23l7 -31v-20l-5 -21q0 -6 8.5 -17t8.5 -15q-12 -13 -12 -17l2 -18l-5 -55q0 -7 13 -23q6 4 17 7t17 6.5t6 4t-1 0.5q2 0 12 -4h4q8 0 9 15.5t20 25.5l24 -2q2 2 8.5 16.5t42 43t54.5 28.5q16 0 16 -14q0 -4 -4 -21 q8 -14 8 -24q0 -19 -32.5 -41t-49.5 -55l-4 -4l-20 2q-2 0 -9.5 -15.5t-17.5 -17.5t-14 -6l-21 -13q-6 -4 -39.5 -40.5t-56.5 -36.5q-10 0 -36 10.5t-35 21.5t-25.5 25t-16.5 53q0 2 5.5 7t5.5 8q-23 30 -23 43q0 6 2 13t2 13l-2 35l4 18l-2 11l6 51q0 12 -14 12 q-4 0 -11 -8t-17.5 -12.5t-22.5 -28.5q-18 -10 -24.5 -19.5t-10.5 -9.5q-2 0 -8 2q-12 -8 -12 -18v-4l2 -8q0 -9 -15 -17t-37 -41q-10 0 -14 -2l-12 -24q-10 -6 -19 -21l-12 -6q-7 -13 -14 -22l-6 -11q-43 -51 -60 -51t-41 45t-24 70l4 37q0 2 -8 16v4q0 2 8 23v30q0 2 -2 6 v5q0 2 8 16l-6 29l4 16l-2 35l4 31q0 3 -5.5 10.5t-7.5 7.5q-7 0 -41.5 -23t-46.5 -36t-32 -31q-21 -10 -29 -51q0 -2 -4 -2q0 2 -6 4h-4q-5 0 -31 -43l-4 -4l-19 4q-24 0 -24 -51q0 -9 -12.5 -12t-19.5 -17t-19 -29q-23 -10 -26 -15q0 -1 -22 -30t-24 -34t-13.5 -11.5 t-11.5 -11.5l3 -17q0 -16 -31 -16q-60 0 -60 125q0 14 12.5 31.5t24.5 42.5q19 19 45 55t39 49l13 21q0 12 5 18t5 15q0 16 -8 16q-19 0 -30 -9.5t-24.5 -13.5t-17.5 -14q-14 -6 -29.5 -25.5t-20.5 -24.5t-9.5 -13.5t-11.5 -9.5t-13 -7t-19 -6q-9 0 -16.5 18.5t-7.5 22.5 q0 73 97 126q13 7 20.5 14t15.5 11l4 7q8 12 60 34h14l67 17q43 10 43 -97l-2 -18l4 -8q17 16 34.5 28.5t25.5 22.5t31 20z" />
<glyph unicode="n" horiz-adv-x="1063" d="M881 276h4l10 -4q2 0 4 2q0 17 16 29q5 19 22.5 29t55.5 33l25 22l12 6l8 10q11 13 21 13q15 0 15 -11l-9 -20l4 -33q0 -18 -12.5 -32t-38.5 -41l-51 -54l-27 -14q-10 -6 -18 -14l-39 -33q0 -14 -9 -21h-16l-8 -4q-7 -19 -41 -37l-14 -10q-7 -6 -13 -6l-28 4l-19 -4 q-8 0 -21.5 8t-27.5 12.5t-35.5 37t-23.5 42.5q0 4 -4.5 13.5t-4.5 11.5t9 20v2q0 3 -5.5 14t-5.5 27q0 9 -6 23q8 8 8 12t-3 11.5t-3 11.5l6 49l-4 25l2 24q0 21 -18 21q-8 0 -20 -11l-7 -2q-27 -13 -38 -21.5t-23 -8.5q-6 -6 -23 -11l-8 -6q-4 -4 -16 -12 q0 -3 -37.5 -33.5t-67.5 -57.5t-43.5 -29.5t-13.5 -25.5q0 -4 -18 -16q-2 0 -21 -22q-16 12 -18 12q-13 0 -19 -33q-6 -13 -32 -16q-2 -1 -7 -15l-4 -4h-10q-2 0 -14 -11.5t-21 -14.5q-13 -27 -22 -27q-4 0 -11.5 4t-18.5 7t-24.5 24.5t-13.5 36.5q0 111 43 121l2 4v8 q0 13 11.5 18.5t23.5 22t16 18.5h13q4 0 4 21q0 6 5 11t6 14.5t14.5 31t13.5 25.5l-2 4q-25 -23 -36 -25t-30 -29l-16 3q-42 -31 -52 -35t-22 -23q0 -6 -7 -8t-26 -16h-6q-25 0 -25 36l21 57q9 27 42.5 45.5t56.5 35.5t46 18l7 10q34 13 46 41t33 28q55 0 84 -40.5t29 -64.5 l2 -27q0 -14 -6 -39q-12 -18 -12 -27q0 -8 10 -8q6 0 16 8.5t22.5 15.5t14.5 12q10 24 35 33t31 15l10 8l8 15q27 12 36 22t24 13t34 18l15 4l14 8q2 2 12 5t29.5 10.5t26.5 7.5q51 0 80.5 -41t29.5 -66l-2 -18l4 -27v-4l-8 -55l2 -19q0 -47 -20 -65q-5 -2 -5 -10v-9l20 -42 q9 -22 14 -22l32 9q14 4 23 21q8 4 28 24q6 16 19 16z" />
<glyph unicode="o" horiz-adv-x="741" d="M522 184l-47 -41q-4 4 -8 4q-10 0 -24.5 -18t-20.5 -18l-10 2q-25 -19 -36 -22t-26.5 -11t-28 -9t-20.5 -8.5t-39 -7.5l-16 2q-13 -6 -17 -6q-8 0 -17 8.5t-19.5 9.5t-21.5 14t-20.5 18t-15.5 14l-14 12q-17 12 -33 44t-16 50v4l2 19l-2 22q4 4 10 17v32l24 80q2 5 -8 13 q-10 -15 -20 -18t-13.5 -14t-11.5 -11l-12 4q-2 -2 -9 -20.5t-24 -18.5q-18 0 -18 14l2 18l-6 25q0 8 16 31.5t29.5 27t23 19t41.5 37.5q18 4 31 26q14 11 36.5 18t34 20.5t68 42t82.5 28.5q8 0 22 4.5t26 8t25 11t21 7.5l29 -10q32 -9 39 -13q2 -2 20.5 -8.5t38 -17.5 t19.5 -41q-17 -25 -17 -27q0 -4 23 -12q8 -15 24 -39l11 -35l2 -82l-2 -8q-11 -10 -11 -13l3 -20l-8 -28q-3 -13 -10 -17t-9 -10l-6 -8q-2 -3 -8.5 -17.5t-14.5 -22.5t-10 -19t-10 -16t-11.5 -10.5t-11.5 -9.5zM211 158l4 -23l2 -2h16l5 -2q20 -4 30 -4q31 0 49.5 15.5 t29.5 15.5t18.5 15t9.5 15h14l4 2q0 23 20.5 33t29 26.5t19.5 25t15 22.5l8 12q4 4 4 15l19 36q6 25 6 39q0 21 -21.5 33t-21.5 47q0 23 23.5 42.5t23.5 23.5q0 6 -6 6q-3 0 -23 -8q-7 -14 -71 -37q-21 10 -23 10q-6 0 -12 -12t-12 -17h-13q-2 0 -13 -13t-28 -13l-12 -12 q1 -16 -20 -33l-11 -13q-10 -12 -26 -28l-18 -45q-11 -26 -11 -39q-3 -6 -13.5 -12.5t-10.5 -16.5q0 -2 7 -10t7 -12l-4 -13l-4 -37z" />
<glyph unicode="p" horiz-adv-x="920" d="M104 137l11 15q6 8 6 18l24 71q13 38 15 42l4 20l12 23l4 26q4 29 29 86l2 15l8 22v4q0 10 -6 10h-8q-18 0 -20 -8l-7 -28q0 -15 -18 -15q-2 0 -10.5 3t-10.5 3q-6 -12 -16 -30q-10 -4 -33 -21l-10 -2q-11 -16 -33 -33l-4 -6q-14 -22 -39 -22q-33 0 -33 45q0 28 27 42.5 t35 26t43 31.5l10 14q8 11 14 11l17 6q4 4 18 4l-2 14q0 6 25 13q6 6 27.5 22t74.5 86q4 10 15.5 15.5t19.5 13.5h20q8 0 36 -27t28 -69l-29 -129l2 -9l-2 -8q0 -4 4 -4t17 16q6 19 24.5 29t27.5 21.5t24.5 20.5t41 29.5t46.5 22.5l10 6l4 15q18 14 39 26l24 19q43 14 64 14 q10 0 18 8l23 -10q2 0 8 6q0 2 4 2q41 0 69.5 -32t28.5 -70q0 -2 -3 -9t-3 -12l6 -16v-2l-22 -57q-3 -10 -12 -56q-19 -30 -44.5 -57t-33.5 -41q4 -4 7 -4q9 0 26 18l47 29l8 -4q14 10 29 23t26 14q6 8 21 20l10 11q6 0 14 7t18.5 9t21.5 15.5t18.5 15.5t9.5 8q34 34 53 37 l12 4q2 2 4 2q11 0 17 -21l-13 -20v-10l3 -11q0 -10 -12 -25.5t-27 -15.5q-17 -8 -20.5 -17.5t-29.5 -27.5t-32 -31.5t-17 -13.5l-18 6q-23 -30 -31 -28h-6l-4 -2l-12 -25q-11 -2 -17 -6l-10 2q-61 -61 -78 -61l-18 2q-2 0 -9.5 -11.5t-12.5 -16.5t-13 -15h-21q-8 0 -30 -17 q0 -2 -2 -2l-15 6h-2q-10 0 -26 -16l-31 -12q0 -2 -2 -2l-21 4q-6 0 -18 -10l-8 -5q-6 0 -21 -10l-32 -12q-5 2 -9 2l-18 -2l-16 4q-5 0 -15 -14q0 -2 -4 -2q-2 0 -10 2h-12l-23 -6q-8 0 -28.5 16t-26.5 29l-10 16q-14 6 -19 12l-8 -4q-1 -4 -8.5 -13t-7.5 -13 q0 -13 -9.5 -34.5t-27.5 -76.5l-13 -16q-4 -5 -4 -10q0 -9 -16 -31q-1 -25 -19 -50l-4 -10v-14q0 -6 -20 -49l-2 -21q-6 -1 -20.5 -39.5t-34.5 -64.5l-9 -33l-10 -18l-6 -19q-2 -5 -6 -8l-2 -10l-6 -4q2 -15 -19 -50q0 -4 -10 -14t-23 -29.5t-38 -35.5l-43 -27q-48 0 -66 51 q-2 6 -19.5 33t-17.5 80l9 41q9 55 20 69l12 27q2 8 7 15.5t10.5 23t27.5 29.5q14 32 29 55l14 27q0 12 21 26q9 19 25 38.5t21 23.5t9 25.5t17.5 26.5t15.5 13l10 17q10 8 19.5 25t21.5 22q13 24 24 24zM350 252l35 6q28 6 31 6q2 0 9 -3t15.5 -6t18.5 -22q49 23 59 33 t17 10q2 0 6 -2q2 5 5 12t14.5 16.5t35.5 43.5l33 37l35 51q13 20 22 47l6 13q4 12 4 14q0 7 -14 33l-25 -11v2q-12 9 -20 9q-6 0 -11 -7.5t-14.5 -9.5t-16.5 -9t-18.5 -8t-25.5 -15l-12 2l-7 -5l-12 3q-21 -24 -29.5 -29.5t-23.5 -26.5h-14q-8 0 -15 -22q-10 -6 -20 -19 l-25 -10q-8 -13 -18 -20l-39 -50q-4 -4 -9 -5t-10 -3l5 -20h-3q-24 -13 -30 -46l-6 -24q0 -6 4 -6t11 7t25 20t27 14zM-131 -416q5 3 51 78l10 19q9 16 17 26l2 8q5 5 10 15l55 145q12 32 15.5 45.5t27.5 83.5q-6 -2 -12 -14.5t-10 -12.5l-15 -2q-2 0 -16 -36l-4 -5 q-15 -2 -20 -16l-17 -35v-14q0 -24 -35 -45q-11 -29 -14 -29h-10l4 -18q0 -23 -13.5 -39.5t-13.5 -18.5l2 -20l-2 -18q-12 -29 -12 -70v-27z" />
<glyph unicode="q" horiz-adv-x="987" d="M299 578l31 18q44 24 66 28.5t36 11.5t60 13l10 4q10 4 16 4q2 0 21 -6l18 -2q49 -4 72 -96v-25q0 -12 8 -12q6 0 15.5 16.5t18.5 19.5t21.5 13t38.5 10q41 0 53 -34v-13l4 -45q0 -8 -11 -23.5t-29 -49.5l-13 -17q-12 -14 -33 -45l-4 -4l-16 -4l-8 -41l-19 -10 q-9 -35 -11 -38t-19 -9t-17 -17q0 -16 13 -16q8 0 31 9t38 13q2 -2 4 -2q1 0 17.5 9t18.5 12.5t22 9.5l47 35h20q4 0 9 7l33 27q17 14 51.5 34.5t48.5 37.5t20 17q12 0 12 -19l-4 -16l2 -33q0 -25 -30 -43l-7 -6q-14 -10 -24 -14q-3 -13 -17 -22t-33.5 -23.5t-35.5 -18.5 q-6 -16 -24.5 -19t-38 -22.5t-29.5 -19.5l-17 2q-19 -21 -28 -21h-5l-8 2q-4 0 -11.5 -9.5t-26.5 -15t-26 -12t-18 -6.5l17 -73v-4q0 -11 -6 -45h-11q-10 0 -10 -11q0 -15 14 -22q0 -8 -6 -22.5t-6 -33.5q0 -10 -16 -31.5t-24 -50t-38 -73.5l-6 -29q-22 -60 -29.5 -62.5 t-7.5 -4.5l2 -11q0 -2 -8 -18l-2 -6q0 -4 -7 -15.5t-19 -35.5l-9 -9v-22l-4 -8q-12 -13 -17 -23t-19 -22t-16.5 -20.5t-8.5 -16.5t-12.5 -19.5t-14.5 -21.5t-11 -17.5t-15.5 -12.5t-18.5 -11t-18 -6h-11l-16 -13q-46 0 -64 27.5t-18 54.5l17 94q8 48 8 54t13 38.5t15 51.5 l7 16q8 23 12 37l69 156q21 46 39 73l9 21l16 29v16q0 4 20 25q5 23 23 59l10 29l-22 37q0 16 55 38l10 7q11 36 41 73v21q0 12 19 30l2 7l-9 -2q-7 -14 -24 -16.5t-25 -10.5t-10 -8l-12 4q-4 0 -16.5 -21.5t-49.5 -35.5q-6 -3 -14 -11t-13.5 -11t-12.5 -11t-9 -8l-18 6 q-10 -14 -23 -23q0 -2 -2 -2l-14 2l-39 -28q-2 0 -4 -3l-19 5q-29 -31 -39 -31l-41 -8l-20 2l-14 -2q-8 0 -40.5 12.5t-41.5 32.5t-9 51q0 51 11.5 75.5t14.5 45t17.5 36t34 41t29.5 35t15 15.5q33 39 57 39q5 6 12 20l12 8q13 8 23.5 19t36.5 20q2 10 16 15zM135 193h4 l29 8q2 0 8 -2q14 8 32.5 12t34 14.5t46.5 26.5q21 5 37 18t18 13q3 3 15 6.5t27 17t30 19.5l49 30h6q5 0 25 27l12 12l18 4l11 -2q4 0 11 21.5t30 21.5q6 10 14 16.5t8 12.5q0 4 -4 4l-14 -6h-4q-15 0 -39 25q-17 8 -27 8q-4 0 -55 -8q-19 -9 -39 -9q-21 0 -37 -22 q-12 -1 -39 -12l-12 -17q-7 0 -29 -10q-22 -23 -35.5 -24t-60.5 -48l-19 -16q-18 -2 -18 -19q0 -12 -8 -19t-15 -24l-20 -30l-6 -31q0 -18 16 -18zM307 -467l-2 -27q0 -8 -4 -22t-4 -21q0 -20 8 -20q2 0 4 2q27 0 78 109q16 26 29 32q2 8 15.5 43.5t17.5 49.5l12 42 q6 21 22 64l20 94q11 48 11 76q0 35 -20 70q-5 -2 -5 -7l5 -30q0 -17 -19 -31q-2 0 -3 -4t-19.5 -53.5t-40.5 -49.5l2 -28q0 -4 -17 -17l4 -18q-17 -37 -20.5 -56.5t-14 -33.5t-16.5 -40t-26 -69l-5 -20q-10 -11 -12 -35z" />
<glyph unicode="r" horiz-adv-x="735" d="M190 565l15 4l6 13q49 29 70 55q2 4 9 8t15 14q37 37 88 37q60 0 64 -73l6 -15q8 -14 22.5 -57t14.5 -53q0 -27 -17 -54q-14 -7 -67 -75l-10 -7q-8 -18 -21 -36q-20 -7 -20 -15v-18q0 -2 -4.5 -8t-12.5 -23l-8 -12q-4 -4 -8 -16.5t-11.5 -22.5t-7.5 -16q0 -15 39 -15 q2 0 15 6l14 -4q2 0 10 6.5t24.5 10.5t29 12t30 14t33.5 19.5t31.5 19.5t29 18.5t30.5 23.5t54 48q24 19 33 21q2 0 17.5 26.5t35.5 26.5q21 0 21 -20q0 -11 -10 -21v-6l2 -16q2 -3 2 -9q0 -4 -7.5 -12t-10.5 -20.5t-19 -16.5q-6 -22 -15.5 -25t-26.5 -20t-48 -40 t-42.5 -35.5t-15.5 -12.5q-2 0 -8 4t-8 4q-6 0 -8 -14l-4 -10q-13 -8 -15 -8l-6 2h-4q-12 0 -12 -9l6 -10v-2q0 -14 -16 -14q-11 0 -64 -37l-29 -6l-24 -13q-12 7 -15 7l-16 -5l-29 -2q-1 0 -36.5 20t-42.5 40t-18 40.5t-11 28.5q0 48 8 68.5t10 30.5t11.5 21.5t15.5 37.5 q29 58 40 71t17 32l13 18q2 2 6 15.5t10 15.5q8 14 8 18q0 29 -26 29q-5 0 -11 -10.5t-27.5 -20.5t-26.5 -15t-21.5 -12.5t-28.5 -23.5l-17 -8q-8 -19 -14 -21t-37 -10q-2 -1 -10 -12t-23 -11q-12 -12 -24 -28q-4 0 -21 -8l-20 -5q-8 -6 -17.5 -19t-35.5 -13q-15 0 -15 24 q0 49 34.5 78t50.5 31t20 12t19.5 16.5t36 29t44.5 30.5z" />
<glyph unicode="s" horiz-adv-x="549" d="M160 557l14 25q6 9 15.5 18.5t20.5 49t24.5 54.5t39.5 15q15 0 39.5 -14.5t48 -87.5t23.5 -103q0 -12 7 -30.5t9 -28.5q-8 -17 -8 -19l2 -41l-12 -33v-24q-12 -20 -12 -25q0 -6 4 -12q47 20 57 32.5t19.5 15.5t31.5 26l19 10q10 12 17 21.5t16.5 13.5t22.5 14t38 23 l10 12q15 17 35.5 27t22.5 10q7 0 14.5 -18.5t7.5 -36.5q0 -17 -19.5 -33.5t-26.5 -24.5t-32 -14q-2 -1 -33 -41l-20 -12l-10 -13q-2 -4 -27 -8q-1 0 -4.5 -10t-21.5 -14q-36 -33 -37 -37l-21 -4q-6 -19 -10 -23q-24 -6 -27 -20q-3 -2 -10 -4l-4 -3q-23 -18 -45 -22l-23 -6 l-8 -12q0 -5 -24.5 -13t-36.5 -20l-17 -13q-31 -12 -39 -22h-14q-14 0 -44 -20.5t-48 -20.5q-58 0 -79.5 14.5t-35.5 36t-25.5 34.5t-11.5 21q0 7 9.5 14t20.5 28.5t56 27.5q2 0 14.5 6t20.5 6q10 0 25 -18q0 -2 4 -2l16 2q11 -8 15 -8q24 0 51 24l4 2h8q3 0 10 17l17 35 l35 45v10q0 3 6 18v15q0 9 12 11.5t12 12.5l-2 8q-8 11 -8 17l10 20l-2 21l4 8q-4 14 -4 16l4 25q0 1 -5.5 19t-8.5 18q-6 0 -38 -31t-38 -44t-25.5 -23.5t-26.5 -23.5t-17 -15l-67 -54l-73 -54q-8 -9 -10 -9q-37 0 -37 41q0 13 15 47l10.5 6t3.5 3t-2 1l6 -4h2q37 25 48 29 t20 22l42 30q16 12 49 44t42 47z" />
<glyph unicode="t" horiz-adv-x="567" d="M291 983l14 4l10 10h2l9 -4h2q24 0 42.5 9.5t31 13.5t15.5 6t5 2l16 -2q8 0 21.5 28.5t30.5 41.5t34 49q4 5 9 15.5t8 10.5q15 0 24 19q30 35 49 35q25 0 35 -48l10 -38q0 -1 -5 -14.5t-4.5 -27t-1 -18t-1.5 -10.5q0 -8 17 -8q6 0 22 8l6 2q10 -6 17 -6q2 0 28.5 10 t33.5 11t24 8h12l8 -3q4 0 16.5 8.5t47.5 10.5l14 6h4q33 0 33 -29q0 -6 -9.5 -21t-15.5 -34l-46 -58q-23 -30 -46 -30q-4 0 -25 27q0 2 -4 2q-10 0 -21 -4t-18 -4q-3 0 -53 -15l-24 -4q-4 0 -19 -4l-51 -10q-26 -13 -41 -49q0 -2 -10 -9l-45 -82q-22 -6 -29 -26l-4 -6 q-11 -2 -20 -12.5t-17 -16.5l-18 -27q-11 -14 -22 -30.5t-16 -35t-8 -21.5t-3 -11l-3 -8q-12 -12 -12 -27l4 -16q-14 -48 -14 -51q0 -2 2 -11v-6q0 -22 -16 -55l2 -16l-6 -45q0 -9 6 -33q-4 -4 -4 -6q0 -28 29.5 -61.5t29.5 -104.5q0 -6 -3 -17.5t-4 -25t-15.5 -26.5 t-24.5 -13q-53 0 -79 77t-26 99l2 39l-6 20l6 88l-4 21l23 86v31q0 2 14 16q0 2 -4 2q-6 0 -16 -12t-25 -23l-8 -14q-2 2 -8 4q-5 -2 -33 -47q-21 -3 -33 -24t-33 -21l-4 -2q-4 -29 -28 -29l-4 -2q-15 -34 -31 -33q-10 -30 -49 -41q-6 -12 -17.5 -18t-16.5 -11t-9 -5 q-13 0 -13 28q0 8 6.5 17.5t6.5 13.5q0 2 -10 12q0 31 16 39t24 23q5 12 20 17t15 13q0 7 26 28t38 36.5t20 15.5l4 4q2 25 19 25l10 6l2 8l6 4h8l5 4q2 25 23.5 39t78.5 78.5t64 82.5t25.5 48.5t20.5 57.5q-2 4 -6 8l-43 -21q0 3 -20 9q-15 -9 -22 -18t-11 -9l-14 2l-44 -5 q-59 -5 -89 -24l-41 -12h-9q-8 0 -24 -10l-23 2q-32 -17 -47 -17q-2 0 -12 2l-102 -28q-12 -4 -54 -41l-8 -2q-10 0 -23.5 22.5t-13.5 40.5q0 99 170 115l41 16h2l11 -4h4q6 0 19 7.5t58 18.5l41 11l13 -2q10 0 22.5 8t38 11.5t35.5 7.5l16 4q4 0 16.5 7t32.5 7q3 0 15 -4z " />
<glyph unicode="u" horiz-adv-x="1006" d="M80 485l14 -6q2 17 19 29h8q10 0 26 27l17 10q4 -2 12 -2q6 0 11.5 8t27.5 31h4q6 0 14.5 9t22.5 9l34 9q16 4 18 4q9 3 44 -36.5t35 -76.5q0 -21 -22 -25l-5 -4v-20l-17 -37q-7 -15 -17 -19q-9 -16 -13 -22l-14 -2l-6 -6v-25q-9 -12 -26 -52.5t-17 -51.5q0 -19 8 -19 q6 0 12 5t16.5 11.5t15.5 13.5t21 12.5t30 20.5t20 20t13 13.5t9 8.5q6 0 19 4q2 11 4 16l24 12l58 52l8 10q16 4 20 6q8 27 27 39q0 4 10 6q8 16 20.5 25.5t20.5 23.5l23 19q10 4 14 12q52 46 64.5 52.5t40.5 6.5t45.5 -21.5t38 -32.5t20.5 -42q0 -29 -45 -111 q-29 -86 -30 -105.5t-9 -22.5t-8 -7v-4q0 -24 8 -24q6 0 16.5 10t42.5 22l9 -2q29 44 39 47.5t20 18t24.5 15.5t18.5 5q1 24 39.5 54t44.5 30q10 0 16 -15t12.5 -20.5t6.5 -9.5v-18q0 -13 -13 -17q-10 -22 -18 -26l-18 2q-5 -6 -8.5 -11t-4.5 -4q-8 -2 -28.5 -26.5 t-36.5 -40.5l-4 -6q-8 -6 -15 -8l-18 -15q-10 6 -12 6t-8.5 -8t-26 -20.5t-29.5 -28.5l-16 -16l-21 -3q-3 0 -10 -9l-18 -23q-13 -17 -41 -17q-6 0 -15.5 10.5t-18 18t-38 45t-29.5 39.5l6 35l-2 24q0 7 9.5 21.5t9.5 15.5l-2 39q2 2 4 6l14 23q-2 10 -2 22l4 33 q-18 -8 -31.5 -32.5t-35.5 -24.5q-19 -34 -29 -33q-4 -4 -6 -8l-14 -8l-17 2l-6 -25q-22 -12 -28.5 -21.5t-20.5 -19.5l-17 -16h-16q-4 -27 -31 -45l-8 -10l-18 2q-10 -32 -25 -39q-17 0 -46.5 -31t-41.5 -31q-87 0 -141 109q-2 4 -9.5 15t-7.5 34q0 39 10.5 53t27 52.5 t24.5 33.5q2 4 2 12q16 19 16 29q0 4 -4 4q-2 0 -12 -6l-14 -6q-9 -2 -13 -8t-14 -11.5t-16 -9.5h-3q-6 6 -8 6q-6 -16 -10 -20l-12 -2q-22 -23 -28 -23q-4 0 -18 7t-14 14l7 39v18q0 2 8 8q2 0 16 21.5t33 21.5z" />
<glyph unicode="v" horiz-adv-x="745" d="M88 510l4 8q33 0 43 27l4 4q36 12 51.5 27.5t56 28.5t42.5 13q6 0 36.5 -18t30.5 -68q0 -36 -20 -67v-31l-2 -8q-17 -12 -17 -27v-8l2 -29l-28 -61q-17 -8 -17 -14q0 -4 8.5 -9.5t8.5 -15.5q0 -11 -6 -41q2 -2 4 -2h4q4 8 16 12l10 7q2 11 7 16h12q8 0 8 16q0 6 44 51.5 t53.5 58.5t20.5 21.5t13 17.5t11.5 17t15.5 16.5t17 15.5t22.5 24t48.5 48q6 5 14 18t29.5 26.5t41 33t66.5 19.5q27 0 52.5 -25.5t25.5 -52.5q0 -14 -5 -21.5t-16.5 -25.5t-21.5 -18l-18 6q-19 -19 -39 -19l-19 4q-18 -12 -29 -13t-18.5 -12t-16.5 -12.5t-20 -9.5l-16 -8 q-10 -25 -43 -37q-12 -12 -22 -28q0 -3 -9.5 -8t-19.5 -18t-16 -13h-9q-8 -9 -12 -28t-33 -26q-4 -2 -12 -14.5t-23 -19.5q-6 -23 -26 -37l-12 -21q-5 -10 -19.5 -19.5t-15.5 -11.5t-13 -26.5t-26.5 -31.5t-28.5 -22.5t-24 -15.5q-35 0 -75 57t-40 72q0 56 15.5 87.5 t18.5 60t11 49.5l6 31l8 14q7 8 12 27l5 16q0 18 -11 18q-14 0 -24 -18l-4 -4q-25 6 -26 6q-7 0 -13 -31q-4 -10 -20 -13t-35 -32l-5 -4q-9 -2 -12 -4q-14 -23 -20 -23t-12.5 11.5t-16.5 17.5t-10 15q0 23 45 59q10 8 12 15t27 9q4 2 14 21z" />
<glyph unicode="w" horiz-adv-x="1094" d="M137 524l17 4q8 9 17 20t26.5 19t27.5 31q43 43 72 49q42 -18 49.5 -39.5t7.5 -70.5q0 -13 -10 -32.5t-14 -30.5t-19 -34q0 -2 -5 -7t-12 -20.5t-18.5 -27.5t-17.5 -27.5t-27 -50.5q-22 -60 -22 -69q0 -11 6 -11q4 0 14 6l9 3h12l14 10q2 5 4 14q2 2 27 12l2 2 q-2 5 -2 11q0 10 19.5 13t29.5 13q0 13 5 15t11.5 14t21.5 14t15 12q0 33 37 52q8 2 8 10q0 19 3 21.5t18 11.5l20 26l9 21q4 8 10 13t15 22.5t15 23.5l11 17q14 26 35 26q11 0 48.5 -31.5t37.5 -93.5q0 -24 -12.5 -29t-18.5 -34t-19.5 -53.5t-13.5 -26.5l4 -12v-4 q0 -23 -12 -37q2 -1 6 -17l-10 -16q4 -39 14 -39q6 0 15.5 4t18.5 5t30 14l65 41l12 14l9 6q16 8 22 22.5t19 16.5q4 23 24 43l29 55q11 22 14 25q0 34 -26 96v6q0 20 13 39t25 19l21 -2l27 6q8 0 43.5 -29.5t35.5 -73.5q0 -28 -10 -48.5t-13 -39t-20 -28.5l-4 -5 q-3 -47 -39 -71q-10 -15 -21 -36.5t-20 -25.5q-2 0 -15.5 -22.5t-20.5 -27t-27.5 -13t-20.5 -21.5l-2 -14q-35 -25 -45 -37q-13 -2 -20 -4q-41 -41 -114 -41q-35 0 -75 34.5t-40 70.5l-9 32q0 80 6 111q3 4 3 8q0 12 -7 12q-5 -5 -10.5 -16.5t-13.5 -15.5l-15 -13 q-5 -24 -10.5 -27t-17.5 -15.5t-27 -22.5q1 -6 -41 -60v-6q0 -1 -10 -6l-16 -16q-15 -15 -76.5 -52.5t-71.5 -37.5q-27 0 -46.5 19t-22.5 41t-9 40t-6 27q0 4 4 20t5 29.5t3 15.5v19q0 2 11.5 16t11.5 29q0 6 9 19t12.5 22.5t15.5 21.5q2 10 9 28.5t7 22.5q0 2 -2 4 q-14 0 -41 -26l-18 -10q-13 -7 -45 -33q-15 -19 -27 -19q-47 0 -47 43q0 21 11.5 29t13.5 15.5t24.5 12t48.5 46.5q23 0 27 7t12 15z" />
<glyph unicode="x" horiz-adv-x="784" d="M244 354l4 4l2 9l48 38q24 19 25 29t3 17.5t2 21.5q0 6 5 26.5t5 25.5t4 22v10q0 12 -4 12t-13.5 -13t-13.5 -13q-7 0 -28 -6q-14 -23 -17 -23l-6 -2h-20q-14 0 -29 -25v-4q-16 6 -18 6q-7 0 -14 -12t-13 -16q-20 -6 -38.5 -27t-39.5 -22q-59 -54 -68 -54h-12 q-10 7 -10 37q0 12 13 33.5t34 32.5l6 4q7 29 29 35l20 8l19 27q21 0 35 22q16 4 28.5 22t69.5 35q7 7 18 21l21 6q16 24 39.5 26.5t42 11.5t30.5 9q84 0 84 -65l-6 -25l2 -14l-4 -58q0 -6 4 -6q6 0 43 25q21 7 30 16.5t16 11t59 35.5l8 2q8 6 16 19l52 37q37 26 53 26 q31 0 31 -49q0 -18 -12.5 -21.5t-31 -12.5t-40.5 -15l-21 -8q-6 -12 -35 -27l-14 -10q-8 -10 -24.5 -15.5t-20.5 -10.5t-15.5 -9t-16 -10t-27.5 -21t-28 -16.5t-12.5 -9.5t-11.5 -8q-16 0 -16 -7q0 -18 -23 -102v-10q-12 -21 -12 -23l4 -16l-14 -60v-4q0 -4 3 -16t4 -19.5 t3 -7.5l14 -2q6 0 12.5 5.5t19.5 10.5t36 25q58 39 84 43l8 10q0 7 19 17q14 -12 16 -12q12 41 34.5 56t33.5 24q60 55 86 55q16 0 16 -29v-4q0 -49 -27 -68q-15 0 -30 -22q-29 -27 -51.5 -40t-35 -25.5t-21.5 -13.5t-23 -15l-27 -6q-24 -51 -111 -87q-16 -36 -31.5 -38.5 t-27.5 -12.5h-4q-2 0 -8 2q-19 -6 -27 -6q-18 0 -58.5 27t-41.5 57q-4 4 -6 23q-3 2 -3 8q0 34 27 119q2 2 2 6q0 2 -2 6l-2 8q0 6 -4 12q-10 0 -23 -16l-14 -14q-4 0 -10 -4l-33 -19q-4 -4 -18 -24.5t-17 -20.5l-18 6q-6 0 -6 -22q0 -10 -10.5 -19.5t-18.5 -21.5 q-47 -84 -98 -84q-11 0 -25 19.5t-14 33.5q0 16 16 39q2 0 21.5 35t87.5 59q5 3 40.5 33t37.5 31h14q20 26 35 26z" />
<glyph unicode="y" horiz-adv-x="934" d="M750 322v-11l2 -8v-4q0 -2 -4 -23q-15 -16 -17 -45l-12 -18q0 -14 -9.5 -22t-16.5 -32t-17 -51l-23 -57q0 -4 4 -4q2 0 6.5 2t8.5 2t8 -2t6 -2t14.5 7t28.5 9l37 9q12 4 49 4l31 2q37 0 74.5 -19t47 -40t9.5 -68q0 -37 -25 -37q-15 0 -38.5 19t-32.5 48t-29 29l-25 8 l-14 -4h-4q-4 0 -18 6h-3l-30 -8h-41l-19 -10q-14 -4 -30.5 -6t-29.5 -8t-13 -11q0 -31 -27 -53q-10 -16 -11 -25.5t-11.5 -21t-22.5 -35.5l-8 -14q-4 -6 -4 -10q0 -2 2 -8v-9q0 -28 -33 -53v-10q0 -8 -16 -23l4 -20q0 -4 -11 -16.5t-18.5 -28t-28.5 -27.5v-6l6 -12 q3 0 3 -4q0 -7 -15 -21q-4 -16 -14 -31l-41 -55q-10 -14 -10 -22l-7 -19q-11 -9 -15.5 -18.5t-26.5 -37.5t-29 -28q6 -12 6 -14q0 -12 -16 -29q-26 0 -26 -11l5 -20q0 -4 -11 -12t-18 -8h-14l4 -18q-4 -11 -12 -15t-26.5 -23.5t-26.5 -23.5l-13 -8l-39 -4q-16 5 -61.5 33 t-52 52.5t-6.5 69.5q0 5 10 17l2 8v19q0 2 10 35.5t17 37t22 39.5t23 47l92 135q0 13 4 17h6q8 0 11 5.5t9 12.5q0 19 17.5 31t25 26.5t17.5 26.5l2 6q4 4 17.5 9.5t15.5 15.5l34 33q5 4 16 10t23 22l7 3h6l4 2q12 26 24.5 28t16.5 6q-1 31 35 31q8 0 12 4l24 19q5 4 19 39 v2l18 -5l2 5l-4 22q3 4 12 27.5t17 27.5t8 9v12l-2 12l4 8v13l2 4q5 5 12 37q4 4 11 8l45 127q2 5 6 26l8 11q12 32 12 41q0 4 -4 4t-18 -11.5t-21 -11.5l-16 4h-4q-6 0 -16.5 -10t-12.5 -10l-12 -2q-10 -17 -18 -19l-25 -16h-2l-14 10q0 2 -5 2q-4 0 -12 -24l-31 -15 q-10 2 -12 2q-10 0 -19 -18.5t-24 -20.5q-8 -9 -37 -14l-59 -41q-10 -4 -14 -10q-21 -2 -39 -23l-27 2q-10 0 -19.5 -13t-19.5 -13h-6l-12 2l-33 -8q-14 0 -43 21.5t-29 37.5l-6 45q0 2 8 14t8 17q0 2 -2 8v8q0 35 25 84v4q0 4 -6 4q-13 0 -22 -21.5t-21 -30.5t-17.5 -15 t-9.5 -6q-6 4 -14 6q-2 2 -7 12t-15.5 16.5t-10.5 22.5q0 11 29 29l12 12q46 46 62 49l6 14q14 11 34.5 30.5t36.5 27.5l54 47q24 22 66 22q32 0 32 -41t-14.5 -63.5t-18 -41t-26.5 -49t-28 -45t-20.5 -40t-15.5 -45.5q0 -10 12 -10q17 0 43 18l9 4q10 4 20 10l25 11 q7 15 22 20l19 10q14 6 34.5 15.5t26.5 18.5t15.5 14.5t21.5 17.5q26 0 72 45q46 27 86 53.5t53 38.5q6 4 21.5 11t35 22.5t49.5 15.5q26 0 50 -19.5t24 -38.5l-2 -48q0 -46 -25 -78q-6 -40 -14 -55l2 -23q0 -6 -22 -20zM276 -444l5 14q2 7 14 14q10 43 27 56q0 22 2 25 l14 13l39 66q6 14 13 26.5t11 24.5q0 14 33 55v7q0 14 -6 14q-6 -7 -20 -14l-64 -54q-5 -4 -27 -32l-19 -20q-16 -17 -24.5 -21.5t-21 -29t-21.5 -24.5h-4q-1 0 -10 5q-6 -3 -6 -9l6 -24q0 -4 -8 -12.5t-13.5 -18.5t-11.5 -12t-22 -37l-19 -10q-3 -59 -37 -95 q-8 -16 -13 -31.5t-9 -19.5q-6 -37 -21 -43q-4 -2 -4 -6q0 -6 9 -12l4 -4q-13 -39 -13 -58q0 -4 4 -4l30 15q32 15 43 38l16 31q4 6 14 8q6 21 19.5 27t13.5 16t37.5 69t39.5 67z" />
<glyph unicode="z" horiz-adv-x="676" d="M166 184l-16 -8q-5 2 -11 2q-4 0 -37 -8q-2 -2 -8 -2t-16 15.5t-10 25.5t19 43l34 59q12 25 15 38t9.5 23.5t8.5 17.5t5 14.5t5 21.5t10 39v2q0 6 -4 6h-8q-4 4 -6 4l-62 -71q-34 -32 -55 -46t-31 -31.5t-18 -17.5q-29 0 -29 47q0 21 7 28t22 32q0 2 14 9t22.5 18.5 t16.5 13.5t11 9t12.5 14t14.5 18.5t16.5 18.5t19 20t35.5 22l59 55q37 46 57 46h11q6 0 15 2t15 2q23 0 44.5 -28t21.5 -56q0 -33 -21 -52q-47 -94 -47 -120q0 -11 -13 -22.5t-13 -27.5q-5 -12 -15 -24q0 -11 -7 -26t-7 -17q0 -4 4 -4q12 0 36.5 12t42.5 12q17 0 34 9l25 19 q12 9 32 9l16 -2q4 0 15.5 8.5t46.5 21.5t43 13q55 0 55 -47q0 -1 -6 -23t-11 -25t-16 -11l6 -19q-18 -18 -22 -49l-14 -37q-4 -6 -4 -22q-24 -47 -34.5 -81t-41.5 -106l-2 -8q0 -4 -6.5 -8t-6.5 -8t36 -27.5t36 -58.5q0 -27 -23.5 -43.5t-52.5 -16.5q-10 0 -25.5 11.5 t-29.5 11.5q-12 0 -21.5 -23t-23.5 -24l-55 -96l-9 -9q-6 -6 -19 -23.5t-29.5 -31.5t-30.5 -43q-22 -11 -47 -41t-39.5 -40.5t-22.5 -24.5l-18 -23q-7 -4 -17 -8l-4 -4q-21 -17 -41 -27q-9 -25 -35 -34t-43.5 -28.5t-34 -23.5t-33 -13t-28.5 -9q-24 0 -45.5 32.5t-21.5 69.5 l10 63q11 73 66 161l57 89q26 18 71 68q6 8 19.5 18.5t46.5 38.5q16 23 38.5 27t45.5 12l12 2q4 0 7 6q16 32 163 56q27 4 36 26.5t21.5 46.5t12.5 37q18 18 22 41l6 17q9 10 9 16l-2 18q20 33 20 66v2q16 20 16 43q0 8 -8 8l-14 -10q-10 6 -12 6q-15 0 -30 -11t-20 -11 l-16 2l-45 -11l-14 2q-4 0 -14.5 -6t-20.5 -8t-19.5 -9t-23.5 -7q-1 0 -11 -5.5t-20 -7t-10 -2.5zM154 -197l-23 -14l-18 2q-4 -2 -21.5 -15.5t-21.5 -13.5h-19q-31 -39 -39 -41q-22 -6 -32.5 -23t-14.5 -17l-14 6q-2 0 -12 -35q-3 -2 -17 -4q-42 -70 -47 -72h-10 q-3 0 -8 -8q0 -54 -23 -98q6 -39 12 -39q9 6 16 7t29.5 10t27.5 10t24 18t38 24.5t33 26.5l21 16q-1 15 43 41l22 25l11 20l12 6l6 17q3 2 10.5 4t15 17.5t33.5 56.5q12 7 41 63l7 6q12 11 12 17t-6 6t-42.5 -7t-45.5 -12z" />
<glyph unicode="{" horiz-adv-x="920" d="M563 967h8q9 0 10 12t17 31l18 34q7 7 13 12t16 21l4 4q10 3 10 6l-2 11q0 18 25 30l8 9l-2 16q17 25 17 29l6 14q10 10 12 21q43 51 55 63l13 27q33 9 63 63q-2 8 53.5 29.5t93.5 30.5h13l4 2q75 22 123 22q28 0 49.5 -23.5t21.5 -56.5l-2 -20l2 -23q0 -5 -16 -12l-8 -8 q-21 -17 -41 -17q-43 0 -53 17q-2 0 -3 7t-22 13.5t-45 11.5q-55 -32 -61 -38l-45 -45l-9 -29q-2 -10 -11 -13.5t-14.5 -21.5t-33.5 -27l-2 -4v-16q0 -4 -19 -16l-12 -11q-2 -31 -12 -37l-8 -10q-11 -51 -39 -49l-6 -8v-12l-4 -13q-20 -12 -29 -28q-6 -28 -16.5 -31.5 t-11.5 -19t-5 -15.5l-10 -2l-34 -44q-12 -16 -89 -52q19 -58 27 -72v-20l2 -11q0 -10 -10.5 -27.5t-10.5 -28.5q0 -19 -22.5 -64t-24.5 -66t-6 -28t-19 -7q-2 -2 -4 -6l2 -29l-14 -52q-6 -21 -14 -23l-10 -15v-26q-11 -11 -15 -11l2 -30q0 -14 -18 -21q0 -17 -0.5 -22.5 t-2 -6t-14.5 -6.5v-2l9 -28v-4q0 -5 -6.5 -9t-6.5 -8l9 -18q0 -8 -9 -17q4 -8 13 -41q-7 -8 -7 -12q0 -18 19 -18l18 8q6 0 13.5 -6t13.5 -6q4 0 13 7t26 7q6 0 11 2t13 2l78 49q31 0 31 -51q0 -18 -28 -55t-58 -37q-4 0 -19.5 2t-19.5 2q-55 0 -84 -12h-2l-31 10l-22 -2 q-1 0 -32 22.5t-37 31t-17 44.5l-10 21q-9 16 -13 57l17 113q2 2 2 12q0 13 15.5 60t31.5 55t18 14q-18 5 -18 11q0 3 12 30t21 29v2l-3 10q0 2 11 22l-4 15q0 6 7 12t13 37q10 22 21 28l4 5l-2 32l14 31l6 6q2 2 2 6q0 9 -4 20t-4 15l2 33l-8 25l4 30q0 15 -53 19 q61 2 93 31.5t52.5 45t30.5 35.5q14 15 16 15z" />
<glyph unicode="|" d="M461 1366h102v-1708h-102v1708z" />
<glyph unicode="}" horiz-adv-x="920" d="M698 471h-6q-8 0 -10 -4l2 -14q-2 -2 -19 -32t-38 -44l-13 -21q-12 -2 -12 -6l2 -10q0 -18 -16.5 -28.5t-18.5 -16.5v-14q0 -11 -6 -15t-6 -10l-6 -14q-10 -13 -14 -25l-54 -59l-12 -27q-34 -10 -63 -63q2 -9 -53.5 -30.5t-94.5 -29.5h-12l-4 -2q-21 -6 -62 -12t-48 -8 t-13 -2q-29 0 -50.5 23.5t-21.5 55.5l2 21l-2 22q0 6 17 13l8 8q20 16 41 16q45 0 52.5 -15.5t70.5 -33.5q55 33 61 39l45 45l8 29q2 10 11.5 13t11.5 10.5t6 17.5q4 2 13 10t18 10l2 4v17q0 4 18 16l12 10q3 31 13 37l8 10q4 22 8 37t33 13l4 8v12l4 12q21 10 41 58 q12 1 16 14q0 23 4 23l13 2q29 56 58.5 68t64.5 28q-7 13 -14 35t-15 37v20l-2 10q0 11 10 28t12 36t22.5 60.5t23 63t6.5 28t18 6.5q2 2 4 6l-2 26v4l15 50q6 22 14 24q11 12 14 43q11 8 12 8l-2 31q0 13 17 21q2 28 16 34v2q0 2 -8 29v4q0 4 6 8t6 9q0 2 -3 8t-3 10 q0 10 6 16l-10 41q0 2 2 5t2 6q0 20 -16 20q-4 0 -11.5 -4t-9.5 -4q-4 0 -12 6t-14 6q-4 0 -13.5 -7t-25.5 -7q-6 0 -11.5 -2t-13.5 -2l-78 -49q-30 0 -30 51q0 18 28 55t57 37q4 0 19.5 -2t20.5 -2q55 0 83 12h3q2 0 13.5 -5t16.5 -5l23 2q1 0 31.5 -23t36.5 -31.5 t18 -43.5l10 -21q12 -24 12 -57l-6 -45q-6 -60 -8 -68q-2 -2 -2 -12q0 -35 -39 -109q-27 -15 -27 -20q17 -4 17 -12q0 -5 -10.5 -30.5t-20.5 -27.5q-2 0 -2 -2q2 -2 4 -10l-12 -23l6 -14q0 -8 -12 -14l-4 -4q-9 -52 -27 -60l-4 -4l4 -33q-10 -19 -14 -30l-7 -7q-2 -2 -2 -8 q0 -2 3.5 -15.5t3.5 -16.5l-2 -33l8 -25l-4 -31q0 -14 55 -18q-78 -8 -82 -20q-39 -39 -59.5 -52.5t-27.5 -25t-26 -29.5z" />
<glyph unicode="~" horiz-adv-x="1366" d="M1189 725l27 -18q-47 -84 -126 -138.5t-153 -54.5q-39 0 -173 43t-197 43q-44 0 -82.5 -19t-104.5 -102l-28 19q118 196 284 196q52 0 174.5 -41t173.5 -41q113 0 205 113z" />
<glyph unicode="&#xa1;" horiz-adv-x="612" d="M616 1135l-8 8q-20 20 -24 39l-9 16q-8 10 -8 21q0 6 12.5 21t19.5 62.5t50 47.5q39 0 51 -17q20 0 27 -8.5t17 -31.5t18 -32.5t8 -25.5q0 -23 -27 -53l-4 -6q-6 -25 -16 -32t-13 -14.5t-17.5 -8.5t-20.5 -4t-19 -3q-16 0 -37 21zM612 1022l4 -4l13 -4q16 -8 32.5 -38 t16.5 -56q0 -35 -9.5 -50.5t-10.5 -23.5t-27 -68l-31 -84q-25 -67 -42 -95t-28 -58l-10 -13l-14 -43q-14 -6 -14 -20q0 -20 -23 -51q-12 -11 -18 -45q-7 -11 -18 -21t-14 -34t-19.5 -29.5t-18.5 -8.5q4 -12 4 -14q-21 -30 -25 -41.5t-16 -32.5l-12 -38q-17 -60 -56 -60 q-18 0 -54 49.5t-36 73.5q0 33 39 78t60.5 86t27.5 58.5t18.5 28.5t14.5 17q13 35 37.5 71t31.5 54.5t17 36.5l4 21l23 67l8 8l4 9v12q0 5 16 16v35q0 2 5 6l6 8q12 32 15.5 55t13 77t22.5 65l12 12q2 4 21 10q12 -4 30 -22z" />
<glyph unicode="&#xa2;" d="M801 1133l18 -5h4q23 0 23 -24q0 -37 -16.5 -65.5t-16.5 -32.5q0 -9 6 -9q4 0 11.5 5.5t13.5 5.5q4 0 14 -6.5t19.5 -9.5t20.5 -32.5t11 -41.5q0 -17 -26.5 -38.5t-48.5 -21.5q-9 0 -21 14q-28 6 -40.5 10.5t-14.5 4.5q-6 0 -8 -22.5t-21 -55.5l-31 -80q-5 -15 -11.5 -25 t-39.5 -108l-6 -8q-2 -2 -2 -6q0 -7 6 -7q4 0 11.5 4.5t11.5 4.5h4q2 -2 6 -2t14 11t37.5 21.5t39 23.5t15.5 13h15q3 0 25.5 15.5t33 19.5t14.5 10l9 6q4 0 18 15.5t29 19.5l4 4q17 15 20 15l13 -2q10 0 12 12t31.5 33.5t38.5 21.5q18 0 18 -20q0 -13 -16 -17 q10 -26 10 -28q0 -34 -33 -43q-4 -2 -4 -6l-2 -19q1 0 0 -1.5t-4 -4.5l-15 -2l-4 -6q-24 -13 -71 -62h-2q-11 11 -17 11q-4 0 -10 -15q-38 -38 -49 -40q-6 -1 -21 -15l-20 -12h-14q-4 -3 -6.5 -9t-17.5 -17t-21.5 -19.5t-18.5 -12.5l-18 4q-9 -16 -27 -16h-6 q-30 -27 -33 -27q-4 0 -20 13h-2q-11 0 -11 -17q-8 -11 -22 -18q-12 -19 -22.5 -36t-23 -32.5t-18.5 -41t-41 -25.5q-4 0 -22.5 23t-18.5 30q0 10 12.5 42t12.5 36q0 12 -61 41q-9 3 -15 26l-6 9q-34 7 -43 65l-8 25q-2 2 -2 8q0 10 8 30.5t16.5 55.5t32.5 43v10 q0 2 8.5 17.5t10.5 27.5q16 13 30 35q19 7 19 8l-2 17q4 4 20 25.5t31 19.5q12 15 28.5 26t30.5 27l19 8q41 41 76 41h14q12 18 33 18q2 0 8 -2h8q10 0 10 11v10q0 3 16.5 25t20.5 42l16 25q9 12 9 21h4zM500 524l18 6l49 93q8 15 9.5 35.5t37.5 68.5l11 29q4 26 34 82 q9 6 9 12t-9 6q-4 0 -13 -10t-23.5 -17.5t-26.5 -23.5q-21 -10 -29 -12h-6q-8 -17 -37 -54l-8 -16q-22 -31 -37.5 -43t-15.5 -21q0 -2 2 -10v-10q0 -6 -9.5 -14.5t-9.5 -12.5l3 -22l-9 -35q0 -31 45 -31h15z" />
<glyph unicode="&#xa3;" d="M782 752v-7q21 5 69 15.5t91.5 18t71.5 22t33 14.5q4 0 8 -2t8 -2q2 0 7 4t7 4q13 0 18 -15t29.5 -43t24.5 -44q0 -62 -39 -62q-4 0 -14.5 5.5t-32.5 5.5l-68 -7l-18 3h-10l-113 -11l-59 2q-23 0 -43 -20q-4 2 -9 2q-10 0 -18 -27.5t-22.5 -57.5t-14.5 -32q38 -10 57 -10 q84 0 134 -25h14q14 0 39 -12q8 2 18 2q25 0 86 -29l29 -6q38 -7 39.5 -28t9.5 -31t19 -35l16 -18q28 -31 28 -55q0 -60 -30 -60q-17 0 -22 6t-13 28.5t-16 30.5h-19q-11 0 -14 23q-24 7 -47 16l-37 13q-5 16 -26 18t-37.5 10.5t-36.5 8.5l-15 -3q-2 0 -16 7.5t-55 9.5 t-51 14.5t-21 12.5q-12 0 -47 -9q-29 13 -31 13q-15 0 -21.5 -1t-9.5 -7t-7.5 -12t-20.5 -30l-37 -59q-49 -79 -121 -124t-100 -54l-21 -10q-2 -2 -6 -2q-6 0 -6 4l2 10q0 4 -4 4q-6 0 -14 -14.5t-21 -19.5t-14 -5l-21 4q-12 -14 -18 -14l-21 8h-4q-8 0 -19.5 -11.5 t-60.5 -15.5l-12 -4q-14 -4 -18 -4h-5l-26 4l-17 -4q-32 0 -45 16q-4 5 -14 9t-17 8t-14.5 5t-19.5 18q-19 -7 -21 -7q-14 0 -17 10.5t-13.5 11.5t-10.5 23l-69 99q0 20 45 57l8 10q22 24 39.5 27.5t29 18t16.5 16.5t13.5 6t17.5 7t21.5 15.5t53.5 12.5l12 -2q4 0 4 12 q48 36 72 37.5t55 13.5l18 2h11l26 6q23 11 90 17l31 6l150 10q24 45 36.5 63.5t12.5 20.5q0 6 -6 6q-15 0 -60 -26l-22 -11h-2l-19 4q-10 -10 -24 -10q-13 0 -13 19q0 32 23 32l108 43q25 10 40.5 15.5t22.5 23t14 32t14.5 25.5t13.5 36q-23 -11 -37.5 -12t-69.5 -48 q-4 -4 -19.5 -9t-31 -13t-43.5 -15q-11 -12 -22 -12q-60 0 -60 63q0 30 28.5 45t29.5 15q14 0 22 -4t20 -5.5t29 -13.5q37 25 68 25q4 0 10 -2q14 31 29 31l26 4l27 26q24 5 37 21l12 12q29 29 56 82.5t44 75.5l11 18l8 8q-2 12 23.5 66t34.5 65t14.5 25t13.5 23l14 20 q8 27 19.5 31t27.5 24l15 13l8 14q8 14 10 14q4 0 16 6q1 17 36 33.5t40 16.5q20 0 68 -50l-2 -20l8 -43q0 -4 -14 -18q-2 -6 -6.5 -26t-19.5 -41.5t-17 -32.5t-13.5 -24.5t-13.5 -20.5t-10 -13l-10 -19q-11 -36 -37 -41q-18 -14 -33 -41q0 -4 -10.5 -8t-55.5 -53l-20 -12 q-14 -8 -21.5 -29.5t-31.5 -71t-27 -71.5zM1008 1169l4 9q13 4 24.5 24t30.5 38.5t23 49.5q12 10 12 15l-2 12l4 19q0 3 4 20v4q-77 -55 -121 -160l-29 -53q15 0 25 -3t25 25zM133 152l12 12l27 10q26 10 52.5 28t31.5 19q34 17 80 76l37 35q12 12 18 26l15 25q2 2 2 4 q0 8 -37 8q-76 0 -103 -12q-24 6 -39 6q-4 0 -8 -10l-6 -4h-22l-64 -17l-37 4q-6 0 -29 -22l-22 2q-12 0 -23 -27q-80 -45 -116.5 -84.5t-36.5 -50.5q0 -8 20 -24l9 -13q9 -5 86 -24h6q20 0 31.5 9t32 10t40 8.5t25.5 7.5q4 0 18 -2z" />
<glyph unicode="&#xa4;" horiz-adv-x="1386" d="M766 176l-23 -2q-24 -2 -84 39q-12 12 -43 23q-50 -44 -62.5 -57t-18.5 -15l-21 -17q-8 0 -15 -13t-12 -15l-41 -29h-6q-45 0 -45 37q0 4 15 16l2 4v15q0 10 30 28q11 11 17 23t24.5 21.5t25 23.5t36.5 35q-13 11 -25 31l-8 8q-31 30 -45 59l-8 8q-13 11 -15 15l-12 18 q-6 13 -9.5 25.5t-10.5 23.5t-11 23l-26 49q-10 23 -10 29v4l4 24q0 4 -6.5 12.5t-6.5 12.5l4 20l-6 27l4 27l-2 22q0 4 6.5 13.5t6.5 11.5q0 6 -4 22v6q0 17 18 44.5t19 36.5t18 32l2 10q7 35 26 51.5t30 35t42 48.5l10 15l17 18q-29 21 -35.5 32.5t-26.5 24.5t-25 26 t-24.5 24.5t-19.5 36.5q0 2 -15 14l-2 6q0 37 45 37q5 0 15 -8l16 -8q21 -11 39 -39q16 -13 29 -21l14 -14q10 -10 21 -15l40 -41q15 7 32.5 19t26.5 15t29.5 15.5t36.5 12.5l23 -2q2 0 20 14q28 10 54 10q4 0 20 -8q21 6 35 8l20 7q11 4 19 4h27q8 0 23 -5.5t28 -7.5l22 -6 q15 8 21 8l26 -2q10 0 47 -22l25 2q26 0 82 -39q18 -12 37.5 -22.5t30 -20.5t26.5 -23q1 3 19 12t20 19l6 10q0 5 4 5q28 20 39 38q2 25 19.5 35.5t17.5 14.5q16 32 82 32q16 0 41 -32q-6 -19 -18.5 -28t-12.5 -15q-26 -45 -39 -54l-8 -6q-3 0 -10 -12q0 -3 -25 -19l-18 -16 q-2 -2 -12.5 -14.5t-38.5 -32.5q6 -6 32 -49l9 -8q15 -14 22 -27l25 -55q11 -24 29 -57.5t18 -43.5l-2 -26q0 -6 5 -15.5t5 -11.5l-4 -22l6 -27l-6 -27l4 -20q0 -4 -5 -11.5t-5 -15.5l2 -26q0 -15 -16.5 -42.5t-19.5 -37.5t-19 -33l-2 -10q-4 -16 -15 -33l-4 -10l-18 -17 q-10 -9 -17.5 -23t-27 -34t-31.5 -39l72 -61q2 -4 27.5 -30t33.5 -54q22 -11 29 -35q-24 -33 -39 -33l-47 5q-19 1 -35 26l-8 8q-27 16 -31 43q-10 16 -26.5 28.5t-22.5 24t-21 21.5q-7 -9 -29 -18t-29 -16t-16.5 -10t-30 -15.5t-34.5 -12.5l-25 2q-35 -24 -73 -24l-21 6 q-14 0 -39.5 -8.5t-33.5 -8.5h-27q-8 0 -24.5 5.5t-49.5 11.5q-14 -6 -18 -6q-37 0 -70 20q-2 2 -6 4zM1220 1046l-32 19q-3 2 -14 4t-21 13.5t-46 20.5t-46 9q-6 0 -17 3t-54 9l-34 6q-2 0 -10 -4q-6 2 -10 4q-74 -16 -92 -16q-86 -14 -111 -39q-4 -4 -14 -6t-15.5 -6 t-21.5 -8t-41 -35l-16 -8q-7 -2 -12 -15.5t-18 -21.5t-20.5 -21t-29.5 -24l-6 -4v-15l-2 -4q-15 -8 -25 -33v-18q-33 -58 -33 -80l-2 -16v-2l6 -23q0 -2 -10 -33q4 -16 4 -20l-2 -20v-9q0 -24 12 -61l2 -14q4 -23 16 -44.5t15 -41.5v-9q19 -23 31 -49q70 -93 117 -117 q4 -4 12 -14q85 -51 96 -51l15 2q2 0 16.5 -7t19.5 -7h29l94 -6l60 4l18 -5q4 -2 12 -2l13 2q4 5 8 7l16 -2q1 2 25 16l14 -2q2 0 4 2l19 8q61 31 86 55l16 11q95 95 110 122q7 13 21 33l2 9v12q0 7 23 41l20 108v9l-2 22v6l2 12q0 7 -6 31v4l4 17v6q0 25 -14 47l-10 31 q-5 9 -11 18v18q-13 24 -24 33q-2 2 -2 4l2 15q0 2 -16 7t-29 36q-25 13 -31.5 27.5t-15.5 18t-14 10t-30 21.5z" />
<glyph unicode="&#xa5;" horiz-adv-x="834" d="M489 272l-8 -16l-36 -42q-48 -65 -66 -71q-2 -2 -2 -8v-8l86 23q27 7 55.5 8.5t36.5 5.5l23 4q30 6 52.5 19.5t26.5 13.5q5 0 9 -2t8 -2q2 0 10 8q0 2 4 2q12 0 18 -17t30 -41t24 -47q0 -61 -39 -61q-4 0 -14.5 5t-32.5 5l-68 -6l-18 2h-10l-113 -10l-59 2q-25 0 -44 -21 q-4 2 -8 2l-43 -8q-18 -22 -25 -38.5t-14.5 -25.5t-42.5 -110l4 -20l-4 -31q11 -20 11 -29q0 -5 7 -25t7 -24q0 -52 -13 -77t-53 -25l-28 4q-52 4 -60 25.5t-20 44t-12 69.5q0 6 4 22.5t4 33.5q0 18 15 41.5t18.5 36t35.5 69.5l21 41q-29 0 -38 -5t-18.5 -8.5t-16.5 -8.5 t-17 -9l-13 -6h-2l-18 4q-10 -10 -25 -10q-12 0 -12 18q0 33 23 33q8 0 28.5 12.5t59.5 20.5l20 10l88 31q13 29 33 55l6 14v9q31 20 47 65q32 40 49 64q-22 -4 -75.5 -8t-70.5 -6.5t-44 -17.5t-39 -20l-2 -2l-18 4q-9 -8 -23 -8t-14 19q0 32 22 32q17 0 144 56l98 33 q-5 20 -16 46.5t-11 61.5l11 55q0 2 -4.5 9.5t-4.5 13.5q0 8 11 18q4 0 4 6q0 35 14 48l2 22l-2 8v4q0 7 6 25q14 7 14 14l-2 31q0 15 25 21q-4 12 -4 16q0 10 5 19.5t6 22.5t7.5 19t10.5 17q8 35 34 69l13 21q6 24 10 24q22 0 22 9q0 8 -12 16l-2 6q0 21 31 47q0 23 14 27 l4 4q-6 14 -6 16q0 11 18.5 43.5t28.5 73.5l10 14q5 5 9 13q-2 25 -2 26q0 19 61.5 60t104.5 41q45 0 45 -41q0 -37 -21 -43q2 -4 2 -11q0 -11 -28.5 -58.5t-37.5 -57t-14 -29.5l-6 -10q-7 -16 -18.5 -37t-29.5 -49.5t-22 -52.5q0 -2 -9 -12.5t-19 -30.5 q-10 -43 -23.5 -50.5t-13.5 -13.5q0 -23 -12 -43l-41 -113l-17 -32l-22 -66l-15 -35v-18l-8 -17q-4 -4 -9 -28.5t-10 -36.5t-5 -21v-12l2 -16q0 -2 -2 -6l-2 -15q0 -2 2 -6q55 9 62 32t28.5 41.5t32.5 35.5q49 88 71 114q10 13 23.5 37.5t23 31.5t23.5 32.5t20 25.5 q11 0 15 -6t6 -6q8 0 8 10q0 15 -12 23q-2 0 -2 4q0 2 14.5 31.5t17.5 33.5l3 7q32 55 59 90t34 52t19 17h4q17 19 33 19q4 0 6 -12q12 8 12 12q0 10 -13 13t-13 11q0 7 38.5 53t43.5 46q4 0 10 -6l8 4l-2 18q2 2 2 4l12 12q0 17 25 29l2 2l-2 15h2q12 8 16 12l23 -2 q8 0 12 14q-3 2 -12 4l-2 8q0 9 31 33l-2 12l16 23q17 24 98 42l70 17q18 0 61 -59l-2 -23l2 -12q-36 -18 -44.5 -32.5t-26.5 -26.5l-13 -10q-6 -9 -24.5 -19t-30.5 -35q-10 -6 -29 -20q-4 -10 -12 -18.5t-17 -19.5t-19.5 -18.5t-16.5 -19.5l-8 -8l-11 -19q-18 -8 -27 -26.5 t-30 -38.5l-8 -10l-16 -11l-23 -24q0 -19 -20 -25q-10 -9 -16 -35t-13 -26l-19 2q-11 -13 -19.5 -34t-25.5 -32l-12 -22l-16 -15q0 -16 -23.5 -37.5t-21.5 -23.5q-2 -8 -15 -14q-3 -6 -6.5 -18.5t-13.5 -14.5l-8 -14v-15q-30 -30 -58.5 -75t-33.5 -52t-13 -16l-16 -25 q43 8 64.5 21.5t29.5 13.5h6l8 -2q2 0 7.5 4t7.5 4q12 0 17.5 -17t29.5 -41t24 -46q0 -62 -39 -62q-4 0 -13 6.5t-34 6.5q-8 0 -65 -7h-10q-15 0 -29 -2l-94 -6q-11 -9 -21 -10q-10 -11 -22 -20l-8 -9h-3z" />
<glyph unicode="&#xa6;" d="M461 1366h102v-682h-102v682zM461 313h102v-655h-102v655z" />
<glyph unicode="&#xa7;" d="M35 100l35 2q1 1 9 -3.5t40 -9.5l24 -5l74 4l21 -3q36 0 67 13l39 4q8 2 26.5 13.5t28.5 11.5q11 0 97 25h20q1 0 40.5 17t67 27.5t45 22.5t40 18.5t34.5 16.5q2 6 38 21t38 34q57 33 80 90q2 9 27 28.5t25.5 20.5t4.5 27l11 21q6 12 8 28.5t8 45t6 34.5q0 8 -10 17l-6 8 q-8 8 -22.5 12t-63.5 21h-8l-13 2q-15 6 -18 6q-17 0 -41 -8q-18 6 -25 6q-2 0 -10 -2h-6l-170 10q-7 0 -35 -8h-10q-6 0 -12.5 2t-10.5 2q-2 0 -13 -3t-15 -3q-51 0 -76 36q-2 7 -23.5 26.5t-31.5 68.5l-7 14q-2 4 -2 16q0 4 2.5 12.5t2.5 16.5q0 4 9 31.5t20 38.5t23 18.5 t38 48.5q43 11 43 21q0 2 -10.5 21.5t-10.5 49.5q0 82 74 127q7 20 32 31.5t42 32.5q7 5 30 6q36 31 112 56q15 5 66.5 22.5t61.5 19.5l16 6q19 9 37 11l109 8q5 0 10 -2l25 -2h28l46 -10q20 -5 30.5 -18.5t21.5 -29t11 -40.5q0 -5 -6 -27.5t-9.5 -52t-27.5 -29.5 q-33 0 -33 61q0 11 11.5 21t11.5 14q0 23 -58 23q-35 0 -50 -6.5t-21 -6.5q-27 0 -64 -12l-16 -2h-19l-50 -18q-20 -7 -48 -29q-44 -17 -62 -22q-55 -8 -134 -63t-79 -81q0 -22 60 -24l24 -7q5 -2 9 -2l12 4q6 5 22 5q9 0 31 2h4l37 4q6 0 13.5 -2t11.5 -2l63 14l70 -4l14 2 l15 -4q10 0 14 2h12q44 0 74.5 -29t38.5 -53l15 -25q6 -11 12 -25t6 -30q0 -57 -9 -65q0 -5 -4 -9t-9 -15t-17.5 -18.5t-20.5 -17.5q-18 -33 -25 -35.5t-23.5 -8t-16.5 -17.5q0 -11 9 -23t13 -25.5t9 -19.5t8 -14v-25q0 -4 5 -16q13 -32 13 -72l-8 -53q4 -8 4 -19 q0 -10 -10.5 -23t-10.5 -28v-6q-6 -10 -8 -20.5t-12.5 -16t-11.5 -33.5q-29 -36 -47.5 -67.5t-90.5 -75.5l-26 -24l-35 -21q-18 -10 -29 -17q-39 -28 -78 -32q-22 -12 -36.5 -23.5t-67.5 -25t-72.5 -22.5t-54.5 -11l-27 -6q-24 -10 -28 -10h-6q-2 2 -9 2q-4 0 -27 -8.5 t-34 -8.5l-8 2q-4 2 -15 2q-20 0 -61 -6t-61 -6q-37 0 -92.5 25.5t-63.5 46t-22.5 39t-14.5 24.5q0 13 12 13q4 0 11 -4.5t10 -4.5zM948 932l-18 -2l-6 2q-15 -12 -21 -12h-6q-2 2 -6 2q-6 0 -19.5 -3.5t-19.5 -3.5t-26.5 4.5t-26.5 4.5l-82 -9l-21 3q-16 0 -26 -3h-21 l-71 9q-13 0 -27 -14.5t-29.5 -23.5t-22.5 -18.5t-15.5 -14.5t-16.5 -22l-4 -4q-4 -8 -4 -12q0 -20 71 -20l37 10l29 -2q14 0 26.5 5t16.5 5l10 -2q15 -8 23 -8q6 0 8 2l12 2h15q4 0 8 4t10 4q8 0 26.5 -6t41.5 -6l14 2q4 2 10 2q12 0 21 -4l28 4q4 0 12.5 -5t16.5 -5 q27 0 60 28t49 33q6 10 19 26.5t13 20.5q0 17 -44 22z" />
<glyph unicode="&#xa8;" d="M621 893l14 -10q10 -8 10 -23q0 -12 -16 -29q0 -25 -54 -57q-15 9 -27.5 14t-21 14t-13.5 14q-21 22 -21 48q0 11 26 45.5t55 34.5q14 0 31 -26zM702 811l-20 23q-6 8 -6 18q0 12 35 59q12 4 21 11.5t18 9.5q6 10 10 10q29 0 55 -35q4 -6 17.5 -18t13.5 -33 q0 -18 -27 -35q-1 -2 -5.5 -12t-12.5 -10l-19 -6q-12 -21 -21 -21l-20 4l-10 -2q-6 0 -21 23z" />
<glyph unicode="&#xa9;" horiz-adv-x="1640" d="M1159 1343l25 7q10 4 20 4t37 -9.5t33 -9.5h26q5 0 33 -10h25q22 0 112 -45l72 -41q6 -2 23.5 -20.5t36 -29.5t26.5 -27.5t20.5 -36t20.5 -43t29 -56.5l10 -39l8 -20q15 -33 15 -49l-2 -33l6 -35q0 -2 -6.5 -23t-6.5 -49l-4 -14q-6 -21 -7 -36t-8 -27.5t-15 -34.5l-7 -9 q-14 -20 -22.5 -38t-37.5 -75t-43.5 -69t-30 -30.5t-28 -26.5t-16.5 -19.5t-23.5 -25t-27.5 -31.5q-20 -23 -61 -45t-76 -50t-88 -57l-6 -14q-14 -8 -23 -12l-8 -8q-27 -11 -49.5 -17t-35.5 -17t-30.5 -18.5t-34 -15.5t-32.5 -8q-9 0 -16 4t-11 4q-6 0 -25 -16l-15 -10 q-7 -5 -13 -5l-31 -6l-18 4q-9 -3 -15 -10q-2 0 -22.5 -7.5t-65.5 -16.5l-39 -9q-38 0 -66 9.5t-50 15.5q-22 -8 -27 -8q-49 0 -76 24q-2 2 -6 4l-29 -2q-29 0 -42 14.5t-25.5 18.5t-19.5 15.5t-44 27.5l-10 12q-12 24 -33.5 44t-34.5 53l-6 10q-17 24 -28 74l-7 8 q-12 18 -16 35v8l-4 20q0 4 2 10.5t2 8.5l-10 35l4 20l-7 30q-7 31 -7 48q0 8 9 26.5t9 28.5v8l-2 6l12 42q5 17 15 39t12 36l16 27l-2 31q0 7 24 41.5t44 46.5q21 63 55 92l10 22q9 17 33 31l49 43q8 6 27.5 20.5t44 30.5t37.5 28t42 27t45.5 27.5t42 27t64.5 27.5l29 17 l45 12q18 27 57 31t80 14h29l55 14l64 5zM1188 1262h-12q-5 0 -9 2q-96 -21 -120.5 -22t-49 -8t-53.5 -11t-46 -18.5t-46 -20.5l-18 -10q-3 -3 -29.5 -12t-53 -28.5t-38 -23.5t-21.5 -18.5t-32.5 -26.5t-42.5 -33t-50 -28l-8 -7q-3 -15 -29 -39t-36.5 -43.5t-53.5 -72.5 q-18 -11 -28.5 -37t-12.5 -27l2 -22q-11 -23 -28 -43l-4 -19q-4 -14 -14.5 -38t-16.5 -91l-6 -18l-6 -35l10 -37l-4 -39q-2 -2 -2 -6l9 -32q10 -44 23 -65.5t27 -54t57 -75.5l5 -10q7 -22 77 -54l25 -14h18q7 0 25 -19l20 3q16 -13 25 -13q8 0 21.5 4t21.5 4q6 0 19.5 -3 t19.5 -3q12 0 20 2l27 2q65 10 141 35l56 35l43 6q9 3 26 17q4 0 7.5 -7.5t7.5 -7.5q6 0 8 8q17 11 44.5 36.5t36 34.5t44.5 15l66 44q17 10 38 42l45 39l21 23l18 8q23 8 23 21l84 90l14 8q12 4 20.5 18.5t20.5 31.5t18.5 35.5t17.5 37t19 37.5l10 12q9 12 18 45.5t9 36.5 l-5 30q-6 46 -15 70q-2 4 -9 51q-2 2 -25.5 70.5t-68.5 95.5l-10 13q-6 10 -24.5 23t-38.5 32l-82 37q-17 7 -21 10l-10 -2q-10 0 -19 8q-67 16 -77 16zM684 649l8 10l2 5q0 6 6 14l5 12q2 4 9 10.5t9 12.5t12 8q-2 2 -8 24q2 3 7 9t10.5 10t6.5 12t10.5 19.5t11.5 11.5 q3 0 8 3t7 3l13 -12q6 2 6 6t-6 6t-8 8t-4.5 9.5t-2.5 5.5q0 16 14.5 19t16.5 5q-8 6 -8 10l16 26q9 15 19 15h2q2 -2 4 -2q4 0 4 6q0 5 4 13l-4 14q13 20 25 27q4 16 16 22l12 11q8 6 8 10q19 28 39 28q17 0 17 -8l-4 -6v-2l2 -2q2 2 8 20l-8 7q-2 0 -2 4q0 6 32 30l13 13 q4 4 17 11t19.5 13t10.5 8q18 -2 18 -8l4 2q-2 2 -2 8q0 7 6 7q12 14 29 16q8 7 40 19t48 12l10 4q5 4 11 4t16 -10h2q2 0 10 6q2 0 8.5 -6t25 -18.5t18.5 -49.5l-5 -16v-13l5 -20q0 -8 -11 -23l-24 -77q-15 -30 -56 -92t-49 -70l-6 -8l-8 -2h-2l2 -17q-2 -4 -6 -9 t-13.5 -19.5t-33.5 -14.5q-15 0 -31 14.5t-16 28.5q0 41 55 68q8 4 14 9t12 5h5l6 10q-2 2 -2 6q0 7 19.5 26t23.5 20l28 49v10q0 6 15 14l2 4v13q0 14 12 14q2 2 6 25t10 32q-2 15 -2 25q0 22 -22 22q-8 0 -30.5 -12t-33.5 -12l-10 4q-4 0 -8 -12l-10 -4q-15 -11 -25.5 -21 t-26.5 -20q-3 -15 -12.5 -16t-14.5 -12t-9 -11h-11q-2 0 -2 -4q0 -13 -15 -28t-28 -19h-2v-13q0 -12 -14 -14q-6 -15 -21 -25l-6 -6h-8v-2q2 -2 2 -6q0 -3 -6.5 -14t-11.5 -11q-3 -20 -15 -36l-4 -9q-2 -4 -10 -12v-4q0 -5 -11 -19t-24 -16l6 -16q-24 -44 -26 -45 q-4 -8 -8.5 -12.5t-4.5 -8.5v-10q-4 -6 -13.5 -34t-22.5 -40h-2l-9 -35q-12 -7 -14 -25t-18 -30q8 -4 8 -12q0 -14 -7.5 -22.5t-9.5 -16.5t-10 -25q8 -7 8 -12l-6 -47l4 -12q-4 -4 -8 -4q0 -11 7 -16t13 -21.5t21 -16.5q8 0 13.5 2t18.5 3t21.5 6.5t23.5 7.5t22.5 16 t31.5 14h4q2 7 8.5 12t12.5 12t16 12t20.5 15.5t16.5 10.5h4q8 0 13.5 9t30.5 30t30.5 35t15.5 14q2 0 8 -2h2q2 0 3.5 6t15.5 15.5t15.5 15.5t21.5 16l22 25l13 -2q4 2 6 11t6 13l12 4q6 23 17 23h6q6 0 6 12q0 4 20.5 16.5t28.5 12.5q18 0 18 -29q0 -10 -16 -18 q2 -13 -15.5 -27t-17.5 -19q0 -10 -8 -14l-4 -4h-6q-6 -10 -23 -30q-9 -3 -14.5 -15t-18 -19t-14.5 -18.5t-18 -11.5q-1 -2 -25 -27l-8 -12v-2l-10 2q-4 -2 -8.5 -9t-10.5 -7q-14 0 -18 -12.5t-8 -15.5t-13 -13q0 -2 -4 -2q-6 0 -8 12q-8 -4 -12 -10l4 -10q0 3 -2.5 0.5 t-11.5 -16t-33 -19.5q-1 -1 -4.5 -10t-22.5 -11q-14 -20 -22 -20l-31 -10h-12q-7 -9 -11 -9t-16 -8q0 -2 -6 -2q-10 0 -10 6q0 2 2 4v2q0 2 -2 5q-2 0 -3 -15.5t-14 -15.5l-16 6h-2l-12 -6q-3 -2 -7 -2q-18 0 -51 16h-6q-6 0 -18 8l-13 9q-2 9 -4 12q-15 1 -17.5 13.5 t-15.5 21.5q-2 8 -16 36.5t-14 81.5l-2 5v4l4 18l-2 10l30 97q22 67 25 71z" />
<glyph unicode="&#xaa;" horiz-adv-x="535" d="M672 756l28 26l13 4q4 5 13 20t28 15q18 0 18 -20q0 -19 -7 -32t-9 -25.5t-9.5 -15.5t-7.5 -5l-39 -39q-2 -2 -13 -5t-11 -9l-23 -17q-32 -16 -47 -22h-6q-49 0 -51 28q-10 9 -10 25q0 2 2 10q-6 11 -6 17v4l-3 8l5 29q-13 -11 -17 -11q-4 -16 -10 -18t-9 -7t-18.5 -11.5 t-24.5 -17.5t-18 -15l-4 -6q-12 -11 -24 -19q-4 0 -14.5 -10t-22.5 -16l-33 -21q-24 -13 -52 -13q-53 0 -63 33t-10 46q0 6 2 10v4l-2 20q9 12 12 29l11 14q14 21 18 29t14 18t17 23q20 12 38.5 32.5t47.5 31.5l14 12l25 14q22 8 31.5 15.5t17.5 7.5h6q2 0 29 14h6 q6 0 12 -6q12 6 16 6q13 0 27 -16.5t15 -30.5t6 -14q2 0 14 21.5t51 21.5q33 0 33 -37t-37 -78l-12 -39l-6 -8v-12l-2 -23q0 -8 6 -8q14 0 45 39zM399 799l-41 -31q-2 -8 -9 -14t-10 -13.5t-19.5 -17.5t-16.5 -47q0 -12 8 -12q2 0 6 2l9 2q14 6 22 12l10 2q17 12 19 14l12 2 q15 20 45 35l19 10q10 5 20 23q15 12 23 14v4q0 8 8 11.5t15 11.5t28 27q-4 2 -6 2l-19 -2l-28 6q-21 0 -39.5 -11.5t-24.5 -13.5t-15 -8t-16 -8z" />
<glyph unicode="&#xab;" horiz-adv-x="666" d="M270 360l-10 -12q-4 -5 -4 -8q0 -2 31 -38l32 -38q25 -24 25 -57q0 -25 -25 -25q-22 0 -63 41l-84 82q-13 12 -19 24.5t-6 24.5q0 43 50 68l6 6q11 20 49 37l16 18q4 4 15 4l30 7q9 24 25 24q27 0 27 -49q0 -29 -40.5 -52.5t-47.5 -40.5zM408 252l-15 14l-35 21 q-22 34 -22 63q0 25 35 47l12 13q9 11 16 16l27 16q7 5 16 19l41 12q16 25 25 25q24 0 24 -45q0 -27 -63 -72q-4 -3 -33 -53q0 -2 10.5 -12t43 -48t32.5 -63q0 -23 -20 -23q-25 0 -94 70z" />
<glyph unicode="&#xac;" d="M844 123v467h-694v80h876v-547h-182z" />
<glyph unicode="&#xad;" horiz-adv-x="498" d="M170 397h12q21 0 31 4q6 -4 16 -4q2 0 9 2h28q10 0 35 9h2q10 -7 16 -7h5l18 5q37 0 90 -19l19 6q8 0 22 -8l8 -2q2 -23 2 -33q0 -26 -14 -35.5t-34.5 -27t-37.5 -17.5l-22 6h-6l-23 -4q-4 -2 -12 -2q-17 0 -31.5 10.5t-17.5 10.5l-58 -8l-20 6q-2 2 -8 2t-23.5 -5 t-28.5 -5q-8 0 -20 5t-18 5q-9 0 -24 -4t-26 -4q-10 0 -26 16l-4 2h-21q-22 0 -22 41q0 6 12 22.5t24.5 17.5t26.5 7t43 6l29 -6h4z" />
<glyph unicode="&#xae;" horiz-adv-x="1640" d="M1159 1343l25 7q10 4 20 4q17 0 33 -6.5t37 -12.5h26q5 0 33 -10h25q16 0 33 -8l39 -18q22 -10 53 -27l53 -29q20 -12 45 -43l35 -22q4 -2 15 -25t36 -55l6 -19l25 -53l18 -61q15 -34 15 -47l-2 -33l6 -35q0 -4 -6.5 -29.5t-6.5 -42.5l-4 -14q-6 -23 -8.5 -39.5 t-13.5 -36.5l-8 -22l-7 -9q-14 -20 -24 -44t-38 -73.5t-58 -82t-43 -39t-13 -15.5q-14 -18 -29.5 -30.5t-23.5 -30.5q-15 -17 -106 -72l-41 -34q-25 -17 -78 -46l-6 -14q-14 -8 -23 -12l-8 -8q-31 -13 -51.5 -18t-32.5 -15l-62 -33q-19 -10 -36 -10q-9 0 -16 4t-11 4 q-6 0 -25 -16l-15 -10q-7 -5 -13 -5l-31 -6l-18 4q-9 -3 -15 -10q-2 0 -22.5 -7.5t-65.5 -16.5l-39 -9q-38 0 -66 9.5t-50 15.5q-22 -8 -27 -8q-49 0 -76 24q-2 2 -6 4l-29 -2q-29 0 -42 14.5t-25.5 18.5t-23.5 17.5t-40 25.5q-10 12 -30 43l-25 21q-10 12 -23 45l-6 10 q-16 23 -28 72l-7 10q-11 14 -16 35v6l-4 22q0 4 2 9.5t2 9.5l-10 32l4 23l-7 30q-7 31 -7 48q0 8 9 26.5t9 28.5v8l-2 6l13 44q5 18 14.5 37.5t11.5 35.5l16 25l-2 33q0 7 24 41.5t44 46.5q21 63 55 92l10 22q9 17 26.5 27.5t48.5 41.5l20 19q18 9 47 30l46 34 q16 12 35.5 22.5t66.5 41t95 46.5l29 17l45 12q18 27 57 31t80 14h29l55 14l64 5zM1108 227l18 15l15 18q10 10 43 12q30 20 58 40.5t46 47.5l45 39l21 23l18 8q23 8 23 21q83 83 84 90q28 14 38.5 31.5t20.5 32.5t14 31.5t18.5 33t18.5 39.5l10 12q9 12 18 45.5t9 36.5 q0 23 -32 152.5t-91 164.5l-10 13q-6 10 -24.5 23t-38.5 32l-82 37q-18 8 -21 10l-10 -2q-10 0 -19 8q-67 16 -77 16l-33 5q-2 0 -12 -2l-9 4q-96 -21 -120.5 -22t-49 -8t-51 -10t-46 -18.5t-48.5 -21.5l-18 -10q-3 -3 -29.5 -12t-53 -28.5t-38.5 -23.5q-4 -2 -17.5 -17.5 t-34 -26.5t-42.5 -33t-52 -29l-8 -7q-5 -19 -28 -39.5t-51.5 -62t-43.5 -53t-33 -60.5l-4 -4l2 -22q-11 -23 -28 -43l-4 -19q-4 -16 -14.5 -36.5t-12.5 -57.5l-4 -35l-6 -18l-4 -27q-2 -4 -2 -8l10 -37l-4 -39q-2 -4 -2 -6l9 -33q9 -41 16.5 -57t29 -56.5t61.5 -80.5l5 -10 q7 -22 77 -54l25 -14h18q7 0 25 -19l20 3q16 -13 25 -13q8 0 21.5 4t19.5 4l29 -4q6 -2 12 -2q12 0 20 2l27 2q8 0 33 7l71 16q28 6 82 41q11 4 54 10l6 4q-23 24 -41 35l-56 54q-8 10 -16 19t-16 25q-35 18 -35 39l-6 4h-6l-9 2q-4 7 -12 11l-2 2l2 10q0 2 -14 5 t-19.5 14.5t-10.5 15.5t-13 14l-19 19q-12 8 -12 13t-12 11q-4 -8 -10.5 -13t-8.5 -11l-4 -5q-6 -12 -12 -26l-6 -6q-5 -23 -21 -57.5t-17.5 -43.5t-4 -44.5t-17.5 -35.5h-16q-39 0 -51 29l-14 29q-9 12 -9 20q0 27 62 146q16 16 20 35.5t15.5 33t11.5 19.5q0 10 -13.5 18 t-15.5 17l-2 6q-37 24 -37 49q0 10 35 33.5t47.5 25.5t21.5 7.5t21 9.5l19 10h10q12 0 14 16q7 6 13 27l20 33l8 20t10 14q9 27 11 31l4 14q7 19 10 19q2 0 10 4l-6 18l4 9q-8 10 -8 28q0 27 37 27q1 0 24 -10t33 -35l11 -23q0 -28 -8.5 -40.5t-18.5 -37t-17 -36.5 q-2 -2 -2 -7q0 -6 -2 -8q-1 -11 -6 -16q14 2 19 4q8 16 47 16q2 0 45 15h12q19 12 43 12q17 0 33 4l6 -6h2q6 0 7 10t22 10q4 0 6 -4t4 -4l2 8l23 7q8 -2 10 -2v4q0 6 24.5 10t34.5 12t61.5 22.5t61.5 59.5l-10 14q0 3 -15.5 10.5t-21.5 16.5l-10 -2q-15 8 -26 9t-23 14 q-2 -2 -9 -5q-20 12 -34 17h-11l-4 2q-2 6 -8 6q-2 -2 -6 -2t-12 -4h-9l-10 6h-28q-11 0 -15 4h-10q-2 -2 -4 -2l-45 7q-23 0 -51 -5q-7 6 -12 8t-9 4l-29 -8l-27 2q-5 0 -14 2l-4 -4l-8 2q-8 0 -39 -6h-2l-8 2l-14 -6l-15 2l-18 -2q-12 0 -25 -10h-4q-4 0 -7 2t-8 2l-13 2 q-4 0 -13 -14l-2 -2l-10 4l-6 -2q-2 10 -2 16q0 16 29 35q8 -4 12 -4q6 0 12 6q0 2 2 4l14 -2h3q16 0 36 10l13 -4l14 8h14l11 4q90 15 137 19h10l6 2q4 0 10.5 -3t10.5 -3l37 6h4l32 -4l17 4q12 0 24 -10l33 8h8q2 0 9.5 -2t13.5 -2q16 0 28.5 -3t24.5 -3q2 0 4 -3 q10 0 19 -6h4l12 -6q6 2 10 4h2q2 0 15 -8l20 -10q2 0 4 2q10 0 23 -12q0 -4 10 -15q14 -4 20 -24v-4l2 -4q11 -7 19 -17l2 -2l-2 -14q2 0 10 -27l-2 -8l2 -10l-4 -22q0 -5 -4 -13l2 -12q0 -15 -14.5 -24t-19.5 -18.5t-12 -10.5t-16.5 -8t-21.5 -13l-16 2q-23 -23 -62 -23 l-8 2v-2q0 -11 -33 -18h-10l-129 -33q-4 -1 -14 4q-6 -2 -11.5 -5t-7.5 -3l-10 8q-22 -16 -37 -16l-10 2l-25 -10l-12 6l-4 -4q-8 0 -19.5 -7.5t-17.5 -7.5l-16 9q-14 -15 -25 -21l-18 4q-26 -11 -43 -53l-6 -6q-3 -2 -4 -10.5t-11 -18.5l-4 -8v-10q-8 -8 -13 -13.5 t-14 -21.5l-4 -6q-6 -8 -6 -15q0 -10 9.5 -15t35.5 -28l47 -41l11 -6h2l-2 -12q2 -4 8 -4q4 6 8 6q5 -5 14 -10q31 -31 31 -33v-6h2q4 4 6 4q19 0 40.5 -22.5t33.5 -33t19.5 -20.5t22.5 -17t22.5 -14.5t19.5 -13.5zM645 604l8 -6q3 -2 4 -2q11 0 16 16.5t8 21.5t7 19l-6 -2 l-10 2q-8 -10 -25 -10q-4 0 -15 -7t-11 -11q3 -5 24 -21z" />
<glyph unicode="&#xaf;" d="M49 1545h926v-82h-926v82z" />
<glyph unicode="&#xb0;" horiz-adv-x="645" d="M584 1317l12 -2l42 8l30 2q6 0 23.5 -9t34.5 -16t35.5 -44.5t18.5 -53.5l4 -35q-14 -32 -17 -52q-9 -56 -69.5 -114.5t-138.5 -58.5q-8 0 -25.5 10.5t-41 16.5t-47 26.5t-23.5 34.5l2 31l-4 29q0 8 9 55t18.5 57t24.5 38t22.5 31t10.5 8t16.5 11t29 18t33.5 9zM680 1192 v4q0 3 -8 24t-33 21q-47 0 -61 -41q-5 -10 -16 -21.5t-20.5 -35t-17.5 -34.5t-8 -24q0 -6 15.5 -28.5t27.5 -22.5l33 13q13 6 31 22.5t28.5 38.5t15.5 29.5t5 25.5z" />
<glyph unicode="&#xb1;" d="M1038 889h21q10 0 15 -10.5t12.5 -18.5t7.5 -10q0 -92 -107 -92l-33 8l-43 -8l-104 10l-37 -8q-16 -3 -19 -15t-11.5 -19t-8.5 -11q0 -3 -14 -35v-14q0 -29 -7.5 -43.5t-11.5 -39.5t-19 -39t-21.5 -28t-16.5 -14l-14 2l-21 -4q-3 0 -26 25t-23 57q0 27 6.5 44t16.5 52 t24 59.5t14 26.5q0 6 -6 6q-4 0 -17 -6t-24 -6q-57 0 -112 9q-19 3 -29 3h-8l-31 -4q-27 0 -39 23t-12 45q0 29 35 40t47 11q2 0 8 -4t14 -4l15 2l24 -7l84 2l33 -2q4 0 16.5 4.5t26.5 5.5t16 6t12.5 26.5t23 34t12.5 22.5q0 45 49 108q9 10 20.5 45t36.5 35q12 0 44 -13.5 t32 -38.5q0 -15 -2 -17q-5 -51 -23 -66q-2 -2 -4 -10t-9.5 -17t-24.5 -50t-17 -42q0 -26 18 -26q11 0 41.5 11t65.5 11l41 -4l31 6q31 -14 32 -14zM307 440l15 2l24 -8l82 4l33 -2q6 0 14 5t10 5l43 -4l19 4l22 -2l29 2q36 0 45 3h6l56 -7l18 7q43 14 76 14l41 -4l30 8 l31 -14h23q10 0 13 -7.5t10 -18.5t7 -13q0 -92 -116 -92l-29 6l-45 -9q-9 -1 -38 3l-62 10l-43 -10q-9 0 -33 14h-4q-4 0 -22.5 -9.5t-33.5 -9.5q-18 0 -37.5 8.5t-23.5 8.5q-22 -12 -39 -12l-41 4l-61 -2l-43 8h-9l-31 -2q-44 0 -44 65q0 10 6.5 24t48.5 22l31 8z" />
<glyph unicode="&#xb2;" horiz-adv-x="659" d="M520 666l-90 -15q-3 0 -10 6q-12 -14 -25 -14q-30 0 -45 14h-2l-12 2q-12 11 -17 31l-6 12q-8 11 -8 29q0 65 37 86q5 16 46.5 56.5t53.5 46.5q0 6 28 26l60 44q11 5 41.5 27.5t42.5 24.5q11 17 24 18t27.5 9t30 14.5t36 18t42.5 21t66.5 35.5t44.5 32t-12.5 9t-22.5 9 l-4 2h-31l-10 2q-10 2 -21 2q-6 0 -11 -3t-7 -3l-29 6q-8 -4 -31.5 -11t-25.5 -7q-4 0 -33 -15.5t-35 -15.5q-8 0 -16 2q-10 -10 -18 -10q-31 0 -31 53q0 21 19.5 41.5t39 22.5t31.5 5t35 3l12 4q10 2 27 2l51 6l43 -4q72 -5 90 -25.5t36.5 -45.5t18.5 -50q0 -16 -16 -34v-2 q0 -13 -24.5 -36.5t-43.5 -23.5l-14 2q-49 -37 -72 -47q-8 -4 -13 -8t-15 -4q-16 -25 -27 -25l-20 2q-12 -12 -26.5 -22t-23 -18.5t-18.5 -9.5t-21 -10.5t-24 -12.5q-9 -13 -20 -19t-68 -55h-4q-8 -8 -27 -23.5t-24 -29.5l-13 -15q-14 -16 -14 -20q0 -13 6 -13l33 5 q2 0 14 4t21 4l16 -2l49 10q2 2 19 2q6 0 16.5 6t17.5 6l15 -2q2 0 2 2q12 6 35 6q10 0 17 2.5t24 2.5q22 0 32 -3h11q6 0 20 3h12q35 0 47 -13q2 0 5.5 -7t12.5 -23.5t9 -24.5q0 -4 -2 -12v-4q0 -41 -39 -41q-22 0 -22 20l-5 -4l-14 4l-20 -2q-4 0 -10.5 5t-10.5 5l-8 -4 q-2 -2 -6 -2q-2 0 -7 2t-7 2l-41 -10l-68 -10l-18 2q-14 0 -23 -6l-12 -6z" />
<glyph unicode="&#xb3;" horiz-adv-x="659" d="M678 1001l-8 5q-8 -7 -15 -7l-24 2l-84 -10q-11 0 -43.5 19t-32.5 55q0 33 25 33q2 0 6 -2h4q11 8 48.5 16t41.5 8q2 0 14 6l39 15q10 0 19.5 12t23.5 12h8l9 2q8 2 12 2l27 11q32 11 32 14q0 6 -10 6q-18 0 -24.5 -5t-8.5 -5q-4 0 -6 2t-4 2t-8 -4t-10 -4t-9 6l-12 -4 q-18 6 -20 6l-15 -8q-2 -2 -10 -2q-10 0 -39 8q-29 -13 -43 -13l-29 3l-7 -2q-1 0 -27 -9h-6q-15 0 -38.5 24t-23.5 38q0 37 31 37l35 -4h47q14 0 18 -6q16 -3 21 -5l18 13q4 0 10 -8l15 2l6 -2l84 4l20 -2h8q33 0 43 4q7 -4 13 -4h6l10 2q2 0 10 -4l13 2l8 -2 q21 0 42 -22.5t21 -49.5q0 -25 -30.5 -43.5t-47.5 -22.5l-24 -16l-31 -10h-12q-25 0 -25 -15q0 -6 24.5 -12t33 -16.5t17.5 -14.5t16.5 -14t18.5 -17.5t11 -56.5q0 -4 -6 -16q10 -12 10 -16q0 -31 -22 -54l-6 -16q-10 -10 -17 -14q-2 -16 -28 -31l-13 -19q-4 -8 -20 -10h-4 q-11 -22 -25 -22h-6l-10 -4h-11q-6 -4 -10 -11q0 -2 -17.5 -9t-29.5 -18.5t-27 -11.5q-2 0 -8.5 4.5t-7.5 4.5q-2 0 -15.5 -13.5t-21.5 -13.5l-14 2l-27 -8q-6 0 -13 -6t-17 -6l-17 8q-4 -2 -17.5 -15.5t-41.5 -13.5l-15 2l-24 -4q-4 0 -12 4q-9 -8 -11 -8q-42 0 -59 43 q0 2 -11.5 19.5t-11.5 35.5q0 27 29 27q2 0 10 -4q13 8 15 8l34 2q3 0 13 -6q4 0 55 8q16 12 23 12q22 0 77 12t72 21.5t63.5 28.5t67.5 32l12 7q7 10 15 12l2 6q47 31 47 38l-4 17l4 17q-10 8 -20.5 21t-20.5 13l-18 -6q-2 0 -9.5 4.5t-17.5 4.5q-8 0 -45 -7z" />
<glyph unicode="&#xb4;" d="M762 848l-23 -33q-12 -4 -38 -21t-31 -26l-13 -6q-8 -4 -20 -16.5t-25 -12.5l-22 6l-10 -4l-13 8q-16 -8 -18 -8q-19 0 -19 25q0 15 37 37q5 18 35 39l10 10q9 14 20 21t15 19.5t17 33.5t16 38q5 5 13.5 20t31.5 15q8 0 12 -5t8 -5l39 4q50 0 50 -41q0 -6 -19.5 -33.5 t-30.5 -48.5z" />
<glyph unicode="&#xb5;" horiz-adv-x="979" d="M111 168q-3 -3 -17 -44l-14 -36q0 -27 26 -57q2 -15 8.5 -35.5t6.5 -34.5q0 -82 -37 -82q-42 0 -59.5 12.5t-28.5 49.5l-4 6q-10 14 -10 63q0 47 26 101q4 4 8 19t11 22l28 55q12 23 33 39q-6 16 -6 24q0 21 9 38.5t10 24.5t7.5 17t11.5 24.5t11 16.5t7 8.5t14 20.5l2 8 v6q0 50 42.5 115t88.5 65q14 0 41.5 -24.5t27.5 -35.5l-2 -19l6 -33q0 -23 -22 -27l-4 -4v-20l-17 -37q-7 -15 -18 -19q-8 -16 -12 -22l-15 -2q-6 -6 -6 -9l2 -22q-3 0 -8.5 -17.5t-21 -35.5t-15.5 -51q0 -19 8 -19q13 0 31.5 17.5t33.5 22t43 35t30 30.5q10 0 18 4 q5 11 6 16q10 6 17 8l73 66l19 6q6 32 37 45q6 12 21 25.5t18.5 20.5t17.5 16.5t43.5 36.5t42 33.5t41.5 6.5q27 0 44 -21.5t37.5 -32.5t20.5 -44q0 -27 -43 -109q-6 -18 -18 -65l-10 -25v-18q0 -16 -9.5 -19.5t-9.5 -7.5v-4q0 -24 8 -24q7 0 17 10t41 22l8 -2q2 0 8 11.5 t27.5 32t25.5 28.5t25 8q4 -9 4 -12l-4 -25l6 -39q0 -17 -16 -28q-9 -7 -19 -19l-16 2q-2 -2 -4 -8t-18.5 -15t-35 -29.5t-38.5 -20.5q-3 0 -22 -25t-48 -25q-2 0 -10 8.5t-25.5 23t-41 47.5t-23.5 34l6 51q0 17 6 25l10 20l-2 39q2 2 6 8.5t15 20.5q-5 20 -5 24l5 31 q-19 -8 -32 -32.5t-36 -24.5q-19 -35 -29 -33q-1 -5 -18 -16l-16 2q-5 -7 -7 -25q-12 -6 -36 -31l-15 -10l-16 -16h-17q-3 -22 -28 -45l-8 -8q0 -2 -3 -2l-18 2q-4 -25 -25 -39q-18 0 -36 -25q-45 -37 -54 -37q-42 0 -60 10t-58 64z" />
<glyph unicode="&#xb6;" horiz-adv-x="1016" d="M848 897l-2 -10l-35 -62q-3 -5 -14 -37l-15 -61l-138 -345q-16 -40 -55 -154l-64 -184q-24 -70 -44 -157l-28 -118l-19 -13h-10q-29 0 -50.5 23.5t-21.5 56.5l41 195q51 228 65.5 262.5t18.5 56.5l21 62q10 12 20 41.5t19 46.5l26 57l64 123v16q0 4 20 27l6 22l17 35 l10 29l-4 6q-8 -6 -12 -6l-60 4q-2 0 -25.5 -11t-156.5 -11l-54 20l-21 2q-10 2 -21 7q-12 5 -22 10q-9 6 -16 14t-12 18q-5 9 -7 21q-3 12 -3 26q0 45 22.5 109.5t39 78t25.5 23.5t19.5 18.5t15.5 15.5t20 17l14 15q8 8 22 8q6 6 13 18l12 9q16 8 25.5 20t17.5 12 q10 0 33 23q27 14 43 26t46 17.5t44 12.5t59 14l11 4q10 4 16 4h4l27 -6q42 22 55 22l94 -6q12 0 32.5 5t27.5 5q8 0 18 -10q18 -18 55 -18q43 -7 70 -95v-24q0 -13 8 -13q6 0 14.5 11.5t18.5 23.5q12 4 23.5 13.5t37.5 9.5q41 0 54 -35v-12l4 -45q0 -9 -11.5 -24t-25 -42 t-37.5 -47l-16 -27l-17 -4q-2 -41 -26 -51q-5 -33 -14.5 -38.5t-20.5 -9t-13 -15.5q-2 -31 -41 -97q-18 -32 -28 -98l-21 -33q-4 0 -37 -82l-57 -170l-78 -217l-18 -69q-82 -125 -121 -387l-16 -13h-13q-28 0 -48.5 24.5t-20.5 57.5l12 45l-2 27l88 366l32 99q12 40 31 76 l48 106q12 28 26.5 51t20.5 43l16 29v16q0 4 21 27l6 22l26 64q13 63 43 82q11 31 17 35q2 9 24 39l2 6v14l11 23q16 36 16 53q0 14 -14 26q-17 72 -43 72q-31 0 -58 -59l-24 -99l-6 -16l-17 4q-4 -4 -10 -28l-8 -19q-7 -4 -23 -10v-19zM422 895l20 12l64 -33l22 17 q34 7 88 16l11 13l16 -2q2 0 18.5 6t63.5 18t52 41t7 31l4 12q5 10 25 41l10 2q8 16 11.5 50t11.5 46q0 21 -6.5 27t-38.5 8l-13 -6l-10 2l-10 -2l-10 2l-39 -4l-37 -12l-27 2q-12 0 -28 -23q-13 0 -39 -12q-11 -15 -22 -18t-29 -21l-23 -12h-8q-8 0 -55 -47l-19 -17l-10 -4 q-8 0 -8 -14q0 -15 -6 -19l-13 -18q-8 -19 -19 -40.5t-11 -29.5q0 -18 16 -18h4l29 8q2 0 8 -2z" />
<glyph unicode="&#xb7;" horiz-adv-x="502" d="M289 377l18 -15q15 -8 15 -34q0 -6 -6.5 -15.5t-8.5 -15.5q-35 -70 -82 -70q-15 0 -46.5 27.5t-40.5 49.5t-14 28t-5 10q0 10 8 23.5t12 33t21.5 28.5t26 18.5t20.5 9.5q8 0 16 -7.5t23.5 -15.5t29.5 -32z" />
<glyph unicode="&#xb8;" d="M68 -117l53 -2q2 2 6 2q28 0 55 43l4 4q9 9 9 19q0 4 -17 20q-5 17 -5 28q0 10 16.5 27.5t41 36t42.5 31.5t31.5 24t47.5 11l6 2h4l25 -2l27 4h14l41 4q20 -12 20 -14q0 -10 -33.5 -24.5t-51 -37t-44.5 -34.5q-5 -12 -15.5 -16.5t-13.5 -9.5t-12.5 -12t-9.5 -14 q0 -2 4 -7t17 -23v-6q0 -5 -9.5 -25.5t-21.5 -30.5t-18.5 -19t-13.5 -14.5t-15 -16.5t-50 -32.5t-52 -21.5h-9l-16 2l-10 -4q-2 -2 -21 -2q-6 0 -16 6l-27 6q-43 4 -43 31q0 16 24 42t36 25z" />
<glyph unicode="&#xb9;" horiz-adv-x="659" d="M756 1290q14 21 27.5 24t29.5 11l12 2q15 0 35.5 -19.5t20.5 -31.5q0 -19 -22.5 -40t-41 -56t-27 -43.5t-9.5 -12.5q-11 -45 -38 -61q-12 -12 -16 -27.5t-14 -36.5l-8 -24q-3 -8 -13.5 -23t-19.5 -51l-8 -10l-13 -55q-2 -7 -8.5 -22t-10 -30.5t-14.5 -25.5 q0 -15 -7 -43.5t-7 -52.5l4 -15q-1 0 -6 -12q4 -4 4 -6q0 -19 -24 -19q-29 0 -52.5 38t-23.5 85q0 45 14 64l29 77q8 24 20.5 48t28.5 65l10 17q6 12 12.5 26t15 27.5t25.5 48.5t25 43l8 14q4 8 8 12l8 11q5 6 4 6q-1 -1 -2 -1q-1 -1 -2 -1h-3h-2q-33 0 -33 35 q0 18 22.5 28.5t31.5 20.5t30 16z" />
<glyph unicode="&#xba;" horiz-adv-x="453" d="M202 764l-4 16q-1 3 13.5 23t25.5 20q14 23 40 35q14 20 31 23l25 14q49 37 121 47l6 4q16 8 26 8q7 0 17 -6q7 0 41.5 -13t34.5 -36q0 -8 -11 -18q39 -9 39 -99q0 -4 -8 -14l2 -10q-4 -8 -5 -18t-15 -19q-5 -19 -12 -26t-9 -15t-14.5 -16.5t-36.5 -30.5q-2 2 -4 2 q-10 0 -17.5 -11.5t-11.5 -13.5l-12 2q-3 0 -45 -24l-8 2q-4 0 -7.5 -5t-7.5 -5l-12 2l-12 -2l-4 2q-11 -7 -15 -7q-6 0 -10 5l-10 6h-6q-22 20 -37 30.5t-27 32t-12 27.5l2 18l-2 13l14 63q0 2 4 10q-12 -4 -15 -11t-9 -7h-4q-9 -21 -25 -21t-16 11zM433 834l-8 -7 q-12 -9 -18 -10q-3 -14 -21.5 -31t-24 -39t-12 -26t-6.5 -10l4 -4l2 -9l-2 -18q-2 -4 -2 -10l7 -19q4 -9 16.5 -12.5t15.5 -3.5t22.5 8.5t25 15.5t10.5 9t9.5 8t14.5 13t12 16l6 10q33 24 33 69q0 11 -12 18t-12 32q0 4 7 12t9 16q-37 -18 -47 -18q-2 0 -8 6q-2 -3 -21 -16z " />
<glyph unicode="&#xbb;" horiz-adv-x="666" d="M362 526l23 -18q24 -19 48.5 -41t68 -34.5t43.5 -57.5q0 -10 -29 -40t-37 -42.5t-21.5 -18.5t-21.5 -20t-14 -23l-10 -22q-17 -35 -31 -35q-51 0 -51 64q0 43 19.5 55t28.5 29.5t32.5 31t23.5 31.5q0 6 -13 18.5t-38 49.5q-6 4 -32.5 10t-26.5 57q0 23 18 23q4 0 20 -17z M279 281l-17 -7q-14 -20 -22 -30l-11 -17q-16 -39 -32 -39q-45 0 -45 62q0 39 21.5 52.5t31 30.5t31.5 23t22 29q0 5 -11 16t-32 45q-6 7 -30.5 15t-24.5 39q0 37 18 37q6 0 16.5 -13.5t30.5 -27.5l13 -13q38 -39 66 -50t42 -29.5t14 -30.5q0 -15 -21.5 -33t-36 -37 t-23.5 -22z" />
<glyph unicode="&#xbc;" horiz-adv-x="1690" d="M827 524l9 4q18 9 28 52q13 16 25 24q6 19 18.5 31t40.5 45q13 32 36 47q3 2 9 10l13 8q4 3 4 7q0 2 -2 6v10q4 6 16 13t19.5 23.5t22.5 30t24.5 31t15.5 17.5q2 0 8 -2q8 16 21 28q0 21 35.5 56.5t50.5 46.5q6 4 12 10q2 24 28 44.5t35.5 34.5t36.5 36l8 12q19 14 33 25 l56 69q27 35 46 48.5t40 29.5t32 16q27 0 27 -47q0 -45 -37 -96q-6 -6 -16.5 -27.5t-26.5 -25.5q-39 -15 -113 -88q-4 -9 -59 -58l-27 -37q-6 -16 -22 -22l-26 -18q-12 -8 -30.5 -32.5t-26 -32.5t-12.5 -14.5t-9.5 -16t-30 -23t-29.5 -37.5l-16 -37h-15l-2 -2q-4 -23 -8 -29 l-10 -6q-1 -2 -4.5 -17.5t-16 -16.5t-20.5 -19.5t-22.5 -32.5t-23.5 -28.5t-30 -34.5l-8 -15q-6 -11 -21 -14q-4 -56 -39 -84l-45 -70l-8 -20l-12 -14q-16 -28 -23 -51l-12 -42l4 -20l-2 -29l10 -63q2 -2 2 -6q0 -97 -38 -97q-41 0 -58.5 13t-27.5 49l-5 6q-10 14 -10 63 q0 11 4 25t4 28q0 13 13.5 36.5t15.5 36t16 38.5l27 47q6 11 12.5 25t16.5 29q26 26 49 71l16 27zM756 1290q14 21 27.5 24t29.5 11l12 2q15 0 35.5 -19.5t20.5 -31.5q0 -19 -22.5 -40t-41 -56t-27 -43.5t-9.5 -12.5q-11 -45 -38 -61q-12 -12 -16 -27.5t-14 -36.5l-8 -24 q-3 -8 -13.5 -23t-19.5 -51l-8 -10l-13 -55q-2 -7 -8.5 -22t-10 -30.5t-14.5 -25.5q0 -15 -7 -43.5t-7 -52.5l4 -15q-1 0 -6 -12q4 -4 4 -6q0 -19 -24 -19q-29 0 -52.5 38t-23.5 85q0 45 14 64l29 77q8 24 20.5 48t28.5 65l10 17q6 12 12.5 26t15 27.5t25.5 48.5t25 43l8 14 q4 8 8 12l8 11q5 6 4 6q-1 -1 -2 -1q-1 -1 -2 -1h-3h-2q-33 0 -33 35q0 18 22.5 28.5t31.5 20.5t30 16zM1395 776l16 -6q4 2 6 2q15 0 15 -20q0 -23 -21 -25q-8 -30 -22 -49q-13 -6 -19 -24.5t-24 -24.5q-8 -33 -21 -33h-6q-2 -23 -23 -25q0 -12 -18 -30l-10 -15 q-12 -2 -28.5 -26.5t-23 -30.5t-6.5 -10q7 -4 19 -6t22 -7l15 -2l8 -4q27 -10 67 -14h7l10 -2q11 0 29 29.5t24 35t7 16.5t20 17q1 5 2.5 14t8.5 16t14 23.5t10 18.5v10q0 19 34 45q11 4 11 10v5q-2 2 -2 6q0 10 12 16q-2 4 -4 6q0 17 16 21t16 8q0 2 -3 6t-5 8q25 70 39 70 q51 0 51 -82q0 -12 -12 -27.5t-19.5 -35t-11.5 -21.5t-16.5 -37t-24.5 -39q-6 -33 -28 -35q0 -20 -5.5 -26.5t-9.5 -16.5q-5 -4 -14 -8v-12q0 -2 -5 -12.5t-5 -12.5q0 -8 12 -8q6 0 23.5 10.5t54.5 18.5l43 -21q35 -12 35 -26q0 -23 -50.5 -41.5t-74.5 -30.5q-2 -2 -8 -2 l-13 6l-20 -8l-12 2l-21 -4q-6 0 -10 2l-33 -68v-14q0 -4 -10 -20v-11q0 -9 -19 -18q2 -6 2 -12q0 -7 -6 -13v-6q0 -8 -5 -19.5t-5 -25.5l-6 -22l4 -39q0 -25 -13.5 -40.5t-21.5 -15.5q-6 0 -11 5.5t-16.5 8.5t-23.5 18t-30.5 30.5t-18.5 36.5q0 14 14 32q14 51 35 64 q-3 7 -3 13q0 22 24 48l4 9q13 19 18 20l-2 8q0 14 8 28.5t8 16.5q0 10 -10 10l-6 -2h-12q-29 0 -38 7.5t-28.5 8.5t-23.5 13q-7 -2 -17 -2l-28 -8q-8 6 -31 6q-6 0 -12 -2h-5q-18 0 -41.5 19.5t-23.5 41.5q0 23 18 27q31 25 49 43l7 2q10 30 30 43q2 0 14.5 12.5t28.5 24.5 h7q13 14 20.5 19.5t27.5 29.5t29 23q9 16 23 24t26.5 24.5t28.5 18.5l10 6v23q0 12 13 12z" />
<glyph unicode="&#xbd;" horiz-adv-x="1690" d="M827 524l9 4q18 9 28 52q13 16 25 24q6 19 18.5 31t40.5 45q13 32 36 47q3 2 9 10l13 8q4 3 4 7q0 2 -2 6v10q4 6 16 13t19.5 23.5t22.5 30t24.5 31t15.5 17.5q2 0 8 -2q8 16 21 28q0 21 35.5 56.5t50.5 46.5q6 4 12 10q2 24 28 44.5t35.5 34.5t36.5 36l8 12q19 14 33 25 l56 69q27 35 46 48.5t40 29.5t32 16q27 0 27 -47q0 -45 -37 -96q-6 -6 -16.5 -27.5t-26.5 -25.5q-39 -15 -113 -88q-4 -9 -59 -58l-27 -37q-6 -16 -22 -22l-26 -18q-12 -8 -30.5 -32.5t-26 -32.5t-12.5 -14.5t-9.5 -16t-30 -23t-29.5 -37.5l-16 -37h-15l-2 -2q-4 -23 -8 -29 l-10 -6q-1 -2 -4.5 -17.5t-16 -16.5t-20.5 -19.5t-22.5 -32.5t-23.5 -28.5t-30 -34.5l-8 -15q-6 -11 -21 -14q-4 -56 -39 -84l-45 -70l-8 -20l-12 -14q-16 -28 -23 -51l-12 -42l4 -20l-2 -29l10 -63q2 -2 2 -6q0 -97 -38 -97q-41 0 -58.5 13t-27.5 49l-5 6q-10 14 -10 63 q0 11 4 25t4 28q0 13 13.5 36.5t15.5 36t16 38.5l27 47q6 11 12.5 25t16.5 29q26 26 49 71l16 27zM756 1290q14 21 27.5 24t29.5 11l12 2q15 0 35.5 -19.5t20.5 -31.5q0 -19 -22.5 -40t-41 -56t-27 -43.5t-9.5 -12.5q-11 -45 -38 -61q-12 -12 -16 -27.5t-14 -36.5l-8 -24 q-3 -8 -13.5 -23t-19.5 -51l-8 -10l-13 -55q-2 -7 -8.5 -22t-10 -30.5t-14.5 -25.5q0 -15 -7 -43.5t-7 -52.5l4 -15q-1 0 -6 -12q4 -4 4 -6q0 -19 -24 -19q-29 0 -52.5 38t-23.5 85q0 45 14 64l29 77q8 24 20.5 48t28.5 65l10 17q6 12 12.5 26t15 27.5t25.5 48.5t25 43l8 14 q4 8 8 12l8 11q5 6 4 6q-1 -1 -2 -1q-1 -1 -2 -1h-3h-2q-33 0 -33 35q0 18 22.5 28.5t31.5 20.5t30 16zM1229 113l-17 2l-49 -11q-4 0 -10 7q-8 -13 -25 -13q-30 0 -45 15h-2l-12 2q-12 12 -16 30l-6 11q-9 14 -9 30q0 56 18.5 71t22.5 26q62 74 97 92q0 6 2 6q27 22 84 61 l59 41q15 11 27 15l4 4q16 12 28 10q47 29 72 37l23 12q9 8 32 17.5t67 34t44 32.5q0 6 -12.5 9t-18.5 7.5t-8 4.5l-35 -2l-24 4q-13 0 -16 -2t-5 -2l-29 6l-4 -4q-8 -2 -43 -17l-10 2q-20 -8 -29 -16l-38 -17q-9 0 -17 5q-10 -11 -18 -11q-31 0 -31 54q0 20 20.5 41.5 t38.5 21.5l78 10q62 9 78 9l64 -6q30 -3 51 -13t33 -27.5t26 -34t14 -44.5q0 -17 -16 -35v-2q0 -13 -24.5 -36.5t-43.5 -23.5l-14 2q-64 -45 -100 -59l-27 -23h-18q-41 -29 -49 -40q-5 -5 -18 -8t-24 -12.5t-24 -12.5q-8 -13 -19.5 -19t-68.5 -55h-4q-8 -8 -26.5 -23.5 t-24.5 -29.5l-13 -15q-14 -16 -14 -20q0 -13 7 -13l32 5q8 2 19.5 6t15.5 4l16 -2l53 12l17 -2q2 0 14 6t19 6l14 -2q2 0 2 2q10 7 27.5 8t24.5 3t20 2q24 0 33.5 -2t15.5 -2q4 0 18 2h13q34 0 47 -13q2 0 5 -7t12 -23.5t9 -24.5q0 -4 -2 -12v-4q0 -41 -39 -41q-22 0 -22 20 l-4 -4l-15 4l-20 -2q-13 10 -21 10l-14 -4q-2 0 -7 2t-7 2q-4 0 -23 -8l-86 -14l-18 2q-10 0 -35 -12l-23 6z" />
<glyph unicode="&#xbe;" horiz-adv-x="1690" d="M827 524l9 4q11 6 24.5 36t28.5 40q4 17 20 31.5t36 41.5t28 42l31 26q6 3 6 7q0 2 -2 6v10q4 6 13 12t18.5 22.5t25.5 31t25.5 32t15.5 17.5q2 0 8 -2q10 16 23 28q0 19 30 49l9 13q26 26 32.5 31t26.5 20v14q0 8 18 23l41 39l4 8l11 10q20 15 35.5 31t27.5 25.5 t19 17.5l41 53q34 45 49.5 53.5t36.5 24.5t32 16q27 0 27 -47q0 -40 -24.5 -76t-29.5 -52t-41 -28t-98 -81q-4 -9 -59 -58l-29 -37q-20 -22 -61 -49l-37 -51l-18 -16l-6 -15q-7 -12 -30.5 -24t-35.5 -45t-14 -33h-13l-4 -2q-4 -23 -8 -29l-10 -6q-1 -2 -4.5 -17.5t-13.5 -16 t-16.5 -9t-11 -18.5t-20 -28t-25.5 -32t-24 -28l-10 -15q0 -2 -10 -12l-11 -2q-5 -56 -36 -84l-46 -70l-20 -34q-11 -12 -23 -52t-12 -41l2 -20l-2 -29l12 -63q3 -4 3 -6q0 -97 -39 -97q-76 0 -80 41q-8 21 -15.5 31t-7.5 59q0 13 3 24t4 26.5t13 37.5t22.5 52t27.5 49 l26 57q17 25 44 60.5t38 72.5zM678 1001l-8 5q-8 -7 -15 -7l-24 2l-84 -10q-11 0 -43.5 19t-32.5 55q0 33 25 33q2 0 6 -2h4q11 8 48.5 16t41.5 8q2 0 14 6l39 15q10 0 19.5 12t23.5 12h8l9 2q8 2 12 2l27 11q32 11 32 14q0 6 -10 6q-18 0 -24.5 -5t-8.5 -5q-4 0 -6 2t-4 2 t-8 -4t-10 -4t-9 6l-12 -4q-18 6 -20 6l-15 -8q-2 -2 -10 -2q-10 0 -39 8q-29 -13 -43 -13l-29 3l-7 -2q-1 0 -27 -9h-6q-15 0 -38.5 24t-23.5 38q0 37 31 37l35 -4h47q14 0 18 -6q16 -3 21 -5l18 13q4 0 10 -8l15 2l6 -2l84 4l20 -2h8q33 0 43 4q7 -4 13 -4h6l10 2 q2 0 10 -4l13 2l8 -2q21 0 42 -22.5t21 -49.5q0 -25 -30.5 -43.5t-47.5 -22.5l-24 -16l-31 -10h-12q-25 0 -25 -15q0 -6 24.5 -12t33 -16.5t17.5 -14.5t16.5 -14t18.5 -17.5t11 -56.5q0 -4 -6 -16q10 -12 10 -16q0 -31 -22 -54l-6 -16q-10 -10 -17 -14q-2 -16 -28 -31 l-13 -19q-4 -8 -20 -10h-4q-11 -22 -25 -22h-6l-10 -4h-11q-6 -4 -10 -11q0 -2 -17.5 -9t-29.5 -18.5t-27 -11.5q-2 0 -8.5 4.5t-7.5 4.5q-2 0 -15.5 -13.5t-21.5 -13.5l-14 2l-27 -8q-6 0 -13 -6t-17 -6l-17 8q-4 -2 -17.5 -15.5t-41.5 -13.5l-15 2l-24 -4q-4 0 -12 4 q-9 -8 -11 -8q-42 0 -59 43q0 2 -11.5 19.5t-11.5 35.5q0 27 29 27q2 0 10 -4q13 8 15 8l34 2q3 0 13 -6q4 0 55 8q16 12 23 12q22 0 77 12t72 21.5t63.5 28.5t67.5 32l12 7q7 10 15 12l2 6q47 31 47 38l-4 17l4 17q-10 8 -20.5 21t-20.5 13l-18 -6q-2 0 -9.5 4.5t-17.5 4.5 q-8 0 -45 -7zM1397 776l16 -6q2 2 6 2q15 0 15 -20q0 -23 -23 -25q-10 -43 -37 -61q-9 -35 -26 -37q-2 -1 -6 -17t-17 -16h-6q-2 -23 -21 -25q0 -8 -15 -26t-24.5 -25t-25.5 -30l-21 -31q7 -4 19 -6t22 -7l15 -2l8 -4q27 -10 65 -14h7l12 -2q15 0 30 29.5t20 32.5t7 16.5 t21 19.5l4 6v11q0 6 9 19t14 23.5t8 12.5q8 41 26.5 50t18.5 15v5q-2 2 -2 6q0 10 14 16q-2 4 -4 6q0 17 15 20t15 9q0 2 -3 6t-5 8q25 70 39 70q51 0 51 -82q0 -12 -18 -31l-21 -51l-12 -10q-23 -67 -33 -68q-6 -33 -28 -35q0 -22 -5.5 -27.5t-9.5 -15.5l-12 -8 q-4 -23 -7 -29t-3 -8q0 -8 12 -8q6 0 23.5 10.5t54.5 18.5l49 -24q27 -13 27 -23q0 -23 -50.5 -41.5t-74.5 -30.5q-2 -2 -6 -2t-15 6l-20 -8l-10 2l-23 -4q-6 0 -10 2l-33 -68v-14q-2 -2 -4 -10l-6 -21q0 -10 -17 -18v-12q0 -7 -6 -13q0 -12 -4 -26.5t-4 -22.5l-6 -24l2 -39 q0 -25 -13.5 -40.5t-21.5 -15.5q-6 0 -11 5.5t-16.5 9.5t-22.5 18t-29.5 29.5t-18.5 36.5q0 18 12 32q18 61 37 64q-5 4 -5 14q0 24 24 47l4 9q13 19 18 20l-2 8q0 14 8 28.5t8 16.5q0 10 -8 10q-2 0 -8 -2h-12q-29 0 -37 7.5t-17 9.5q-32 0 -36 12q-7 -2 -15 -3t-30 -7 q-7 6 -31 6q-4 0 -12 -2h-3q-22 0 -43.5 21.5t-21.5 39.5q0 23 18 27q31 25 50 43l6 2q10 30 30 43q2 0 14.5 12.5t28.5 24.5h7q13 14 20.5 19.5t28 29.5t28.5 23q9 16 23 24t26.5 24.5t28.5 18.5l10 6v23q0 12 13 12z" />
</font>
</defs>
</svg>
