<?xml version="1.0" standalone="no"?>
<!DOCTYPE svg PUBLIC "-//W3C//DTD SVG 1.1//EN" "http://www.w3.org/Graphics/SVG/1.1/DTD/svg11.dtd" >
<svg xmlns="http://www.w3.org/2000/svg">
<metadata></metadata>
<defs>
<font id="calibribold" horiz-adv-x="1020" >
<font-face units-per-em="2048" ascent="1536" descent="-512" />
<missing-glyph horiz-adv-x="463" />
<glyph unicode="&#xfb01;" horiz-adv-x="1135" d="M25 858q0 29 2.5 49t7 31.5t12 16.5t17.5 5h111v79q0 91 18.5 159t56.5 113.5t96 68t137 22.5q22 0 44.5 -2t42.5 -6t35 -9t20.5 -10.5t9 -12.5t6 -18t3.5 -28.5t1 -43.5q0 -48 -5.5 -67.5t-21.5 -19.5q-6 0 -13.5 2t-18 5t-24.5 5.5t-35 2.5q-53 0 -77 -36t-24 -119v-85 h506q38 0 57 -16.5t19 -52.5v-857q0 -10 -6 -17.5t-20 -12.5t-38.5 -7.5t-60.5 -2.5q-37 0 -61.5 2.5t-38.5 7.5t-20 12.5t-6 17.5v722h-331v-722q0 -10 -6 -17.5t-20 -12.5t-38.5 -7.5t-61.5 -2.5q-36 0 -60.5 2.5t-39 7.5t-20 12.5t-5.5 17.5v722h-112q-19 0 -28.5 23.5 t-9.5 78.5zM743 1226q0 36 6.5 61t23 41t44.5 23t69 7t68.5 -7t43.5 -23t22.5 -41t6.5 -61q0 -37 -6.5 -62.5t-22.5 -41t-43.5 -22t-68.5 -6.5t-69 6.5t-44.5 22t-23 41t-6.5 62.5z" />
<glyph unicode="&#xfb02;" horiz-adv-x="1135" d="M25 858q0 29 2.5 49t7 31.5t12 16.5t17.5 5h111v77q0 90 20 158.5t63.5 114t110 68t160.5 22.5q27 0 57.5 -2t59.5 -5.5t50 -8t33 -9t19 -10.5t10 -15q1 9 5.5 16t17 13t37 9.5t65.5 3.5q36 0 60.5 -3t38.5 -8.5t20 -13.5t6 -18v-1315q0 -10 -6 -17.5t-20 -12.5 t-38.5 -7.5t-60.5 -2.5q-37 0 -61.5 2.5t-38.5 7.5t-20 12.5t-6 17.5v1158q-3 -6 -8.5 -9t-13.5 -3q-11 0 -29 4t-40 7.5t-43.5 5t-42.5 1.5q-45 0 -75 -9t-47.5 -27.5t-24.5 -48.5t-7 -71v-82h148q10 0 17.5 -5t12.5 -16.5t7.5 -31.5t2.5 -49q0 -55 -10 -78.5t-29 -23.5 h-149v-722q0 -10 -6 -17.5t-20 -12.5t-38.5 -7.5t-61.5 -2.5q-36 0 -60.5 2.5t-39 7.5t-20 12.5t-5.5 17.5v722h-112q-19 0 -28.5 23.5t-9.5 78.5z" />
<glyph unicode="&#xfb03;" horiz-adv-x="1718" d="M25 858q0 29 2.5 49t7 31.5t12 16.5t17.5 5h111v66q0 90 18.5 158t57 113.5t97 68.5t138.5 23q44 0 78.5 -7t53.5 -14t26 -13.5t11.5 -19t6.5 -32t2 -48.5q0 -49 -6.5 -69t-21.5 -20q-7 0 -16 3t-21.5 7t-29 7.5t-36.5 3.5q-57 0 -82 -36.5t-25 -119.5v-71h331v79 q0 91 19 159t57 113.5t96 68t137 22.5q21 0 44.5 -2t43 -6t34.5 -9t20.5 -10.5t9 -12.5t6 -18t3.5 -28.5t1 -43.5q0 -48 -5.5 -67.5t-21.5 -19.5q-6 0 -13.5 2t-18 5t-25 5.5t-34.5 2.5q-54 0 -78 -36t-24 -119v-85h507q38 0 57.5 -16.5t19.5 -52.5v-857q0 -10 -6 -17.5 t-20.5 -12.5t-38.5 -7.5t-61 -2.5t-61 2.5t-38.5 7.5t-20.5 12.5t-6 17.5v722h-332v-722q0 -10 -6 -17.5t-20 -12.5t-38.5 -7.5t-60.5 -2.5q-37 0 -61.5 2.5t-38.5 7.5t-20 12.5t-6 17.5v722h-331v-722q0 -10 -6 -17.5t-20 -12.5t-39 -7.5t-61 -2.5t-60.5 2.5t-39 7.5 t-20 12.5t-5.5 17.5v722h-112q-19 0 -28.5 23.5t-9.5 78.5zM1325 1226q0 36 7 61t23.5 41t44 23t68.5 7q42 0 69.5 -7t44 -23t23 -41t6.5 -61q0 -37 -6.5 -62.5t-23 -41t-44 -22t-69.5 -6.5q-41 0 -68.5 6.5t-44 22t-23.5 41t-7 62.5z" />
<glyph unicode="&#xfb04;" horiz-adv-x="1718" d="M25 858q0 29 2.5 49t7 31.5t12 16.5t17.5 5h111v66q0 90 18.5 158t57 113.5t97 68.5t138.5 23q44 0 79 -7.5t53.5 -14t25.5 -13t11.5 -19t6.5 -32t2 -48.5q0 -49 -6.5 -69t-21.5 -20q-7 0 -16 3l-21 7t-28.5 7.5t-36.5 3.5q-58 0 -83 -36.5t-25 -119.5v-71h331v79 q0 91 20.5 159t64 113.5t110 68t160.5 22.5q27 0 58 -2t59 -5.5t49.5 -8t33.5 -8.5t18.5 -10.5t10.5 -17.5q1 9 5 16t17.5 13t38 9.5t64.5 3.5q37 0 61 -3t38.5 -8.5t20.5 -13.5t6 -18v-1315q0 -10 -6 -17.5t-20.5 -12.5t-38.5 -7.5t-61 -2.5t-61 2.5t-38.5 7.5t-20.5 12.5 t-6 17.5v1161q-4 -6 -9 -9.5t-14 -3.5q-10 0 -28 4t-40 7.5t-43.5 5t-42.5 1.5q-45 0 -75 -8.5t-47.5 -27.5t-25 -48.5t-7.5 -70.5v-85h149q10 0 17 -5t12.5 -16.5t8 -31.5t2.5 -49q0 -55 -10.5 -78.5t-28.5 -23.5h-150v-722q0 -10 -6 -17.5t-20 -12.5t-38.5 -7.5 t-60.5 -2.5q-37 0 -61.5 2.5t-38.5 7.5t-20 12.5t-6 17.5v722h-331v-722q0 -10 -6 -17.5t-20 -12.5t-39 -7.5t-61 -2.5t-60.5 2.5t-39 7.5t-20 12.5t-5.5 17.5v722h-112q-19 0 -28.5 23.5t-9.5 78.5z" />
<glyph horiz-adv-x="0" />
<glyph horiz-adv-x="0" />
<glyph unicode="&#xd;" horiz-adv-x="0" />
<glyph unicode=" "  horiz-adv-x="463" />
<glyph unicode="&#x09;" horiz-adv-x="463" />
<glyph unicode="&#xa0;" horiz-adv-x="463" />
<glyph unicode="!" horiz-adv-x="667" d="M230 131q0 42 6.5 70.5t22.5 46t43.5 25t68.5 7.5t68 -7.5t43.5 -25t23 -46t6.5 -70.5q0 -41 -6.5 -69t-23 -45t-43.5 -24.5t-68 -7.5t-68.5 7.5t-43.5 24.5t-22.5 45t-6.5 69zM235 1332q0 13 6 23t21.5 16.5t42 9.5t66.5 3t66 -3.5t41.5 -10t22 -16t6.5 -22.5l-26 -908 q-1 -10 -6 -18t-17.5 -13.5t-34 -8.5t-52.5 -3q-32 0 -53 3t-33.5 8.5t-17.5 13.5t-6 18z" />
<glyph unicode="&#x22;" horiz-adv-x="898" d="M122 1357q-1 10 5 18t19.5 13.5t35.5 8t54 2.5q65 0 89.5 -10.5t24.5 -31.5l-24 -447q0 -10 -4.5 -18t-14.5 -13t-27.5 -8t-43.5 -3q-27 0 -44 3t-27.5 8t-14.5 13t-5 18zM502 1357q0 10 6 18t19.5 13.5t35.5 8t54 2.5t54 -2.5t35.5 -8t18.5 -13.5t5 -18l-23 -447 q0 -10 -4.5 -18t-15 -13t-27.5 -8t-43 -3q-27 0 -44.5 3t-27.5 8t-14.5 13t-4.5 18z" />
<glyph unicode="#" d="M28 428q0 24 3 41t8 27t12 14.5t16 4.5h116l34 285h-101q-17 0 -27.5 19t-10.5 66q0 48 11 67t28 19h120l36 292q0 9 5 15.5t17 11.5t32 7.5t51 2.5t50 -2.5t29 -7.5t12.5 -11.5t2.5 -14.5l-37 -293h224l34 292q1 8 6 15t16.5 12t31.5 7.5t52 2.5q31 0 50 -2.5t29 -7.5 t12.5 -11.5t1.5 -14.5l-35 -293h96q17 0 27.5 -19.5t10.5 -65.5q0 -24 -3 -40.5t-8 -26.5t-12.5 -14.5t-15.5 -4.5h-114l-34 -285h98q17 0 27.5 -19.5t10.5 -65.5q0 -24 -3 -41t-8 -27t-12.5 -14.5t-15.5 -4.5h-119l-37 -313q-1 -9 -5.5 -15.5t-16 -11.5t-31 -7t-49.5 -2 q-32 0 -51.5 2t-29.5 7t-13.5 11.5t-2.5 15.5l38 313h-224l-37 -313q-1 -8 -5.5 -15t-15.5 -12t-30.5 -7t-51.5 -2q-31 0 -50 2t-29.5 7t-14 11.5t-1.5 15.5l36 313h-95q-17 0 -27.5 19t-10.5 66zM381 515h223l35 285h-224z" />
<glyph unicode="$" horiz-adv-x="1038" d="M82 187q0 34 2 56t7 34t12.5 16.5t17.5 4.5q13 0 38 -15t64 -33t94.5 -33t130.5 -15q117 0 174 43.5t57 115.5q0 48 -24.5 79t-65.5 54.5t-92.5 42t-105.5 39.5t-105.5 49t-92.5 69t-65.5 99.5t-24.5 141.5q0 75 25 136.5t72 107.5t115.5 74.5t155.5 38.5l20 201 q1 8 4.5 13.5t13 10t25.5 6.5t42 2q31 0 51.5 -3t31.5 -8.5t14 -14.5t3 -20l-20 -189q28 -4 59 -11t58 -16.5t49 -20t30.5 -19t13 -17t7 -21t3.5 -30t1 -40.5q0 -31 -1.5 -51t-5.5 -30.5t-9 -14t-12 -3.5q-13 0 -38 13t-61.5 28t-84 28t-104.5 13q-52 0 -89 -10t-60 -28 t-34 -43t-11 -55q0 -47 25 -79t66.5 -55t94 -42t107 -40t107 -48.5t93.5 -68t66 -98t25 -138.5q0 -86 -30.5 -155t-86.5 -119t-135 -80t-175 -38l-21 -214q-1 -8 -4.5 -14t-13 -10t-26 -6.5t-41.5 -2.5q-32 0 -51.5 3t-30.5 8.5t-14.5 14.5t-1.5 20l21 203q-43 6 -81 15.5 t-69 21t-53.5 23.5t-34 23.5t-16.5 34t-5 66.5z" />
<glyph unicode="%" horiz-adv-x="1493" d="M57 968q0 75 17 137.5t53.5 108.5t94 71.5t138.5 25.5q89 0 146.5 -27t90.5 -73t46 -107t13 -128q0 -79 -17.5 -142.5t-54.5 -108.5t-94.5 -70t-137.5 -25q-85 0 -142 25t-91 69.5t-48 106.5t-14 137zM170.5 0.5q1.5 10.5 12.5 25.5l922 1263q9 11 18 19t23.5 13t34.5 7 t49 2q33 0 52.5 -4t28 -12t6.5 -19t-12 -25l-922 -1263q-9 -12 -18.5 -19.5t-23.5 -12.5t-34 -7t-49 -2q-33 0 -52.5 4t-28 12t-7 18.5zM255 974q0 -62 7 -101.5t20 -62t32 -31t44 -8.5q29 0 48 11.5t30.5 35.5t16.5 61.5t5 89.5q0 55 -6 93.5t-18 62.5t-32 35t-47 11 q-25 0 -44 -10.5t-31.5 -34t-18.5 -61t-6 -91.5zM837 321q0 75 17 137.5t53.5 108.5t94 71.5t138.5 25.5q89 0 146.5 -27t90.5 -73t46 -107t13 -128q0 -79 -17.5 -142.5t-54.5 -108.5t-94.5 -70t-137.5 -25q-85 0 -142 25t-91 69.5t-48 106.5t-14 137zM1035 327 q0 -62 7 -101.5t20 -62t32 -31t44 -8.5q29 0 48 11.5t30.5 35.5t16.5 61.5t5 89.5q0 55 -6 93.5t-18 62.5t-32 35t-47 11q-25 0 -44 -10.5t-31.5 -34t-18.5 -61t-6 -91.5z" />
<glyph unicode="&#x26;" horiz-adv-x="1443" d="M0 1294zM82 361q0 56 16.5 105.5t49.5 93.5t81.5 84t112.5 78q-36 46 -62.5 86.5t-44 77.5t-26 70.5t-8.5 66.5q0 70 25 131.5t78 106.5t135 71.5t197 26.5q105 0 181 -20t125 -56.5t73 -90t24 -120.5q0 -60 -20.5 -111t-62 -97t-103.5 -88.5t-145 -85.5 q27 -31 60.5 -65.5t69 -69t71.5 -68.5t70 -63q13 20 23.5 46t18 55t12 59t4.5 59v31q0 11 4 19t16.5 13t36 7.5t60.5 2.5q35 0 58 -1.5t36.5 -6.5t19 -13.5t5.5 -21.5v-32q0 -48 -7 -97t-20.5 -95.5t-33.5 -89t-44 -79.5q35 -27 60.5 -45t43.5 -28.5t30 -14.5t20 -4h20.5 t15.5 -7t9 -25t3 -53q0 -37 -1.5 -58t-5 -31t-12 -16.5t-28.5 -12t-48 -5.5q-22 0 -45.5 5.5t-54.5 21t-72 41t-95 65.5q-47 -32 -97 -57.5t-104.5 -42.5t-112.5 -26t-124 -9q-65 0 -127 10t-116.5 30.5t-99.5 51.5t-77 73.5t-50 97t-18 120.5zM354 375q0 -43 16 -79t46 -62 t74.5 -40.5t102.5 -14.5q30 0 59.5 5.5t58 15t54 23t47.5 29.5q-45 36 -90.5 76.5t-88.5 81.5t-82.5 81.5t-70.5 76.5q-35 -22 -58.5 -45.5t-38.5 -47.5t-22 -49t-7 -51zM466 1036q0 -21 7 -43.5t19.5 -47t31.5 -52t43 -59.5q59 32 98.5 59t63.5 52.5t34 51t10 52.5 q0 24 -9 45t-28 36.5t-47 24.5t-66 9q-42 0 -71.5 -9.5t-48.5 -27t-28 -41t-9 -50.5z" />
<glyph unicode="'" horiz-adv-x="478" d="M122 1357q-1 10 5.5 18t20.5 13.5t36.5 8t54.5 2.5q33 0 55 -2.5t36 -7.5t20 -13t5 -19l-23 -447q0 -11 -5 -19t-16 -13t-28.5 -7.5t-43.5 -2.5q-27 0 -44.5 3t-28.5 8t-15.5 13t-5.5 18z" />
<glyph unicode="(" horiz-adv-x="638" d="M107 538q0 112 13.5 221.5t40.5 217t66.5 213.5t92.5 211q2 5 8 9t18 7.5t32.5 5t52.5 1.5q36 0 59 -3.5t35 -10.5t13.5 -18t-3.5 -24q-84 -195 -127 -402.5t-43 -425.5q0 -219 43.5 -425.5t125.5 -404.5q6 -16 6 -27.5t-11 -19.5t-33.5 -12t-62.5 -4q-28 0 -48 2 t-33.5 5.5t-21 9t-10.5 12.5q-54 104 -94 209.5t-66.5 213t-39.5 217t-13 222.5z" />
<glyph unicode=")" horiz-adv-x="638" d="M97 -317.5q0 11.5 6 27.5q83 196 126.5 403.5t43.5 426.5q0 218 -43 425.5t-128 402.5q-5 13 -3.5 24t14 18t35 10.5t59.5 3.5q31 0 51 -1.5t33 -5t18.5 -7.5t8.5 -9q104 -210 158 -424.5t54 -438.5q0 -113 -13 -222.5t-39.5 -217t-66 -213t-93.5 -209.5 q-3 -7 -10.5 -12.5t-21 -9t-33.5 -5.5t-48 -2q-41 0 -63.5 4t-33.5 12t-11 19.5z" />
<glyph unicode="*" d="M135 908q-1 24 18 31l238 92l-238 92q-19 7 -18 31t30 74t49.5 63t35.5 -1l199 -159l-40 251q-5 20 17 31.5t80 11.5t80 -11.5t17 -31.5l-40 -251l199 159q16 14 35.5 0.5t49.5 -63.5q29 -49 30.5 -73t-18.5 -31l-237 -92l237 -92q20 -7 18.5 -31t-30.5 -74t-49 -62.5 t-36 0.5l-199 159l40 -251q5 -21 -17 -32t-80 -11t-80 11t-17 32l40 251l-199 -159q-15 -13 -35 0t-50 63q-29 49 -30 73z" />
<glyph unicode="+" d="M52 575q0 27 3 46.5t8.5 31t12.5 16.5t16 5h313v338q0 10 5.5 18.5t17.5 14t32 8.5t50 3t50 -3t32 -8.5t17 -14t5 -18.5v-338h314q8 0 15.5 -5t13 -16.5t8.5 -31t3 -46.5q0 -28 -3 -47t-9 -30.5t-14 -16.5t-17 -5h-311v-339q0 -10 -5 -17.5t-17 -13t-32 -8.5t-50 -3 t-50 3t-32 8.5t-17.5 13t-5.5 17.5v339h-310q-9 0 -16.5 5t-13.5 16.5t-9.5 30.5t-3.5 47z" />
<glyph unicode="," horiz-adv-x="528" d="M23.5 -269q-0.5 8 4.5 19l122 276v158q0 34 8 55t25 32t43 14.5t63 3.5q35 0 60 -3.5t41.5 -14.5t24 -32t7.5 -55q0 -40 -4 -72.5t-13 -61.5t-23 -56.5t-35 -56.5l-134 -192q-7 -10 -15.5 -17t-20.5 -11t-29 -6.5t-43 -2.5q-29 0 -47 2.5t-26 7.5t-8.5 13z" />
<glyph unicode="-" horiz-adv-x="627" d="M59 503q0 56 11 79t36 23h416q12 0 20.5 -5t14.5 -17t8.5 -32t2.5 -48q0 -58 -11 -81t-35 -23h-416q-25 0 -36 23.5t-11 80.5z" />
<glyph unicode="&#xad;" horiz-adv-x="627" d="M59 503q0 56 11 79t36 23h416q12 0 20.5 -5t14.5 -17t8.5 -32t2.5 -48q0 -58 -11 -81t-35 -23h-416q-25 0 -36 23.5t-11 80.5z" />
<glyph unicode="." horiz-adv-x="547" d="M125 138q0 94 32.5 126t117.5 32q83 0 115 -31.5t32 -120.5q0 -93 -32.5 -125t-116.5 -32t-116 31.5t-32 119.5z" />
<glyph unicode="/" horiz-adv-x="880" d="M4 -266.5q-2 12.5 4 29.5l598 1679q4 13 12 21.5t22 13.5t36.5 7.5t54.5 2.5q42 0 67.5 -4t38.5 -12t15 -20.5t-3 -29.5l-597 -1680q-5 -13 -13 -21t-22.5 -13t-36 -7.5t-54.5 -2.5q-41 0 -67 4t-39.5 12t-15.5 20.5z" />
<glyph unicode="0" horiz-adv-x="1038" d="M57 642q0 154 25.5 279.5t82 213.5t147 135t220.5 47q133 0 220.5 -45.5t138.5 -131t71 -209t20 -279.5q0 -155 -25 -280t-81.5 -213t-147 -135t-221.5 -47q-133 0 -220 45.5t-138 131t-71.5 209t-20.5 279.5zM322 655q0 -138 11 -228.5t34.5 -144t60.5 -75t89 -21.5 q39 0 69 12.5t52.5 37.5t37.5 63t24.5 88t13 113t3.5 139q0 92 -5 162.5t-15.5 122.5t-26 88t-37.5 57.5t-50 30.5t-62 9q-59 0 -97.5 -28.5t-61 -85.5t-31.5 -142t-9 -198z" />
<glyph unicode="1" horiz-adv-x="1038" d="M148 1011q0 24 1 39.5t5 26.5t11 18t19 15l278 180q5 4 12.5 6.5t19.5 4t31.5 2t50.5 0.5q38 0 61.5 -1.5t35.5 -5t16 -9.5t4 -15v-1069h211q9 0 16.5 -5.5t13 -17.5t8 -31.5t2.5 -48.5q0 -28 -3 -47.5t-8.5 -31t-12.5 -16.5t-16 -5h-714q-8 0 -15 5t-12.5 16.5t-8.5 31 t-3 47.5q0 29 2.5 48.5t8 31.5t12.5 17.5t16 5.5h241v842l-208 -115q-23 -11 -37.5 -13.5t-23 6t-11.5 29.5t-3 59z" />
<glyph unicode="2" horiz-adv-x="1038" d="M88 110q0 33 3 56.5t11 42t20.5 36t32.5 38.5l224 240q67 70 108 127.5t64 105t31.5 87.5t8.5 76q0 33 -10.5 62.5t-31 51.5t-51.5 34.5t-73 12.5q-59 0 -104.5 -15t-80 -33.5t-57.5 -34t-36 -15.5q-9 0 -15.5 6t-10.5 20t-6.5 37.5t-2.5 57.5q0 23 1.5 38.5t4.5 27t8 20 t17.5 20.5t46 30.5t82.5 36t108 29.5t123 12q101 0 176.5 -25.5t125.5 -71t74.5 -108t24.5 -134.5q0 -63 -12 -124t-50 -131.5t-107 -156t-183 -198.5l-151 -155h510q10 0 18.5 -6t14.5 -18.5t9 -33t3 -48.5q0 -29 -2.5 -49.5t-7.5 -33.5t-13 -18.5t-18 -5.5h-744 q-22 0 -38 4t-26 15.5t-14.5 33.5t-4.5 57z" />
<glyph unicode="3" horiz-adv-x="1038" d="M85 187q0 48 8 66.5t24 18.5q10 0 34.5 -13.5t62.5 -29t89 -29t116 -13.5q55 0 97 13t71.5 36.5t44 57t14.5 74.5q0 45 -17.5 81t-52 61.5t-87 39.5t-123.5 14h-112q-13 0 -22 3.5t-15 14.5t-8.5 30.5t-2.5 50.5q0 29 2.5 47.5t8 28.5t14 14t20.5 4h113q58 0 103 13.5 t75.5 38.5t46.5 60.5t16 78.5q0 33 -11 62.5t-32.5 51t-55.5 34t-80 12.5q-52 0 -98 -15.5t-82.5 -34t-62 -34.5t-37.5 -16q-8 0 -14 3.5t-10 13.5t-6 29t-2 49q0 25 1 41.5t4 27.5t7.5 19t14.5 17.5t41 28.5t78 37t108.5 30.5t133.5 12.5q94 0 166.5 -22t122 -63.5t75 -102 t25.5 -136.5q0 -59 -15 -110t-44 -91t-72.5 -68t-100.5 -42v-3q68 -8 122 -34.5t91.5 -66.5t57.5 -90.5t20 -108.5q0 -97 -37 -172t-103 -126t-158 -77.5t-201 -26.5q-66 0 -124 9.5t-102.5 23.5t-73.5 29t-38 23t-13.5 18t-8 23.5t-5 34t-1.5 49.5z" />
<glyph unicode="4" horiz-adv-x="1038" d="M36 386q0 32 1.5 55.5t5 42.5t10 36t16.5 36l402 709q5 9 17 15.5t33.5 11t54.5 6.5t80 2q51 0 87 -2.5t57.5 -8t31.5 -13.5t10 -19v-779h115q16 0 27.5 -24.5t11.5 -81.5q0 -51 -10.5 -77.5t-28.5 -26.5h-115v-234q0 -10 -6 -17.5t-21 -12.5t-39 -7.5t-62 -2.5 q-36 0 -60.5 2.5t-39 7.5t-20 12.5t-5.5 17.5v234h-495q-14 0 -25 3.5t-18.5 16t-11 36t-3.5 62.5zM246 478h343v595h-2z" />
<glyph unicode="5" horiz-adv-x="1038" d="M96 160q0 28 2 47.5t6.5 31.5t10.5 17t14 5q10 0 30.5 -11.5t54 -25.5t81.5 -25.5t115 -11.5q58 0 105.5 12t80.5 38.5t51 66.5t18 96q0 48 -15 85.5t-47 63.5t-83 39t-124 13q-58 0 -105.5 -6t-89.5 -6q-29 0 -41.5 14.5t-12.5 53.5v562q0 40 15.5 57.5t49.5 17.5h613 q9 0 17 -6t13.5 -19t8 -34.5t2.5 -51.5q0 -60 -10.5 -87t-30.5 -27h-460v-277q35 4 69.5 5t72.5 1q105 0 186.5 -24.5t137 -72t84.5 -118t29 -163.5q0 -105 -36.5 -187.5t-103 -139t-160 -86.5t-207.5 -30q-60 0 -114 7.5t-97 19t-70.5 23t-36 19t-12.5 16.5t-6.5 21.5 t-3.5 31.5t-1 45z" />
<glyph unicode="6" horiz-adv-x="1038" d="M84 596q0 76 7.5 159t29 163t60.5 152.5t100.5 127t149 86.5t207.5 32q38 0 76.5 -4.5t71.5 -11.5t56 -16t30.5 -15.5t11.5 -14.5t6.5 -17.5t3.5 -23.5t1 -34q0 -31 -1.5 -51.5t-5.5 -32t-11 -16.5t-17 -5q-12 0 -31 6.5t-46 14.5t-63.5 14t-84.5 6q-81 0 -137 -30 t-91 -81.5t-51 -119.5t-17 -144q22 14 50.5 28t62 24t72.5 16.5t83 6.5q98 0 168 -27t114.5 -77t65.5 -121t21 -158q0 -98 -30 -181.5t-88 -144t-143 -95t-196 -34.5q-90 0 -157 20.5t-116 59t-80 93.5t-49.5 124t-25.5 150t-7 172zM344 548q0 -107 12 -178.5t35.5 -113.5 t59 -59.5t82.5 -17.5q46 0 80.5 17t57.5 48t35 72.5t12 90.5q0 51 -9 89.5t-29 65t-53 40t-80 13.5q-28 0 -55 -5t-53 -14t-50 -21.5t-45 -26.5z" />
<glyph unicode="7" horiz-adv-x="1038" d="M81 1181q0 30 3 51.5t8.5 35.5t13 20t17.5 6h769q18 0 30 -3.5t19 -15.5t10.5 -34t3.5 -58q0 -29 -2 -50.5t-5.5 -40t-9.5 -35t-14 -35.5l-426 -987q-6 -13 -15.5 -21t-26.5 -12.5t-43.5 -6t-65.5 -1.5q-53 0 -84 3.5t-45.5 11t-15.5 19t7 28.5l458 1010h-544 q-21 0 -31.5 27.5t-10.5 87.5z" />
<glyph unicode="8" horiz-adv-x="1038" d="M61 312q0 55 16.5 103.5t49 90t81 78t111.5 69.5q-51 28 -92 60.5t-70 71t-44 84.5t-15 100q0 78 27.5 141.5t82 110t136.5 71.5t190 25q107 0 183.5 -23t125.5 -65t72.5 -100.5t23.5 -129.5q0 -47 -15.5 -91.5t-43.5 -84.5t-69 -75.5t-93 -64.5q61 -32 109 -68t81 -77.5 t50.5 -88.5t17.5 -102q0 -88 -30.5 -157t-90 -116.5t-147.5 -72t-203 -24.5q-110 0 -193 22t-139 64.5t-84 105t-28 143.5zM320 331q0 -78 50.5 -119t150.5 -41q98 0 146.5 42t48.5 116q0 37 -12.5 67.5t-39 57.5t-66.5 52t-93 51q-46 -25 -81 -50t-58 -52.5t-34.5 -58 t-11.5 -65.5zM351 980q0 -32 10.5 -59t32.5 -51t57 -47t83 -49q73 43 112.5 92t39.5 109q0 35 -10 63t-31.5 47.5t-53 29.5t-74.5 10q-84 0 -125 -38.5t-41 -106.5z" />
<glyph unicode="9" horiz-adv-x="1038" d="M66 872q0 97 29 178.5t86 141t142 92.5t197 33q90 0 157.5 -21t116 -60t81 -94.5t51 -123.5t26 -147t7.5 -165q0 -79 -8 -163.5t-30.5 -165.5t-62 -154t-102 -127.5t-152 -86.5t-211.5 -32q-43 0 -85.5 6t-77.5 15t-59.5 19t-35.5 20.5t-16 30.5t-5 56q0 33 1.5 53t6 31 t11 14.5t15.5 3.5q12 0 34 -7t53.5 -16t71.5 -16t89 -7q84 0 142 30t94 81t53 118t19 141q-46 -29 -111 -50.5t-149 -21.5q-103 0 -175 27t-117 78t-65.5 124t-20.5 165zM324 891q0 -53 9.5 -93.5t30 -67t53.5 -39.5t80 -13q58 0 109.5 17.5t91.5 46.5q0 107 -12 179 t-36 115t-60 61t-84 18q-47 0 -81 -16.5t-56.5 -46.5t-33.5 -71t-11 -90z" />
<glyph unicode=":" horiz-adv-x="565" d="M160 137q0 42 6 71.5t22.5 47.5t43.5 25.5t68 7.5t68 -7.5t43.5 -25.5t23.5 -47.5t7 -71.5t-7 -70.5t-23.5 -46.5t-43.5 -25.5t-68 -7.5t-68 7.5t-43.5 25.5t-22.5 46.5t-6 70.5zM160 790q0 43 6 72t22.5 47t43.5 26t68 8t68 -8t43.5 -26t23.5 -47t7 -72q0 -42 -7 -70 t-23.5 -46t-43.5 -25.5t-68 -7.5t-68 7.5t-43.5 25.5t-22.5 46t-6 70z" />
<glyph unicode=";" horiz-adv-x="565" d="M54.5 -265q-0.5 8 4.5 19l117 272v158q0 34 8 55t24.5 32t42.5 14.5t61 3.5q34 0 58.5 -3.5t40.5 -14.5t23.5 -32t7.5 -55q0 -40 -4 -72.5t-12.5 -61.5t-22.5 -56.5t-34 -56.5l-130 -188q-7 -10 -15.5 -17t-20.5 -11.5t-28.5 -6.5t-41.5 -2q-28 0 -45 2t-25 7.5 t-8.5 13.5zM160 790q0 43 6 72t22.5 47t43.5 26t68 8t68 -8t43.5 -26t23.5 -47t7 -72q0 -42 -7 -70t-23.5 -46t-43.5 -25.5t-68 -7.5t-68 7.5t-43.5 25.5t-22.5 46t-6 70z" />
<glyph unicode="&#x3c;" d="M68 578q0 26 2 45.5t5 32t8.5 20t12.5 11.5l766 380q29 14 41 -5.5t12 -79.5q0 -41 -1.5 -65t-5.5 -38t-11 -20t-19 -12l-576 -270l565 -262q15 -7 24.5 -14t14.5 -21.5t7 -39t2 -66.5q0 -37 -3 -58t-9.5 -30t-16 -8t-24.5 8l-767 382q-14 8 -20.5 33.5t-6.5 76.5z" />
<glyph unicode="=" d="M83 375q0 51 10.5 73.5t33.5 22.5h763q23 0 33.5 -22.5t10.5 -73.5q0 -54 -11.5 -75t-32.5 -21h-763q-21 0 -32.5 21t-11.5 75zM83 779q0 51 10.5 73t33.5 22h763q23 0 33.5 -22t10.5 -73q0 -53 -11.5 -75t-32.5 -22h-763q-21 0 -32.5 22t-11.5 75z" />
<glyph unicode="&#x3e;" d="M102 171q0 41 1.5 65t5.5 38t11 20.5t19 11.5l576 270l-565 262q-16 7 -25.5 14t-14.5 21.5t-6.5 39t-1.5 66.5q0 37 2.5 58t9 30t16.5 8t24 -8l768 -383q13 -6 20.5 -32t7.5 -77q0 -26 -2 -45t-5.5 -32t-9 -20.5t-12.5 -10.5l-767 -380q-14 -7 -24 -6t-16.5 11t-9 29.5 t-2.5 49.5z" />
<glyph unicode="?" horiz-adv-x="949" d="M115 1231q0 35 3 51t13 26t38 23.5t67 25t87 19.5t100 8q118 0 202 -32.5t137.5 -87.5t78.5 -126t25 -150q0 -82 -23.5 -148t-66 -114t-102 -77t-131.5 -37l-8 -195q-1 -18 -28.5 -27t-79.5 -9q-33 0 -55.5 1.5t-35.5 5.5t-19 11t-7 18l-9 236q-1 32 3 52t14.5 32 t26.5 16.5t38 4.5h14q53 0 91.5 17t63.5 45t36.5 66t11.5 81q0 48 -13.5 88t-41 69t-69 44.5t-97.5 15.5q-51 0 -90 -10t-67 -22t-46.5 -22t-28.5 -10q-7 0 -13 4.5t-10 16.5t-6.5 34t-2.5 56zM287 131q0 42 6.5 70.5t23 46t43.5 25t69 7.5q40 0 67.5 -7.5t44 -25t23 -46 t6.5 -70.5q0 -41 -6.5 -69t-23 -45t-44 -24.5t-67.5 -7.5q-42 0 -69 7.5t-43.5 24.5t-23 45t-6.5 69z" />
<glyph unicode="@" horiz-adv-x="1840" d="M0 1294zM120 379q0 82 11.5 167t35.5 168t62.5 161.5t91.5 148.5t122.5 128.5t156 100.5t191 65t229.5 23q183 0 313.5 -41t214.5 -116t123.5 -180.5t39.5 -234.5q0 -73 -10 -147.5t-32.5 -143t-57.5 -128.5t-84.5 -104t-114.5 -69.5t-147 -25.5q-49 0 -89 9.5t-70 28 t-49.5 46t-29.5 63.5q-39 -40 -76.5 -67.5t-74 -45.5t-72.5 -26t-73 -8q-47 0 -83 11.5t-62.5 31.5t-44 46.5t-28.5 58.5t-15.5 67t-4.5 71q0 47 7.5 105t25 118.5t46.5 117t72 101t100.5 71.5t132.5 27q34 0 63 -7t56 -22t52.5 -39t53.5 -59l17 77q4 18 24.5 27t72.5 9 q26 0 43.5 -2.5t27.5 -7t13 -11t2 -15.5l-86 -447q-14 -74 4.5 -108.5t72.5 -34.5q35 0 64 19t50.5 51.5t36.5 75t24.5 89t14 94t4.5 91.5q0 80 -22 151.5t-77.5 126t-150 86t-240.5 31.5q-98 0 -178.5 -19.5t-144.5 -54t-114 -81.5t-87 -102.5t-62.5 -118t-40.5 -126.5 t-22 -128t-7 -124q0 -109 24 -195t83 -146t157.5 -91.5t246.5 -31.5q77 0 140.5 9t111 19t77.5 19t41 9q7 0 12 -3.5t8 -13.5t4.5 -27t1.5 -43q0 -22 -1 -37t-3.5 -25.5t-6.5 -18t-10 -13t-37.5 -16.5t-84 -21.5t-123 -18.5t-154.5 -8q-190 0 -324 43.5t-219.5 126t-125 200 t-39.5 264.5zM715 467q0 -60 22 -95t74 -35q19 0 39.5 6.5t43 21t48 38t56.5 56.5l41 221q-30 55 -62.5 83t-73.5 28q-35 0 -62.5 -16.5t-48.5 -44t-35.5 -62t-24 -70.5t-13.5 -70.5t-4 -60.5z" />
<glyph unicode="A" horiz-adv-x="1241" d="M26 44q3 21 15 56l399 1148q6 17 14 27.5t25.5 16t48.5 7t82 1.5q59 0 94 -1.5t54.5 -7t28 -16.5t14.5 -30l400 -1147q12 -36 15 -57q1 -4 1 -9q0 -14 -9 -22q-11 -10 -39 -13t-77 -3q-51 0 -79.5 1.5t-43.5 6t-21 12.5t-10 21l-87 260h-486l-82 -253q-4 -14 -10.5 -23.5 t-21 -15t-41 -7.5t-69.5 -2q-46 0 -72 3t-36 15q-8 9 -8 23q0 4 1 9zM423 497h367l-183 550h-1z" />
<glyph unicode="B" horiz-adv-x="1148" d="M141 83v1128q0 44 22.5 63.5t55.5 19.5h325q119 0 201.5 -20t139 -60.5t86.5 -102.5t30 -146q0 -47 -12 -88.5t-35 -75.5t-56.5 -60t-76.5 -42q55 -10 101.5 -35t81 -64.5t54.5 -92.5t20 -119q0 -69 -19 -125t-52.5 -99t-80 -74t-102.5 -51t-119.5 -29.5t-141.5 -9.5 h-344q-33 0 -55.5 19.5t-22.5 63.5zM399 201h190q55 0 92.5 11.5t65 34t43 56t15.5 76.5q0 45 -15 80.5t-44 59.5t-74 37t-117 13h-156v-368zM399 761h147q57 0 91 13.5t56.5 37t33.5 55t11 66.5q0 39 -12 70t-36 51.5t-60.5 31.5t-97.5 11h-133v-336z" />
<glyph unicode="C" horiz-adv-x="1084" d="M79 630q0 165 44 293t123 215t189.5 132t243.5 45q54 0 104 -9t92.5 -23.5t76.5 -33.5t47.5 -32.5t18.5 -22.5t8 -23t4.5 -33t1.5 -47q0 -30 -2 -51t-7 -34t-12 -19t-16 -6q-15 0 -38 17.5t-59.5 39t-87 39t-120.5 17.5q-77 0 -137.5 -31.5t-103 -90t-64.5 -141.5 t-22 -187q0 -114 23.5 -197.5t67 -137.5t105 -80.5t138.5 -26.5q70 0 121 16.5t87.5 36.5t60 36t36.5 16q10 0 16 -4t10 -16t6 -33.5t2 -57.5q0 -25 -1.5 -42.5t-4.5 -30t-8 -21.5t-16 -20.5t-42.5 -29.5t-77 -34.5t-104 -27.5t-126.5 -11q-133 0 -240 41t-182 122.5 t-115 203.5t-40 284z" />
<glyph unicode="D" horiz-adv-x="1291" d="M141 83v1128q0 44 22.5 63.5t55.5 19.5h332q173 0 293.5 -40.5t203 -120t125.5 -196.5t43 -271q0 -178 -46.5 -304.5t-133.5 -206.5t-211.5 -117.5t-296.5 -37.5h-309q-33 0 -55.5 19.5t-22.5 63.5zM403 208h137q108 0 182 28t123.5 84.5t74 140.5t24.5 196 q0 92 -21.5 171t-69 137t-122 90.5t-195.5 32.5h-133v-880z" />
<glyph unicode="E" horiz-adv-x="999" d="M141 83v1128q0 44 22.5 63.5t55.5 19.5h646q9 0 16 -5t12 -17.5t7.5 -32t2.5 -49.5q0 -28 -2.5 -47.5t-7.5 -31.5t-12 -17.5t-16 -5.5h-462v-316h391q9 0 16.5 -5.5t12.5 -17t7.5 -31t2.5 -47.5q0 -29 -2.5 -48t-7.5 -30.5t-12.5 -16.5t-16.5 -5h-391v-365h466 q9 0 16.5 -5.5t12.5 -17.5t7.5 -31.5t2.5 -48.5t-2.5 -48.5t-7.5 -31.5t-12.5 -17.5t-16.5 -5.5h-650q-33 0 -55.5 19.5t-22.5 63.5z" />
<glyph unicode="F" horiz-adv-x="940" d="M141 38v1173q0 44 22.5 63.5t55.5 19.5h609q9 0 16 -5.5t12.5 -18t8 -33.5t2.5 -51t-2.5 -50.5t-8 -32.5t-12.5 -18t-16 -6h-423v-348h397q9 0 16 -5t12.5 -17t8 -32t2.5 -50t-2.5 -50t-8 -33t-12.5 -18.5t-16 -5.5h-397v-482q0 -11 -6 -19t-21.5 -13.5t-40.5 -8.5 t-64 -3q-38 0 -63.5 3t-40.5 8.5t-21.5 13.5t-6.5 19z" />
<glyph unicode="G" horiz-adv-x="1305" d="M73 633q0 159 48 285.5t136 215t212.5 135.5t277.5 47q84 0 153 -11.5t120.5 -28t85.5 -35.5t47.5 -33t19.5 -39.5t6 -75.5q0 -29 -2.5 -50t-7 -33.5t-11 -17.5t-15.5 -5q-13 0 -42 18t-77 39t-114.5 39t-154.5 18q-94 0 -170 -32.5t-130 -92t-83 -143t-29 -184.5 q0 -111 29.5 -195.5t82.5 -141.5t127.5 -86t164.5 -29q44 0 87 10t80 30v300h-245q-18 0 -28 22.5t-10 76.5q0 28 2.5 47t7.5 30.5t12 17t16 5.5h437q16 0 28.5 -5.5t22 -16.5t14.5 -26.5t5 -35.5v-515q0 -30 -10.5 -52.5t-43 -35.5t-80.5 -27t-99.5 -24t-104 -15t-105.5 -5 q-155 0 -277.5 44.5t-207.5 129t-130 206t-45 275.5z" />
<glyph unicode="H" horiz-adv-x="1292" d="M141 36v1222q0 10 6.5 18t21.5 13t40.5 8t63.5 3q39 0 64 -3t40 -8t21 -13t6 -18v-475h484v475q0 10 6.5 18t21 13t40 8t64.5 3q38 0 63 -3t40 -8t21.5 -13t6.5 -18v-1222q0 -10 -6.5 -18t-21.5 -13t-40 -8t-63 -3q-39 0 -64.5 3t-40 8t-21 13t-6.5 18v523h-484v-523 q0 -10 -6 -18t-21 -13t-40 -8t-64 -3q-38 0 -63.5 3t-40.5 8t-21.5 13t-6.5 18z" />
<glyph unicode="I" horiz-adv-x="546" d="M141 36v1222q0 10 6.5 18t22 13t40.5 8t63 3q39 0 64 -3t40 -8t21.5 -13t6.5 -18v-1222q0 -10 -6.5 -18t-21.5 -13t-40 -8t-64 -3q-38 0 -63.5 3t-40.5 8t-21.5 13t-6.5 18z" />
<glyph unicode="J" horiz-adv-x="678" d="M3 129q0 34 1.5 57.5t5 37t10 19t16.5 5.5q9 0 21 -6.5t27 -13.5t35 -13.5t47 -6.5t47.5 7.5t34 26t20.5 49.5t7 80v889q0 10 6.5 17.5t21 12.5t40.5 7.5t64 2.5t63 -2.5t40.5 -7.5t22 -12.5t6.5 -17.5v-900q0 -88 -16.5 -158.5t-56 -120t-103.5 -75.5t-158 -26 q-30 0 -59.5 4.5t-54 11.5t-42.5 15t-24 14.5t-10 13.5t-7 18.5t-4 28.5t-1 43z" />
<glyph unicode="K" horiz-adv-x="1120" d="M141 38v1219q0 11 6.5 19t21.5 13t40.5 8t63.5 3q39 0 64 -3t40 -8t21 -13t6 -19v-551l379 550q7 13 17 21.5t26 13.5t41 7t64 2q40 0 66 -3t41.5 -8.5t21.5 -13.5t6 -18q0 -17 -9 -35t-34 -57l-355 -465l387 -585q22 -41 26.5 -54.5t4.5 -21.5q0 -11 -5.5 -19.5t-21 -14 t-42.5 -8.5t-68 -3q-65 0 -93.5 5t-41 15t-19.5 24l-391 614v-614q0 -11 -6 -19t-21 -13.5t-40 -8.5t-64 -3q-38 0 -63.5 3t-40.5 8.5t-21.5 13.5t-6.5 19z" />
<glyph unicode="L" horiz-adv-x="866" d="M141 83v1175q0 10 6.5 18t21.5 13t40.5 8t63.5 3q39 0 64 -3t40 -8t21.5 -13t6.5 -18v-1041h407q10 0 17.5 -5.5t12.5 -18t7.5 -33t2.5 -50.5t-2.5 -50.5t-7.5 -34t-12.5 -19.5t-17.5 -6h-593q-33 0 -55.5 19.5t-22.5 63.5z" />
<glyph unicode="M" horiz-adv-x="1790" d="M141 36v1153q0 51 27 78t72 27h172q46 0 79 -7.5t57 -25t40 -46t28 -70.5l280 -771h4l290 769q13 42 28.5 71t36 47t48.5 25.5t65 7.5h177q27 0 46.5 -7t32 -20.5t19 -33t6.5 -44.5v-1153q0 -10 -5.5 -18t-20 -13t-38.5 -8t-61 -3q-36 0 -60 3t-38 8t-20 13t-6 18v1053 h-2l-375 -1052q-4 -13 -13 -21.5t-24.5 -13.5t-39.5 -6.5t-58 -1.5t-58 2.5t-39.5 8t-24.5 13.5t-12 19l-362 1052h-2v-1053q0 -10 -5.5 -18t-20.5 -13t-38.5 -8t-60.5 -3q-36 0 -60 3t-38.5 8t-20 13t-5.5 18z" />
<glyph unicode="N" horiz-adv-x="1349" d="M141 37v1163q0 47 27.5 70.5t67.5 23.5h141q38 0 64 -6.5t46.5 -21.5t38.5 -41.5t37 -65.5l252 -473q22 -43 43.5 -84.5t41.5 -83t39 -81.5t37 -80h1q-3 70 -4.5 146t-1.5 145v607q0 10 6 18t20 14t37 8.5t59 2.5q34 0 57 -2.5t35.5 -8.5t17.5 -14t5 -18v-1163 q0 -23 -8 -41t-21.5 -30t-32 -17.5t-37.5 -5.5h-112q-35 0 -60.5 7t-47 25.5t-41.5 50t-45 81.5l-322 605q-28 54 -57 116.5t-52 121.5h-2q4 -72 6 -143.5t2 -147.5v-677q0 -10 -5.5 -18t-19 -13.5t-36.5 -8.5t-59 -3q-35 0 -58 3t-36 8.5t-18 13.5t-5 18z" />
<glyph unicode="O" horiz-adv-x="1385" d="M80 639q0 157 40 282.5t119 213.5t195.5 135t270.5 47q147 0 259.5 -39t188 -120t114 -204.5t38.5 -291.5q0 -161 -40 -288t-119 -215.5t-195.5 -135t-269.5 -46.5q-151 0 -263.5 39.5t-187.5 120.5t-112.5 206t-37.5 296zM356 652q0 -106 16 -190.5t54 -144.5t102 -91.5 t161 -31.5t162 36t105 98t56.5 144.5t16.5 175.5q0 102 -16 185.5t-54.5 143t-102.5 92t-160 32.5q-97 0 -162 -36.5t-105 -97.5t-56.5 -142.5t-16.5 -172.5z" />
<glyph unicode="P" horiz-adv-x="1090" d="M141 36v1164q0 47 24.5 70.5t64.5 23.5h305q46 0 87.5 -3.5t99.5 -15t117.5 -42.5t101.5 -78.5t64 -111t22 -142.5q0 -109 -34 -193t-99 -141.5t-159.5 -87.5t-222.5 -30h-108v-413q0 -10 -6.5 -18t-21.5 -13t-40 -8t-64 -3q-38 0 -63.5 3t-40.5 8t-21 13t-6 18zM404 652 h118q63 0 105.5 17t69.5 47.5t41 73t14 92.5q0 68 -24 112t-59 65t-73.5 26.5t-79.5 5.5h-112v-439z" />
<glyph unicode="Q" horiz-adv-x="1405" d="M80 640q0 157 40 282.5t119 213t195.5 134.5t270.5 47q145 0 256.5 -39t188 -119.5t116 -203.5t39.5 -291q0 -87 -11.5 -163.5t-33.5 -141.5t-54 -119t-73 -95q62 -54 110 -82t80.5 -42t52 -20.5t30.5 -17t16 -36t5 -70.5q0 -36 -3.5 -58t-9.5 -34t-13 -15.5t-15 -3.5 q-33 0 -86.5 18t-115.5 51.5t-126.5 82t-119.5 111.5q-46 -21 -111.5 -36.5t-145.5 -15.5q-151 0 -263.5 38.5t-187.5 119.5t-112.5 206.5t-37.5 298.5zM356 654q0 -107 16 -192t54 -145t102 -91.5t161 -31.5t162 36t105 98t56.5 145t16.5 177q0 101 -16 184t-54.5 142.5 t-102.5 92t-160 32.5q-97 0 -162 -36t-105 -97t-56.5 -142.5t-16.5 -171.5z" />
<glyph unicode="R" horiz-adv-x="1153" d="M141 36v1175q0 44 22.5 63.5t55.5 19.5h335q51 0 84 -2t60 -5q78 -11 140.5 -38t106 -70.5t66.5 -103t23 -136.5q0 -65 -16.5 -118.5t-48.5 -95.5t-79 -73t-107 -50q29 -14 54.5 -34t48 -48.5t42.5 -65t39 -82.5l109 -255q15 -38 20 -55.5t5 -27.5q0 -11 -4 -18.5 t-19 -12.5t-44 -7t-79 -2q-42 0 -67 2t-39.5 7.5t-20.5 14t-10 20.5l-116 289q-21 49 -41 87t-44.5 63.5t-56.5 38.5t-74 13h-82v-493q0 -10 -6.5 -18t-21.5 -13t-40 -8t-64 -3q-38 0 -63.5 3t-40.5 8t-21 13t-6 18zM404 726h134q56 0 98 13.5t70 38t42 58.5t14 76 q0 64 -29 108t-95 62q-20 5 -45.5 8t-70.5 3h-118v-367z" />
<glyph unicode="S" horiz-adv-x="968" d="M63 185q0 31 2 52t6.5 34t12 18.5t17.5 5.5q14 0 39.5 -16.5t65.5 -36.5t95.5 -36.5t128.5 -16.5q48 0 86 11.5t64.5 32.5t40.5 52t14 69q0 44 -24 75.5t-62.5 56t-87.5 46t-101 45.5t-101 54.5t-87.5 73t-62.5 100.5t-24 139q0 93 34.5 163.5t93 117t138 69.5t168.5 23 q46 0 92 -7t86 -19t71 -27t41 -25t13.5 -17t6 -18.5t3.5 -29t1 -43.5q0 -29 -1.5 -49t-5 -33t-10 -19t-17.5 -6t-35 14t-59 30.5t-81 30t-101 13.5q-43 0 -75 -10.5t-53.5 -29t-32 -44.5t-10.5 -55q0 -43 23.5 -74.5t63 -56t89.5 -46t102 -45.5t102 -54.5t89 -73t63 -100 t24 -135.5q0 -102 -38 -179t-103 -128.5t-152 -77.5t-186 -26q-67 0 -124.5 11t-101.5 26.5t-73.5 32.5t-42.5 30t-18.5 37.5t-5.5 70.5z" />
<glyph unicode="T" horiz-adv-x="1014" d="M12 1186q0 30 2.5 51t7.5 33.5t12 18t17 5.5h912q9 0 16.5 -5.5t12.5 -18t7.5 -33.5t2.5 -51q0 -29 -2.5 -49.5t-7.5 -33t-12.5 -18.5t-16.5 -6h-324v-1043q0 -10 -6.5 -18t-21.5 -13t-40.5 -8t-63.5 -3t-63.5 3t-40.5 8t-21.5 13t-6.5 18v1043h-324q-10 0 -17 6 t-12 18.5t-7.5 33t-2.5 49.5z" />
<glyph unicode="U" horiz-adv-x="1337" d="M140 471v787q0 10 6 18t21.5 13t40.5 8t64 3q38 0 63 -3t40 -8t21.5 -13t6.5 -18v-764q0 -77 19 -133.5t54.5 -93.5t85 -55.5t110.5 -18.5q62 0 111 19t83 55.5t52.5 90t18.5 121.5v779q0 10 6 18t21 13t40.5 8t63.5 3t62.5 -3t39.5 -8t21 -13t6 -18v-776 q0 -119 -35 -213t-103 -159t-168 -99t-230 -34q-122 0 -219 30.5t-164 92.5t-102.5 154.5t-35.5 216.5z" />
<glyph unicode="V" horiz-adv-x="1211" d="M24 1253v7q0 16 10 24q12 10 42.5 13t84.5 3q46 0 72 -2t40 -7t19.5 -15t10.5 -25l315 -998h1l309 993q4 17 10 27.5t20.5 16.5t41.5 8t74 2q46 0 72 -3q24 -3 34 -15q7 -8 7 -21q-1 -5 -1 -11q-4 -21 -15 -56l-386 -1148q-5 -17 -13 -27.5t-26 -16t-49 -7t-81 -1.5 q-40 0 -68.5 0.5t-48.5 2.5t-32.5 6t-21 10t-13 14.5t-8.5 21.5l-385 1147q-13 36 -15 57z" />
<glyph unicode="W" horiz-adv-x="1856" d="M44 1255q0 18 12 29t40.5 13.5t79.5 2.5q47 0 74.5 -1.5t41.5 -7t19 -16t8 -29.5l227 -991h1l236 984q4 19 10.5 31t22 18.5t42.5 9t72 2.5q48 0 76.5 -2t44 -8.5t22.5 -18.5t11 -32l244 -984h2l227 988q3 16 8 27.5t19 18t40 9t73 2.5q44 0 68.5 -2.5t35.5 -13.5 q10 -10 10 -27q-1 -1 -1 -5q-2 -22 -10 -59l-297 -1126q-6 -24 -16.5 -38.5t-31.5 -22t-54 -10t-84 -2.5q-57 0 -91.5 2.5t-54.5 10t-29 22t-14 38.5l-207 820h-2l-196 -820q-5 -23 -14 -37.5t-28.5 -22.5t-53 -10.5t-88.5 -2.5q-58 0 -92.5 2.5t-54.5 10t-29 22t-15 38.5 l-294 1129q-10 40 -10 59z" />
<glyph unicode="X" horiz-adv-x="1128" d="M39 43q6 21 25 56l310 565l-288 531q-18 36 -24.5 57.5t5 32t42.5 13t88 2.5q47 0 74.5 -2t43.5 -6.5t22.5 -12.5t12.5 -20l227 -428l221 428q6 12 12.5 20t21 12.5t40 6.5t70.5 2q50 0 79 -2.5t40 -13.5t5.5 -32t-22.5 -57l-288 -528l307 -568q17 -35 23 -56q2 -7 2 -12 q0 -12 -8 -20q-12 -11 -43.5 -14t-87.5 -3q-47 0 -74 2t-42.5 6.5t-22.5 12.5t-12 20l-243 467l-242 -467q-6 -12 -13 -20t-22.5 -12.5t-43 -6.5t-72.5 -2q-52 0 -80.5 3t-38.5 14q-6 7 -6 18q0 6 2 14z" />
<glyph unicode="Y" horiz-adv-x="1064" d="M22 1254q-2 6 -2 12q0 11 8 18q11 11 42 13.5t86 2.5q46 0 73.5 -2t43.5 -7.5t23.5 -14.5t14.5 -23l144 -318q21 -46 41.5 -97t41.5 -107h2q19 54 39 105t39 97l142 316q5 16 12.5 25.5t22.5 15.5t41 8t69 2q57 0 88.5 -2.5t42.5 -13.5q8 -6 8 -18q0 -6 -2 -13 q-6 -21 -24 -57l-354 -705v-455q0 -10 -6.5 -18t-21.5 -13t-40.5 -8t-63.5 -3q-39 0 -64 3t-40.5 8t-21.5 13t-6 18v455l-354 705q-19 37 -24 58z" />
<glyph unicode="Z" horiz-adv-x="979" d="M51 90v44q0 20 2.5 36.5t8.5 33.5t17.5 37t28.5 48l502 796h-498q-12 0 -20.5 5.5t-14 17.5t-8 32t-2.5 48q0 30 2.5 50.5t8 33t14 17.5t20.5 5h715q41 0 60.5 -21t19.5 -59v-49q0 -27 -2.5 -46.5t-9 -38t-17.5 -38t-28 -46.5l-494 -785h541q19 0 29 -24t10 -83 q0 -29 -2.5 -49t-7.5 -32.5t-12.5 -17.5t-16.5 -5h-763q-40 0 -61.5 23t-21.5 67z" />
<glyph unicode="[" horiz-adv-x="665" d="M157 -254v1586q0 21 6 37t16 26.5t24 15t31 4.5h309q8 0 15 -4.5t11.5 -15t6.5 -27.5t2 -43q0 -51 -9 -70.5t-26 -19.5h-151v-1393h151q8 0 15 -4t11.5 -15t6.5 -28t2 -43q0 -50 -9 -70t-26 -20h-309q-17 0 -31 5t-24 15t-16 26t-6 38z" />
<glyph unicode="\" horiz-adv-x="880" d="M29 1437q-1 15 10.5 22t36.5 9.5t69 2.5q40 0 64.5 -2t38.5 -6t20 -11.5t10 -18.5l588 -1651q8 -25 9 -40.5t-10.5 -22.5t-36.5 -9.5t-69 -2.5q-40 0 -64.5 2t-38.5 6t-20 11.5t-11 18.5l-586 1651q-9 26 -10 41z" />
<glyph unicode="]" horiz-adv-x="665" d="M87 -248q0 26 2.5 43t7 28t11 15t14.5 4h152v1393h-152q-17 0 -26 19.5t-9 70.5q0 26 2.5 43t7 27.5t11 15t14.5 4.5h310q17 0 31 -4.5t24 -15t16.5 -26.5t6.5 -37v-1586q0 -22 -6.5 -38t-16.5 -26t-24 -15t-31 -5h-310q-17 0 -26 20t-9 70z" />
<glyph unicode="^" d="M33 551q3 17 16 45l288 656q6 13 18 22.5t32.5 16t49.5 10t69 3.5t69.5 -3.5t49.5 -10t32 -16t18 -22.5l293 -656q13 -28 16 -45t-7.5 -26t-36 -11.5t-69.5 -2.5q-39 0 -64.5 2.5t-42 8t-25 14t-13.5 20.5l-221 541l-5 -1l-212 -540q-5 -12 -13.5 -20.5t-24.5 -14 t-41.5 -8t-64.5 -2.5q-44 0 -68.5 2.5t-35 11.5t-7.5 26z" />
<glyph unicode="_" d="M-7 -273q0 50 9.5 72t32.5 22h950q22 0 31.5 -21t9.5 -72q0 -50 -9.5 -71.5t-31.5 -21.5h-950q-23 0 -32.5 21t-9.5 71z" />
<glyph unicode="`" horiz-adv-x="615" d="M0 960zM102 1371q-1 10 10.5 17.5t38.5 11.5t73 4q33 0 55.5 -2t37.5 -6.5t24.5 -12.5t17.5 -19l143 -229q9 -13 11 -23t-6.5 -16.5t-28 -9.5t-54.5 -3q-29 0 -48 2t-32 6t-21.5 10.5t-16.5 16.5l-193 232q-10 11 -11 21z" />
<glyph unicode="a" horiz-adv-x="1011" d="M71 267q0 78 30.5 135.5t91 95t150.5 55.5t209 18h87v54q0 42 -8.5 73.5t-28 52.5t-52 31t-80.5 10q-63 0 -112.5 -14t-87.5 -31t-63.5 -31t-41.5 -14q-11 0 -19.5 7t-14 20t-8.5 32t-3 42q0 31 5 49t19 32.5t49 32t82 32.5t102.5 24.5t114.5 9.5q105 0 179.5 -20.5 t122.5 -63t70 -109.5t22 -159v-600q0 -14 -10 -22t-31.5 -11.5t-63.5 -3.5q-45 0 -65.5 3.5t-29 11.5t-8.5 22v71q-55 -59 -125.5 -92t-156.5 -33q-71 0 -130.5 18.5t-103 55t-67.5 90.5t-24 126zM317 275q0 -56 35.5 -88t98.5 -32q53 0 97.5 27t90.5 79v152h-96 q-61 0 -104 -9t-70 -27t-39.5 -43.5t-12.5 -58.5z" />
<glyph unicode="b" horiz-adv-x="1099" d="M126 34v1315q0 10 6 18t20.5 13.5t38.5 8.5t61 3t61 -3t38.5 -8.5t20.5 -13.5t6 -18v-493q34 34 68 58t68 39.5t70 22.5t76 7q99 0 168 -39.5t112.5 -106.5t63.5 -156.5t20 -188.5q0 -119 -26 -214t-75 -162t-120.5 -103t-162.5 -36q-45 0 -84 8.5t-74.5 27.5t-70 48 t-70.5 70v-97q0 -11 -5.5 -18.5t-18 -12.5t-33.5 -7t-51 -2q-31 0 -51.5 2t-33 7t-17.5 12.5t-5 18.5zM378 330q53 -68 101.5 -103.5t101.5 -35.5q49 0 83 25t56.5 65t32.5 91t10 102q0 57 -8.5 110t-29.5 94t-54.5 65.5t-84.5 24.5q-25 0 -49 -7t-49.5 -24t-52.5 -44 t-57 -67v-296z" />
<glyph unicode="c" horiz-adv-x="857" d="M72 463q0 134 33.5 231.5t93.5 161.5t142 95t180 31q40 0 78.5 -7t72 -19t60 -27t37.5 -26t15.5 -18.5t7 -19.5t4 -29.5t1.5 -42.5q0 -58 -10 -81.5t-26 -23.5q-17 0 -36 14t-45 31t-62 31t-86 14q-98 0 -150 -75.5t-52 -221.5q0 -72 13 -127t38.5 -92t64 -55.5 t89.5 -18.5q52 0 89.5 15.5t65.5 34.5t47 34.5t32 15.5q9 0 15 -5t9.5 -18.5t5.5 -34.5t2 -54q0 -26 -1.5 -43.5t-4 -29.5t-6 -19.5t-15.5 -19t-41 -28t-66 -29.5t-80.5 -21t-89.5 -8q-103 0 -182.5 32t-133.5 94.5t-81.5 152.5t-27.5 206z" />
<glyph unicode="d" horiz-adv-x="1099" d="M75 468q0 119 25.5 214t74.5 162t122 103t168 36q75 0 136 -30.5t121 -89.5v483q0 10 5.5 18t20 13.5t38.5 8.5t61 3t61 -3t38 -8.5t20 -13.5t6 -18v-1312q0 -11 -5 -18.5t-17 -12.5t-32.5 -7t-50.5 -2q-32 0 -52 2t-32.5 7t-18 12.5t-5.5 18.5v99q-69 -74 -144.5 -115 t-167.5 -41q-102 0 -172.5 39.5t-115 106.5t-64.5 156.5t-20 188.5zM331 485q0 -56 9 -109t29.5 -94.5t54.5 -66.5t86 -25q26 0 50.5 7.5t50 24.5t52.5 44.5t59 67.5v296q-54 68 -103.5 104t-103.5 36q-49 0 -84.5 -24.5t-57 -65.5t-32 -91.5t-10.5 -103.5z" />
<glyph unicode="e" horiz-adv-x="1031" d="M74 470q0 119 31 214.5t90 162t143.5 101.5t190.5 35q112 0 191.5 -33t130.5 -91.5t75 -138.5t24 -174v-40q0 -46 -20.5 -68t-56.5 -22h-543q0 -57 13.5 -103.5t43 -79t76 -49.5t111.5 -17q66 0 116 9.5t86.5 21t60.5 21t39 9.5q9 0 15 -3.5t10 -12.5t5.5 -25.5 t1.5 -41.5q0 -22 -1 -37.5t-3 -26.5t-6 -18.5t-10.5 -14.5t-35.5 -19t-74 -23.5t-103 -20t-124 -8.5q-119 0 -208.5 30t-149.5 91t-89.5 154t-29.5 218zM330 578h376v13q0 97 -42 153q-46 60 -141 61q-48 0 -83.5 -18t-59 -48.5t-36 -72t-14.5 -88.5z" />
<glyph unicode="f" horiz-adv-x="648" d="M25 858q0 29 2.5 49t7 31.5t12 16.5t17.5 5h111v75q0 91 18 159.5t56.5 114t98 68.5t140.5 23q39 0 74 -6.5t55 -14t27 -14t11.5 -19t6.5 -32t2 -48.5t-2 -46.5t-6 -27t-9 -13t-11 -3.5q-7 0 -15.5 3.5t-21 7.5t-29.5 7.5t-40 3.5q-27 0 -46.5 -8.5t-32.5 -27t-19 -48 t-6 -72.5v-82h163q9 0 16.5 -5t12.5 -16.5t7.5 -31.5t2.5 -49q0 -55 -10 -78.5t-29 -23.5h-163v-722q0 -10 -6 -17.5t-20 -12.5t-39 -7.5t-61 -2.5t-60.5 2.5t-39 7.5t-20 12.5t-5.5 17.5v722h-112q-19 0 -28.5 23.5t-9.5 78.5z" />
<glyph unicode="g" horiz-adv-x="971" d="M27 -123q0 33 8.5 63t25 57.5t40.5 52.5t55 48q-43 23 -66.5 62.5t-23.5 86.5q0 59 27 107.5t70 87.5q-35 35 -56 84t-21 122q0 78 27.5 139.5t76.5 104t117 65t150 22.5q42 0 80.5 -5t71.5 -14h283q17 0 27.5 -22t10.5 -74q0 -48 -11 -71t-27 -23h-105 q22 -24 31.5 -54.5t9.5 -63.5q0 -78 -26 -138.5t-74.5 -102t-117 -63t-152.5 -21.5q-43 0 -82 10.5t-60 24.5q-12 -13 -21.5 -31t-9.5 -40q0 -29 25.5 -47.5t71.5 -20.5l217 -8q76 -3 135.5 -21.5t100 -52t62 -80.5t21.5 -107q0 -66 -29 -124.5t-87 -101.5t-145.5 -68 t-204.5 -25q-114 0 -194.5 18t-132 50t-75 76.5t-23.5 97.5zM270 -91q0 -50 50.5 -76t142.5 -26q57 0 96 11.5t63 30.5t34 42.5t10 49.5q0 45 -36 69t-99 26l-179 5q-26 -19 -41.5 -36.5t-25 -33.5t-12.5 -31t-3 -31zM306 649q0 -68 40 -107.5t111 -39.5q38 0 66 12t46.5 33 t28 48.5t9.5 57.5q0 72 -40 112t-113 40q-37 0 -65 -12.5t-46.5 -34t-27.5 -50t-9 -59.5z" />
<glyph unicode="h" horiz-adv-x="1099" d="M126 34v1315q0 10 6 18t20.5 13.5t38.5 8.5t61 3t61 -3t38.5 -8.5t20.5 -13.5t6 -18v-493q65 64 132.5 95.5t140.5 31.5q91 0 153.5 -30t101 -82t55.5 -121.5t17 -168.5v-547q0 -10 -6 -17.5t-20 -12.5t-38.5 -7.5t-60.5 -2.5q-37 0 -61.5 2.5t-38.5 7.5t-20 12.5 t-6 17.5v509q0 65 -9.5 102t-27.5 63.5t-46.5 41t-66.5 14.5q-48 0 -97 -35t-102 -102v-593q0 -10 -6 -17.5t-20.5 -12.5t-38.5 -7.5t-61 -2.5t-61 2.5t-38.5 7.5t-20.5 12.5t-6 17.5z" />
<glyph unicode="i" horiz-adv-x="503" d="M107 1223q0 76 30.5 105.5t115.5 29.5q84 0 114 -28.5t30 -101.5q0 -76 -31 -105t-115 -29q-85 0 -114.5 28t-29.5 101zM126 34v890q0 10 6 17.5t20.5 13t38.5 8.5t61 3t61 -3t38.5 -8.5t20.5 -13t6 -17.5v-890q0 -10 -6 -17.5t-20.5 -12.5t-38.5 -7.5t-61 -2.5t-61 2.5 t-38.5 7.5t-20.5 12.5t-6 17.5z" />
<glyph unicode="j" horiz-adv-x="523" d="M-37 -249q0 28 1.5 46.5t5.5 29.5t9 16t13 5q5 0 20.5 -2.5t33.5 -2.5q26 0 45 8t31 25.5t18 45t6 87.5v915q0 10 6 17.5t20 13t38 8.5t61 3t61 -3t38.5 -8.5t20.5 -13t6 -17.5v-920q0 -105 -18 -170t-54.5 -109.5t-91.5 -67t-129 -22.5q-41 0 -70 5.5t-42 11.5t-18 15 t-7 20.5t-3 26t-1 37.5zM126 1223q0 76 31 105.5t115 29.5q85 0 114.5 -28.5t29.5 -101.5q0 -76 -30.5 -105t-115.5 -29q-84 0 -114 28t-30 101z" />
<glyph unicode="k" horiz-adv-x="983" d="M126 34v1315q0 10 6 18t20.5 13.5t38.5 8.5t61 3t61 -3t38.5 -8.5t20.5 -13.5t6 -18v-783l264 355q8 12 18 21t26.5 14t41 7.5t62.5 2.5q37 0 62.5 -2.5t41 -7.5t21.5 -12.5t6 -18.5q0 -15 -7.5 -32t-22.5 -36l-261 -296l302 -467q12 -20 17.5 -34.5t5.5 -26.5 q0 -10 -5.5 -17.5t-20 -12t-39.5 -7t-65 -2.5q-41 0 -66.5 2t-42 6.5t-25.5 12.5t-16 21l-297 470v-472q0 -10 -6 -17.5t-20.5 -12.5t-38.5 -7.5t-61 -2.5t-61 2.5t-38.5 7.5t-20.5 12.5t-6 17.5z" />
<glyph unicode="l" horiz-adv-x="503" d="M126 34v1315q0 10 6 18t20.5 13.5t38.5 8.5t61 3t61 -3t38.5 -8.5t20.5 -13.5t6 -18v-1315q0 -10 -6 -17.5t-20.5 -12.5t-38.5 -7.5t-61 -2.5t-61 2.5t-38.5 7.5t-20.5 12.5t-6 17.5z" />
<glyph unicode="m" horiz-adv-x="1666" d="M126 34v892q0 10 5 17.5t18 12.5t33.5 7.5t51.5 2.5q32 0 53 -2.5t32.5 -7.5t16.5 -12.5t5 -17.5v-103q74 80 147.5 120t153.5 40q55 0 99 -11.5t78.5 -33t59.5 -51.5t42 -67q40 43 78.5 74t76 50.5t75 29t76.5 9.5q89 0 150 -30t98.5 -81.5t53.5 -120.5t16 -146v-571 q0 -10 -6 -17.5t-20 -12.5t-38 -7.5t-61 -2.5q-38 0 -62 2.5t-38.5 7.5t-20 12.5t-5.5 17.5v529q0 45 -8.5 82t-26 63.5t-44 41t-63.5 14.5q-45 0 -91 -35t-100 -102v-593q0 -10 -6 -17.5t-20.5 -12.5t-38.5 -7.5t-60 -2.5q-37 0 -61 2.5t-38.5 7.5t-20.5 12.5t-6 17.5v529 q0 45 -8.5 82t-25.5 63.5t-44 41t-63 14.5q-46 0 -92 -35t-99 -102v-593q0 -10 -6 -17.5t-20.5 -12.5t-38.5 -7.5t-61 -2.5t-61 2.5t-38.5 7.5t-20.5 12.5t-6 17.5z" />
<glyph unicode="n" horiz-adv-x="1099" d="M126 34v892q0 10 5 17.5t18 12.5t33.5 7.5t51.5 2.5q32 0 53 -2.5t32.5 -7.5t16.5 -12.5t5 -17.5v-103q74 80 150.5 120t159.5 40q91 0 153.5 -30t101 -81.5t55.5 -120.5t17 -166v-551q0 -10 -6 -17.5t-20 -12.5t-38.5 -7.5t-60.5 -2.5q-37 0 -61.5 2.5t-38.5 7.5 t-20 12.5t-6 17.5v509q0 65 -9.5 102t-27.5 63.5t-46.5 41t-66.5 14.5q-48 0 -97 -35t-102 -102v-593q0 -10 -6 -17.5t-20.5 -12.5t-38.5 -7.5t-61 -2.5t-61 2.5t-38.5 7.5t-20.5 12.5t-6 17.5z" />
<glyph unicode="o" horiz-adv-x="1101" d="M72 471q0 114 30.5 208.5t91.5 162t152.5 104.5t214.5 37q120 0 208 -32.5t145.5 -95.5t85.5 -155t28 -211q0 -114 -30 -208t-91 -162t-153 -105t-215 -37q-119 0 -207 33t-146 96t-86 155t-28 210zM331 482q0 -66 11 -121.5t35.5 -96.5t66.5 -63.5t104 -22.5 q57 0 99 20.5t69 59.5t40 94.5t13 126.5q0 66 -10.5 121.5t-35.5 96.5t-66.5 64t-104.5 23q-56 0 -98 -20.5t-69 -60t-40.5 -95t-13.5 -126.5z" />
<glyph unicode="p" horiz-adv-x="1099" d="M126 -320v1246q0 10 5 17.5t17.5 12.5t33 7.5t51.5 2.5q30 0 50.5 -2.5t33 -7.5t17.5 -12.5t5 -17.5v-105q39 40 76.5 70.5t76.5 51t80.5 30.5t88.5 10q98 0 167 -38.5t112.5 -105.5t63.5 -156t20 -190q0 -119 -25.5 -214.5t-74.5 -162.5t-122 -103t-167 -36 q-39 0 -71.5 7.5t-63 23t-60.5 38.5t-62 54v-420q0 -10 -6 -18t-20.5 -13.5t-38.5 -8.5t-61 -3t-61 3t-38.5 8.5t-20.5 13.5t-6 18zM378 331q53 -67 101 -103.5t100 -36.5q49 0 83.5 25t56.5 65.5t32.5 91.5t10.5 102q0 57 -8.5 109.5t-29 93.5t-54 65.5t-83.5 24.5 q-25 0 -49.5 -7.5t-50 -24.5t-52.5 -44t-57 -67v-294z" />
<glyph unicode="q" horiz-adv-x="1099" d="M75 468q0 119 26 214t76 162t123 103t169 36q37 0 71 -7.5t68 -26t70.5 -48t80.5 -72.5v97q0 10 5.5 17.5t18 12.5t32.5 7.5t52 2.5q30 0 50.5 -2.5t32.5 -7.5t17 -12.5t5 -17.5v-1246q0 -10 -6 -18t-20 -13.5t-38 -8.5t-61 -3t-61 3t-38.5 8.5t-20 13.5t-5.5 18v424 q-36 -33 -70 -57.5t-68 -40t-70 -22.5t-76 -7q-98 0 -167 39.5t-112.5 106.5t-63.5 156.5t-20 188.5zM331 485q0 -56 9 -109.5t29.5 -94.5t54.5 -66t86 -25q26 0 50.5 7.5t50 24.5t52.5 44.5t59 67.5v296q-54 68 -103.5 104t-103.5 36q-49 0 -84.5 -24.5t-57 -65.5 t-32 -91.5t-10.5 -103.5z" />
<glyph unicode="r" horiz-adv-x="728" d="M126 34v892q0 10 5 17.5t18 12.5t33.5 7.5t51.5 2.5q32 0 53 -2.5t32.5 -7.5t16.5 -12.5t5 -17.5v-111q35 50 66 82.5t59 51.5t56 26.5t56 7.5q13 0 28 -1.5t31 -5t28 -8t17.5 -9.5t8 -11t4.5 -16.5t3 -31.5t1 -57t-2 -59t-6 -36t-10.5 -18t-16.5 -5q-8 0 -18 3.5 t-22.5 7.5t-27.5 7.5t-33 3.5q-21 0 -42 -8.5t-43.5 -26.5t-47 -48t-52.5 -74v-556q0 -10 -6 -17.5t-20.5 -12.5t-38.5 -7.5t-61 -2.5t-61 2.5t-38.5 7.5t-20.5 12.5t-6 17.5z" />
<glyph unicode="s" horiz-adv-x="817" d="M73 149q0 29 2 46.5t6 28t10 14t15 3.5q11 0 32.5 -12.5t53.5 -27.5t74.5 -28t96.5 -13q34 0 60.5 7t46 20t29.5 33t10 46q0 30 -18.5 51.5t-49 37.5t-69 30t-79 31t-79 39t-69 54t-49 77t-18.5 108q0 64 25 117.5t72 91.5t114.5 59t151.5 21q42 0 81.5 -6t71.5 -15 t54 -19.5t31.5 -18t13.5 -15t6 -18t3.5 -26t1.5 -38.5q0 -27 -1.5 -44t-5 -27t-9.5 -13.5t-14 -3.5q-9 0 -28 10.5t-47.5 22.5t-66 22.5t-85.5 10.5q-34 0 -59 -7t-41 -20t-24 -30.5t-8 -37.5q0 -31 19 -52t50 -37t70.5 -30t80 -30.5t80 -38.5t70.5 -54t50 -76.5t19 -105.5 q0 -76 -28.5 -134t-80.5 -97t-123 -58.5t-154 -19.5q-50 0 -95.5 7.5t-81.5 19t-60 23.5t-35 22.5t-17 33t-6 66.5z" />
<glyph unicode="t" horiz-adv-x="710" d="M23 858q0 29 2.5 49t7.5 31.5t12.5 16.5t17.5 5h106v199q0 10 5.5 18t20 13.5t39 8t60.5 2.5q37 0 61.5 -2.5t38.5 -8t20 -13.5t6 -18v-199h194q10 0 17.5 -5t12.5 -16.5t7.5 -31.5t2.5 -49q0 -55 -10 -78.5t-29 -23.5h-195v-419q0 -73 23 -109.5t82 -36.5q20 0 36 3.5 t28.5 8t21 8t15.5 3.5q6 0 11.5 -3.5t8.5 -14t5.5 -28.5t2.5 -46q0 -44 -5.5 -67.5t-14.5 -33t-26.5 -17t-41 -13t-51 -8.5t-55.5 -3q-75 0 -130 19t-91 58.5t-53 99.5t-17 142v457h-107q-19 0 -29 23.5t-10 78.5z" />
<glyph unicode="u" horiz-adv-x="1099" d="M121 380v546q0 10 5.5 17.5t20 12.5t39 7.5t60.5 2.5q37 0 61 -2.5t38.5 -7.5t20.5 -12.5t6 -17.5v-504q0 -70 9 -107t27.5 -63.5t47 -41t66.5 -14.5q48 0 96.5 35t103.5 102v593q0 10 5.5 17.5t20 12.5t38.5 7.5t61 2.5t61 -2.5t38 -7.5t20 -12.5t6 -17.5v-892 q0 -10 -5 -17.5t-17.5 -12.5t-33 -7.5t-51.5 -2.5q-33 0 -53.5 2.5t-32.5 7.5t-17 12.5t-5 17.5v103q-74 -80 -150.5 -120t-158.5 -40q-92 0 -154.5 30t-101 82t-55 120.5t-16.5 170.5z" />
<glyph unicode="v" horiz-adv-x="969" d="M22 927q0 10 5.5 17.5t19.5 12.5t38.5 7t61.5 2q41 0 66 -2.5t39.5 -7t20.5 -13t10 -20.5l203 -655l6 -25l6 25l200 655q3 12 9.5 20.5t20.5 13t37.5 7t61.5 2.5q37 0 60.5 -2t36.5 -7t18 -12.5t5 -17.5q0 -5 -0.5 -12t-2 -15.5t-4 -19.5t-6.5 -25l-268 -807 q-5 -17 -13.5 -27.5t-28 -16.5t-53 -8t-87.5 -2q-53 0 -86.5 2.5t-52.5 8.5t-27.5 16.5t-13.5 26.5l-268 807q-6 20 -9.5 36t-4 23t-0.5 13z" />
<glyph unicode="w" horiz-adv-x="1526" d="M35 928q0 10 5.5 17.5t20 12t39 6.5t61.5 2q40 0 65 -2t39 -7t19.5 -13.5t8.5 -20.5l177 -655l2 -12l2 12l166 655q3 12 9.5 20.5t19.5 13.5t36.5 7t60.5 2t60 -2.5t36.5 -7t19 -12t8.5 -17.5l178 -660l3 -11l2 12l170 655q2 12 8 20.5t20 13.5t38 7t61 2t60.5 -2 t37 -6.5t18.5 -12t5 -17.5q0 -11 -3 -27t-11 -46l-238 -807q-5 -17 -13 -27.5t-24.5 -16.5t-47 -8t-79.5 -2t-80 2.5t-48.5 8.5t-25.5 16.5t-12 26.5l-150 542l-2 9l-2 -9l-138 -542q-4 -17 -11.5 -27.5t-25.5 -16.5t-49 -8t-80 -2q-50 0 -80.5 2.5t-48 8.5t-25.5 16.5 t-12 26.5l-236 807q-9 29 -11.5 45.5t-2.5 27.5z" />
<glyph unicode="x" horiz-adv-x="941" d="M32 25q0 11 9 27l247 439l-228 412q-9 18 -9.5 30.5t12.5 19.5t41.5 10t77.5 3q44 0 70.5 -1.5t41.5 -4.5t22 -9.5t12 -16.5l159 -298l158 298q3 8 9 14t19 10t35.5 6t61.5 2q44 0 70.5 -2t38 -9t11 -19.5t-11.5 -32.5l-222 -405l245 -446q8 -16 8 -27l-1 -1 q0 -11 -14 -18t-43 -9.5t-77 -2.5q-45 0 -72.5 1.5t-43 6t-23 11t-11.5 16.5l-165 317l-165 -317q-4 -10 -11 -16.5t-21.5 -11t-40.5 -6t-68 -1.5q-44 0 -70 2.5t-38 9.5q-13 7 -13 19z" />
<glyph unicode="y" horiz-adv-x="970" d="M22 918.5q0 18.5 12 29t40.5 14.5t75.5 4q43 0 68 -1.5t39 -7.5t21 -18.5t14 -35.5l210 -597h3l192 609q6 26 15.5 34.5t31.5 12.5t77 4q43 0 71.5 -4t42 -15t13.5 -29.5t-8 -43.5l-297 -874l-108 -316q-9 -25 -49 -36t-117 -11q-40 0 -64 3.5t-36 11.5t-13 20t6 29 l119 299q-13 6 -23.5 18.5t-15.5 26.5l-307 820q-13 35 -13 53.5z" />
<glyph unicode="z" horiz-adv-x="814" d="M69 77v46q0 18 1.5 32.5t6 28t12 27.5t19.5 31l334 516h-316q-19 0 -30.5 24t-11.5 77q0 29 2.5 48.5t7.5 31t13 16.5t19 5h545q14 0 24 -3t16.5 -11t10 -22t3.5 -35v-49q0 -20 -2 -35.5t-6 -29.5t-11.5 -28t-17.5 -30l-332 -515h352q9 0 17 -4t13.5 -15t8.5 -30.5 t3 -49.5q0 -29 -3 -49.5t-8 -32.5t-13 -16.5t-18 -4.5h-583q-27 0 -41.5 18t-14.5 59z" />
<glyph unicode="{" horiz-adv-x="704" d="M54 570q0 27 2 45.5t6.5 29.5t11 15.5t16.5 6.5q70 10 107 68t37 171v129q0 114 12.5 185.5t44 120t83.5 73t130 24.5q26 0 47 -2.5t43 -7.5q9 -1 16 -6t12 -15t7.5 -27.5t2.5 -42.5q0 -26 -3 -43t-8 -28t-13 -15.5t-16 -4.5l-37 -1q-25 -1 -41.5 -9.5t-27 -30t-15 -58 t-4.5 -113.5v-124q0 -77 -11 -129t-35.5 -94t-63.5 -72.5t-96 -43.5q57 -13 96 -43t63.5 -72.5t35.5 -94.5t11 -128v-168q0 -76 4.5 -112.5t14 -58t24 -30.5t36.5 -10h37q14 -1 24 -5.5t15.5 -15t7.5 -27.5t2 -44q0 -26 -2.5 -42.5t-7.5 -26.5t-12 -15t-15 -7q-23 -6 -44 -8 t-47 -2q-79 0 -131 25t-83 72.5t-43.5 119.5t-12.5 186v172q0 63 -8 100t-25 65.5t-43.5 47.5t-64.5 25q-10 2 -17 7.5t-12 16t-7.5 28.5t-2.5 44z" />
<glyph unicode="|" horiz-adv-x="973" d="M368 -323v1726q0 10 5.5 18t19.5 13.5t36.5 8.5t56.5 3q35 0 57.5 -3t36.5 -8.5t19.5 -13.5t5.5 -18v-1726q0 -10 -5.5 -18t-19.5 -13.5t-36.5 -8t-57.5 -2.5q-34 0 -56.5 2.5t-36.5 8t-19.5 13.5t-5.5 18z" />
<glyph unicode="}" horiz-adv-x="704" d="M105 -238q0 26 3 43t8.5 28t13 15.5t15.5 5.5h38q25 1 41.5 9.5t27 30t15 58.5t4.5 113v125q0 76 11 135t35 109.5t63.5 88t96.5 50.5q-57 13 -96.5 36t-63.5 57t-35 79t-11 122v167q0 76 -4.5 112.5t-13.5 58.5t-24 30.5t-37 9.5l-36 1q-15 0 -25 4.5t-16 14.5t-8 27.5 t-2 44.5q0 25 2.5 42.5t8 27.5t12.5 15t16 6q23 6 44 8t46 2q79 0 131 -24.5t83 -72.5t43.5 -119.5t12.5 -186.5v-172q0 -62 8 -92.5t24.5 -50.5t43.5 -32t65 -19q9 -1 16.5 -6.5t12 -16.5t7.5 -28.5t3 -43.5q0 -28 -2.5 -46t-6.5 -29t-11 -16t-16 -6q-38 -5 -65 -29.5 t-44.5 -61t-26 -81.5t-8.5 -112v-129q0 -114 -12.5 -185.5t-44 -119.5t-83.5 -73t-130 -25q-25 0 -46 2.5t-46 7.5q-8 2 -14.5 7t-11.5 15t-8 26.5t-3 42.5z" />
<glyph unicode="~" d="M57 822v27q0 80 20.5 140t57 99.5t86 58.5t107.5 19q43 0 76 -7.5t59.5 -21t47 -31t40.5 -38.5t36 -40t31 -33t31.5 -22t38.5 -8q24 0 42 10.5t29.5 29.5t17 46t5.5 62q0 17 24 24.5t67 7.5q28 0 46 -2.5t28.5 -8t15 -13.5t3.5 -19v-32q-1 -79 -24 -138t-60 -97.5 t-85.5 -57.5t-101.5 -19q-43 0 -76 8t-59 21.5t-46.5 31.5t-41 39t-36.5 40t-31.5 33t-31.5 21.5t-38 7.5q-25 0 -43 -10.5t-29 -30t-16.5 -46t-5.5 -58.5q0 -19 -22.5 -27t-69.5 -8q-27 0 -45 2.5t-28.5 8t-14.5 13.5t-4 18z" />
<glyph unicode="&#xa1;" horiz-adv-x="667" d="M155 1060q0 41 6.5 69t23 45t43.5 24.5t68 7.5t68.5 -7.5t43.5 -24.5t22.5 -45t6.5 -69q0 -42 -6.5 -70.5t-22.5 -46t-43.5 -25t-68.5 -7.5t-68 7.5t-43.5 25t-23 46t-6.5 70.5zM160 -141l26 908q1 10 6 18t17.5 13.5t34 8.5t52.5 3q32 0 53 -3t33.5 -8.5t17.5 -13.5 t6 -18l26 -908q0 -13 -6 -23t-21.5 -16.5t-42 -9.5t-66.5 -3t-66 3.5t-41.5 10t-22 16t-6.5 22.5z" />
<glyph unicode="&#xa2;" d="M169 627q0 112 24 198t67.5 148.5t104.5 101t135 54.5v137q0 10 4.5 18t16.5 13.5t32 8t50 2.5t50.5 -2.5t32 -8t16.5 -13.5t5 -18v-132q22 -3 46.5 -10t47 -17t41.5 -22t30.5 -23t16 -19.5t7.5 -20t4 -28t1 -38.5q0 -19 -2 -38t-7 -34t-14 -25t-22 -10q-16 0 -33.5 14 t-43 31t-61 31.5t-87.5 14.5q-44 0 -80.5 -16.5t-64 -52.5t-43 -92t-15.5 -136q0 -77 14 -132.5t41.5 -91t67 -52.5t90.5 -17t87 15.5t62 34.5t45 34.5t32 15.5q9 0 15 -9t9 -24.5t4 -37.5t1 -48q0 -43 -4.5 -64.5t-15 -33.5t-28.5 -24t-39.5 -23t-47 -19.5t-54.5 -13.5 v-138q0 -10 -4.5 -17.5t-16.5 -12.5t-32 -7.5t-50 -2.5t-50 2.5t-32 7.5t-16.5 12.5t-4.5 17.5v134q-163 26 -247.5 148t-84.5 330z" />
<glyph unicode="&#xa3;" horiz-adv-x="1038" d="M76 101q0 29 2.5 48.5t8 31.5t13 17t16.5 5h106v356h-106q-9 0 -16 4.5t-12.5 16t-8.5 30.5t-3 48q0 28 2.5 47t8 30.5t13 16.5t16.5 5h106v92q0 122 27 210.5t79 145.5t129 83.5t177 26.5q44 0 84.5 -6.5t74.5 -18t61.5 -27t40 -28.5t18 -21.5t8.5 -21t4.5 -30.5 t1.5 -44q0 -28 -2.5 -47t-7.5 -30.5t-12 -16.5t-15 -5q-14 0 -31.5 14t-44 30.5t-62.5 30.5t-86 14t-85 -16.5t-57 -48t-32 -78t-10 -106.5v-102h269q9 0 16.5 -5t12.5 -16.5t8 -30.5t3 -47q0 -29 -3 -48t-8.5 -30.5t-12.5 -16t-16 -4.5h-269v-356h436q9 0 16.5 -5t12.5 -17 t8 -31.5t3 -48.5q0 -28 -3 -47.5t-8.5 -31.5t-12.5 -17t-16 -5h-802q-9 0 -16 5t-12.5 17t-8.5 31.5t-3 47.5z" />
<glyph unicode="&#xa4;" d="M38 1107.5q-5 17.5 4.5 27.5t35 14t69.5 4q38 0 61.5 -2t38 -5.5t21.5 -10.5t12 -17l86 -160q29 13 68 21t84 8q42 0 76.5 -6.5t62.5 -20.5l85 159q4 11 11 18t21.5 11t38 5.5t62.5 1.5q44 0 69.5 -4t35 -14t4 -27.5t-21.5 -44.5l-132 -207q37 -47 58.5 -116t21.5 -156 t-24.5 -157t-68.5 -121l135 -206q16 -27 21 -45t-4.5 -28t-35 -14t-69.5 -4q-38 0 -61.5 1.5t-38 5.5t-21.5 11t-12 17l-85 160q-29 -13 -65.5 -21t-81.5 -8q-40 0 -73.5 5.5t-57.5 16.5l-85 -159q-5 -11 -12 -18t-21.5 -10.5t-38 -5t-61.5 -1.5q-44 0 -69.5 3.5t-35.5 13.5 t-5 27.5t22 44.5l131 201q-42 49 -64.5 116.5t-22.5 157.5q0 92 24 163.5t65 120.5l-135 210q-17 27 -22 44.5zM331 589q0 -59 11.5 -102t34 -72t57 -43.5t79.5 -14.5q44 0 76.5 17t53.5 45.5t31.5 68.5t10.5 86q0 52 -10 95t-32 73.5t-56 48t-82 17.5q-44 0 -76.5 -17 t-54 -47t-32.5 -69.5t-11 -85.5z" />
<glyph unicode="&#xa5;" horiz-adv-x="1038" d="M36.5 1252q-7.5 21 2.5 32t40 13.5t84 2.5q43 0 70 -1.5t43 -5.5t24.5 -12t14.5 -22l110 -208q29 -56 54.5 -111.5t48.5 -109.5q24 54 49 109t55 112l110 208q7 14 14 22.5t21.5 12t40.5 5t70 1.5q48 0 75.5 -2.5t36.5 -12.5t1 -31.5t-29 -57.5l-321 -554v-36h250 q14 0 23 -19t9 -65q0 -49 -9.5 -69t-22.5 -20h-250v-125h250q14 0 23 -19.5t9 -66.5q0 -48 -9.5 -68t-22.5 -20h-250v-102q0 -10 -6.5 -17.5t-21.5 -12t-40.5 -6.5t-63.5 -2t-63.5 2t-40.5 6.5t-21.5 12t-6.5 17.5v102h-249q-14 0 -23.5 20t-9.5 68q0 47 9.5 66.5t23.5 19.5 h249v125h-249q-14 0 -23.5 20t-9.5 69q0 46 9.5 65t23.5 19h249v36l-322 554q-21 35 -28.5 56z" />
<glyph unicode="&#xa6;" d="M391 309q0 10 5.5 17.5t19 13.5t36.5 8.5t57 2.5t57 -2.5t36.5 -8.5t19 -13.5t5.5 -17.5v-648q0 -10 -5.5 -18t-19 -13t-36.5 -8t-57 -3t-57 3t-36.5 8t-19 13t-5.5 18v648zM391 771v643q0 10 5.5 18t19 13t36.5 8t57 3t57 -3t36.5 -8t19 -13t5.5 -18v-643 q0 -10 -5.5 -18t-19 -13.5t-36.5 -8.5t-57 -3t-57 3t-36.5 8.5t-19 13.5t-5.5 18z" />
<glyph unicode="&#xa7;" d="M86 585q0 43 13 83.5t36 76t55.5 65t71.5 50.5q-39 38 -59 87.5t-20 117.5q0 69 26.5 123t75 91t114.5 56.5t145 19.5q43 0 83 -6.5t72 -16t54.5 -20.5t29.5 -17t10.5 -12t6 -17t4 -27.5t1.5 -40.5q0 -27 -1.5 -44t-5.5 -27t-9.5 -14t-13.5 -4q-11 0 -28.5 10.5t-44.5 23 t-64.5 23.5t-87.5 11q-34 0 -58 -8.5t-39 -22t-21.5 -30.5t-6.5 -35q0 -26 8 -46.5t26.5 -38.5t49.5 -34.5t76 -35.5l87 -35q65 -26 114 -55.5t83 -67.5t51 -86t17 -111q0 -45 -12.5 -85.5t-35.5 -76t-54.5 -64.5t-70.5 -51q40 -38 60 -85.5t20 -107.5q0 -76 -28.5 -134 t-80.5 -97t-122.5 -58.5t-153.5 -19.5q-56 0 -103 9.5t-83 21.5t-58.5 25t-29 19t-10 12.5t-5.5 17.5t-3.5 26t-1.5 37q0 29 2 47t6 28.5t10 14t15 3.5q14 0 34.5 -12.5t51 -28t73 -28t99.5 -12.5q33 0 59.5 6.5t45 20.5t28.5 33.5t10 46.5q0 25 -8 44.5t-26.5 36.5 t-49.5 33.5t-76 34.5l-88 35q-64 26 -113.5 56t-83 67.5t-51 86t-17.5 112.5zM328 606q0 -25 7.5 -46t23.5 -38.5t40.5 -32t59.5 -28.5l78 -31q18 -7 33 -14.5t28 -15.5q50 23 73.5 64t23.5 84q0 53 -31 86t-99 59l-78 33q-18 7 -33.5 14t-28.5 14q-50 -22 -73.5 -62.5 t-23.5 -85.5z" />
<glyph unicode="&#xa8;" horiz-adv-x="849" d="M0 960zM102 1222q0 72 27 99t100 27q76 0 101.5 -26.5t25.5 -94.5q0 -70 -26.5 -97.5t-100.5 -27.5q-75 0 -101 26.5t-26 93.5zM493 1222q0 72 26.5 99t100.5 27q75 0 101 -26.5t26 -94.5q0 -70 -26.5 -97.5t-101.5 -27.5q-74 0 -100 26.5t-26 93.5z" />
<glyph unicode="&#xa9;" horiz-adv-x="1709" d="M158 665q0 187 47 325t137 229t220.5 136t297.5 45q171 0 300 -44.5t216.5 -131t131.5 -215.5t44 -298q0 -186 -47 -324t-137 -229t-220.5 -136t-299.5 -45q-171 0 -300 43.5t-216 130t-130.5 215.5t-43.5 299zM339 678q0 -138 29 -240.5t91.5 -169.5t161 -100t237.5 -33 q147 0 245.5 43t157.5 118.5t84 178.5t25 222q0 131 -26.5 232.5t-87.5 171t-160.5 105.5t-244.5 36q-134 0 -230.5 -37t-159 -108.5t-92.5 -176.5t-30 -242zM495 674q0 115 29 199t80.5 138.5t122.5 81t155 26.5q37 0 71 -6t63 -16t52 -23.5t33.5 -24t14.5 -17t6.5 -16.5 t3.5 -24t1 -33q0 -16 -2 -32t-6 -29t-11.5 -21t-19.5 -8q-14 0 -29.5 12.5t-37 27t-52 26.5t-76.5 12q-86 0 -132.5 -65.5t-46.5 -192.5q0 -65 10.5 -113.5t33.5 -81t58 -48.5t84 -16q43 0 74.5 13.5t55 30t40 30t29.5 13.5q6 0 10.5 -4t7.5 -14.5t4.5 -28t1.5 -45.5 q0 -22 -1 -37.5t-3 -26t-5.5 -17t-12.5 -15.5t-31.5 -23t-53.5 -26t-69.5 -19.5t-81.5 -7.5q-90 0 -159 27.5t-116 81.5t-71 132.5t-24 179.5z" />
<glyph unicode="&#xaa;" horiz-adv-x="852" d="M102 816q0 55 21 95.5t64 66.5t108 38.5t155 12.5h65v31q0 24 -5 42t-18.5 30t-35.5 18.5t-57 6.5q-43 0 -76.5 -9.5t-58 -20t-41.5 -19.5t-28 -9q-21 0 -32 23t-11 67q0 15 2 26.5t6 20t12.5 15t40.5 20.5t89 28t127 14q77 0 132.5 -14.5t91 -45.5t52 -78.5t16.5 -111.5 v-415q0 -7 -3.5 -12.5t-13 -9t-26 -5.5t-41.5 -2q-27 0 -44.5 2t-27 6t-13 9.5t-3.5 13.5v41h-3q-34 -38 -85 -60.5t-116 -22.5q-57 0 -102 13t-76.5 39t-48 65t-16.5 91zM110 411q0 48 9.5 67.5t31.5 19.5h538q22 0 31.5 -19t9.5 -68q0 -46 -9.5 -65.5t-31.5 -19.5h-538 q-22 0 -31.5 19.5t-9.5 65.5zM308 824q0 -37 24 -56.5t65 -19.5q18 0 33.5 4t29.5 12t27.5 20.5t27.5 28.5v99h-58q-42 0 -70 -5.5t-46 -17t-25.5 -28t-7.5 -37.5z" />
<glyph unicode="&#xab;" horiz-adv-x="1103" d="M89.5 528q0.5 22 16.5 47l213 347q6 9 12.5 15.5t18.5 10t30.5 5.5t48.5 2q36 0 58.5 -3.5t33 -11t11.5 -17.5t-6 -23l-195 -375l200 -383q7 -13 6.5 -23.5t-11 -17.5t-32.5 -11t-59 -4q-29 0 -47.5 2t-30.5 5.5t-19 10t-12 15.5l-224 365q-13 22 -12.5 44zM502.5 526.5 q0.5 21.5 16.5 47.5l206 328q5 8 12 14.5t18.5 10t29.5 5t47 1.5q36 0 58.5 -3.5t33.5 -10t11.5 -16t-5.5 -22.5l-190 -355l203 -369q6 -12 5 -20.5t-11.5 -14.5t-33 -9t-58.5 -3q-29 0 -47.5 1t-30.5 4.5t-18.5 8.5t-11.5 14l-222 346q-13 21 -12.5 42.5z" />
<glyph unicode="&#xac;" d="M47 588q0 27 3 45t8.5 29.5t13 16.5t16.5 5h760q43 0 64.5 -20t21.5 -68v-319q0 -10 -5 -18.5t-17 -14t-31 -8.5t-48 -3t-48.5 3t-31 8.5t-17 14t-5.5 18.5v214h-645q-10 0 -17 4.5t-12 16t-7.5 30.5t-2.5 46z" />
<glyph unicode="&#xae;" horiz-adv-x="1038" d="M105 1014q0 86 32.5 160t88.5 129t132 86.5t163 31.5q90 0 165.5 -30.5t130.5 -84t85.5 -128t30.5 -162.5q0 -86 -32.5 -160.5t-88.5 -129.5t-132 -86.5t-163 -31.5q-89 0 -164.5 30.5t-130.5 84t-86 128t-31 163.5zM223 1018q0 -67 22 -123.5t61.5 -97.5t93 -63.5 t118.5 -22.5q67 0 122 23.5t93.5 64.5t60 95.5t21.5 117.5q0 67 -22 123t-61 97t-93.5 63.5t-118.5 22.5q-67 0 -121.5 -23.5t-93.5 -64.5t-60.5 -95.5t-21.5 -116.5zM347 839v342q0 27 13 42t41 15h128q35 0 66.5 -6t55 -20t37.5 -37.5t14 -57.5q0 -45 -25.5 -73t-68.5 -39 q26 -7 46 -25t33 -53l20 -59q7 -25 7 -34q0 -5 -2.5 -8.5t-10.5 -5.5t-21.5 -3t-35.5 -1t-35 1.5t-20.5 4.5t-11 8t-5.5 13l-17 66q-10 34 -22.5 45.5t-36.5 11.5h-24v-127q0 -13 -11.5 -18t-48.5 -5q-39 0 -52 5t-13 18zM472 1053h36q34 0 47 14t13 35q0 9 -3 17.5 t-9.5 14.5t-18 9.5t-28.5 3.5h-37v-94z" />
<glyph unicode="&#xaf;" horiz-adv-x="799" d="M0 960zM102 1231q0 25 2.5 43t7.5 28.5t13.5 15.5t20.5 5h510q11 0 19 -4.5t12.5 -15.5t7 -28.5t2.5 -43.5t-2.5 -43t-7 -28t-12.5 -15.5t-19 -4.5h-510q-12 0 -20.5 4.5t-13.5 15.5t-7.5 28t-2.5 43z" />
<glyph unicode="&#xb0;" horiz-adv-x="701" d="M0 1294zM74 1117q0 56 21 104t58 83.5t88.5 56.5t112.5 21q62 0 112.5 -19t86 -52.5t55 -80.5t19.5 -103t-20.5 -104t-58 -84t-89 -56.5t-113.5 -20.5t-112 19t-86 52.5t-55 80.5t-19 103zM245 1123q0 -24 8 -45.5t22 -36.5t34 -23.5t43 -8.5q21 0 40.5 8.5t33.5 24 t21.5 36t7.5 43.5q0 24 -8 45.5t-22 36.5t-34 23t-43 8q-21 0 -40.5 -8.5t-33 -23.5t-21.5 -35.5t-8 -43.5z" />
<glyph unicode="&#xb1;" d="M69 756q0 26 3 44.5t8 29.5t12 15.5t16 4.5h302v329q0 10 5 17t16.5 12.5t31 8.5t47.5 3t47 -3t30.5 -8.5t16.5 -12.5t5 -17v-329h303q8 0 15 -4.5t12.5 -15.5t8.5 -29.5t3 -44.5q0 -52 -12 -73.5t-30 -21.5h-300v-328q0 -9 -5 -16.5t-16.5 -12.5t-30.5 -8t-47 -3 t-47.5 3t-31 8t-16.5 12.5t-5 16.5v328h-300q-17 0 -29 21.5t-12 73.5zM84 96q0 28 2.5 46.5t7.5 30t12 16.5t16 5h778q8 0 15 -5t12.5 -16.5t8 -30t2.5 -46.5q0 -27 -3.5 -46t-9 -30t-13 -15.5t-15.5 -4.5h-772q-8 0 -15.5 4.5t-13 15.5t-9 30t-3.5 46z" />
<glyph unicode="&#xb2;" horiz-adv-x="692" d="M62 792q0 24 2.5 40.5t8.5 30.5t16 26t25 28l132 130q35 35 58 63t35.5 52.5t17 46t4.5 41.5q0 38 -24 61t-70 23q-31 0 -57 -9t-46.5 -19.5t-36 -19.5t-24.5 -9q-6 0 -11 4t-8.5 14t-5 26.5t-1.5 43.5q0 29 3.5 45.5t13.5 26.5t33 22.5t55.5 23.5t71.5 18.5t82 7.5 q68 0 118.5 -15.5t84.5 -44t50.5 -68.5t16.5 -87q0 -35 -7 -69.5t-30.5 -76t-68 -92t-119.5 -118.5l-72 -67h298q12 0 21 -18t9 -60t-6.5 -60t-21.5 -18h-486q-17 0 -29 2.5t-19 10.5t-10 23t-3 41z" />
<glyph unicode="&#xb3;" horiz-adv-x="688" d="M56 838q0 31 5.5 45t17.5 14q7 0 21.5 -7t37 -15.5t52.5 -15.5t67 -7q63 0 96.5 23t33.5 68q0 22 -9 40.5t-29 31t-50.5 18.5t-73.5 6h-61q-11 0 -17 3t-10 11.5t-5.5 23t-1.5 36.5q0 21 2 34t5.5 20.5t9.5 10.5t15 3h64q72 0 107 25.5t35 71.5q0 36 -24 57t-76 21 q-33 0 -61.5 -8t-50.5 -19t-37.5 -19t-23.5 -8q-13 0 -18 15t-5 54q0 17 1 29t2.5 19.5t4 12.5t8.5 11t28 18t53 22.5t71.5 18t87.5 7.5q66 0 116 -14.5t82.5 -40.5t48.5 -63t16 -81q0 -71 -36 -120t-111 -67v-2q40 -3 74 -18t57.5 -38.5t36.5 -54t13 -64.5 q0 -64 -26.5 -110.5t-72 -77t-107 -45.5t-131.5 -15q-46 0 -83.5 5.5t-65.5 13.5t-44.5 15.5t-21 12t-8 11t-5.5 16t-3 25.5t-1 41z" />
<glyph unicode="&#xb4;" horiz-adv-x="616" d="M0 960zM102.5 1112q1.5 10 10.5 23l143 229q7 11 17 19t25 12.5t38 6.5t56 2q46 0 72.5 -4t38 -11.5t10.5 -17.5t-10 -21l-194 -232q-8 -10 -16 -16.5t-20.5 -10.5t-31.5 -6t-48 -2q-35 0 -55.5 3t-28.5 9.5t-6.5 16.5z" />
<glyph unicode="&#xb5;" horiz-adv-x="1154" d="M126 -320v1246q0 10 6 17.5t20.5 12.5t38.5 7.5t61 2.5t61 -2.5t38.5 -7.5t20.5 -12.5t6 -17.5v-541q0 -88 38 -138.5t111 -50.5q49 0 97.5 34.5t102.5 101.5v594q0 10 6 17.5t20 12.5t38.5 7.5t61.5 2.5q36 0 60.5 -2.5t38.5 -7.5t20 -12.5t6 -17.5v-616q0 -34 4 -57 t12 -37t22 -20.5t34 -6.5q13 0 22.5 1.5t17 3t13 3t11.5 1.5q7 0 11.5 -3t8 -13t5 -27.5t1.5 -46.5q0 -45 -5.5 -68t-14 -31.5t-22.5 -13.5t-33 -9t-40 -6t-44 -2q-88 0 -145 34.5t-82 113.5q-66 -76 -130 -109t-127 -33q-46 0 -80.5 12t-56.5 39q3 -26 6 -55t6 -59.5 t4.5 -59.5t1.5 -53v-128q0 -10 -6 -18t-20.5 -13.5t-38.5 -8.5t-61 -3t-61 3t-38.5 8.5t-20.5 13.5t-6 18z" />
<glyph unicode="&#xb6;" horiz-adv-x="1224" d="M82 893q0 87 30 160.5t86.5 127t139 83.5t207.5 30h463q29 0 44.5 -17t15.5 -46v-1434q0 -8 -4.5 -14t-15.5 -10.5t-29 -6.5t-46 -2q-27 0 -45.5 2t-29.5 6.5t-15.5 10.5t-4.5 14v1322h-176v-1322q0 -8 -4.5 -14t-15.5 -10.5t-29.5 -6.5t-45.5 -2q-55 0 -75 8.5t-20 24.5 v708q-101 0 -181 25.5t-135.5 75.5t-84.5 122t-29 165z" />
<glyph unicode="&#xb7;" horiz-adv-x="548" d="M125 592q0 93 32.5 125.5t117.5 32.5q83 0 115 -32t32 -120q0 -93 -32.5 -125.5t-116.5 -32.5t-116 32t-32 120z" />
<glyph unicode="&#xb8;" horiz-adv-x="621" d="M102 -266q0 40 7.5 55.5t27.5 15.5h116q29 0 43.5 12.5t14.5 34.5q0 12 -5 27t-12 31l-41 90h202l30 -66q17 -39 25.5 -68t8.5 -56q0 -46 -17 -79t-46 -54t-68 -31.5t-84 -10.5q-43 0 -81 6t-62.5 13t-35 12t-15 13t-6.5 20.5t-2 34.5z" />
<glyph unicode="&#xb9;" horiz-adv-x="517" d="M29 1311q0 19 1 31.5t4 21t8 14.5t14 12l172 104q5 2 11 4t16 3t25.5 1.5t40.5 0.5q29 0 46.5 -1.5t26.5 -4t11 -6t2 -8.5v-746q0 -7 -4.5 -12.5t-15.5 -9t-31 -5t-50 -1.5t-49.5 1.5t-31 5t-16.5 9t-5 12.5v574l-120 -58q-17 -8 -27.5 -9t-16.5 5.5t-8.5 21.5t-2.5 40z " />
<glyph unicode="&#xba;" horiz-adv-x="891" d="M85 958q0 82 22.5 148t67.5 112.5t112.5 71.5t158.5 25q87 0 152.5 -23.5t109 -68.5t66 -110t22.5 -147q0 -81 -23.5 -147.5t-68.5 -113.5t-112 -72t-152 -25q-92 0 -159 22.5t-110.5 67t-64.5 110t-21 150.5zM122 411q0 48 10 67.5t32 19.5h552q22 0 31 -19t9 -68 q0 -46 -9 -65.5t-31 -19.5h-552q-22 0 -32 19.5t-10 65.5zM311 963q0 -43 6 -78t21 -59.5t40 -38t62 -13.5q32 0 56.5 10.5t40.5 32.5t24.5 57t8.5 84q0 42 -6.5 77t-21.5 60t-39.5 39.5t-62.5 14.5q-33 0 -58 -13t-40.5 -36.5t-23 -58t-7.5 -78.5z" />
<glyph unicode="&#xbb;" horiz-adv-x="1103" d="M152 904.5q1 8.5 11.5 14.5t33 9t59.5 3q29 0 47.5 -1t30 -4.5t18 -9t12.5 -13.5l221 -347q13 -20 12.5 -41.5t-16.5 -47.5l-205 -328q-6 -9 -12.5 -15t-18.5 -9.5t-30 -5t-47 -1.5q-37 0 -59 3t-33 9.5t-11.5 16.5t6.5 23l190 355l-203 369q-7 12 -6 20.5zM562.5 922.5 q0.5 10.5 11 17.5t32.5 11t60 4q29 0 47.5 -2t30 -5.5t18.5 -10t12 -15.5l224 -366q13 -21 12.5 -43t-16.5 -48l-213 -346q-6 -9 -12.5 -15.5t-18.5 -10t-30.5 -5.5t-47.5 -2q-37 0 -59 3.5t-33 11t-11.5 17.5t5.5 23l195 375l-200 383q-7 13 -6.5 23.5z" />
<glyph unicode="&#xbc;" horiz-adv-x="1347" d="M56 1125q0 17 0.5 29t3.5 21t8.5 14.5t13.5 10.5l176 99q4 2 9.5 3t14.5 2t25 1.5t41 0.5q30 0 48 -1t27.5 -3.5t12 -5.5t2.5 -7v-622q0 -7 -4 -11.5t-15.5 -8t-31.5 -5t-51 -1.5q-30 0 -50.5 1.5t-32 4.5t-16.5 8t-5 12v462l-120 -56q-18 -7 -29 -9t-17 3.5t-8 19 t-2 38.5zM78.5 0.5q1.5 10.5 12.5 25.5l922 1263q9 11 18 19t23.5 13t34.5 7t49 2q33 0 52.5 -4t28 -12t6.5 -19t-12 -25l-922 -1263q-9 -12 -18.5 -19.5t-23.5 -12.5t-34 -7t-49 -2q-33 0 -52.5 4t-28 12t-7 18.5zM683 193q0 21 1 36t3.5 27t7 22.5t11.5 23.5l208 329 q3 4 12 8.5t25.5 7.5t41.5 4.5t62 1.5q42 0 69 -2t44 -5.5t23.5 -8.5t6.5 -11v-376h64q10 0 18 -15t8 -51q0 -34 -7 -51t-19 -17h-64v-97q0 -6 -4.5 -11t-16.5 -8t-31 -4.5t-48 -1.5q-28 0 -47 1.5t-30 4.5t-16 8t-5 11v97h-277q-10 0 -18 2.5t-12.5 10t-7 23t-2.5 41.5z M837 250h163v254h-2z" />
<glyph unicode="&#xbd;" horiz-adv-x="1415" d="M56 1125q0 17 0.5 29t3.5 21t8.5 14.5t13.5 10.5l176 99q4 2 9.5 3t14.5 2t25 1.5t41 0.5q30 0 48 -1t27.5 -3.5t12 -5.5t2.5 -7v-622q0 -7 -4 -11.5t-15.5 -8t-31.5 -5t-51 -1.5q-30 0 -50.5 1.5t-32 4.5t-16.5 8t-5 12v462l-120 -56q-18 -7 -29 -9t-17 3.5t-8 19 t-2 38.5zM78.5 0.5q1.5 10.5 12.5 25.5l922 1263q9 11 18 19t23.5 13t34.5 7t49 2q33 0 52.5 -4t28 -12t6.5 -19t-12 -25l-922 -1263q-9 -12 -18.5 -19.5t-23.5 -12.5t-34 -7t-49 -2q-33 0 -52.5 4t-28 12t-7 18.5zM813 81q0 18 1.5 31t6 23.5t13 21t22.5 23.5l126 110 q29 27 48.5 47t31.5 37.5t17.5 34.5t5.5 36q0 29 -22 48t-58 19q-30 0 -54 -7t-43.5 -16t-33.5 -16.5t-23 -7.5q-5 0 -9.5 3.5t-7.5 12.5t-5 24.5t-2 38.5q0 27 3.5 39.5t11 20.5t28.5 18.5t50.5 20t68 15.5t82.5 6q63 0 109.5 -13.5t77 -38t45.5 -59.5t15 -77q0 -31 -8 -61 t-29 -62.5t-57 -68.5t-91 -77l-81 -64h262q15 0 22.5 -18t7.5 -55q0 -38 -6.5 -54t-18.5 -16h-445q-18 0 -30 2t-19 10.5t-9.5 25t-2.5 43.5z" />
<glyph unicode="&#xbe;" horiz-adv-x="1437" d="M59 755q0 32 5.5 42t15.5 10q9 0 22.5 -6.5t34 -14.5t49.5 -14.5t71 -6.5q31 0 53 6t35.5 15.5t20 22.5t6.5 28q0 18 -7 32.5t-24 24.5t-44.5 15t-68.5 5h-63q-10 0 -16.5 2.5t-10 9.5t-5 19.5t-1.5 31.5t1.5 31t5 18.5t9.5 8.5t14 2h68q64 0 95 20.5t31 55.5 q0 27 -21 45.5t-71 18.5q-29 0 -55 -7.5t-47.5 -16t-36.5 -16t-23 -7.5q-5 0 -9.5 2.5t-7.5 9.5t-4.5 19t-1.5 31q0 15 0.5 25.5t2 17.5t4.5 11t8.5 9t26.5 15.5t52 19.5t71 15t86 6q61 0 107.5 -11t78 -32.5t47 -53.5t15.5 -72q0 -28 -8.5 -53t-25.5 -45t-42.5 -35 t-59.5 -23q42 -4 73.5 -16.5t52 -32t30.5 -45t10 -53.5q0 -50 -23 -89t-64.5 -65.5t-99.5 -40.5t-128 -14q-41 0 -76.5 4.5t-63.5 11.5t-48 15.5t-29 17.5t-13 27t-4 49zM165.5 0.5q1.5 10.5 12.5 25.5l922 1263q9 11 18 19t23.5 13t34.5 7t49 2q33 0 52.5 -4t28 -12 t6.5 -19t-12 -25l-922 -1263q-9 -12 -18.5 -19.5t-23.5 -12.5t-34 -7t-49 -2q-33 0 -52.5 4t-28 12t-7 18.5zM773 193q0 21 1 36t3.5 27t7 22.5t11.5 23.5l208 329q3 4 12 8.5t25.5 7.5t41.5 4.5t62 1.5q42 0 69 -2t44 -5.5t23.5 -8.5t6.5 -11v-376h64q10 0 18 -15t8 -51 q0 -34 -7 -51t-19 -17h-64v-97q0 -6 -4.5 -11t-16.5 -8t-31 -4.5t-48 -1.5q-28 0 -47 1.5t-30 4.5t-16 8t-5 11v97h-277q-10 0 -18 2.5t-12.5 10t-7 23t-2.5 41.5zM927 250h163v254h-2z" />
<glyph unicode="&#xbf;" horiz-adv-x="949" d="M83 204q0 82 23.5 148t66 114t102 77t131.5 37l8 195q1 18 28.5 27t79.5 9q33 0 55.5 -1.5t35.5 -5.5t19 -11t7 -18l9 -236q1 -32 -3 -52t-14.5 -32t-26.5 -16.5t-38 -4.5h-14q-53 0 -91.5 -17t-63.5 -45t-36.5 -66t-11.5 -81q0 -48 13.5 -88t41 -69t69 -44.5t97.5 -15.5 q51 0 90 10t67 22t46.5 22t28.5 10q7 0 13 -4.5t10 -16.5t6.5 -34t2.5 -56q0 -35 -3 -51t-13 -26t-38 -23.5t-67 -25t-87 -19.5t-100 -8q-118 0 -202 32.5t-137.5 87.5t-78.5 126t-25 150zM379 1061q0 41 6.5 69t23 45t44 24.5t67.5 7.5q42 0 69 -7.5t43.5 -24.5t23 -45 t6.5 -69q0 -42 -6.5 -70.5t-23 -46t-43.5 -25t-69 -7.5q-40 0 -67.5 7.5t-44 25t-23 46t-6.5 70.5z" />
<glyph unicode="&#xc0;" horiz-adv-x="1241" d="M26 44q3 21 15 56l399 1148q6 17 14 27.5t25.5 16t48.5 7t82 1.5q59 0 94 -1.5t54.5 -7t28 -16.5t14.5 -30l400 -1147q12 -36 15 -57t-8 -31.5t-39 -13t-77 -2.5q-51 0 -79.5 1.5t-43.5 6t-21 12.5t-10 21l-87 260h-486l-82 -253q-4 -14 -10.5 -23.5t-21 -15t-41 -7.5 t-69.5 -2q-46 0 -72 3t-36 14.5t-7 32.5zM145 1294zM248.5 1646q-4.5 12 5 21.5t35 15.5t71.5 6q37 0 61.5 -1.5t42 -6.5t30.5 -14t26 -24l180 -204q11 -14 13.5 -24t-6.5 -16.5t-29 -9.5t-54 -3q-31 0 -52 2t-36 6.5t-25.5 11t-20.5 15.5l-222 200q-15 13 -19.5 25z M423 497h367l-183 550h-1z" />
<glyph unicode="&#xc1;" horiz-adv-x="1241" d="M26 44q3 21 15 56l399 1148q6 17 14 27.5t25.5 16t48.5 7t82 1.5q59 0 94 -1.5t54.5 -7t28 -16.5t14.5 -30l400 -1147q12 -36 15 -57t-8 -31.5t-39 -13t-77 -2.5q-51 0 -79.5 1.5t-43.5 6t-21 12.5t-10 21l-87 260h-486l-82 -253q-4 -14 -10.5 -23.5t-21 -15t-41 -7.5 t-69.5 -2q-46 0 -72 3t-36 14.5t-7 32.5zM379 1294zM423 497h367l-183 550h-1zM482 1415q2 10 14 24l180 204q13 15 25.5 24t30 14t42.5 6.5t62 1.5q46 0 71.5 -6t35 -15.5t4.5 -21.5t-19 -25l-222 -200q-10 -9 -20.5 -15.5t-25.5 -11t-36 -6.5t-52 -2q-34 0 -54.5 3 t-29 9.5t-6.5 16.5z" />
<glyph unicode="&#xc2;" horiz-adv-x="1241" d="M26 44q3 21 15 56l399 1148q6 17 14 27.5t25.5 16t48.5 7t82 1.5q59 0 94 -1.5t54.5 -7t28 -16.5t14.5 -30l400 -1147q12 -36 15 -57t-8 -31.5t-39 -13t-77 -2.5q-51 0 -79.5 1.5t-43.5 6t-21 12.5t-10 21l-87 260h-486l-82 -253q-4 -14 -10.5 -23.5t-21 -15t-41 -7.5 t-69.5 -2q-46 0 -72 3t-36 14.5t-7 32.5zM162 1294zM264 1411q2 9 14 23l195 214q11 13 24 21t30.5 12.5t41.5 6t57 1.5q32 0 54 -1t37 -5.5t27 -12.5t25 -22l198 -214q13 -14 15.5 -23.5t-6 -15t-29.5 -7.5t-56 -2q-41 0 -67 1.5t-41.5 5t-24 9.5t-16.5 15l-118 137 l-122 -134q-9 -11 -17.5 -17t-24 -10t-40.5 -5.5t-67 -1.5q-34 0 -54 2.5t-28.5 8t-6.5 14.5zM423 497h367l-183 550h-1z" />
<glyph unicode="&#xc3;" horiz-adv-x="1241" d="M26 44q3 21 15 56l399 1148q6 17 14 27.5t25.5 16t48.5 7t82 1.5q59 0 94 -1.5t54.5 -7t28 -16.5t14.5 -30l400 -1147q12 -36 15 -57t-8 -31.5t-39 -13t-77 -2.5q-51 0 -79.5 1.5t-43.5 6t-21 12.5t-10 21l-87 260h-486l-82 -253q-4 -14 -10.5 -23.5t-21 -15t-41 -7.5 t-69.5 -2q-46 0 -72 3t-36 14.5t-7 32.5zM166 1294zM267 1427q0 57 15 101t43.5 73.5t69 45t91.5 15.5q57 0 96.5 -15.5t70 -34.5t56.5 -34.5t56 -15.5q29 0 46 16.5t17 57.5q0 16 17 21t62 5t60.5 -7.5t15.5 -30.5q0 -115 -56.5 -175t-162.5 -60q-57 0 -96.5 15.5t-70.5 34 t-56.5 34t-55.5 15.5q-34 0 -48.5 -19t-14.5 -54q0 -9 -4.5 -14t-14.5 -7.5t-24.5 -3.5t-35.5 -1q-45 0 -60.5 7.5t-15.5 30.5zM423 497h367l-183 550h-1z" />
<glyph unicode="&#xc4;" horiz-adv-x="1241" d="M26 44q3 21 15 56l399 1148q6 17 14 27.5t25.5 16t48.5 7t82 1.5q59 0 94 -1.5t54.5 -7t28 -16.5t14.5 -30l400 -1147q12 -36 15 -57t-8 -31.5t-39 -13t-77 -2.5q-51 0 -79.5 1.5t-43.5 6t-21 12.5t-10 21l-87 260h-486l-82 -253q-4 -14 -10.5 -23.5t-21 -15t-41 -7.5 t-69.5 -2q-46 0 -72 3t-36 14.5t-7 32.5zM172 1294zM274 1530q0 71 28 98.5t104 27.5q78 0 104.5 -26.5t26.5 -95.5q0 -70 -27.5 -98t-104.5 -28t-104 27t-27 95zM423 497h367l-183 550h-1zM711 1530q0 71 27.5 98.5t104.5 27.5t104 -26.5t27 -95.5q0 -70 -28 -98t-105 -28 t-103.5 27t-26.5 95z" />
<glyph unicode="&#xc5;" horiz-adv-x="1241" d="M26 44q3 21 15 56l399 1148q6 17 14 27.5t25.5 16t48.5 7t82 1.5q59 0 94 -1.5t54.5 -7t28 -16.5t14.5 -30l400 -1147q12 -36 15 -57t-8 -31.5t-39 -13t-77 -2.5q-51 0 -79.5 1.5t-43.5 6t-21 12.5t-10 21l-87 260h-486l-82 -253q-4 -14 -10.5 -23.5t-21 -15t-41 -7.5 t-69.5 -2q-46 0 -72 3t-36 14.5t-7 32.5zM284 1294zM386 1551q0 48 16 85.5t47 63.5t75.5 39.5t102.5 13.5q116 0 175.5 -49.5t59.5 -145.5q0 -48 -16.5 -86t-47 -63.5t-76 -39.5t-103.5 -14q-59 0 -102.5 13t-72.5 38t-43.5 61.5t-14.5 83.5zM423 497h367l-183 550h-1z M539 1556q0 -42 20 -65t67 -23q42 0 62.5 23t20.5 62t-20 63t-67 24q-41 0 -62 -22t-21 -62z" />
<glyph unicode="&#xc6;" horiz-adv-x="1588" d="M-45 29q0 11 5.5 27.5t18.5 43.5l570 1140q8 18 17.5 28.5t28 16.5t49.5 7.5t82 1.5h725q9 0 16.5 -5t12.5 -17.5t7.5 -32t2.5 -49.5q0 -28 -2.5 -47.5t-7.5 -31.5t-12.5 -17.5t-16.5 -5.5h-461v-317h390q10 0 17.5 -5t12.5 -17t7.5 -31.5t2.5 -47.5q0 -29 -2.5 -48.5 t-7.5 -31.5t-12.5 -17t-17.5 -5h-390v-362h466q9 0 16 -5.5t12 -17.5t7.5 -31.5t2.5 -48.5t-2.5 -48.5t-7.5 -31.5t-12 -17.5t-16 -5.5h-649q-33 0 -55 19.5t-22 63.5v198h-390l-118 -240q-6 -14 -14 -23.5t-24 -14.5t-43 -7t-72 -2q-32 0 -54 1t-35.5 5t-19 11t-5.5 18z M421 482h309v606h-5z" />
<glyph unicode="&#xc7;" horiz-adv-x="1084" d="M79 630q0 165 44 293t123 215t189.5 132t243.5 45q54 0 104 -9t92.5 -23.5t76.5 -33.5t47.5 -32.5t18.5 -22.5t8 -23t4.5 -33t1.5 -47q0 -30 -2 -51t-7 -34t-12 -19t-16 -6q-15 0 -38 17.5t-59.5 39t-87 39t-120.5 17.5q-77 0 -137.5 -31.5t-103 -90t-64.5 -141.5 t-22 -187q0 -114 23.5 -197.5t67 -137.5t105 -80.5t138.5 -26.5q67 0 119 16t89 36.5t60.5 36.5t36.5 16q10 0 16 -4t10 -16t6 -33.5t2 -57.5q0 -25 -1.5 -42.5t-4.5 -30t-8 -21.5t-16 -20.5t-42.5 -29.5t-69.5 -33t-76 -23.5t-72 -11.5l23 -50q18 -39 26.5 -68t8.5 -56 q0 -46 -17 -79t-46 -54t-68 -31.5t-84 -10.5q-43 0 -81 6t-62.5 13t-35 12t-15 13t-6.5 20.5t-2 34.5q0 40 7.5 55.5t27.5 15.5h116q29 0 43.5 12.5t14.5 34.5q0 12 -5 27t-12 31l-34 77q-86 11 -167 48.5t-149.5 113t-109 197.5t-40.5 284z" />
<glyph unicode="&#xc8;" horiz-adv-x="999" d="M63 1294zM141 83v1128q0 44 22.5 63.5t55.5 19.5h646q9 0 16 -5t12 -17.5t7.5 -32t2.5 -49.5q0 -28 -2.5 -47.5t-7.5 -31.5t-12 -17.5t-16 -5.5h-462v-316h391q9 0 16.5 -5.5t12.5 -17t7.5 -31t2.5 -47.5q0 -29 -2.5 -48t-7.5 -30.5t-12.5 -16.5t-16.5 -5h-391v-365h466 q9 0 16.5 -5.5t12.5 -17.5t7.5 -31.5t2.5 -48.5t-2.5 -48.5t-7.5 -31.5t-12.5 -17.5t-16.5 -5.5h-650q-33 0 -55.5 19.5t-22.5 63.5zM166.5 1646q-4.5 12 5 21.5t35 15.5t71.5 6q37 0 61.5 -1.5t42 -6.5t30.5 -14t26 -24l180 -204q11 -14 13.5 -24t-6.5 -16.5t-29 -9.5 t-54 -3q-31 0 -52 2t-36 6.5t-25.5 11t-20.5 15.5l-222 200q-15 13 -19.5 25z" />
<glyph unicode="&#xc9;" horiz-adv-x="999" d="M141 83v1128q0 44 22.5 63.5t55.5 19.5h646q9 0 16 -5t12 -17.5t7.5 -32t2.5 -49.5q0 -28 -2.5 -47.5t-7.5 -31.5t-12 -17.5t-16 -5.5h-462v-316h391q9 0 16.5 -5.5t12.5 -17t7.5 -31t2.5 -47.5q0 -29 -2.5 -48t-7.5 -30.5t-12.5 -16.5t-16.5 -5h-391v-365h466 q9 0 16.5 -5.5t12.5 -17.5t7.5 -31.5t2.5 -48.5t-2.5 -48.5t-7.5 -31.5t-12.5 -17.5t-16.5 -5.5h-650q-33 0 -55.5 19.5t-22.5 63.5zM303 1294zM406 1415q2 10 14 24l180 204q13 15 25.5 24t30 14t42.5 6.5t62 1.5q46 0 71.5 -6t35 -15.5t4.5 -21.5t-19 -25l-222 -200 q-10 -9 -20.5 -15.5t-25.5 -11t-36 -6.5t-52 -2q-34 0 -54.5 3t-29 9.5t-6.5 16.5z" />
<glyph unicode="&#xca;" horiz-adv-x="999" d="M63 1294zM141 83v1128q0 44 22.5 63.5t55.5 19.5h646q9 0 16 -5t12 -17.5t7.5 -32t2.5 -49.5q0 -28 -2.5 -47.5t-7.5 -31.5t-12 -17.5t-16 -5.5h-462v-316h391q9 0 16.5 -5.5t12.5 -17t7.5 -31t2.5 -47.5q0 -29 -2.5 -48t-7.5 -30.5t-12.5 -16.5t-16.5 -5h-391v-365h466 q9 0 16.5 -5.5t12.5 -17.5t7.5 -31.5t2.5 -48.5t-2.5 -48.5t-7.5 -31.5t-12.5 -17.5t-16.5 -5.5h-650q-33 0 -55.5 19.5t-22.5 63.5zM165 1411q2 9 14 23l195 214q11 13 24 21t30.5 12.5t41.5 6t57 1.5q32 0 54 -1t37 -5.5t27 -12.5t25 -22l198 -214q13 -14 15.5 -23.5 t-6 -15t-29.5 -7.5t-56 -2q-41 0 -67 1.5t-41.5 5t-24 9.5t-16.5 15l-118 137l-122 -134q-9 -11 -17.5 -17t-24 -10t-40.5 -5.5t-67 -1.5q-34 0 -54 2.5t-28.5 8t-6.5 14.5z" />
<glyph unicode="&#xcb;" horiz-adv-x="999" d="M77 1294zM141 83v1128q0 44 22.5 63.5t55.5 19.5h646q9 0 16 -5t12 -17.5t7.5 -32t2.5 -49.5q0 -28 -2.5 -47.5t-7.5 -31.5t-12 -17.5t-16 -5.5h-462v-316h391q9 0 16.5 -5.5t12.5 -17t7.5 -31t2.5 -47.5q0 -29 -2.5 -48t-7.5 -30.5t-12.5 -16.5t-16.5 -5h-391v-365h466 q9 0 16.5 -5.5t12.5 -17.5t7.5 -31.5t2.5 -48.5t-2.5 -48.5t-7.5 -31.5t-12.5 -17.5t-16.5 -5.5h-650q-33 0 -55.5 19.5t-22.5 63.5zM179 1530q0 71 28 98.5t104 27.5q78 0 104.5 -26.5t26.5 -95.5q0 -70 -27.5 -98t-104.5 -28t-104 27t-27 95zM616 1530q0 71 27.5 98.5 t104.5 27.5t104 -26.5t27 -95.5q0 -70 -28 -98t-105 -28t-103.5 27t-26.5 95z" />
<glyph unicode="&#xcc;" horiz-adv-x="546" d="M-166 1294zM-62.5 1646q-4.5 12 5 21.5t35 15.5t71.5 6q37 0 61.5 -1.5t42 -6.5t30.5 -14t26 -24l180 -204q11 -14 13.5 -24t-6.5 -16.5t-29 -9.5t-54 -3q-31 0 -52 2t-36 6.5t-25.5 11t-20.5 15.5l-222 200q-15 13 -19.5 25zM141 36v1222q0 10 6.5 18t22 13t40.5 8t63 3 q39 0 64 -3t40 -8t21.5 -13t6.5 -18v-1222q0 -10 -6.5 -18t-21.5 -13t-40 -8t-64 -3q-38 0 -63.5 3t-40.5 8t-21.5 13t-6.5 18z" />
<glyph unicode="&#xcd;" horiz-adv-x="546" d="M38 1294zM141 36v1222q0 10 6.5 18t22 13t40.5 8t63 3q39 0 64 -3t40 -8t21.5 -13t6.5 -18v-1222q0 -10 -6.5 -18t-21.5 -13t-40 -8t-64 -3q-38 0 -63.5 3t-40.5 8t-21.5 13t-6.5 18zM141 1415q2 10 14 24l180 204q13 15 25.5 24t30 14t42.5 6.5t62 1.5q46 0 71.5 -6 t35 -15.5t4.5 -21.5t-19 -25l-222 -200q-10 -9 -20.5 -15.5t-25.5 -11t-36 -6.5t-52 -2q-34 0 -54.5 3t-29 9.5t-6.5 16.5z" />
<glyph unicode="&#xce;" horiz-adv-x="546" d="M-188 1294zM-86 1411q2 9 14 23l195 214q11 13 24 21t30.5 12.5t41.5 6t57 1.5q32 0 54 -1t37 -5.5t27 -12.5t25 -22l198 -214q13 -14 15.5 -23.5t-6 -15t-29.5 -7.5t-56 -2q-41 0 -67 1.5t-41.5 5t-24 9.5t-16.5 15l-118 137l-122 -134q-9 -11 -17.5 -17t-24 -10 t-40.5 -5.5t-67 -1.5q-34 0 -54 2.5t-28.5 8t-6.5 14.5zM141 36v1222q0 10 6.5 18t22 13t40.5 8t63 3q39 0 64 -3t40 -8t21.5 -13t6.5 -18v-1222q0 -10 -6.5 -18t-21.5 -13t-40 -8t-64 -3q-38 0 -63.5 3t-40.5 8t-21.5 13t-6.5 18z" />
<glyph unicode="&#xcf;" horiz-adv-x="546" d="M-178 1294zM-76 1530q0 71 28 98.5t104 27.5q78 0 104.5 -26.5t26.5 -95.5q0 -70 -27.5 -98t-104.5 -28t-104 27t-27 95zM141 36v1222q0 10 6.5 18t22 13t40.5 8t63 3q39 0 64 -3t40 -8t21.5 -13t6.5 -18v-1222q0 -10 -6.5 -18t-21.5 -13t-40 -8t-64 -3q-38 0 -63.5 3 t-40.5 8t-21.5 13t-6.5 18zM361 1530q0 71 27.5 98.5t104.5 27.5t104 -26.5t27 -95.5q0 -70 -28 -98t-105 -28t-103.5 27t-26.5 95z" />
<glyph unicode="&#xd0;" horiz-adv-x="1309" d="M15 670q0 29 2.5 48.5t7.5 31t12.5 16.5t16.5 5h106v440q0 44 22 63.5t55 19.5h333q172 0 293 -40.5t203.5 -120t125.5 -196.5t43 -271q0 -178 -46.5 -304.5t-134 -206.5t-212 -117.5t-296.5 -37.5h-309q-33 0 -55 19.5t-22 63.5v485h-106q-9 0 -16.5 4.5t-12.5 16 t-7.5 31.5t-2.5 50zM422 208h137q108 0 181.5 28t123 84.5t74 140.5t24.5 196q0 92 -21.5 171t-68.5 137t-122 90.5t-193 32.5h-135v-317h197q9 0 16.5 -5t12.5 -17t7.5 -31.5t2.5 -47.5q0 -29 -2.5 -48.5t-7.5 -31.5t-12.5 -17t-16.5 -5h-197v-360z" />
<glyph unicode="&#xd1;" horiz-adv-x="1349" d="M141 37v1163q0 47 27.5 70.5t67.5 23.5h141q38 0 64 -6.5t46.5 -21.5t38.5 -41.5t37 -65.5l252 -473q22 -43 43.5 -84.5t41.5 -83t39 -81.5t37 -80h1q-3 70 -4.5 146t-1.5 145v607q0 10 6 18t20 14t37 8.5t59 2.5q34 0 57 -2.5t35.5 -8.5t17.5 -14t5 -18v-1163 q0 -23 -8 -41t-21.5 -30t-32 -17.5t-37.5 -5.5h-112q-35 0 -60.5 7t-47 25.5t-41.5 50t-45 81.5l-322 605q-28 54 -57 116.5t-52 121.5h-2q4 -72 6 -143.5t2 -147.5v-677q0 -10 -5.5 -18t-19 -13.5t-36.5 -8.5t-59 -3q-35 0 -58 3t-36 8.5t-18 13.5t-5 18zM216 1294z M317 1427q0 57 15 101t43.5 73.5t69 45t91.5 15.5q57 0 96.5 -15.5t70 -34.5t56.5 -34.5t56 -15.5q29 0 46 16.5t17 57.5q0 16 17 21t62 5t60.5 -7.5t15.5 -30.5q0 -115 -56.5 -175t-162.5 -60q-57 0 -96.5 15.5t-70.5 34t-56.5 34t-55.5 15.5q-34 0 -48.5 -19t-14.5 -54 q0 -9 -4.5 -14t-14.5 -7.5t-24.5 -3.5t-35.5 -1q-45 0 -60.5 7.5t-15.5 30.5z" />
<glyph unicode="&#xd2;" horiz-adv-x="1385" d="M80 639q0 157 40 282.5t119 213.5t195.5 135t270.5 47q147 0 259.5 -39t188 -120t114 -204.5t38.5 -291.5q0 -161 -40 -288t-119 -215.5t-195.5 -135t-269.5 -46.5q-151 0 -263.5 39.5t-187.5 120.5t-112.5 206t-37.5 296zM241 1294zM344.5 1646q-4.5 12 5 21.5t35 15.5 t71.5 6q37 0 61.5 -1.5t42 -6.5t30.5 -14t26 -24l180 -204q11 -14 13.5 -24t-6.5 -16.5t-29 -9.5t-54 -3q-31 0 -52 2t-36 6.5t-25.5 11t-20.5 15.5l-222 200q-15 13 -19.5 25zM356 652q0 -106 16 -190.5t54 -144.5t102 -91.5t161 -31.5t162 36t105 98t56.5 144.5 t16.5 175.5q0 102 -16 185.5t-54.5 143t-102.5 92t-160 32.5q-97 0 -162 -36.5t-105 -97.5t-56.5 -142.5t-16.5 -172.5z" />
<glyph unicode="&#xd3;" horiz-adv-x="1385" d="M80 639q0 157 40 282.5t119 213.5t195.5 135t270.5 47q147 0 259.5 -39t188 -120t114 -204.5t38.5 -291.5q0 -161 -40 -288t-119 -215.5t-195.5 -135t-269.5 -46.5q-151 0 -263.5 39.5t-187.5 120.5t-112.5 206t-37.5 296zM356 652q0 -106 16 -190.5t54 -144.5t102 -91.5 t161 -31.5t162 36t105 98t56.5 144.5t16.5 175.5q0 102 -16 185.5t-54.5 143t-102.5 92t-160 32.5q-97 0 -162 -36.5t-105 -97.5t-56.5 -142.5t-16.5 -172.5zM461 1294zM564 1415q2 10 14 24l180 204q13 15 25.5 24t30 14t42.5 6.5t62 1.5q46 0 71.5 -6t35 -15.5t4.5 -21.5 t-19 -25l-222 -200q-10 -9 -20.5 -15.5t-25.5 -11t-36 -6.5t-52 -2q-34 0 -54.5 3t-29 9.5t-6.5 16.5z" />
<glyph unicode="&#xd4;" horiz-adv-x="1385" d="M80 639q0 157 40 282.5t119 213.5t195.5 135t270.5 47q147 0 259.5 -39t188 -120t114 -204.5t38.5 -291.5q0 -161 -40 -288t-119 -215.5t-195.5 -135t-269.5 -46.5q-151 0 -263.5 39.5t-187.5 120.5t-112.5 206t-37.5 296zM233 1294zM335 1411q2 9 14 23l195 214 q11 13 24 21t30.5 12.5t41.5 6t57 1.5q32 0 54 -1t37 -5.5t27 -12.5t25 -22l198 -214q13 -14 15.5 -23.5t-6 -15t-29.5 -7.5t-56 -2q-41 0 -67 1.5t-41.5 5t-24 9.5t-16.5 15l-118 137l-122 -134q-9 -11 -17.5 -17t-24 -10t-40.5 -5.5t-67 -1.5q-34 0 -54 2.5t-28.5 8 t-6.5 14.5zM356 652q0 -106 16 -190.5t54 -144.5t102 -91.5t161 -31.5t162 36t105 98t56.5 144.5t16.5 175.5q0 102 -16 185.5t-54.5 143t-102.5 92t-160 32.5q-97 0 -162 -36.5t-105 -97.5t-56.5 -142.5t-16.5 -172.5z" />
<glyph unicode="&#xd5;" horiz-adv-x="1385" d="M80 639q0 157 40 282.5t119 213.5t195.5 135t270.5 47q147 0 259.5 -39t188 -120t114 -204.5t38.5 -291.5q0 -161 -40 -288t-119 -215.5t-195.5 -135t-269.5 -46.5q-151 0 -263.5 39.5t-187.5 120.5t-112.5 206t-37.5 296zM237 1294zM338 1427q0 57 15 101t43.5 73.5 t69 45t91.5 15.5q57 0 96.5 -15.5t70 -34.5t56.5 -34.5t56 -15.5q29 0 46 16.5t17 57.5q0 16 17 21t62 5t60.5 -7.5t15.5 -30.5q0 -115 -56.5 -175t-162.5 -60q-57 0 -96.5 15.5t-70.5 34t-56.5 34t-55.5 15.5q-34 0 -48.5 -19t-14.5 -54q0 -9 -4.5 -14t-14.5 -7.5 t-24.5 -3.5t-35.5 -1q-45 0 -60.5 7.5t-15.5 30.5zM356 652q0 -106 16 -190.5t54 -144.5t102 -91.5t161 -31.5t162 36t105 98t56.5 144.5t16.5 175.5q0 102 -16 185.5t-54.5 143t-102.5 92t-160 32.5q-97 0 -162 -36.5t-105 -97.5t-56.5 -142.5t-16.5 -172.5z" />
<glyph unicode="&#xd6;" horiz-adv-x="1385" d="M80 639q0 157 40 282.5t119 213.5t195.5 135t270.5 47q147 0 259.5 -39t188 -120t114 -204.5t38.5 -291.5q0 -161 -40 -288t-119 -215.5t-195.5 -135t-269.5 -46.5q-151 0 -263.5 39.5t-187.5 120.5t-112.5 206t-37.5 296zM243 1294zM345 1530q0 71 28 98.5t104 27.5 q78 0 104.5 -26.5t26.5 -95.5q0 -70 -27.5 -98t-104.5 -28t-104 27t-27 95zM356 652q0 -106 16 -190.5t54 -144.5t102 -91.5t161 -31.5t162 36t105 98t56.5 144.5t16.5 175.5q0 102 -16 185.5t-54.5 143t-102.5 92t-160 32.5q-97 0 -162 -36.5t-105 -97.5t-56.5 -142.5 t-16.5 -172.5zM782 1530q0 71 27.5 98.5t104.5 27.5t104 -26.5t27 -95.5q0 -70 -28 -98t-105 -28t-103.5 27t-26.5 95z" />
<glyph unicode="&#xd7;" d="M84 271q0 15 12 27l280 279l-277 278q-5 6 -9 14t-4 16q0 19 13.5 39.5t32 38t38.5 29.5t34 12q15 0 27 -13l279 -280l277 277q6 6 13.5 9.5t17.5 3.5q18 0 39 -14t38.5 -32.5t29 -38t11.5 -32.5q0 -6 -2.5 -13.5t-9.5 -13.5l-281 -280l277 -276q7 -7 10 -15t3 -16 q0 -18 -13.5 -39t-32 -38.5t-38.5 -29.5t-33 -12q-8 0 -14.5 3.5t-12.5 8.5l-279 280l-278 -276q-6 -6 -14 -9.5t-17 -3.5q-18 0 -38.5 13.5t-38 32t-29 38.5t-11.5 33z" />
<glyph unicode="&#xd8;" horiz-adv-x="1394" d="M80 639q0 157 40 282.5t119.5 213.5t197 135t272.5 47q52 0 97.5 -6.5t92.5 -19.5l91 188q4 8 12 13.5t21.5 9.5t34 6t48.5 2q36 0 58 -4t33 -11.5t11.5 -17.5t-5.5 -23l-115 -236q55 -39 97.5 -92.5t71 -122.5t43 -154t14.5 -187q0 -161 -40.5 -288t-120 -215.5 t-197 -135t-271.5 -46.5q-53 0 -101.5 6.5t-87.5 18.5l-95 -194q-4 -8 -12 -14t-21.5 -9.5t-33.5 -5.5t-48 -2q-36 0 -58.5 4t-33 11.5t-11.5 17.5t5 23l118 241q-55 38 -97.5 91t-71 122.5t-43 157t-14.5 194.5zM347 651q0 -104 19 -189t63 -145l379 771q-24 10 -50.5 15 t-60.5 5q-101 0 -168 -36.5t-107.5 -99t-57.5 -145.5t-17 -176zM588 207q24 -9 50 -14t59 -5q100 0 167 35.5t108 98.5t58.5 148t17.5 184q0 100 -20 181t-63 142z" />
<glyph unicode="&#xd9;" horiz-adv-x="1337" d="M140 471v787q0 10 6 18t21.5 13t40.5 8t64 3q38 0 63 -3t40 -8t21.5 -13t6.5 -18v-764q0 -77 19 -133.5t54.5 -93.5t85 -55.5t110.5 -18.5q62 0 111 19t83 55.5t52.5 90t18.5 121.5v779q0 10 6 18t21 13t40.5 8t63.5 3t62.5 -3t39.5 -8t21 -13t6 -18v-776 q0 -119 -35 -213t-103 -159t-168 -99t-230 -34q-122 0 -219 30.5t-164 92.5t-102.5 154.5t-35.5 216.5zM205 1294zM308.5 1646q-4.5 12 5 21.5t35 15.5t71.5 6q37 0 61.5 -1.5t42 -6.5t30.5 -14t26 -24l180 -204q11 -14 13.5 -24t-6.5 -16.5t-29 -9.5t-54 -3q-31 0 -52 2 t-36 6.5t-25.5 11t-20.5 15.5l-222 200q-15 13 -19.5 25z" />
<glyph unicode="&#xda;" horiz-adv-x="1337" d="M140 471v787q0 10 6 18t21.5 13t40.5 8t64 3q38 0 63 -3t40 -8t21.5 -13t6.5 -18v-764q0 -77 19 -133.5t54.5 -93.5t85 -55.5t110.5 -18.5q62 0 111 19t83 55.5t52.5 90t18.5 121.5v779q0 10 6 18t21 13t40.5 8t63.5 3t62.5 -3t39.5 -8t21 -13t6 -18v-776 q0 -119 -35 -213t-103 -159t-168 -99t-230 -34q-122 0 -219 30.5t-164 92.5t-102.5 154.5t-35.5 216.5zM444 1294zM547 1415q2 10 14 24l180 204q13 15 25.5 24t30 14t42.5 6.5t62 1.5q46 0 71.5 -6t35 -15.5t4.5 -21.5t-19 -25l-222 -200q-10 -9 -20.5 -15.5t-25.5 -11 t-36 -6.5t-52 -2q-34 0 -54.5 3t-29 9.5t-6.5 16.5z" />
<glyph unicode="&#xdb;" horiz-adv-x="1337" d="M140 471v787q0 10 6 18t21.5 13t40.5 8t64 3q38 0 63 -3t40 -8t21.5 -13t6.5 -18v-764q0 -77 19 -133.5t54.5 -93.5t85 -55.5t110.5 -18.5q62 0 111 19t83 55.5t52.5 90t18.5 121.5v779q0 10 6 18t21 13t40.5 8t63.5 3t62.5 -3t39.5 -8t21 -13t6 -18v-776 q0 -119 -35 -213t-103 -159t-168 -99t-230 -34q-122 0 -219 30.5t-164 92.5t-102.5 154.5t-35.5 216.5zM204 1294zM306 1411q2 9 14 23l195 214q11 13 24 21t30.5 12.5t41.5 6t57 1.5q32 0 54 -1t37 -5.5t27 -12.5t25 -22l198 -214q13 -14 15.5 -23.5t-6 -15t-29.5 -7.5 t-56 -2q-41 0 -67 1.5t-41.5 5t-24 9.5t-16.5 15l-118 137l-122 -134q-9 -11 -17.5 -17t-24 -10t-40.5 -5.5t-67 -1.5q-34 0 -54 2.5t-28.5 8t-6.5 14.5z" />
<glyph unicode="&#xdc;" horiz-adv-x="1337" d="M140 471v787q0 10 6 18t21.5 13t40.5 8t64 3q38 0 63 -3t40 -8t21.5 -13t6.5 -18v-764q0 -77 19 -133.5t54.5 -93.5t85 -55.5t110.5 -18.5q62 0 111 19t83 55.5t52.5 90t18.5 121.5v779q0 10 6 18t21 13t40.5 8t63.5 3t62.5 -3t39.5 -8t21 -13t6 -18v-776 q0 -119 -35 -213t-103 -159t-168 -99t-230 -34q-122 0 -219 30.5t-164 92.5t-102.5 154.5t-35.5 216.5zM215 1294zM317 1530q0 71 28 98.5t104 27.5q78 0 104.5 -26.5t26.5 -95.5q0 -70 -27.5 -98t-104.5 -28t-104 27t-27 95zM754 1530q0 71 27.5 98.5t104.5 27.5t104 -26.5 t27 -95.5q0 -70 -28 -98t-105 -28t-103.5 27t-26.5 95z" />
<glyph unicode="&#xdd;" horiz-adv-x="1064" d="M21.5 1253.5q-5.5 20.5 6 31t42.5 13t86 2.5q46 0 73.5 -2t43.5 -7.5t23.5 -14.5t14.5 -23l144 -318q21 -46 41.5 -97t41.5 -107h2q19 54 39 105t39 97l142 316q5 16 12.5 25.5t22.5 15.5t41 8t69 2q57 0 88.5 -2.5t43 -13t5.5 -31.5t-24 -57l-354 -705v-455 q0 -10 -6.5 -18t-21.5 -13t-40.5 -8t-63.5 -3q-39 0 -64 3t-40.5 8t-21.5 13t-6 18v455l-354 705q-19 37 -24.5 57.5zM342 1294zM445 1415q2 10 14 24l180 204q13 15 25.5 24t30 14t42.5 6.5t62 1.5q46 0 71.5 -6t35 -15.5t4.5 -21.5t-19 -25l-222 -200q-10 -9 -20.5 -15.5 t-25.5 -11t-36 -6.5t-52 -2q-34 0 -54.5 3t-29 9.5t-6.5 16.5z" />
<glyph unicode="&#xde;" horiz-adv-x="1090" d="M141 30v1232q0 10 6 17.5t21 12.5t40.5 7.5t63.5 2.5q39 0 64 -2.5t40 -7.5t21.5 -12.5t6.5 -17.5v-175h131q46 0 88 -3.5t84 -11.5q74 -14 133.5 -45.5t101 -79t63.5 -111t22 -141.5q0 -110 -33.5 -194t-98 -141.5t-157.5 -87.5t-213 -30h-121v-212q0 -10 -6.5 -17.5 t-21.5 -12.5t-40 -7t-64 -2q-38 0 -63.5 2t-40.5 7t-21 12.5t-6 17.5zM404 446h135q54 0 94 17t66 47t39.5 72.5t13.5 92.5q0 76 -33 127t-99 70q-23 8 -48.5 10t-53.5 2h-114v-438z" />
<glyph unicode="&#xdf;" horiz-adv-x="1136" d="M127 42v918q0 104 29 186t85.5 138.5t139 86t189.5 29.5q99 0 175.5 -25t128 -69.5t78 -106t26.5 -135.5q0 -49 -7.5 -95t-22 -82t-27 -46.5t-33.5 -10.5q-37 0 -62 -7.5t-40.5 -20.5t-22.5 -31t-7 -37q0 -40 24.5 -68.5t61 -53.5t79 -51t78.5 -61t60.5 -84t24.5 -120 q0 -66 -24 -124.5t-70.5 -101t-115 -67t-156.5 -24.5q-34 0 -65.5 5t-57 12.5t-44 16t-26.5 16.5t-12.5 27t-4.5 58q0 26 2.5 43.5t7 29t11.5 16t15 4.5q12 0 25 -7t30.5 -15.5t41 -15.5t56.5 -7t58 9t41.5 24t25 36t8.5 44q0 30 -14 52t-36.5 41.5t-52 37.5t-59.5 38 t-59 44.5t-52 56.5t-36.5 73.5t-13.5 96.5q0 49 14 89.5t40.5 72t64.5 53.5t85 33q7 19 9.5 38.5t2.5 42.5q0 30 -9 58t-28.5 49t-50 34.5t-73.5 13.5q-50 0 -85 -16.5t-57 -47t-31.5 -74t-9.5 -96.5v-923q0 -11 -6 -20.5t-20 -15.5t-38.5 -9t-61.5 -3t-61 3t-38.5 9 t-20.5 15.5t-6 20.5z" />
<glyph unicode="&#xe0;" horiz-adv-x="1011" d="M71 267q0 78 30.5 135.5t91 95t150.5 55.5t209 18h87v54q0 42 -8.5 73.5t-28 52.5t-52 31t-80.5 10q-63 0 -112.5 -14t-87.5 -31t-63.5 -31t-41.5 -14q-11 0 -19.5 7t-14 20t-8.5 32t-3 42q0 31 5 49t19 32.5t49 32t82 32.5t102.5 24.5t114.5 9.5q105 0 179.5 -20.5 t122.5 -63t70 -109.5t22 -159v-600q0 -14 -10 -22t-31.5 -11.5t-63.5 -3.5q-45 0 -65.5 3.5t-29 11.5t-8.5 22v71q-55 -59 -125.5 -92t-156.5 -33q-71 0 -130.5 18.5t-103 55t-67.5 90.5t-24 126zM111 960zM213 1371q-1 10 10.5 17.5t38.5 11.5t73 4q33 0 55.5 -2t37.5 -6.5 t24.5 -12.5t17.5 -19l143 -229q9 -13 11 -23t-6.5 -16.5t-28 -9.5t-54.5 -3q-29 0 -48 2t-32 6t-21.5 10.5t-16.5 16.5l-193 232q-10 11 -11 21zM317 275q0 -56 35.5 -88t98.5 -32q53 0 97.5 27t90.5 79v152h-96q-61 0 -104 -9t-70 -27t-39.5 -43.5t-12.5 -58.5z" />
<glyph unicode="&#xe1;" horiz-adv-x="1011" d="M71 267q0 78 30.5 135.5t91 95t150.5 55.5t209 18h87v54q0 42 -8.5 73.5t-28 52.5t-52 31t-80.5 10q-63 0 -112.5 -14t-87.5 -31t-63.5 -31t-41.5 -14q-11 0 -19.5 7t-14 20t-8.5 32t-3 42q0 31 5 49t19 32.5t49 32t82 32.5t102.5 24.5t114.5 9.5q105 0 179.5 -20.5 t122.5 -63t70 -109.5t22 -159v-600q0 -14 -10 -22t-31.5 -11.5t-63.5 -3.5q-45 0 -65.5 3.5t-29 11.5t-8.5 22v71q-55 -59 -125.5 -92t-156.5 -33q-71 0 -130.5 18.5t-103 55t-67.5 90.5t-24 126zM295 960zM317 275q0 -56 35.5 -88t98.5 -32q53 0 97.5 27t90.5 79v152h-96 q-61 0 -104 -9t-70 -27t-39.5 -43.5t-12.5 -58.5zM397.5 1112q1.5 10 10.5 23l143 229q7 11 17 19t25 12.5t38 6.5t56 2q46 0 72.5 -4t38 -11.5t10.5 -17.5t-10 -21l-194 -232q-8 -10 -16 -16.5t-20.5 -10.5t-31.5 -6t-48 -2q-35 0 -55.5 3t-28.5 9.5t-6.5 16.5z" />
<glyph unicode="&#xe2;" horiz-adv-x="1011" d="M71 267q0 78 30.5 135.5t91 95t150.5 55.5t209 18h87v54q0 42 -8.5 73.5t-28 52.5t-52 31t-80.5 10q-63 0 -112.5 -14t-87.5 -31t-63.5 -31t-41.5 -14q-11 0 -19.5 7t-14 20t-8.5 32t-3 42q0 31 5 49t19 32.5t49 32t82 32.5t102.5 24.5t114.5 9.5q105 0 179.5 -20.5 t122.5 -63t70 -109.5t22 -159v-600q0 -14 -10 -22t-31.5 -11.5t-63.5 -3.5q-45 0 -65.5 3.5t-29 11.5t-8.5 22v71q-55 -59 -125.5 -92t-156.5 -33q-71 0 -130.5 18.5t-103 55t-67.5 90.5t-24 126zM104 960zM207.5 1118q5.5 13 19.5 31l158 223q6 10 15.5 15.5t25 9.5 t37.5 5.5t53 1.5q32 0 53.5 -2t36 -6t23.5 -10t16 -14l157 -223q14 -19 19 -31.5t-2 -20t-28.5 -11t-60.5 -3.5q-32 0 -50.5 1.5t-30 5.5t-17.5 10.5t-13 17.5l-104 150l-104 -150q-7 -11 -14 -18t-19 -10.5t-30.5 -5t-48.5 -1.5q-40 0 -61.5 3.5t-28.5 11t-1.5 20.5z M317 275q0 -56 35.5 -88t98.5 -32q53 0 97.5 27t90.5 79v152h-96q-61 0 -104 -9t-70 -27t-39.5 -43.5t-12.5 -58.5z" />
<glyph unicode="&#xe3;" horiz-adv-x="1011" d="M55 960zM71 267q0 78 30.5 135.5t91 95t150.5 55.5t209 18h87v54q0 42 -8.5 73.5t-28 52.5t-52 31t-80.5 10q-63 0 -112.5 -14t-87.5 -31t-63.5 -31t-41.5 -14q-11 0 -19.5 7t-14 20t-8.5 32t-3 42q0 31 5 49t19 32.5t49 32t82 32.5t102.5 24.5t114.5 9.5 q105 0 179.5 -20.5t122.5 -63t70 -109.5t22 -159v-600q0 -14 -10 -22t-31.5 -11.5t-63.5 -3.5q-45 0 -65.5 3.5t-29 11.5t-8.5 22v71q-55 -59 -125.5 -92t-156.5 -33q-71 0 -130.5 18.5t-103 55t-67.5 90.5t-24 126zM156 1127q0 116 56 182.5t160 66.5q57 0 96.5 -17.5 t70 -39t56.5 -39t54 -17.5q30 0 46 21.5t16 63.5q0 17 15 22.5t61 5.5q45 0 61.5 -7.5t16.5 -32.5q0 -121 -57.5 -185.5t-159.5 -64.5q-39 0 -69 8t-54 21t-43.5 27.5t-37.5 27t-35.5 21t-37.5 8.5q-33 0 -47 -23.5t-14 -61.5q0 -9 -3.5 -14.5t-12 -8.5t-24 -4t-39.5 -1 q-21 0 -35.5 1.5t-23 6t-12.5 12.5t-4 21zM317 275q0 -56 35.5 -88t98.5 -32q53 0 97.5 27t90.5 79v152h-96q-61 0 -104 -9t-70 -27t-39.5 -43.5t-12.5 -58.5z" />
<glyph unicode="&#xe4;" horiz-adv-x="1011" d="M71 267q0 78 30.5 135.5t91 95t150.5 55.5t209 18h87v54q0 42 -8.5 73.5t-28 52.5t-52 31t-80.5 10q-63 0 -112.5 -14t-87.5 -31t-63.5 -31t-41.5 -14q-11 0 -19.5 7t-14 20t-8.5 32t-3 42q0 31 5 49t19 32.5t49 32t82 32.5t102.5 24.5t114.5 9.5q105 0 179.5 -20.5 t122.5 -63t70 -109.5t22 -159v-600q0 -14 -10 -22t-31.5 -11.5t-63.5 -3.5q-45 0 -65.5 3.5t-29 11.5t-8.5 22v71q-55 -59 -125.5 -92t-156.5 -33q-71 0 -130.5 18.5t-103 55t-67.5 90.5t-24 126zM87 960zM189 1222q0 72 27 99t100 27q76 0 101.5 -26.5t25.5 -94.5 q0 -70 -26.5 -97.5t-100.5 -27.5q-75 0 -101 26.5t-26 93.5zM317 275q0 -56 35.5 -88t98.5 -32q53 0 97.5 27t90.5 79v152h-96q-61 0 -104 -9t-70 -27t-39.5 -43.5t-12.5 -58.5zM580 1222q0 72 26.5 99t100.5 27q75 0 101 -26.5t26 -94.5q0 -70 -26.5 -97.5t-101.5 -27.5 q-74 0 -100 26.5t-26 93.5z" />
<glyph unicode="&#xe5;" horiz-adv-x="1011" d="M71 267q0 78 30.5 135.5t91 95t150.5 55.5t209 18h87v54q0 42 -8.5 73.5t-28 52.5t-52 31t-80.5 10q-63 0 -112.5 -14t-87.5 -31t-63.5 -31t-41.5 -14q-11 0 -19.5 7t-14 20t-8.5 32t-3 42q0 31 5 49t19 32.5t49 32t82 32.5t102.5 24.5t114.5 9.5q105 0 179.5 -20.5 t122.5 -63t70 -109.5t22 -159v-600q0 -14 -10 -22t-31.5 -11.5t-63.5 -3.5q-45 0 -65.5 3.5t-29 11.5t-8.5 22v71q-55 -59 -125.5 -92t-156.5 -33q-71 0 -130.5 18.5t-103 55t-67.5 90.5t-24 126zM175 960zM277 1259q0 47 15.5 84t46 62.5t74.5 38.5t101 13q113 0 171.5 -49 t58.5 -142q0 -47 -16 -84t-46.5 -62.5t-74.5 -39t-101 -13.5q-58 0 -101 13t-71.5 37.5t-42.5 60t-14 81.5zM317 275q0 -56 35.5 -88t98.5 -32q53 0 97.5 27t90.5 79v152h-96q-61 0 -104 -9t-70 -27t-39.5 -43.5t-12.5 -58.5zM427 1264q0 -41 19.5 -64t65.5 -23 q41 0 61.5 22.5t20.5 61.5t-20.5 62.5t-65.5 23.5q-40 0 -60.5 -22t-20.5 -61z" />
<glyph unicode="&#xe6;" horiz-adv-x="1587" d="M71 266q0 79 30.5 136.5t91 95t150.5 55.5t209 18h87v54q0 42 -8.5 73.5t-28 52.5t-52 31t-80.5 10q-63 0 -112.5 -14t-87.5 -31t-64.5 -31t-41.5 -14q-11 0 -19.5 7t-13.5 20t-8 32t-3 42q0 31 5 49t19 32.5t49 32t82 32.5t102.5 24.5t114.5 9.5t106.5 -8t85 -24 t65.5 -39.5t48 -52.5q48 60 124.5 92t174.5 32q107 0 184 -33t127.5 -92t74.5 -139t24 -174v-39q0 -46 -20.5 -68t-56.5 -22h-543q0 -57 13.5 -103.5t43.5 -79t77.5 -49.5t114.5 -17q64 0 113 9.5t85 21t60.5 21t38.5 9.5q9 0 15 -3.5t10 -12.5t6 -25.5t2 -41.5 q0 -22 -1 -37.5t-3.5 -26.5t-6 -18.5t-10.5 -14.5t-36 -19t-73.5 -23.5t-102 -20t-121.5 -8.5q-73 0 -131.5 10.5t-104 31t-80 49.5t-60.5 66q-33 -41 -72 -70t-82 -49t-89.5 -29t-95.5 -9q-71 0 -130.5 18.5t-103 55t-67.5 90.5t-24 125zM317 275q0 -56 35.5 -88t98.5 -32 q53 0 102 30t102 94q-10 27 -14 64t-4 70h-94q-61 0 -104 -9t-70 -27t-39.5 -43.5t-12.5 -58.5zM886 578h377q1 53 -10 95t-33.5 71t-57.5 45t-82 16q-49 0 -84.5 -18t-59 -48.5t-36 -72t-14.5 -88.5z" />
<glyph unicode="&#xe7;" horiz-adv-x="857" d="M72 463q0 134 33.5 231.5t93.5 161.5t142 95t180 31q40 0 78.5 -7t72 -19t60 -27t37.5 -26t15.5 -18.5t7 -19.5t4 -29.5t1.5 -42.5q0 -58 -10 -81.5t-26 -23.5q-17 0 -36 14t-45 31t-62 31t-86 14q-98 0 -150 -75.5t-52 -221.5q0 -72 13 -127t38.5 -92t64 -55.5 t89.5 -18.5q52 0 89.5 15.5t65.5 34.5t47 34.5t32 15.5q9 0 15 -5t9.5 -18.5t5.5 -34.5t2 -54q0 -26 -1.5 -43.5t-4 -29.5t-6 -19.5t-15.5 -19t-42 -28.5t-71.5 -31.5t-88.5 -20.5l22 -50q18 -39 26 -68t8 -56q0 -46 -16.5 -79t-46 -54t-68 -31.5t-83.5 -10.5q-44 0 -81.5 6 t-62.5 13t-35.5 12t-14.5 13t-6 20.5t-2 34.5q0 40 7.5 55.5t27.5 15.5h116q29 0 43 12.5t14 34.5q0 12 -4.5 27t-11.5 31l-39 85q-98 25 -163 87.5t-97.5 158t-32.5 222.5z" />
<glyph unicode="&#xe8;" horiz-adv-x="1031" d="M74 470q0 119 31 214.5t90 162t143.5 101.5t190.5 35q112 0 191.5 -33t130.5 -91.5t75 -138.5t24 -174v-40q0 -46 -20.5 -68t-56.5 -22h-543q0 -57 13.5 -103.5t43 -79t76 -49.5t111.5 -17q66 0 116 9.5t86.5 21t60.5 21t39 9.5q9 0 15 -3.5t10 -12.5t5.5 -25.5 t1.5 -41.5q0 -22 -1 -37.5t-3 -26.5t-6 -18.5t-10.5 -14.5t-35.5 -19t-74 -23.5t-103 -20t-124 -8.5q-119 0 -208.5 30t-149.5 91t-89.5 154t-29.5 218zM118 960zM220 1371q-1 10 10.5 17.5t38.5 11.5t73 4q33 0 55.5 -2t37.5 -6.5t24.5 -12.5t17.5 -19l143 -229 q9 -13 11 -23t-6.5 -16.5t-28 -9.5t-54.5 -3q-29 0 -48 2t-32 6t-21.5 10.5t-16.5 16.5l-193 232q-10 11 -11 21zM330 578h376q3 106 -42.5 166.5t-140.5 60.5q-48 0 -83.5 -18t-59 -48.5t-36 -72t-14.5 -88.5z" />
<glyph unicode="&#xe9;" horiz-adv-x="1031" d="M74 470q0 119 31 214.5t90 162t143.5 101.5t190.5 35q112 0 191.5 -33t130.5 -91.5t75 -138.5t24 -174v-40q0 -46 -20.5 -68t-56.5 -22h-543q0 -57 13.5 -103.5t43 -79t76 -49.5t111.5 -17q66 0 116 9.5t86.5 21t60.5 21t39 9.5q9 0 15 -3.5t10 -12.5t5.5 -25.5 t1.5 -41.5q0 -22 -1 -37.5t-3 -26.5t-6 -18.5t-10.5 -14.5t-35.5 -19t-74 -23.5t-103 -20t-124 -8.5q-119 0 -208.5 30t-149.5 91t-89.5 154t-29.5 218zM309 960zM330 578h376q3 106 -42.5 166.5t-140.5 60.5q-48 0 -83.5 -18t-59 -48.5t-36 -72t-14.5 -88.5zM411.5 1112 q1.5 10 10.5 23l143 229q7 11 17 19t25 12.5t38 6.5t56 2q46 0 72.5 -4t38 -11.5t10.5 -17.5t-10 -21l-194 -232q-8 -10 -16 -16.5t-20.5 -10.5t-31.5 -6t-48 -2q-35 0 -55.5 3t-28.5 9.5t-6.5 16.5z" />
<glyph unicode="&#xea;" horiz-adv-x="1031" d="M74 470q0 119 31 214.5t90 162t143.5 101.5t190.5 35q112 0 191.5 -33t130.5 -91.5t75 -138.5t24 -174v-40q0 -46 -20.5 -68t-56.5 -22h-543q0 -57 13.5 -103.5t43 -79t76 -49.5t111.5 -17q66 0 116 9.5t86.5 21t60.5 21t39 9.5q9 0 15 -3.5t10 -12.5t5.5 -25.5 t1.5 -41.5q0 -22 -1 -37.5t-3 -26.5t-6 -18.5t-10.5 -14.5t-35.5 -19t-74 -23.5t-103 -20t-124 -8.5q-119 0 -208.5 30t-149.5 91t-89.5 154t-29.5 218zM110 960zM213.5 1118q5.5 13 19.5 31l158 223q6 10 15.5 15.5t25 9.5t37.5 5.5t53 1.5q32 0 53.5 -2t36 -6t23.5 -10 t16 -14l157 -223q14 -19 19 -31.5t-2 -20t-28.5 -11t-60.5 -3.5q-32 0 -50.5 1.5t-30 5.5t-17.5 10.5t-13 17.5l-104 150l-104 -150q-7 -11 -14 -18t-19 -10.5t-30.5 -5t-48.5 -1.5q-40 0 -61.5 3.5t-28.5 11t-1.5 20.5zM330 578h376q3 106 -42.5 166.5t-140.5 60.5 q-48 0 -83.5 -18t-59 -48.5t-36 -72t-14.5 -88.5z" />
<glyph unicode="&#xeb;" horiz-adv-x="1031" d="M74 470q0 119 31 214.5t90 162t143.5 101.5t190.5 35q112 0 191.5 -33t130.5 -91.5t75 -138.5t24 -174v-40q0 -46 -20.5 -68t-56.5 -22h-543q0 -57 13.5 -103.5t43 -79t76 -49.5t111.5 -17q66 0 116 9.5t86.5 21t60.5 21t39 9.5q9 0 15 -3.5t10 -12.5t5.5 -25.5 t1.5 -41.5q0 -22 -1 -37.5t-3 -26.5t-6 -18.5t-10.5 -14.5t-35.5 -19t-74 -23.5t-103 -20t-124 -8.5q-119 0 -208.5 30t-149.5 91t-89.5 154t-29.5 218zM96 960zM198 1222q0 72 27 99t100 27q76 0 101.5 -26.5t25.5 -94.5q0 -70 -26.5 -97.5t-100.5 -27.5q-75 0 -101 26.5 t-26 93.5zM330 578h376q3 106 -42.5 166.5t-140.5 60.5q-48 0 -83.5 -18t-59 -48.5t-36 -72t-14.5 -88.5zM589 1222q0 72 26.5 99t100.5 27q75 0 101 -26.5t26 -94.5q0 -70 -26.5 -97.5t-101.5 -27.5q-74 0 -100 26.5t-26 93.5z" />
<glyph unicode="&#xec;" horiz-adv-x="503" d="M-136 960zM-34 1371q-1 10 10.5 17.5t38.5 11.5t73 4q33 0 55.5 -2t37.5 -6.5t24.5 -12.5t17.5 -19l143 -229q9 -13 11 -23t-6.5 -16.5t-28 -9.5t-54.5 -3q-29 0 -48 2t-32 6t-21.5 10.5t-16.5 16.5l-193 232q-10 11 -11 21zM126 34v892q0 10 6 17.5t20.5 12.5t38.5 7.5 t61 2.5t61 -2.5t38.5 -7.5t20.5 -12.5t6 -17.5v-892q0 -10 -6 -17.5t-20.5 -12.5t-38.5 -7.5t-61 -2.5t-61 2.5t-38.5 7.5t-20.5 12.5t-6 17.5z" />
<glyph unicode="&#xed;" horiz-adv-x="503" d="M26 960zM126 34v892q0 10 6 17.5t20.5 12.5t38.5 7.5t61 2.5t61 -2.5t38.5 -7.5t20.5 -12.5t6 -17.5v-892q0 -10 -6 -17.5t-20.5 -12.5t-38.5 -7.5t-61 -2.5t-61 2.5t-38.5 7.5t-20.5 12.5t-6 17.5zM128.5 1112q1.5 10 10.5 23l143 229q7 11 17 19t25 12.5t38 6.5t56 2 q46 0 72.5 -4t38 -11.5t10.5 -17.5t-10 -21l-194 -232q-8 -10 -16 -16.5t-20.5 -10.5t-31.5 -6t-48 -2q-35 0 -55.5 3t-28.5 9.5t-6.5 16.5z" />
<glyph unicode="&#xee;" horiz-adv-x="503" d="M-157 960zM-53.5 1118q5.5 13 19.5 31l158 223q6 10 15.5 15.5t25 9.5t37.5 5.5t53 1.5q32 0 53.5 -2t36 -6t23.5 -10t16 -14l157 -223q14 -19 19 -31.5t-2 -20t-28.5 -11t-60.5 -3.5q-32 0 -50.5 1.5t-30 5.5t-17.5 10.5t-13 17.5l-104 150l-104 -150q-7 -11 -14 -18 t-19 -10.5t-30.5 -5t-48.5 -1.5q-40 0 -61.5 3.5t-28.5 11t-1.5 20.5zM126 34v892q0 10 6 17.5t20.5 12.5t38.5 7.5t61 2.5t61 -2.5t38.5 -7.5t20.5 -12.5t6 -17.5v-892q0 -10 -6 -17.5t-20.5 -12.5t-38.5 -7.5t-61 -2.5t-61 2.5t-38.5 7.5t-20.5 12.5t-6 17.5z" />
<glyph unicode="&#xef;" horiz-adv-x="503" d="M-138 960zM-36 1222q0 71 26 98.5t95 27.5q72 0 97 -26.5t25 -94.5q0 -70 -26 -97.5t-96 -27.5q-71 0 -96 26.5t-25 93.5zM126 34v892q0 10 6 17.5t20.5 12.5t38.5 7.5t61 2.5t61 -2.5t38.5 -7.5t20.5 -12.5t6 -17.5v-892q0 -10 -6 -17.5t-20.5 -12.5t-38.5 -7.5 t-61 -2.5t-61 2.5t-38.5 7.5t-20.5 12.5t-6 17.5zM301 1222q0 71 25.5 98.5t95.5 27.5q71 0 96 -26.5t25 -94.5q0 -70 -26 -97.5t-96 -27.5q-71 0 -95.5 26.5t-24.5 93.5z" />
<glyph unicode="&#xf0;" horiz-adv-x="1099" d="M76 468q0 128 28 224.5t79 161t122.5 97t159.5 32.5q31 0 59.5 -5.5t55.5 -16.5t53 -28t54 -40q-9 23 -21 49.5t-28 54.5t-37.5 59t-48.5 63l-263 -64q-13 -3 -21.5 -2t-13.5 9t-7 23t-2 40q0 23 2 38.5t7 25t14 14.5t22 7l148 37q-9 10 -21 22.5t-24.5 25.5l-25 26 t-22.5 24q-9 9 -11 18t9.5 15.5t41 11t82.5 4.5q44 0 70.5 -2t44 -6t28 -10.5t21.5 -16.5q19 -21 33.5 -36.5t16.5 -18.5l247 59q12 3 20.5 2t14 -8t7.5 -22t2 -40q0 -23 -2 -39t-7.5 -25.5t-14 -14.5t-21.5 -8l-136 -33q54 -72 92 -141.5t61.5 -141.5t33.5 -149t10 -166 q0 -149 -30.5 -261.5t-91 -188t-151.5 -113t-210 -37.5q-116 0 -197.5 34t-133 97.5t-75 154.5t-23.5 205zM332 485q0 -60 9.5 -114t30.5 -94t55.5 -63.5t85.5 -23.5q54 0 95 20.5t68 63.5t40.5 108.5t13.5 156.5q0 27 -0.5 52.5t-2.5 41.5q-31 34 -58.5 59.5t-53.5 42.5 t-50.5 25.5t-48.5 8.5q-46 0 -81 -22t-57.5 -60t-34 -90t-11.5 -112z" />
<glyph unicode="&#xf1;" horiz-adv-x="1099" d="M99 960zM126 34v892q0 10 5 17.5t18 12.5t33.5 7.5t51.5 2.5q32 0 53 -2.5t32.5 -7.5t16.5 -12.5t5 -17.5v-103q74 80 150.5 120t159.5 40q91 0 153.5 -30t101 -81.5t55.5 -120.5t17 -166v-551q0 -10 -6 -17.5t-20 -12.5t-38.5 -7.5t-60.5 -2.5q-37 0 -61.5 2.5 t-38.5 7.5t-20 12.5t-6 17.5v509q0 65 -9.5 102t-27.5 63.5t-46.5 41t-66.5 14.5q-48 0 -97 -35t-102 -102v-593q0 -10 -6 -17.5t-20.5 -12.5t-38.5 -7.5t-61 -2.5t-61 2.5t-38.5 7.5t-20.5 12.5t-6 17.5zM200 1127q0 116 56 182.5t160 66.5q57 0 96.5 -17.5t70 -39 t56.5 -39t54 -17.5q30 0 46 21.5t16 63.5q0 17 15 22.5t61 5.5q45 0 61.5 -7.5t16.5 -32.5q0 -121 -57.5 -185.5t-159.5 -64.5q-39 0 -69 8t-54 21t-43.5 27.5t-37.5 27t-35.5 21t-37.5 8.5q-33 0 -47 -23.5t-14 -61.5q0 -9 -3.5 -14.5t-12 -8.5t-24 -4t-39.5 -1 q-21 0 -35.5 1.5t-23 6t-12.5 12.5t-4 21z" />
<glyph unicode="&#xf2;" horiz-adv-x="1101" d="M72 471q0 114 30.5 208.5t91.5 162t152.5 104.5t214.5 37q120 0 208 -32.5t145.5 -95.5t85.5 -155t28 -211q0 -114 -30 -208t-91 -162t-153 -105t-215 -37q-119 0 -207 33t-146 96t-86 155t-28 210zM154 960zM256 1371q-1 10 10.5 17.5t38.5 11.5t73 4q33 0 55.5 -2 t37.5 -6.5t24.5 -12.5t17.5 -19l143 -229q9 -13 11 -23t-6.5 -16.5t-28 -9.5t-54.5 -3q-29 0 -48 2t-32 6t-21.5 10.5t-16.5 16.5l-193 232q-10 11 -11 21zM331 482q0 -66 11 -121.5t35.5 -96.5t66.5 -63.5t104 -22.5q57 0 99 20.5t69 59.5t40 94.5t13 126.5 q0 66 -10.5 121.5t-35.5 96.5t-66.5 64t-104.5 23q-56 0 -98 -20.5t-69 -60t-40.5 -95t-13.5 -126.5z" />
<glyph unicode="&#xf3;" horiz-adv-x="1101" d="M72 471q0 114 30.5 208.5t91.5 162t152.5 104.5t214.5 37q120 0 208 -32.5t145.5 -95.5t85.5 -155t28 -211q0 -114 -30 -208t-91 -162t-153 -105t-215 -37q-119 0 -207 33t-146 96t-86 155t-28 210zM331 482q0 -66 11 -121.5t35.5 -96.5t66.5 -63.5t104 -22.5 q57 0 99 20.5t69 59.5t40 94.5t13 126.5q0 66 -10.5 121.5t-35.5 96.5t-66.5 64t-104.5 23q-56 0 -98 -20.5t-69 -60t-40.5 -95t-13.5 -126.5zM343 960zM445.5 1112q1.5 10 10.5 23l143 229q7 11 17 19t25 12.5t38 6.5t56 2q46 0 72.5 -4t38 -11.5t10.5 -17.5t-10 -21 l-194 -232q-8 -10 -16 -16.5t-20.5 -10.5t-31.5 -6t-48 -2q-35 0 -55.5 3t-28.5 9.5t-6.5 16.5z" />
<glyph unicode="&#xf4;" horiz-adv-x="1101" d="M72 471q0 114 30.5 208.5t91.5 162t152.5 104.5t214.5 37q120 0 208 -32.5t145.5 -95.5t85.5 -155t28 -211q0 -114 -30 -208t-91 -162t-153 -105t-215 -37q-119 0 -207 33t-146 96t-86 155t-28 210zM141 960zM244.5 1118q5.5 13 19.5 31l158 223q6 10 15.5 15.5t25 9.5 t37.5 5.5t53 1.5q32 0 53.5 -2t36 -6t23.5 -10t16 -14l157 -223q14 -19 19 -31.5t-2 -20t-28.5 -11t-60.5 -3.5q-32 0 -50.5 1.5t-30 5.5t-17.5 10.5t-13 17.5l-104 150l-104 -150q-7 -11 -14 -18t-19 -10.5t-30.5 -5t-48.5 -1.5q-40 0 -61.5 3.5t-28.5 11t-1.5 20.5z M331 482q0 -66 11 -121.5t35.5 -96.5t66.5 -63.5t104 -22.5q57 0 99 20.5t69 59.5t40 94.5t13 126.5q0 66 -10.5 121.5t-35.5 96.5t-66.5 64t-104.5 23q-56 0 -98 -20.5t-69 -60t-40.5 -95t-13.5 -126.5z" />
<glyph unicode="&#xf5;" horiz-adv-x="1101" d="M72 471q0 114 30.5 208.5t91.5 162t152.5 104.5t214.5 37q120 0 208 -32.5t145.5 -95.5t85.5 -155t28 -211q0 -114 -30 -208t-91 -162t-153 -105t-215 -37q-119 0 -207 33t-146 96t-86 155t-28 210zM97 960zM198 1127q0 116 56 182.5t160 66.5q57 0 96.5 -17.5t70 -39 t56.5 -39t54 -17.5q30 0 46 21.5t16 63.5q0 17 15 22.5t61 5.5q45 0 61.5 -7.5t16.5 -32.5q0 -121 -57.5 -185.5t-159.5 -64.5q-39 0 -69 8t-54 21t-43.5 27.5t-37.5 27t-35.5 21t-37.5 8.5q-33 0 -47 -23.5t-14 -61.5q0 -9 -3.5 -14.5t-12 -8.5t-24 -4t-39.5 -1 q-21 0 -35.5 1.5t-23 6t-12.5 12.5t-4 21zM331 482q0 -66 11 -121.5t35.5 -96.5t66.5 -63.5t104 -22.5q57 0 99 20.5t69 59.5t40 94.5t13 126.5q0 66 -10.5 121.5t-35.5 96.5t-66.5 64t-104.5 23q-56 0 -98 -20.5t-69 -60t-40.5 -95t-13.5 -126.5z" />
<glyph unicode="&#xf6;" horiz-adv-x="1101" d="M72 471q0 114 30.5 208.5t91.5 162t152.5 104.5t214.5 37q120 0 208 -32.5t145.5 -95.5t85.5 -155t28 -211q0 -114 -30 -208t-91 -162t-153 -105t-215 -37q-119 0 -207 33t-146 96t-86 155t-28 210zM129 960zM231 1222q0 72 27 99t100 27q76 0 101.5 -26.5t25.5 -94.5 q0 -70 -26.5 -97.5t-100.5 -27.5q-75 0 -101 26.5t-26 93.5zM331 482q0 -66 11 -121.5t35.5 -96.5t66.5 -63.5t104 -22.5q57 0 99 20.5t69 59.5t40 94.5t13 126.5q0 66 -10.5 121.5t-35.5 96.5t-66.5 64t-104.5 23q-56 0 -98 -20.5t-69 -60t-40.5 -95t-13.5 -126.5z M622 1222q0 72 26.5 99t100.5 27q75 0 101 -26.5t26 -94.5q0 -70 -26.5 -97.5t-101.5 -27.5q-74 0 -100 26.5t-26 93.5z" />
<glyph unicode="&#xf7;" d="M34 576q0 27 2 45.5t6.5 29.5t11.5 16t16 5h869q8 0 15 -5t11.5 -16t7.5 -29.5t3 -45.5t-3 -45.5t-7.5 -30t-11.5 -16.5t-15 -5h-869q-9 0 -16 5t-11.5 16.5t-6.5 30t-2 45.5zM359 192q0 43 7 72.5t23.5 47.5t44.5 26t70 8q41 0 69.5 -8t45 -26t24 -47.5t7.5 -72.5 q0 -41 -7.5 -69.5t-24 -46t-45 -25.5t-69.5 -8q-42 0 -70 8t-44.5 25.5t-23.5 46t-7 69.5zM359 954q0 42 7 71.5t23.5 47.5t44.5 26.5t70 8.5q41 0 69.5 -8.5t45 -26.5t24 -47.5t7.5 -71.5t-7.5 -70t-24 -46t-45 -26t-69.5 -8q-42 0 -70 8t-44.5 26t-23.5 46t-7 70z" />
<glyph unicode="&#xf8;" horiz-adv-x="1114" d="M72 471q0 115 30.5 209t92.5 161.5t155 104.5t218 37q33 0 65 -3.5t62 -10.5l63 132q8 15 30.5 22t67.5 7q60 0 78.5 -11t6.5 -36l-82 -172q47 -30 81.5 -73t57 -97t33.5 -117.5t11 -134.5q0 -114 -31 -208t-93 -162t-155 -105t-217 -37q-38 0 -69.5 4t-58.5 11l-66 -138 q-7 -16 -31 -22.5t-68 -6.5q-60 0 -78 11.5t-6 35.5l85 178q-47 30 -81.5 73.5t-57 97.5t-33 117.5t-10.5 132.5zM310 476q0 -59 12.5 -113.5t44.5 -91.5l249 521q-13 4 -30.5 6.5t-35.5 2.5q-60 0 -105 -22t-75 -63t-45 -102t-15 -138zM499 170q13 -5 30.5 -7.5t33.5 -2.5 q60 0 105.5 21.5t75.5 63t45 102t15 139.5q0 28 -3 56t-9.5 55t-17.5 50t-27 42z" />
<glyph unicode="&#xf9;" horiz-adv-x="1099" d="M121 380v546q0 10 5.5 17.5t20 12.5t39 7.5t60.5 2.5q37 0 61 -2.5t38.5 -7.5t20.5 -12.5t6 -17.5v-504q0 -70 9 -107t27.5 -63.5t47 -41t66.5 -14.5q48 0 96.5 35t103.5 102v593q0 10 5.5 17.5t20 12.5t38.5 7.5t61 2.5t61 -2.5t38 -7.5t20 -12.5t6 -17.5v-892 q0 -10 -5 -17.5t-17.5 -12.5t-33 -7.5t-51.5 -2.5q-33 0 -53.5 2.5t-32.5 7.5t-17 12.5t-5 17.5v103q-74 -80 -150.5 -120t-158.5 -40q-92 0 -154.5 30t-101 82t-55 120.5t-16.5 170.5zM132 960zM234 1371q-1 10 10.5 17.5t38.5 11.5t73 4q33 0 55.5 -2t37.5 -6.5 t24.5 -12.5t17.5 -19l143 -229q9 -13 11 -23t-6.5 -16.5t-28 -9.5t-54.5 -3q-29 0 -48 2t-32 6t-21.5 10.5t-16.5 16.5l-193 232q-10 11 -11 21z" />
<glyph unicode="&#xfa;" horiz-adv-x="1099" d="M121 380v546q0 10 5.5 17.5t20 12.5t39 7.5t60.5 2.5q37 0 61 -2.5t38.5 -7.5t20.5 -12.5t6 -17.5v-504q0 -70 9 -107t27.5 -63.5t47 -41t66.5 -14.5q48 0 96.5 35t103.5 102v593q0 10 5.5 17.5t20 12.5t38.5 7.5t61 2.5t61 -2.5t38 -7.5t20 -12.5t6 -17.5v-892 q0 -10 -5 -17.5t-17.5 -12.5t-33 -7.5t-51.5 -2.5q-33 0 -53.5 2.5t-32.5 7.5t-17 12.5t-5 17.5v103q-74 -80 -150.5 -120t-158.5 -40q-92 0 -154.5 30t-101 82t-55 120.5t-16.5 170.5zM342 960zM444.5 1112q1.5 10 10.5 23l143 229q7 11 17 19t25 12.5t38 6.5t56 2 q46 0 72.5 -4t38 -11.5t10.5 -17.5t-10 -21l-194 -232q-8 -10 -16 -16.5t-20.5 -10.5t-31.5 -6t-48 -2q-35 0 -55.5 3t-28.5 9.5t-6.5 16.5z" />
<glyph unicode="&#xfb;" horiz-adv-x="1099" d="M121 380v546q0 10 5.5 17.5t20 12.5t39 7.5t60.5 2.5q37 0 61 -2.5t38.5 -7.5t20.5 -12.5t6 -17.5v-504q0 -70 9 -107t27.5 -63.5t47 -41t66.5 -14.5q48 0 96.5 35t103.5 102v593q0 10 5.5 17.5t20 12.5t38.5 7.5t61 2.5t61 -2.5t38 -7.5t20 -12.5t6 -17.5v-892 q0 -10 -5 -17.5t-17.5 -12.5t-33 -7.5t-51.5 -2.5q-33 0 -53.5 2.5t-32.5 7.5t-17 12.5t-5 17.5v103q-74 -80 -150.5 -120t-158.5 -40q-92 0 -154.5 30t-101 82t-55 120.5t-16.5 170.5zM138 960zM241.5 1118q5.5 13 19.5 31l158 223q6 10 15.5 15.5t25 9.5t37.5 5.5t53 1.5 q32 0 53.5 -2t36 -6t23.5 -10t16 -14l157 -223q14 -19 19 -31.5t-2 -20t-28.5 -11t-60.5 -3.5q-32 0 -50.5 1.5t-30 5.5t-17.5 10.5t-13 17.5l-104 150l-104 -150q-7 -11 -14 -18t-19 -10.5t-30.5 -5t-48.5 -1.5q-40 0 -61.5 3.5t-28.5 11t-1.5 20.5z" />
<glyph unicode="&#xfc;" horiz-adv-x="1099" d="M121 380v546q0 10 5.5 17.5t20 12.5t39 7.5t60.5 2.5q37 0 61 -2.5t38.5 -7.5t20.5 -12.5t6 -17.5v-504q0 -70 9 -107t27.5 -63.5t47 -41t66.5 -14.5q48 0 96.5 35t103.5 102v593q0 10 5.5 17.5t20 12.5t38.5 7.5t61 2.5t61 -2.5t38 -7.5t20 -12.5t6 -17.5v-892 q0 -10 -5 -17.5t-17.5 -12.5t-33 -7.5t-51.5 -2.5q-33 0 -53.5 2.5t-32.5 7.5t-17 12.5t-5 17.5v103q-74 -80 -150.5 -120t-158.5 -40q-92 0 -154.5 30t-101 82t-55 120.5t-16.5 170.5zM125 960zM227 1222q0 72 27 99t100 27q76 0 101.5 -26.5t25.5 -94.5q0 -70 -26.5 -97.5 t-100.5 -27.5q-75 0 -101 26.5t-26 93.5zM618 1222q0 72 26.5 99t100.5 27q75 0 101 -26.5t26 -94.5q0 -70 -26.5 -97.5t-101.5 -27.5q-74 0 -100 26.5t-26 93.5z" />
<glyph unicode="&#xfd;" horiz-adv-x="970" d="M22 918.5q0 18.5 12 29t40.5 14.5t75.5 4q43 0 68 -1.5t39 -7.5t21 -18.5t14 -35.5l210 -597h3l192 609q6 26 15.5 34.5t31.5 12.5t77 4q43 0 71.5 -4t42 -15t13.5 -29.5t-8 -43.5l-297 -874l-108 -316q-9 -25 -49 -36t-117 -11q-40 0 -64 3.5t-36 11.5t-13 20t6 29 l119 299q-13 6 -23.5 18.5t-15.5 26.5l-307 820q-13 35 -13 53.5zM289 960zM391.5 1112q1.5 10 10.5 23l143 229q7 11 17 19t25 12.5t38 6.5t56 2q46 0 72.5 -4t38 -11.5t10.5 -17.5t-10 -21l-194 -232q-8 -10 -16 -16.5t-20.5 -10.5t-31.5 -6t-48 -2q-35 0 -55.5 3 t-28.5 9.5t-6.5 16.5z" />
<glyph unicode="&#xfe;" horiz-adv-x="1099" d="M126 -320v1669q0 10 6 18t20.5 13.5t38.5 8.5t61 3t61 -3t38.5 -8.5t20.5 -13.5t6 -18v-493q34 32 67 56t67 39.5t70.5 23.5t77.5 8q98 0 167.5 -39t113 -105.5t63.5 -156t20 -190.5q0 -119 -25 -214.5t-74.5 -162.5t-122 -102.5t-166.5 -35.5q-39 0 -72 7.5t-63.5 23 t-60.5 38.5t-62 54v-420q0 -10 -6 -18t-20.5 -13.5t-38.5 -8.5t-61 -3t-61 3t-38.5 8.5t-20.5 13.5t-6 18zM378 331q53 -67 101.5 -103.5t100.5 -36.5q49 0 83.5 25t56.5 65.5t32 91t10 101.5q0 57 -8.5 110t-29 94t-54.5 65.5t-84 24.5q-25 0 -49 -7.5t-49.5 -24.5 t-52.5 -44t-57 -67v-294z" />
<glyph unicode="&#xff;" horiz-adv-x="970" d="M22 918.5q0 18.5 12 29t40.5 14.5t75.5 4q43 0 68 -1.5t39 -7.5t21 -18.5t14 -35.5l210 -597h3l192 609q6 26 15.5 34.5t31.5 12.5t77 4q43 0 71.5 -4t42 -15t13.5 -29.5t-8 -43.5l-297 -874l-108 -316q-9 -25 -49 -36t-117 -11q-40 0 -64 3.5t-36 11.5t-13 20t6 29 l119 299q-13 6 -23.5 18.5t-15.5 26.5l-307 820q-13 35 -13 53.5zM66 960zM168 1222q0 72 27 99t100 27q76 0 101.5 -26.5t25.5 -94.5q0 -70 -26.5 -97.5t-100.5 -27.5q-75 0 -101 26.5t-26 93.5zM559 1222q0 72 26.5 99t100.5 27q75 0 101 -26.5t26 -94.5 q0 -70 -26.5 -97.5t-101.5 -27.5q-74 0 -100 26.5t-26 93.5z" />
<glyph unicode="&#x152;" horiz-adv-x="1790" d="M80 640q0 157 40 282.5t119 213t195.5 134.5t270.5 47q74 0 142 -15t116 -38q9 17 24.5 23.5t34.5 6.5h632q9 0 16 -5t12 -17.5t7.5 -32t2.5 -49.5q0 -28 -2.5 -47.5t-7.5 -31.5t-12 -17.5t-16 -5.5h-462v-317h392q8 0 15.5 -5t12.5 -17t7.5 -31.5t2.5 -47.5 q0 -29 -2.5 -48.5t-7.5 -31.5t-12.5 -17t-15.5 -5h-392v-362h466q9 0 16.5 -5.5t12.5 -17.5t7.5 -31.5t2.5 -48.5t-2.5 -48.5t-7.5 -31.5t-12.5 -17.5t-16.5 -5.5h-634q-20 0 -37 8.5t-23 29.5q-56 -30 -128 -45.5t-155 -15.5q-151 0 -263.5 38.5t-187.5 119.5t-112.5 206.5 t-37.5 298.5zM356 654q0 -107 16 -192t54 -145t102 -91.5t161 -31.5q71 0 130.5 19t110.5 57v761q-52 35 -109 52.5t-125 17.5q-97 0 -162 -36t-105 -97t-56.5 -142.5t-16.5 -171.5z" />
<glyph unicode="&#x153;" horiz-adv-x="1726" d="M72 472q0 114 30.5 208t91.5 161.5t152.5 104.5t214.5 37q118 0 202 -39t141 -119q56 81 136.5 119.5t185.5 38.5q111 0 190 -33t130 -91.5t74.5 -138.5t23.5 -174v-40q0 -46 -20.5 -68t-55.5 -22h-543q0 -57 13 -103.5t43 -79t76.5 -49.5t112.5 -17q65 0 114.5 9.5 t86.5 21t61 21t38 9.5q9 0 15.5 -3.5t10.5 -12.5t5.5 -25.5t1.5 -41.5q0 -22 -1 -36.5t-3 -25.5t-5.5 -19.5t-11 -15.5t-36 -19t-74 -24t-103 -20t-123.5 -8q-124 0 -213.5 37t-147.5 121q-56 -79 -143 -118.5t-202 -39.5q-120 0 -207.5 33t-146 96t-86.5 155t-28 211z M331 482q0 -66 11 -122t35.5 -96.5t66.5 -63.5t104 -23q57 0 99 20.5t69 59.5t40 95t13 126q0 66 -10.5 122t-35.5 97.5t-66.5 64.5t-104.5 23q-56 0 -98 -21t-69 -60t-40.5 -95t-13.5 -127zM1025 578h376q3 106 -42.5 166.5t-140.5 60.5q-48 0 -84 -18t-59.5 -48.5 t-35.5 -72t-14 -88.5z" />
<glyph unicode="&#x178;" horiz-adv-x="1064" d="M21.5 1253.5q-5.5 20.5 6 31t42.5 13t86 2.5q46 0 73.5 -2t43.5 -7.5t23.5 -14.5t14.5 -23l144 -318q21 -46 41.5 -97t41.5 -107h2q19 54 39 105t39 97l142 316q5 16 12.5 25.5t22.5 15.5t41 8t69 2q57 0 88.5 -2.5t43 -13t5.5 -31.5t-24 -57l-354 -705v-455 q0 -10 -6.5 -18t-21.5 -13t-40.5 -8t-63.5 -3q-39 0 -64 3t-40.5 8t-21.5 13t-6 18v455l-354 705q-19 37 -24.5 57.5zM85 1294zM187 1530q0 71 28 98.5t104 27.5q78 0 104.5 -26.5t26.5 -95.5q0 -70 -27.5 -98t-104.5 -28t-104 27t-27 95zM624 1530q0 71 27.5 98.5 t104.5 27.5t104 -26.5t27 -95.5q0 -70 -28 -98t-105 -28t-103.5 27t-26.5 95z" />
<glyph unicode="&#x2c6;" horiz-adv-x="822" d="M0 960zM103.5 1118q5.5 13 19.5 31l158 223q6 10 15.5 15.5t25 9.5t37.5 5.5t53 1.5q32 0 53.5 -2t36 -6t23.5 -10t16 -14l157 -223q14 -19 19 -31.5t-2 -20t-28.5 -11t-60.5 -3.5q-32 0 -50.5 1.5t-30 5.5t-17.5 10.5t-13 17.5l-104 150l-104 -150q-7 -11 -14 -18 t-19 -10.5t-30.5 -5t-48.5 -1.5q-40 0 -61.5 3.5t-28.5 11t-1.5 20.5z" />
<glyph unicode="&#x2dc;" horiz-adv-x="910" d="M0 960zM101 1127q0 116 56 182.5t160 66.5q57 0 96.5 -17.5t70 -39t56.5 -39t54 -17.5q30 0 46 21.5t16 63.5q0 17 15 22.5t61 5.5q45 0 61.5 -7.5t16.5 -32.5q0 -121 -57.5 -185.5t-159.5 -64.5q-39 0 -69 8t-54 21t-43.5 27.5t-37.5 27t-35.5 21t-37.5 8.5 q-33 0 -47 -23.5t-14 -61.5q0 -9 -3.5 -14.5t-12 -8.5t-24 -4t-39.5 -1q-21 0 -35.5 1.5t-23 6t-12.5 12.5t-4 21z" />
<glyph unicode="&#x2000;" horiz-adv-x="876" />
<glyph unicode="&#x2001;" horiz-adv-x="1753" />
<glyph unicode="&#x2002;" horiz-adv-x="876" />
<glyph unicode="&#x2003;" horiz-adv-x="1753" />
<glyph unicode="&#x2004;" horiz-adv-x="584" />
<glyph unicode="&#x2005;" horiz-adv-x="438" />
<glyph unicode="&#x2006;" horiz-adv-x="292" />
<glyph unicode="&#x2007;" horiz-adv-x="292" />
<glyph unicode="&#x2008;" horiz-adv-x="219" />
<glyph unicode="&#x2009;" horiz-adv-x="350" />
<glyph unicode="&#x200a;" horiz-adv-x="97" />
<glyph unicode="&#x2010;" horiz-adv-x="627" d="M59 503q0 56 11 79t36 23h416q12 0 20.5 -5t14.5 -17t8.5 -32t2.5 -48q0 -58 -11 -81t-35 -23h-416q-25 0 -36 23.5t-11 80.5z" />
<glyph unicode="&#x2011;" horiz-adv-x="627" d="M59 503q0 56 11 79t36 23h416q12 0 20.5 -5t14.5 -17t8.5 -32t2.5 -48q0 -58 -11 -81t-35 -23h-416q-25 0 -36 23.5t-11 80.5z" />
<glyph unicode="&#x2012;" horiz-adv-x="627" d="M59 503q0 56 11 79t36 23h416q12 0 20.5 -5t14.5 -17t8.5 -32t2.5 -48q0 -58 -11 -81t-35 -23h-416q-25 0 -36 23.5t-11 80.5z" />
<glyph unicode="&#x2013;" d="M-11 568q0 56 10.5 79.5t36.5 23.5h946q12 0 21 -5t14 -17.5t8 -32t3 -48.5q0 -55 -10.5 -78.5t-35.5 -23.5h-946q-26 0 -36.5 23.5t-10.5 78.5z" />
<glyph unicode="&#x2014;" horiz-adv-x="1854" d="M131 568q0 56 11.5 80t36.5 24h1498q24 0 35 -23t11 -81q0 -57 -12 -79.5t-34 -22.5h-1498q-23 0 -35.5 22.5t-12.5 79.5z" />
<glyph unicode="&#x2018;" horiz-adv-x="528" d="M107 924q0 39 3.5 71.5t12.5 61.5t23 56.5t35 56.5l134 193q7 10 15 17t20.5 11.5t30 6.5t41.5 2q30 0 48 -2t26 -7.5t8 -13.5t-4 -19l-122 -277v-157q0 -34 -8 -55t-25 -32t-43.5 -14.5t-62.5 -3.5q-35 0 -60 3.5t-41.5 14.5t-23.5 32t-7 55z" />
<glyph unicode="&#x2019;" horiz-adv-x="528" d="M23.5 841.5q-0.5 8.5 4.5 19.5l122 276v157q0 34 8 55t25 32.5t43 15t63 3.5q35 0 60 -3.5t41.5 -15t24 -32.5t7.5 -55q0 -39 -4 -71.5t-13 -61.5t-23 -56.5t-35 -56.5l-134 -192q-7 -10 -15.5 -17t-20.5 -11.5t-29 -6.5t-43 -2q-29 0 -47 2t-26 7t-8.5 13.5z" />
<glyph unicode="&#x201a;" horiz-adv-x="528" d="M23.5 -269q-0.5 8 4.5 19l122 276v158q0 34 8 55t25 32t43 14.5t63 3.5q35 0 60 -3.5t41.5 -14.5t24 -32t7.5 -55q0 -40 -4 -72.5t-13 -61.5t-23 -56.5t-35 -56.5l-134 -192q-7 -10 -15.5 -17t-20.5 -11t-29 -6.5t-43 -2.5q-29 0 -47 2.5t-26 7.5t-8.5 13z" />
<glyph unicode="&#x201c;" horiz-adv-x="891" d="M100 930q0 38 3.5 70t11.5 61t21.5 56t32.5 55l128 191q7 10 14.5 17t19 11.5t27.5 6.5t39 2q26 0 42 -2t24 -7.5t8 -13.5t-4 -19l-118 -273v-155q0 -34 -7.5 -54.5t-23 -31.5t-39.5 -14.5t-57 -3.5t-56 3.5t-37.5 14.5t-21.5 31.5t-7 54.5zM493 930q0 38 3.5 70t11.5 61 t21.5 56t32.5 55l127 191q7 10 14.5 17t19 11.5t27.5 6.5t40 2q26 0 42 -2t23.5 -7.5t8 -13.5t-4.5 -19l-117 -273v-155q0 -34 -7.5 -54.5t-23 -31.5t-40 -14.5t-56.5 -3.5q-33 0 -56 3.5t-38 14.5t-21.5 31.5t-6.5 54.5z" />
<glyph unicode="&#x201d;" horiz-adv-x="891" d="M27.5 849q-0.5 8 4.5 20l118 272v155q0 34 7 54.5t22.5 31.5t40 14.5t57.5 3.5t56 -3.5t37.5 -14.5t21.5 -31.5t7 -54.5q0 -38 -3.5 -70t-11.5 -61t-21.5 -56t-32.5 -55l-129 -191q-6 -10 -14 -17t-19.5 -11.5t-27 -6.5t-38.5 -2q-26 0 -42.5 2t-24 7.5t-8 13.5z M420.5 849q-0.5 8 3.5 20l118 272v155q0 34 7.5 54.5t22.5 31.5t39.5 14.5t57.5 3.5t56 -3.5t37.5 -14.5t21.5 -31.5t7 -54.5q0 -38 -3.5 -70t-11.5 -61t-21 -56t-33 -55l-128 -191q-7 -10 -14.5 -17t-19 -11.5t-27.5 -6.5t-39 -2q-26 0 -42 2t-23.5 7.5t-8 13.5z" />
<glyph unicode="&#x201e;" horiz-adv-x="891" d="M27.5 -266q-0.5 8 4.5 19l118 273v155q0 34 7 54.5t22.5 31t40 14.5t57.5 4t56 -4t37.5 -14.5t21.5 -31t7 -54.5q0 -38 -3.5 -70.5t-11.5 -61t-21.5 -56t-32.5 -55.5l-129 -190q-6 -10 -14 -17t-19.5 -11.5t-27 -6.5t-38.5 -2q-26 0 -42.5 2t-24 7.5t-8 13.5zM420.5 -266 q-0.5 8 3.5 19l118 273v155q0 34 7.5 54.5t22.5 31t39.5 14.5t57.5 4t56 -4t37.5 -14.5t21.5 -31t7 -54.5q0 -38 -3.5 -70.5t-11.5 -61t-21 -56t-33 -55.5l-128 -190q-7 -10 -14.5 -17t-19 -11.5t-27.5 -6.5t-39 -2q-26 0 -42 2t-23.5 7.5t-8 13.5z" />
<glyph unicode="&#x2022;" d="M148 642q0 75 28 141t77 115t115.5 77t141.5 28t141 -27.5t114.5 -76t76.5 -115t28 -141.5t-28 -141.5t-77 -115.5t-115.5 -77t-141.5 -28t-141 28t-114.5 76.5t-76.5 115t-28 141.5z" />
<glyph unicode="&#x2026;" horiz-adv-x="1457" d="M124 136q0 91 31 122t111 31q79 0 109.5 -30.5t30.5 -117.5q0 -91 -31 -122t-111 -31q-79 0 -109.5 30.5t-30.5 117.5zM587 136q0 91 31 122t111 31q79 0 110 -30.5t31 -117.5q0 -91 -31.5 -122t-110.5 -31q-80 0 -110.5 30.5t-30.5 117.5zM1051 136q0 91 31 122t110 31 q80 0 110.5 -30.5t30.5 -117.5q0 -91 -31 -122t-111 -31q-79 0 -109.5 30.5t-30.5 117.5z" />
<glyph unicode="&#x202f;" horiz-adv-x="350" />
<glyph unicode="&#x2039;" horiz-adv-x="705" d="M88.5 528q0.5 22 16.5 47l213 347q6 9 12.5 15.5t18.5 10t30.5 5.5t48.5 2q36 0 58.5 -3.5t33 -11t11 -17.5t-5.5 -23l-195 -375l201 -383q6 -13 5.5 -23.5t-11 -17.5t-32.5 -11t-59 -4q-29 0 -47.5 2t-30.5 5.5t-19 10t-12 15.5l-224 365q-13 22 -12.5 44z" />
<glyph unicode="&#x203a;" horiz-adv-x="705" d="M169.5 922.5q0.5 10.5 11 17.5t32.5 11t59 4q29 0 48 -2t30.5 -5.5t18.5 -10t12 -15.5l223 -366q14 -21 13.5 -43t-16.5 -48l-213 -346q-6 -9 -12.5 -15.5t-18.5 -10t-30.5 -5.5t-47.5 -2q-38 0 -60 3.5t-32.5 11t-11.5 17.5t6 23l195 375l-201 383q-6 13 -5.5 23.5z" />
<glyph unicode="&#x205f;" horiz-adv-x="438" />
<glyph unicode="&#x20ac;" horiz-adv-x="1038" d="M32 491q0 23 1.5 39t5 25.5t9 14t13.5 4.5h89q0 15 -0.5 31.5t-0.5 32.5q0 20 0.5 39.5t0.5 37.5h-89q-15 0 -22 18.5t-7 65.5q0 24 2.5 40t7 25.5t10.5 13.5t13 4h103q20 96 58.5 175.5t99 137t145 89t197.5 31.5q52 0 100.5 -7.5t87.5 -19.5t64.5 -24.5t36.5 -21.5 t16 -18.5t8 -23.5t5 -35.5t2 -52.5q0 -27 -2 -44t-6.5 -27.5t-11 -14.5t-14.5 -4q-16 0 -37.5 14t-53 30.5t-75.5 30t-103 13.5q-56 0 -98 -15.5t-72.5 -45.5t-49.5 -72t-29 -95h274q7 0 13.5 -4t10.5 -13.5t6.5 -25.5t2.5 -40q0 -47 -9 -65.5t-24 -18.5h-294 q-1 -16 -1.5 -32.5t-0.5 -36.5q0 -18 0.5 -35.5t1.5 -36.5h294q7 0 13.5 -4.5t10.5 -14t6.5 -25.5t2.5 -39q0 -46 -9 -65.5t-24 -19.5h-275q8 -51 27 -91.5t50.5 -68.5t77 -43t108.5 -15q59 0 102.5 14t75.5 31t53.5 31t35.5 14q8 0 14.5 -4t11 -15.5t6.5 -32t2 -54.5 q0 -44 -8 -69.5t-22 -39.5t-40.5 -28.5t-65 -27t-88 -20.5t-109.5 -8q-113 0 -200 29t-149 83.5t-100.5 134t-55.5 180.5h-96q-15 0 -24 19.5t-9 65.5z" />
<glyph unicode="&#x2122;" horiz-adv-x="1475" d="M50 1220q0 21 2 35.5t5.5 23t8 12t10.5 3.5h422q5 0 9.5 -3.5t8 -12t5.5 -23t2 -35.5t-2 -34.5t-5.5 -21.5t-8 -11.5t-9.5 -3.5h-124v-416q0 -5 -4 -9.5t-14 -7.5t-27 -5t-42 -2q-27 0 -44 2t-26.5 5t-13.5 7.5t-4 9.5v416h-123q-6 0 -10.5 3.5t-8 11.5t-5.5 21.5 t-2 34.5zM612 733v506q0 26 13.5 40.5t37.5 14.5h124q22 0 37.5 -5.5t27.5 -16.5t20.5 -28t14.5 -39l94 -280l99 280q13 41 34.5 65t60.5 24h118q26 0 39.5 -14.5t13.5 -40.5v-506q0 -5 -3 -9.5t-11.5 -7.5t-23 -5t-37.5 -2t-37.5 2t-23 5t-11.5 7.5t-3 9.5v416h-2 l-138 -419q-3 -12 -22 -16.5t-57 -4.5q-37 0 -54.5 5t-21.5 16l-137 419h-2v-416q0 -5 -3 -9.5t-11 -7.5t-22.5 -5t-37.5 -2q-24 0 -38.5 2t-23 5t-11.5 7.5t-3 9.5z" />
<glyph unicode="&#x25fc;" horiz-adv-x="965" d="M0 0v965h965v-965h-965z" />
</font>
</defs>
</svg>
