<?xml version="1.0" standalone="no"?>
<!DOCTYPE svg PUBLIC "-//W3C//DTD SVG 1.1//EN" "http://www.w3.org/Graphics/SVG/1.1/DTD/svg11.dtd" >
<svg>
<metadata>
Created by FontForge 20090622 at Sat Oct 21 18:42:09 2017
 By deploy user
&#194;&#169; 2005 Microsoft Corporation. All Rights Reserved.
</metadata>
<defs>
<font id="Calibri-Italic" horiz-adv-x="1053" >
  <font-face 
    font-family="Calibri"
    font-weight="400"
    font-style="italic"
    font-stretch="normal"
    units-per-em="2048"
    panose-1="2 15 5 2 2 2 4 10 2 4"
    ascent="1536"
    descent="-512"
    x-height="951"
    cap-height="1294"
    bbox="-801 -391 2486 1950"
    underline-thickness="134"
    underline-position="-165"
    slope="-11"
    unicode-range="U+0020-U+FB04"
  />
<missing-glyph horiz-adv-x="1038" 
d="M986 1294v-1294h-933v1294h933zM900 81v1132h-762v-1132h762zM773 898q0 -52 -15.5 -103.5t-50 -92.5t-89.5 -68t-133 -32l-36 -152q-2 -10 -17.5 -14t-42.5 -4q-14 0 -24 1t-16 3t-8.5 5t-1.5 9l32 188q5 27 20.5 38.5t38.5 11.5h8q61 0 100.5 18.5t62.5 48t32.5 64.5
t9.5 68q0 25 -7.5 46.5t-24 37.5t-43 25.5t-66.5 9.5t-72 -7.5t-55.5 -17t-39 -17.5t-22.5 -8q-10 0 -13 6t-3 20q0 5 1 14.5t3.5 20.5t6.5 20t10 15q8 7 28.5 16.5t49.5 18.5t63 14.5t68 5.5q68 0 115 -19t76 -49.5t42 -67.5t13 -73zM442 305q0 -8 -1.5 -19.5t-5 -24.5
t-9 -24.5t-12.5 -18.5q-10 -10 -26 -15t-38 -5t-35 3.5t-20 9.5t-9.5 14t-2.5 18q0 9 2 21t5.5 24t9.5 23t14 19q9 9 25 14t41 5q19 0 31.5 -3t19.5 -9t9 -14t2 -18zM0 -397z" />
    <glyph glyph-name="f_b.liga" unicode="fb" horiz-adv-x="1668" 
d="M944 1357q1 8 6 15t15 11.5t26.5 7t43.5 2.5q23 0 38.5 -2t24 -6t11.5 -10t2 -14l-82 -402q-4 -26 -11 -54l-14.5 -55.5l-14.5 -52t-14 -42.5q16 35 51 72.5t81 69t100.5 52.5t112.5 21q59 0 102 -16t73 -42.5t48.5 -60.5t29 -70t14 -71.5t3.5 -65.5q0 -60 -11 -132.5
t-35 -146t-62 -143t-91 -123t-122.5 -86t-156.5 -32.5q-89 0 -153.5 34.5t-115.5 97.5l-16 -87q-4 -17 -23.5 -24.5t-59.5 -7.5q-20 0 -33.5 2t-21 6t-10 9.5t-1.5 13.5l244 1221q-2 -3 -6.5 -5t-10.5 -2q-7 0 -21 3.5l-35.5 8.5t-51.5 8.5t-70 3.5q-65 0 -108 -13
t-71 -40.5t-44.5 -69.5t-27.5 -99l-17 -90h184q11 0 17.5 -7.5t6.5 -24.5q0 -11 -1.5 -23t-5 -23.5t-8 -22t-10 -18.5t-12.5 -13t-15 -5h-184l-171 -852q-17 -84 -46 -145.5t-71 -102t-97 -60t-124 -19.5q-45 0 -73.5 7t-35.5 13q-4 5 -6 11t-2 16q0 4 1.5 13.5t3.5 20t5 22
t7 21.5t9 16t12 6t13.5 -1.5t14 -3t18 -3t26.5 -1.5q42 0 72.5 13t52 40.5t36 69.5t26.5 101l164 818h-128q-10 0 -15.5 6.5t-5.5 24.5q0 8 1 19.5t3.5 23.5t6.5 23t10 20t12.5 14.5t16.5 5.5h126l25 125q16 82 47.5 143.5t81.5 101.5t121 59.5t169 19.5q22 0 53.5 -2.5
t61.5 -7t54 -10t30 -11.5l4.5 -6t3.5 -6zM1417 630q0 27 -4.5 62t-19 65t-42.5 50.5t-74 20.5q-55 0 -110 -30.5t-103 -85t-85.5 -128.5t-54.5 -161l-34 -166q46 -69 101 -102t123 -33q51 0 93.5 24t76 64t58.5 91.5t41.5 108.5t25 113.5t8.5 106.5z" />
    <glyph glyph-name="f_f_b.liga" unicode="ffb" horiz-adv-x="2238" 
d="M2160 644q0 -60 -11 -132.5t-35 -146t-61.5 -143t-90.5 -123t-122.5 -86t-157.5 -32.5q-89 0 -153.5 34.5t-113.5 97.5l-18 -88q-3 -17 -22.5 -24t-59.5 -7q-41 0 -55.5 8t-10.5 23l243 1222q-2 -3 -6 -5t-10 -2q-8 0 -21.5 3.5t-35.5 8t-52 8.5t-70 4q-65 0 -108 -13
t-71 -40.5t-44 -69.5t-28 -99l-17 -91h184q12 0 18 -7.5t6 -24.5q0 -11 -1.5 -23t-4.5 -23.5t-7.5 -22t-10.5 -18.5t-13 -13t-14 -5h-185l-163 -817q-19 -91 -48 -157.5t-72 -109.5t-99.5 -63t-127.5 -20q-50 0 -86.5 7.5t-48.5 20.5q-10 8 -10 27q0 5 1 14.5t3 20.5t5 22.5
t7.5 21t10 15.5t12.5 6t16.5 -2.5l22 -6t28.5 -6.5t36 -3q41 0 71 13t52 39t36.5 67t26.5 97l162 814h-405l-171 -852q-17 -84 -46 -145.5t-71 -102t-97 -60t-124 -19.5q-45 0 -73.5 7t-35.5 13q-4 5 -6 11t-2 16q0 4 1.5 13.5t3.5 20t5 22t7 21.5t9 16t12 6t13.5 -1.5
t14 -3t18 -3t26.5 -1.5q42 0 72.5 13t52 40t36 69t26.5 102l164 818h-128q-10 0 -15.5 6.5t-5.5 24.5q0 8 1 19.5t3.5 23.5t6.5 23t10 20t12.5 14.5t16.5 5.5h126l23 112q17 83 46.5 144t72 101.5t98 60.5t123.5 20q22 0 45.5 -2.5t44 -7t36.5 -10.5t22 -12q5 -5 8 -14
t3 -19q0 -4 -1 -12.5t-2.5 -19t-4.5 -22.5t-7 -21.5t-9 -15.5t-11 -6q-7 0 -17.5 4t-24.5 8.5t-33 8.5t-41 4q-44 0 -74.5 -13t-52 -40.5t-37 -69.5t-26.5 -99l-15 -79h405l24 125q17 82 48 143.5t80.5 101.5t121.5 60t170 20q22 0 53.5 -2.5t61.5 -7t53.5 -10t29.5 -11.5
l5 -6.5t4 -6.5q1 8 6 15t15 11.5t26.5 7t43.5 2.5q23 0 38.5 -2t24 -6t11 -10t0.5 -14l-80 -402q-5 -26 -12 -54l-14.5 -55.5l-14.5 -52t-14 -42.5q16 35 51 72.5t81 69t101 52.5t112 21q59 0 102.5 -16t73 -42.5t48 -60.5t29 -70t14 -71.5t3.5 -65.5zM1987 630q0 27 -4 62
t-18.5 65t-42 50.5t-74.5 20.5q-55 0 -110.5 -30.5t-103.5 -85t-85.5 -128.5t-54.5 -161l-34 -166q48 -69 102 -102t122 -33q51 0 93.5 24t76 64t59 91.5t42 108.5t24.5 113.5t8 106.5z" />
    <glyph glyph-name="uniFB00" unicode="ff" horiz-adv-x="1195" 
d="M1387 1336q0 -4 -0.5 -12.5t-3 -19t-5 -22.5t-6.5 -21t-9 -15.5t-11 -6.5q-7 0 -17 4t-24.5 8.5t-33 8.5t-42.5 4q-43 0 -74 -13t-52 -40.5t-36 -69.5t-27 -99l-17 -91h202q11 0 17 -7.5t6 -24.5q0 -11 -1.5 -23t-4.5 -23.5t-8 -22t-10.5 -18.5t-12 -13t-14.5 -5h-202
l-164 -817q-18 -91 -47.5 -157.5t-72 -109.5t-99 -63t-127.5 -20q-51 0 -87.5 7.5t-48.5 20.5q-9 8 -9 27q0 5 1 14.5t3 20.5t5 22.5t7.5 21t10 15.5t12.5 6t16.5 -2.5l22 -6t28.5 -6.5t36 -3q41 0 71 13t51.5 39t36.5 67t26 97l163 814h-405l-166 -829q-18 -92 -48 -158.5
t-72.5 -109t-98.5 -62.5t-127 -20q-49 0 -85.5 8t-49.5 21q-4 4 -6.5 11t-2.5 17q0 4 1 13t3 20t5 22.5t7.5 21t9.5 15.5t12 6q14 0 39 -9t63 -9q42 0 72 13t51.5 39t36.5 66.5t25 96.5l166 827h-128q-10 0 -15.5 6.5t-5.5 24.5q0 8 1 19.5t3.5 23.5t6.5 23t10 20t12.5 14.5
t16.5 5.5h126l23 112q17 83 46.5 144t72 101.5t98 60.5t123.5 20q22 0 45.5 -2.5t44 -7t36.5 -10.5t22 -12q5 -5 8 -14t3 -19q0 -4 -1 -12.5t-2.5 -19t-4.5 -22.5t-7 -21.5t-9 -15.5t-11 -6q-7 0 -17.5 4t-24.5 8.5t-33 8.5t-41 4q-44 0 -74.5 -13t-52 -40.5t-37 -69.5
t-26.5 -99l-15 -79h405l24 123q17 83 46.5 144.5t71.5 102t97.5 60.5t124.5 20q22 0 45.5 -2.5t44 -7t36.5 -10.5t22 -12q5 -5 8 -14t3 -19z" />
    <glyph glyph-name="f_h.liga" unicode="fh" horiz-adv-x="1667" 
d="M1557 726q0 -36 -3.5 -70t-10.5 -69l-113 -562q-1 -8 -6 -13.5t-15.5 -9.5t-27 -6t-39.5 -2q-25 0 -40.5 2t-24 6t-11.5 9.5t0 13.5l110 556q5 26 8.5 58.5t3.5 56.5q0 29 -6 53t-19.5 41.5t-35 27.5t-53.5 10q-53 0 -107.5 -31t-102.5 -85.5t-85.5 -128.5t-54.5 -159
l-80 -399q-2 -8 -7 -13.5t-15.5 -9.5t-27 -6t-40.5 -2t-39.5 2t-23.5 6t-11 9.5t-2 13.5l244 1221q-2 -3 -6.5 -5t-10.5 -2q-7 0 -21 3.5l-35.5 8.5t-51.5 8.5t-70 3.5q-65 0 -108 -13t-71 -40.5t-44.5 -69.5t-27.5 -99l-17 -90h184q11 0 17.5 -7.5t6.5 -24.5
q0 -11 -1.5 -23t-5 -23.5t-8 -22t-10 -18.5t-12.5 -13t-15 -5h-184l-171 -852q-17 -84 -46 -145.5t-71 -102t-97 -60t-124 -19.5q-45 0 -73.5 7t-35.5 13q-4 5 -6 11t-2 16q0 4 1.5 13.5t3.5 20t5 22t7 21.5t9 16t12 6t13.5 -1.5t14 -3t18 -3t26.5 -1.5q42 0 72.5 13
t52 40.5t36 69.5t26.5 101l164 818h-128q-10 0 -15.5 6.5t-5.5 24.5q0 8 1 19.5t3.5 23.5t6.5 23t10 20t12.5 14.5t16.5 5.5h126l25 125q16 82 47.5 143.5t81.5 101.5t121 59.5t169 19.5q22 0 53.5 -2.5t61.5 -7t54 -10t30 -11.5l4.5 -6t3.5 -6q1 8 6 15t15 11.5t26.5 7
t43.5 2.5q23 0 38.5 -2t24 -6t11.5 -10t2 -14l-82 -407q-4 -26 -11 -53l-14.5 -53.5l-14.5 -50.5t-14 -42q17 35 51 72.5t80 69t101 52.5t114 21q64 0 109 -18.5t73 -51t41 -77.5t13 -97z" />
    <glyph glyph-name="f_f_h.liga" unicode="ffh" horiz-adv-x="2237" 
d="M2128 726q0 -36 -4 -70t-11 -69l-112 -562q-2 -8 -7 -13.5t-15.5 -9.5t-26.5 -6t-41 -2q-23 0 -38.5 2t-24 6t-11.5 9.5t-2 13.5l112 556q4 26 8 58.5t4 56.5q0 29 -6 53t-19.5 41.5t-35.5 27.5t-53 10q-53 0 -108 -31t-103 -85.5t-85.5 -128.5t-54.5 -159l-79 -399
q-3 -8 -7.5 -13.5t-15 -9.5t-27 -6t-40.5 -2q-25 0 -40.5 2t-24 6t-11 9.5t-0.5 13.5l243 1222q-2 -3 -6 -5t-10 -2q-8 0 -21.5 3.5t-35.5 8t-52 8.5t-70 4q-65 0 -108 -13t-71 -40.5t-44 -69.5t-28 -99l-17 -91h184q11 0 17.5 -7.5t6.5 -24.5q0 -11 -1.5 -23t-4.5 -23.5
t-8 -22t-10.5 -18.5t-12.5 -13t-14 -5h-185l-164 -817q-18 -91 -47.5 -157.5t-72 -109.5t-99 -63t-127.5 -20q-51 0 -87.5 7.5t-48.5 20.5q-9 8 -9 27q0 5 1 14.5t3 20.5t5 22.5t7.5 21t10 15.5t12.5 6t16.5 -2.5l22 -6t28.5 -6.5t36 -3q41 0 71 13t51.5 39t36.5 67t26 97
l163 814h-405l-171 -852q-17 -84 -46 -145.5t-71 -102t-97 -60t-124 -19.5q-45 0 -73.5 7t-35.5 13q-4 5 -6 11t-2 16q0 4 1.5 13.5t3.5 20t5 22t7 21.5t9 16t12 6t13.5 -1.5t14 -3t18 -3t26.5 -1.5q42 0 72.5 13t52 40.5t36 69.5t26.5 101l164 818h-128q-10 0 -15.5 6.5
t-5.5 24.5q0 8 1 19.5t3.5 23.5t6.5 23t10 20t12.5 14.5t16.5 5.5h126l23 112q17 83 46.5 144t72 101.5t98 60.5t123.5 20q22 0 45.5 -2.5t44 -7t36.5 -10.5t22 -12q5 -5 8 -14t3 -19q0 -4 -1 -12.5t-2.5 -19t-4.5 -22.5t-7 -21.5t-9 -15.5t-11 -6q-7 0 -17.5 4t-24.5 8.5
t-33 8.5t-41 4q-44 0 -74.5 -13t-52 -40.5t-37 -69.5t-26.5 -99l-15 -79h405l24 125q17 82 47.5 143.5t80.5 101.5t122 60t170 20q22 0 53.5 -2.5t61.5 -7t53.5 -10t29.5 -11.5l5 -6.5t4 -6.5q1 8 6 15t15 11.5t26.5 7t42.5 2.5q24 0 39.5 -2t24 -6t11 -10t0.5 -14l-80 -407
q-5 -26 -12 -53l-14.5 -53.5l-14.5 -50.5t-14 -42q17 35 51 72.5t80 69t101 52.5t114 21q64 0 109 -18.5t73.5 -51t41.5 -77.5t13 -97z" />
    <glyph glyph-name="uniFB01" unicode="fi" horiz-adv-x="1084" 
d="M978 951q27 0 35.5 -14t4.5 -37l-174 -875q-2 -8 -7 -13.5t-15.5 -9.5t-27 -6t-40.5 -2t-39.5 2t-23.5 6t-11 9.5t-2 13.5l158 789h-405l-171 -852q-17 -84 -46 -145.5t-71 -102t-97 -60t-124 -19.5q-45 0 -73.5 7t-35.5 13q-4 5 -6 11t-2 16q0 4 1.5 13.5t3.5 20t5 22
t7 21.5t9 16t12 6t13.5 -1.5t14 -3t18 -3t26.5 -1.5q42 0 72.5 13t52 40.5t36 69.5t26.5 101l164 818h-128q-10 0 -15.5 6.5t-5.5 24.5q0 8 1 19.5t3.5 23.5t6.5 23t10 20t12.5 14.5t16.5 5.5h126l25 123q16 83 46 144.5t72 102t97 60.5t123 20q23 0 45 -2.5t40 -7t31 -9.5
t18 -11q5 -5 7 -13t2 -18q0 -3 -1 -11.5t-3 -19l-4.5 -22.5t-6.5 -21.5t-9.5 -15.5t-11.5 -6q-7 0 -16 3t-21.5 6.5t-29 7t-38.5 3.5q-41 0 -70.5 -13t-50 -40.5t-35.5 -69.5t-26 -99l-17 -91h519zM1102 1228q-5 -28 -13 -47t-22 -30.5t-35 -16.5t-50 -5q-30 0 -48.5 5
t-27 16.5t-9.5 30.5t4 47q6 28 14 46.5t22 31t34.5 17t50.5 4.5t48 -4.5t27 -17t10 -31t-5 -46.5z" />
    <glyph glyph-name="f_igrave.liga" unicode="f&#xec;" horiz-adv-x="1084" 
d="M1055 1115q3 -10 3 -18.5t-6 -13.5t-18 -7.5t-34 -2.5q-20 0 -32.5 1t-20 4.5t-12 10t-8.5 16.5l-91 249q-3 10 -3 18.5t8 14.5t24.5 9.5t45.5 3.5q24 0 39 -1.5t23.5 -5.5t12 -11.5t6.5 -17.5zM978 951q27 0 35.5 -14t4.5 -37l-174 -875q-2 -8 -7 -13.5t-15.5 -9.5
t-27 -6t-40.5 -2t-39.5 2t-23.5 6t-11 9.5t-2 13.5l158 789h-405l-171 -852q-17 -84 -46 -145.5t-71 -102t-97 -60t-124 -19.5q-45 0 -73.5 7t-35.5 13q-4 5 -6 11t-2 16q0 4 1.5 13.5t3.5 20t5 22t7 21.5t9 16t12 6t13.5 -1.5t14 -3t18 -3t26.5 -1.5q42 0 72.5 13t52 40.5
t36 69.5t26.5 101l164 818h-128q-10 0 -15.5 6.5t-5.5 24.5q0 8 1 19.5t3.5 23.5t6.5 23t10 20t12.5 14.5t16.5 5.5h126l25 123q16 83 45 144.5t70 102t93.5 60t116.5 19.5q20 0 40 -2t37 -6t29.5 -8.5t17.5 -9.5q6 -6 8.5 -15t2.5 -19q0 -3 -1 -11.5t-2.5 -19t-4 -22.5
t-7 -21.5t-9 -15.5t-11.5 -6t-15.5 3l-19 6.5t-24.5 6.5t-33 3q-39 0 -67.5 -13t-48 -40.5t-34 -69.5t-25.5 -99l-17 -90h519z" />
    <glyph glyph-name="f_iacute.liga" unicode="f&#xed;" horiz-adv-x="1084" 
d="M978 951q27 0 35.5 -14t4.5 -37l-174 -875q-2 -8 -7 -13.5t-15.5 -9.5t-27 -6t-40.5 -2t-39.5 2t-23.5 6t-11 9.5t-2 13.5l158 789h-405l-171 -852q-17 -84 -46 -145.5t-71 -102t-97 -60t-124 -19.5q-45 0 -73.5 7t-35.5 13q-4 5 -6 11t-2 16q0 4 1.5 13.5t3.5 20t5 22
t7 21.5t9 16t12 6t13.5 -1.5t14 -3t18 -3t26.5 -1.5q42 0 72.5 13t52 40.5t36 69.5t26.5 101l164 818h-128q-10 0 -15.5 6.5t-5.5 24.5q0 8 1 19.5t3.5 23.5t6.5 23t10 20t12.5 14.5t16.5 5.5h126l25 123q16 83 46 144.5t72 102t97 60t123 19.5q21 0 43.5 -2.5t42.5 -6
t34.5 -9t20.5 -11.5q6 -5 9 -14t3 -19q0 -4 -1 -12.5t-3 -19t-5 -22t-6.5 -21t-9 -16t-11.5 -6.5q-8 0 -17 3l-22 7.5t-30.5 8t-39.5 3.5q-43 0 -73.5 -13t-52 -40.5t-36.5 -69.5t-26 -99l-17 -90h519zM1045 1122q-7 -10 -13.5 -16t-16 -9.5t-22.5 -5t-33 -1.5q-22 0 -35 3
t-18 8t-3 13t9 19l154 231q7 11 15.5 18t20 11t28.5 6t42 2q28 0 44.5 -3.5t23 -10t5 -15t-9.5 -17.5zM620 950z" />
    <glyph glyph-name="f_icircumflex.liga" unicode="f&#xee;" horiz-adv-x="1084" 
d="M879 1118q-8 -9 -15.5 -14.5t-16.5 -9t-21.5 -4.5t-31.5 -1q-24 0 -37.5 3t-17.5 10t1.5 18.5t20.5 27.5l198 226q6 8 14 12.5t18.5 7.5t26 4t37.5 1q21 0 34.5 -1t23.5 -4.5t15 -8.5t10 -11l109 -229q7 -16 9.5 -26.5t-3 -17t-19.5 -9.5t-38 -3q-22 0 -34.5 1t-20 4.5
t-11.5 9t-7 14.5l-86 181zM978 951q27 0 35.5 -14t4.5 -37l-174 -875q-2 -8 -7 -13.5t-15.5 -9.5t-27 -6t-40.5 -2t-39.5 2t-23.5 6t-11 9.5t-2 13.5l158 789h-405l-171 -852q-17 -84 -46 -145.5t-71 -102t-97 -60t-124 -19.5q-45 0 -73.5 7t-35.5 13q-4 5 -6 11t-2 16
q0 4 1.5 13.5t3.5 20t5 22t7 21.5t9 16t12 6t13.5 -1.5t14 -3t18 -3t26.5 -1.5q42 0 72.5 13t52 40.5t36 69.5t26.5 101l164 818h-128q-10 0 -15.5 6.5t-5.5 24.5q0 8 1 19.5t3.5 23.5t6.5 23t10 20t12.5 14.5t16.5 5.5h126l25 123q16 83 45 144.5t70 102t93.5 60
t116.5 19.5q20 0 40 -2t37 -6t29.5 -8.5t17.5 -9.5q6 -6 8.5 -15t2.5 -19q0 -3 -1 -11.5t-2.5 -19t-4 -21.5t-7 -20.5t-9.5 -15.5t-12 -6t-15 3t-18.5 6.5t-25 6.5t-32.5 3q-40 0 -68 -13t-47.5 -40.5t-34 -69.5t-25.5 -99l-17 -92h519z" />
    <glyph glyph-name="f_itilde.liga" unicode="f&#x129;" horiz-adv-x="1103" 
d="M1307 1305q0 -10 -2.5 -32t-9 -47.5t-18.5 -52.5t-32 -49t-48.5 -36t-68.5 -14q-49 0 -81.5 21t-56.5 46l-44.5 46t-45.5 21q-28 0 -44.5 -25t-22.5 -82q0 -7 -2.5 -12t-9.5 -8t-18 -5t-30 -2q-15 0 -25 2t-15.5 5.5t-7.5 9.5t-2 15q0 8 2 28.5t8 45.5t18 52.5t32.5 50
t49.5 37t69 14.5q48 0 80.5 -21t57.5 -46l46 -46t45 -21q25 0 41.5 24t22.5 83q1 7 4.5 12.5t10 8.5t17 4.5t25.5 1.5q34 0 44.5 -6.5t10.5 -22.5zM997 951q27 0 35 -13.5t5 -37.5l-175 -875q-1 -8 -6 -13.5t-15.5 -9.5t-27 -6t-40.5 -2q-25 0 -40.5 2t-23.5 6t-11 9.5
t-1 13.5l158 789h-424l-171 -852q-17 -84 -46 -145.5t-71 -102t-97 -60t-124 -19.5q-45 0 -73.5 7t-35.5 13q-4 5 -6 11t-2 16q0 4 1.5 13.5t3.5 20t5 22t7 21.5t9 16t12 6t13.5 -1.5t14 -3t18 -3t26.5 -1.5q42 0 72.5 13t52 40.5t36 69.5t26.5 101l164 818h-128
q-10 0 -15.5 6.5t-5.5 24.5q0 8 1 19.5t3.5 23.5t6.5 23t10 20t12.5 14.5t16.5 5.5h126l26 126q16 82 44.5 142.5t69 101t92.5 60t117 19.5q34 0 60 -5.5t34 -12.5q4 -4 6 -10.5t2 -18.5q0 -2 -1 -10.5t-3 -19.5t-4.5 -23t-6.5 -21.5t-9 -16t-11 -6.5t-11 1t-11.5 2
l-16.5 2.5t-25 1.5q-38 0 -64.5 -13t-46.5 -40.5t-33.5 -69.5t-24.5 -99l-17 -90h538z" />
    <glyph glyph-name="f_idieresis.liga" unicode="f&#xef;" horiz-adv-x="1103" 
d="M798 1228q5 27 13.5 45t21 29t31 15.5t44.5 4.5q24 0 40.5 -4.5t24 -15.5t8.5 -29t-5 -45q-5 -27 -13 -45t-20 -29t-30 -16t-44 -5q-25 0 -41 5t-24.5 16t-9.5 29t4 45zM1087 1228q5 27 13 45t21 29t31.5 15.5t43.5 4.5t41 -4.5t24 -15.5t8.5 -29t-4.5 -45t-13 -45
t-20.5 -29t-30.5 -16t-43 -5t-41.5 5t-25 16t-9 29t4.5 45zM997 951q27 0 35 -13.5t5 -37.5l-175 -875q-1 -8 -6 -13.5t-15.5 -9.5t-27 -6t-40.5 -2q-25 0 -40.5 2t-23.5 6t-11 9.5t-1 13.5l158 789h-424l-171 -852q-17 -84 -46 -145.5t-71 -102t-97 -60t-124 -19.5
q-45 0 -73.5 7t-35.5 13q-4 5 -6 11t-2 16q0 4 1.5 13.5t3.5 20t5 22t7 21.5t9 16t12 6t13.5 -1.5t14 -3t18 -3t26.5 -1.5q42 0 72.5 13t52 40.5t36 69.5t26.5 101l164 818h-128q-10 0 -15.5 6.5t-5.5 24.5q0 8 1 19.5t3.5 23.5t6.5 23t10 20t12.5 14.5t16.5 5.5h126l26 126
q16 82 44.5 142.5t69 101t92.5 60t117 19.5q19 0 37.5 -1.5t34 -4.5t26.5 -7t16 -8q5 -5 8 -14t3 -19q0 -3 -1 -11.5t-3 -19.5t-4.5 -23t-6.5 -22t-9.5 -16.5t-11.5 -6.5q-7 0 -14 2.5t-17 5t-23.5 5t-31.5 2.5q-38 0 -65 -13t-46.5 -40t-33 -69t-24.5 -99l-17 -90h538z" />
    <glyph glyph-name="f_imacron.liga" unicode="f&#x12b;" horiz-adv-x="1103" 
d="M1251 1293q12 0 18.5 -8.5t6.5 -21.5q0 -5 -1.5 -14l-3.5 -20t-5.5 -22.5t-9 -21t-13 -15.5t-16.5 -6h-427q-14 0 -19.5 8t-5.5 24q0 5 0.5 14t3 20t6.5 22.5t9 20.5t12.5 14.5t17.5 5.5h427zM997 951q27 0 35 -13.5t5 -37.5l-175 -875q-1 -8 -6 -13.5t-15.5 -9.5t-27 -6
t-40.5 -2q-25 0 -40.5 2t-23.5 6t-11 9.5t-1 13.5l158 789h-424l-171 -852q-17 -84 -46 -145.5t-71 -102t-97 -60t-124 -19.5q-45 0 -73.5 7t-35.5 13q-4 5 -6 11t-2 16q0 4 1.5 13.5t3.5 20t5 22t7 21.5t9 16t12 6t13.5 -1.5t14 -3t18 -3t26.5 -1.5q42 0 72.5 13t52 40.5
t36 69.5t26.5 101l164 818h-128q-10 0 -15.5 6.5t-5.5 24.5q0 8 1 19.5t3.5 23.5t6.5 23t10 20t12.5 14.5t16.5 5.5h126l26 126q16 82 44.5 142.5t69 101t92.5 60t117 19.5q19 0 37.5 -1.5t34 -4.5t26.5 -7t16 -8q5 -5 8 -14t3 -19q0 -3 -1 -11.5t-3 -19.5t-4.5 -22.5
t-6.5 -21.5t-9 -16.5t-11 -6.5q-7 0 -14.5 2.5t-17.5 5t-23.5 5t-31.5 2.5q-38 0 -64.5 -13t-46.5 -40.5t-33.5 -69.5t-24.5 -99l-17 -90h538z" />
    <glyph glyph-name="f_ibreve.liga" unicode="f&#x12d;" horiz-adv-x="1103" 
d="M1181 1372q6 6 18 9.5t37 3.5q18 0 29 -1t17 -3.5t8 -6t2 -7.5t-2.5 -26.5t-12.5 -53.5t-28 -66.5t-50 -65.5t-79 -49.5t-113 -19.5q-64 0 -105 16t-64.5 42.5t-32 59t-8.5 65.5q0 14 1.5 30.5t3.5 31.5t5.5 26.5t7.5 15.5q5 5 17.5 8.5t36.5 3.5q16 0 27 -1t16.5 -4
t8 -7t2.5 -10q0 -10 -2 -28t-2 -31q0 -48 21 -75t76 -27q35 0 60 12t42.5 30t28 38.5t17 39.5t10.5 33t7 17zM997 951q27 0 35 -13.5t5 -37.5l-175 -875q-1 -8 -6 -13.5t-15.5 -9.5t-27 -6t-40.5 -2q-25 0 -40.5 2t-23.5 6t-11 9.5t-1 13.5l158 789h-424l-171 -852
q-17 -84 -46 -145.5t-71 -102t-97 -60t-124 -19.5q-45 0 -73.5 7t-35.5 13q-4 5 -6 11t-2 16q0 4 1.5 13.5t3.5 20t5 22t7 21.5t9 16t12 6t13.5 -1.5t14 -3t18 -3t26.5 -1.5q42 0 72.5 13t52 40.5t36 69.5t26.5 101l164 818h-128q-10 0 -15.5 6.5t-5.5 24.5q0 8 1 19.5
t3.5 23.5t6.5 23t10 20t12.5 14.5t16.5 5.5h126l26 126q16 82 44.5 142.5t69 101t92.5 60t117 19.5q34 0 60.5 -5.5t34.5 -12.5q5 -4 6.5 -10.5t1.5 -18.5q0 -2 -0.5 -10.5t-2.5 -19.5t-5 -23t-6.5 -21.5t-9 -16t-11.5 -6.5t-11.5 1t-12 2l-16.5 2.5t-25 1.5
q-38 0 -64.5 -13t-46.5 -40.5t-33.5 -69.5t-24.5 -99l-17 -90h538z" />
    <glyph glyph-name="f_iogonek.liga" unicode="f&#x12f;" horiz-adv-x="1084" 
d="M844 24q-5 -21 -14.5 -37.5t-25.5 -29.5l-75 -62q-36 -32 -53.5 -53.5t-17.5 -43.5q0 -18 13 -29.5t46 -11.5h112q12 0 16.5 -5t4.5 -15q0 -6 -1.5 -16t-4 -21t-6.5 -20.5t-8 -13.5q-7 -6 -23 -11.5t-36.5 -10t-45 -7t-46.5 -2.5q-93 0 -139 32t-46 94q0 20 4.5 40
t17 42.5t34.5 47.5t56 53l68 58l162 812h-405l-171 -852q-17 -84 -46 -145.5t-71 -102t-97 -60t-124 -19.5q-45 0 -73.5 7t-35.5 13q-4 5 -6 11t-2 16q0 4 1.5 13.5t3 20t5 22t7.5 21.5t9 16t12 6t13.5 -1.5t14 -3t18 -3t26.5 -1.5q42 0 72.5 13t52 40.5t36 69.5t26.5 101
l164 818h-128q-10 0 -15.5 6.5t-5.5 24.5q0 8 1 19.5t3.5 23.5t6.5 23t10 20t12.5 14.5t16.5 5.5h126l25 123q16 83 46 144.5t72 102t97 60.5t123 20q23 0 45 -2.5t40 -7t31 -9.5t18 -11q6 -5 7.5 -13t1.5 -18q0 -3 -1 -11.5t-3 -19l-4.5 -22.5t-6.5 -21.5t-9.5 -15.5
t-11.5 -6q-7 0 -16 3t-21.5 6.5t-29 7t-38.5 3.5q-41 0 -70.5 -13t-50 -40.5t-35.5 -69.5t-26 -99l-17 -91h519q27 0 35.5 -14t4.5 -37zM1102 1228q-5 -28 -13 -47t-22 -30.5t-35 -16.5t-50 -5q-30 0 -48.5 5t-27 16.5t-9.5 30.5t4 47q6 28 14 46.5t22 31t34.5 17t50.5 4.5
t48 -4.5t27 -17t10 -31t-5 -46.5z" />
    <glyph glyph-name="f_dotlessi.liga" unicode="f&#x131;" horiz-adv-x="1084" 
d="M978 951q27 0 35.5 -14t4.5 -37l-174 -875q-2 -8 -7 -13.5t-15.5 -9.5t-27 -6t-40.5 -2t-39.5 2t-23.5 6t-11 9.5t-2 13.5l158 789h-405l-171 -852q-17 -84 -46 -145.5t-71 -102t-97 -60t-124 -19.5q-45 0 -73.5 7t-35.5 13q-4 5 -6 11t-2 16q0 4 1.5 13.5t3.5 20t5 22
t7 21.5t9 16t12 6t13.5 -1.5t14 -3t18 -3t26.5 -1.5q42 0 72.5 13t52 40.5t36 69.5t26.5 101l164 818h-128q-10 0 -15.5 6.5t-5.5 24.5q0 8 1 19.5t3.5 23.5t6.5 23t10 20t12.5 14.5t16.5 5.5h126l25 123q16 83 46 144.5t72 102t97 60t123 19.5q21 0 43.5 -2.5t42.5 -6
t34.5 -9t20.5 -11.5q6 -5 9 -14t3 -19q0 -4 -1 -12.5t-3 -19t-5 -22t-6.5 -21t-9 -16t-11.5 -6.5q-8 0 -17 3l-22 7.5t-30.5 8t-39.5 3.5q-43 0 -73.5 -13t-52 -40.5t-36.5 -69.5t-26 -99l-17 -90h519z" />
    <glyph glyph-name="uniFB03" unicode="ffi" horiz-adv-x="1654" 
d="M431 814l-171 -852q-17 -84 -46 -145.5t-71 -102t-97 -60t-124 -19.5q-45 0 -73.5 7t-35.5 13q-4 5 -6 11t-2 16q0 4 1.5 13.5t3.5 20t5 22t7 21.5t9 16t12 6t13.5 -1.5t14 -3t18 -3t26.5 -1.5q42 0 72.5 13t52 40.5t36 69.5t26.5 101l164 818h-128q-10 0 -15.5 6.5
t-5.5 24.5q0 8 1 19.5t3.5 23.5t6.5 23t10 20t12.5 14.5t16.5 5.5h126l23 112q17 83 46.5 144t72 101.5t98 60.5t123.5 20q22 0 45.5 -2.5t44 -7t36.5 -10.5t22 -12q5 -5 8 -14t3 -19q0 -4 -1 -12.5t-2.5 -19t-4.5 -22.5t-7 -21.5t-9 -15.5t-11 -6q-7 0 -17.5 4t-24.5 8.5
t-33 8.5t-41 4q-44 0 -74.5 -13t-52 -40.5t-37 -69.5t-26.5 -99l-15 -79h405l24 123q17 83 46.5 144.5t71.5 102t97 60.5t124 20q23 0 45 -2.5t40 -7t31 -9.5t19 -11q5 -5 6 -13t1 -18q0 -3 -0.5 -11.5t-2.5 -19t-4.5 -22t-6.5 -21t-9 -16t-11 -6.5q-8 0 -17.5 3t-22 6.5
t-28.5 7t-38 3.5q-42 0 -71 -13t-50 -40.5t-35.5 -69.5t-26.5 -99l-17 -91h519q27 0 35.5 -13.5t5.5 -37.5l-174 -875q-3 -8 -7.5 -13.5t-15 -9.5t-27 -6t-40.5 -2q-25 0 -40.5 2t-24 6t-11 9.5t-0.5 13.5l157 789h-405l-164 -817q-18 -91 -47.5 -157.5t-72 -109.5t-99 -63
t-127.5 -20q-51 0 -87.5 7.5t-48.5 20.5q-9 8 -9 27q0 5 1 14.5t3 20.5t5 22.5t7.5 21t10 15.5t12.5 6t16.5 -2.5l22 -6t28.5 -6.5t36 -3q41 0 71 13t51.5 39t36.5 67t26 97l163 814h-405zM1673 1228q-5 -28 -13.5 -47t-22.5 -30.5t-34.5 -16.5t-50.5 -5t-48.5 5t-27.5 16.5
t-9.5 30.5t4.5 47q6 28 14.5 46.5t22 31t34.5 17t51 4.5q29 0 47.5 -4.5t27.5 -17t10 -31t-5 -46.5z" />
    <glyph glyph-name="f_f_igrave.liga" unicode="ff&#xec;" horiz-adv-x="1654" 
d="M864 951l24 123q17 83 46 144.5t70 102t93 60.5t116 20q20 0 40 -2t37.5 -6t30 -8.5t17.5 -9.5q5 -6 8 -15t3 -19q0 -3 -1 -11.5t-3 -19l-4.5 -22.5t-6.5 -21t-9.5 -15.5t-11.5 -6.5q-7 0 -15 3t-18.5 6.5t-25 6.5t-33.5 3q-39 0 -67 -13t-48 -40.5t-34 -69.5t-26 -99
l-17 -91h519q27 0 35.5 -13.5t5.5 -37.5l-174 -875q-3 -8 -7.5 -13.5t-15 -9.5t-27 -6t-40.5 -2q-25 0 -40.5 2t-24 6t-11 9.5t-0.5 13.5l157 789h-405l-164 -817q-18 -91 -47.5 -157.5t-72 -109.5t-99 -63t-127.5 -20q-51 0 -87.5 7.5t-48.5 20.5q-9 8 -9 27q0 5 1 14.5
t3 20.5t5 22.5t7.5 21t10 15.5t12.5 6t16.5 -2.5l22 -6t28.5 -6.5t36 -3q41 0 71 13t51.5 39t36.5 67t26 97l163 814h-405l-171 -852q-17 -84 -46 -145.5t-71 -102t-97 -60t-124 -19.5q-45 0 -73.5 7t-35.5 13q-4 5 -6 11t-2 16q0 4 1.5 13.5t3.5 20t5 22t7 21.5t9 16t12 6
t13.5 -1.5t14 -3t18 -3t26.5 -1.5q42 0 72.5 13t52 40.5t36 69.5t26.5 101l164 818h-128q-10 0 -15.5 6.5t-5.5 24.5q0 8 1 19.5t3.5 23.5t6.5 23t10 20t12.5 14.5t16.5 5.5h126l23 112q17 83 46.5 144t72 101.5t98 60.5t123.5 20q22 0 45.5 -2.5t44 -7t36.5 -10.5t22 -12
q5 -5 8 -14t3 -19q0 -4 -1 -12.5t-2.5 -19t-4.5 -22.5t-7 -21.5t-9 -15.5t-11 -6q-7 0 -17.5 4t-24.5 8.5t-33 8.5t-41 4q-44 0 -74.5 -13t-52 -40.5t-37 -69.5t-26.5 -99l-15 -79h405zM1626 1115q2 -10 2 -18.5t-5.5 -13.5t-17.5 -7.5t-34 -2.5q-20 0 -32.5 1t-20.5 4.5
t-12.5 10t-8.5 16.5l-90 249q-3 10 -3 18.5t8 14.5t24.5 9.5t45.5 3.5q24 0 39 -1.5t23.5 -5.5t12 -11.5t6.5 -17.5z" />
    <glyph glyph-name="f_f_iacute.liga" unicode="ff&#xed;" horiz-adv-x="1654" 
d="M431 814l-171 -852q-17 -84 -46 -145.5t-71 -102t-97 -60t-124 -19.5q-45 0 -73.5 7t-35.5 13q-4 5 -6 11t-2 16q0 4 1.5 13.5t3.5 20t5 22t7 21.5t9 16t12 6t13.5 -1.5t14 -3t18 -3t26.5 -1.5q42 0 72.5 13t52 40.5t36 69.5t26.5 101l164 818h-128q-10 0 -15.5 6.5
t-5.5 24.5q0 8 1 19.5t3.5 23.5t6.5 23t10 20t12.5 14.5t16.5 5.5h126l23 112q17 83 46.5 144t72 101.5t98 60.5t123.5 20q22 0 45.5 -2.5t44 -7t36.5 -10.5t22 -12q5 -5 8 -14t3 -19q0 -4 -1 -12.5t-2.5 -19t-4.5 -22.5t-7 -21.5t-9 -15.5t-11 -6q-7 0 -17.5 4t-24.5 8.5
t-33 8.5t-41 4q-44 0 -74.5 -13t-52 -40.5t-37 -69.5t-26.5 -99l-15 -79h405l24 123q17 83 46.5 144.5t71.5 102t97 60.5t124 20q24 0 48 -3t45 -7.5t35.5 -10t20.5 -11.5q5 -5 8 -14t3 -19q0 -4 -0.5 -12.5t-3 -19.5l-5 -22.5t-6.5 -20.5t-9 -15.5t-11 -6.5q-8 0 -18.5 4
t-25 8.5t-33 8.5t-40.5 4q-44 0 -74.5 -13t-52 -40.5t-36 -69.5t-26.5 -99l-17 -91h519q27 0 35.5 -13.5t5.5 -37.5l-174 -875q-3 -8 -7.5 -13.5t-15 -9.5t-27 -6t-40.5 -2q-25 0 -40.5 2t-24 6t-11 9.5t-0.5 13.5l157 789h-405l-164 -817q-18 -91 -47.5 -157.5t-72 -109.5
t-99 -63t-127.5 -20q-51 0 -87.5 7.5t-48.5 20.5q-9 8 -9 27q0 5 1 14.5t3 20.5t5 22.5t7.5 21t10 15.5t12.5 6t16.5 -2.5l22 -6t28.5 -6.5t36 -3q41 0 71 13t51.5 39t36.5 67t26 97l163 814h-405zM1616 1121q-6 -10 -13 -16t-16 -9.5t-22.5 -4.5t-33.5 -1q-22 0 -34.5 2.5
t-17.5 7.5t-3.5 13.5t8.5 18.5l154 232q8 10 16 17.5t20 11.5t28.5 5.5t41.5 1.5q29 0 45 -3.5t23 -10t5.5 -14.5t-9.5 -18z" />
    <glyph glyph-name="f_f_icircumflex.liga" unicode="ff&#xee;" horiz-adv-x="1654" 
d="M1449 1118q-8 -9 -15 -14.5t-16.5 -9t-22 -4.5t-31.5 -1q-25 0 -38 3t-16.5 10t2 18.5t19.5 27.5l198 226q7 8 15 12.5t18.5 7.5t26 4t37.5 1q21 0 34.5 -1t22.5 -4.5t15 -8.5t9 -11l111 -229q7 -16 9 -26.5t-3 -17t-19 -9.5t-39 -3q-21 0 -33.5 1t-20.5 4.5t-12 9
t-7 14.5l-86 181zM864 951l24 123q17 83 46 144.5t70 102t93 60.5t116 20q20 0 40 -2t37.5 -6t30 -8.5t17.5 -9.5q5 -6 8 -15t3 -19q0 -3 -1 -11t-3 -18.5t-5 -22t-6.5 -21t-9 -15.5t-11.5 -6q-7 0 -15 3t-18.5 6t-25 6t-33.5 3q-39 0 -67 -13t-48 -40.5t-34 -70t-26 -99.5
l-17 -91h519q27 0 35.5 -13.5t5.5 -37.5l-174 -875q-3 -8 -7.5 -13.5t-15 -9.5t-27 -6t-40.5 -2q-25 0 -40.5 2t-24 6t-11 9.5t-0.5 13.5l157 789h-405l-164 -817q-18 -91 -47.5 -157.5t-72 -109.5t-99 -63t-127.5 -20q-51 0 -87.5 7.5t-48.5 20.5q-9 8 -9 27q0 5 1 14.5
t3 20.5t5 22.5t7.5 21t10 15.5t12.5 6t16.5 -2.5l22 -6t28.5 -6.5t36 -3q41 0 71 13t51.5 39t36.5 67t26 97l163 814h-405l-171 -852q-17 -84 -46 -145.5t-71 -102t-97 -60t-124 -19.5q-45 0 -73.5 7t-35.5 13q-4 5 -6 11t-2 16q0 4 1.5 13.5t3.5 20t5 22t7 21.5t9 16t12 6
t13.5 -1.5t14 -3t18 -3t26.5 -1.5q42 0 72.5 13t52 40.5t36 69.5t26.5 101l164 818h-128q-10 0 -15.5 6.5t-5.5 24.5q0 8 1 19.5t3.5 23.5t6.5 23t10 20t12.5 14.5t16.5 5.5h126l23 112q17 83 46.5 144t72 101.5t98 60.5t123.5 20q22 0 45.5 -2.5t44 -7t36.5 -10.5t22 -12
q5 -5 8 -14t3 -19q0 -4 -1 -12.5t-2.5 -19t-4.5 -22.5t-7 -21.5t-9 -15.5t-11 -6q-7 0 -17.5 4t-24.5 8.5t-33 8.5t-41 4q-44 0 -74.5 -13t-52 -40.5t-37 -69.5t-26.5 -99l-15 -79h405z" />
    <glyph glyph-name="f_f_itilde.liga" unicode="ff&#x129;" horiz-adv-x="1673" 
d="M864 951l26 129q17 82 45 142.5t67.5 100t91 59t115.5 19.5q36 0 62.5 -5.5t34.5 -13.5q6 -5 7.5 -11.5t1.5 -18.5q0 -3 -1 -12t-3 -19.5t-5 -22t-7 -21.5t-9 -16t-11 -6q-12 0 -24.5 4t-38.5 4q-39 0 -65.5 -13.5t-46 -41.5t-33 -70.5t-25.5 -100.5l-17 -86h537
q28 0 36.5 -13.5t4.5 -37.5l-174 -875q-2 -8 -7 -13.5t-15.5 -9.5t-26.5 -6t-41 -2q-24 0 -39.5 2t-24 6t-11 9.5t-1.5 13.5l157 789h-423l-164 -817q-18 -91 -47.5 -157.5t-72 -109.5t-99 -63t-127.5 -20q-51 0 -87.5 7.5t-48.5 20.5q-9 8 -9 27q0 5 1 14.5t3 20.5t5 22.5
t7.5 21t10 15.5t12.5 6t16.5 -2.5l22 -6t28.5 -6.5t36 -3q41 0 71 13t51.5 39t36.5 67t26 97l163 814h-405l-171 -852q-17 -84 -46 -145.5t-71 -102t-97 -60t-124 -19.5q-45 0 -73.5 7t-35.5 13q-4 5 -6 11t-2 16q0 4 1.5 13.5t3.5 20t5 22t7 21.5t9 16t12 6t13.5 -1.5
t14 -3t18 -3t26.5 -1.5q42 0 72.5 13t52 40.5t36 69.5t26.5 101l164 818h-128q-10 0 -15.5 6.5t-5.5 24.5q0 8 1 19.5t3.5 23.5t6.5 23t10 20t12.5 14.5t16.5 5.5h126l23 112q17 83 46.5 144t72 101.5t98 60.5t123.5 20q22 0 45.5 -2.5t44 -7t36.5 -10.5t22 -12q5 -5 8 -14
t3 -19q0 -4 -1 -12.5t-2.5 -19t-4.5 -22.5t-7 -21.5t-9 -15.5t-11 -6q-7 0 -17.5 4t-24.5 8.5t-33 8.5t-41 4q-44 0 -74.5 -13t-52 -40.5t-37 -69.5t-26.5 -99l-15 -79h405zM1878 1305q0 -10 -2.5 -32t-9 -47.5t-19 -52.5t-32 -49t-48.5 -36t-68 -14q-33 0 -58 10t-45 24.5
t-35.5 32l-30 32.5t-29 25t-31.5 10q-27 0 -43.5 -25t-22.5 -82q-1 -7 -3.5 -12t-9.5 -8t-18 -5t-30 -2q-15 0 -24.5 2t-15.5 5.5t-8 9.5t-2 15q0 8 2 28.5t8.5 45.5t18.5 52.5t31.5 50t48.5 37t70 14.5q32 0 57 -9.5t44.5 -25t36.5 -32.5l31.5 -32.5t29 -25t30.5 -9.5
q25 0 42 24t23 83q1 7 4 12.5t9.5 8.5t17 4.5t25.5 1.5q33 0 44.5 -6.5t11.5 -22.5z" />
    <glyph glyph-name="f_f_idieresis.liga" unicode="ff&#xef;" horiz-adv-x="1673" 
d="M1369 1228q5 27 13 45t21 29t31.5 15.5t42.5 4.5q26 0 42 -4.5t24 -15.5t8.5 -29t-4.5 -45t-13 -45t-20.5 -29t-30.5 -16t-43 -5q-26 0 -42 5t-24.5 16t-9.5 29t5 45zM1658 1228q5 27 13 45t21 29t31 15.5t43 4.5q26 0 41.5 -4.5t23.5 -15.5t9 -29t-4 -45t-13.5 -45
t-21 -29t-30.5 -16t-42 -5q-26 0 -42.5 5t-24.5 16t-9 29t5 45zM864 951l24 123q17 83 45.5 144.5t68.5 102t92 60.5t116 20q18 0 37 -2t35 -5t28 -7.5t17 -9.5q6 -6 8 -12.5t2 -18.5q0 -3 -1 -12t-2.5 -19.5t-4.5 -22t-6.5 -21t-9 -15.5t-11.5 -6q-7 0 -15 2t-18 4
l-22.5 4.5t-30.5 2.5q-38 0 -65 -13t-46.5 -40t-33 -69t-25.5 -99l-17 -91h537q28 0 36.5 -13.5t4.5 -37.5l-174 -875q-2 -8 -7 -13.5t-15.5 -9.5t-26.5 -6t-41 -2q-24 0 -39.5 2t-24 6t-11 9.5t-1.5 13.5l157 789h-423l-164 -817q-18 -91 -47.5 -157.5t-72 -109.5t-99 -63
t-127.5 -20q-51 0 -87.5 7.5t-48.5 20.5q-9 8 -9 27q0 5 1 14.5t3 20.5t5 22.5t7.5 21t10 15.5t12.5 6t16.5 -2.5l22 -6t28.5 -6.5t36 -3q41 0 71 13t51.5 39t36.5 67t26 97l163 814h-405l-171 -852q-17 -84 -46 -145.5t-71 -102t-97 -60t-124 -19.5q-45 0 -73.5 7t-35.5 13
q-4 5 -6 11t-2 16q0 4 1.5 13.5t3.5 20t5 22t7 21.5t9 16t12 6t13.5 -1.5t14 -3t18 -3t26.5 -1.5q42 0 72.5 13t52 40.5t36 69.5t26.5 101l164 818h-128q-10 0 -15.5 6.5t-5.5 24.5q0 8 1 19.5t3.5 23.5t6.5 23t10 20t12.5 14.5t16.5 5.5h126l23 112q17 83 46.5 144
t72 101.5t98 60.5t123.5 20q22 0 45.5 -2.5t44 -7t36.5 -10.5t22 -12q5 -5 8 -14t3 -19q0 -4 -1 -12.5t-2.5 -19t-4.5 -22.5t-7 -21.5t-9 -15.5t-11 -6q-7 0 -17.5 4t-24.5 8.5t-33 8.5t-41 4q-44 0 -74.5 -13t-52 -40.5t-37 -69.5t-26.5 -99l-15 -79h405z" />
    <glyph glyph-name="f_f_imacron.liga" unicode="ff&#x12b;" horiz-adv-x="1673" 
d="M864 951l24 123q17 83 45.5 144.5t68.5 102t92 60.5t116 20q18 0 37 -2t35 -5t28 -7.5t17 -9.5q6 -6 8 -12.5t2 -18.5q0 -3 -1 -12t-2.5 -19.5t-4.5 -22t-6.5 -21t-9 -15.5t-11.5 -6q-7 0 -15 2t-18 4l-22.5 4.5t-30.5 2.5q-38 0 -65 -13t-46.5 -40t-33 -69t-25.5 -99
l-17 -91h537q28 0 36.5 -13.5t4.5 -37.5l-174 -875q-2 -8 -7 -13.5t-15.5 -9.5t-26.5 -6t-41 -2q-24 0 -39.5 2t-24 6t-11 9.5t-1.5 13.5l157 789h-423l-164 -817q-18 -91 -47.5 -157.5t-72 -109.5t-99 -63t-127.5 -20q-51 0 -87.5 7.5t-48.5 20.5q-9 8 -9 27q0 5 1 14.5
t3 20.5t5 22.5t7.5 21t10 15.5t12.5 6t16.5 -2.5l22 -6t28.5 -6.5t36 -3q41 0 71 13t51.5 39t36.5 67t26 97l163 814h-405l-171 -852q-17 -84 -46 -145.5t-71 -102t-97 -60t-124 -19.5q-45 0 -73.5 7t-35.5 13q-4 5 -6 11t-2 16q0 4 1.5 13.5t3.5 20t5 22t7 21.5t9 16t12 6
t13.5 -1.5t14 -3t18 -3t26.5 -1.5q42 0 72.5 13t52 40.5t36 69.5t26.5 101l164 818h-128q-10 0 -15.5 6.5t-5.5 24.5q0 8 1 19.5t3.5 23.5t6.5 23t10 20t12.5 14.5t16.5 5.5h126l23 112q17 83 46.5 144t72 101.5t98 60.5t123.5 20q22 0 45.5 -2.5t44 -7t36.5 -10.5t22 -12
q5 -5 8 -14t3 -19q0 -4 -1 -12.5t-2.5 -19t-4.5 -22.5t-7 -21.5t-9 -15.5t-11 -6q-7 0 -17.5 4t-24.5 8.5t-33 8.5t-41 4q-44 0 -74.5 -13t-52 -40.5t-37 -69.5t-26.5 -99l-15 -79h405zM1822 1293q12 0 18 -8.5t6 -21.5q0 -5 -1 -14t-3.5 -20t-6 -22.5t-9 -21t-12.5 -15.5
t-16 -6h-428q-14 0 -19.5 8t-5.5 24q0 7 2 23.5t8 32.5t15.5 28.5t23.5 12.5h428z" />
    <glyph glyph-name="f_f_ibreve.liga" unicode="ff&#x12d;" horiz-adv-x="1673" 
d="M864 951l26 129q17 82 45 142.5t67.5 100t91 59t115.5 19.5q36 0 62.5 -5.5t34.5 -13.5q6 -5 7.5 -11.5t1.5 -18.5q0 -3 -1 -12t-3 -19.5t-5 -22t-7 -21.5t-9 -16t-11 -6q-12 0 -24.5 4t-38.5 4q-39 0 -65.5 -13.5t-46 -41.5t-33 -70.5t-25.5 -100.5l-17 -86h537
q28 0 36.5 -13.5t4.5 -37.5l-174 -875q-2 -8 -7 -13.5t-15.5 -9.5t-26.5 -6t-41 -2q-24 0 -39.5 2t-24 6t-11 9.5t-1.5 13.5l157 789h-423l-164 -817q-18 -91 -47.5 -157.5t-72 -109.5t-99 -63t-127.5 -20q-51 0 -87.5 7.5t-48.5 20.5q-9 8 -9 27q0 5 1 14.5t3 20.5t5 22.5
t7.5 21t10 15.5t12.5 6t16.5 -2.5l22 -6t28.5 -6.5t36 -3q41 0 71 13t51.5 39t36.5 67t26 97l163 814h-405l-171 -852q-17 -84 -46 -145.5t-71 -102t-97 -60t-124 -19.5q-45 0 -73.5 7t-35.5 13q-4 5 -6 11t-2 16q0 4 1.5 13.5t3.5 20t5 22t7 21.5t9 16t12 6t13.5 -1.5
t14 -3t18 -3t26.5 -1.5q42 0 72.5 13t52 40.5t36 69.5t26.5 101l164 818h-128q-10 0 -15.5 6.5t-5.5 24.5q0 8 1 19.5t3.5 23.5t6.5 23t10 20t12.5 14.5t16.5 5.5h126l23 112q17 83 46.5 144t72 101.5t98 60.5t123.5 20q22 0 45.5 -2.5t44 -7t36.5 -10.5t22 -12q5 -5 8 -14
t3 -19q0 -4 -1 -12.5t-2.5 -19t-4.5 -22.5t-7 -21.5t-9 -15.5t-11 -6q-7 0 -17.5 4t-24.5 8.5t-33 8.5t-41 4q-44 0 -74.5 -13t-52 -40.5t-37 -69.5t-26.5 -99l-15 -79h405zM1751 1372q7 6 18.5 9.5t37.5 3.5q17 0 28.5 -1t17 -3.5t7.5 -6t2 -7.5t-3 -26.5t-12 -53.5
t-27.5 -66.5t-50.5 -65.5t-78.5 -49.5t-112.5 -19.5q-65 0 -106 16t-64.5 42.5t-32 59t-8.5 65.5q0 14 1 30.5t4 31.5t6 26.5t8 15.5q5 5 17 8.5t35 3.5q17 0 27.5 -1t17 -4t9 -7t2.5 -10q0 -10 -2.5 -28t-2.5 -31q0 -48 21 -75t76 -27q35 0 60 12t42.5 30t28.5 38.5
t17.5 39.5t10 33t6.5 17z" />
    <glyph glyph-name="f_f_dotlessi.liga" unicode="ff&#x131;" horiz-adv-x="1654" 
d="M431 814l-171 -852q-17 -84 -46 -145.5t-71 -102t-97 -60t-124 -19.5q-45 0 -73.5 7t-35.5 13q-4 5 -6 11t-2 16q0 4 1.5 13.5t3.5 20t5 22t7 21.5t9 16t12 6t13.5 -1.5t14 -3t18 -3t26.5 -1.5q42 0 72.5 13t52 40.5t36 69.5t26.5 101l164 818h-128q-10 0 -15.5 6.5
t-5.5 24.5q0 8 1 19.5t3.5 23.5t6.5 23t10 20t12.5 14.5t16.5 5.5h126l23 112q17 83 46.5 144t72 101.5t98 60.5t123.5 20q22 0 45.5 -2.5t44 -7t36.5 -10.5t22 -12q5 -5 8 -14t3 -19q0 -4 -1 -12.5t-2.5 -19t-4.5 -22.5t-7 -21.5t-9 -15.5t-11 -6q-7 0 -17.5 4t-24.5 8.5
t-33 8.5t-41 4q-44 0 -74.5 -13t-52 -40.5t-37 -69.5t-26.5 -99l-15 -79h405l24 123q17 83 46.5 144.5t71.5 102t97 60.5t124 20q21 0 43.5 -2.5t42 -6t34.5 -9t20 -11.5q6 -5 9 -14t3 -19q0 -4 -1 -12.5t-3 -19t-4.5 -22t-6.5 -21t-9 -16t-11 -6.5q-8 0 -17.5 3.5
t-22.5 7.5t-30 7.5t-39 3.5q-44 0 -74.5 -13t-52 -40.5t-36 -69.5t-26.5 -99l-17 -91h519q27 0 35.5 -13.5t5.5 -37.5l-174 -875q-3 -8 -7.5 -13.5t-15 -9.5t-27 -6t-40.5 -2q-25 0 -40.5 2t-24 6t-11 9.5t-0.5 13.5l157 789h-405l-164 -817q-18 -91 -47.5 -157.5
t-72 -109.5t-99 -63t-127.5 -20q-51 0 -87.5 7.5t-48.5 20.5q-9 8 -9 27q0 5 1 14.5t3 20.5t5 22.5t7.5 21t10 15.5t12.5 6t16.5 -2.5l22 -6t28.5 -6.5t36 -3q41 0 71 13t51.5 39t36.5 67t26 97l163 814h-405z" />
    <glyph glyph-name="f_j.liga" unicode="fj" horiz-adv-x="1084" 
d="M833 -21q-16 -79 -40 -140.5t-62 -104.5t-92.5 -65t-131.5 -22q-32 0 -56.5 3t-41 7t-26.5 9t-14 8q-4 4 -6 10.5t-2 13.5t1.5 17.5t3.5 22t5.5 23.5t8.5 21t10.5 15t13.5 6q9 0 16 -2.5l17.5 -6.5t26.5 -6.5t42 -2.5q32 0 57.5 10t45 33t33.5 60t25 91l169 835h-405
l-171 -852q-17 -84 -46 -145.5t-71 -102t-97 -60t-124 -19.5q-46 0 -73.5 6.5t-34.5 12.5q-9 10 -9 28q0 4 1.5 13.5t3.5 20.5t5 22.5t7.5 21.5t9.5 16t12 6t13.5 -1.5t14 -3t18 -3t26.5 -1.5q42 0 72 13t51.5 40t36.5 69t26 101l164 818h-128q-10 0 -15.5 6.5t-5.5 24.5
q0 8 1 19.5t3.5 23.5t6.5 23t10 20t12.5 14.5t16.5 5.5h126l25 122q16 83 46 144.5t72 102.5t97 61t123 20q23 0 45 -2.5t40 -7t31 -9.5t19 -11q5 -5 6.5 -13t1.5 -18q0 -3 -1 -11.5t-3 -19l-4.5 -22.5t-6.5 -21.5t-9.5 -15.5t-10.5 -6q-8 0 -17 3t-21.5 6.5t-29 7
t-38.5 3.5q-41 0 -70.5 -13t-50 -40.5t-35.5 -69.5t-26 -99l-17 -91h519q27 0 35.5 -14t4.5 -37zM1102 1228q-5 -28 -13 -47t-22 -30.5t-35 -16.5t-50 -5q-30 0 -48.5 5t-27 16.5t-9.5 30.5t4 47q6 28 14 46.5t22 31t34.5 17t50.5 4.5t48 -4.5t27 -17t10 -31t-5 -46.5z" />
    <glyph glyph-name="f_jcircumflex.liga" unicode="f&#x135;" horiz-adv-x="1084" 
d="M879 1118q-8 -9 -15.5 -14.5t-16.5 -9t-21.5 -4.5t-31.5 -1q-24 0 -37.5 3t-17.5 10t1.5 18.5t20.5 27.5l198 226q6 8 14 12.5t18.5 7.5t26 4t37.5 1q21 0 34.5 -1t23.5 -4.5t15 -8.5t10 -11l109 -229q7 -16 9.5 -26.5t-3 -17t-19.5 -9.5t-38 -3q-22 0 -34.5 1t-20 4.5
t-11.5 9t-7 14.5l-86 181zM459 951h519q27 0 35.5 -14t4.5 -37l-185 -921q-16 -79 -40 -140.5t-62 -104.5t-92.5 -65t-131.5 -22q-32 0 -56.5 3t-41 7t-25.5 9l-14 8q-4 4 -6 10.5t-2 13.5t1.5 17.5t3.5 22t6 23.5t8.5 21.5t10.5 15.5t13 6q9 0 16 -2.5l17.5 -6t26.5 -6
t42 -2.5q32 0 57 9.5t45 32.5t33.5 60t24.5 92l169 833h-405l-171 -852q-17 -84 -46 -145.5t-71 -102t-97 -60t-124 -19.5q-46 0 -73.5 6.5t-34.5 12.5q-9 10 -9 28q0 4 1.5 13.5t3.5 20.5t5 22.5t7.5 21.5t9.5 16t12 6t13.5 -1.5t14 -3t18 -3t26.5 -1.5q42 0 72 13t51.5 40
t36.5 69t26 101l164 818h-128q-10 0 -15.5 6.5t-5.5 24.5q0 8 1 19.5t3.5 23.5t6.5 23t10 20t12.5 14.5t16.5 5.5h126l25 123q17 83 45.5 144.5t69.5 102t93.5 60t116.5 19.5q20 0 40 -2t37 -6t29.5 -8.5t17.5 -9.5q6 -6 8.5 -15t2.5 -19q0 -3 -1 -11.5t-2.5 -19t-4 -21.5
t-7 -20.5t-9.5 -15.5t-12 -6t-15 3t-18.5 6.5t-25 6.5t-32.5 3q-40 0 -68 -14t-48.5 -41t-34 -69t-24.5 -98z" />
    <glyph glyph-name="f_f_j.liga" unicode="ffj" horiz-adv-x="1655" 
d="M1404 -21q-16 -79 -40 -140.5t-62 -104.5t-93 -65t-132 -22q-32 0 -56.5 3t-41 7t-26.5 9t-13 8q-5 4 -7 10.5t-2 13.5t1.5 17.5t3.5 22t6 23.5t9 21t10.5 15t13.5 6q9 0 16 -2.5l17.5 -6.5t26.5 -6.5t42 -2.5q32 0 57.5 10t44.5 33t33.5 60t25.5 91l168 835h-405
l-165 -829q-18 -92 -48 -158t-72.5 -108.5t-99 -63t-127.5 -20.5q-51 0 -87.5 7.5t-48.5 20.5q-10 8 -10 28q0 7 2.5 23t7.5 33t12 30t17 13q7 0 17 -2.5l23 -6t28.5 -6.5t34.5 -3q42 0 72 13t51.5 39t36.5 66.5t26 96.5l165 827h-405l-171 -852q-17 -84 -46 -145.5
t-71 -102t-97 -60t-124 -19.5q-45 0 -73.5 7t-35.5 13q-4 5 -6 11t-2 16q0 4 1.5 13.5t3.5 20t5 22t7 21.5t9 16t12 6t13.5 -1.5t14 -3t18 -3t26.5 -1.5q42 0 72.5 13t52 40.5t36 69.5t26.5 101l164 818h-128q-10 0 -15.5 6.5t-5.5 24.5q0 8 1 19.5t3.5 23.5t6.5 23t10 20
t12.5 14.5t16.5 5.5h126l23 112q17 83 46.5 144t72 101.5t98 60.5t123.5 20q22 0 45.5 -2.5t44 -7t36.5 -10.5t22 -12q5 -5 8 -14t3 -19q0 -4 -1 -12.5t-2.5 -19t-4.5 -22.5t-7 -21.5t-9 -15.5t-11 -6q-7 0 -17.5 4t-24.5 8.5t-33 8.5t-41 4q-44 0 -74.5 -13t-52 -40.5
t-37 -69.5t-26.5 -99l-15 -79h405l24 123q17 83 46.5 144.5t71.5 102t97 60.5t124 20q23 0 45 -2.5t40 -7t31 -9.5t19 -11q5 -5 6 -13t1 -18q0 -3 -0.5 -11.5t-2.5 -19t-4.5 -22t-6.5 -21t-9 -16t-11 -6.5q-8 0 -17.5 3t-22 6.5t-28.5 7t-38 3.5q-42 0 -71 -13t-50 -40.5
t-35.5 -69.5t-26.5 -99l-17 -91h519q27 0 35.5 -13.5t5.5 -37.5zM1673 1228q-5 -28 -13.5 -47t-22.5 -30.5t-34.5 -16.5t-50.5 -5t-48.5 5t-27.5 16.5t-9.5 30.5t4.5 47q6 28 14.5 46.5t22 31t34.5 17t51 4.5q29 0 47.5 -4.5t27.5 -17t10 -31t-5 -46.5z" />
    <glyph glyph-name="f_k.liga" unicode="fk" horiz-adv-x="1545" 
d="M1561 928q0 -12 -9 -25t-33 -36l-391 -335l269 -453q10 -18 13.5 -30.5t3.5 -19.5q0 -9 -4 -15.5t-14.5 -10.5t-27.5 -6.5t-44 -2.5t-43.5 1.5t-26 5t-14.5 10t-9 15.5l-288 498l-99 -499q-2 -8 -7 -13.5t-15.5 -9.5t-27 -6t-40.5 -2t-39.5 2t-23.5 6t-11 9.5t-2 13.5
l244 1221q-2 -3 -6.5 -5t-10.5 -2q-7 0 -21 3.5l-35.5 8.5t-51.5 8.5t-70 3.5q-65 0 -108 -13t-71 -40.5t-44.5 -69.5t-27.5 -99l-17 -90h184q11 0 17.5 -7.5t6.5 -24.5q0 -11 -1.5 -23t-5 -23.5t-8 -22t-10 -18.5t-12.5 -13t-15 -5h-184l-171 -852q-17 -84 -46 -145.5
t-71 -102t-97 -60t-124 -19.5q-45 0 -73.5 7t-35.5 13q-4 5 -6 11t-2 16q0 4 1.5 13.5t3.5 20t5 22t7 21.5t9 16t12 6t13.5 -1.5t14 -3t18 -3t26.5 -1.5q42 0 72.5 13t52 40.5t36 69.5t26.5 101l164 818h-128q-10 0 -15.5 6.5t-5.5 24.5q0 8 1 19.5t3.5 23.5t6.5 23t10 20
t12.5 14.5t16.5 5.5h126l25 125q16 82 47.5 143.5t81.5 101.5t121 59.5t169 19.5q22 0 53.5 -2.5t61.5 -7t54 -10t30 -11.5l4.5 -6t3.5 -6q1 8 6 15t15 11.5t26.5 7t43.5 2.5q23 0 38.5 -2t24 -6t11.5 -10t2 -14l-164 -814l417 377q8 9 18 15.5t23 10t30.5 5t42.5 1.5
q24 0 40.5 -1.5t25.5 -5t13 -9t4 -12.5z" />
    <glyph glyph-name="f_f_k.liga" unicode="ffk" horiz-adv-x="2115" 
d="M2132 928q0 -12 -9 -25t-33 -36l-391 -335l269 -453q10 -18 14 -30.5t4 -19.5q0 -9 -4.5 -15.5t-15 -10.5t-27.5 -6.5t-44 -2.5t-43.5 2t-26 5.5t-14.5 9.5t-9 15l-288 498l-99 -499q-3 -8 -7.5 -13.5t-15 -9.5t-27 -6t-40.5 -2q-25 0 -40.5 2t-24 6t-11 9.5t-0.5 13.5
l244 1222q-3 -3 -7 -5t-10 -2q-8 0 -21.5 3.5t-35.5 8t-52 8.5t-70 4q-65 0 -108 -13t-71 -40.5t-44 -69.5t-27 -99l-18 -91h184q12 0 18.5 -7.5t6.5 -24.5q0 -11 -1.5 -23t-5 -23.5t-8 -22t-10.5 -18.5t-13 -13t-14 -5h-184l-164 -817q-19 -91 -48 -157.5t-72 -109.5
t-99.5 -63t-127.5 -20q-50 0 -86.5 7.5t-48.5 20.5q-10 8 -10 27q0 5 1 14.5t3 20.5t5 22.5t7.5 21t10 15.5t12.5 6t16.5 -2.5l22 -6t28.5 -6.5t36 -3q41 0 71 13t51.5 39t36.5 67t27 97l162 814h-405l-171 -852q-17 -84 -46 -145.5t-71 -102t-97 -60t-124 -19.5
q-45 0 -73.5 7t-35.5 13q-4 5 -6 11t-2 16q0 4 1.5 13.5t3.5 20t5 22t7 21.5t9 16t12 6t13.5 -1.5t14 -3t18 -3t26.5 -1.5q42 0 72.5 13t52 40t36 69t26.5 102l164 818h-128q-10 0 -15.5 6.5t-5.5 24.5q0 8 1 19.5t3.5 23.5t6.5 23t10 20t12.5 14.5t16.5 5.5h126l23 112
q17 83 46.5 144t72 101.5t98 60.5t123.5 20q22 0 45.5 -2.5t44 -7t36.5 -10.5t22 -12q5 -5 8 -14t3 -19q0 -4 -1 -12.5t-2.5 -19t-4.5 -22.5t-7 -21.5t-9 -15.5t-11 -6q-7 0 -17.5 4t-24.5 8.5t-33 8.5t-41 4q-44 0 -74.5 -13t-52 -40.5t-37 -69.5t-26.5 -99l-15 -79h405
l25 125q17 82 47.5 143.5t80 101.5t121 60t170.5 20q21 0 53 -2.5t62.5 -7t54 -10.5t30.5 -13q2 -3 3.5 -5t3.5 -6q1 8 6 15t15 11.5t26.5 7t43.5 2.5q23 0 38.5 -2t24 -6t11 -10t1.5 -14l-163 -814l416 377q8 9 18 15t23 10t31 5.5t42 1.5q25 0 41 -1.5t25.5 -5t13.5 -9
t4 -12.5z" />
    <glyph glyph-name="uniFB02" unicode="fl" horiz-adv-x="1084" 
d="M844 26q-4 -17 -24.5 -24.5t-62.5 -7.5q-25 0 -41 2.5t-24.5 6t-11.5 9.5t-2 14l244 1220q-2 -3 -6.5 -5t-10.5 -2q-7 0 -21 3.5l-35.5 8.5t-51.5 8.5t-70 3.5q-65 0 -108 -13t-71 -40.5t-44.5 -69.5t-27.5 -99l-17 -90h184q11 0 17.5 -7.5t6.5 -24.5q0 -11 -1.5 -23
t-5 -23.5t-8 -22t-10 -18.5t-12.5 -13t-15 -5h-184l-171 -852q-17 -84 -46 -145.5t-71 -102t-97 -60t-124 -19.5q-45 0 -73.5 7t-35.5 13q-4 5 -6 11t-2 16q0 4 1.5 13.5t3.5 20t5 22t7 21.5t9 16t12 6t13.5 -1.5t14 -3t18 -3t26.5 -1.5q42 0 72.5 13t52 40.5t36 69.5
t26.5 101l164 818h-128q-10 0 -15.5 6.5t-5.5 24.5q0 8 1 19.5t3.5 23.5t6.5 23t10 20t12.5 14.5t16.5 5.5h126l25 125q16 82 47.5 143.5t81.5 101.5t121 59.5t169 19.5q22 0 53.5 -2.5t61.5 -7t54 -10t30 -11.5l4.5 -6t3.5 -6q1 8 6 15t15 11.5t26.5 7t43.5 2.5
q23 0 38.5 -2t24 -6t11.5 -10t2 -14z" />
    <glyph glyph-name="f_lacute.liga" unicode="f&#x13a;" horiz-adv-x="1084" 
d="M844 26q-4 -17 -24.5 -24.5t-62.5 -7.5q-25 0 -41 2.5t-24.5 6t-11.5 9.5t-2 14l244 1220q-2 -3 -6.5 -5t-10.5 -2q-7 0 -21 3.5l-35.5 8.5t-51.5 8.5t-70 3.5q-65 0 -108 -13t-71 -40.5t-44.5 -69.5t-27.5 -99l-17 -90h184q11 0 17.5 -7.5t6.5 -24.5q0 -11 -1.5 -23
t-5 -23.5t-8 -22t-10 -18.5t-12.5 -13t-15 -5h-184l-171 -852q-17 -84 -46 -145.5t-71 -102t-97 -60t-124 -19.5q-45 0 -73.5 7t-35.5 13q-4 5 -6 11t-2 16q0 4 1.5 13.5t3.5 20t5 22t7 21.5t9 16t12 6t13.5 -1.5t14 -3t18 -3t26.5 -1.5q42 0 72.5 13t52 40.5t36 69.5
t26.5 101l164 818h-128q-10 0 -15.5 6.5t-5.5 24.5q0 8 1 19.5t3.5 23.5t6.5 23t10 20t12.5 14.5t16.5 5.5h126l25 125q16 82 47.5 143.5t81.5 101.5t121 59.5t169 19.5q22 0 53.5 -2.5t61.5 -7t54 -10t30 -11.5l4.5 -6t3.5 -6q1 8 6 15t15 11.5t26.5 7t43.5 2.5
q23 0 38.5 -2t24 -6t11.5 -10t2 -14zM1145 1495q-11 -9 -20 -15t-20 -9.5t-25.5 -5t-34.5 -1.5q-46 0 -55 10.5t11 32.5l197 213q11 12 22.5 19.5t25 11.5t31 5.5t42.5 1.5q30 0 47 -4.5t24 -11.5t3.5 -16t-13.5 -19zM645 1363z" />
    <glyph glyph-name="f_lcaron.liga" unicode="f&#x13e;" horiz-adv-x="1155" 
d="M844 26q-4 -17 -24.5 -24.5t-62.5 -7.5q-25 0 -41 2.5t-24.5 6t-11.5 9.5t-2 14l244 1220q-2 -3 -6.5 -5t-10.5 -2q-7 0 -21 3.5l-35.5 8.5t-51.5 8.5t-70 3.5q-65 0 -108 -13t-71 -40.5t-44.5 -69.5t-27.5 -99l-17 -90h184q11 0 17.5 -7.5t6.5 -24.5q0 -11 -1.5 -23
t-5 -23.5t-8 -22t-10 -18.5t-12.5 -13t-15 -5h-184l-171 -852q-17 -84 -46 -145.5t-71 -102t-97 -60t-124 -19.5q-45 0 -73.5 7t-35.5 13q-4 5 -6 11t-2 16q0 4 1.5 13.5t3.5 20t5 22t7 21.5t9 16t12 6t13.5 -1.5t14 -3t18 -3t26.5 -1.5q42 0 72.5 13t52 40.5t36 69.5
t26.5 101l164 818h-128q-10 0 -15.5 6.5t-5.5 24.5q0 8 1 19.5t3.5 23.5t6.5 23t10 20t12.5 14.5t16.5 5.5h126l25 125q16 82 47.5 143.5t81.5 101.5t121 59.5t169 19.5q22 0 53.5 -2.5t61.5 -7t54 -10t30 -11.5l4.5 -6t3.5 -6q1 8 6 15t15 11.5t26.5 7t43.5 2.5
q23 0 38.5 -2t24 -6t11.5 -10t2 -14zM1241 1048q-4 -7 -9.5 -11.5t-14.5 -7t-22.5 -3.5t-34.5 -1q-14 0 -22.5 2t-12.5 6t-4.5 9.5t2.5 13.5l128 305q4 10 10.5 17t17.5 11t27 6t40 2q22 0 35.5 -2t19 -6.5t4.5 -11.5t-5 -17zM867 997z" />
    <glyph glyph-name="f_lcommaaccent.liga" unicode="f&#x13c;" horiz-adv-x="1084" 
d="M844 26q-4 -17 -24.5 -24.5t-62.5 -7.5q-25 0 -41 2.5t-24.5 6t-11.5 9.5t-2 14l244 1220q-2 -3 -6.5 -5t-10.5 -2q-7 0 -21 3.5l-35.5 8.5t-51.5 8.5t-70 3.5q-65 0 -108 -13t-71 -40.5t-44.5 -69.5t-27.5 -99l-17 -90h184q11 0 17.5 -7.5t6.5 -24.5q0 -11 -1.5 -23
t-5 -23.5t-8 -22t-10 -18.5t-12.5 -13t-15 -5h-184l-171 -852q-17 -84 -46 -145.5t-71 -102t-97 -60t-124 -19.5q-45 0 -73.5 7t-35.5 13q-4 5 -6 11t-2 16q0 4 1.5 13.5t3.5 20t5 22t7 21.5t9 16t12 6t13.5 -1.5t14 -3t18 -3t26.5 -1.5q42 0 72.5 13t52 40.5t36 69.5
t26.5 101l164 818h-128q-10 0 -15.5 6.5t-5.5 24.5q0 8 1 19.5t3.5 23.5t6.5 23t10 20t12.5 14.5t16.5 5.5h126l25 125q16 82 47.5 143.5t81.5 101.5t121 59.5t169 19.5q22 0 53.5 -2.5t61.5 -7t54 -10t30 -11.5l4.5 -6t3.5 -6q1 8 6 15t15 11.5t26.5 7t43.5 2.5
q23 0 38.5 -2t24 -6t11.5 -10t2 -14zM676 -334q-7 -10 -13.5 -16t-16.5 -9t-24 -4.5t-35 -1.5q-20 0 -31 2.5t-15 7.5t-2 13t7 19l98 202q5 11 12 18.5t19 11.5t29.5 6t44.5 2q26 0 40.5 -3.5t20 -10t3.5 -15t-9 -19.5z" />
    <glyph glyph-name="uniFB04" unicode="ffl" horiz-adv-x="1654" 
d="M1415 25q-4 -17 -25 -24t-63 -7q-25 0 -41 2t-24.5 6t-11.5 9.5t-1 13.5l243 1222q-2 -3 -6 -5t-10 -2q-8 0 -21.5 3.5t-35.5 8t-52 8.5t-70 4q-65 0 -108 -13t-71 -40.5t-44 -69.5t-28 -99l-17 -91h184q12 0 18 -7.5t6 -24.5q0 -11 -1.5 -23t-4.5 -23.5t-7.5 -22
t-10.5 -18.5t-13 -13t-14 -5h-185l-163 -817q-19 -91 -48 -157.5t-72 -109.5t-99.5 -63t-127.5 -20q-50 0 -86.5 7.5t-48.5 20.5q-10 8 -10 27q0 5 1 14.5t3 20.5t5 22.5t7.5 21t10 15.5t12.5 6t16.5 -2.5l22 -6t28.5 -6.5t36 -3q41 0 71 13t51.5 39t36.5 67t27 97l162 814
h-405l-171 -852q-17 -84 -46 -145.5t-71 -102t-97 -60t-124 -19.5q-45 0 -73.5 7t-35.5 13q-4 5 -6 11t-2 16q0 4 1.5 13.5t3.5 20t5 22t7 21.5t9 16t12 6t13.5 -1.5t14 -3t18 -3t26.5 -1.5q42 0 72.5 13t52 40t36 69t26.5 102l164 818h-128q-10 0 -15.5 6.5t-5.5 24.5
q0 8 1 19.5t3.5 23.5t6.5 23t10 20t12.5 14.5t16.5 5.5h126l23 112q17 83 46.5 144t72 101.5t98 60.5t123.5 20q22 0 45.5 -2.5t44 -7t36.5 -10.5t22 -12q5 -5 8 -14t3 -19q0 -4 -1 -12.5t-2.5 -19t-4.5 -22.5t-7 -21.5t-9 -15.5t-11 -6q-7 0 -17.5 4t-24.5 8.5t-33 8.5
t-41 4q-44 0 -74.5 -13t-52 -40.5t-37 -69.5t-26.5 -99l-15 -79h405l24 125q17 82 47.5 143.5t80.5 101.5t122 60t170 20q22 0 53.5 -2.5t61.5 -7t53.5 -10t29.5 -11.5l5 -6.5t4 -6.5q1 8 6 15t15 11.5t26.5 7t42.5 2.5q24 0 39.5 -2t24 -6t11 -10t0.5 -14z" />
    <glyph glyph-name="f_t.liga" unicode="ft" horiz-adv-x="1252" 
d="M1275 915q0 -9 -1.5 -19.5t-4 -21.5t-7.5 -22t-10.5 -19.5t-12.5 -13.5t-16 -5h-230l-101 -502q-4 -21 -7 -47t-3 -43q0 -51 21 -74.5t71 -23.5q27 0 46.5 4.5t34 9.5t25 9.5t18.5 4.5q9 0 13.5 -5.5t4.5 -20.5q0 -13 -2.5 -28.5t-7 -30.5t-10 -27t-11.5 -19
q-8 -7 -24.5 -14t-38 -12.5t-45 -8.5t-45.5 -3q-55 0 -97 12t-69.5 37.5t-41 64t-13.5 92.5q0 12 1 26.5t3.5 30.5l5 32t5.5 30l101 506h-396l-171 -852q-17 -84 -46 -145.5t-71 -102t-97 -60t-124 -19.5q-45 0 -73.5 7t-35.5 13q-4 5 -6 11t-2 16q0 4 1.5 13.5t3.5 20t5 22
t7 21.5t9 16t12 6t13.5 -1.5t14 -3t18 -3t26.5 -1.5q42 0 72.5 13t52 40.5t36 69.5t26.5 101l164 818h-128q-10 0 -15.5 6.5t-5.5 24.5q0 8 1 19.5t3.5 23.5t6.5 23t10 20t12.5 14.5t16.5 5.5h126l25 125q16 82 46 143.5t72.5 101.5t98 59.5t122.5 19.5q22 0 44.5 -2.5
t41.5 -6.5t34 -9.5t21 -11.5q5 -5 8 -14t3 -19q0 -4 -1 -12.5t-3 -19.5t-4.5 -22.5t-6.5 -21t-9 -16t-11 -6.5q-7 0 -16 4t-22.5 8.5t-31 8t-41.5 3.5q-42 0 -72.5 -13t-52.5 -40.5t-36.5 -69.5t-26.5 -99l-16 -90h396l43 214q1 7 6.5 13t15.5 10.5t26.5 6.5t40.5 2t39.5 -2
t24 -6.5t11.5 -10.5t1 -13l-43 -214h230q15 0 20 -11t5 -25z" />
    <glyph glyph-name="f_tcommaaccent.liga" unicode="f&#x163;" horiz-adv-x="1252" 
d="M1275 915q0 -9 -1.5 -19.5t-4 -21.5t-7.5 -22t-10.5 -19.5t-12.5 -13.5t-16 -5h-230l-101 -502q-4 -21 -7 -47t-3 -43q0 -51 21 -74.5t71 -23.5q27 0 46.5 4.5t34 9.5t25 9.5t18.5 4.5q9 0 13.5 -5.5t4.5 -20.5q0 -13 -2.5 -28.5t-7 -30.5t-10 -27t-11.5 -19
q-8 -7 -24.5 -14t-38 -12.5t-45 -8.5t-45.5 -3q-55 0 -97 12t-69.5 37.5t-41 64t-13.5 92.5q0 12 1 26.5t3.5 30.5l5 32t5.5 30l101 506h-396l-171 -852q-17 -84 -46 -145.5t-71 -102t-97 -60t-124 -19.5q-45 0 -73.5 7t-35.5 13q-4 5 -6 11t-2 16q0 4 1.5 13.5t3.5 20t5 22
t7 21.5t9 16t12 6t13.5 -1.5t14 -3t18 -3t26.5 -1.5q42 0 72.5 13t52 40.5t36 69.5t26.5 101l164 818h-128q-10 0 -15.5 6.5t-5.5 24.5q0 8 1 19.5t3.5 23.5t6.5 23t10 20t12.5 14.5t16.5 5.5h126l25 125q16 82 46 143.5t72.5 101.5t98 59.5t122.5 19.5q22 0 44.5 -2.5
t41.5 -6.5t34 -9.5t21 -11.5q5 -5 8 -14t3 -19q0 -4 -1 -12.5t-3 -19.5t-4.5 -22.5t-6.5 -21t-9 -16t-11 -6.5q-7 0 -16 4t-22.5 8.5t-31 8t-41.5 3.5q-42 0 -72.5 -13t-52.5 -40.5t-36.5 -69.5t-26.5 -99l-16 -90h396l43 214q1 7 6.5 13t15.5 10.5t26.5 6.5t40.5 2t39.5 -2
t24 -6.5t11.5 -10.5t1 -13l-43 -214h230q15 0 20 -11t5 -25zM784 -334q-7 -10 -13.5 -16t-16.5 -9t-24 -4.5t-35 -1.5q-20 0 -31 2.5t-15 7.5t-2 13t7 19l98 202q5 11 12 18.5t19 11.5t29.5 6t44.5 2q26 0 40.5 -3.5t20 -10t3.5 -15t-9 -19.5z" />
    <glyph glyph-name="f_tcaron.liga" unicode="f&#x165;" horiz-adv-x="1290" 
d="M1275 915q0 -9 -1.5 -19.5t-4 -21.5t-7.5 -22t-10.5 -19.5t-12.5 -13.5t-16 -5h-230l-101 -502q-4 -21 -7 -47t-3 -43q0 -51 21 -74.5t71 -23.5q27 0 46.5 4.5t34 9.5t25 9.5t18.5 4.5q9 0 13.5 -5.5t4.5 -20.5q0 -13 -2.5 -28.5t-7 -30.5t-10 -27t-11.5 -19
q-8 -7 -24.5 -14t-38 -12.5t-45 -8.5t-45.5 -3q-55 0 -97 12t-69.5 37.5t-41 64t-13.5 92.5q0 12 1 26.5t3.5 30.5l5 32t5.5 30l101 506h-396l-171 -852q-17 -84 -46 -145.5t-71 -102t-97 -60t-124 -19.5q-45 0 -73.5 7t-35.5 13q-4 5 -6 11t-2 16q0 4 1.5 13.5t3.5 20t5 22
t7 21.5t9 16t12 6t13.5 -1.5t14 -3t18 -3t26.5 -1.5q42 0 72.5 13t52 40.5t36 69.5t26.5 101l164 818h-128q-10 0 -15.5 6.5t-5.5 24.5q0 8 1 19.5t3.5 23.5t6.5 23t10 20t12.5 14.5t16.5 5.5h126l25 125q16 82 46 143.5t72.5 101.5t98 59.5t122.5 19.5q22 0 44.5 -2.5
t41.5 -6.5t34 -9.5t21 -11.5q5 -5 8 -14t3 -19q0 -4 -1 -12.5t-3 -19.5t-4.5 -22.5t-6.5 -21t-9 -16t-11 -6.5q-7 0 -16 4t-22.5 8.5t-31 8t-41.5 3.5q-42 0 -72.5 -13t-52.5 -40.5t-36.5 -69.5t-26.5 -99l-16 -90h396l43 214q1 7 6.5 13t15.5 10.5t26.5 6.5t40.5 2t39.5 -2
t24 -6.5t11.5 -10.5t1 -13l-43 -214h230q15 0 20 -11t5 -25zM1293 1126q-4 -7 -9.5 -11.5t-14.5 -7t-22.5 -3.5t-34.5 -1q-14 0 -22.5 2t-12.5 6t-4.5 9.5t2.5 13.5l128 305q4 10 10.5 17t17.5 11t27 6t40 2q22 0 35.5 -2t19 -6.5t4.5 -11.5t-5 -17zM919 1075z" />
    <glyph glyph-name="t_f.liga" unicode="tf" horiz-adv-x="1254" 
d="M1447 1335q0 -4 -1 -12.5t-3 -19t-4.5 -22t-6.5 -21.5t-9.5 -16t-11.5 -6t-16.5 4t-25 8.5t-33 8.5t-41.5 4q-44 0 -74.5 -13t-52 -40.5t-36.5 -69.5t-27 -99l-17 -90h201q12 0 18.5 -7.5t6.5 -24.5q0 -11 -1.5 -23t-5 -23.5t-8 -22t-10.5 -18.5t-13 -13t-14 -5h-201
l-167 -829q-18 -92 -48 -158t-72.5 -108.5t-98.5 -63t-127 -20.5q-50 0 -87 7.5t-49 20.5q-9 9 -9 28q0 7 2.5 23t7 33t11.5 30t18 13q7 0 16.5 -2.5l22 -6t28.5 -6.5t36 -3q41 0 71 13t51.5 39t36.5 66.5t26 96.5l165 827h-468l-101 -502q-4 -21 -7 -47t-3 -43
q0 -51 21.5 -74.5t69.5 -23.5q27 0 47 4.5t34.5 9.5t25.5 9.5t19 4.5t12.5 -5.5t4.5 -20.5q0 -13 -2.5 -28.5t-6.5 -30.5t-10 -27t-13 -19q-8 -7 -24 -14t-37 -12.5t-44.5 -8.5t-46.5 -3q-56 0 -97 12t-69 37.5t-41.5 64t-13.5 92.5q0 12 1 26.5t3.5 30.5l5 32t5.5 30
l101 506h-125q-11 0 -17 6.5t-6 25.5q0 14 3 32.5t9 34.5t15.5 27t22.5 11h126l43 214q1 7 6.5 13t15.5 10.5t26.5 6.5t40.5 2t39.5 -2t24 -6.5t11 -10.5t1.5 -13l-43 -214h469l25 123q17 83 46.5 144.5t71.5 102t97.5 60t124.5 19.5q21 0 44.5 -2.5t44.5 -7t36.5 -10.5
t21.5 -12q6 -5 9 -14t3 -19z" />
    <glyph glyph-name="t_i.liga" unicode="ti" horiz-adv-x="1141" 
d="M900 25q-2 -8 -7 -13.5t-15 -9.5t-26.5 -6t-40.5 -2t-40 2t-24.5 6t-11.5 9.5t-1 13.5l158 789h-465l-101 -502q-4 -21 -7 -47t-3 -43q0 -51 21.5 -74.5t69.5 -23.5q27 0 47 4.5t34.5 9.5t25.5 9.5t19 4.5t12.5 -5.5t4.5 -20.5q0 -13 -2.5 -28.5t-6.5 -30.5t-10 -27
t-13 -19q-8 -7 -24 -14t-37 -12.5t-44.5 -8.5t-46.5 -3q-56 0 -97 12t-69 37.5t-41.5 64t-13.5 92.5q0 12 1 26.5t3.5 30.5l5 32t5.5 30l101 506h-125q-11 0 -17 6.5t-6 25.5q0 14 3 32.5t9 34.5t15.5 27t22.5 11h126l43 214q1 7 6.5 13t15.5 10.5t26.5 6.5t40.5 2t40 -2
t24.5 -6.5t11 -10.5t0.5 -13l-43 -214h579q30 0 38.5 -13.5t2.5 -39.5zM1158 1228q-5 -28 -13.5 -47t-22.5 -30.5t-34.5 -16.5t-50.5 -5t-48.5 5t-27 16.5t-9.5 30.5t4 47t13.5 46.5t23 31t34.5 17t50 4.5t48.5 -4.5t27.5 -17t10 -31t-5 -46.5z" />
    <glyph glyph-name="t_igrave.liga" unicode="t&#xec;" horiz-adv-x="1141" 
d="M900 25q-2 -8 -7 -13.5t-15 -9.5t-26.5 -6t-40.5 -2t-40 2t-24.5 6t-11.5 9.5t-1 13.5l158 789h-465l-101 -502q-4 -21 -7 -47t-3 -43q0 -51 21.5 -74.5t69.5 -23.5q27 0 47 4.5t34.5 9.5t25.5 9.5t19 4.5t12.5 -5.5t4.5 -20.5q0 -13 -2.5 -28.5t-6.5 -30.5t-10 -27
t-13 -19q-8 -7 -24 -14t-37 -12.5t-44.5 -8.5t-46.5 -3q-56 0 -97 12t-69 37.5t-41.5 64t-13.5 92.5q0 12 1 26.5t3.5 30.5l5 32t5.5 30l101 506h-125q-11 0 -17 6.5t-6 25.5q0 14 3 32.5t9 34.5t15.5 27t22.5 11h126l43 214q1 7 6.5 13t15.5 10.5t26.5 6.5t40.5 2t40 -2
t24.5 -6.5t11 -10.5t0.5 -13l-43 -214h579q30 0 38.5 -13.5t2.5 -39.5zM1092 1134q7 -11 8.5 -19t-4 -13t-19 -8t-35.5 -3q-20 0 -33 1t-22 4.5t-16 10t-14 16.5l-171 233q-7 9 -7.5 17.5t7 15t25 10t46.5 3.5q24 0 40 -1.5t27 -5.5t18.5 -11.5t14.5 -18.5zM485 951z" />
    <glyph glyph-name="t_iacute.liga" unicode="t&#xed;" horiz-adv-x="1141" 
d="M900 25q-2 -8 -7 -13.5t-15 -9.5t-26.5 -6t-40.5 -2t-40 2t-24.5 6t-11.5 9.5t-1 13.5l158 789h-465l-101 -502q-4 -21 -7 -47t-3 -43q0 -51 21.5 -74.5t69.5 -23.5q27 0 47 4.5t34.5 9.5t25.5 9.5t19 4.5t12.5 -5.5t4.5 -20.5q0 -13 -2.5 -28.5t-6.5 -30.5t-10 -27
t-13 -19q-8 -7 -24 -14t-37 -12.5t-44.5 -8.5t-46.5 -3q-56 0 -97 12t-69 37.5t-41.5 64t-13.5 92.5q0 12 1 26.5t3.5 30.5l5 32t5.5 30l101 506h-125q-11 0 -17 6.5t-6 25.5q0 14 3 32.5t9 34.5t15.5 27t22.5 11h126l43 214q1 7 6.5 13t15.5 10.5t26.5 6.5t40.5 2t40 -2
t24.5 -6.5t11 -10.5t0.5 -13l-43 -214h579q30 0 38.5 -13.5t2.5 -39.5zM1094 1123q-7 -10 -13.5 -16t-16 -9.5t-22.5 -5t-33 -1.5q-22 0 -35 3t-18 8t-3 13t9 19l154 231q7 11 15.5 18t20 11t28.5 6t42 2q28 0 44.5 -3.5t23 -10t5 -15t-9.5 -17.5zM669 951z" />
    <glyph glyph-name="t_icircumflex.liga" unicode="t&#xee;" horiz-adv-x="1141" 
d="M900 25q-2 -8 -7 -13.5t-15 -9.5t-26.5 -6t-40.5 -2t-40 2t-24.5 6t-11.5 9.5t-1 13.5l158 789h-465l-101 -502q-4 -21 -7 -47t-3 -43q0 -51 21.5 -74.5t69.5 -23.5q27 0 47 4.5t34.5 9.5t25.5 9.5t19 4.5t12.5 -5.5t4.5 -20.5q0 -13 -2.5 -28.5t-6.5 -30.5t-10 -27
t-13 -19q-8 -7 -24 -14t-37 -12.5t-44.5 -8.5t-46.5 -3q-56 0 -97 12t-69 37.5t-41.5 64t-13.5 92.5q0 12 1 26.5t3.5 30.5l5 32t5.5 30l101 506h-125q-11 0 -17 6.5t-6 25.5q0 14 3 32.5t9 34.5t15.5 27t22.5 11h126l43 214q1 7 6.5 13t15.5 10.5t26.5 6.5t40.5 2t40 -2
t24.5 -6.5t11 -10.5t0.5 -13l-43 -214h579q30 0 38.5 -13.5t2.5 -39.5zM1284 1147q8 -15 10.5 -25.5t-2.5 -17t-20 -10t-41 -3.5q-21 0 -33 1.5t-19.5 4.5t-12 9t-8.5 15l-94 180l-166 -180q-8 -10 -15 -15.5t-16.5 -8.5t-22.5 -4.5t-32 -1.5q-27 0 -41.5 3.5t-18.5 10t2 17
t20 25.5l210 229q7 8 15 12.5t19 7.5t26.5 4.5t37.5 1.5q21 0 34.5 -1.5t23 -5t15.5 -8t11 -11.5zM488 951z" />
    <glyph glyph-name="t_idieresis.liga" unicode="t&#xef;" horiz-adv-x="1141" 
d="M900 25q-2 -8 -7 -13.5t-15 -9.5t-26.5 -6t-40.5 -2t-40 2t-24.5 6t-11.5 9.5t-1 13.5l158 789h-465l-101 -502q-4 -21 -7 -47t-3 -43q0 -51 21.5 -74.5t69.5 -23.5q27 0 47 4.5t34.5 9.5t25.5 9.5t19 4.5t12.5 -5.5t4.5 -20.5q0 -13 -2.5 -28.5t-6.5 -30.5t-10 -27
t-13 -19q-8 -7 -24 -14t-37 -12.5t-44.5 -8.5t-46.5 -3q-56 0 -97 12t-69 37.5t-41.5 64t-13.5 92.5q0 12 1 26.5t3.5 30.5l5 32t5.5 30l101 506h-125q-11 0 -17 6.5t-6 25.5q0 14 3 32.5t9 34.5t15.5 27t22.5 11h126l43 214q1 7 6.5 13t15.5 10.5t26.5 6.5t40.5 2t40 -2
t24.5 -6.5t11 -10.5t0.5 -13l-43 -214h579q30 0 38.5 -13.5t2.5 -39.5zM803 1216q5 27 13 45t21.5 29t32 15.5t43.5 4.5q26 0 42 -4.5t24 -15.5t9 -29t-4 -45t-13.5 -45.5t-21 -29t-31 -15t-43.5 -4.5q-26 0 -42.5 4.5t-24.5 15t-9 29t4 45.5zM1113 1216q5 27 13.5 45
t21.5 29t32 15.5t44 4.5q26 0 42 -4.5t24 -15.5t9 -29t-4 -45q-6 -27 -14 -45.5t-21 -29t-31 -15t-43 -4.5q-26 0 -42.5 4.5t-25 15t-9.5 29t4 45.5zM521 951z" />
    <glyph glyph-name="t_imacron.liga" unicode="t&#x12b;" horiz-adv-x="1141" 
d="M900 25q-2 -8 -7 -13.5t-15 -9.5t-26.5 -6t-40.5 -2t-40 2t-24.5 6t-11.5 9.5t-1 13.5l158 789h-465l-101 -502q-4 -21 -7 -47t-3 -43q0 -51 21.5 -74.5t69.5 -23.5q27 0 47 4.5t34.5 9.5t25.5 9.5t19 4.5t12.5 -5.5t4.5 -20.5q0 -13 -2.5 -28.5t-6.5 -30.5t-10 -27
t-13 -19q-8 -7 -24 -14t-37 -12.5t-44.5 -8.5t-46.5 -3q-56 0 -97 12t-69 37.5t-41.5 64t-13.5 92.5q0 12 1 26.5t3.5 30.5l5 32t5.5 30l101 506h-125q-11 0 -17 6.5t-6 25.5q0 14 3 32.5t9 34.5t15.5 27t22.5 11h126l43 214q1 7 6.5 13t15.5 10.5t26.5 6.5t40.5 2t40 -2
t24.5 -6.5t11 -10.5t0.5 -13l-43 -214h579q30 0 38.5 -13.5t2.5 -39.5zM1325 1262q0 -6 -1 -15t-3.5 -19.5t-6 -22t-8.5 -20.5t-12 -15t-16 -6h-479q-13 0 -19.5 7.5t-6.5 24.5q0 7 2 23.5t8 32.5t15.5 28.5t26.5 12.5h479q12 0 16.5 -8.5t4.5 -22.5zM493 951z" />
    <glyph glyph-name="t_itilde.liga" unicode="t&#x129;" horiz-adv-x="1141" 
d="M900 25q-2 -8 -7 -13.5t-15 -9.5t-26.5 -6t-40.5 -2t-40 2t-24.5 6t-11.5 9.5t-1 13.5l158 789h-465l-101 -502q-4 -21 -7 -47t-3 -43q0 -51 21.5 -74.5t69.5 -23.5q27 0 47 4.5t34.5 9.5t25.5 9.5t19 4.5t12.5 -5.5t4.5 -20.5q0 -13 -2.5 -28.5t-6.5 -30.5t-10 -27
t-13 -19q-8 -7 -24 -14t-37 -12.5t-44.5 -8.5t-46.5 -3q-56 0 -97 12t-69 37.5t-41.5 64t-13.5 92.5q0 12 1 26.5t3.5 30.5l5 32t5.5 30l101 506h-125q-11 0 -17 6.5t-6 25.5q0 14 3 32.5t9 34.5t15.5 27t22.5 11h126l43 214q1 7 6.5 13t15.5 10.5t26.5 6.5t40.5 2t40 -2
t24.5 -6.5t11 -10.5t0.5 -13l-43 -214h579q30 0 38.5 -13.5t2.5 -39.5zM1377 1327q0 -6 -2 -24.5t-9 -44.5t-20.5 -54.5t-37 -52.5t-58.5 -39.5t-84 -15.5q-37 0 -65.5 9.5t-51.5 24.5t-42.5 32l-38 32t-37 24.5t-40.5 9.5q-40 0 -59 -29t-25 -77q-1 -7 -4 -12.5t-10 -8.5
t-19 -4t-32 -1q-17 0 -27 1.5t-15 5t-7 9t-2 13.5q0 6 1.5 25t8.5 45t21 54t37 51.5t57.5 39t83.5 15.5q37 0 65.5 -9.5t52 -24.5t43 -32l37.5 -32t36.5 -24.5t40.5 -9.5q35 0 57 26.5t28 78.5q1 16 13.5 21.5t46.5 5.5q37 0 47 -6.5t10 -21.5zM421 951z" />
    <glyph glyph-name="t_ibreve.liga" unicode="t&#x12d;" horiz-adv-x="1141" 
d="M900 25q-2 -8 -7 -13.5t-15 -9.5t-26.5 -6t-40.5 -2t-40 2t-24.5 6t-11.5 9.5t-1 13.5l158 789h-465l-101 -502q-4 -21 -7 -47t-3 -43q0 -51 21.5 -74.5t69.5 -23.5q27 0 47 4.5t34.5 9.5t25.5 9.5t19 4.5t12.5 -5.5t4.5 -20.5q0 -13 -2.5 -28.5t-6.5 -30.5t-10 -27
t-13 -19q-8 -7 -24 -14t-37 -12.5t-44.5 -8.5t-46.5 -3q-56 0 -97 12t-69 37.5t-41.5 64t-13.5 92.5q0 12 1 26.5t3.5 30.5l5 32t5.5 30l101 506h-125q-11 0 -17 6.5t-6 25.5q0 14 3 32.5t9 34.5t15.5 27t22.5 11h126l43 214q1 7 6.5 13t15.5 10.5t26.5 6.5t40.5 2t40 -2
t24.5 -6.5t11 -10.5t0.5 -13l-43 -214h579q30 0 38.5 -13.5t2.5 -39.5zM1336 1374q0 -11 -4.5 -36t-17 -56t-33.5 -64t-54.5 -60.5t-81.5 -44.5t-112 -17q-66 0 -108.5 15t-68 41.5t-36 61.5t-10.5 73q0 10 1 24.5t3.5 29t5.5 26.5t8 15q7 8 21 10.5t33 2.5q18 0 28.5 -1.5
t17 -4t8.5 -7t2 -10.5q0 -11 -1.5 -24.5t-1.5 -28.5q0 -23 5 -42.5t17.5 -33.5t33 -22t51.5 -8q30 0 57 8.5t49.5 27t40 47t27.5 69.5q2 8 6 13.5t11 9t19 5.5t30 2t28.5 -1.5t16.5 -4t7.5 -6.5t1.5 -9zM507 951z" />
    <glyph glyph-name="t_iogonek.liga" unicode="t&#x12f;" horiz-adv-x="1141" 
d="M1030 951q32 0 40.5 -14.5t3.5 -39.5l-174 -872q-5 -21 -15 -38t-25 -30l-75 -62q-38 -32 -54 -53.5t-16 -43.5q0 -18 13 -29.5t45 -11.5h111q13 0 17.5 -5t4.5 -15q0 -6 -1.5 -16.5t-4 -21.5t-6.5 -20.5t-8 -13.5q-7 -6 -23 -11t-36.5 -9.5t-44.5 -7t-45 -2.5
q-95 0 -141 32.5t-46 95.5q0 19 4.5 39t17 42.5t34.5 47t56 52.5l68 58l162 812h-465l-101 -502q-4 -21 -7 -47t-3 -43q0 -51 21.5 -74.5t69.5 -23.5q27 0 47 4.5t34.5 9.5t25.5 9.5t19 4.5t12.5 -5.5t4.5 -20.5q0 -13 -2.5 -28.5t-6.5 -30.5t-10 -27t-13 -19q-8 -7 -24 -14
t-37 -12.5t-44.5 -8.5t-46.5 -3q-56 0 -97 12t-69 37.5t-41.5 64t-13.5 92.5q0 12 1 26.5t3.5 30.5l5 32t5.5 30l101 506h-125q-11 0 -17 6.5t-6 25.5q0 14 3 32.5t9 34.5t15.5 27t22.5 11h126l43 214q1 7 6.5 13t15.5 10.5t26.5 6.5t40.5 2t39.5 -2t24 -6.5t11 -10.5
t1.5 -13l-43 -214h576zM1159 1228q-6 -28 -14 -47t-22.5 -30.5t-35 -16.5t-50.5 -5t-48.5 5t-27 16.5t-9.5 30.5t4 47q6 28 14 46.5t22.5 31t34.5 17t50 4.5t48.5 -4.5t27.5 -17t10 -31t-4 -46.5z" />
    <glyph glyph-name="t_dotlessi.liga" unicode="t&#x131;" horiz-adv-x="1141" 
d="M900 25q-2 -8 -7 -13.5t-15 -9.5t-26.5 -6t-40.5 -2t-40 2t-24.5 6t-11.5 9.5t-1 13.5l158 789h-465l-101 -502q-4 -21 -7 -47t-3 -43q0 -51 21.5 -74.5t69.5 -23.5q27 0 47 4.5t34.5 9.5t25.5 9.5t19 4.5t12.5 -5.5t4.5 -20.5q0 -13 -2.5 -28.5t-6.5 -30.5t-10 -27
t-13 -19q-8 -7 -24 -14t-37 -12.5t-44.5 -8.5t-46.5 -3q-56 0 -97 12t-69 37.5t-41.5 64t-13.5 92.5q0 12 1 26.5t3.5 30.5l5 32t5.5 30l101 506h-125q-11 0 -17 6.5t-6 25.5q0 14 3 32.5t9 34.5t15.5 27t22.5 11h126l43 214q1 7 6.5 13t15.5 10.5t26.5 6.5t40.5 2t40 -2
t24.5 -6.5t11 -10.5t0.5 -13l-43 -214h579q30 0 38.5 -13.5t2.5 -39.5z" />
    <glyph glyph-name="t_t.liga" unicode="tt" horiz-adv-x="1299" 
d="M1321 915q0 -9 -1.5 -19.5t-4.5 -21.5t-7 -22t-10 -19.5t-12.5 -13.5t-15.5 -5h-231l-100 -502q-5 -21 -7.5 -47t-2.5 -43q0 -51 21 -74.5t70 -23.5q27 0 46.5 4.5t34 9.5t25 9.5t19.5 4.5q8 0 12.5 -5.5t4.5 -20.5q0 -13 -2.5 -28.5t-6.5 -30.5t-9.5 -27t-12.5 -19
q-8 -7 -24 -14t-37.5 -12.5t-45 -8.5t-45.5 -3q-56 0 -98 12t-69.5 37.5t-41 64t-13.5 92.5q0 12 1.5 26.5t3.5 30.5t4.5 32t5.5 30l102 506h-447l-101 -502q-4 -21 -7 -47t-3 -43q0 -51 21.5 -74.5t69.5 -23.5q27 0 47 4.5t34.5 9.5t25.5 9.5t19 4.5t12.5 -5.5t4.5 -20.5
q0 -13 -2.5 -28.5t-6.5 -30.5t-10 -27t-13 -19q-8 -7 -24 -14t-37 -12.5t-44.5 -8.5t-46.5 -3q-56 0 -97 12t-69 37.5t-41.5 64t-13.5 92.5q0 12 1 26.5t3.5 30.5l5 32t5.5 30l101 506h-125q-11 0 -17 6.5t-6 25.5q0 14 3 32.5t9 34.5t15.5 27t22.5 11h126l43 214
q1 7 6.5 13t15.5 10.5t26.5 6.5t40.5 2t39.5 -2t24 -6.5t11 -10.5t1.5 -13l-43 -214h447l51 257q2 8 7 14t15.5 9.5t26.5 6t41 2.5q23 0 38.5 -2.5t24.5 -6t11.5 -9.5t1.5 -14l-51 -257h230q15 0 19.5 -11t4.5 -25z" />
    <glyph glyph-name="t_t_f.liga" unicode="ttf" horiz-adv-x="1867" 
d="M2059 1335q0 -4 -1 -12.5t-2.5 -19t-4.5 -22t-7 -21.5t-9 -16t-12 -6t-17 4t-24 8.5t-33 8.5t-42 4q-43 0 -73.5 -13t-52.5 -40.5t-37 -69.5t-26 -99l-17 -90h201q11 0 17.5 -7.5t6.5 -24.5q0 -11 -2 -23t-5 -23.5t-7.5 -22t-10 -18.5t-12.5 -13t-14 -5h-202l-166 -829
q-18 -92 -48 -158t-72.5 -108.5t-98.5 -63t-127 -20.5q-51 0 -87.5 7.5t-49.5 20.5q-9 7 -9 28q0 7 2 23t7 33t12.5 30t17.5 13q7 0 16.5 -2.5l22.5 -6t29 -6.5t35 -3q42 0 72 13t51.5 39t36.5 66.5t25 96.5l166 827h-469l-100 -502q-5 -21 -7.5 -47t-2.5 -43
q0 -51 21 -74.5t70 -23.5q27 0 46.5 4.5t34 9.5t25 9.5t19.5 4.5q8 0 12.5 -5.5t4.5 -20.5q0 -13 -2.5 -28.5t-6.5 -30.5t-9.5 -27t-12.5 -19q-8 -7 -24 -14t-37.5 -12.5t-45 -8.5t-45.5 -3q-56 0 -98 12t-69.5 37.5t-41 64t-13.5 92.5q0 12 1.5 26.5t3.5 30.5t4.5 32
t5.5 30l102 506h-447l-101 -502q-4 -21 -7 -47t-3 -43q0 -51 21.5 -74.5t69.5 -23.5q27 0 47 4.5t34.5 9.5t25.5 9.5t19 4.5t12.5 -5.5t4.5 -20.5q0 -13 -2.5 -28.5t-6.5 -30.5t-10 -27t-13 -19q-8 -7 -24 -14t-37 -12.5t-44.5 -8.5t-46.5 -3q-56 0 -97 12t-69 37.5
t-41.5 64t-13.5 92.5q0 12 1 26.5t3.5 30.5l5 32t5.5 30l101 506h-125q-11 0 -17 6.5t-6 25.5q0 14 3 32.5t9 34.5t15.5 27t22.5 11h126l43 214q1 7 6.5 13t15.5 10.5t26.5 6.5t40.5 2t39.5 -2t24 -6.5t11 -10.5t1.5 -13l-43 -214h447l51 257q2 8 7 14t15.5 9.5t26.5 6
t41 2.5q23 0 38.5 -2.5t24.5 -6t11.5 -9.5t1.5 -14l-51 -257h468l25 123q16 83 46 144.5t72.5 102t98 60t122.5 19.5q22 0 45.5 -2.5t44.5 -7t36.5 -10.5t21.5 -12q6 -5 9 -14t3 -19z" />
    <glyph glyph-name="t_t_i.liga" unicode="tti" horiz-adv-x="1753" 
d="M1513 25q-3 -8 -7.5 -13.5t-15 -9.5t-27 -6t-40.5 -2t-39.5 2t-24.5 6t-11.5 9.5t-0.5 13.5l158 789h-466l-100 -502q-5 -21 -7.5 -47t-2.5 -43q0 -51 21 -74.5t70 -23.5q27 0 46.5 4.5t34 9.5t25 9.5t19.5 4.5q8 0 12.5 -5.5t4.5 -20.5q0 -13 -2.5 -28.5t-6.5 -30.5
t-9.5 -27t-12.5 -19q-8 -7 -24 -14t-37.5 -12.5t-45 -8.5t-45.5 -3q-56 0 -98 12t-69.5 37.5t-41 64t-13.5 92.5q0 12 1.5 26.5t3.5 30.5t4.5 32t5.5 30l102 506h-447l-101 -502q-4 -21 -7 -47t-3 -43q0 -51 21.5 -74.5t69.5 -23.5q27 0 47 4.5t34.5 9.5t25.5 9.5t19 4.5
t12.5 -5.5t4.5 -20.5q0 -13 -2.5 -28.5t-6.5 -30.5t-10 -27t-13 -19q-8 -7 -24 -14t-37 -12.5t-44.5 -8.5t-46.5 -3q-56 0 -97 12t-69 37.5t-41.5 64t-13.5 92.5q0 12 1 26.5t3.5 30.5l5 32t5.5 30l101 506h-125q-11 0 -17 6.5t-6 25.5q0 14 3 32.5t9 34.5t15.5 27t22.5 11
h126l43 214q1 7 6.5 13t15.5 10.5t26.5 6.5t40.5 2t39.5 -2t24 -6.5t11 -10.5t1.5 -13l-43 -214h447l51 257q2 8 7 14t15.5 9.5t26.5 6t41 2.5q23 0 38.5 -2.5t24.5 -6t11.5 -9.5t1.5 -14l-51 -257h579q29 0 37.5 -13.5t3.5 -39.5zM1771 1228q-5 -28 -13.5 -47t-22.5 -30.5
t-34.5 -16.5t-50.5 -5t-49 5t-28 16.5t-10 30.5t4 47q6 28 15 46.5t22.5 31t34.5 17t51 4.5q29 0 47.5 -4.5t28 -17t10.5 -31t-5 -46.5z" />
    <glyph glyph-name="t_t_igrave.liga" unicode="tt&#xec;" horiz-adv-x="1753" 
d="M1513 25q-3 -8 -7.5 -13.5t-15 -9.5t-27 -6t-40.5 -2t-39.5 2t-24.5 6t-11.5 9.5t-0.5 13.5l158 789h-466l-100 -502q-5 -21 -7.5 -47t-2.5 -43q0 -51 21 -74.5t70 -23.5q27 0 46.5 4.5t34 9.5t25 9.5t19.5 4.5q8 0 12.5 -5.5t4.5 -20.5q0 -13 -2.5 -28.5t-6.5 -30.5
t-9.5 -27t-12.5 -19q-8 -7 -24 -14t-37.5 -12.5t-45 -8.5t-45.5 -3q-56 0 -98 12t-69.5 37.5t-41 64t-13.5 92.5q0 12 1.5 26.5t3.5 30.5t4.5 32t5.5 30l102 506h-447l-101 -502q-4 -21 -7 -47t-3 -43q0 -51 21.5 -74.5t69.5 -23.5q27 0 47 4.5t34.5 9.5t25.5 9.5t19 4.5
t12.5 -5.5t4.5 -20.5q0 -13 -2.5 -28.5t-6.5 -30.5t-10 -27t-13 -19q-8 -7 -24 -14t-37 -12.5t-44.5 -8.5t-46.5 -3q-56 0 -97 12t-69 37.5t-41.5 64t-13.5 92.5q0 12 1 26.5t3.5 30.5l5 32t5.5 30l101 506h-125q-11 0 -17 6.5t-6 25.5q0 14 3 32.5t9 34.5t15.5 27t22.5 11
h126l43 214q1 7 6.5 13t15.5 10.5t26.5 6.5t40.5 2t39.5 -2t24 -6.5t11 -10.5t1.5 -13l-43 -214h447l51 257q2 8 7 14t15.5 9.5t26.5 6t41 2.5q23 0 38.5 -2.5t24.5 -6t11.5 -9.5t1.5 -14l-51 -257h579q29 0 37.5 -13.5t3.5 -39.5zM1708 1134q7 -11 8.5 -19t-4 -13t-19 -8
t-35.5 -3q-20 0 -33 1t-22 4.5t-16 10t-14 16.5l-171 233q-7 9 -7.5 17.5t7 15t25 10t46.5 3.5q24 0 40 -1.5t27 -5.5t18.5 -11.5t14.5 -18.5zM1101 951z" />
    <glyph glyph-name="t_t_iacute.liga" unicode="tt&#xed;" horiz-adv-x="1753" 
d="M1513 25q-3 -8 -7.5 -13.5t-15 -9.5t-27 -6t-40.5 -2t-39.5 2t-24.5 6t-11.5 9.5t-0.5 13.5l158 789h-466l-100 -502q-5 -21 -7.5 -47t-2.5 -43q0 -51 21 -74.5t70 -23.5q27 0 46.5 4.5t34 9.5t25 9.5t19.5 4.5q8 0 12.5 -5.5t4.5 -20.5q0 -13 -2.5 -28.5t-6.5 -30.5
t-9.5 -27t-12.5 -19q-8 -7 -24 -14t-37.5 -12.5t-45 -8.5t-45.5 -3q-56 0 -98 12t-69.5 37.5t-41 64t-13.5 92.5q0 12 1.5 26.5t3.5 30.5t4.5 32t5.5 30l102 506h-447l-101 -502q-4 -21 -7 -47t-3 -43q0 -51 21.5 -74.5t69.5 -23.5q27 0 47 4.5t34.5 9.5t25.5 9.5t19 4.5
t12.5 -5.5t4.5 -20.5q0 -13 -2.5 -28.5t-6.5 -30.5t-10 -27t-13 -19q-8 -7 -24 -14t-37 -12.5t-44.5 -8.5t-46.5 -3q-56 0 -97 12t-69 37.5t-41.5 64t-13.5 92.5q0 12 1 26.5t3.5 30.5l5 32t5.5 30l101 506h-125q-11 0 -17 6.5t-6 25.5q0 14 3 32.5t9 34.5t15.5 27t22.5 11
h126l43 214q1 7 6.5 13t15.5 10.5t26.5 6.5t40.5 2t39.5 -2t24 -6.5t11 -10.5t1.5 -13l-43 -214h447l51 257q2 8 7 14t15.5 9.5t26.5 6t41 2.5q23 0 38.5 -2.5t24.5 -6t11.5 -9.5t1.5 -14l-51 -257h579q29 0 37.5 -13.5t3.5 -39.5zM1710 1123q-7 -10 -13.5 -16t-16 -9.5
t-22.5 -5t-33 -1.5q-22 0 -35 3t-18 8t-3 13t9 19l154 231q7 11 15.5 18t20 11t28.5 6t42 2q28 0 44.5 -3.5t23 -10t5 -15t-9.5 -17.5zM1285 951z" />
    <glyph glyph-name="t_t_icircumflex.liga" unicode="tt&#xee;" horiz-adv-x="1753" 
d="M1513 25q-3 -8 -7.5 -13.5t-15 -9.5t-27 -6t-40.5 -2t-39.5 2t-24.5 6t-11.5 9.5t-0.5 13.5l158 789h-466l-100 -502q-5 -21 -7.5 -47t-2.5 -43q0 -51 21 -74.5t70 -23.5q27 0 46.5 4.5t34 9.5t25 9.5t19.5 4.5q8 0 12.5 -5.5t4.5 -20.5q0 -13 -2.5 -28.5t-6.5 -30.5
t-9.5 -27t-12.5 -19q-8 -7 -24 -14t-37.5 -12.5t-45 -8.5t-45.5 -3q-56 0 -98 12t-69.5 37.5t-41 64t-13.5 92.5q0 12 1.5 26.5t3.5 30.5t4.5 32t5.5 30l102 506h-447l-101 -502q-4 -21 -7 -47t-3 -43q0 -51 21.5 -74.5t69.5 -23.5q27 0 47 4.5t34.5 9.5t25.5 9.5t19 4.5
t12.5 -5.5t4.5 -20.5q0 -13 -2.5 -28.5t-6.5 -30.5t-10 -27t-13 -19q-8 -7 -24 -14t-37 -12.5t-44.5 -8.5t-46.5 -3q-56 0 -97 12t-69 37.5t-41.5 64t-13.5 92.5q0 12 1 26.5t3.5 30.5l5 32t5.5 30l101 506h-125q-11 0 -17 6.5t-6 25.5q0 14 3 32.5t9 34.5t15.5 27t22.5 11
h126l43 214q1 7 6.5 13t15.5 10.5t26.5 6.5t40.5 2t39.5 -2t24 -6.5t11 -10.5t1.5 -13l-43 -214h447l51 257q2 8 7 14t15.5 9.5t26.5 6t41 2.5q23 0 38.5 -2.5t24.5 -6t11.5 -9.5t1.5 -14l-51 -257h579q29 0 37.5 -13.5t3.5 -39.5zM1897 1147q8 -15 10.5 -25.5t-2.5 -17
t-20 -10t-41 -3.5q-21 0 -33 1.5t-19.5 4.5t-12 9t-8.5 15l-94 180l-166 -180q-8 -10 -15 -15.5t-16.5 -8.5t-22.5 -4.5t-32 -1.5q-27 0 -41.5 3.5t-18.5 10t2 17t20 25.5l210 229q7 8 15 12.5t19 7.5t26.5 4.5t37.5 1.5q21 0 34.5 -1.5t23 -5t15.5 -8t11 -11.5zM1101 951z
" />
    <glyph glyph-name="t_t_idieresis.liga" unicode="tt&#xef;" horiz-adv-x="1753" 
d="M1513 25q-3 -8 -7.5 -13.5t-15 -9.5t-27 -6t-40.5 -2t-39.5 2t-24.5 6t-11.5 9.5t-0.5 13.5l158 789h-466l-100 -502q-5 -21 -7.5 -47t-2.5 -43q0 -51 21 -74.5t70 -23.5q27 0 46.5 4.5t34 9.5t25 9.5t19.5 4.5q8 0 12.5 -5.5t4.5 -20.5q0 -13 -2.5 -28.5t-6.5 -30.5
t-9.5 -27t-12.5 -19q-8 -7 -24 -14t-37.5 -12.5t-45 -8.5t-45.5 -3q-56 0 -98 12t-69.5 37.5t-41 64t-13.5 92.5q0 12 1.5 26.5t3.5 30.5t4.5 32t5.5 30l102 506h-447l-101 -502q-4 -21 -7 -47t-3 -43q0 -51 21.5 -74.5t69.5 -23.5q27 0 47 4.5t34.5 9.5t25.5 9.5t19 4.5
t12.5 -5.5t4.5 -20.5q0 -13 -2.5 -28.5t-6.5 -30.5t-10 -27t-13 -19q-8 -7 -24 -14t-37 -12.5t-44.5 -8.5t-46.5 -3q-56 0 -97 12t-69 37.5t-41.5 64t-13.5 92.5q0 12 1 26.5t3.5 30.5l5 32t5.5 30l101 506h-125q-11 0 -17 6.5t-6 25.5q0 14 3 32.5t9 34.5t15.5 27t22.5 11
h126l43 214q1 7 6.5 13t15.5 10.5t26.5 6.5t40.5 2t39.5 -2t24 -6.5t11 -10.5t1.5 -13l-43 -214h447l51 257q2 8 7 14t15.5 9.5t26.5 6t41 2.5q23 0 38.5 -2.5t24.5 -6t11.5 -9.5t1.5 -14l-51 -257h579q29 0 37.5 -13.5t3.5 -39.5zM1416 1216q5 27 13 45t21.5 29t32 15.5
t43.5 4.5q26 0 42 -4.5t24 -15.5t9 -29t-4 -45t-13.5 -45.5t-21 -29t-31 -15t-43.5 -4.5q-26 0 -42.5 4.5t-24.5 15t-9 29t4 45.5zM1726 1216q5 27 13.5 45t21.5 29t32 15.5t44 4.5q26 0 42 -4.5t24 -15.5t9 -29t-4 -45q-6 -27 -14 -45.5t-21 -29t-31 -15t-43 -4.5
q-26 0 -42.5 4.5t-25 15t-9.5 29t4 45.5zM1134 951z" />
    <glyph glyph-name="t_t_imacron.liga" unicode="tt&#x12b;" horiz-adv-x="1753" 
d="M1513 25q-3 -8 -7.5 -13.5t-15 -9.5t-27 -6t-40.5 -2t-39.5 2t-24.5 6t-11.5 9.5t-0.5 13.5l158 789h-466l-100 -502q-5 -21 -7.5 -47t-2.5 -43q0 -51 21 -74.5t70 -23.5q27 0 46.5 4.5t34 9.5t25 9.5t19.5 4.5q8 0 12.5 -5.5t4.5 -20.5q0 -13 -2.5 -28.5t-6.5 -30.5
t-9.5 -27t-12.5 -19q-8 -7 -24 -14t-37.5 -12.5t-45 -8.5t-45.5 -3q-56 0 -98 12t-69.5 37.5t-41 64t-13.5 92.5q0 12 1.5 26.5t3.5 30.5t4.5 32t5.5 30l102 506h-447l-101 -502q-4 -21 -7 -47t-3 -43q0 -51 21.5 -74.5t69.5 -23.5q27 0 47 4.5t34.5 9.5t25.5 9.5t19 4.5
t12.5 -5.5t4.5 -20.5q0 -13 -2.5 -28.5t-6.5 -30.5t-10 -27t-13 -19q-8 -7 -24 -14t-37 -12.5t-44.5 -8.5t-46.5 -3q-56 0 -97 12t-69 37.5t-41.5 64t-13.5 92.5q0 12 1 26.5t3.5 30.5l5 32t5.5 30l101 506h-125q-11 0 -17 6.5t-6 25.5q0 14 3 32.5t9 34.5t15.5 27t22.5 11
h126l43 214q1 7 6.5 13t15.5 10.5t26.5 6.5t40.5 2t39.5 -2t24 -6.5t11 -10.5t1.5 -13l-43 -214h447l51 257q2 8 7 14t15.5 9.5t26.5 6t41 2.5q23 0 38.5 -2.5t24.5 -6t11.5 -9.5t1.5 -14l-51 -257h579q29 0 37.5 -13.5t3.5 -39.5zM1938 1262q0 -6 -1 -15t-3.5 -19.5t-6 -22
t-8.5 -20.5t-12 -15t-16 -6h-479q-13 0 -19.5 7.5t-6.5 24.5q0 7 2 23.5t8 32.5t15.5 28.5t26.5 12.5h479q12 0 16.5 -8.5t4.5 -22.5zM1106 951z" />
    <glyph glyph-name="t_t_itilde.liga" unicode="tt&#x129;" horiz-adv-x="1753" 
d="M1513 25q-3 -8 -7.5 -13.5t-15 -9.5t-27 -6t-40.5 -2t-39.5 2t-24.5 6t-11.5 9.5t-0.5 13.5l158 789h-466l-100 -502q-5 -21 -7.5 -47t-2.5 -43q0 -51 21 -74.5t70 -23.5q27 0 46.5 4.5t34 9.5t25 9.5t19.5 4.5q8 0 12.5 -5.5t4.5 -20.5q0 -13 -2.5 -28.5t-6.5 -30.5
t-9.5 -27t-12.5 -19q-8 -7 -24 -14t-37.5 -12.5t-45 -8.5t-45.5 -3q-56 0 -98 12t-69.5 37.5t-41 64t-13.5 92.5q0 12 1.5 26.5t3.5 30.5t4.5 32t5.5 30l102 506h-447l-101 -502q-4 -21 -7 -47t-3 -43q0 -51 21.5 -74.5t69.5 -23.5q27 0 47 4.5t34.5 9.5t25.5 9.5t19 4.5
t12.5 -5.5t4.5 -20.5q0 -13 -2.5 -28.5t-6.5 -30.5t-10 -27t-13 -19q-8 -7 -24 -14t-37 -12.5t-44.5 -8.5t-46.5 -3q-56 0 -97 12t-69 37.5t-41.5 64t-13.5 92.5q0 12 1 26.5t3.5 30.5l5 32t5.5 30l101 506h-125q-11 0 -17 6.5t-6 25.5q0 14 3 32.5t9 34.5t15.5 27t22.5 11
h126l43 214q1 7 6.5 13t15.5 10.5t26.5 6.5t40.5 2t39.5 -2t24 -6.5t11 -10.5t1.5 -13l-43 -214h447l51 257q2 8 7 14t15.5 9.5t26.5 6t41 2.5q23 0 38.5 -2.5t24.5 -6t11.5 -9.5t1.5 -14l-51 -257h579q29 0 37.5 -13.5t3.5 -39.5zM1994 1327q0 -6 -2 -24.5t-9 -44.5
t-20.5 -54.5t-37 -52.5t-58.5 -39.5t-84 -15.5q-37 0 -65.5 9.5t-51.5 24.5t-42.5 32l-38 32t-37 24.5t-40.5 9.5q-40 0 -59 -29t-25 -77q-1 -7 -4 -12.5t-10 -8.5t-19 -4t-32 -1q-17 0 -27 1.5t-15 5t-7 9t-2 13.5q0 6 1.5 25t8.5 45t21 54t37 51.5t57.5 39t83.5 15.5
q37 0 65.5 -9.5t52 -24.5t43 -32l37.5 -32t36.5 -24.5t40.5 -9.5q35 0 57 26.5t28 78.5q1 16 13.5 21.5t46.5 5.5q37 0 47 -6.5t10 -21.5zM1038 951z" />
    <glyph glyph-name="t_t_ibreve.liga" unicode="tt&#x12d;" horiz-adv-x="1753" 
d="M1513 25q-3 -8 -7.5 -13.5t-15 -9.5t-27 -6t-40.5 -2t-39.5 2t-24.5 6t-11.5 9.5t-0.5 13.5l158 789h-466l-100 -502q-5 -21 -7.5 -47t-2.5 -43q0 -51 21 -74.5t70 -23.5q27 0 46.5 4.5t34 9.5t25 9.5t19.5 4.5q8 0 12.5 -5.5t4.5 -20.5q0 -13 -2.5 -28.5t-6.5 -30.5
t-9.5 -27t-12.5 -19q-8 -7 -24 -14t-37.5 -12.5t-45 -8.5t-45.5 -3q-56 0 -98 12t-69.5 37.5t-41 64t-13.5 92.5q0 12 1.5 26.5t3.5 30.5t4.5 32t5.5 30l102 506h-447l-101 -502q-4 -21 -7 -47t-3 -43q0 -51 21.5 -74.5t69.5 -23.5q27 0 47 4.5t34.5 9.5t25.5 9.5t19 4.5
t12.5 -5.5t4.5 -20.5q0 -13 -2.5 -28.5t-6.5 -30.5t-10 -27t-13 -19q-8 -7 -24 -14t-37 -12.5t-44.5 -8.5t-46.5 -3q-56 0 -97 12t-69 37.5t-41.5 64t-13.5 92.5q0 12 1 26.5t3.5 30.5l5 32t5.5 30l101 506h-125q-11 0 -17 6.5t-6 25.5q0 14 3 32.5t9 34.5t15.5 27t22.5 11
h126l43 214q1 7 6.5 13t15.5 10.5t26.5 6.5t40.5 2t39.5 -2t24 -6.5t11 -10.5t1.5 -13l-43 -214h447l51 257q2 8 7 14t15.5 9.5t26.5 6t41 2.5q23 0 38.5 -2.5t24.5 -6t11.5 -9.5t1.5 -14l-51 -257h579q29 0 37.5 -13.5t3.5 -39.5zM1948 1374q0 -11 -4.5 -36t-17 -56
t-33.5 -64t-54.5 -60.5t-81.5 -44.5t-112 -17q-66 0 -108.5 15t-68 41.5t-36 61.5t-10.5 73q0 10 1 24.5t3.5 29t5.5 26.5t8 15q7 8 21 10.5t33 2.5q18 0 28.5 -1.5t17 -4t8.5 -7t2 -10.5q0 -11 -1.5 -24.5t-1.5 -28.5q0 -23 5 -42.5t17.5 -33.5t33 -22t51.5 -8q30 0 57 8.5
t49.5 27t40 47t27.5 69.5q2 8 6 13.5t11 9t19 5.5t30 2t28.5 -1.5t16.5 -4t7.5 -6.5t1.5 -9zM1119 951z" />
    <glyph glyph-name="t_t_iogonek.liga" unicode="tt&#x12f;" horiz-adv-x="1753" 
d="M1513 25q-5 -21 -15 -38t-26 -30l-75 -62q-37 -32 -53.5 -53.5t-16.5 -43.5q0 -18 13 -29.5t46 -11.5h111q12 0 17 -5t5 -15q0 -6 -1.5 -16.5t-4.5 -21.5t-6.5 -20.5t-8.5 -13.5q-6 -6 -22 -11t-37.5 -9.5t-44.5 -7t-45 -2.5q-94 0 -140.5 32.5t-46.5 95.5q0 19 4.5 39
t17 42.5t34.5 47t56 52.5l68 58l163 812h-466l-100 -502q-5 -21 -7.5 -47t-2.5 -43q0 -51 21 -74.5t70 -23.5q27 0 46.5 4.5t34 9.5t25 9.5t19.5 4.5q8 0 12.5 -5.5t4.5 -20.5q0 -13 -2.5 -28.5t-6.5 -30.5t-9.5 -27t-12.5 -19q-8 -7 -24 -14t-37.5 -12.5t-45 -8.5t-45.5 -3
q-56 0 -98 12t-69.5 37.5t-41 64t-13.5 92.5q0 12 1.5 26.5t3.5 30.5t4.5 32t5.5 30l102 506h-447l-101 -502q-4 -21 -7 -47t-3 -43q0 -51 21.5 -74.5t69.5 -23.5q27 0 47 4.5t34.5 9.5t25.5 9.5t19 4.5t12.5 -5.5t4.5 -20.5q0 -13 -2.5 -28.5t-6.5 -30.5t-10 -27t-13 -19
q-8 -7 -24 -14t-37 -12.5t-44.5 -8.5t-46.5 -3q-56 0 -97 12t-69 37.5t-41.5 64t-13.5 92.5q0 12 1 26.5t3.5 30.5l5 32t5.5 30l101 506h-125q-11 0 -17 6.5t-6 25.5q0 14 3 32.5t9 34.5t15.5 27t22.5 11h126l43 214q1 7 6.5 13t15.5 10.5t26.5 6.5t40.5 2t39.5 -2t24 -6.5
t11 -10.5t1.5 -13l-43 -214h447l51 257q2 8 7 14t15.5 9.5t26.5 6t41 2.5q23 0 38.5 -2.5t24.5 -6t11.5 -9.5t1.5 -14l-51 -257h579q29 0 37.5 -13.5t3.5 -39.5zM1771 1228q-5 -28 -13.5 -47t-22.5 -30.5t-34.5 -16.5t-50.5 -5t-49 5t-28 16.5t-9.5 30.5t4.5 47
q6 28 14.5 46.5t22.5 31t34.5 17t50.5 4.5t48.5 -4.5t27.5 -17t10 -31t-5 -46.5z" />
    <glyph glyph-name="t_t_dotlessi.liga" unicode="tt&#x131;" horiz-adv-x="1753" 
d="M1513 25q-3 -8 -7.5 -13.5t-15 -9.5t-27 -6t-40.5 -2t-39.5 2t-24.5 6t-11.5 9.5t-0.5 13.5l158 789h-466l-100 -502q-5 -21 -7.5 -47t-2.5 -43q0 -51 21 -74.5t70 -23.5q27 0 46.5 4.5t34 9.5t25 9.5t19.5 4.5q8 0 12.5 -5.5t4.5 -20.5q0 -13 -2.5 -28.5t-6.5 -30.5
t-9.5 -27t-12.5 -19q-8 -7 -24 -14t-37.5 -12.5t-45 -8.5t-45.5 -3q-56 0 -98 12t-69.5 37.5t-41 64t-13.5 92.5q0 12 1.5 26.5t3.5 30.5t4.5 32t5.5 30l102 506h-447l-101 -502q-4 -21 -7 -47t-3 -43q0 -51 21.5 -74.5t69.5 -23.5q27 0 47 4.5t34.5 9.5t25.5 9.5t19 4.5
t12.5 -5.5t4.5 -20.5q0 -13 -2.5 -28.5t-6.5 -30.5t-10 -27t-13 -19q-8 -7 -24 -14t-37 -12.5t-44.5 -8.5t-46.5 -3q-56 0 -97 12t-69 37.5t-41.5 64t-13.5 92.5q0 12 1 26.5t3.5 30.5l5 32t5.5 30l101 506h-125q-11 0 -17 6.5t-6 25.5q0 14 3 32.5t9 34.5t15.5 27t22.5 11
h126l43 214q1 7 6.5 13t15.5 10.5t26.5 6.5t40.5 2t39.5 -2t24 -6.5t11 -10.5t1.5 -13l-43 -214h447l51 257q2 8 7 14t15.5 9.5t26.5 6t41 2.5q23 0 38.5 -2.5t24.5 -6t11.5 -9.5t1.5 -14l-51 -257h579q29 0 37.5 -13.5t3.5 -39.5z" />
    <glyph glyph-name=".notdef" horiz-adv-x="1038" 
d="M986 1294v-1294h-933v1294h933zM900 81v1132h-762v-1132h762zM773 898q0 -52 -15.5 -103.5t-50 -92.5t-89.5 -68t-133 -32l-36 -152q-2 -10 -17.5 -14t-42.5 -4q-14 0 -24 1t-16 3t-8.5 5t-1.5 9l32 188q5 27 20.5 38.5t38.5 11.5h8q61 0 100.5 18.5t62.5 48t32.5 64.5
t9.5 68q0 25 -7.5 46.5t-24 37.5t-43 25.5t-66.5 9.5t-72 -7.5t-55.5 -17t-39 -17.5t-22.5 -8q-10 0 -13 6t-3 20q0 5 1 14.5t3.5 20.5t6.5 20t10 15q8 7 28.5 16.5t49.5 18.5t63 14.5t68 5.5q68 0 115 -19t76 -49.5t42 -67.5t13 -73zM442 305q0 -8 -1.5 -19.5t-5 -24.5
t-9 -24.5t-12.5 -18.5q-10 -10 -26 -15t-38 -5t-35 3.5t-20 9.5t-9.5 14t-2.5 18q0 9 2 21t5.5 24t9.5 23t14 19q9 9 25 14t41 5q19 0 31.5 -3t19.5 -9t9 -14t2 -18zM0 -397z" />
    <glyph glyph-name="glyph1" horiz-adv-x="0" 
 />
    <glyph glyph-name="glyph2" horiz-adv-x="0" 
 />
    <glyph glyph-name="space" unicode=" " horiz-adv-x="463" 
 />
    <glyph glyph-name="space" unicode="&#xa0;" horiz-adv-x="463" 
 />
    <glyph glyph-name="A" unicode="A" horiz-adv-x="1185" 
d="M1060 61q3 -22 1.5 -35.5t-11 -20.5t-29.5 -9t-54 -2q-22 0 -38 1.5t-24.5 5t-12.5 9.5t-5 15l-48 315h-539l-169 -312q-5 -10 -11.5 -16.5t-18 -10.5t-30 -5.5t-45.5 -1.5q-30 0 -48 2.5t-25 9.5t-4 20.5t14 35.5l674 1202q7 11 15 18t21 11t33 5.5t49 1.5
q33 0 53.5 -1.5t33 -5.5t17.5 -11.5t7 -18.5zM723 1122h-1l-350 -645h448z" />
    <glyph glyph-name="Agrave" unicode="&#xc0;" horiz-adv-x="1185" 
d="M1060 61q3 -22 1.5 -35.5t-11 -20.5t-29.5 -9t-54 -2q-22 0 -38 1.5t-24.5 5t-12.5 9.5t-5 15l-48 315h-539l-169 -312q-5 -10 -11.5 -16.5t-18 -10.5t-30 -5.5t-45.5 -1.5q-30 0 -48 2.5t-25 9.5t-4 20.5t14 35.5l674 1202q7 11 15 18t21 11t33 5.5t49 1.5
q33 0 53.5 -1.5t33 -5.5t17.5 -11.5t7 -18.5zM723 1122h-1l-350 -645h448zM839 1438q9 -11 11.5 -19t-3.5 -13.5t-19.5 -8t-35.5 -2.5q-21 0 -35 1.5t-24.5 5t-19.5 9t-19 15.5l-217 212q-10 10 -12 19t5 16t25 11.5t48 4.5q25 0 42 -1t31 -5t24 -11.5t20 -20.5zM112 1294z
" />
    <glyph glyph-name="Aacute" unicode="&#xc1;" horiz-adv-x="1185" 
d="M1060 61q3 -22 1.5 -35.5t-11 -20.5t-29.5 -9t-54 -2q-22 0 -38 1.5t-24.5 5t-12.5 9.5t-5 15l-48 315h-539l-169 -312q-5 -10 -11.5 -16.5t-18 -10.5t-30 -5.5t-45.5 -1.5q-30 0 -48 2.5t-25 9.5t-4 20.5t14 35.5l674 1202q7 11 15 18t21 11t33 5.5t49 1.5
q33 0 53.5 -1.5t33 -5.5t17.5 -11.5t7 -18.5zM723 1122h-1l-350 -645h448zM864 1426q-11 -9 -20 -15t-20 -9.5t-25.5 -5t-34.5 -1.5q-46 0 -55 10.5t11 32.5l197 213q11 12 22.5 19.5t25 11.5t31 5.5t42.5 1.5q30 0 47 -4.5t24 -11.5t3.5 -16t-13.5 -19zM364 1294z" />
    <glyph glyph-name="Acircumflex" unicode="&#xc2;" horiz-adv-x="1185" 
d="M1060 61q3 -22 1.5 -35.5t-11 -20.5t-29.5 -9t-54 -2q-22 0 -38 1.5t-24.5 5t-12.5 9.5t-5 15l-48 315h-539l-169 -312q-5 -10 -11.5 -16.5t-18 -10.5t-30 -5.5t-45.5 -1.5q-30 0 -48 2.5t-25 9.5t-4 20.5t14 35.5l674 1202q7 11 15 18t21 11t33 5.5t49 1.5
q33 0 53.5 -1.5t33 -5.5t17.5 -11.5t7 -18.5zM723 1122h-1l-350 -645h448zM1119 1433q7 -10 6.5 -17.5t-7.5 -12t-21 -6.5t-36 -2q-30 0 -47 1.5t-27 4t-15 7t-9 9.5l-118 173l-193 -168q-10 -8 -19.5 -14t-23 -8.5t-32.5 -3.5t-46 -1q-25 0 -38.5 2.5t-18 7t-0.5 11.5
t16 17l269 227q9 9 18.5 14.5t21 9t26.5 4.5t36 1t34.5 -1t23 -4.5t16.5 -9t14 -14.5zM151 1294z" />
    <glyph glyph-name="Atilde" unicode="&#xc3;" horiz-adv-x="1185" 
d="M1060 61q3 -22 1.5 -35.5t-11 -20.5t-29.5 -9t-54 -2q-22 0 -38 1.5t-24.5 5t-12.5 9.5t-5 15l-48 315h-539l-169 -312q-5 -10 -11.5 -16.5t-18 -10.5t-30 -5.5t-45.5 -1.5q-30 0 -48 2.5t-25 9.5t-4 20.5t14 35.5l674 1202q7 11 15 18t21 11t33 5.5t49 1.5
q33 0 53.5 -1.5t33 -5.5t17.5 -11.5t7 -18.5zM723 1122h-1l-350 -645h448zM1044 1614q1 7 5 11t12 6.5t20 3.5t28 1q34 0 44 -6.5t10 -18.5q0 -4 -1.5 -21.5t-8.5 -41.5t-20 -50.5t-36.5 -49t-59.5 -37.5t-87 -15q-52 0 -90 18t-68.5 39.5t-59 39t-60.5 17.5
q-43 0 -62.5 -25t-24.5 -67q-1 -6 -5 -10t-11.5 -6.5t-19.5 -4t-28 -1.5q-33 0 -44.5 5.5t-11.5 19.5q0 11 3 32t11.5 44.5t23.5 48t39 45t58 33t81 12.5q51 0 88.5 -18t68.5 -39l59 -39t60 -18q36 0 59 20.5t28 71.5zM138 1294z" />
    <glyph glyph-name="Adieresis" unicode="&#xc4;" horiz-adv-x="1185" 
d="M1060 61q3 -22 1.5 -35.5t-11 -20.5t-29.5 -9t-54 -2q-22 0 -38 1.5t-24.5 5t-12.5 9.5t-5 15l-48 315h-539l-169 -312q-5 -10 -11.5 -16.5t-18 -10.5t-30 -5.5t-45.5 -1.5q-30 0 -48 2.5t-25 9.5t-4 20.5t14 35.5l674 1202q7 11 15 18t21 11t33 5.5t49 1.5
q33 0 53.5 -1.5t33 -5.5t17.5 -11.5t7 -18.5zM723 1122h-1l-350 -645h448zM1122 1527q-5 -28 -12.5 -46t-21 -29.5t-33 -16t-46.5 -4.5q-28 0 -45.5 4.5t-27 16t-11 29.5t2.5 46q5 28 12 46.5t20.5 30t32.5 16t47 4.5t45.5 -4.5t27 -16t12 -30t-2.5 -46.5zM709 1527
q-4 -28 -12 -46t-21.5 -29.5t-33 -16t-47.5 -4.5t-45.5 4.5t-26.5 16t-10.5 29.5t3.5 46q4 28 11.5 46.5t20 30t32 16t48.5 4.5q27 0 44.5 -4.5t27 -16t11.5 -30t-2 -46.5zM170 1294z" />
    <glyph glyph-name="Amacron" unicode="&#x100;" horiz-adv-x="1185" 
d="M1060 61q3 -22 1.5 -35.5t-11 -20.5t-29.5 -9t-54 -2q-22 0 -38 1.5t-24.5 5t-12.5 9.5t-5 15l-48 315h-539l-169 -312q-5 -10 -11.5 -16.5t-18 -10.5t-30 -5.5t-45.5 -1.5q-30 0 -48 2.5t-25 9.5t-4 20.5t14 35.5l674 1202q7 11 15 18t21 11t33 5.5t49 1.5
q33 0 53.5 -1.5t33 -5.5t17.5 -11.5t7 -18.5zM723 1122h-1l-350 -645h448zM1127 1560q0 -7 -1 -17.5t-4 -22t-7 -23t-9.5 -20t-12 -14.5t-14.5 -6h-546q-12 0 -18 7.5t-6 24.5q0 6 1 16t3 21t6.5 22.5t10 20.5t13 15t17.5 6h545q12 0 17 -8.5t5 -21.5zM169 1294z" />
    <glyph glyph-name="Abreve" unicode="&#x102;" horiz-adv-x="1185" 
d="M1060 61q3 -22 1.5 -35.5t-11 -20.5t-29.5 -9t-54 -2q-22 0 -38 1.5t-24.5 5t-12.5 9.5t-5 15l-48 315h-539l-169 -312q-5 -10 -11.5 -16.5t-18 -10.5t-30 -5.5t-45.5 -1.5q-30 0 -48 2.5t-25 9.5t-4 20.5t14 35.5l674 1202q7 11 15 18t21 11t33 5.5t49 1.5
q33 0 53.5 -1.5t33 -5.5t17.5 -11.5t7 -18.5zM723 1122h-1l-350 -645h448zM1099 1670q0 -11 -5 -36t-18 -55.5t-34.5 -62.5t-55.5 -59t-82 -44.5t-112 -17.5q-66 0 -109 15.5t-69 41.5t-37 60.5t-11 72.5q0 10 1.5 24.5t3.5 28.5t5.5 25.5t7.5 15.5q7 7 22 10t34 3
q17 0 28.5 -1.5t18 -4.5t9 -7.5t2.5 -10.5q0 -10 -1.5 -23t-1.5 -27q0 -23 5 -42t17 -32.5t32.5 -20.5t52.5 -7q29 0 56 8t49.5 25t39.5 45t28 69q2 7 6.5 12.5t12.5 9t20 5.5t30 2t28.5 -1.5t16.5 -4t8 -7t2 -9.5zM204 1294z" />
    <glyph glyph-name="Aring" unicode="&#xc5;" horiz-adv-x="1185" 
d="M1060 61q3 -22 1.5 -35.5t-11 -20.5t-29.5 -9t-54 -2q-22 0 -38 1.5t-24.5 5t-12.5 9.5t-5 15l-48 315h-539l-169 -312q-5 -10 -11.5 -16.5t-18 -10.5t-30 -5.5t-45.5 -1.5q-30 0 -48 2.5t-25 9.5t-4 20.5t14 35.5l674 1202q7 11 15 18t21 11t33 5.5t49 1.5
q33 0 53.5 -1.5t33 -5.5t17.5 -11.5t7 -18.5zM723 1122h-1l-350 -645h448zM1025 1571q0 -44 -16 -82.5t-45.5 -67t-71.5 -45t-95 -16.5q-49 0 -83 13.5t-56 35.5t-32 50.5t-10 59.5q0 30 6.5 57t20 50.5t33 43.5t45 34t56.5 21.5t66 7.5q49 0 83.5 -13.5t56.5 -36.5
t32 -52.5t10 -59.5zM913 1559q0 15 -4.5 30.5t-14 27.5t-26 19.5t-39.5 7.5q-24 0 -43.5 -8.5t-32 -24t-19 -35.5t-6.5 -44q0 -15 4 -30.5t13.5 -27t26 -18.5t39.5 -7q24 0 43 8.5t32 23t20 34.5t7 44zM267 1294z" />
    <glyph glyph-name="Aringacute" unicode="&#x1fa;" horiz-adv-x="1185" 
d="M1060 61q3 -22 1.5 -35.5t-11 -20.5t-29.5 -9t-54 -2q-22 0 -38 1.5t-24.5 5t-12.5 9.5t-5 15l-48 315h-539l-169 -312q-5 -10 -11.5 -16.5t-18 -10.5t-30 -5.5t-45.5 -1.5q-30 0 -48 2.5t-25 9.5t-4 20.5t14 35.5l674 1202q7 11 15 18t21 11t33 5.5t49 1.5
q33 0 53.5 -1.5t33 -5.5t17.5 -11.5t7 -18.5zM723 1122h-1l-350 -645h448zM875 1745l-19.5 -14t-17.5 -9.5t-22 -5t-32 -1.5q-22 0 -35 2.5t-18 7.5t-1.5 12.5t12.5 17.5l167 161q10 10 20.5 17t23 11t28.5 5t39 1q29 0 45.5 -4t23 -10t4.5 -14t-12 -15zM991 1532
q0 -41 -15.5 -75.5t-42.5 -59t-64.5 -38t-82.5 -13.5q-48 0 -83.5 11.5t-58 32.5t-33.5 48.5t-11 60.5q0 41 14.5 74.5t42 57.5t66 37t86.5 13q45 0 79.5 -11.5t57 -32t34 -47.5t11.5 -58zM886 1518q0 15 -5 29.5t-15.5 26.5t-26.5 19t-40 7q-45 0 -69.5 -25t-24.5 -66
q0 -17 4.5 -32t14.5 -26.5t26.5 -18t41.5 -6.5q44 0 69 26.5t25 65.5zM269 1294z" />
    <glyph glyph-name="Aogonek" unicode="&#x104;" horiz-adv-x="1185" 
d="M1027 -261q0 -7 -1.5 -17.5t-4 -22t-6.5 -20.5t-8 -13q-6 -6 -20.5 -11.5t-35 -10t-44 -7t-47.5 -2.5q-46 0 -81.5 8t-60.5 24t-38 39.5t-13 55.5q0 22 7.5 44.5t23 45.5t40 48t59.5 54l90 74l-48 312h-539l-169 -312q-5 -10 -11.5 -16.5t-18 -10.5t-30 -5.5t-45.5 -1.5
q-30 0 -48 2.5t-25 9.5t-4 20.5t14 35.5l674 1202q7 11 15 18t21 11t33 5.5t49 1.5q33 0 53.5 -1.5t32.5 -5.5t17.5 -11t7.5 -19l189 -1172q4 -21 4.5 -36t-3.5 -26.5t-12.5 -21.5t-21.5 -21l-98 -80q-26 -23 -42 -40t-25 -29t-12 -22t-3 -17q0 -17 13.5 -28t45.5 -11h104
q13 0 17.5 -5t4.5 -15zM724 1123h-2l-350 -646h448z" />
    <glyph glyph-name="AE" unicode="&#xc6;" horiz-adv-x="1563" 
d="M1378 110q0 -7 -1.5 -17.5t-4 -22.5t-6 -24.5t-9.5 -22.5t-13.5 -16.5t-16.5 -6.5h-615q-12 0 -23 3.5t-18 12t-10 22t0 32.5l50 246h-445l-212 -288q-8 -10 -16 -16.5t-21 -10.5t-32 -5.5t-49 -1.5q-29 0 -46.5 2.5t-23.5 9.5t-1.5 20.5t19.5 35.5l887 1195
q8 12 17.5 19.5t24 11t34.5 5t49 1.5h681q24 0 24 -34q0 -7 -1.5 -17.5t-3.5 -22.5t-6 -24t-10 -22.5t-14 -16.5t-18 -6h-499l-82 -407h428q12 0 17.5 -9t5.5 -25q0 -7 -1 -17.5t-3.5 -23t-6.5 -24.5t-9.5 -22t-13 -16t-17.5 -6h-429l-91 -458h507q11 0 17.5 -9t6.5 -24z
M877 1151h-3l-515 -697h380z" />
    <glyph glyph-name="AEacute" unicode="&#x1fc;" horiz-adv-x="1563" 
d="M1378 110q0 -7 -1.5 -17.5t-4 -22.5t-6 -24.5t-9.5 -22.5t-13.5 -16.5t-16.5 -6.5h-615q-12 0 -23 3.5t-18 12t-10 22t0 32.5l50 246h-445l-212 -288q-8 -10 -16 -16.5t-21 -10.5t-32 -5.5t-49 -1.5q-29 0 -46.5 2.5t-23.5 9.5t-1.5 20.5t19.5 35.5l887 1195
q8 12 17.5 19.5t24 11t34.5 5t49 1.5h681q24 0 24 -34q0 -7 -1.5 -17.5t-3.5 -22.5t-6 -24t-10 -22.5t-14 -16.5t-18 -6h-499l-82 -407h428q12 0 17.5 -9t5.5 -25q0 -7 -1 -17.5t-3.5 -23t-6.5 -24.5t-9.5 -22t-13 -16t-17.5 -6h-429l-91 -458h507q11 0 17.5 -9t6.5 -24z
M877 1151h-3l-515 -697h380zM1154 1426q-11 -9 -20 -15t-20 -9.5t-25.5 -5t-34.5 -1.5q-46 0 -55 10.5t11 32.5l197 213q11 12 22.5 19.5t25 11.5t31 5.5t42.5 1.5q30 0 47 -4.5t24 -11.5t3.5 -16t-13.5 -19zM654 1294z" />
    <glyph glyph-name="B" unicode="B" horiz-adv-x="1114" 
d="M1051 1042q0 -61 -16.5 -115.5t-47 -100.5t-74 -81t-98.5 -58q42 -8 78.5 -29t62.5 -52.5t40.5 -74.5t14.5 -95q0 -53 -14 -106.5t-42.5 -102t-71 -90t-99.5 -72.5t-127.5 -48t-163.5 -17h-343q-33 0 -49.5 16.5t-7.5 53.5l230 1154q7 39 32 54.5t52 15.5h278
q99 0 166 -16.5t111.5 -48.5t66.5 -79t22 -108zM868 1011q0 33 -11 59t-35.5 44.5t-62 29t-98.5 10.5h-182l-83 -419h195q79 0 130 26t83.5 66.5t48 89.5t15.5 94zM829 424q0 83 -59 128.5t-182 45.5h-221l-90 -456h241q82 0 138.5 23.5t94.5 62t58 89.5t20 107z" />
    <glyph glyph-name="C" unicode="C" horiz-adv-x="1070" 
d="M1145 1162q0 -21 -7 -52t-18.5 -49t-24.5 -18q-14 0 -33 18.5t-51 40t-82.5 40t-126.5 18.5q-84 0 -153 -31.5t-124.5 -85t-97.5 -123.5t-69.5 -146.5t-41.5 -154.5t-14 -148q0 -80 20 -142.5t58 -105.5t93 -65t125 -22q78 0 134.5 17.5t97 39t67.5 39t44 17.5
q11 0 16 -8t5 -24q0 -5 -1.5 -14.5t-3.5 -20.5l-4.5 -24t-6.5 -24.5t-8.5 -21t-15 -19.5t-44 -29.5t-82 -37t-109 -30t-128.5 -12.5q-102 0 -184 30.5t-139.5 90t-89 148t-31.5 203.5q0 95 20 195.5t59 195.5t97.5 179t136 147.5t174.5 100t213 36.5q73 0 136.5 -16.5
t108.5 -41.5t65 -44.5t20 -45.5z" />
    <glyph glyph-name="Cacute" unicode="&#x106;" horiz-adv-x="1070" 
d="M1145 1162q0 -21 -7 -52t-18.5 -49t-24.5 -18q-14 0 -33 18.5t-51 40t-82.5 40t-126.5 18.5q-84 0 -153 -31.5t-124.5 -85t-97.5 -123.5t-69.5 -146.5t-41.5 -154.5t-14 -148q0 -80 20 -142.5t58 -105.5t93 -65t125 -22q78 0 134.5 17.5t97 39t67.5 39t44 17.5
q11 0 16 -8t5 -24q0 -5 -1.5 -14.5t-3.5 -20.5l-4.5 -24t-6.5 -24.5t-8.5 -21t-15 -19.5t-44 -29.5t-82 -37t-109 -30t-128.5 -12.5q-102 0 -184 30.5t-139.5 90t-89 148t-31.5 203.5q0 95 20 195.5t59 195.5t97.5 179t136 147.5t174.5 100t213 36.5q73 0 136.5 -16.5
t108.5 -41.5t65 -44.5t20 -45.5zM897 1426q-11 -9 -20 -15t-20 -9.5t-25.5 -5t-34.5 -1.5q-46 0 -55 10.5t11 32.5l197 213q11 12 22.5 19.5t25 11.5t31 5.5t42.5 1.5q30 0 47 -4.5t24 -11.5t3.5 -16t-13.5 -19zM397 1294z" />
    <glyph glyph-name="Ccircumflex" unicode="&#x108;" horiz-adv-x="1070" 
d="M1145 1162q0 -21 -7 -52t-18.5 -49t-24.5 -18q-14 0 -33 18.5t-51 40t-82.5 40t-126.5 18.5q-84 0 -153 -31.5t-124.5 -85t-97.5 -123.5t-69.5 -146.5t-41.5 -154.5t-14 -148q0 -80 20 -142.5t58 -105.5t93 -65t125 -22q78 0 134.5 17.5t97 39t67.5 39t44 17.5
q11 0 16 -8t5 -24q0 -5 -1.5 -14.5t-3.5 -20.5l-4.5 -24t-6.5 -24.5t-8.5 -21t-15 -19.5t-44 -29.5t-82 -37t-109 -30t-128.5 -12.5q-102 0 -184 30.5t-139.5 90t-89 148t-31.5 203.5q0 95 20 195.5t59 195.5t97.5 179t136 147.5t174.5 100t213 36.5q73 0 136.5 -16.5
t108.5 -41.5t65 -44.5t20 -45.5zM1139 1433q7 -10 6.5 -17.5t-7.5 -12t-21 -6.5t-36 -2q-30 0 -47 1.5t-27 4t-15 7t-9 9.5l-118 173l-193 -168q-10 -8 -19.5 -14t-23 -8.5t-32.5 -3.5t-46 -1q-25 0 -38.5 2.5t-18 7t-0.5 11.5t16 17l269 227q9 9 18.5 14.5t21 9t26.5 4.5
t36 1t34.5 -1t23 -4.5t16.5 -9t14 -14.5zM171 1294z" />
    <glyph glyph-name="Ccaron" unicode="&#x10c;" horiz-adv-x="1070" 
d="M1145 1162q0 -21 -7 -52t-18.5 -49t-24.5 -18q-14 0 -33 18.5t-51 40t-82.5 40t-126.5 18.5q-84 0 -153 -31.5t-124.5 -85t-97.5 -123.5t-69.5 -146.5t-41.5 -154.5t-14 -148q0 -80 20 -142.5t58 -105.5t93 -65t125 -22q78 0 134.5 17.5t97 39t67.5 39t44 17.5
q11 0 16 -8t5 -24q0 -5 -1.5 -14.5t-3.5 -20.5l-4.5 -24t-6.5 -24.5t-8.5 -21t-15 -19.5t-44 -29.5t-82 -37t-109 -30t-128.5 -12.5q-102 0 -184 30.5t-139.5 90t-89 148t-31.5 203.5q0 95 20 195.5t59 195.5t97.5 179t136 147.5t174.5 100t213 36.5q73 0 136.5 -16.5
t108.5 -41.5t65 -44.5t20 -45.5zM921 1424q-9 -9 -18.5 -14.5t-21.5 -8.5t-27 -4.5t-36 -1.5t-34.5 1t-23 4t-16.5 9t-14 15l-169 227q-7 10 -7.5 17.5t6.5 12t21.5 6.5t36.5 2q30 0 47 -1.5t26 -4t13.5 -7.5t9.5 -10l120 -172l193 168q9 8 18.5 13.5t23 8.5t33 4t46.5 1
q24 0 38 -2.5t18.5 -7t1 -12t-14.5 -16.5zM181 1294z" />
    <glyph glyph-name="Cdotaccent" unicode="&#x10a;" horiz-adv-x="1070" 
d="M1145 1162q0 -21 -7 -52t-18.5 -49t-24.5 -18q-14 0 -33 18.5t-51 40t-82.5 40t-126.5 18.5q-84 0 -153 -31.5t-124.5 -85t-97.5 -123.5t-69.5 -146.5t-41.5 -154.5t-14 -148q0 -80 20 -142.5t58 -105.5t93 -65t125 -22q78 0 134.5 17.5t97 39t67.5 39t44 17.5
q11 0 16 -8t5 -24q0 -5 -1.5 -14.5t-3.5 -20.5l-4.5 -24t-6.5 -24.5t-8.5 -21t-15 -19.5t-44 -29.5t-82 -37t-109 -30t-128.5 -12.5q-102 0 -184 30.5t-139.5 90t-89 148t-31.5 203.5q0 95 20 195.5t59 195.5t97.5 179t136 147.5t174.5 100t213 36.5q73 0 136.5 -16.5
t108.5 -41.5t65 -44.5t20 -45.5zM763 1528q5 26 13.5 44.5t23 30t34.5 17t48 5.5t46 -5.5t27 -17t10 -30t-4 -44.5t-14 -44.5t-22.5 -30.5t-34 -17t-47.5 -5q-29 0 -46.5 5t-26.5 17t-10.5 30.5t3.5 44.5zM419 1294z" />
    <glyph glyph-name="Ccedilla" unicode="&#xc7;" horiz-adv-x="1070" 
d="M463 -8q-127 22 -202.5 89.5t-110 163t-34.5 211.5q0 95 19.5 195.5t59 195.5t97.5 179t136 147.5t174.5 100t212.5 36.5q73 0 136.5 -16.5t109 -41.5t65.5 -44.5t20 -45.5q0 -21 -7.5 -52t-18.5 -49t-25 -18t-32.5 18.5t-50.5 40t-82.5 40t-126.5 18.5
q-84 0 -153.5 -31.5t-125 -85t-97 -123.5t-69.5 -146.5t-41.5 -154.5t-13.5 -148q0 -80 20 -142.5t58 -105.5t93 -65t125 -22q77 0 133.5 17.5t97.5 39t68.5 39t42.5 17.5q12 0 17 -8t5 -24q0 -5 -1.5 -14.5t-3.5 -20.5t-5 -24t-6.5 -24.5t-8.5 -21t-15 -19.5t-48 -32
t-110.5 -45.5t-160.5 -29.5l15 -60q9 -33 14 -56.5t5 -44.5q0 -49 -16 -85t-44 -59t-69 -34.5t-91 -11.5q-25 0 -51 2t-47.5 6t-37 8.5t-22.5 8.5q-5 3 -7.5 8t-2.5 14q0 10 2.5 23t7 25t12.5 20.5t20 8.5h123q16 0 31 3.5t26.5 11.5t18 21.5t6.5 33.5q0 10 -2 26t-6 32z
" />
    <glyph glyph-name="D" unicode="D" horiz-adv-x="1260" 
d="M1221 828q0 -65 -9 -135.5t-28.5 -141t-50.5 -138.5t-75.5 -129.5t-103 -113.5t-133.5 -90t-167 -59t-221 -21h-287q-13 0 -24.5 3.5t-19.5 11.5t-11 21.5t2 33.5l230 1154q7 39 30.5 54.5t53.5 15.5h273q149 0 247 -31.5t163.5 -91.5t98 -146.5t32.5 -196.5zM1039 813
q0 74 -20.5 136t-64.5 106.5t-112.5 70t-181.5 25.5h-180l-201 -1007h178q122 0 204 29.5t145 80t107 117.5t72 141t41 151.5t13 149.5z" />
    <glyph glyph-name="Dcaron" unicode="&#x10e;" horiz-adv-x="1260" 
d="M1221 828q0 -65 -9 -135.5t-28.5 -141t-50.5 -138.5t-75.5 -129.5t-103 -113.5t-133.5 -90t-167 -59t-221 -21h-287q-13 0 -24.5 3.5t-19.5 11.5t-11 21.5t2 33.5l230 1154q7 39 30.5 54.5t53.5 15.5h273q149 0 247 -31.5t163.5 -91.5t98 -146.5t32.5 -196.5zM1039 813
q0 74 -20.5 136t-64.5 106.5t-112.5 70t-181.5 25.5h-180l-201 -1007h178q122 0 204 29.5t145 80t107 117.5t72 141t41 151.5t13 149.5zM840 1424q-9 -9 -18.5 -14.5t-21.5 -8.5t-27 -4.5t-36 -1.5t-34.5 1t-23 4t-16.5 9t-14 15l-169 227q-7 10 -7.5 17.5t6.5 12t21.5 6.5
t36.5 2q30 0 47 -1.5t26 -4t13.5 -7.5t9.5 -10l120 -172l193 168q9 8 18.5 13.5t23 8.5t33 4t46.5 1q24 0 38 -2.5t18.5 -7t1 -12t-14.5 -16.5zM100 1294z" />
    <glyph glyph-name="Dcroat" unicode="&#x110;" horiz-adv-x="1279" 
d="M1240 828q0 -90 -17 -186.5t-54 -188.5t-96 -174t-144.5 -144t-199 -98.5t-277.5 -36.5h-289q-27 0 -43.5 15.5t-8.5 54.5l106 531h-130q-12 0 -18 8.5t-6 26.5q0 6 1.5 16.5t3.5 23t6 24.5t10 21.5t13.5 16t17.5 6.5h131l96 480q7 39 30 54.5t53 15.5h273
q149 0 247.5 -32t163.5 -92t98 -146.5t33 -195.5zM1058 813q0 74 -21 136t-65 107t-112.5 70t-181.5 25h-179l-82 -407h234q17 0 21 -11t4 -24q0 -9 -1 -20t-4 -23t-7.5 -24t-10.5 -21t-13 -14.5t-16 -5.5h-235l-91 -457h177q122 0 204.5 29.5t145.5 80t107 117.5t72 141
t41 151.5t13 149.5z" />
    <glyph glyph-name="Eth" unicode="&#xd0;" horiz-adv-x="1279" 
d="M1240 828q0 -90 -17 -186.5t-54 -188.5t-96 -174t-144.5 -144t-199 -98.5t-277.5 -36.5h-289q-27 0 -43.5 15.5t-8.5 54.5l106 531h-130q-12 0 -18 8.5t-6 26.5q0 6 1.5 16.5t3.5 23t6 24.5t10 21.5t13.5 16t17.5 6.5h131l96 480q7 39 30 54.5t53 15.5h273
q149 0 247.5 -32t163.5 -92t98 -146.5t33 -195.5zM1058 813q0 74 -21 136t-65 107t-112.5 70t-181.5 25h-179l-82 -407h234q17 0 21 -11t4 -24q0 -9 -1 -20t-4 -23t-7.5 -24t-10.5 -21t-13 -14.5t-16 -5.5h-235l-91 -457h177q122 0 204.5 29.5t145.5 80t107 117.5t72 141
t41 151.5t13 149.5z" />
    <glyph glyph-name="E" unicode="E" horiz-adv-x="1000" 
d="M1038 1261q0 -5 -0.5 -15.5t-3 -22.5t-6 -25t-9.5 -23.5t-14.5 -17t-18.5 -6.5h-505l-82 -406h435q12 0 18 -8t6 -24q0 -5 -1.5 -15.5t-3.5 -23t-6 -24.5t-9.5 -21.5t-13.5 -16t-18 -6.5h-434l-94 -463h515q10 0 16.5 -8t6.5 -25q0 -6 -1 -17t-3.5 -23t-6 -24.5t-9.5 -23
t-14.5 -16.5t-18.5 -6h-622q-11 0 -21.5 3.5t-18 12t-10.5 22t2 32.5l231 1154q7 39 31 54.5t47 15.5h613q23 0 23 -33z" />
    <glyph glyph-name="Egrave" unicode="&#xc8;" horiz-adv-x="1000" 
d="M1038 1261q0 -5 -0.5 -15.5t-3 -22.5t-6 -25t-9.5 -23.5t-14.5 -17t-18.5 -6.5h-505l-82 -406h435q12 0 18 -8t6 -24q0 -5 -1.5 -15.5t-3.5 -23t-6 -24.5t-9.5 -21.5t-13.5 -16t-18 -6.5h-434l-94 -463h515q10 0 16.5 -8t6.5 -25q0 -6 -1 -17t-3.5 -23t-6 -24.5t-9.5 -23
t-14.5 -16.5t-18.5 -6h-622q-11 0 -21.5 3.5t-18 12t-10.5 22t2 32.5l231 1154q7 39 31 54.5t47 15.5h613q23 0 23 -33zM778 1438q9 -11 11.5 -19t-3.5 -13.5t-19.5 -8t-35.5 -2.5q-21 0 -35 1.5t-24.5 5t-19.5 9t-19 15.5l-217 212q-10 10 -12 19t5 16t25 11.5t48 4.5
q25 0 42 -1t31 -5t24 -11.5t20 -20.5zM51 1294z" />
    <glyph glyph-name="Eacute" unicode="&#xc9;" horiz-adv-x="1000" 
d="M1038 1261q0 -5 -0.5 -15.5t-3 -22.5t-6 -25t-9.5 -23.5t-14.5 -17t-18.5 -6.5h-505l-82 -406h435q12 0 18 -8t6 -24q0 -5 -1.5 -15.5t-3.5 -23t-6 -24.5t-9.5 -21.5t-13.5 -16t-18 -6.5h-434l-94 -463h515q10 0 16.5 -8t6.5 -25q0 -6 -1 -17t-3.5 -23t-6 -24.5t-9.5 -23
t-14.5 -16.5t-18.5 -6h-622q-11 0 -21.5 3.5t-18 12t-10.5 22t2 32.5l231 1154q7 39 31 54.5t47 15.5h613q23 0 23 -33zM799 1426q-11 -9 -20 -15t-20 -9.5t-25.5 -5t-34.5 -1.5q-46 0 -55 10.5t11 32.5l197 213q11 12 22.5 19.5t25 11.5t31 5.5t42.5 1.5q30 0 47 -4.5
t24 -11.5t3.5 -16t-13.5 -19zM299 1294z" />
    <glyph glyph-name="Ecircumflex" unicode="&#xca;" horiz-adv-x="1000" 
d="M1038 1261q0 -5 -0.5 -15.5t-3 -22.5t-6 -25t-9.5 -23.5t-14.5 -17t-18.5 -6.5h-505l-82 -406h435q12 0 18 -8t6 -24q0 -5 -1.5 -15.5t-3.5 -23t-6 -24.5t-9.5 -21.5t-13.5 -16t-18 -6.5h-434l-94 -463h515q10 0 16.5 -8t6.5 -25q0 -6 -1 -17t-3.5 -23t-6 -24.5t-9.5 -23
t-14.5 -16.5t-18.5 -6h-622q-11 0 -21.5 3.5t-18 12t-10.5 22t2 32.5l231 1154q7 39 31 54.5t47 15.5h613q23 0 23 -33zM1035 1433q7 -10 6.5 -17.5t-7.5 -12t-21 -6.5t-36 -2q-30 0 -47 1.5t-27 4t-15 7t-9 9.5l-118 173l-193 -168q-10 -8 -19.5 -14t-23 -8.5t-32.5 -3.5
t-46 -1q-25 0 -38.5 2.5t-18 7t-0.5 11.5t16 17l269 227q9 9 18.5 14.5t21 9t26.5 4.5t36 1t34.5 -1t23 -4.5t16.5 -9t14 -14.5zM67 1294z" />
    <glyph glyph-name="Ecaron" unicode="&#x11a;" horiz-adv-x="1000" 
d="M1038 1261q0 -5 -0.5 -15.5t-3 -22.5t-6 -25t-9.5 -23.5t-14.5 -17t-18.5 -6.5h-505l-82 -406h435q12 0 18 -8t6 -24q0 -5 -1.5 -15.5t-3.5 -23t-6 -24.5t-9.5 -21.5t-13.5 -16t-18 -6.5h-434l-94 -463h515q10 0 16.5 -8t6.5 -25q0 -6 -1 -17t-3.5 -23t-6 -24.5t-9.5 -23
t-14.5 -16.5t-18.5 -6h-622q-11 0 -21.5 3.5t-18 12t-10.5 22t2 32.5l231 1154q7 39 31 54.5t47 15.5h613q23 0 23 -33zM799 1424q-9 -9 -18.5 -14.5t-21.5 -8.5t-27 -4.5t-36 -1.5t-34.5 1t-23 4t-16.5 9t-14 15l-169 227q-7 10 -7.5 17.5t6.5 12t21.5 6.5t36.5 2
q30 0 47 -1.5t26 -4t13.5 -7.5t9.5 -10l120 -172l193 168q9 8 18.5 13.5t23 8.5t33 4t46.5 1q24 0 38 -2.5t18.5 -7t1 -12t-14.5 -16.5zM59 1294z" />
    <glyph glyph-name="Edieresis" unicode="&#xcb;" horiz-adv-x="1000" 
d="M1038 1261q0 -5 -0.5 -15.5t-3 -22.5t-6 -25t-9.5 -23.5t-14.5 -17t-18.5 -6.5h-505l-82 -406h435q12 0 18 -8t6 -24q0 -5 -1.5 -15.5t-3.5 -23t-6 -24.5t-9.5 -21.5t-13.5 -16t-18 -6.5h-434l-94 -463h515q10 0 16.5 -8t6.5 -25q0 -6 -1 -17t-3.5 -23t-6 -24.5t-9.5 -23
t-14.5 -16.5t-18.5 -6h-622q-11 0 -21.5 3.5t-18 12t-10.5 22t2 32.5l231 1154q7 39 31 54.5t47 15.5h613q23 0 23 -33zM1036 1527q-5 -28 -12.5 -46t-21 -29.5t-33 -16t-46.5 -4.5q-28 0 -45.5 4.5t-27 16t-11 29.5t2.5 46q5 28 12 46.5t20.5 30t32.5 16t47 4.5t45.5 -4.5
t27 -16t12 -30t-2.5 -46.5zM623 1527q-4 -28 -12 -46t-21.5 -29.5t-33 -16t-47.5 -4.5t-45.5 4.5t-26.5 16t-10.5 29.5t3.5 46q4 28 11.5 46.5t20 30t32 16t48.5 4.5q27 0 44.5 -4.5t27 -16t11.5 -30t-2 -46.5zM84 1294z" />
    <glyph glyph-name="Emacron" unicode="&#x112;" horiz-adv-x="1000" 
d="M1038 1261q0 -5 -0.5 -15.5t-3 -22.5t-6 -25t-9.5 -23.5t-14.5 -17t-18.5 -6.5h-505l-82 -406h435q12 0 18 -8t6 -24q0 -5 -1.5 -15.5t-3.5 -23t-6 -24.5t-9.5 -21.5t-13.5 -16t-18 -6.5h-434l-94 -463h515q10 0 16.5 -8t6.5 -25q0 -6 -1 -17t-3.5 -23t-6 -24.5t-9.5 -23
t-14.5 -16.5t-18.5 -6h-622q-11 0 -21.5 3.5t-18 12t-10.5 22t2 32.5l231 1154q7 39 31 54.5t47 15.5h613q23 0 23 -33zM1035 1560q0 -7 -1 -17.5t-4 -22t-7 -23t-9.5 -20t-12 -14.5t-14.5 -6h-546q-12 0 -18 7.5t-6 24.5q0 6 1 16t3 21t6.5 22.5t10 20.5t13 15t17.5 6h545
q12 0 17 -8.5t5 -21.5zM77 1294z" />
    <glyph glyph-name="Ebreve" unicode="&#x114;" horiz-adv-x="1000" 
d="M1038 1261q0 -5 -0.5 -15.5t-3 -22.5t-6 -25t-9.5 -23.5t-14.5 -17t-18.5 -6.5h-505l-82 -406h435q12 0 18 -8t6 -24q0 -5 -1.5 -15.5t-3.5 -23t-6 -24.5t-9.5 -21.5t-13.5 -16t-18 -6.5h-434l-94 -463h515q10 0 16.5 -8t6.5 -25q0 -6 -1 -17t-3.5 -23t-6 -24.5t-9.5 -23
t-14.5 -16.5t-18.5 -6h-622q-11 0 -21.5 3.5t-18 12t-10.5 22t2 32.5l231 1154q7 39 31 54.5t47 15.5h613q23 0 23 -33zM1018 1670q0 -11 -5 -36t-18 -55.5t-34.5 -62.5t-55.5 -59t-82 -44.5t-112 -17.5q-66 0 -109 15.5t-69 41.5t-37 60.5t-11 72.5q0 10 1.5 24.5t3.5 28.5
t5.5 25.5t7.5 15.5q7 7 22 10t34 3q17 0 28.5 -1.5t18 -4.5t9 -7.5t2.5 -10.5q0 -10 -1.5 -23t-1.5 -27q0 -23 5 -42t17 -32.5t32.5 -20.5t52.5 -7q29 0 56 8t49.5 25t39.5 45t28 69q2 7 6.5 12.5t12.5 9t20 5.5t30 2t28.5 -1.5t16.5 -4t8 -7t2 -9.5zM123 1294z" />
    <glyph glyph-name="Edotaccent" unicode="&#x116;" horiz-adv-x="1000" 
d="M1038 1261q0 -5 -0.5 -15.5t-3 -22.5t-6 -25t-9.5 -23.5t-14.5 -17t-18.5 -6.5h-505l-82 -406h435q12 0 18 -8t6 -24q0 -5 -1.5 -15.5t-3.5 -23t-6 -24.5t-9.5 -21.5t-13.5 -16t-18 -6.5h-434l-94 -463h515q10 0 16.5 -8t6.5 -25q0 -6 -1 -17t-3.5 -23t-6 -24.5t-9.5 -23
t-14.5 -16.5t-18.5 -6h-622q-11 0 -21.5 3.5t-18 12t-10.5 22t2 32.5l231 1154q7 39 31 54.5t47 15.5h613q23 0 23 -33zM644 1528q5 26 13.5 44.5t23 30t34.5 17t48 5.5t46 -5.5t27 -17t10 -30t-4 -44.5t-14 -44.5t-22.5 -30.5t-34 -17t-47.5 -5q-29 0 -46.5 5t-26.5 17
t-10.5 30.5t3.5 44.5zM300 1294z" />
    <glyph glyph-name="Eogonek" unicode="&#x118;" horiz-adv-x="1000" 
d="M780 -261q0 -8 -1.5 -20t-4.5 -22.5t-6.5 -18.5t-7.5 -12q-6 -7 -24 -12.5t-40.5 -9.5t-47 -6.5t-43.5 -2.5q-50 0 -86 9.5t-58.5 26t-33.5 40t-11 52.5q0 20 5 40.5t17 41.5t32 43.5t49 47.5l78 64h-454q-12 0 -22.5 3.5t-18.5 12t-11 22t2 32.5l231 1154q8 39 31 54.5
t47 15.5h613q12 0 17.5 -8.5t5.5 -25.5q0 -6 -1 -16t-3.5 -22.5t-6 -25t-9.5 -23t-14 -16.5t-19 -6h-504l-82 -406h435q12 0 18 -9t6 -24q0 -6 -1.5 -16t-3.5 -22t-6 -23.5t-10 -22t-14 -16.5t-18 -6h-433l-94 -463h514q12 0 18 -8t6 -25q0 -8 -1.5 -23t-5 -31t-10.5 -31.5
t-17 -23.5l-139 -115q-34 -28 -45.5 -48.5t-11.5 -37.5q0 -19 12 -30t51 -11h110q12 0 16.5 -4.5t4.5 -15.5z" />
    <glyph glyph-name="F" unicode="F" horiz-adv-x="941" 
d="M1006 1260q0 -6 -0.5 -16t-3 -22.5t-6.5 -25.5t-10 -24t-14 -17.5t-18 -6.5h-473l-88 -440h448q12 0 17.5 -8.5t5.5 -23.5q0 -8 -1 -18.5t-3.5 -22t-6.5 -24.5t-10 -23t-14 -16.5t-18 -6.5h-447l-108 -539q-1 -8 -6.5 -14t-16 -9.5t-27.5 -6t-42 -2.5t-41.5 2.5t-25.5 6
t-12 9.5t-1 14l240 1198q7 39 31 54.5t47 15.5h581q14 0 18.5 -9.5t4.5 -24.5z" />
    <glyph glyph-name="G" unicode="G" horiz-adv-x="1292" 
d="M1279 1153q0 -7 -1.5 -17.5t-4 -22t-6.5 -24t-9 -22t-11 -15t-13 -5.5q-15 0 -40.5 18t-68 40.5t-103.5 41t-146 18.5q-89 0 -166.5 -26.5t-142.5 -73t-116 -110t-86.5 -138t-54 -156.5t-18.5 -166q0 -88 25.5 -155.5t73.5 -113.5t116 -69.5t152 -23.5q62 0 129.5 14.5
t125.5 44.5l75 375h-299q-12 0 -18.5 8.5t-6.5 24.5q0 7 1.5 18.5t4 23.5t7 24t10.5 21.5t13.5 15t16.5 5.5h411q28 0 40.5 -19t5.5 -51l-100 -498q-4 -19 -10.5 -30.5t-14.5 -20.5q-9 -9 -45.5 -26.5t-92 -35.5t-125 -31.5t-145.5 -13.5q-130 0 -229 33.5t-166 97.5
t-102 155t-35 206q0 107 24.5 210.5t70.5 196.5t113.5 172t155 136t192.5 90t227 33q70 0 131 -12.5t109 -30t81 -38.5t45 -32t16 -21t4 -25z" />
    <glyph glyph-name="Gcircumflex" unicode="&#x11c;" horiz-adv-x="1292" 
d="M1279 1153q0 -7 -1.5 -17.5t-4 -22t-6.5 -24t-9 -22t-11 -15t-13 -5.5q-15 0 -40.5 18t-68 40.5t-103.5 41t-146 18.5q-89 0 -166.5 -26.5t-142.5 -73t-116 -110t-86.5 -138t-54 -156.5t-18.5 -166q0 -88 25.5 -155.5t73.5 -113.5t116 -69.5t152 -23.5q62 0 129.5 14.5
t125.5 44.5l75 375h-299q-12 0 -18.5 8.5t-6.5 24.5q0 7 1.5 18.5t4 23.5t7 24t10.5 21.5t13.5 15t16.5 5.5h411q28 0 40.5 -19t5.5 -51l-100 -498q-4 -19 -10.5 -30.5t-14.5 -20.5q-9 -9 -45.5 -26.5t-92 -35.5t-125 -31.5t-145.5 -13.5q-130 0 -229 33.5t-166 97.5
t-102 155t-35 206q0 107 24.5 210.5t70.5 196.5t113.5 172t155 136t192.5 90t227 33q70 0 131 -12.5t109 -30t81 -38.5t45 -32t16 -21t4 -25zM1190 1433q7 -10 6.5 -17.5t-7.5 -12t-21 -6.5t-36 -2q-30 0 -47 1.5t-27 4t-15 7t-9 9.5l-118 173l-193 -168q-10 -8 -19.5 -14
t-23 -8.5t-32.5 -3.5t-46 -1q-25 0 -38.5 2.5t-18 7t-0.5 11.5t16 17l269 227q9 9 18.5 14.5t21 9t26.5 4.5t36 1t34.5 -1t23 -4.5t16.5 -9t14 -14.5zM222 1294z" />
    <glyph glyph-name="Gbreve" unicode="&#x11e;" horiz-adv-x="1292" 
d="M1279 1153q0 -7 -1.5 -17.5t-4 -22t-6.5 -24t-9 -22t-11 -15t-13 -5.5q-15 0 -40.5 18t-68 40.5t-103.5 41t-146 18.5q-89 0 -166.5 -26.5t-142.5 -73t-116 -110t-86.5 -138t-54 -156.5t-18.5 -166q0 -88 25.5 -155.5t73.5 -113.5t116 -69.5t152 -23.5q62 0 129.5 14.5
t125.5 44.5l75 375h-299q-12 0 -18.5 8.5t-6.5 24.5q0 7 1.5 18.5t4 23.5t7 24t10.5 21.5t13.5 15t16.5 5.5h411q28 0 40.5 -19t5.5 -51l-100 -498q-4 -19 -10.5 -30.5t-14.5 -20.5q-9 -9 -45.5 -26.5t-92 -35.5t-125 -31.5t-145.5 -13.5q-130 0 -229 33.5t-166 97.5
t-102 155t-35 206q0 107 24.5 210.5t70.5 196.5t113.5 172t155 136t192.5 90t227 33q70 0 131 -12.5t109 -30t81 -38.5t45 -32t16 -21t4 -25zM1188 1670q0 -11 -5 -36t-18 -55.5t-34.5 -62.5t-55.5 -59t-82 -44.5t-112 -17.5q-66 0 -109 15.5t-69 41.5t-37 60.5t-11 72.5
q0 10 1.5 24.5t3.5 28.5t5.5 25.5t7.5 15.5q7 7 22 10t34 3q17 0 28.5 -1.5t18 -4.5t9 -7.5t2.5 -10.5q0 -10 -1.5 -23t-1.5 -27q0 -23 5 -42t17 -32.5t32.5 -20.5t52.5 -7q29 0 56 8t49.5 25t39.5 45t28 69q2 7 6.5 12.5t12.5 9t20 5.5t30 2t28.5 -1.5t16.5 -4t8 -7t2 -9.5
zM293 1294z" />
    <glyph glyph-name="Gdotaccent" unicode="&#x120;" horiz-adv-x="1292" 
d="M1279 1153q0 -7 -1.5 -17.5t-4 -22t-6.5 -24t-9 -22t-11 -15t-13 -5.5q-15 0 -40.5 18t-68 40.5t-103.5 41t-146 18.5q-89 0 -166.5 -26.5t-142.5 -73t-116 -110t-86.5 -138t-54 -156.5t-18.5 -166q0 -88 25.5 -155.5t73.5 -113.5t116 -69.5t152 -23.5q62 0 129.5 14.5
t125.5 44.5l75 375h-299q-12 0 -18.5 8.5t-6.5 24.5q0 7 1.5 18.5t4 23.5t7 24t10.5 21.5t13.5 15t16.5 5.5h411q28 0 40.5 -19t5.5 -51l-100 -498q-4 -19 -10.5 -30.5t-14.5 -20.5q-9 -9 -45.5 -26.5t-92 -35.5t-125 -31.5t-145.5 -13.5q-130 0 -229 33.5t-166 97.5
t-102 155t-35 206q0 107 24.5 210.5t70.5 196.5t113.5 172t155 136t192.5 90t227 33q70 0 131 -12.5t109 -30t81 -38.5t45 -32t16 -21t4 -25zM810 1528q5 26 13.5 44.5t23 30t34.5 17t48 5.5t46 -5.5t27 -17t10 -30t-4 -44.5t-14 -44.5t-22.5 -30.5t-34 -17t-47.5 -5
q-29 0 -46.5 5t-26.5 17t-10.5 30.5t3.5 44.5zM466 1294z" />
    <glyph glyph-name="Gcommaaccent" unicode="&#x122;" horiz-adv-x="1292" 
d="M1279 1153q0 -7 -1.5 -17.5t-4 -22t-6.5 -24t-9 -22t-11 -15t-13 -5.5q-15 0 -40.5 18t-68 40.5t-103.5 41t-146 18.5q-89 0 -166.5 -26.5t-142.5 -73t-116 -110t-86.5 -138t-54 -156.5t-18.5 -166q0 -88 25.5 -155.5t73.5 -113.5t116 -69.5t152 -23.5q62 0 129.5 14.5
t125.5 44.5l75 375h-299q-12 0 -18.5 8.5t-6.5 24.5q0 7 1.5 18.5t4 23.5t7 24t10.5 21.5t13.5 15t16.5 5.5h411q28 0 40.5 -19t5.5 -51l-100 -498q-4 -19 -10.5 -30.5t-14.5 -20.5q-9 -9 -45.5 -26.5t-92 -35.5t-125 -31.5t-145.5 -13.5q-130 0 -229 33.5t-166 97.5
t-102 155t-35 206q0 107 24.5 210.5t70.5 196.5t113.5 172t155 136t192.5 90t227 33q70 0 131 -12.5t109 -30t81 -38.5t45 -32t16 -21t4 -25zM504 -334q-7 -10 -13.5 -16t-16.5 -9t-24 -4.5t-35 -1.5q-20 0 -31 2.5t-15 7.5t-2 13t7 19l98 202q5 11 12 18.5t19 11.5t29.5 6
t44.5 2q26 0 40.5 -3.5t20 -10t3.5 -15t-9 -19.5z" />
    <glyph glyph-name="H" unicode="H" horiz-adv-x="1276" 
d="M1016 25q-2 -7 -7.5 -13t-16 -9.5t-27 -6t-42.5 -2.5q-24 0 -40 2.5t-25.5 6t-12.5 9.5t0 13l114 575h-589l-114 -575q-2 -7 -7 -13t-16 -9.5t-28 -6t-41 -2.5q-26 0 -42 2.5t-25 6t-12 9.5t-1 13l248 1244q1 7 7 13t17 9.5t27.5 6t41.5 2.5q24 0 40.5 -2.5t25.5 -6
t11.5 -9.5t1.5 -13l-103 -519h588l104 519q1 7 6.5 13t16.5 9.5t27.5 6t42.5 2.5q24 0 40 -2.5t25.5 -6t12 -9.5t0.5 -13z" />
    <glyph glyph-name="Hcircumflex" unicode="&#x124;" horiz-adv-x="1276" 
d="M1016 25q-2 -7 -7.5 -13t-16 -9.5t-27 -6t-42.5 -2.5q-24 0 -40 2.5t-25.5 6t-12.5 9.5t0 13l114 575h-589l-114 -575q-2 -7 -7 -13t-16 -9.5t-28 -6t-41 -2.5q-26 0 -42 2.5t-25 6t-12 9.5t-1 13l248 1244q1 7 7 13t17 9.5t27.5 6t41.5 2.5q24 0 40.5 -2.5t25.5 -6
t11.5 -9.5t1.5 -13l-103 -519h588l104 519q1 7 6.5 13t16.5 9.5t27.5 6t42.5 2.5q24 0 40 -2.5t25.5 -6t12 -9.5t0.5 -13zM1130 1433q7 -10 6.5 -17.5t-7.5 -12t-21 -6.5t-36 -2q-30 0 -47 1.5t-27 4t-15 7t-9 9.5l-118 173l-193 -168q-10 -8 -19.5 -14t-23 -8.5t-32.5 -3.5
t-46 -1q-25 0 -38.5 2.5t-18 7t-0.5 11.5t16 17l269 227q9 9 18.5 14.5t21 9t26.5 4.5t36 1t34.5 -1t23 -4.5t16.5 -9t14 -14.5zM162 1294z" />
    <glyph glyph-name="Hbar" unicode="&#x126;" horiz-adv-x="1344" 
d="M468 916l-42 -203h589l41 203h-588zM1255 1050h141q14 0 18.5 -7.5t4.5 -22.5q0 -7 -1 -17.5t-3.5 -22.5t-6 -23.5t-9.5 -20.5t-13.5 -14.5t-17.5 -5.5h-140l-178 -891q-2 -8 -7.5 -13.5t-16 -9.5t-27 -6t-41.5 -2t-41.5 2t-25.5 6t-12 9.5t-1 13.5l109 545h-589
l-108 -545q-3 -8 -7.5 -13.5t-15.5 -9.5t-28 -6t-41 -2q-25 0 -41.5 2t-25.5 6t-12 9.5t-1 13.5l178 891h-140q-14 0 -19 9t-5 26q0 9 2.5 26t8.5 33.5t15.5 28t24.5 11.5h140l43 219q1 7 7 13t17 10t27.5 6t41.5 2t41.5 -2t25.5 -6t11.5 -10t1.5 -13l-45 -219h589l43 219
q2 7 7.5 13t16 10t27.5 6t42 2t41 -2t25 -6t12 -10t1 -13z" />
    <glyph glyph-name="I" unicode="I" horiz-adv-x="516" 
d="M256 25q-1 -7 -6.5 -13t-16.5 -9.5t-28 -6t-41 -2.5q-26 0 -42 2.5t-25 6t-12 9.5t-1 13l248 1244q1 7 7.5 13t17.5 9.5t27.5 6t40.5 2.5t40 -2.5t25.5 -6t12.5 -9.5t1 -13z" />
    <glyph glyph-name="Igrave" unicode="&#xcc;" horiz-adv-x="516" 
d="M256 25q-1 -7 -6.5 -13t-16.5 -9.5t-28 -6t-41 -2.5q-26 0 -42 2.5t-25 6t-12 9.5t-1 13l248 1244q1 7 7.5 13t17.5 9.5t27.5 6t40.5 2.5t40 -2.5t25.5 -6t12.5 -9.5t1 -13zM508 1438q9 -11 11.5 -19t-3.5 -13.5t-19.5 -8t-35.5 -2.5q-21 0 -35 1.5t-24.5 5t-19.5 9
t-19 15.5l-217 212q-10 10 -12 19t5 16t25 11.5t48 4.5q25 0 42 -1t31 -5t24 -11.5t20 -20.5zM-219 1294z" />
    <glyph glyph-name="Iacute" unicode="&#xcd;" horiz-adv-x="516" 
d="M256 25q-1 -7 -6.5 -13t-16.5 -9.5t-28 -6t-41 -2.5q-26 0 -42 2.5t-25 6t-12 9.5t-1 13l248 1244q1 7 7.5 13t17.5 9.5t27.5 6t40.5 2.5t40 -2.5t25.5 -6t12.5 -9.5t1 -13zM522 1426q-11 -9 -20 -15t-20 -9.5t-25.5 -5t-34.5 -1.5q-46 0 -55 10.5t11 32.5l197 213
q11 12 22.5 19.5t25 11.5t31 5.5t42.5 1.5q30 0 47 -4.5t24 -11.5t3.5 -16t-13.5 -19zM22 1294z" />
    <glyph glyph-name="Icircumflex" unicode="&#xce;" horiz-adv-x="516" 
d="M256 25q-1 -7 -6.5 -13t-16.5 -9.5t-28 -6t-41 -2.5q-26 0 -42 2.5t-25 6t-12 9.5t-1 13l248 1244q1 7 7.5 13t17.5 9.5t27.5 6t40.5 2.5t40 -2.5t25.5 -6t12.5 -9.5t1 -13zM769 1433q7 -10 6.5 -17.5t-7.5 -12t-21 -6.5t-36 -2q-30 0 -47 1.5t-27 4t-15 7t-9 9.5
l-118 173l-193 -168q-10 -8 -19.5 -14t-23 -8.5t-32.5 -3.5t-46 -1q-25 0 -38.5 2.5t-18 7t-0.5 11.5t16 17l269 227q9 9 18.5 14.5t21 9t26.5 4.5t36 1t34.5 -1t23 -4.5t16.5 -9t14 -14.5zM-199 1294z" />
    <glyph glyph-name="Itilde" unicode="&#x128;" horiz-adv-x="516" 
d="M256 25q-1 -7 -6.5 -13t-16.5 -9.5t-28 -6t-41 -2.5q-26 0 -42 2.5t-25 6t-12 9.5t-1 13l248 1244q1 7 7.5 13t17.5 9.5t27.5 6t40.5 2.5t40 -2.5t25.5 -6t12.5 -9.5t1 -13zM695 1614q1 7 5 11t12 6.5t20 3.5t28 1q34 0 44 -6.5t10 -18.5q0 -4 -1.5 -21.5t-8.5 -41.5
t-20 -50.5t-36.5 -49t-59.5 -37.5t-87 -15q-52 0 -90 18t-68.5 39.5t-59 39t-60.5 17.5q-43 0 -62.5 -25t-24.5 -67q-1 -6 -5 -10t-11.5 -6.5t-19.5 -4t-28 -1.5q-33 0 -44.5 5.5t-11.5 19.5q0 11 3 32t11.5 44.5t23.5 48t39 45t58 33t81 12.5q51 0 88.5 -18t68.5 -39
l59 -39t60 -18q36 0 59 20.5t28 71.5zM-211 1294z" />
    <glyph glyph-name="Idieresis" unicode="&#xcf;" horiz-adv-x="516" 
d="M256 25q-1 -7 -6.5 -13t-16.5 -9.5t-28 -6t-41 -2.5q-26 0 -42 2.5t-25 6t-12 9.5t-1 13l248 1244q1 7 7.5 13t17.5 9.5t27.5 6t40.5 2.5t40 -2.5t25.5 -6t12.5 -9.5t1 -13zM774 1527q-5 -28 -12.5 -46t-21 -29.5t-33 -16t-46.5 -4.5q-28 0 -45.5 4.5t-27 16t-11 29.5
t2.5 46q5 28 12 46.5t20.5 30t32.5 16t47 4.5t45.5 -4.5t27 -16t12 -30t-2.5 -46.5zM361 1527q-4 -28 -12 -46t-21.5 -29.5t-33 -16t-47.5 -4.5t-45.5 4.5t-26.5 16t-10.5 29.5t3.5 46q4 28 11.5 46.5t20 30t32 16t48.5 4.5q27 0 44.5 -4.5t27 -16t11.5 -30t-2 -46.5z
M-178 1294z" />
    <glyph glyph-name="Imacron" unicode="&#x12a;" horiz-adv-x="516" 
d="M256 25q-1 -7 -6.5 -13t-16.5 -9.5t-28 -6t-41 -2.5q-26 0 -42 2.5t-25 6t-12 9.5t-1 13l248 1244q1 7 7.5 13t17.5 9.5t27.5 6t40.5 2.5t40 -2.5t25.5 -6t12.5 -9.5t1 -13zM778 1560q0 -7 -1 -17.5t-4 -22t-7 -23t-9.5 -20t-12 -14.5t-14.5 -6h-546q-12 0 -18 7.5
t-6 24.5q0 6 1 16t3 21t6.5 22.5t10 20.5t13 15t17.5 6h545q12 0 17 -8.5t5 -21.5zM-180 1294z" />
    <glyph glyph-name="Ibreve" unicode="&#x12c;" horiz-adv-x="516" 
d="M256 25q-1 -7 -6.5 -13t-16.5 -9.5t-28 -6t-41 -2.5q-26 0 -42 2.5t-25 6t-12 9.5t-1 13l248 1244q1 7 7.5 13t17.5 9.5t27.5 6t40.5 2.5t40 -2.5t25.5 -6t12.5 -9.5t1 -13zM758 1670q0 -11 -5 -36t-18 -55.5t-34.5 -62.5t-55.5 -59t-82 -44.5t-112 -17.5
q-66 0 -109 15.5t-69 41.5t-37 60.5t-11 72.5q0 10 1.5 24.5t3.5 28.5t5.5 25.5t7.5 15.5q7 7 22 10t34 3q17 0 28.5 -1.5t18 -4.5t9 -7.5t2.5 -10.5q0 -10 -1.5 -23t-1.5 -27q0 -23 5 -42t17 -32.5t32.5 -20.5t52.5 -7q29 0 56 8t49.5 25t39.5 45t28 69q2 7 6.5 12.5
t12.5 9t20 5.5t30 2t28.5 -1.5t16.5 -4t8 -7t2 -9.5zM-137 1294z" />
    <glyph glyph-name="Idotaccent" unicode="&#x130;" horiz-adv-x="516" 
d="M256 25q-1 -7 -6.5 -13t-16.5 -9.5t-28 -6t-41 -2.5q-26 0 -42 2.5t-25 6t-12 9.5t-1 13l248 1244q1 7 7.5 13t17.5 9.5t27.5 6t40.5 2.5t40 -2.5t25.5 -6t12.5 -9.5t1 -13zM371 1528q5 26 13.5 44.5t23 30t34.5 17t48 5.5t46 -5.5t27 -17t10 -30t-4 -44.5t-14 -44.5
t-22.5 -30.5t-34 -17t-47.5 -5q-29 0 -46.5 5t-26.5 17t-10.5 30.5t3.5 44.5zM27 1294z" />
    <glyph glyph-name="Iogonek" unicode="&#x12e;" horiz-adv-x="516" 
d="M264 -261q0 -8 -2 -19.5t-4.5 -22t-6 -19t-7.5 -12.5q-5 -5 -21 -10.5t-37.5 -10t-47.5 -7.5t-51 -3q-49 0 -84 9.5t-58 26t-33.5 41t-10.5 53.5q0 21 5 41t17.5 41.5t33.5 44t51 48.5l76 63q-3 3 -2.5 8.5t2.5 12.5l248 1245q1 7 7.5 13t17.5 10t28 6t40 2q25 0 41 -2
t25 -6t12 -10t2 -13l-249 -1245q-4 -16 -11 -30.5t-20 -25.5l-92 -77q-37 -30 -51 -51.5t-14 -39.5t14 -29.5t47 -11.5h113q12 0 17 -5t5 -15z" />
    <glyph glyph-name="IJ" unicode="&#x132;" horiz-adv-x="1170" 
d="M256 25q-1 -7 -6.5 -13t-16.5 -9.5t-28 -6t-41 -2.5q-26 0 -42 2.5t-25 6t-12 9.5t-1 13l248 1244q1 7 7.5 13t17.5 9.5t27.5 6t40.5 2.5t40 -2.5t25.5 -6t12.5 -9.5t1 -13zM971 312q-14 -71 -39 -131.5t-65 -104.5t-96.5 -69t-134.5 -25q-47 0 -86 7.5t-65.5 20t-33 23
t-6.5 24.5q0 7 1.5 19t4 25t7 27t9.5 25t11 18.5t13 7.5q11 0 22 -7.5t26.5 -16t37.5 -16t54 -7.5q38 0 65 10t46.5 33.5t33.5 60.5t25 92l188 941q1 7 7 13t17 10t27.5 6t41.5 2q23 0 39 -2t25 -5.5t13 -9.5t3 -14z" />
    <glyph glyph-name="J" unicode="J" horiz-adv-x="653" 
d="M454 312q-14 -71 -39 -131.5t-65 -104.5t-96.5 -69t-134.5 -25q-47 0 -86 7.5t-65.5 20t-33 23t-6.5 24.5q0 7 1.5 19t4 25t7 27t9.5 25t11 18.5t13 7.5q11 0 22 -7.5t26.5 -16t37.5 -16t54 -7.5q38 0 65 10t46.5 33.5t33.5 60.5t25 92l188 941q1 7 7 13t17 10t27.5 6
t41.5 2q23 0 39 -2t25 -5.5t13 -9.5t3 -14z" />
    <glyph glyph-name="Jcircumflex" unicode="&#x134;" horiz-adv-x="653" 
d="M454 312q-14 -71 -39 -131.5t-65 -104.5t-96.5 -69t-134.5 -25q-47 0 -86 7.5t-65.5 20t-33 23t-6.5 24.5q0 7 1.5 19t4 25t7 27t9.5 25t11 18.5t13 7.5q11 0 22 -7.5t26.5 -16t37.5 -16t54 -7.5q38 0 65 10t46.5 33.5t33.5 60.5t25 92l188 941q1 7 7 13t17 10t27.5 6
t41.5 2q23 0 39 -2t25 -5.5t13 -9.5t3 -14zM877 1433q7 -10 6.5 -17.5t-7.5 -12t-21 -6.5t-36 -2q-30 0 -47 1.5t-27 4t-15 7t-9 9.5l-118 173l-193 -168q-10 -8 -19.5 -14t-23 -8.5t-32.5 -3.5t-46 -1q-25 0 -38.5 2.5t-18 7t-0.5 11.5t16 17l269 227q9 9 18.5 14.5t21 9
t26.5 4.5t36 1t34.5 -1t23 -4.5t16.5 -9t14 -14.5zM-91 1294z" />
    <glyph glyph-name="K" unicode="K" horiz-adv-x="1064" 
d="M1151 1267q0 -13 -10.5 -28t-32.5 -36l-537 -524l339 -603q9 -17 12.5 -27.5t3.5 -18.5q0 -9 -4 -16t-13.5 -11t-27 -6.5t-44.5 -2.5q-28 0 -45.5 2t-28 5.5t-16 10t-9.5 15.5l-354 646l-128 -647q-1 -8 -6.5 -14t-16.5 -9.5t-28 -6t-41 -2.5q-25 0 -41.5 2.5t-25.5 6
t-12 9.5t-1 14l248 1243q1 7 7 13t17 9.5t28 6t41 2.5t40.5 -2.5t25.5 -6t12 -9.5t2 -13l-115 -576l566 574q8 9 17.5 15.5t22 10t30.5 5.5t42 2q26 0 42 -2.5t25 -6.5t12.5 -10t3.5 -14z" />
    <glyph glyph-name="Kcommaaccent" unicode="&#x136;" horiz-adv-x="1064" 
d="M1151 1267q0 -13 -10.5 -28t-32.5 -36l-537 -524l339 -603q9 -17 12.5 -27.5t3.5 -18.5q0 -9 -4 -16t-13.5 -11t-27 -6.5t-44.5 -2.5q-28 0 -45.5 2t-28 5.5t-16 10t-9.5 15.5l-354 646l-128 -647q-1 -8 -6.5 -14t-16.5 -9.5t-28 -6t-41 -2.5q-25 0 -41.5 2.5t-25.5 6
t-12 9.5t-1 14l248 1243q1 7 7 13t17 9.5t28 6t41 2.5t40.5 -2.5t25.5 -6t12 -9.5t2 -13l-115 -576l566 574q8 9 17.5 15.5t22 10t30.5 5.5t42 2q26 0 42 -2.5t25 -6.5t12.5 -10t3.5 -14zM392 -334q-7 -10 -13.5 -16t-16.5 -9t-24 -4.5t-35 -1.5q-20 0 -31 2.5t-15 7.5
t-2 13t7 19l98 202q5 11 12 18.5t19 11.5t29.5 6t44.5 2q26 0 40.5 -3.5t20 -10t3.5 -15t-9 -19.5z" />
    <glyph glyph-name="L" unicode="L" horiz-adv-x="861" 
d="M769 115q0 -5 -1.5 -16t-4 -24t-6 -26t-9.5 -24t-14 -18t-18 -7h-573q-12 0 -22.5 3.5t-18.5 12t-11 22t2 32.5l239 1199q1 7 7 13t17 9.5t28 6t41 2.5t40.5 -2.5t25.5 -6t12 -9.5t1 -13l-223 -1120h464q13 0 18.5 -9t5.5 -25z" />
    <glyph glyph-name="Lacute" unicode="&#x139;" horiz-adv-x="861" 
d="M769 115q0 -5 -1.5 -16t-4 -24t-6 -26t-9.5 -24t-14 -18t-18 -7h-573q-12 0 -22.5 3.5t-18.5 12t-11 22t2 32.5l239 1199q1 7 7 13t17 9.5t28 6t41 2.5t40.5 -2.5t25.5 -6t12 -9.5t1 -13l-223 -1120h464q13 0 18.5 -9t5.5 -25zM622 1426q-11 -9 -20 -15t-20 -9.5
t-25.5 -5t-34.5 -1.5q-46 0 -55 10.5t11 32.5l197 213q11 12 22.5 19.5t25 11.5t31 5.5t42.5 1.5q30 0 47 -4.5t24 -11.5t3.5 -16t-13.5 -19zM122 1294z" />
    <glyph glyph-name="Lcaron" unicode="&#x13d;" horiz-adv-x="866" 
d="M769 115q0 -5 -1.5 -16t-4 -24t-6 -26t-9.5 -24t-14 -18t-18 -7h-573q-12 0 -22.5 3.5t-18.5 12t-11 22t2 32.5l239 1199q1 7 7 13t17 9.5t28 6t41 2.5t40.5 -2.5t25.5 -6t12 -9.5t1 -13l-223 -1120h464q13 0 18.5 -9t5.5 -25zM748 1002q-4 -7 -9.5 -11.5t-14.5 -7
t-22.5 -3.5t-34.5 -1q-14 0 -22.5 2t-12.5 6t-4.5 9.5t2.5 13.5l128 305q4 10 10.5 17t17.5 11t27 6t40 2q22 0 35.5 -2t19 -6.5t4.5 -11.5t-5 -17zM374 951z" />
    <glyph glyph-name="Lcommaaccent" unicode="&#x13b;" horiz-adv-x="861" 
d="M769 115q0 -5 -1.5 -16t-4 -24t-6 -26t-9.5 -24t-14 -18t-18 -7h-573q-12 0 -22.5 3.5t-18.5 12t-11 22t2 32.5l239 1199q1 7 7 13t17 9.5t28 6t41 2.5t40.5 -2.5t25.5 -6t12 -9.5t1 -13l-223 -1120h464q13 0 18.5 -9t5.5 -25zM338 -334q-7 -10 -13.5 -16t-16.5 -9
t-24 -4.5t-35 -1.5q-20 0 -31 2.5t-15 7.5t-2 13t7 19l98 202q5 11 12 18.5t19 11.5t29.5 6t44.5 2q26 0 40.5 -3.5t20 -10t3.5 -15t-9 -19.5z" />
    <glyph glyph-name="Lslash" unicode="&#x141;" horiz-adv-x="880" 
d="M788 115q0 -5 -1.5 -15.5t-4 -24t-6 -26.5t-9.5 -24t-14.5 -18t-18.5 -7h-574q-27 0 -42 17t-7 53l95 473l-137 -78q-19 -11 -26.5 -4t-7.5 27q0 6 1 16.5t3.5 23t6 25t8.5 23.5t11 20t14 13l158 88l114 572q1 7 7 13t16.5 10t27.5 6t42 2t41 -2t25 -6t12 -10t1 -13
l-93 -464l250 139q18 10 25 3t7 -24q0 -6 -1 -16t-3 -22t-5.5 -25t-8 -24.5t-10.5 -21t-13 -13.5l-272 -150l-100 -502h466q12 0 17.5 -10t5.5 -24z" />
    <glyph glyph-name="Ldot" unicode="&#x13f;" horiz-adv-x="1118" 
d="M769 115q0 -5 -1.5 -16t-4 -24t-6 -26t-9.5 -24t-14 -18t-18 -7h-573q-12 0 -22.5 3.5t-18.5 12t-11 22t2 32.5l239 1199q1 7 7 13t17 9.5t28 6t41 2.5t40.5 -2.5t25.5 -6t12 -9.5t1 -13l-223 -1120h464q13 0 18.5 -9t5.5 -25zM1035 718q0 -17 -3.5 -36.5t-9 -39
t-13.5 -36.5t-19 -27q-16 -17 -41 -22t-51 -5t-43.5 4t-28.5 13t-15 21t-4 29t3.5 36.5t9 39t13.5 36t17 24.5q13 13 34 21t60 8q29 0 47 -5t27.5 -13.5t13 -20.5t3.5 -27z" />
    <glyph glyph-name="M" unicode="M" horiz-adv-x="1751" 
d="M1491 25q-2 -7 -7 -13t-15 -9.5t-26.5 -6t-41.5 -2.5q-24 0 -40 2.5t-25 6t-11.5 9.5t-0.5 13l225 1127h-2l-689 -1131q-8 -14 -29 -20.5t-61 -6.5q-41 0 -58 7.5t-18 19.5l-215 1132h-2l-225 -1128q-2 -7 -7 -13t-15 -9.5t-26.5 -6t-41.5 -2.5q-24 0 -40 2.5t-24.5 6
t-11 9.5t-0.5 13l237 1191q4 20 13 35t21 24.5t25.5 14t27.5 4.5h100q32 0 53.5 -6.5t36 -19.5t22.5 -33t12 -48l187 -935h5l578 935q15 27 30 46.5t33.5 33t41 20.5t50.5 7h114q15 0 27 -4.5t20.5 -14t11 -24t-1.5 -35.5z" />
    <glyph glyph-name="N" unicode="N" horiz-adv-x="1320" 
d="M1068 71q-3 -20 -12 -34t-20.5 -23t-24.5 -13t-26 -4h-65q-26 0 -44 6t-31.5 20.5t-24 38t-22.5 58.5l-243 690l-49.5 147.5l-47.5 147.5h-2q-13 -82 -28 -163l-31 -162l-150 -754q-2 -8 -7.5 -14t-16 -9.5t-27 -6t-39.5 -2.5t-38.5 2.5t-23.5 6t-10.5 9.5t-0.5 14
l238 1194q8 40 33.5 57t51.5 17h79q24 0 42 -5t31 -18t23 -33.5t22 -52.5l245 -699l45.5 -130l44.5 -131h2q14 82 30.5 170l32.5 170l141 701q2 8 7 13.5t15 9.5t25.5 6t39.5 2q23 0 38.5 -2t24 -6t11.5 -9.5t2 -13.5z" />
    <glyph glyph-name="Nacute" unicode="&#x143;" horiz-adv-x="1320" 
d="M1068 71q-3 -20 -12 -34t-20.5 -23t-24.5 -13t-26 -4h-65q-26 0 -44 6t-31.5 20.5t-24 38t-22.5 58.5l-243 690l-49.5 147.5l-47.5 147.5h-2q-13 -82 -28 -163l-31 -162l-150 -754q-2 -8 -7.5 -14t-16 -9.5t-27 -6t-39.5 -2.5t-38.5 2.5t-23.5 6t-10.5 9.5t-0.5 14
l238 1194q8 40 33.5 57t51.5 17h79q24 0 42 -5t31 -18t23 -33.5t22 -52.5l245 -699l45.5 -130l44.5 -131h2q14 82 30.5 170l32.5 170l141 701q2 8 7 13.5t15 9.5t25.5 6t39.5 2q23 0 38.5 -2t24 -6t11.5 -9.5t2 -13.5zM946 1426q-11 -9 -20 -15t-20 -9.5t-25.5 -5
t-34.5 -1.5q-46 0 -55 10.5t11 32.5l197 213q11 12 22.5 19.5t25 11.5t31 5.5t42.5 1.5q30 0 47 -4.5t24 -11.5t3.5 -16t-13.5 -19zM446 1294z" />
    <glyph glyph-name="Ncaron" unicode="&#x147;" horiz-adv-x="1320" 
d="M1068 71q-3 -20 -12 -34t-20.5 -23t-24.5 -13t-26 -4h-65q-26 0 -44 6t-31.5 20.5t-24 38t-22.5 58.5l-243 690l-49.5 147.5l-47.5 147.5h-2q-13 -82 -28 -163l-31 -162l-150 -754q-2 -8 -7.5 -14t-16 -9.5t-27 -6t-39.5 -2.5t-38.5 2.5t-23.5 6t-10.5 9.5t-0.5 14
l238 1194q8 40 33.5 57t51.5 17h79q24 0 42 -5t31 -18t23 -33.5t22 -52.5l245 -699l45.5 -130l44.5 -131h2q14 82 30.5 170l32.5 170l141 701q2 8 7 13.5t15 9.5t25.5 6t39.5 2q23 0 38.5 -2t24 -6t11.5 -9.5t2 -13.5zM951 1424q-9 -9 -18.5 -14.5t-21.5 -8.5t-27 -4.5
t-36 -1.5t-34.5 1t-23 4t-16.5 9t-14 15l-169 227q-7 10 -7.5 17.5t6.5 12t21.5 6.5t36.5 2q30 0 47 -1.5t26 -4t13.5 -7.5t9.5 -10l120 -172l193 168q9 8 18.5 13.5t23 8.5t33 4t46.5 1q24 0 38 -2.5t18.5 -7t1 -12t-14.5 -16.5zM211 1294z" />
    <glyph glyph-name="Ntilde" unicode="&#xd1;" horiz-adv-x="1320" 
d="M1068 71q-3 -20 -12 -34t-20.5 -23t-24.5 -13t-26 -4h-65q-26 0 -44 6t-31.5 20.5t-24 38t-22.5 58.5l-243 690l-49.5 147.5l-47.5 147.5h-2q-13 -82 -28 -163l-31 -162l-150 -754q-2 -8 -7.5 -14t-16 -9.5t-27 -6t-39.5 -2.5t-38.5 2.5t-23.5 6t-10.5 9.5t-0.5 14
l238 1194q8 40 33.5 57t51.5 17h79q24 0 42 -5t31 -18t23 -33.5t22 -52.5l245 -699l45.5 -130l44.5 -131h2q14 82 30.5 170l32.5 170l141 701q2 8 7 13.5t15 9.5t25.5 6t39.5 2q23 0 38.5 -2t24 -6t11.5 -9.5t2 -13.5zM1095 1614q1 7 5 11t12 6.5t20 3.5t28 1q34 0 44 -6.5
t10 -18.5q0 -4 -1.5 -21.5t-8.5 -41.5t-20 -50.5t-36.5 -49t-59.5 -37.5t-87 -15q-52 0 -90 18t-68.5 39.5t-59 39t-60.5 17.5q-43 0 -62.5 -25t-24.5 -67q-1 -6 -5 -10t-11.5 -6.5t-19.5 -4t-28 -1.5q-33 0 -44.5 5.5t-11.5 19.5q0 11 3 32t11.5 44.5t23.5 48t39 45t58 33
t81 12.5q51 0 88.5 -18t68.5 -39l59 -39t60 -18q36 0 59 20.5t28 71.5zM189 1294z" />
    <glyph glyph-name="Ncommaaccent" unicode="&#x145;" horiz-adv-x="1320" 
d="M1068 71q-3 -20 -12 -34t-20.5 -23t-24.5 -13t-26 -4h-65q-26 0 -44 6t-31.5 20.5t-24 38t-22.5 58.5l-243 690l-49.5 147.5l-47.5 147.5h-2q-13 -82 -28 -163l-31 -162l-150 -754q-2 -8 -7.5 -14t-16 -9.5t-27 -6t-39.5 -2.5t-38.5 2.5t-23.5 6t-10.5 9.5t-0.5 14
l238 1194q8 40 33.5 57t51.5 17h79q24 0 42 -5t31 -18t23 -33.5t22 -52.5l245 -699l45.5 -130l44.5 -131h2q14 82 30.5 170l32.5 170l141 701q2 8 7 13.5t15 9.5t25.5 6t39.5 2q23 0 38.5 -2t24 -6t11.5 -9.5t2 -13.5zM469 -334q-7 -10 -13.5 -16t-16.5 -9t-24 -4.5
t-35 -1.5q-20 0 -31 2.5t-15 7.5t-2 13t7 19l98 202q5 11 12 18.5t19 11.5t29.5 6t44.5 2q26 0 40.5 -3.5t20 -10t3.5 -15t-9 -19.5z" />
    <glyph glyph-name="Eng" unicode="&#x14a;" horiz-adv-x="1284" 
d="M1011 -30q-16 -79 -41 -141t-64 -105.5t-94.5 -66t-132.5 -22.5q-50 0 -88.5 7.5t-51.5 20.5q-5 4 -6.5 10t-1.5 13q0 6 1 16.5t3 22t6 23.5t8.5 22t10.5 16t14 6q9 0 16 -3l17 -7t26.5 -6.5t44.5 -2.5q33 0 58 9t44 30.5t33.5 56.5t26.5 86l10 45l-298 810
q-26 67 -49 136l-46 139h-2q-17 -100 -37 -203l-40 -200l-130 -657q-2 -8 -7 -13.5t-15 -9.5t-26.5 -6t-39.5 -2q-24 0 -39.5 2t-24.5 6t-11.5 9.5t-0.5 13.5l238 1195q9 40 33 57t50 17h79q21 0 35.5 -4.5t26 -14t19.5 -25t17 -37.5l212 -574l62 -172.5l59 -175.5h2
q7 45 16 94l18.5 98l19 98.5l18.5 95.5l118 588q2 8 6.5 14t14 10t25.5 6t40 2q22 0 38 -2t25 -6t12.5 -10t2.5 -14z" />
    <glyph glyph-name="O" unicode="O" horiz-adv-x="1340" 
d="M1298 860q0 -77 -14 -172t-47 -193t-87.5 -190.5t-134.5 -164t-190 -115.5t-252 -44q-114 0 -200 28.5t-143.5 85t-86.5 139.5t-29 192q0 86 15 185t49.5 197.5t90 189.5t136 161.5t188.5 112t248 41.5q113 0 198.5 -29.5t143 -87t86.5 -142t29 -194.5zM1114 848
q0 70 -16 128.5t-51 100.5t-93 65.5t-140 23.5q-104 0 -182.5 -38.5t-136 -100.5t-95 -140.5t-60 -158.5t-32 -155t-9.5 -130q0 -71 15.5 -128.5t51.5 -98.5t93.5 -63.5t140.5 -22.5q103 0 181 37.5t135 98.5t95 138.5t61 157t32.5 154.5t9.5 132z" />
    <glyph glyph-name="Ograve" unicode="&#xd2;" horiz-adv-x="1340" 
d="M1298 860q0 -77 -14 -172t-47 -193t-87.5 -190.5t-134.5 -164t-190 -115.5t-252 -44q-114 0 -200 28.5t-143.5 85t-86.5 139.5t-29 192q0 86 15 185t49.5 197.5t90 189.5t136 161.5t188.5 112t248 41.5q113 0 198.5 -29.5t143 -87t86.5 -142t29 -194.5zM1114 848
q0 70 -16 128.5t-51 100.5t-93 65.5t-140 23.5q-104 0 -182.5 -38.5t-136 -100.5t-95 -140.5t-60 -158.5t-32 -155t-9.5 -130q0 -71 15.5 -128.5t51.5 -98.5t93.5 -63.5t140.5 -22.5q103 0 181 37.5t135 98.5t95 138.5t61 157t32.5 154.5t9.5 132zM912 1438q9 -11 11.5 -19
t-3.5 -13.5t-19.5 -8t-35.5 -2.5q-21 0 -35 1.5t-24.5 5t-19.5 9t-19 15.5l-217 212q-10 10 -12 19t5 16t25 11.5t48 4.5q25 0 42 -1t31 -5t24 -11.5t20 -20.5zM185 1294z" />
    <glyph glyph-name="Oacute" unicode="&#xd3;" horiz-adv-x="1340" 
d="M1298 860q0 -77 -14 -172t-47 -193t-87.5 -190.5t-134.5 -164t-190 -115.5t-252 -44q-114 0 -200 28.5t-143.5 85t-86.5 139.5t-29 192q0 86 15 185t49.5 197.5t90 189.5t136 161.5t188.5 112t248 41.5q113 0 198.5 -29.5t143 -87t86.5 -142t29 -194.5zM1114 848
q0 70 -16 128.5t-51 100.5t-93 65.5t-140 23.5q-104 0 -182.5 -38.5t-136 -100.5t-95 -140.5t-60 -158.5t-32 -155t-9.5 -130q0 -71 15.5 -128.5t51.5 -98.5t93.5 -63.5t140.5 -22.5q103 0 181 37.5t135 98.5t95 138.5t61 157t32.5 154.5t9.5 132zM906 1426q-11 -9 -20 -15
t-20 -9.5t-25.5 -5t-34.5 -1.5q-46 0 -55 10.5t11 32.5l197 213q11 12 22.5 19.5t25 11.5t31 5.5t42.5 1.5q30 0 47 -4.5t24 -11.5t3.5 -16t-13.5 -19zM406 1294z" />
    <glyph glyph-name="Ocircumflex" unicode="&#xd4;" horiz-adv-x="1340" 
d="M1298 860q0 -77 -14 -172t-47 -193t-87.5 -190.5t-134.5 -164t-190 -115.5t-252 -44q-114 0 -200 28.5t-143.5 85t-86.5 139.5t-29 192q0 86 15 185t49.5 197.5t90 189.5t136 161.5t188.5 112t248 41.5q113 0 198.5 -29.5t143 -87t86.5 -142t29 -194.5zM1114 848
q0 70 -16 128.5t-51 100.5t-93 65.5t-140 23.5q-104 0 -182.5 -38.5t-136 -100.5t-95 -140.5t-60 -158.5t-32 -155t-9.5 -130q0 -71 15.5 -128.5t51.5 -98.5t93.5 -63.5t140.5 -22.5q103 0 181 37.5t135 98.5t95 138.5t61 157t32.5 154.5t9.5 132zM1178 1433
q7 -10 6.5 -17.5t-7.5 -12t-21 -6.5t-36 -2q-30 0 -47 1.5t-27 4t-15 7t-9 9.5l-118 173l-193 -168q-10 -8 -19.5 -14t-23 -8.5t-32.5 -3.5t-46 -1q-25 0 -38.5 2.5t-18 7t-0.5 11.5t16 17l269 227q9 9 18.5 14.5t21 9t26.5 4.5t36 1t34.5 -1t23 -4.5t16.5 -9t14 -14.5z
M210 1294z" />
    <glyph glyph-name="Otilde" unicode="&#xd5;" horiz-adv-x="1340" 
d="M1298 860q0 -77 -14 -172t-47 -193t-87.5 -190.5t-134.5 -164t-190 -115.5t-252 -44q-114 0 -200 28.5t-143.5 85t-86.5 139.5t-29 192q0 86 15 185t49.5 197.5t90 189.5t136 161.5t188.5 112t248 41.5q113 0 198.5 -29.5t143 -87t86.5 -142t29 -194.5zM1114 848
q0 70 -16 128.5t-51 100.5t-93 65.5t-140 23.5q-104 0 -182.5 -38.5t-136 -100.5t-95 -140.5t-60 -158.5t-32 -155t-9.5 -130q0 -71 15.5 -128.5t51.5 -98.5t93.5 -63.5t140.5 -22.5q103 0 181 37.5t135 98.5t95 138.5t61 157t32.5 154.5t9.5 132zM1109 1614q1 7 5 11
t12 6.5t20 3.5t28 1q34 0 44 -6.5t10 -18.5q0 -4 -1.5 -21.5t-8.5 -41.5t-20 -50.5t-36.5 -49t-59.5 -37.5t-87 -15q-52 0 -90 18t-68.5 39.5t-59 39t-60.5 17.5q-43 0 -62.5 -25t-24.5 -67q-1 -6 -5 -10t-11.5 -6.5t-19.5 -4t-28 -1.5q-33 0 -44.5 5.5t-11.5 19.5
q0 11 3 32t11.5 44.5t23.5 48t39 45t58 33t81 12.5q51 0 88.5 -18t68.5 -39l59 -39t60 -18q36 0 59 20.5t28 71.5zM203 1294z" />
    <glyph glyph-name="Odieresis" unicode="&#xd6;" horiz-adv-x="1340" 
d="M1298 860q0 -77 -14 -172t-47 -193t-87.5 -190.5t-134.5 -164t-190 -115.5t-252 -44q-114 0 -200 28.5t-143.5 85t-86.5 139.5t-29 192q0 86 15 185t49.5 197.5t90 189.5t136 161.5t188.5 112t248 41.5q113 0 198.5 -29.5t143 -87t86.5 -142t29 -194.5zM1114 848
q0 70 -16 128.5t-51 100.5t-93 65.5t-140 23.5q-104 0 -182.5 -38.5t-136 -100.5t-95 -140.5t-60 -158.5t-32 -155t-9.5 -130q0 -71 15.5 -128.5t51.5 -98.5t93.5 -63.5t140.5 -22.5q103 0 181 37.5t135 98.5t95 138.5t61 157t32.5 154.5t9.5 132zM1195 1527
q-5 -28 -12.5 -46t-21 -29.5t-33 -16t-46.5 -4.5q-28 0 -45.5 4.5t-27 16t-11 29.5t2.5 46q5 28 12 46.5t20.5 30t32.5 16t47 4.5t45.5 -4.5t27 -16t12 -30t-2.5 -46.5zM782 1527q-4 -28 -12 -46t-21.5 -29.5t-33 -16t-47.5 -4.5t-45.5 4.5t-26.5 16t-10.5 29.5t3.5 46
q4 28 11.5 46.5t20 30t32 16t48.5 4.5q27 0 44.5 -4.5t27 -16t11.5 -30t-2 -46.5zM243 1294z" />
    <glyph glyph-name="Omacron" unicode="&#x14c;" horiz-adv-x="1340" 
d="M1298 860q0 -77 -14 -172t-47 -193t-87.5 -190.5t-134.5 -164t-190 -115.5t-252 -44q-114 0 -200 28.5t-143.5 85t-86.5 139.5t-29 192q0 86 15 185t49.5 197.5t90 189.5t136 161.5t188.5 112t248 41.5q113 0 198.5 -29.5t143 -87t86.5 -142t29 -194.5zM1114 848
q0 70 -16 128.5t-51 100.5t-93 65.5t-140 23.5q-104 0 -182.5 -38.5t-136 -100.5t-95 -140.5t-60 -158.5t-32 -155t-9.5 -130q0 -71 15.5 -128.5t51.5 -98.5t93.5 -63.5t140.5 -22.5q103 0 181 37.5t135 98.5t95 138.5t61 157t32.5 154.5t9.5 132zM1202 1560q0 -7 -1 -17.5
t-4 -22t-7 -23t-9.5 -20t-12 -14.5t-14.5 -6h-546q-12 0 -18 7.5t-6 24.5q0 6 1 16t3 21t6.5 22.5t10 20.5t13 15t17.5 6h545q12 0 17 -8.5t5 -21.5zM244 1294z" />
    <glyph glyph-name="Obreve" unicode="&#x14e;" horiz-adv-x="1340" 
d="M1298 860q0 -77 -14 -172t-47 -193t-87.5 -190.5t-134.5 -164t-190 -115.5t-252 -44q-114 0 -200 28.5t-143.5 85t-86.5 139.5t-29 192q0 86 15 185t49.5 197.5t90 189.5t136 161.5t188.5 112t248 41.5q113 0 198.5 -29.5t143 -87t86.5 -142t29 -194.5zM1114 848
q0 70 -16 128.5t-51 100.5t-93 65.5t-140 23.5q-104 0 -182.5 -38.5t-136 -100.5t-95 -140.5t-60 -158.5t-32 -155t-9.5 -130q0 -71 15.5 -128.5t51.5 -98.5t93.5 -63.5t140.5 -22.5q103 0 181 37.5t135 98.5t95 138.5t61 157t32.5 154.5t9.5 132zM1181 1670q0 -11 -5 -36
t-18 -55.5t-34.5 -62.5t-55.5 -59t-82 -44.5t-112 -17.5q-66 0 -109 15.5t-69 41.5t-37 60.5t-11 72.5q0 10 1.5 24.5t3.5 28.5t5.5 25.5t7.5 15.5q7 7 22 10t34 3q17 0 28.5 -1.5t18 -4.5t9 -7.5t2.5 -10.5q0 -10 -1.5 -23t-1.5 -27q0 -23 5 -42t17 -32.5t32.5 -20.5
t52.5 -7q29 0 56 8t49.5 25t39.5 45t28 69q2 7 6.5 12.5t12.5 9t20 5.5t30 2t28.5 -1.5t16.5 -4t8 -7t2 -9.5zM286 1294z" />
    <glyph glyph-name="Ohungarumlaut" unicode="&#x150;" horiz-adv-x="1340" 
d="M1298 860q0 -77 -14 -172t-47 -193t-87.5 -190.5t-134.5 -164t-190 -115.5t-252 -44q-114 0 -200 28.5t-143.5 85t-86.5 139.5t-29 192q0 86 15 185t49.5 197.5t90 189.5t136 161.5t188.5 112t248 41.5q113 0 198.5 -29.5t143 -87t86.5 -142t29 -194.5zM1114 848
q0 70 -16 128.5t-51 100.5t-93 65.5t-140 23.5q-104 0 -182.5 -38.5t-136 -100.5t-95 -140.5t-60 -158.5t-32 -155t-9.5 -130q0 -71 15.5 -128.5t51.5 -98.5t93.5 -63.5t140.5 -22.5q103 0 181 37.5t135 98.5t95 138.5t61 157t32.5 154.5t9.5 132zM1132 1417
q-8 -8 -15 -12.5t-17 -6.5t-23.5 -2.5t-33.5 -0.5q-19 0 -32.5 2t-20 6t-7.5 10.5t5 13.5l189 237q7 7 15 12.5t20.5 9t32 5t46.5 1.5q34 0 53.5 -3t28.5 -9.5t7 -13.5t-10 -16zM752 1416q-8 -7 -16 -11.5t-18 -6.5t-24.5 -2.5t-33.5 -0.5q-33 0 -44 9.5t0 24.5l180 234
q7 8 15 13.5t20 9t29 5t42 1.5q38 0 60 -3t31 -8.5t5.5 -14.5t-14.5 -21zM268 1294z" />
    <glyph glyph-name="Oslash" unicode="&#xd8;" horiz-adv-x="1347" 
d="M237 90q-60 56 -91.5 139.5t-31.5 196.5q0 82 14 179t46.5 195.5t87.5 190.5t136 164t191.5 115t255.5 43q61 0 115 -9.5t98 -29.5l154 223q10 15 33.5 20t66.5 5q26 0 40.5 -4t20.5 -11t3.5 -16.5t-10.5 -21.5l-186 -266q62 -56 93 -141t31 -193q0 -82 -14 -179.5
t-47 -196t-88 -190.5t-135.5 -164t-191 -115t-254.5 -43q-64 0 -118 9.5t-96 29.5l-155 -226q-9 -14 -33 -19t-64 -5q-26 0 -42 4t-22 10.5t-4 16t10 21.5zM449 155q30 -14 68.5 -22.5t83.5 -8.5q107 0 188 39.5t139 103.5t96 144t60 161.5t31 155.5t9 126q0 58 -11.5 109
t-40.5 89zM969 1139q-32 15 -70 23t-82 8q-81 0 -146 -23t-117 -62t-91.5 -91t-68.5 -111t-48.5 -121t-31 -120.5t-16 -111t-4.5 -90.5q0 -58 11.5 -109.5t40.5 -88.5z" />
    <glyph glyph-name="Oslashacute" unicode="&#x1fe;" horiz-adv-x="1347" 
d="M237 90q-60 56 -91.5 139.5t-31.5 196.5q0 82 14 179t46.5 195.5t87.5 190.5t136 164t191.5 115t255.5 43q61 0 115 -9.5t98 -29.5l154 223q10 15 33.5 20t66.5 5q26 0 40.5 -4t20.5 -11t3.5 -16.5t-10.5 -21.5l-186 -266q62 -56 93 -141t31 -193q0 -82 -14 -179.5
t-47 -196t-88 -190.5t-135.5 -164t-191 -115t-254.5 -43q-64 0 -118 9.5t-96 29.5l-155 -226q-9 -14 -33 -19t-64 -5q-26 0 -42 4t-22 10.5t-4 16t10 21.5zM449 155q30 -14 68.5 -22.5t83.5 -8.5q107 0 188 39.5t139 103.5t96 144t60 161.5t31 155.5t9 126q0 58 -11.5 109
t-40.5 89zM969 1139q-32 15 -70 23t-82 8q-81 0 -146 -23t-117 -62t-91.5 -91t-68.5 -111t-48.5 -121t-31 -120.5t-16 -111t-4.5 -90.5q0 -58 11.5 -109.5t40.5 -88.5zM836 1426q-11 -9 -20 -15t-20 -9.5t-25.5 -5t-34.5 -1.5q-46 0 -55 10.5t11 32.5l197 213
q11 12 22.5 19.5t25 11.5t31 5.5t42.5 1.5q30 0 47 -4.5t24 -11.5t3.5 -16t-13.5 -19zM336 1294z" />
    <glyph glyph-name="OE" unicode="&#x152;" horiz-adv-x="1775" 
d="M1590 110q0 -5 -0.5 -15.5t-3 -23t-6.5 -25t-9.5 -23t-13 -17t-18.5 -6.5h-615q-9 0 -18 2.5t-16.5 8t-11.5 15t-3 22.5q-65 -33 -139 -50t-159 -17q-96 0 -168.5 18.5t-123.5 51t-84 75.5t-52.5 92t-27 101t-7.5 103q0 91 15.5 192.5t50.5 200.5t91 189.5t137 158.5
t189.5 109t246.5 41q40 0 79 -4.5t73.5 -12.5t66 -19t54.5 -25q11 24 28.5 33t35.5 9h609q14 0 18.5 -9t4.5 -26q0 -6 -1 -16.5t-3.5 -22.5t-6 -24t-9.5 -22.5t-14 -16.5t-18 -6h-506l-81 -407h434q13 0 18.5 -9t5.5 -25q0 -6 -1.5 -16.5t-4 -22.5t-6.5 -24.5t-10 -22.5
t-13.5 -16.5t-17.5 -6.5h-434l-92 -458h514q13 0 18 -9t5 -24zM1071 1083q-49 38 -112.5 60.5t-142.5 22.5q-106 0 -185.5 -39.5t-137.5 -102.5t-95.5 -142t-59.5 -159t-31 -153t-9 -124q0 -79 17.5 -138t55 -98.5t95.5 -59.5t138 -20q37 0 74.5 5.5t74.5 17.5t73.5 29.5
t72.5 42.5z" />
    <glyph glyph-name="P" unicode="P" horiz-adv-x="1058" 
d="M1064 990q0 -53 -12.5 -111t-39.5 -113.5t-68.5 -105t-100.5 -87.5t-135.5 -59.5t-180.5 -21.5h-178l-93 -467q-2 -7 -7 -13t-16.5 -9.5t-28 -6t-41.5 -2.5q-23 0 -39 2t-25.5 5.5t-13 9.5t-1.5 14l238 1195q8 40 33 57t58 17h255q50 0 88.5 -3.5t74.5 -11.5
q54 -12 97.5 -37t73.5 -61.5t46 -84.5t16 -106zM882 972q0 62 -30.5 106.5t-94.5 62.5q-24 7 -53 9t-62 2h-162l-102 -519h163q71 0 120 16t86 42t62.5 61t41.5 72.5t23.5 76t7.5 71.5z" />
    <glyph glyph-name="Thorn" unicode="&#xde;" horiz-adv-x="1058" 
d="M1021 780q0 -62 -14 -123.5t-42 -117.5t-71.5 -104.5t-101.5 -84.5t-132 -56t-175 -20h-180l-50 -252q-3 -8 -8 -13.5t-16 -9.5t-28 -6t-41 -2q-25 0 -41 2t-25 6t-12 9.5t-2 13.5l250 1249q1 7 6.5 13t16 10t27.5 6t41 2q26 0 42 -2t25 -6t12.5 -10t2.5 -13l-39 -195
h159q54 0 91.5 -3.5t72.5 -11.5q63 -14 107.5 -43.5t72 -67.5t40 -82t12.5 -88zM838 748q0 30 -6.5 57.5t-21.5 50.5t-39 40.5t-59 27.5q-25 7 -56.5 9t-69.5 2h-149l-103 -520h164q105 0 167.5 35t100.5 86t55 108.5t17 103.5z" />
    <glyph glyph-name="Q" unicode="Q" horiz-adv-x="1360" 
d="M1289 -74q0 -8 -1.5 -20t-4.5 -25t-7.5 -25.5t-10.5 -22.5t-13 -16t-16 -6q-8 0 -28 6t-47.5 18t-62 31.5t-72 46.5t-75.5 61t-75 76q-62 -34 -136.5 -51.5t-167.5 -17.5q-114 0 -199.5 28.5t-143 85t-86.5 139.5t-29 192q0 86 14.5 185t49 197.5t90 189.5t136 161.5
t188.5 112t248 41.5q113 0 198.5 -29.5t143 -87t86.5 -142t29 -194.5q0 -50 -5.5 -110t-19 -123.5t-35.5 -129.5t-53 -129.5t-73.5 -121.5t-98.5 -109q56 -54 101.5 -86t80 -50t56 -27t28 -15t9 -12.5t2.5 -20.5zM1113 848q0 70 -16 128.5t-51 100.5t-92.5 65.5t-140.5 23.5
q-104 0 -182.5 -38.5t-135.5 -100.5t-95 -140.5t-60.5 -158.5t-32 -155t-9.5 -130q0 -71 15.5 -128.5t51.5 -98.5t94 -63.5t141 -22.5q102 0 180 37.5t135 98.5t95.5 138.5t61 157t32 154.5t9.5 132z" />
    <glyph glyph-name="R" unicode="R" horiz-adv-x="1112" 
d="M1062 1023q0 -69 -19.5 -131t-59 -114t-99 -92.5t-138.5 -65.5q53 -19 86 -80t51 -161l53 -286l5.5 -35.5t2.5 -29.5q0 -9 -5 -15.5t-16 -10.5t-30.5 -6t-47.5 -2q-26 0 -42 2t-24.5 7t-12 12.5t-5.5 20.5l-51 304q-8 53 -22.5 96t-40.5 74.5t-66.5 49t-98.5 17.5h-115
l-111 -552q-2 -7 -7 -13t-16 -9.5t-28 -6t-42 -2.5q-23 0 -39.5 2t-25.5 5.5t-12.5 9.5t-1.5 14l240 1199q8 39 32 54.5t53 15.5h281q92 0 161.5 -18t116.5 -52.5t70.5 -85t23.5 -115.5zM876 996q0 34 -12 63t-37.5 50t-67 32t-98.5 11h-179l-88 -436h152q89 0 151.5 24
t102 63.5t58 89.5t18.5 103z" />
    <glyph glyph-name="Racute" unicode="&#x154;" horiz-adv-x="1112" 
d="M1062 1023q0 -69 -19.5 -131t-59 -114t-99 -92.5t-138.5 -65.5q53 -19 86 -80t51 -161l53 -286l5.5 -35.5t2.5 -29.5q0 -9 -5 -15.5t-16 -10.5t-30.5 -6t-47.5 -2q-26 0 -42 2t-24.5 7t-12 12.5t-5.5 20.5l-51 304q-8 53 -22.5 96t-40.5 74.5t-66.5 49t-98.5 17.5h-115
l-111 -552q-2 -7 -7 -13t-16 -9.5t-28 -6t-42 -2.5q-23 0 -39.5 2t-25.5 5.5t-12.5 9.5t-1.5 14l240 1199q8 39 32 54.5t53 15.5h281q92 0 161.5 -18t116.5 -52.5t70.5 -85t23.5 -115.5zM876 996q0 34 -12 63t-37.5 50t-67 32t-98.5 11h-179l-88 -436h152q89 0 151.5 24
t102 63.5t58 89.5t18.5 103zM770 1426q-11 -9 -20 -15t-20 -9.5t-25.5 -5t-34.5 -1.5q-46 0 -55 10.5t11 32.5l197 213q11 12 22.5 19.5t25 11.5t31 5.5t42.5 1.5q30 0 47 -4.5t24 -11.5t3.5 -16t-13.5 -19zM270 1294z" />
    <glyph glyph-name="Rcaron" unicode="&#x158;" horiz-adv-x="1112" 
d="M1062 1023q0 -69 -19.5 -131t-59 -114t-99 -92.5t-138.5 -65.5q53 -19 86 -80t51 -161l53 -286l5.5 -35.5t2.5 -29.5q0 -9 -5 -15.5t-16 -10.5t-30.5 -6t-47.5 -2q-26 0 -42 2t-24.5 7t-12 12.5t-5.5 20.5l-51 304q-8 53 -22.5 96t-40.5 74.5t-66.5 49t-98.5 17.5h-115
l-111 -552q-2 -7 -7 -13t-16 -9.5t-28 -6t-42 -2.5q-23 0 -39.5 2t-25.5 5.5t-12.5 9.5t-1.5 14l240 1199q8 39 32 54.5t53 15.5h281q92 0 161.5 -18t116.5 -52.5t70.5 -85t23.5 -115.5zM876 996q0 34 -12 63t-37.5 50t-67 32t-98.5 11h-179l-88 -436h152q89 0 151.5 24
t102 63.5t58 89.5t18.5 103zM800 1424q-9 -9 -18.5 -14.5t-21.5 -8.5t-27 -4.5t-36 -1.5t-34.5 1t-23 4t-16.5 9t-14 15l-169 227q-7 10 -7.5 17.5t6.5 12t21.5 6.5t36.5 2q30 0 47 -1.5t26 -4t13.5 -7.5t9.5 -10l120 -172l193 168q9 8 18.5 13.5t23 8.5t33 4t46.5 1
q24 0 38 -2.5t18.5 -7t1 -12t-14.5 -16.5zM60 1294z" />
    <glyph glyph-name="Rcommaaccent" unicode="&#x156;" horiz-adv-x="1112" 
d="M1062 1023q0 -69 -19.5 -131t-59 -114t-99 -92.5t-138.5 -65.5q53 -19 86 -80t51 -161l53 -286l5.5 -35.5t2.5 -29.5q0 -9 -5 -15.5t-16 -10.5t-30.5 -6t-47.5 -2q-26 0 -42 2t-24.5 7t-12 12.5t-5.5 20.5l-51 304q-8 53 -22.5 96t-40.5 74.5t-66.5 49t-98.5 17.5h-115
l-111 -552q-2 -7 -7 -13t-16 -9.5t-28 -6t-42 -2.5q-23 0 -39.5 2t-25.5 5.5t-12.5 9.5t-1.5 14l240 1199q8 39 32 54.5t53 15.5h281q92 0 161.5 -18t116.5 -52.5t70.5 -85t23.5 -115.5zM876 996q0 34 -12 63t-37.5 50t-67 32t-98.5 11h-179l-88 -436h152q89 0 151.5 24
t102 63.5t58 89.5t18.5 103zM406 -334q-7 -10 -13.5 -16t-16.5 -9t-24 -4.5t-35 -1.5q-20 0 -31 2.5t-15 7.5t-2 13t7 19l98 202q5 11 12 18.5t19 11.5t29.5 6t44.5 2q26 0 40.5 -3.5t20 -10t3.5 -15t-9 -19.5z" />
    <glyph glyph-name="S" unicode="S" horiz-adv-x="926" 
d="M921 1196q0 -8 -1 -18.5t-3.5 -22t-6 -24t-8.5 -22t-11.5 -15.5t-14.5 -6q-11 0 -30.5 13t-50 27.5t-72.5 27.5t-97 13q-61 0 -107 -18.5t-77 -50t-46.5 -71.5t-15.5 -83q0 -44 19.5 -77t51 -60t72 -51l82.5 -49t83 -53.5t72.5 -66t51 -86t19.5 -112.5q0 -85 -35 -159.5
t-99.5 -130t-155.5 -88t-203 -32.5q-61 0 -113.5 10.5t-94.5 26t-71 32t-42 29.5t-13 38q0 6 1.5 17t4.5 24t6.5 25.5t9 23t12 17t15.5 6.5q16 0 40 -16t59.5 -34.5t84.5 -34.5t115 -16q70 0 125 19.5t92.5 53t57.5 78.5t20 96q0 45 -19 78.5t-50 60.5t-71.5 50l-82 48
t-81.5 53.5t-71 66t-50.5 86t-19.5 113.5q0 79 31 148t88 121t138 82t181 30q48 0 91.5 -8t78.5 -19.5t60 -25t34 -22.5t13 -18.5t4 -23.5z" />
    <glyph glyph-name="Sacute" unicode="&#x15a;" horiz-adv-x="926" 
d="M921 1196q0 -8 -1 -18.5t-3.5 -22t-6 -24t-8.5 -22t-11.5 -15.5t-14.5 -6q-11 0 -30.5 13t-50 27.5t-72.5 27.5t-97 13q-61 0 -107 -18.5t-77 -50t-46.5 -71.5t-15.5 -83q0 -44 19.5 -77t51 -60t72 -51l82.5 -49t83 -53.5t72.5 -66t51 -86t19.5 -112.5q0 -85 -35 -159.5
t-99.5 -130t-155.5 -88t-203 -32.5q-61 0 -113.5 10.5t-94.5 26t-71 32t-42 29.5t-13 38q0 6 1.5 17t4.5 24t6.5 25.5t9 23t12 17t15.5 6.5q16 0 40 -16t59.5 -34.5t84.5 -34.5t115 -16q70 0 125 19.5t92.5 53t57.5 78.5t20 96q0 45 -19 78.5t-50 60.5t-71.5 50l-82 48
t-81.5 53.5t-71 66t-50.5 86t-19.5 113.5q0 79 31 148t88 121t138 82t181 30q48 0 91.5 -8t78.5 -19.5t60 -25t34 -22.5t13 -18.5t4 -23.5zM710 1426q-11 -9 -20 -15t-20 -9.5t-25.5 -5t-34.5 -1.5q-46 0 -55 10.5t11 32.5l197 213q11 12 22.5 19.5t25 11.5t31 5.5t42.5 1.5
q30 0 47 -4.5t24 -11.5t3.5 -16t-13.5 -19zM210 1294z" />
    <glyph glyph-name="Scircumflex" unicode="&#x15c;" horiz-adv-x="926" 
d="M921 1196q0 -8 -1 -18.5t-3.5 -22t-6 -24t-8.5 -22t-11.5 -15.5t-14.5 -6q-11 0 -30.5 13t-50 27.5t-72.5 27.5t-97 13q-61 0 -107 -18.5t-77 -50t-46.5 -71.5t-15.5 -83q0 -44 19.5 -77t51 -60t72 -51l82.5 -49t83 -53.5t72.5 -66t51 -86t19.5 -112.5q0 -85 -35 -159.5
t-99.5 -130t-155.5 -88t-203 -32.5q-61 0 -113.5 10.5t-94.5 26t-71 32t-42 29.5t-13 38q0 6 1.5 17t4.5 24t6.5 25.5t9 23t12 17t15.5 6.5q16 0 40 -16t59.5 -34.5t84.5 -34.5t115 -16q70 0 125 19.5t92.5 53t57.5 78.5t20 96q0 45 -19 78.5t-50 60.5t-71.5 50l-82 48
t-81.5 53.5t-71 66t-50.5 86t-19.5 113.5q0 79 31 148t88 121t138 82t181 30q48 0 91.5 -8t78.5 -19.5t60 -25t34 -22.5t13 -18.5t4 -23.5zM958 1433q7 -10 6.5 -17.5t-7.5 -12t-21 -6.5t-36 -2q-30 0 -47 1.5t-27 4t-15 7t-9 9.5l-118 173l-193 -168q-10 -8 -19.5 -14
t-23 -8.5t-32.5 -3.5t-46 -1q-25 0 -38.5 2.5t-18 7t-0.5 11.5t16 17l269 227q9 9 18.5 14.5t21 9t26.5 4.5t36 1t34.5 -1t23 -4.5t16.5 -9t14 -14.5zM-10 1294z" />
    <glyph glyph-name="Scaron" unicode="&#x160;" horiz-adv-x="926" 
d="M921 1196q0 -8 -1 -18.5t-3.5 -22t-6 -24t-8.5 -22t-11.5 -15.5t-14.5 -6q-11 0 -30.5 13t-50 27.5t-72.5 27.5t-97 13q-61 0 -107 -18.5t-77 -50t-46.5 -71.5t-15.5 -83q0 -44 19.5 -77t51 -60t72 -51l82.5 -49t83 -53.5t72.5 -66t51 -86t19.5 -112.5q0 -85 -35 -159.5
t-99.5 -130t-155.5 -88t-203 -32.5q-61 0 -113.5 10.5t-94.5 26t-71 32t-42 29.5t-13 38q0 6 1.5 17t4.5 24t6.5 25.5t9 23t12 17t15.5 6.5q16 0 40 -16t59.5 -34.5t84.5 -34.5t115 -16q70 0 125 19.5t92.5 53t57.5 78.5t20 96q0 45 -19 78.5t-50 60.5t-71.5 50l-82 48
t-81.5 53.5t-71 66t-50.5 86t-19.5 113.5q0 79 31 148t88 121t138 82t181 30q48 0 91.5 -8t78.5 -19.5t60 -25t34 -22.5t13 -18.5t4 -23.5zM741 1424q-9 -9 -18.5 -14.5t-21.5 -8.5t-27 -4.5t-36 -1.5t-34.5 1t-23 4t-16.5 9t-14 15l-169 227q-7 10 -7.5 17.5t6.5 12
t21.5 6.5t36.5 2q30 0 47 -1.5t26 -4t13.5 -7.5t9.5 -10l120 -172l193 168q9 8 18.5 13.5t23 8.5t33 4t46.5 1q24 0 38 -2.5t18.5 -7t1 -12t-14.5 -16.5zM1 1294z" />
    <glyph glyph-name="Scedilla" unicode="&#x15e;" horiz-adv-x="926" 
d="M283 -17q-80 9 -137 29t-86.5 37t-42.5 30t-13 38q0 6 1.5 17t4.5 24t6.5 25.5t9 23t12 17t15.5 6.5q16 0 40 -16t59.5 -34.5t84.5 -34.5t115 -16q70 0 125 19.5t92.5 53t57.5 78.5t20 96q0 45 -19 78.5t-50 60.5t-71.5 50l-82 48t-81.5 53.5t-71 66t-50.5 86
t-19.5 113.5q0 79 31 148t88 121t138 82t181 30q48 0 91.5 -8t78.5 -19.5t60 -25t34 -22.5t13 -18.5t4 -23.5q0 -8 -1 -18.5t-3.5 -22t-6 -24t-8.5 -22t-11.5 -15.5t-14.5 -6q-11 0 -30.5 13t-50 27.5t-72.5 27.5t-97 13q-61 0 -107 -18.5t-77 -50t-46.5 -71.5t-15.5 -83
q0 -44 19.5 -77t51 -60t72 -51l82.5 -49t83 -53.5t72.5 -66t51 -86t19.5 -112.5q0 -85 -35 -159t-97 -128.5t-138.5 -83t-138.5 -33.5l15 -61q9 -33 13.5 -56.5t4.5 -44.5q0 -49 -15.5 -85t-44 -59t-69 -34.5t-90.5 -11.5q-26 0 -52 2t-47 6t-36.5 8.5t-22.5 8.5
q-5 3 -7.5 8t-2.5 14q0 10 2 23t7 25t12.5 20.5t20.5 8.5h123q16 0 30.5 3.5t26 11.5t18.5 21.5t7 33.5q0 10 -2 26t-6 32z" />
    <glyph glyph-name="Scommaaccent" unicode="&#x218;" horiz-adv-x="926" 
d="M921 1196q0 -8 -1 -18.5t-3.5 -22t-6 -24t-8.5 -22t-11.5 -15.5t-14.5 -6q-11 0 -30.5 13t-50 27.5t-72.5 27.5t-97 13q-61 0 -107 -18.5t-77 -50t-46.5 -71.5t-15.5 -83q0 -44 19.5 -77t51 -60t72 -51l82.5 -49t83 -53.5t72.5 -66t51 -86t19.5 -112.5q0 -85 -35 -159.5
t-99.5 -130t-155.5 -88t-203 -32.5q-61 0 -113.5 10.5t-94.5 26t-71 32t-42 29.5t-13 38q0 6 1.5 17t4.5 24t6.5 25.5t9 23t12 17t15.5 6.5q16 0 40 -16t59.5 -34.5t84.5 -34.5t115 -16q70 0 125 19.5t92.5 53t57.5 78.5t20 96q0 45 -19 78.5t-50 60.5t-71.5 50l-82 48
t-81.5 53.5t-71 66t-50.5 86t-19.5 113.5q0 79 31 148t88 121t138 82t181 30q48 0 91.5 -8t78.5 -19.5t60 -25t34 -22.5t13 -18.5t4 -23.5zM265 -334q-7 -10 -13.5 -16t-16.5 -9t-24 -4.5t-35 -1.5q-20 0 -31 2.5t-15 7.5t-2 13t7 19l98 202q5 11 12 18.5t19 11.5t29.5 6
t44.5 2q26 0 40.5 -3.5t20 -10t3.5 -15t-9 -19.5z" />
    <glyph glyph-name="T" unicode="T" horiz-adv-x="998" 
d="M1139 1259q0 -6 -0.5 -16.5t-3 -22.5t-6.5 -25.5t-10 -23.5t-14.5 -16.5t-18.5 -6.5h-364l-225 -1122q-2 -8 -7.5 -14t-16 -9.5t-27.5 -6t-42 -2.5t-41 2.5t-25 6t-12 9.5t-1 14l224 1122h-362q-14 0 -19 9t-5 25q0 7 1.5 17.5t4 23.5t6.5 25t10 22.5t13.5 17t17.5 6.5
h900q13 0 18 -9.5t5 -25.5z" />
    <glyph glyph-name="Tcaron" unicode="&#x164;" horiz-adv-x="998" 
d="M1139 1259q0 -6 -0.5 -16.5t-3 -22.5t-6.5 -25.5t-10 -23.5t-14.5 -16.5t-18.5 -6.5h-364l-225 -1122q-2 -8 -7.5 -14t-16 -9.5t-27.5 -6t-42 -2.5t-41 2.5t-25 6t-12 9.5t-1 14l224 1122h-362q-14 0 -19 9t-5 25q0 7 1.5 17.5t4 23.5t6.5 25t10 22.5t13.5 17t17.5 6.5
h900q13 0 18 -9.5t5 -25.5zM762 1424q-9 -9 -18.5 -14.5t-21.5 -8.5t-27 -4.5t-36 -1.5t-34.5 1t-23 4t-16.5 9t-14 15l-169 227q-7 10 -7.5 17.5t6.5 12t21.5 6.5t36.5 2q30 0 47 -1.5t26 -4t13.5 -7.5t9.5 -10l120 -172l193 168q9 8 18.5 13.5t23 8.5t33 4t46.5 1
q24 0 38 -2.5t18.5 -7t1 -12t-14.5 -16.5zM22 1294z" />
    <glyph glyph-name="Tcommaaccent" unicode="&#x162;" horiz-adv-x="998" 
d="M1139 1259q0 -6 -0.5 -16.5t-3 -22.5t-6.5 -25.5t-10 -23.5t-14.5 -16.5t-18.5 -6.5h-364l-225 -1122q-2 -8 -7.5 -14t-16 -9.5t-27.5 -6t-42 -2.5t-41 2.5t-25 6t-12 9.5t-1 14l224 1122h-362q-14 0 -19 9t-5 25q0 7 1.5 17.5t4 23.5t6.5 25t10 22.5t13.5 17t17.5 6.5
h900q13 0 18 -9.5t5 -25.5zM330 -334q-7 -10 -13.5 -16t-16.5 -9t-24 -4.5t-35 -1.5q-20 0 -31 2.5t-15 7.5t-2 13t7 19l98 202q5 11 12 18.5t19 11.5t29.5 6t44.5 2q26 0 40.5 -3.5t20 -10t3.5 -15t-9 -19.5z" />
    <glyph glyph-name="Tcommaaccent" unicode="&#x21a;" horiz-adv-x="998" 
d="M1139 1259q0 -6 -0.5 -16.5t-3 -22.5t-6.5 -25.5t-10 -23.5t-14.5 -16.5t-18.5 -6.5h-364l-225 -1122q-2 -8 -7.5 -14t-16 -9.5t-27.5 -6t-42 -2.5t-41 2.5t-25 6t-12 9.5t-1 14l224 1122h-362q-14 0 -19 9t-5 25q0 7 1.5 17.5t4 23.5t6.5 25t10 22.5t13.5 17t17.5 6.5
h900q13 0 18 -9.5t5 -25.5zM330 -334q-7 -10 -13.5 -16t-16.5 -9t-24 -4.5t-35 -1.5q-20 0 -31 2.5t-15 7.5t-2 13t7 19l98 202q5 11 12 18.5t19 11.5t29.5 6t44.5 2q26 0 40.5 -3.5t20 -10t3.5 -15t-9 -19.5z" />
    <glyph glyph-name="Tbar" unicode="&#x166;" horiz-adv-x="998" 
d="M638 734h266q12 0 18 -9t6 -26q0 -6 -1 -16.5t-3.5 -22.5t-7 -24t-10 -22t-13 -16t-18.5 -6h-265l-113 -567q-2 -8 -7.5 -13.5t-16 -9.5t-27 -6t-42.5 -2q-24 0 -40.5 2t-25.5 6t-12 9.5t-1 13.5l112 567h-265q-12 0 -18 8.5t-6 26.5q0 5 1 15.5t3.5 22t6 24t9.5 22.5
t14 16.5t19 6.5h266l82 414h-364q-14 0 -19 9.5t-5 25.5q0 6 1.5 16.5t4 23t6 25t9.5 23t14 17t18 6.5h900q14 0 19 -9.5t5 -25.5q0 -8 -1.5 -19t-4 -23t-6.5 -24.5t-10 -22.5t-14 -16t-17 -6h-364z" />
    <glyph glyph-name="U" unicode="U" horiz-adv-x="1314" 
d="M1145 471q-24 -122 -76 -214t-127 -153t-169 -92t-204 -31q-116 0 -201.5 31.5t-137 94t-67.5 155.5t9 216l158 790q1 8 6.5 14t16.5 9.5t27.5 6t41.5 2.5t41 -2.5t25.5 -6t12 -9.5t0.5 -14l-157 -788q-17 -88 -9.5 -154t38.5 -110t85.5 -66t130.5 -22q75 0 138.5 23
t113 67.5t84 110t51.5 149.5l158 790q1 8 6.5 14t16 9.5t27 6t41.5 2.5q24 0 40 -2.5t25.5 -6t12.5 -9.5t2 -14z" />
    <glyph glyph-name="Ugrave" unicode="&#xd9;" horiz-adv-x="1314" 
d="M1145 471q-24 -122 -76 -214t-127 -153t-169 -92t-204 -31q-116 0 -201.5 31.5t-137 94t-67.5 155.5t9 216l158 790q1 8 6.5 14t16.5 9.5t27.5 6t41.5 2.5t41 -2.5t25.5 -6t12 -9.5t0.5 -14l-157 -788q-17 -88 -9.5 -154t38.5 -110t85.5 -66t130.5 -22q75 0 138.5 23
t113 67.5t84 110t51.5 149.5l158 790q1 8 6.5 14t16 9.5t27 6t41.5 2.5q24 0 40 -2.5t25.5 -6t12.5 -9.5t2 -14zM888 1438q9 -11 11.5 -19t-3.5 -13.5t-19.5 -8t-35.5 -2.5q-21 0 -35 1.5t-24.5 5t-19.5 9t-19 15.5l-217 212q-10 10 -12 19t5 16t25 11.5t48 4.5q25 0 42 -1
t31 -5t24 -11.5t20 -20.5zM161 1294z" />
    <glyph glyph-name="Uacute" unicode="&#xda;" horiz-adv-x="1314" 
d="M1145 471q-24 -122 -76 -214t-127 -153t-169 -92t-204 -31q-116 0 -201.5 31.5t-137 94t-67.5 155.5t9 216l158 790q1 8 6.5 14t16.5 9.5t27.5 6t41.5 2.5t41 -2.5t25.5 -6t12 -9.5t0.5 -14l-157 -788q-17 -88 -9.5 -154t38.5 -110t85.5 -66t130.5 -22q75 0 138.5 23
t113 67.5t84 110t51.5 149.5l158 790q1 8 6.5 14t16 9.5t27 6t41.5 2.5q24 0 40 -2.5t25.5 -6t12.5 -9.5t2 -14zM909 1426q-11 -9 -20 -15t-20 -9.5t-25.5 -5t-34.5 -1.5q-46 0 -55 10.5t11 32.5l197 213q11 12 22.5 19.5t25 11.5t31 5.5t42.5 1.5q30 0 47 -4.5t24 -11.5
t3.5 -16t-13.5 -19zM409 1294z" />
    <glyph glyph-name="Ucircumflex" unicode="&#xdb;" horiz-adv-x="1314" 
d="M1145 471q-24 -122 -76 -214t-127 -153t-169 -92t-204 -31q-116 0 -201.5 31.5t-137 94t-67.5 155.5t9 216l158 790q1 8 6.5 14t16.5 9.5t27.5 6t41.5 2.5t41 -2.5t25.5 -6t12 -9.5t0.5 -14l-157 -788q-17 -88 -9.5 -154t38.5 -110t85.5 -66t130.5 -22q75 0 138.5 23
t113 67.5t84 110t51.5 149.5l158 790q1 8 6.5 14t16 9.5t27 6t41.5 2.5q24 0 40 -2.5t25.5 -6t12.5 -9.5t2 -14zM1158 1433q7 -10 6.5 -17.5t-7.5 -12t-21 -6.5t-36 -2q-30 0 -47 1.5t-27 4t-15 7t-9 9.5l-118 173l-193 -168q-10 -8 -19.5 -14t-23 -8.5t-32.5 -3.5t-46 -1
q-25 0 -38.5 2.5t-18 7t-0.5 11.5t16 17l269 227q9 9 18.5 14.5t21 9t26.5 4.5t36 1t34.5 -1t23 -4.5t16.5 -9t14 -14.5zM190 1294z" />
    <glyph glyph-name="Utilde" unicode="&#x168;" horiz-adv-x="1314" 
d="M1145 471q-24 -122 -76 -214t-127 -153t-169 -92t-204 -31q-116 0 -201.5 31.5t-137 94t-67.5 155.5t9 216l158 790q1 8 6.5 14t16.5 9.5t27.5 6t41.5 2.5t41 -2.5t25.5 -6t12 -9.5t0.5 -14l-157 -788q-17 -88 -9.5 -154t38.5 -110t85.5 -66t130.5 -22q75 0 138.5 23
t113 67.5t84 110t51.5 149.5l158 790q1 8 6.5 14t16 9.5t27 6t41.5 2.5q24 0 40 -2.5t25.5 -6t12.5 -9.5t2 -14zM1091 1614q1 7 5 11t12 6.5t20 3.5t28 1q34 0 44 -6.5t10 -18.5q0 -4 -1.5 -21.5t-8.5 -41.5t-20 -50.5t-36.5 -49t-59.5 -37.5t-87 -15q-52 0 -90 18
t-68.5 39.5t-59 39t-60.5 17.5q-43 0 -62.5 -25t-24.5 -67q-1 -6 -5 -10t-11.5 -6.5t-19.5 -4t-28 -1.5q-33 0 -44.5 5.5t-11.5 19.5q0 11 3 32t11.5 44.5t23.5 48t39 45t58 33t81 12.5q51 0 88.5 -18t68.5 -39l59 -39t60 -18q36 0 59 20.5t28 71.5zM185 1294z" />
    <glyph glyph-name="Udieresis" unicode="&#xdc;" horiz-adv-x="1314" 
d="M1145 471q-24 -122 -76 -214t-127 -153t-169 -92t-204 -31q-116 0 -201.5 31.5t-137 94t-67.5 155.5t9 216l158 790q1 8 6.5 14t16.5 9.5t27.5 6t41.5 2.5t41 -2.5t25.5 -6t12 -9.5t0.5 -14l-157 -788q-17 -88 -9.5 -154t38.5 -110t85.5 -66t130.5 -22q75 0 138.5 23
t113 67.5t84 110t51.5 149.5l158 790q1 8 6.5 14t16 9.5t27 6t41.5 2.5q24 0 40 -2.5t25.5 -6t12.5 -9.5t2 -14zM1167 1527q-5 -28 -12.5 -46t-21 -29.5t-33 -16t-46.5 -4.5q-28 0 -45.5 4.5t-27 16t-11 29.5t2.5 46q5 28 12 46.5t20.5 30t32.5 16t47 4.5t45.5 -4.5t27 -16
t12 -30t-2.5 -46.5zM754 1527q-4 -28 -12 -46t-21.5 -29.5t-33 -16t-47.5 -4.5t-45.5 4.5t-26.5 16t-10.5 29.5t3.5 46q4 28 11.5 46.5t20 30t32 16t48.5 4.5q27 0 44.5 -4.5t27 -16t11.5 -30t-2 -46.5zM215 1294z" />
    <glyph glyph-name="Umacron" unicode="&#x16a;" horiz-adv-x="1314" 
d="M1145 471q-24 -122 -76 -214t-127 -153t-169 -92t-204 -31q-116 0 -201.5 31.5t-137 94t-67.5 155.5t9 216l158 790q1 8 6.5 14t16.5 9.5t27.5 6t41.5 2.5t41 -2.5t25.5 -6t12 -9.5t0.5 -14l-157 -788q-17 -88 -9.5 -154t38.5 -110t85.5 -66t130.5 -22q75 0 138.5 23
t113 67.5t84 110t51.5 149.5l158 790q1 8 6.5 14t16 9.5t27 6t41.5 2.5q24 0 40 -2.5t25.5 -6t12.5 -9.5t2 -14zM1168 1560q0 -7 -1 -17.5t-4 -22t-7 -23t-9.5 -20t-12 -14.5t-14.5 -6h-546q-12 0 -18 7.5t-6 24.5q0 6 1 16t3 21t6.5 22.5t10 20.5t13 15t17.5 6h545
q12 0 17 -8.5t5 -21.5zM210 1294z" />
    <glyph glyph-name="Ubreve" unicode="&#x16c;" horiz-adv-x="1314" 
d="M1145 471q-24 -122 -76 -214t-127 -153t-169 -92t-204 -31q-116 0 -201.5 31.5t-137 94t-67.5 155.5t9 216l158 790q1 8 6.5 14t16.5 9.5t27.5 6t41.5 2.5t41 -2.5t25.5 -6t12 -9.5t0.5 -14l-157 -788q-17 -88 -9.5 -154t38.5 -110t85.5 -66t130.5 -22q75 0 138.5 23
t113 67.5t84 110t51.5 149.5l158 790q1 8 6.5 14t16 9.5t27 6t41.5 2.5q24 0 40 -2.5t25.5 -6t12.5 -9.5t2 -14zM1149 1670q0 -11 -5 -36t-18 -55.5t-34.5 -62.5t-55.5 -59t-82 -44.5t-112 -17.5q-66 0 -109 15.5t-69 41.5t-37 60.5t-11 72.5q0 10 1.5 24.5t3.5 28.5
t5.5 25.5t7.5 15.5q7 7 22 10t34 3q17 0 28.5 -1.5t18 -4.5t9 -7.5t2.5 -10.5q0 -10 -1.5 -23t-1.5 -27q0 -23 5 -42t17 -32.5t32.5 -20.5t52.5 -7q29 0 56 8t49.5 25t39.5 45t28 69q2 7 6.5 12.5t12.5 9t20 5.5t30 2t28.5 -1.5t16.5 -4t8 -7t2 -9.5zM254 1294z" />
    <glyph glyph-name="Uring" unicode="&#x16e;" horiz-adv-x="1314" 
d="M1145 471q-24 -122 -76 -214t-127 -153t-169 -92t-204 -31q-116 0 -201.5 31.5t-137 94t-67.5 155.5t9 216l158 790q1 8 6.5 14t16.5 9.5t27.5 6t41.5 2.5t41 -2.5t25.5 -6t12 -9.5t0.5 -14l-157 -788q-17 -88 -9.5 -154t38.5 -110t85.5 -66t130.5 -22q75 0 138.5 23
t113 67.5t84 110t51.5 149.5l158 790q1 8 6.5 14t16 9.5t27 6t41.5 2.5q24 0 40 -2.5t25.5 -6t12.5 -9.5t2 -14zM1072 1571q0 -44 -16 -82.5t-45.5 -67t-71.5 -45t-95 -16.5q-49 0 -83 13.5t-56 35.5t-32 50.5t-10 59.5q0 30 6.5 57t20 50.5t33 43.5t45 34t56.5 21.5t66 7.5
q49 0 83.5 -13.5t56.5 -36.5t32 -52.5t10 -59.5zM960 1559q0 15 -4.5 30.5t-14 27.5t-26 19.5t-39.5 7.5q-24 0 -43.5 -8.5t-32 -24t-19 -35.5t-6.5 -44q0 -15 4 -30.5t13.5 -27t26 -18.5t39.5 -7q24 0 43 8.5t32 23t20 34.5t7 44zM314 1294z" />
    <glyph glyph-name="Uhungarumlaut" unicode="&#x170;" horiz-adv-x="1314" 
d="M1145 471q-24 -122 -76 -214t-127 -153t-169 -92t-204 -31q-116 0 -201.5 31.5t-137 94t-67.5 155.5t9 216l158 790q1 8 6.5 14t16.5 9.5t27.5 6t41.5 2.5t41 -2.5t25.5 -6t12 -9.5t0.5 -14l-157 -788q-17 -88 -9.5 -154t38.5 -110t85.5 -66t130.5 -22q75 0 138.5 23
t113 67.5t84 110t51.5 149.5l158 790q1 8 6.5 14t16 9.5t27 6t41.5 2.5q24 0 40 -2.5t25.5 -6t12.5 -9.5t2 -14zM1101 1417q-8 -8 -15 -12.5t-17 -6.5t-23.5 -2.5t-33.5 -0.5q-19 0 -32.5 2t-20 6t-7.5 10.5t5 13.5l189 237q7 7 15 12.5t20.5 9t32 5t46.5 1.5q34 0 53.5 -3
t28.5 -9.5t7 -13.5t-10 -16zM721 1416q-8 -7 -16 -11.5t-18 -6.5t-24.5 -2.5t-33.5 -0.5q-33 0 -44 9.5t0 24.5l180 234q7 8 15 13.5t20 9t29 5t42 1.5q38 0 60 -3t31 -8.5t5.5 -14.5t-14.5 -21zM237 1294z" />
    <glyph glyph-name="Uogonek" unicode="&#x172;" horiz-adv-x="1314" 
d="M1147 478q-13 -65 -34.5 -125t-54 -113.5t-76.5 -98.5t-103 -82q-25 -15 -46 -29.5l-41 -29.5t-39 -31l-39 -33l-64 -54q-28 -25 -41 -43.5t-13 -38.5q0 -19 14 -30t47 -11h116q13 0 17 -5t4 -15q0 -9 -1.5 -20t-4.5 -21.5t-7 -19t-7 -12.5q-7 -7 -25.5 -12.5t-41.5 -9.5
t-47.5 -6.5t-41.5 -2.5q-51 0 -87 9t-59.5 26t-34 40.5t-10.5 52.5q0 49 27.5 91t81.5 86l56 46q-11 -3 -21 -3h-21q-105 0 -186.5 30.5t-132.5 92t-67.5 154.5t7.5 217l159 792q1 7 6.5 13t16.5 10t27.5 6t41.5 2t41 -2t25.5 -6t12 -10t0.5 -13l-157 -789q-35 -174 27 -263
t219 -89q74 0 137.5 23t113 67.5t84 109.5t51.5 149l158 792q1 7 6.5 13t16 10t27 6t41.5 2q24 0 40 -2t25.5 -6t12.5 -10t2 -13z" />
    <glyph glyph-name="V" unicode="V" horiz-adv-x="1162" 
d="M608 30q-7 -11 -15 -18t-21 -11t-33 -5.5t-50 -1.5q-32 0 -53 1.5t-33 5.5t-17.5 11.5t-6.5 18.5l-183 1210q-3 19 -2.5 31t9 18t26 8t48.5 2q30 0 47.5 -1.5t27.5 -5.5t13.5 -11t5.5 -17l151 -1088h1l577 1089q5 10 11.5 16.5t17.5 10.5t29.5 5.5t48.5 1.5q31 0 49 -2.5
t25 -9.5t4 -20.5t-15 -35.5z" />
    <glyph glyph-name="W" unicode="W" horiz-adv-x="1823" 
d="M1325 37q-6 -14 -15.5 -22.5t-24.5 -13t-36 -6t-50 -1.5q-31 0 -52 1.5t-34 6t-19 12.5t-7 21l-77 980h-2l-442 -978q-5 -14 -14.5 -22.5t-22.5 -13t-34.5 -6t-52.5 -1.5q-34 0 -56 1.5t-35.5 6t-19.5 13.5t-7 23l-103 1199q-2 20 -0.5 33t10 19.5t26 8.5t49.5 2
q25 0 45.5 -2t29.5 -7t12 -14t3 -23l72 -1074h2l494 1082q5 11 11.5 18.5t17.5 11.5t29.5 6t49.5 2q27 0 43 -1.5t25 -6t11.5 -12t3.5 -18.5l82 -1082h2l502 1086q4 10 10 16.5t17.5 10.5t30 5.5t46.5 1.5q29 0 46 -2.5t24 -9.5t4 -20.5t-12 -35.5z" />
    <glyph glyph-name="Wgrave" unicode="&#x1e80;" horiz-adv-x="1823" 
d="M1325 37q-6 -14 -15.5 -22.5t-24.5 -13t-36 -6t-50 -1.5q-31 0 -52 1.5t-34 6t-19 12.5t-7 21l-77 980h-2l-442 -978q-5 -14 -14.5 -22.5t-22.5 -13t-34.5 -6t-52.5 -1.5q-34 0 -56 1.5t-35.5 6t-19.5 13.5t-7 23l-103 1199q-2 20 -0.5 33t10 19.5t26 8.5t49.5 2
q25 0 45.5 -2t29.5 -7t12 -14t3 -23l72 -1074h2l494 1082q5 11 11.5 18.5t17.5 11.5t29.5 6t49.5 2q27 0 43 -1.5t25 -6t11.5 -12t3.5 -18.5l82 -1082h2l502 1086q4 10 10 16.5t17.5 10.5t30 5.5t46.5 1.5q29 0 46 -2.5t24 -9.5t4 -20.5t-12 -35.5zM1150 1438
q9 -11 11.5 -19t-3.5 -13.5t-19.5 -8t-35.5 -2.5q-21 0 -35 1.5t-24.5 5t-19.5 9t-19 15.5l-217 212q-10 10 -12 19t5 16t25 11.5t48 4.5q25 0 42 -1t31 -5t24 -11.5t20 -20.5zM423 1294z" />
    <glyph glyph-name="Wacute" unicode="&#x1e82;" horiz-adv-x="1823" 
d="M1325 37q-6 -14 -15.5 -22.5t-24.5 -13t-36 -6t-50 -1.5q-31 0 -52 1.5t-34 6t-19 12.5t-7 21l-77 980h-2l-442 -978q-5 -14 -14.5 -22.5t-22.5 -13t-34.5 -6t-52.5 -1.5q-34 0 -56 1.5t-35.5 6t-19.5 13.5t-7 23l-103 1199q-2 20 -0.5 33t10 19.5t26 8.5t49.5 2
q25 0 45.5 -2t29.5 -7t12 -14t3 -23l72 -1074h2l494 1082q5 11 11.5 18.5t17.5 11.5t29.5 6t49.5 2q27 0 43 -1.5t25 -6t11.5 -12t3.5 -18.5l82 -1082h2l502 1086q4 10 10 16.5t17.5 10.5t30 5.5t46.5 1.5q29 0 46 -2.5t24 -9.5t4 -20.5t-12 -35.5zM1177 1426
q-11 -9 -20 -15t-20 -9.5t-25.5 -5t-34.5 -1.5q-46 0 -55 10.5t11 32.5l197 213q11 12 22.5 19.5t25 11.5t31 5.5t42.5 1.5q30 0 47 -4.5t24 -11.5t3.5 -16t-13.5 -19zM677 1294z" />
    <glyph glyph-name="Wcircumflex" unicode="&#x174;" horiz-adv-x="1823" 
d="M1325 37q-6 -14 -15.5 -22.5t-24.5 -13t-36 -6t-50 -1.5q-31 0 -52 1.5t-34 6t-19 12.5t-7 21l-77 980h-2l-442 -978q-5 -14 -14.5 -22.5t-22.5 -13t-34.5 -6t-52.5 -1.5q-34 0 -56 1.5t-35.5 6t-19.5 13.5t-7 23l-103 1199q-2 20 -0.5 33t10 19.5t26 8.5t49.5 2
q25 0 45.5 -2t29.5 -7t12 -14t3 -23l72 -1074h2l494 1082q5 11 11.5 18.5t17.5 11.5t29.5 6t49.5 2q27 0 43 -1.5t25 -6t11.5 -12t3.5 -18.5l82 -1082h2l502 1086q4 10 10 16.5t17.5 10.5t30 5.5t46.5 1.5q29 0 46 -2.5t24 -9.5t4 -20.5t-12 -35.5zM1421 1433
q7 -10 6.5 -17.5t-7.5 -12t-21 -6.5t-36 -2q-30 0 -47 1.5t-27 4t-15 7t-9 9.5l-118 173l-193 -168q-10 -8 -19.5 -14t-23 -8.5t-32.5 -3.5t-46 -1q-25 0 -38.5 2.5t-18 7t-0.5 11.5t16 17l269 227q9 9 18.5 14.5t21 9t26.5 4.5t36 1t34.5 -1t23 -4.5t16.5 -9t14 -14.5z
M453 1294z" />
    <glyph glyph-name="Wdieresis" unicode="&#x1e84;" horiz-adv-x="1823" 
d="M1325 37q-6 -14 -15.5 -22.5t-24.5 -13t-36 -6t-50 -1.5q-31 0 -52 1.5t-34 6t-19 12.5t-7 21l-77 980h-2l-442 -978q-5 -14 -14.5 -22.5t-22.5 -13t-34.5 -6t-52.5 -1.5q-34 0 -56 1.5t-35.5 6t-19.5 13.5t-7 23l-103 1199q-2 20 -0.5 33t10 19.5t26 8.5t49.5 2
q25 0 45.5 -2t29.5 -7t12 -14t3 -23l72 -1074h2l494 1082q5 11 11.5 18.5t17.5 11.5t29.5 6t49.5 2q27 0 43 -1.5t25 -6t11.5 -12t3.5 -18.5l82 -1082h2l502 1086q4 10 10 16.5t17.5 10.5t30 5.5t46.5 1.5q29 0 46 -2.5t24 -9.5t4 -20.5t-12 -35.5zM1428 1527
q-5 -28 -12.5 -46t-21 -29.5t-33 -16t-46.5 -4.5q-28 0 -45.5 4.5t-27 16t-11 29.5t2.5 46q5 28 12 46.5t20.5 30t32.5 16t47 4.5t45.5 -4.5t27 -16t12 -30t-2.5 -46.5zM1015 1527q-4 -28 -12 -46t-21.5 -29.5t-33 -16t-47.5 -4.5t-45.5 4.5t-26.5 16t-10.5 29.5t3.5 46
q4 28 11.5 46.5t20 30t32 16t48.5 4.5q27 0 44.5 -4.5t27 -16t11.5 -30t-2 -46.5zM476 1294z" />
    <glyph glyph-name="X" unicode="X" horiz-adv-x="1063" 
d="M681 661l242 -598q7 -22 7.5 -35.5t-9 -21t-30 -10t-55.5 -2.5q-29 0 -46 1.5t-26.5 5.5t-13.5 9.5t-7 14.5l-196 519l-392 -519q-7 -9 -14.5 -15t-19.5 -9.5t-31 -5t-48 -1.5q-33 0 -53.5 2.5t-28 10t-2.5 20.5t21 35l479 604l-221 566q-8 22 -7.5 35t10.5 20.5t31 10
t55 2.5q27 0 43.5 -1.5t26 -6.5t14.5 -12.5t9 -19.5l176 -473l365 482q7 8 14 14.5t19 10t30 5t47 1.5q33 0 53.5 -2.5t28 -10t3 -20.5t-19.5 -35z" />
    <glyph glyph-name="Y" unicode="Y" horiz-adv-x="998" 
d="M592 503l-95 -478q-2 -7 -7.5 -13t-16.5 -9.5t-28 -6t-41 -2.5q-25 0 -41 2.5t-25 6t-12 9.5t-2 13l96 478l-220 730q-6 22 -7.5 35t6.5 20t26.5 9.5t53.5 2.5q27 0 44 -1.5t27 -6.5t14.5 -12.5t8.5 -20.5l103 -355q18 -62 32 -119.5t27 -119.5h2l73 119l78 119l245 361
q6 10 13.5 17t19.5 11.5t30 6t48 1.5q36 0 55 -3.5t24.5 -11.5t-0.5 -21t-19 -31z" />
    <glyph glyph-name="Ygrave" unicode="&#x1ef2;" horiz-adv-x="998" 
d="M592 503l-95 -478q-2 -7 -7.5 -13t-16.5 -9.5t-28 -6t-41 -2.5q-25 0 -41 2.5t-25 6t-12 9.5t-2 13l96 478l-220 730q-6 22 -7.5 35t6.5 20t26.5 9.5t53.5 2.5q27 0 44 -1.5t27 -6.5t14.5 -12.5t8.5 -20.5l103 -355q18 -62 32 -119.5t27 -119.5h2l73 119l78 119l245 361
q6 10 13.5 17t19.5 11.5t30 6t48 1.5q36 0 55 -3.5t24.5 -11.5t-0.5 -21t-19 -31zM786 1438q9 -11 11.5 -19t-3.5 -13.5t-19.5 -8t-35.5 -2.5q-21 0 -35 1.5t-24.5 5t-19.5 9t-19 15.5l-217 212q-10 10 -12 19t5 16t25 11.5t48 4.5q25 0 42 -1t31 -5t24 -11.5t20 -20.5z
M59 1294z" />
    <glyph glyph-name="Yacute" unicode="&#xdd;" horiz-adv-x="998" 
d="M592 503l-95 -478q-2 -7 -7.5 -13t-16.5 -9.5t-28 -6t-41 -2.5q-25 0 -41 2.5t-25 6t-12 9.5t-2 13l96 478l-220 730q-6 22 -7.5 35t6.5 20t26.5 9.5t53.5 2.5q27 0 44 -1.5t27 -6.5t14.5 -12.5t8.5 -20.5l103 -355q18 -62 32 -119.5t27 -119.5h2l73 119l78 119l245 361
q6 10 13.5 17t19.5 11.5t30 6t48 1.5q36 0 55 -3.5t24.5 -11.5t-0.5 -21t-19 -31zM822 1426q-11 -9 -20 -15t-20 -9.5t-25.5 -5t-34.5 -1.5q-46 0 -55 10.5t11 32.5l197 213q11 12 22.5 19.5t25 11.5t31 5.5t42.5 1.5q30 0 47 -4.5t24 -11.5t3.5 -16t-13.5 -19zM322 1294z
" />
    <glyph glyph-name="Ycircumflex" unicode="&#x176;" horiz-adv-x="998" 
d="M592 503l-95 -478q-2 -7 -7.5 -13t-16.5 -9.5t-28 -6t-41 -2.5q-25 0 -41 2.5t-25 6t-12 9.5t-2 13l96 478l-220 730q-6 22 -7.5 35t6.5 20t26.5 9.5t53.5 2.5q27 0 44 -1.5t27 -6.5t14.5 -12.5t8.5 -20.5l103 -355q18 -62 32 -119.5t27 -119.5h2l73 119l78 119l245 361
q6 10 13.5 17t19.5 11.5t30 6t48 1.5q36 0 55 -3.5t24.5 -11.5t-0.5 -21t-19 -31zM1045 1433q7 -10 6.5 -17.5t-7.5 -12t-21 -6.5t-36 -2q-30 0 -47 1.5t-27 4t-15 7t-9 9.5l-118 173l-193 -168q-10 -8 -19.5 -14t-23 -8.5t-32.5 -3.5t-46 -1q-25 0 -38.5 2.5t-18 7
t-0.5 11.5t16 17l269 227q9 9 18.5 14.5t21 9t26.5 4.5t36 1t34.5 -1t23 -4.5t16.5 -9t14 -14.5zM77 1294z" />
    <glyph glyph-name="Ydieresis" unicode="&#x178;" horiz-adv-x="998" 
d="M592 503l-95 -478q-2 -7 -7.5 -13t-16.5 -9.5t-28 -6t-41 -2.5q-25 0 -41 2.5t-25 6t-12 9.5t-2 13l96 478l-220 730q-6 22 -7.5 35t6.5 20t26.5 9.5t53.5 2.5q27 0 44 -1.5t27 -6.5t14.5 -12.5t8.5 -20.5l103 -355q18 -62 32 -119.5t27 -119.5h2l73 119l78 119l245 361
q6 10 13.5 17t19.5 11.5t30 6t48 1.5q36 0 55 -3.5t24.5 -11.5t-0.5 -21t-19 -31zM1056 1527q-5 -28 -12.5 -46t-21 -29.5t-33 -16t-46.5 -4.5q-28 0 -45.5 4.5t-27 16t-11 29.5t2.5 46q5 28 12 46.5t20.5 30t32.5 16t47 4.5t45.5 -4.5t27 -16t12 -30t-2.5 -46.5zM643 1527
q-4 -28 -12 -46t-21.5 -29.5t-33 -16t-47.5 -4.5t-45.5 4.5t-26.5 16t-10.5 29.5t3.5 46q4 28 11.5 46.5t20 30t32 16t48.5 4.5q27 0 44.5 -4.5t27 -16t11.5 -30t-2 -46.5zM104 1294z" />
    <glyph glyph-name="Z" unicode="Z" horiz-adv-x="959" 
d="M998 1294q20 0 32 -11.5t12 -31.5q0 -12 -4.5 -38t-9.5 -44q-3 -9 -6.5 -17t-10.5 -18l-17.5 -24.5t-27.5 -34.5l-774 -930h625q13 0 18 -8.5t5 -24.5q0 -6 -1 -16.5t-3 -23t-5.5 -25.5t-9 -23.5t-13.5 -17t-19 -6.5h-765q-24 0 -36 13.5t-12 32.5q0 6 1.5 17t4 23
t5.5 24t6 19t7 15.5t11 18.5l17.5 24t26.5 32l774 931h-584q-25 0 -25 35q0 5 1 15.5t3.5 22.5t6 25t9.5 23t15 16.5t20 6.5h723z" />
    <glyph glyph-name="Zacute" unicode="&#x179;" horiz-adv-x="959" 
d="M998 1294q20 0 32 -11.5t12 -31.5q0 -12 -4.5 -38t-9.5 -44q-3 -9 -6.5 -17t-10.5 -18l-17.5 -24.5t-27.5 -34.5l-774 -930h625q13 0 18 -8.5t5 -24.5q0 -6 -1 -16.5t-3 -23t-5.5 -25.5t-9 -23.5t-13.5 -17t-19 -6.5h-765q-24 0 -36 13.5t-12 32.5q0 6 1.5 17t4 23
t5.5 24t6 19t7 15.5t11 18.5l17.5 24t26.5 32l774 931h-584q-25 0 -25 35q0 5 1 15.5t3.5 22.5t6 25t9.5 23t15 16.5t20 6.5h723zM731 1426q-11 -9 -20 -15t-20 -9.5t-25.5 -5t-34.5 -1.5q-46 0 -55 10.5t11 32.5l197 213q11 12 22.5 19.5t25 11.5t31 5.5t42.5 1.5
q30 0 47 -4.5t24 -11.5t3.5 -16t-13.5 -19zM231 1294z" />
    <glyph glyph-name="Zcaron" unicode="&#x17d;" horiz-adv-x="959" 
d="M998 1294q20 0 32 -11.5t12 -31.5q0 -12 -4.5 -38t-9.5 -44q-3 -9 -6.5 -17t-10.5 -18l-17.5 -24.5t-27.5 -34.5l-774 -930h625q13 0 18 -8.5t5 -24.5q0 -6 -1 -16.5t-3 -23t-5.5 -25.5t-9 -23.5t-13.5 -17t-19 -6.5h-765q-24 0 -36 13.5t-12 32.5q0 6 1.5 17t4 23
t5.5 24t6 19t7 15.5t11 18.5l17.5 24t26.5 32l774 931h-584q-25 0 -25 35q0 5 1 15.5t3.5 22.5t6 25t9.5 23t15 16.5t20 6.5h723zM760 1424q-9 -9 -18.5 -14.5t-21.5 -8.5t-27 -4.5t-36 -1.5t-34.5 1t-23 4t-16.5 9t-14 15l-169 227q-7 10 -7.5 17.5t6.5 12t21.5 6.5t36.5 2
q30 0 47 -1.5t26 -4t13.5 -7.5t9.5 -10l120 -172l193 168q9 8 18.5 13.5t23 8.5t33 4t46.5 1q24 0 38 -2.5t18.5 -7t1 -12t-14.5 -16.5zM20 1294z" />
    <glyph glyph-name="Zdotaccent" unicode="&#x17b;" horiz-adv-x="959" 
d="M998 1294q20 0 32 -11.5t12 -31.5q0 -12 -4.5 -38t-9.5 -44q-3 -9 -6.5 -17t-10.5 -18l-17.5 -24.5t-27.5 -34.5l-774 -930h625q13 0 18 -8.5t5 -24.5q0 -6 -1 -16.5t-3 -23t-5.5 -25.5t-9 -23.5t-13.5 -17t-19 -6.5h-765q-24 0 -36 13.5t-12 32.5q0 6 1.5 17t4 23
t5.5 24t6 19t7 15.5t11 18.5l17.5 24t26.5 32l774 931h-584q-25 0 -25 35q0 5 1 15.5t3.5 22.5t6 25t9.5 23t15 16.5t20 6.5h723zM587 1528q5 26 13.5 44.5t23 30t34.5 17t48 5.5t46 -5.5t27 -17t10 -30t-4 -44.5t-14 -44.5t-22.5 -30.5t-34 -17t-47.5 -5q-29 0 -46.5 5
t-26.5 17t-10.5 30.5t3.5 44.5zM243 1294z" />
    <glyph glyph-name="A.c2sc" horiz-adv-x="1012" 
d="M905 60q3 -22 1.5 -35t-10.5 -20t-28 -9t-52 -2q-31 0 -48 2t-25 5.5t-10.5 9t-3.5 13.5l-42 237h-448l-128 -235q-5 -9 -11.5 -15t-18.5 -9.5t-30.5 -5.5t-46.5 -2q-30 0 -47.5 2.5t-23.5 9.5t-2.5 21t15.5 35l552 965q6 11 13.5 18t20.5 10.5t33 5t51 1.5q35 0 57 -1.5
t34.5 -5.5t17.5 -11t6 -19zM588 897h-2l-277 -502h360z" />
    <glyph glyph-name="Agrave.c2sc" horiz-adv-x="1012" 
d="M905 60q3 -22 1.5 -35t-10.5 -20t-28 -9t-52 -2q-31 0 -48 2t-25 5.5t-10.5 9t-3.5 13.5l-42 237h-448l-128 -235q-5 -9 -11.5 -15t-18.5 -9.5t-30.5 -5.5t-46.5 -2q-30 0 -47.5 2.5t-23.5 9.5t-2.5 21t15.5 35l552 965q6 11 13.5 18t20.5 10.5t33 5t51 1.5q35 0 57 -1.5
t34.5 -5.5t17.5 -11t6 -19zM588 897h-2l-277 -502h360zM684 1230q6 -11 7 -19t-4 -13t-18.5 -8t-35.5 -3q-20 0 -33 1t-22.5 4.5t-15.5 9.5t-14 17l-171 225q-7 10 -7 18.5t7.5 14.5t25 9.5t45.5 3.5q24 0 40.5 -1t27.5 -5t18 -11.5t13 -18.5zM45 1056z" />
    <glyph glyph-name="Aacute.c2sc" horiz-adv-x="1012" 
d="M905 60q3 -22 1.5 -35t-10.5 -20t-28 -9t-52 -2q-31 0 -48 2t-25 5.5t-10.5 9t-3.5 13.5l-42 237h-448l-128 -235q-5 -9 -11.5 -15t-18.5 -9.5t-30.5 -5.5t-46.5 -2q-30 0 -47.5 2.5t-23.5 9.5t-2.5 21t15.5 35l552 965q6 11 13.5 18t20.5 10.5t33 5t51 1.5q35 0 57 -1.5
t34.5 -5.5t17.5 -11t6 -19zM588 897h-2l-277 -502h360zM718 1219q-7 -10 -13 -16t-15.5 -9.5t-22.5 -5t-33 -1.5q-22 0 -35 3t-18 8t-3 13t9 19l153 224q7 10 15.5 17.5t20 11.5t28.5 5.5t42 1.5q28 0 44.5 -3.5t23 -9.5t5 -14.5t-9.5 -18.5zM294 1056z" />
    <glyph glyph-name="Acircumflex.c2sc" horiz-adv-x="1012" 
d="M905 60q3 -22 1.5 -35t-10.5 -20t-28 -9t-52 -2q-31 0 -48 2t-25 5.5t-10.5 9t-3.5 13.5l-42 237h-448l-128 -235q-5 -9 -11.5 -15t-18.5 -9.5t-30.5 -5.5t-46.5 -2q-30 0 -47.5 2.5t-23.5 9.5t-2.5 21t15.5 35l552 965q6 11 13.5 18t20.5 10.5t33 5t51 1.5q35 0 57 -1.5
t34.5 -5.5t17.5 -11t6 -19zM588 897h-2l-277 -502h360zM928 1241q9 -13 11 -23t-4.5 -17t-22 -10.5t-41.5 -3.5q-21 0 -33.5 1.5t-20.5 4.5t-13.5 9t-10.5 14l-108 174l-181 -174q-9 -8 -17 -13.5t-18 -9t-24 -5t-33 -1.5q-28 0 -43.5 3.5t-20 10.5t0.5 17.5t21 24.5
l230 220q8 7 15.5 12t18.5 8.5t27.5 5t41.5 1.5q22 0 35.5 -1.5t23 -5t15 -8.5t10.5 -12zM61 1056z" />
    <glyph glyph-name="Atilde.c2sc" horiz-adv-x="1012" 
d="M905 60q3 -22 1.5 -35t-10.5 -20t-28 -9t-52 -2q-31 0 -48 2t-25 5.5t-10.5 9t-3.5 13.5l-42 237h-448l-128 -235q-5 -9 -11.5 -15t-18.5 -9.5t-30.5 -5.5t-46.5 -2q-30 0 -47.5 2.5t-23.5 9.5t-2.5 21t15.5 35l552 965q6 11 13.5 18t20.5 10.5t33 5t51 1.5q35 0 57 -1.5
t34.5 -5.5t17.5 -11t6 -19zM588 897h-2l-277 -502h360zM892 1418q1 6 4.5 10.5t11.5 7.5t20 4t29 1q31 0 41 -6.5t10 -19.5q0 -8 -2.5 -28t-10 -45t-21 -52t-37 -48.5t-57.5 -36t-81 -14.5q-53 0 -91 19t-69 42l-59 42t-61 19q-42 0 -63 -29t-24 -71q-2 -7 -6.5 -11
t-13 -6.5t-20 -3.5t-24.5 -1q-31 0 -42.5 5t-11.5 20q0 12 3.5 33.5t11.5 46.5t23.5 50.5t38.5 46.5t56 34.5t78 13.5q53 0 91 -19.5t69 -42.5l59 -42t60 -19q36 0 59.5 24.5t28.5 75.5zM28 1056z" />
    <glyph glyph-name="Adieresis.c2sc" horiz-adv-x="1012" 
d="M905 60q3 -22 1.5 -35t-10.5 -20t-28 -9t-52 -2q-31 0 -48 2t-25 5.5t-10.5 9t-3.5 13.5l-42 237h-448l-128 -235q-5 -9 -11.5 -15t-18.5 -9.5t-30.5 -5.5t-46.5 -2q-30 0 -47.5 2.5t-23.5 9.5t-2.5 21t15.5 35l552 965q6 11 13.5 18t20.5 10.5t33 5t51 1.5q35 0 57 -1.5
t34.5 -5.5t17.5 -11t6 -19zM588 897h-2l-277 -502h360zM943 1317q-4 -28 -12.5 -46t-22 -29t-33 -16t-45.5 -5t-43 5t-25.5 16t-9.5 29t3 46q4 26 12.5 44.5t22 29.5t32.5 15.5t44 4.5q27 0 44 -4.5t26 -15.5t10.5 -29.5t-3.5 -44.5zM561 1317q-4 -28 -12.5 -46t-22 -29
t-32.5 -16t-46 -5q-26 0 -43 5t-25.5 16t-9.5 29t3 46q5 26 13 44.5t21.5 29.5t32 15.5t45.5 4.5q26 0 42.5 -4.5t25.5 -15.5t10.5 -29.5t-2.5 -44.5zM70 1056z" />
    <glyph glyph-name="Amacron.c2sc" horiz-adv-x="1012" 
d="M905 60q3 -22 1.5 -35t-10.5 -20t-28 -9t-52 -2q-31 0 -48 2t-25 5.5t-10.5 9t-3.5 13.5l-42 237h-448l-128 -235q-5 -9 -11.5 -15t-18.5 -9.5t-30.5 -5.5t-46.5 -2q-30 0 -47.5 2.5t-23.5 9.5t-2.5 21t15.5 35l552 965q6 11 13.5 18t20.5 10.5t33 5t51 1.5q35 0 57 -1.5
t34.5 -5.5t17.5 -11t6 -19zM588 897h-2l-277 -502h360zM955 1357q0 -6 -1 -16.5t-4 -21.5t-6.5 -22.5t-9 -20t-13 -14.5t-15.5 -6h-512q-15 0 -20 9t-5 24q0 6 1 16t4 20.5t7 21.5t9.5 20t13 14.5t16.5 5.5h512q11 0 17 -8.5t6 -21.5zM70 1056z" />
    <glyph glyph-name="Abreve.c2sc" horiz-adv-x="1012" 
d="M905 60q3 -22 1.5 -35t-10.5 -20t-28 -9t-52 -2q-31 0 -48 2t-25 5.5t-10.5 9t-3.5 13.5l-42 237h-448l-128 -235q-5 -9 -11.5 -15t-18.5 -9.5t-30.5 -5.5t-46.5 -2q-30 0 -47.5 2.5t-23.5 9.5t-2.5 21t15.5 35l552 965q6 11 13.5 18t20.5 10.5t33 5t51 1.5q35 0 57 -1.5
t34.5 -5.5t17.5 -11t6 -19zM588 897h-2l-277 -502h360zM939 1467q0 -11 -4.5 -36t-17 -55.5t-34 -63t-55.5 -59.5t-82 -44.5t-112 -17.5q-65 0 -108 15.5t-69 41.5t-36.5 60.5t-10.5 72.5q0 10 1.5 24.5t3.5 28.5t5.5 25.5t6.5 15.5q8 7 22 10t34 3q16 0 27 -1.5t17 -4.5
t8.5 -7.5t2.5 -9.5q0 -11 -1.5 -24t-1.5 -27q0 -23 5.5 -42.5t18 -33t33.5 -21.5t52 -8q29 0 56.5 8t50.5 26t40.5 46.5t28.5 69.5q1 7 5 12.5t11 9t18.5 5.5t29.5 2t29 -1.5t17 -4t7.5 -6.5t1.5 -9zM89 1056z" />
    <glyph glyph-name="Aring.c2sc" horiz-adv-x="1012" 
d="M905 60q3 -22 1.5 -35t-10.5 -20t-28 -9t-52 -2q-31 0 -48 2t-25 5.5t-10.5 9t-3.5 13.5l-42 237h-448l-128 -235q-5 -9 -11.5 -15t-18.5 -9.5t-30.5 -5.5t-46.5 -2q-30 0 -47.5 2.5t-23.5 9.5t-2.5 21t15.5 35l552 965q6 11 13.5 18t20.5 10.5t33 5t51 1.5q35 0 57 -1.5
t34.5 -5.5t17.5 -11t6 -19zM588 897h-2l-277 -502h360zM861 1370q0 -46 -15.5 -84t-44.5 -66t-71 -43.5t-93 -15.5q-49 0 -83 13t-55.5 34.5t-31 50t-9.5 59.5q0 45 15.5 83t44.5 66.5t71 44t94 15.5q49 0 83 -13.5t55.5 -35t30.5 -50t9 -58.5zM753 1358q0 15 -4.5 30
t-14 26.5t-26 18.5t-39.5 7q-47 0 -74.5 -29.5t-27.5 -81.5q0 -15 4.5 -30t14 -26t25.5 -18.5t40 -7.5q46 0 74 29.5t28 81.5zM153 1056z" />
    <glyph glyph-name="Aringacute.c2sc" horiz-adv-x="1012" 
d="M905 60q3 -22 1.5 -35t-10.5 -20t-28 -9t-52 -2q-31 0 -48 2t-25 5.5t-10.5 9t-3.5 13.5l-42 237h-448l-128 -235q-5 -9 -11.5 -15t-18.5 -9.5t-30.5 -5.5t-46.5 -2q-30 0 -47.5 2.5t-23.5 9.5t-2.5 21t15.5 35l552 965q6 11 13.5 18t20.5 10.5t33 5t51 1.5q35 0 57 -1.5
t34.5 -5.5t17.5 -11t6 -19zM588 897h-2l-277 -502h360zM759 1541q-10 -8 -18.5 -14t-18.5 -9.5t-22.5 -5t-31.5 -1.5q-22 0 -34.5 2.5t-16.5 7.5t-0.5 12.5t13.5 17.5l148 153q10 10 19.5 17.5t21 11t26.5 5t37 1.5q28 0 44.5 -3.5t23 -9t3 -13.5t-13.5 -17zM848 1317
q0 -39 -15.5 -71t-42 -56t-63.5 -37t-80 -13q-46 0 -80.5 12t-57.5 32t-33.5 47t-10.5 56q0 40 15 73t41.5 56.5t64.5 36t84 12.5q45 0 78 -11.5t55.5 -31.5t33.5 -47t11 -58zM745 1308q0 14 -4 28t-14 26t-26.5 19t-40.5 7q-44 0 -68 -24.5t-24 -65.5q0 -16 4.5 -30.5
t14.5 -26t26.5 -18t41.5 -6.5q44 0 67 26t23 65zM180 1056z" />
    <glyph glyph-name="Aogonek.c2sc" horiz-adv-x="1012" 
d="M864 -261q0 -9 -1.5 -20.5t-4.5 -21.5t-6.5 -18.5t-7.5 -12.5q-5 -5 -20.5 -10.5t-36 -10t-45 -7.5t-47.5 -3q-46 0 -80 10t-56 28t-32.5 42t-10.5 52q0 24 8 47t24.5 46.5t42.5 48t62 53.5l77 60l-42 239h-449l-127 -235q-5 -9 -12.5 -15t-19.5 -10t-31.5 -5.5
t-48.5 -1.5t-45 2.5t-22.5 9.5t-2.5 21t16 35l552 965q6 11 13.5 18t21 10.5t33.5 5t50 1.5q36 0 58 -1.5t34 -5t17 -11t7 -19.5l169 -941q3 -20 3 -33.5t-4 -25t-13.5 -21.5t-24.5 -22l-83 -68q-31 -25 -49.5 -42.5t-29 -30.5t-14.5 -23t-4 -20q0 -17 12.5 -28t48.5 -11
h100q11 0 16 -5t5 -15zM588 897h-2l-276 -502h360z" />
    <glyph glyph-name="AE.c2sc" horiz-adv-x="1372" 
d="M1183 107q0 -6 -1 -16.5t-3.5 -22.5t-6.5 -24t-9.5 -22t-12.5 -16t-15 -6h-531q-10 0 -20 3.5t-16.5 11t-9 19.5t0.5 28l36 180h-367l-158 -216q-6 -9 -14 -15t-20.5 -10t-31.5 -5.5t-48 -1.5t-45.5 2.5t-22 9.5t-1 21t19.5 35l717 960q8 11 17.5 17.5t24 10.5t35 5
t50.5 1h590q10 0 15 -8t5 -22q0 -6 -1 -16t-3.5 -21t-6 -23.5t-8.5 -22t-12 -15.5t-16 -6h-415l-61 -307h359q8 0 13.5 -6.5t5.5 -23.5q0 -6 -1 -16t-3.5 -21.5t-6 -23.5t-9 -21.5t-12 -15t-15.5 -5.5h-358l-69 -348h420q21 0 21 -27zM730 922h-6l-402 -547h300z" />
    <glyph glyph-name="AEacute.c2sc" horiz-adv-x="1372" 
d="M1183 107q0 -6 -1 -16.5t-3.5 -22.5t-6.5 -24t-9.5 -22t-12.5 -16t-15 -6h-531q-10 0 -20 3.5t-16.5 11t-9 19.5t0.5 28l36 180h-367l-158 -216q-6 -9 -14 -15t-20.5 -10t-31.5 -5.5t-48 -1.5t-45.5 2.5t-22 9.5t-1 21t19.5 35l717 960q8 11 17.5 17.5t24 10.5t35 5
t50.5 1h590q10 0 15 -8t5 -22q0 -6 -1 -16t-3.5 -21t-6 -23.5t-8.5 -22t-12 -15.5t-16 -6h-415l-61 -307h359q8 0 13.5 -6.5t5.5 -23.5q0 -6 -1 -16t-3.5 -21.5t-6 -23.5t-9 -21.5t-12 -15t-15.5 -5.5h-358l-69 -348h420q21 0 21 -27zM730 922h-6l-402 -547h300zM946 1219
q-7 -10 -13 -16t-15.5 -9.5t-22.5 -5t-33 -1.5q-22 0 -35 3t-18 8t-3 13t9 19l153 224q7 10 15.5 17.5t20 11.5t28.5 5.5t42 1.5q28 0 44.5 -3.5t23 -9.5t5 -14.5t-9.5 -18.5zM522 1056z" />
    <glyph glyph-name="B.c2sc" horiz-adv-x="1028" 
d="M935 848q0 -50 -14.5 -94.5t-40.5 -81.5t-61.5 -65.5t-79.5 -45.5q35 -6 65.5 -22.5t52 -42.5t34 -59.5t12.5 -75.5q0 -46 -12.5 -90.5t-36.5 -84.5t-60.5 -74t-85.5 -59t-110.5 -39t-135.5 -14h-331q-29 0 -43.5 15t-6.5 47l185 932q6 33 28 47.5t47 14.5h285
q78 0 135.5 -13.5t96 -39.5t58 -65t19.5 -90zM756 817q0 50 -36.5 79.5t-116.5 29.5h-184l-63 -321h189q56 0 96 20t65.5 51t37.5 68.5t12 72.5zM722 348q0 30 -11.5 54.5t-34.5 41.5t-56.5 26t-77.5 9h-212l-69 -348h225q57 0 101.5 17.5t74 47.5t45 69.5t15.5 82.5z" />
    <glyph glyph-name="C.c2sc" horiz-adv-x="939" 
d="M958 952q0 -6 -1.5 -16l-3.5 -23t-5 -26.5t-8 -24t-11.5 -17.5t-13.5 -7q-12 0 -28 14t-41.5 31.5t-65.5 31.5t-101 14q-66 0 -120.5 -25.5t-97.5 -67t-76 -97t-54.5 -116t-32 -121.5t-10.5 -115q0 -63 16 -111t46 -80.5t73 -49.5t97 -17q61 0 105.5 13.5t76 29.5
t52.5 30t36 14q11 0 15 -6.5t4 -19.5q0 -10 -2.5 -27.5t-7.5 -36t-11.5 -35t-16 -26t-36 -23.5t-65.5 -27t-87 -22t-100 -9q-88 0 -157.5 24.5t-118.5 73t-75.5 121t-26.5 167.5q0 78 16 160t48 160.5t80 147.5t112.5 121.5t146 82.5t179.5 30q37 0 71 -4.5t65 -14t59 -23.5
t45 -27t24 -23t7 -28z" />
    <glyph glyph-name="Cacute.c2sc" horiz-adv-x="939" 
d="M958 952q0 -6 -1.5 -16l-3.5 -23t-5 -26.5t-8 -24t-11.5 -17.5t-13.5 -7q-12 0 -28 14t-41.5 31.5t-65.5 31.5t-101 14q-66 0 -120.5 -25.5t-97.5 -67t-76 -97t-54.5 -116t-32 -121.5t-10.5 -115q0 -63 16 -111t46 -80.5t73 -49.5t97 -17q61 0 105.5 13.5t76 29.5
t52.5 30t36 14q11 0 15 -6.5t4 -19.5q0 -10 -2.5 -27.5t-7.5 -36t-11.5 -35t-16 -26t-36 -23.5t-65.5 -27t-87 -22t-100 -9q-88 0 -157.5 24.5t-118.5 73t-75.5 121t-26.5 167.5q0 78 16 160t48 160.5t80 147.5t112.5 121.5t146 82.5t179.5 30q37 0 71 -4.5t65 -14t59 -23.5
t45 -27t24 -23t7 -28zM759 1219q-7 -10 -13 -16t-15.5 -9.5t-22.5 -5t-33 -1.5q-22 0 -35 3t-18 8t-3 13t9 19l153 224q7 10 15.5 17.5t20 11.5t28.5 5.5t42 1.5q28 0 44.5 -3.5t23 -9.5t5 -14.5t-9.5 -18.5zM335 1056z" />
    <glyph glyph-name="Ccircumflex.c2sc" horiz-adv-x="939" 
d="M958 952q0 -6 -1.5 -16l-3.5 -23t-5 -26.5t-8 -24t-11.5 -17.5t-13.5 -7q-12 0 -28 14t-41.5 31.5t-65.5 31.5t-101 14q-66 0 -120.5 -25.5t-97.5 -67t-76 -97t-54.5 -116t-32 -121.5t-10.5 -115q0 -63 16 -111t46 -80.5t73 -49.5t97 -17q61 0 105.5 13.5t76 29.5
t52.5 30t36 14q11 0 15 -6.5t4 -19.5q0 -10 -2.5 -27.5t-7.5 -36t-11.5 -35t-16 -26t-36 -23.5t-65.5 -27t-87 -22t-100 -9q-88 0 -157.5 24.5t-118.5 73t-75.5 121t-26.5 167.5q0 78 16 160t48 160.5t80 147.5t112.5 121.5t146 82.5t179.5 30q37 0 71 -4.5t65 -14t59 -23.5
t45 -27t24 -23t7 -28zM991 1241q9 -13 11 -23t-4.5 -17t-22 -10.5t-41.5 -3.5q-21 0 -33.5 1.5t-20.5 4.5t-13.5 9t-10.5 14l-108 174l-181 -174q-9 -8 -17 -13.5t-18 -9t-24 -5t-33 -1.5q-28 0 -43.5 3.5t-20 10.5t0.5 17.5t21 24.5l230 220q8 7 15.5 12t18.5 8.5t27.5 5
t41.5 1.5q22 0 35.5 -1.5t23 -5t15 -8.5t10.5 -12zM124 1056z" />
    <glyph glyph-name="Ccaron.c2sc" horiz-adv-x="939" 
d="M958 952q0 -6 -1.5 -16l-3.5 -23t-5 -26.5t-8 -24t-11.5 -17.5t-13.5 -7q-12 0 -28 14t-41.5 31.5t-65.5 31.5t-101 14q-66 0 -120.5 -25.5t-97.5 -67t-76 -97t-54.5 -116t-32 -121.5t-10.5 -115q0 -63 16 -111t46 -80.5t73 -49.5t97 -17q61 0 105.5 13.5t76 29.5
t52.5 30t36 14q11 0 15 -6.5t4 -19.5q0 -10 -2.5 -27.5t-7.5 -36t-11.5 -35t-16 -26t-36 -23.5t-65.5 -27t-87 -22t-100 -9q-88 0 -157.5 24.5t-118.5 73t-75.5 121t-26.5 167.5q0 78 16 160t48 160.5t80 147.5t112.5 121.5t146 82.5t179.5 30q37 0 71 -4.5t65 -14t59 -23.5
t45 -27t24 -23t7 -28zM807 1215q-8 -9 -16 -14t-19.5 -8t-28 -4.5t-41.5 -1.5q-22 0 -35.5 1.5t-22.5 5t-14.5 8.5t-9.5 12l-141 221q-10 14 -13 24t3 17t20.5 10.5t41.5 3.5q22 0 36 -1.5t23 -5t14.5 -9t10.5 -13.5l107 -174l177 174q8 8 16.5 13.5t19 9t24.5 5t34 1.5
q28 0 44 -2.5t21 -8.5t-0.5 -16.5t-22.5 -27.5zM132 1056z" />
    <glyph glyph-name="Cdotaccent.c2sc" horiz-adv-x="939" 
d="M958 952q0 -6 -1.5 -16l-3.5 -23t-5 -26.5t-8 -24t-11.5 -17.5t-13.5 -7q-12 0 -28 14t-41.5 31.5t-65.5 31.5t-101 14q-66 0 -120.5 -25.5t-97.5 -67t-76 -97t-54.5 -116t-32 -121.5t-10.5 -115q0 -63 16 -111t46 -80.5t73 -49.5t97 -17q61 0 105.5 13.5t76 29.5
t52.5 30t36 14q11 0 15 -6.5t4 -19.5q0 -10 -2.5 -27.5t-7.5 -36t-11.5 -35t-16 -26t-36 -23.5t-65.5 -27t-87 -22t-100 -9q-88 0 -157.5 24.5t-118.5 73t-75.5 121t-26.5 167.5q0 78 16 160t48 160.5t80 147.5t112.5 121.5t146 82.5t179.5 30q37 0 71 -4.5t65 -14t59 -23.5
t45 -27t24 -23t7 -28zM638 1316q5 26 14 44.5t23 30.5t34.5 17t48.5 5q27 0 45 -5t27.5 -17t10.5 -30.5t-4 -44.5t-14 -44.5t-22.5 -30t-34 -17t-48.5 -5.5t-46 5.5t-27 17t-10 30t3 44.5zM337 1056z" />
    <glyph glyph-name="Ccedilla.c2sc" horiz-adv-x="939" 
d="M389 -8q-104 21 -166.5 75.5t-90 131t-27.5 171.5q0 78 16 160t48 160.5t80 147.5t112.5 121.5t146 82.5t179.5 30q37 0 71 -4.5t65 -14t59 -23.5t45 -27t24 -23t7 -28q0 -6 -1.5 -16l-3.5 -23t-5 -26.5t-8 -24t-11.5 -17.5t-13.5 -7q-12 0 -28 14t-41.5 31.5t-65.5 31.5
t-101 14q-66 0 -120.5 -25.5t-97.5 -67t-76 -97t-54.5 -116t-32 -121.5t-10.5 -115q0 -63 16 -111t46 -80.5t73 -49.5t97 -17q61 0 105.5 13.5t76 29.5t52.5 30t36 14q11 0 15 -6.5t4 -19.5q0 -10 -2.5 -27.5t-7.5 -36t-11.5 -35t-16 -26t-41 -26t-84 -32t-116.5 -21.5
l15 -60q9 -33 14 -56.5t5 -44.5q0 -49 -16 -85t-44 -59t-69 -34.5t-91 -11.5q-25 0 -51 2t-47.5 6t-37 8.5t-22.5 8.5q-5 3 -7.5 8t-2.5 14q0 10 2.5 23t7 25t12.5 20.5t20 8.5h123q16 0 31 3.5t26.5 11.5t18 21.5t6.5 33.5q0 10 -2 26t-6 32z" />
    <glyph glyph-name="D.c2sc" horiz-adv-x="1125" 
d="M1044 674q0 -74 -13 -152t-43.5 -153t-79 -142t-119 -117.5t-165 -80t-236.5 -29.5h-262q-11 0 -21 3t-17 10t-9.5 19.5t2.5 29.5l185 932q7 33 27 47.5t48 14.5h241q131 0 213.5 -25.5t137.5 -74.5t83 -120t28 -162zM868 659q0 57 -16 105.5t-51 83.5t-89 54t-150 19
h-140l-158 -786h140q102 0 166.5 23t114 62.5t84 92t57 110.5t32.5 119t10 117z" />
    <glyph glyph-name="Dcaron.c2sc" horiz-adv-x="1125" 
d="M1044 674q0 -74 -13 -152t-43.5 -153t-79 -142t-119 -117.5t-165 -80t-236.5 -29.5h-262q-11 0 -21 3t-17 10t-9.5 19.5t2.5 29.5l185 932q7 33 27 47.5t48 14.5h241q131 0 213.5 -25.5t137.5 -74.5t83 -120t28 -162zM868 659q0 57 -16 105.5t-51 83.5t-89 54t-150 19
h-140l-158 -786h140q102 0 166.5 23t114 62.5t84 92t57 110.5t32.5 119t10 117zM762 1215q-8 -9 -16 -14t-19.5 -8t-28 -4.5t-41.5 -1.5q-22 0 -35.5 1.5t-22.5 5t-14.5 8.5t-9.5 12l-141 221q-10 14 -13 24t3 17t20.5 10.5t41.5 3.5q22 0 36 -1.5t23 -5t14.5 -9t10.5 -13.5
l107 -174l177 174q8 8 16.5 13.5t19 9t24.5 5t34 1.5q28 0 44 -2.5t21 -8.5t-0.5 -16.5t-22.5 -27.5zM87 1056z" />
    <glyph glyph-name="Dcroat.c2sc" horiz-adv-x="1143" 
d="M1060 671q0 -62 -11.5 -136t-39.5 -148.5t-74.5 -144.5t-117.5 -123.5t-168 -86t-236 -32.5h-274q-10 0 -19.5 3.5t-16 11t-9 19.5t0.5 28l85 420h-100q-9 0 -14 6.5t-5 22.5q0 4 1 14t3 21.5t5.5 23.5t8.5 22t12.5 16.5t16.5 6.5h98l76 379q6 33 26.5 47.5t42.5 14.5
h255q141 0 226 -33t136 -87t71.5 -123.5t20.5 -141.5zM884 662q0 55 -16 102.5t-50.5 82.5t-89 55t-143.5 20h-150l-61 -307h184q10 0 14.5 -8t4.5 -23q0 -7 -1 -17t-3.5 -21t-6 -22.5t-9 -21t-12 -15t-14.5 -5.5h-183l-69 -348h150q95 0 160.5 24.5t115 66t83.5 95
t55.5 112t31 118t9.5 112.5z" />
    <glyph glyph-name="Eth.c2sc" horiz-adv-x="1143" 
d="M1060 671q0 -62 -11.5 -136t-39.5 -148.5t-74.5 -144.5t-117.5 -123.5t-168 -86t-236 -32.5h-274q-10 0 -19.5 3.5t-16 11t-9 19.5t0.5 28l85 420h-100q-9 0 -14 6.5t-5 22.5q0 4 1 14t3 21.5t5.5 23.5t8.5 22t12.5 16.5t16.5 6.5h98l76 379q6 33 26.5 47.5t42.5 14.5
h255q141 0 226 -33t136 -87t71.5 -123.5t20.5 -141.5zM884 662q0 55 -16 102.5t-50.5 82.5t-89 55t-143.5 20h-150l-61 -307h184q10 0 14.5 -8t4.5 -23q0 -7 -1 -17t-3.5 -21t-6 -22.5t-9 -21t-12 -15t-14.5 -5.5h-183l-69 -348h150q95 0 160.5 24.5t115 66t83.5 95
t55.5 112t31 118t9.5 112.5z" />
    <glyph glyph-name="E.c2sc" horiz-adv-x="896" 
d="M885 1027q0 -7 -1 -17.5t-3.5 -22.5t-6 -23t-8.5 -21t-12 -15.5t-16 -5.5h-416l-62 -308h359q21 0 21 -30q0 -8 -1 -18t-3.5 -22t-6.5 -23t-9.5 -20t-12.5 -14.5t-15 -5.5h-359l-69 -347h423q20 0 20 -27q0 -6 -1 -16.5t-3.5 -23t-6.5 -24.5t-9.5 -21.5t-12 -15.5
t-14.5 -6h-534q-12 0 -21.5 3.5t-16 11t-9 19.5t1.5 28l185 932q7 33 26.5 47.5t44.5 14.5h528q11 0 15.5 -8t4.5 -21z" />
    <glyph glyph-name="Egrave.c2sc" horiz-adv-x="896" 
d="M885 1027q0 -7 -1 -17.5t-3.5 -22.5t-6 -23t-8.5 -21t-12 -15.5t-16 -5.5h-416l-62 -308h359q21 0 21 -30q0 -8 -1 -18t-3.5 -22t-6.5 -23t-9.5 -20t-12.5 -14.5t-15 -5.5h-359l-69 -347h423q20 0 20 -27q0 -6 -1 -16.5t-3.5 -23t-6.5 -24.5t-9.5 -21.5t-12 -15.5
t-14.5 -6h-534q-12 0 -21.5 3.5t-16 11t-9 19.5t1.5 28l185 932q7 33 26.5 47.5t44.5 14.5h528q11 0 15.5 -8t4.5 -21zM684 1230q6 -11 7 -19t-4 -13t-18.5 -8t-35.5 -3q-20 0 -33 1t-22.5 4.5t-15.5 9.5t-14 17l-171 225q-7 10 -7 18.5t7.5 14.5t25 9.5t45.5 3.5
q24 0 40.5 -1t27.5 -5t18 -11.5t13 -18.5zM45 1056z" />
    <glyph glyph-name="Eacute.c2sc" horiz-adv-x="896" 
d="M885 1027q0 -7 -1 -17.5t-3.5 -22.5t-6 -23t-8.5 -21t-12 -15.5t-16 -5.5h-416l-62 -308h359q21 0 21 -30q0 -8 -1 -18t-3.5 -22t-6.5 -23t-9.5 -20t-12.5 -14.5t-15 -5.5h-359l-69 -347h423q20 0 20 -27q0 -6 -1 -16.5t-3.5 -23t-6.5 -24.5t-9.5 -21.5t-12 -15.5
t-14.5 -6h-534q-12 0 -21.5 3.5t-16 11t-9 19.5t1.5 28l185 932q7 33 26.5 47.5t44.5 14.5h528q11 0 15.5 -8t4.5 -21zM657 1219q-7 -10 -13 -16t-15.5 -9.5t-22.5 -5t-33 -1.5q-22 0 -35 3t-18 8t-3 13t9 19l153 224q7 10 15.5 17.5t20 11.5t28.5 5.5t42 1.5
q28 0 44.5 -3.5t23 -9.5t5 -14.5t-9.5 -18.5zM233 1056z" />
    <glyph glyph-name="Ecircumflex.c2sc" horiz-adv-x="896" 
d="M885 1027q0 -7 -1 -17.5t-3.5 -22.5t-6 -23t-8.5 -21t-12 -15.5t-16 -5.5h-416l-62 -308h359q21 0 21 -30q0 -8 -1 -18t-3.5 -22t-6.5 -23t-9.5 -20t-12.5 -14.5t-15 -5.5h-359l-69 -347h423q20 0 20 -27q0 -6 -1 -16.5t-3.5 -23t-6.5 -24.5t-9.5 -21.5t-12 -15.5
t-14.5 -6h-534q-12 0 -21.5 3.5t-16 11t-9 19.5t1.5 28l185 932q7 33 26.5 47.5t44.5 14.5h528q11 0 15.5 -8t4.5 -21zM899 1241q9 -13 11 -23t-4.5 -17t-22 -10.5t-41.5 -3.5q-21 0 -33.5 1.5t-20.5 4.5t-13.5 9t-10.5 14l-108 174l-181 -174q-9 -8 -17 -13.5t-18 -9
t-24 -5t-33 -1.5q-28 0 -43.5 3.5t-20 10.5t0.5 17.5t21 24.5l230 220q8 7 15.5 12t18.5 8.5t27.5 5t41.5 1.5q22 0 35.5 -1.5t23 -5t15 -8.5t10.5 -12zM32 1056z" />
    <glyph glyph-name="Ecaron.c2sc" horiz-adv-x="896" 
d="M885 1027q0 -7 -1 -17.5t-3.5 -22.5t-6 -23t-8.5 -21t-12 -15.5t-16 -5.5h-416l-62 -308h359q21 0 21 -30q0 -8 -1 -18t-3.5 -22t-6.5 -23t-9.5 -20t-12.5 -14.5t-15 -5.5h-359l-69 -347h423q20 0 20 -27q0 -6 -1 -16.5t-3.5 -23t-6.5 -24.5t-9.5 -21.5t-12 -15.5
t-14.5 -6h-534q-12 0 -21.5 3.5t-16 11t-9 19.5t1.5 28l185 932q7 33 26.5 47.5t44.5 14.5h528q11 0 15.5 -8t4.5 -21zM706 1215q-8 -9 -16 -14t-19.5 -8t-28 -4.5t-41.5 -1.5q-22 0 -35.5 1.5t-22.5 5t-14.5 8.5t-9.5 12l-141 221q-10 14 -13 24t3 17t20.5 10.5t41.5 3.5
q22 0 36 -1.5t23 -5t14.5 -9t10.5 -13.5l107 -174l177 174q8 8 16.5 13.5t19 9t24.5 5t34 1.5q28 0 44 -2.5t21 -8.5t-0.5 -16.5t-22.5 -27.5zM31 1056z" />
    <glyph glyph-name="Edieresis.c2sc" horiz-adv-x="896" 
d="M885 1027q0 -7 -1 -17.5t-3.5 -22.5t-6 -23t-8.5 -21t-12 -15.5t-16 -5.5h-416l-62 -308h359q21 0 21 -30q0 -8 -1 -18t-3.5 -22t-6.5 -23t-9.5 -20t-12.5 -14.5t-15 -5.5h-359l-69 -347h423q20 0 20 -27q0 -6 -1 -16.5t-3.5 -23t-6.5 -24.5t-9.5 -21.5t-12 -15.5
t-14.5 -6h-534q-12 0 -21.5 3.5t-16 11t-9 19.5t1.5 28l185 932q7 33 26.5 47.5t44.5 14.5h528q11 0 15.5 -8t4.5 -21zM917 1317q-4 -28 -12.5 -46t-22 -29t-33 -16t-45.5 -5t-43 5t-25.5 16t-9.5 29t3 46q4 26 12.5 44.5t22 29.5t32.5 15.5t44 4.5q27 0 44 -4.5t26 -15.5
t10.5 -29.5t-3.5 -44.5zM535 1317q-4 -28 -12.5 -46t-22 -29t-32.5 -16t-46 -5q-26 0 -43 5t-25.5 16t-9.5 29t3 46q5 26 13 44.5t21.5 29.5t32 15.5t45.5 4.5q26 0 42.5 -4.5t25.5 -15.5t10.5 -29.5t-2.5 -44.5zM44 1056z" />
    <glyph glyph-name="Emacron.c2sc" horiz-adv-x="896" 
d="M885 1027q0 -7 -1 -17.5t-3.5 -22.5t-6 -23t-8.5 -21t-12 -15.5t-16 -5.5h-416l-62 -308h359q21 0 21 -30q0 -8 -1 -18t-3.5 -22t-6.5 -23t-9.5 -20t-12.5 -14.5t-15 -5.5h-359l-69 -347h423q20 0 20 -27q0 -6 -1 -16.5t-3.5 -23t-6.5 -24.5t-9.5 -21.5t-12 -15.5
t-14.5 -6h-534q-12 0 -21.5 3.5t-16 11t-9 19.5t1.5 28l185 932q7 33 26.5 47.5t44.5 14.5h528q11 0 15.5 -8t4.5 -21zM923 1357q0 -6 -1 -16.5t-4 -21.5t-6.5 -22.5t-9 -20t-13 -14.5t-15.5 -6h-512q-15 0 -20 9t-5 24q0 6 1 16t4 20.5t7 21.5t9.5 20t13 14.5t16.5 5.5h512
q11 0 17 -8.5t6 -21.5zM38 1056z" />
    <glyph glyph-name="Ebreve.c2sc" horiz-adv-x="896" 
d="M885 1027q0 -7 -1 -17.5t-3.5 -22.5t-6 -23t-8.5 -21t-12 -15.5t-16 -5.5h-416l-62 -308h359q21 0 21 -30q0 -8 -1 -18t-3.5 -22t-6.5 -23t-9.5 -20t-12.5 -14.5t-15 -5.5h-359l-69 -347h423q20 0 20 -27q0 -6 -1 -16.5t-3.5 -23t-6.5 -24.5t-9.5 -21.5t-12 -15.5
t-14.5 -6h-534q-12 0 -21.5 3.5t-16 11t-9 19.5t1.5 28l185 932q7 33 26.5 47.5t44.5 14.5h528q11 0 15.5 -8t4.5 -21zM914 1467q0 -11 -4.5 -36t-17 -55.5t-34 -63t-55.5 -59.5t-82 -44.5t-112 -17.5q-65 0 -108 15.5t-69 41.5t-36.5 60.5t-10.5 72.5q0 10 1.5 24.5
t3.5 28.5t5.5 25.5t6.5 15.5q8 7 22 10t34 3q16 0 27 -1.5t17 -4.5t8.5 -7.5t2.5 -9.5q0 -11 -1.5 -24t-1.5 -27q0 -23 5.5 -42.5t18 -33t33.5 -21.5t52 -8q29 0 56.5 8t50.5 26t40.5 46.5t28.5 69.5q1 7 5 12.5t11 9t18.5 5.5t29.5 2t29 -1.5t17 -4t7.5 -6.5t1.5 -9z
M64 1056z" />
    <glyph glyph-name="Edotaccent.c2sc" horiz-adv-x="896" 
d="M885 1027q0 -7 -1 -17.5t-3.5 -22.5t-6 -23t-8.5 -21t-12 -15.5t-16 -5.5h-416l-62 -308h359q21 0 21 -30q0 -8 -1 -18t-3.5 -22t-6.5 -23t-9.5 -20t-12.5 -14.5t-15 -5.5h-359l-69 -347h423q20 0 20 -27q0 -6 -1 -16.5t-3.5 -23t-6.5 -24.5t-9.5 -21.5t-12 -15.5
t-14.5 -6h-534q-12 0 -21.5 3.5t-16 11t-9 19.5t1.5 28l185 932q7 33 26.5 47.5t44.5 14.5h528q11 0 15.5 -8t4.5 -21zM537 1316q5 26 14 44.5t23 30.5t34.5 17t48.5 5q27 0 45 -5t27.5 -17t10.5 -30.5t-4 -44.5t-14 -44.5t-22.5 -30t-34 -17t-48.5 -5.5t-46 5.5t-27 17
t-10 30t3 44.5zM236 1056z" />
    <glyph glyph-name="Eogonek.c2sc" horiz-adv-x="896" 
d="M707 107q0 -12 -2.5 -26.5t-7.5 -29.5t-12.5 -28.5t-18.5 -22.5l-127 -103q-37 -31 -55 -53.5t-18 -47.5q0 -16 12.5 -26.5t45.5 -10.5h114q13 0 17.5 -5t4.5 -15q0 -6 -1.5 -16.5t-4 -22t-6.5 -21t-8 -13.5q-7 -6 -22.5 -11.5t-36.5 -10t-45.5 -7t-47.5 -2.5
q-95 0 -142.5 32.5t-47.5 95.5q0 19 5 38.5t17.5 42t34.5 46.5t56 53l72 57h-358q-11 0 -20.5 3.5t-16 11t-9 19.5t1.5 28l185 932q8 33 27 47.5t44 14.5h528q11 0 15.5 -8t4.5 -21q0 -7 -1 -17.5t-3.5 -22.5t-6 -23t-8.5 -21t-12 -15.5t-16 -5.5h-416l-62 -308h359
q21 0 21 -30q0 -7 -1 -17t-3.5 -21.5t-6 -23t-9.5 -20.5t-13 -15t-15 -6h-359l-69 -347h423q20 0 20 -27z" />
    <glyph glyph-name="F.c2sc" horiz-adv-x="848" 
d="M862 1027q0 -8 -1 -19t-3 -23t-6.5 -23.5t-9.5 -21t-12 -15.5t-16 -6h-393l-65 -332h365q21 0 21 -32q0 -7 -1.5 -17.5t-4 -22t-6 -23t-9 -20.5t-12 -14.5t-14.5 -5.5h-367l-85 -428q-2 -7 -7.5 -12.5t-16 -9.5t-27.5 -6t-42 -2q-24 0 -40 2t-24.5 6t-11.5 9.5t-1 12.5
l193 970q6 33 26.5 47.5t42.5 14.5h508q10 0 14.5 -7.5t4.5 -21.5z" />
    <glyph glyph-name="G.c2sc" horiz-adv-x="1154" 
d="M1098 943q0 -6 -1 -16t-3 -21.5t-5.5 -23.5t-8.5 -21t-11.5 -15.5t-13.5 -6.5q-13 0 -35 15t-57.5 32.5t-87.5 32t-120 14.5q-78 0 -141.5 -21t-115.5 -58t-92 -87.5t-67.5 -108.5t-41.5 -122t-14 -128q0 -69 20 -122t57 -88.5t91.5 -54t125.5 -18.5q52 0 104 10t97 32
l58 287h-237q-10 0 -16 7t-6 21q0 10 3 28t8.5 34t14.5 28.5t20 12.5h354q24 0 35 -16.5t5 -44.5l-82 -414q-4 -20 -15 -34t-28 -21q-75 -35 -161 -54t-171 -19q-111 0 -195.5 27.5t-141.5 79.5t-86.5 128t-29.5 172q0 87 19.5 171.5t57.5 160.5t94 140.5t128.5 111t161 73
t197.5 26.5q85 0 158 -19t118.5 -44.5t51 -38t5.5 -27.5z" />
    <glyph glyph-name="Gcircumflex.c2sc" horiz-adv-x="1154" 
d="M1098 943q0 -6 -1 -16t-3 -21.5t-5.5 -23.5t-8.5 -21t-11.5 -15.5t-13.5 -6.5q-13 0 -35 15t-57.5 32.5t-87.5 32t-120 14.5q-78 0 -141.5 -21t-115.5 -58t-92 -87.5t-67.5 -108.5t-41.5 -122t-14 -128q0 -69 20 -122t57 -88.5t91.5 -54t125.5 -18.5q52 0 104 10t97 32
l58 287h-237q-10 0 -16 7t-6 21q0 10 3 28t8.5 34t14.5 28.5t20 12.5h354q24 0 35 -16.5t5 -44.5l-82 -414q-4 -20 -15 -34t-28 -21q-75 -35 -161 -54t-171 -19q-111 0 -195.5 27.5t-141.5 79.5t-86.5 128t-29.5 172q0 87 19.5 171.5t57.5 160.5t94 140.5t128.5 111t161 73
t197.5 26.5q85 0 158 -19t118.5 -44.5t51 -38t5.5 -27.5zM1051 1241q9 -13 11 -23t-4.5 -17t-22 -10.5t-41.5 -3.5q-21 0 -33.5 1.5t-20.5 4.5t-13.5 9t-10.5 14l-108 174l-181 -174q-9 -8 -17 -13.5t-18 -9t-24 -5t-33 -1.5q-28 0 -43.5 3.5t-20 10.5t0.5 17.5t21 24.5
l230 220q8 7 15.5 12t18.5 8.5t27.5 5t41.5 1.5q22 0 35.5 -1.5t23 -5t15 -8.5t10.5 -12zM184 1056z" />
    <glyph glyph-name="Gbreve.c2sc" horiz-adv-x="1154" 
d="M1098 943q0 -6 -1 -16t-3 -21.5t-5.5 -23.5t-8.5 -21t-11.5 -15.5t-13.5 -6.5q-13 0 -35 15t-57.5 32.5t-87.5 32t-120 14.5q-78 0 -141.5 -21t-115.5 -58t-92 -87.5t-67.5 -108.5t-41.5 -122t-14 -128q0 -69 20 -122t57 -88.5t91.5 -54t125.5 -18.5q52 0 104 10t97 32
l58 287h-237q-10 0 -16 7t-6 21q0 10 3 28t8.5 34t14.5 28.5t20 12.5h354q24 0 35 -16.5t5 -44.5l-82 -414q-4 -20 -15 -34t-28 -21q-75 -35 -161 -54t-171 -19q-111 0 -195.5 27.5t-141.5 79.5t-86.5 128t-29.5 172q0 87 19.5 171.5t57.5 160.5t94 140.5t128.5 111t161 73
t197.5 26.5q85 0 158 -19t118.5 -44.5t51 -38t5.5 -27.5zM1075 1467q0 -11 -4.5 -36t-17 -55.5t-34 -63t-55.5 -59.5t-82 -44.5t-112 -17.5q-65 0 -108 15.5t-69 41.5t-36.5 60.5t-10.5 72.5q0 10 1.5 24.5t3.5 28.5t5.5 25.5t6.5 15.5q8 7 22 10t34 3q16 0 27 -1.5t17 -4.5
t8.5 -7.5t2.5 -9.5q0 -11 -1.5 -24t-1.5 -27q0 -23 5.5 -42.5t18 -33t33.5 -21.5t52 -8q29 0 56.5 8t50.5 26t40.5 46.5t28.5 69.5q1 7 5 12.5t11 9t18.5 5.5t29.5 2t29 -1.5t17 -4t7.5 -6.5t1.5 -9zM225 1056z" />
    <glyph glyph-name="Gdotaccent.c2sc" horiz-adv-x="1154" 
d="M1098 943q0 -6 -1 -16t-3 -21.5t-5.5 -23.5t-8.5 -21t-11.5 -15.5t-13.5 -6.5q-13 0 -35 15t-57.5 32.5t-87.5 32t-120 14.5q-78 0 -141.5 -21t-115.5 -58t-92 -87.5t-67.5 -108.5t-41.5 -122t-14 -128q0 -69 20 -122t57 -88.5t91.5 -54t125.5 -18.5q52 0 104 10t97 32
l58 287h-237q-10 0 -16 7t-6 21q0 10 3 28t8.5 34t14.5 28.5t20 12.5h354q24 0 35 -16.5t5 -44.5l-82 -414q-4 -20 -15 -34t-28 -21q-75 -35 -161 -54t-171 -19q-111 0 -195.5 27.5t-141.5 79.5t-86.5 128t-29.5 172q0 87 19.5 171.5t57.5 160.5t94 140.5t128.5 111t161 73
t197.5 26.5q85 0 158 -19t118.5 -44.5t51 -38t5.5 -27.5zM696 1316q5 26 14 44.5t23 30.5t34.5 17t48.5 5q27 0 45 -5t27.5 -17t10.5 -30.5t-4 -44.5t-14 -44.5t-22.5 -30t-34 -17t-48.5 -5.5t-46 5.5t-27 17t-10 30t3 44.5zM395 1056z" />
    <glyph glyph-name="Gcommaaccent.c2sc" horiz-adv-x="1154" 
d="M1098 943q0 -6 -1 -16t-3 -21.5t-5.5 -23.5t-8.5 -21t-11.5 -15.5t-13.5 -6.5q-13 0 -35 15t-57.5 32.5t-87.5 32t-120 14.5q-78 0 -141.5 -21t-115.5 -58t-92 -87.5t-67.5 -108.5t-41.5 -122t-14 -128q0 -69 20 -122t57 -88.5t91.5 -54t125.5 -18.5q52 0 104 10t97 32
l58 287h-237q-10 0 -16 7t-6 21q0 10 3 28t8.5 34t14.5 28.5t20 12.5h354q24 0 35 -16.5t5 -44.5l-82 -414q-4 -20 -15 -34t-28 -21q-75 -35 -161 -54t-171 -19q-111 0 -195.5 27.5t-141.5 79.5t-86.5 128t-29.5 172q0 87 19.5 171.5t57.5 160.5t94 140.5t128.5 111t161 73
t197.5 26.5q85 0 158 -19t118.5 -44.5t51 -38t5.5 -27.5zM441 -334q-7 -10 -13.5 -16t-16.5 -9t-24 -4.5t-35 -1.5q-20 0 -31 2.5t-15 7.5t-2 13t7 19l98 202q5 11 12 18.5t19 11.5t29.5 6t44.5 2q26 0 40.5 -3.5t20 -10t3.5 -15t-9 -19.5z" />
    <glyph glyph-name="H.c2sc" horiz-adv-x="1142" 
d="M892 23q-2 -7 -8 -12.5t-16.5 -9t-27.5 -5.5t-42 -2q-24 0 -39 2t-24 5.5t-12 9t-1 12.5l91 454h-480l-91 -454q-2 -7 -7.5 -12.5t-16 -9t-27.5 -5.5t-41 -2t-40 2t-25 5.5t-11.5 9t-1.5 12.5l202 1011q1 6 6.5 11.5t16 9t27 5.5t40.5 2t40 -2t25 -5.5t12.5 -9t2.5 -11.5
l-83 -414h480l84 414q0 6 4.5 11.5t15 9t28.5 5.5t42 2t40.5 -2t25.5 -5.5t12 -9t2 -11.5z" />
    <glyph glyph-name="Hcircumflex.c2sc" horiz-adv-x="1142" 
d="M892 23q-2 -7 -8 -12.5t-16.5 -9t-27.5 -5.5t-42 -2q-24 0 -39 2t-24 5.5t-12 9t-1 12.5l91 454h-480l-91 -454q-2 -7 -7.5 -12.5t-16 -9t-27.5 -5.5t-41 -2t-40 2t-25 5.5t-11.5 9t-1.5 12.5l202 1011q1 6 6.5 11.5t16 9t27 5.5t40.5 2t40 -2t25 -5.5t12.5 -9t2.5 -11.5
l-83 -414h480l84 414q0 6 4.5 11.5t15 9t28.5 5.5t42 2t40.5 -2t25.5 -5.5t12 -9t2 -11.5zM1003 1241q9 -13 11 -23t-4.5 -17t-22 -10.5t-41.5 -3.5q-21 0 -33.5 1.5t-20.5 4.5t-13.5 9t-10.5 14l-108 174l-181 -174q-9 -8 -17 -13.5t-18 -9t-24 -5t-33 -1.5
q-28 0 -43.5 3.5t-20 10.5t0.5 17.5t21 24.5l230 220q8 7 15.5 12t18.5 8.5t27.5 5t41.5 1.5q22 0 35.5 -1.5t23 -5t15 -8.5t10.5 -12zM136 1056z" />
    <glyph glyph-name="Hbar.c2sc" horiz-adv-x="1181" 
d="M1168 872q12 0 17 -7.5t5 -22.5q0 -8 -2 -23.5t-7.5 -30t-14.5 -25.5t-22 -11h-85l-147 -729q-2 -7 -7 -12.5t-16 -9t-28 -5.5t-41 -2t-40 2t-24.5 5.5t-11.5 9t-1 12.5l87 433h-482l-87 -433q-2 -7 -7.5 -12.5t-16 -9t-27 -5.5t-40.5 -2t-40 2t-25.5 5.5t-12.5 9
t-1 12.5l146 729h-87q-9 0 -15 7.5t-6 22.5q0 5 1 13.5t2.5 18t5 20.5t8.5 19t11.5 13.5t15.5 5.5h87l33 162q1 6 6.5 11.5t16.5 9t27.5 5.5t41.5 2q24 0 39.5 -2t24.5 -5.5t12.5 -9t2.5 -11.5l-34 -162h482l33 162q2 6 6.5 11.5t14.5 9t27 5.5t41 2q25 0 41 -2t25 -5.5
t13 -9t2 -11.5l-33 -162h86zM407 752l-33 -164h482l33 164h-482z" />
    <glyph glyph-name="I.c2sc" horiz-adv-x="492" 
d="M242 23q-2 -7 -7 -12.5t-16 -9t-28 -5.5t-41 -2q-25 0 -41 2t-24.5 5.5t-11 9t-0.5 12.5l202 1011q1 6 6.5 11.5t16 9t27 5.5t40.5 2t40 -2t25 -5.5t12.5 -9t2.5 -11.5z" />
    <glyph glyph-name="Igrave.c2sc" horiz-adv-x="492" 
d="M242 23q-2 -7 -7 -12.5t-16 -9t-28 -5.5t-41 -2q-25 0 -41 2t-24.5 5.5t-11 9t-0.5 12.5l202 1011q1 6 6.5 11.5t16 9t27 5.5t40.5 2t40 -2t25 -5.5t12.5 -9t2.5 -11.5zM450 1230q6 -11 7 -19t-4 -13t-18.5 -8t-35.5 -3q-20 0 -33 1t-22.5 4.5t-15.5 9.5t-14 17l-171 225
q-7 10 -7 18.5t7.5 14.5t25 9.5t45.5 3.5q24 0 40.5 -1t27.5 -5t18 -11.5t13 -18.5zM-189 1056z" />
    <glyph glyph-name="Iacute.c2sc" horiz-adv-x="492" 
d="M242 23q-2 -7 -7 -12.5t-16 -9t-28 -5.5t-41 -2q-25 0 -41 2t-24.5 5.5t-11 9t-0.5 12.5l202 1011q1 6 6.5 11.5t16 9t27 5.5t40.5 2t40 -2t25 -5.5t12.5 -9t2.5 -11.5zM452 1219q-7 -10 -13 -16t-15.5 -9.5t-22.5 -5t-33 -1.5q-22 0 -35 3t-18 8t-3 13t9 19l153 224
q7 10 15.5 17.5t20 11.5t28.5 5.5t42 1.5q28 0 44.5 -3.5t23 -9.5t5 -14.5t-9.5 -18.5zM28 1056z" />
    <glyph glyph-name="Icircumflex.c2sc" horiz-adv-x="492" 
d="M242 23q-2 -7 -7 -12.5t-16 -9t-28 -5.5t-41 -2q-25 0 -41 2t-24.5 5.5t-11 9t-0.5 12.5l202 1011q1 6 6.5 11.5t16 9t27 5.5t40.5 2t40 -2t25 -5.5t12.5 -9t2.5 -11.5zM683 1241q9 -13 11 -23t-4.5 -17t-22 -10.5t-41.5 -3.5q-21 0 -33.5 1.5t-20.5 4.5t-13.5 9
t-10.5 14l-108 174l-181 -174q-9 -8 -17 -13.5t-18 -9t-24 -5t-33 -1.5q-28 0 -43.5 3.5t-20 10.5t0.5 17.5t21 24.5l230 220q8 7 15.5 12t18.5 8.5t27.5 5t41.5 1.5q22 0 35.5 -1.5t23 -5t15 -8.5t10.5 -12zM-184 1056z" />
    <glyph glyph-name="Itilde.c2sc" horiz-adv-x="492" 
d="M242 23q-2 -7 -7 -12.5t-16 -9t-28 -5.5t-41 -2q-25 0 -41 2t-24.5 5.5t-11 9t-0.5 12.5l202 1011q1 6 6.5 11.5t16 9t27 5.5t40.5 2t40 -2t25 -5.5t12.5 -9t2.5 -11.5zM647 1418q1 6 4.5 10.5t11.5 7.5t20 4t29 1q31 0 41 -6.5t10 -19.5q0 -8 -2.5 -28t-10 -45t-21 -52
t-37 -48.5t-57.5 -36t-81 -14.5q-53 0 -91 19t-69 42l-59 42t-61 19q-42 0 -63 -29t-24 -71q-2 -7 -6.5 -11t-13 -6.5t-20 -3.5t-24.5 -1q-31 0 -42.5 5t-11.5 20q0 12 3.5 33.5t11.5 46.5t23.5 50.5t38.5 46.5t56 34.5t78 13.5q53 0 91 -19.5t69 -42.5l59 -42t60 -19
q36 0 59.5 24.5t28.5 75.5zM-217 1056z" />
    <glyph glyph-name="Idieresis.c2sc" horiz-adv-x="492" 
d="M242 23q-2 -7 -7 -12.5t-16 -9t-28 -5.5t-41 -2q-25 0 -41 2t-24.5 5.5t-11 9t-0.5 12.5l202 1011q1 6 6.5 11.5t16 9t27 5.5t40.5 2t40 -2t25 -5.5t12.5 -9t2.5 -11.5zM702 1317q-4 -28 -12.5 -46t-22 -29t-33 -16t-45.5 -5t-43 5t-25.5 16t-9.5 29t3 46q4 26 12.5 44.5
t22 29.5t32.5 15.5t44 4.5q27 0 44 -4.5t26 -15.5t10.5 -29.5t-3.5 -44.5zM320 1317q-4 -28 -12.5 -46t-22 -29t-32.5 -16t-46 -5q-26 0 -43 5t-25.5 16t-9.5 29t3 46q5 26 13 44.5t21.5 29.5t32 15.5t45.5 4.5q26 0 42.5 -4.5t25.5 -15.5t10.5 -29.5t-2.5 -44.5zM-171 1056
z" />
    <glyph glyph-name="Imacron.c2sc" horiz-adv-x="492" 
d="M242 23q-2 -7 -7 -12.5t-16 -9t-28 -5.5t-41 -2q-25 0 -41 2t-24.5 5.5t-11 9t-0.5 12.5l202 1011q1 6 6.5 11.5t16 9t27 5.5t40.5 2t40 -2t25 -5.5t12.5 -9t2.5 -11.5zM711 1357q0 -6 -1 -16.5t-4 -21.5t-6.5 -22.5t-9 -20t-13 -14.5t-15.5 -6h-512q-15 0 -20 9t-5 24
q0 6 1 16t4 20.5t7 21.5t9.5 20t13 14.5t16.5 5.5h512q11 0 17 -8.5t6 -21.5zM-174 1056z" />
    <glyph glyph-name="Ibreve.c2sc" horiz-adv-x="492" 
d="M242 23q-2 -7 -7 -12.5t-16 -9t-28 -5.5t-41 -2q-25 0 -41 2t-24.5 5.5t-11 9t-0.5 12.5l202 1011q1 6 6.5 11.5t16 9t27 5.5t40.5 2t40 -2t25 -5.5t12.5 -9t2.5 -11.5zM707 1467q0 -11 -4.5 -36t-17 -55.5t-34 -63t-55.5 -59.5t-82 -44.5t-112 -17.5q-65 0 -108 15.5
t-69 41.5t-36.5 60.5t-10.5 72.5q0 10 1.5 24.5t3.5 28.5t5.5 25.5t6.5 15.5q8 7 22 10t34 3q16 0 27 -1.5t17 -4.5t8.5 -7.5t2.5 -9.5q0 -11 -1.5 -24t-1.5 -27q0 -23 5.5 -42.5t18 -33t33.5 -21.5t52 -8q29 0 56.5 8t50.5 26t40.5 46.5t28.5 69.5q1 7 5 12.5t11 9
t18.5 5.5t29.5 2t29 -1.5t17 -4t7.5 -6.5t1.5 -9zM-143 1056z" />
    <glyph glyph-name="Idotaccent.c2sc" horiz-adv-x="492" 
d="M242 23q-2 -7 -7 -12.5t-16 -9t-28 -5.5t-41 -2q-25 0 -41 2t-24.5 5.5t-11 9t-0.5 12.5l202 1011q1 6 6.5 11.5t16 9t27 5.5t40.5 2t40 -2t25 -5.5t12.5 -9t2.5 -11.5zM318 1316q5 26 14 44.5t23 30.5t34.5 17t48.5 5q27 0 45 -5t27.5 -17t10.5 -30.5t-4 -44.5
t-14 -44.5t-22.5 -30t-34 -17t-48.5 -5.5t-46 5.5t-27 17t-10 30t3 44.5zM17 1056z" />
    <glyph glyph-name="Iogonek.c2sc" horiz-adv-x="492" 
d="M241 18q-3 -14 -8 -24.5t-15 -18.5l-98 -81q-18 -14 -30.5 -27t-21 -24.5t-12.5 -22t-4 -21.5q0 -16 12 -28t49 -12h113q15 0 19 -8t0 -32q-2 -11 -5 -21t-7.5 -18t-11 -14t-16.5 -9q-11 -4 -25.5 -7.5t-32 -7t-39 -5.5t-44.5 -2q-47 0 -81 10t-55.5 26t-32 38.5
t-10.5 47.5q0 28 8 53t22.5 47t34.5 43.5t46 42.5l77 64q-1 3 -1.5 5.5t1.5 9.5l202 1012q1 6 7 11.5t16.5 9t27.5 5.5t41 2q23 0 39 -2t25.5 -5.5t12 -9t1.5 -11.5z" />
    <glyph glyph-name="IJ.c2sc" horiz-adv-x="1051" 
d="M242 23q-2 -7 -7 -12.5t-16 -9t-28 -5.5t-41 -2q-25 0 -41 2t-24.5 5.5t-11 9t-0.5 12.5l202 1011q1 6 6.5 11.5t16 9t27 5.5t40.5 2t40 -2t25 -5.5t12.5 -9t2.5 -11.5zM850 261q-14 -62 -36 -112.5t-56 -87.5t-83 -57t-117 -20q-21 0 -39.5 1.5t-35.5 5t-32.5 9t-29 12
t-19 14.5t-5.5 22q0 6 1.5 16.5t4 24t6 27t8 25t10 19t11.5 7.5q10 0 19.5 -6t22 -13t29.5 -13t41 -6q29 0 50.5 8t37.5 25.5t27 46.5t19 71l151 754q2 6 7 11.5t16 9t27.5 5.5t41.5 2q23 0 39.5 -1.5t25 -5t12 -9t2.5 -12.5z" />
    <glyph glyph-name="J.c2sc" horiz-adv-x="574" 
d="M373 261q-14 -62 -36 -112.5t-56 -87.5t-83 -57t-117 -20q-21 0 -39.5 1.5t-35.5 5t-32.5 9t-29 12t-19 14.5t-5.5 22q0 6 1.5 16.5t4 24t6 27t8 25t10 19t11.5 7.5q10 0 19.5 -6t22 -13t29.5 -13t41 -6q29 0 50.5 8t37.5 25.5t27 46.5t19 71l151 754q2 6 7 11.5t16 9
t27.5 5.5t41.5 2q23 0 39.5 -1.5t25 -5t12 -9t2.5 -12.5z" />
    <glyph glyph-name="Jcircumflex.c2sc" horiz-adv-x="574" 
d="M373 261q-14 -62 -36 -112.5t-56 -87.5t-83 -57t-117 -20q-21 0 -39.5 1.5t-35.5 5t-32.5 9t-29 12t-19 14.5t-5.5 22q0 6 1.5 16.5t4 24t6 27t8 25t10 19t11.5 7.5q10 0 19.5 -6t22 -13t29.5 -13t41 -6q29 0 50.5 8t37.5 25.5t27 46.5t19 71l151 754q2 6 7 11.5t16 9
t27.5 5.5t41.5 2q23 0 39.5 -1.5t25 -5t12 -9t2.5 -12.5zM739 1241q9 -13 11 -23t-4.5 -17t-22 -10.5t-41.5 -3.5q-21 0 -33.5 1.5t-20.5 4.5t-13.5 9t-10.5 14l-108 174l-181 -174q-9 -8 -17 -13.5t-18 -9t-24 -5t-33 -1.5q-28 0 -43.5 3.5t-20 10.5t0.5 17.5t21 24.5
l230 220q8 7 15.5 12t18.5 8.5t27.5 5t41.5 1.5q22 0 35.5 -1.5t23 -5t15 -8.5t10.5 -12zM-128 1056z" />
    <glyph glyph-name="K.c2sc" horiz-adv-x="969" 
d="M995 1032q0 -5 -2 -11.5t-6 -14t-11.5 -15.5l-17.5 -19l-429 -407l273 -493q8 -16 11 -26.5t3 -17.5q0 -8 -4 -14.5t-13.5 -10.5t-27.5 -6.5t-46 -2.5q-27 0 -43.5 2t-26 5.5t-14 9.5t-7.5 13l-286 529l-106 -529q-2 -8 -7.5 -13.5t-16 -9t-27 -5.5t-41.5 -2q-24 0 -40 2
t-24.5 5.5t-11.5 9t-2 13.5l203 1010q1 6 6 11.5t16 9t27.5 5.5t40.5 2t39.5 -2t25 -5.5t13 -9t2.5 -11.5l-93 -459l455 458q8 8 15.5 13.5t19 9t27.5 5t41 1.5q26 0 42.5 -2t26 -5.5t13 -9.5t3.5 -13z" />
    <glyph glyph-name="Kcommaaccent.c2sc" horiz-adv-x="969" 
d="M995 1032q0 -5 -2 -11.5t-6 -14t-11.5 -15.5l-17.5 -19l-429 -407l273 -493q8 -16 11 -26.5t3 -17.5q0 -8 -4 -14.5t-13.5 -10.5t-27.5 -6.5t-46 -2.5q-27 0 -43.5 2t-26 5.5t-14 9.5t-7.5 13l-286 529l-106 -529q-2 -8 -7.5 -13.5t-16 -9t-27 -5.5t-41.5 -2q-24 0 -40 2
t-24.5 5.5t-11.5 9t-2 13.5l203 1010q1 6 6 11.5t16 9t27.5 5.5t40.5 2t39.5 -2t25 -5.5t13 -9t2.5 -11.5l-93 -459l455 458q8 8 15.5 13.5t19 9t27.5 5t41 1.5q26 0 42.5 -2t26 -5.5t13 -9.5t3.5 -13zM325 -334q-7 -10 -13.5 -16t-16.5 -9t-24 -4.5t-35 -1.5q-20 0 -31 2.5
t-15 7.5t-2 13t7 19l98 202q5 11 12 18.5t19 11.5t29.5 6t44.5 2q26 0 40.5 -3.5t20 -10t3.5 -15t-9 -19.5z" />
    <glyph glyph-name="L.c2sc" horiz-adv-x="736" 
d="M654 109q0 -4 -0.5 -13.5t-2.5 -22t-6 -25.5t-10 -23.5t-14 -17.5t-19 -7h-477q-11 0 -20.5 3.5t-16 11t-9 19.5t1.5 28l193 972q1 6 6.5 11.5t16.5 9t27 5.5t40 2t40 -2t25.5 -5.5t12.5 -9t2 -11.5l-178 -895h367q12 0 16.5 -8.5t4.5 -21.5z" />
    <glyph glyph-name="Lacute.c2sc" horiz-adv-x="736" 
d="M654 109q0 -4 -0.5 -13.5t-2.5 -22t-6 -25.5t-10 -23.5t-14 -17.5t-19 -7h-477q-11 0 -20.5 3.5t-16 11t-9 19.5t1.5 28l193 972q1 6 6.5 11.5t16.5 9t27 5.5t40 2t40 -2t25.5 -5.5t12.5 -9t2 -11.5l-178 -895h367q12 0 16.5 -8.5t4.5 -21.5zM559 1219q-7 -10 -13 -16
t-15.5 -9.5t-22.5 -5t-33 -1.5q-22 0 -35 3t-18 8t-3 13t9 19l153 224q7 10 15.5 17.5t20 11.5t28.5 5.5t42 1.5q28 0 44.5 -3.5t23 -9.5t5 -14.5t-9.5 -18.5zM135 1056z" />
    <glyph glyph-name="Lcaron.c2sc" horiz-adv-x="742" 
d="M654 109q0 -4 -0.5 -13.5t-2.5 -22t-6 -25.5t-10 -23.5t-14 -17.5t-19 -7h-477q-11 0 -20.5 3.5t-16 11t-9 19.5t1.5 28l193 972q1 6 6.5 11.5t16.5 9t27 5.5t40 2t40 -2t25.5 -5.5t12.5 -9t2 -11.5l-178 -895h367q12 0 16.5 -8.5t4.5 -21.5zM706 1002q-4 -7 -9.5 -11.5
t-14.5 -7t-22.5 -3.5t-34.5 -1q-14 0 -22.5 2t-12.5 6t-4.5 9.5t2.5 13.5l128 305q4 10 10.5 17t17.5 11t27 6t40 2q22 0 35.5 -2t19 -6.5t4.5 -11.5t-5 -17zM332 951z" />
    <glyph glyph-name="Lcommaaccent.c2sc" horiz-adv-x="736" 
d="M654 109q0 -4 -0.5 -13.5t-2.5 -22t-6 -25.5t-10 -23.5t-14 -17.5t-19 -7h-477q-11 0 -20.5 3.5t-16 11t-9 19.5t1.5 28l193 972q1 6 6.5 11.5t16.5 9t27 5.5t40 2t40 -2t25.5 -5.5t12.5 -9t2 -11.5l-178 -895h367q12 0 16.5 -8.5t4.5 -21.5zM274 -334q-7 -10 -13.5 -16
t-16.5 -9t-24 -4.5t-35 -1.5q-20 0 -31 2.5t-15 7.5t-2 13t7 19l98 202q5 11 12 18.5t19 11.5t29.5 6t44.5 2q26 0 40.5 -3.5t20 -10t3.5 -15t-9 -19.5z" />
    <glyph glyph-name="Lslash.c2sc" horiz-adv-x="752" 
d="M669 111q0 -5 -0.5 -15.5t-3 -23t-6 -25.5t-8.5 -23t-11.5 -17t-14.5 -7h-479q-28 0 -41.5 14.5t-7.5 47.5l72 365l-107 -62q-11 -6 -18 0t-7 25q0 5 1 14.5t3 21t5 23.5t8 22t10 18.5t12 12.5l121 68l93 464q2 6 7.5 11.5t16 9t27 5.5t40.5 2t39.5 -2t24.5 -5.5t12 -9
t3 -11.5l-74 -361l195 109q12 7 19.5 3t7.5 -21q0 -9 -3 -26.5t-8 -37t-12.5 -35.5t-16.5 -21l-209 -115l-78 -390h369q11 0 15 -6.5t4 -21.5z" />
    <glyph glyph-name="Ldot.c2sc" horiz-adv-x="981" 
d="M654 109q0 -4 -0.5 -13.5t-2.5 -22t-6 -25.5t-10 -23.5t-14 -17.5t-19 -7h-477q-11 0 -20.5 3.5t-16 11t-9 19.5t1.5 28l193 972q1 6 6.5 11.5t16.5 9t27 5.5t40 2t40 -2t25.5 -5.5t12.5 -9t2 -11.5l-178 -895h367q12 0 16.5 -8.5t4.5 -21.5zM912 633q0 -17 -3.5 -36.5
t-9 -39t-13.5 -36.5t-19 -27q-16 -17 -41 -22t-51 -5t-43.5 4t-28.5 13t-15 21t-4 29t3.5 36.5t9 39t13.5 36t17 24.5q13 13 34 21t60 8q29 0 47 -5t27.5 -13.5t13 -20.5t3.5 -27z" />
    <glyph glyph-name="M.c2sc" horiz-adv-x="1542" 
d="M1292 23q-1 -7 -5.5 -12.5t-15 -9t-26.5 -5.5t-40 -2t-39.5 2t-24 5.5t-11.5 9t-2 12.5l177 887h-2l-548 -892q-3 -5 -8.5 -9.5t-15.5 -8t-25 -5t-37 -1.5q-21 0 -34.5 2t-22.5 5t-13 7t-5 10l-180 892h-2l-177 -887q-2 -7 -6.5 -12.5t-14.5 -9t-26.5 -5.5t-40.5 -2
q-25 0 -40 2t-23.5 5.5t-11 9t-0.5 12.5l194 967q6 34 27.5 50t47.5 16h105q26 0 45.5 -5t33.5 -17t23 -32.5t15 -51.5l152 -715h4l454 720q16 29 32 48t34.5 31t41 17t53.5 5h104q25 0 40.5 -16t7.5 -50z" />
    <glyph glyph-name="N.c2sc" horiz-adv-x="1145" 
d="M904 66q-9 -34 -29.5 -50t-46.5 -16h-101q-26 0 -41 14.5t-26 50.5l-169 523l-24.5 77t-24 81.5l-23.5 82t-22 78.5h-2q-6 -38 -13 -77l-14.5 -78.5l-14.5 -78t-14 -72.5l-116 -578q-1 -7 -5 -12.5t-13.5 -9t-24.5 -5.5t-37 -2q-24 0 -38.5 2t-22.5 5.5t-10 9t0 12.5
l195 967q6 34 27.5 50t47.5 16h125q24 0 40.5 -15.5t25.5 -47.5l152 -476l24.5 -78.5l25 -81l24 -81l22.5 -78.5h2l14.5 79.5l15 81.5l15.5 82l16 83l101 510q1 6 5.5 11.5t13.5 9t24.5 5.5t38.5 2q22 0 36 -2t22.5 -5.5t11 -9t0.5 -11.5z" />
    <glyph glyph-name="Nacute.c2sc" horiz-adv-x="1145" 
d="M904 66q-9 -34 -29.5 -50t-46.5 -16h-101q-26 0 -41 14.5t-26 50.5l-169 523l-24.5 77t-24 81.5l-23.5 82t-22 78.5h-2q-6 -38 -13 -77l-14.5 -78.5l-14.5 -78t-14 -72.5l-116 -578q-1 -7 -5 -12.5t-13.5 -9t-24.5 -5.5t-37 -2q-24 0 -38.5 2t-22.5 5.5t-10 9t0 12.5
l195 967q6 34 27.5 50t47.5 16h125q24 0 40.5 -15.5t25.5 -47.5l152 -476l24.5 -78.5l25 -81l24 -81l22.5 -78.5h2l14.5 79.5l15 81.5l15.5 82l16 83l101 510q1 6 5.5 11.5t13.5 9t24.5 5.5t38.5 2q22 0 36 -2t22.5 -5.5t11 -9t0.5 -11.5zM822 1219q-7 -10 -13 -16
t-15.5 -9.5t-22.5 -5t-33 -1.5q-22 0 -35 3t-18 8t-3 13t9 19l153 224q7 10 15.5 17.5t20 11.5t28.5 5.5t42 1.5q28 0 44.5 -3.5t23 -9.5t5 -14.5t-9.5 -18.5zM398 1056z" />
    <glyph glyph-name="Ncaron.c2sc" horiz-adv-x="1145" 
d="M904 66q-9 -34 -29.5 -50t-46.5 -16h-101q-26 0 -41 14.5t-26 50.5l-169 523l-24.5 77t-24 81.5l-23.5 82t-22 78.5h-2q-6 -38 -13 -77l-14.5 -78.5l-14.5 -78t-14 -72.5l-116 -578q-1 -7 -5 -12.5t-13.5 -9t-24.5 -5.5t-37 -2q-24 0 -38.5 2t-22.5 5.5t-10 9t0 12.5
l195 967q6 34 27.5 50t47.5 16h125q24 0 40.5 -15.5t25.5 -47.5l152 -476l24.5 -78.5l25 -81l24 -81l22.5 -78.5h2l14.5 79.5l15 81.5l15.5 82l16 83l101 510q1 6 5.5 11.5t13.5 9t24.5 5.5t38.5 2q22 0 36 -2t22.5 -5.5t11 -9t0.5 -11.5zM828 1215q-8 -9 -16 -14t-19.5 -8
t-28 -4.5t-41.5 -1.5q-22 0 -35.5 1.5t-22.5 5t-14.5 8.5t-9.5 12l-141 221q-10 14 -13 24t3 17t20.5 10.5t41.5 3.5q22 0 36 -1.5t23 -5t14.5 -9t10.5 -13.5l107 -174l177 174q8 8 16.5 13.5t19 9t24.5 5t34 1.5q28 0 44 -2.5t21 -8.5t-0.5 -16.5t-22.5 -27.5zM153 1056z
" />
    </font>
</defs>
</svg>
